  0
SECTION
  2
HEADER
  9
$ACADVER
  1
AC1027
  9
$ACADMAINTVER
 70
     8
  9
$DWGCODEPAGE
  3
ANSI_932
  9
$REQUIREDVERSIONS
160
                 0
  9
$LASTSAVEDBY
  1
akihiro
  9
$INSBASE
 10
0.0
 20
0.0
 30
0.0
  9
$EXTMIN
 10
14.95488517921439
 20
30.65743115527245
 30
0.0
  9
$EXTMAX
 10
212.4296967826412
 20
149.2119837112021
 30
0.0
  9
$LIMMIN
 10
0.0
 20
0.0
  9
$LIMMAX
 10
12.0
 20
9.0
  9
$ORTHOMODE
 70
     0
  9
$REGENMODE
 70
     1
  9
$FILLMODE
 70
     1
  9
$QTEXTMODE
 70
     0
  9
$MIRRTEXT
 70
     0
  9
$LTSCALE
 40
1.0
  9
$ATTMODE
 70
     1
  9
$TEXTSIZE
 40
0.2
  9
$TRACEWID
 40
0.05
  9
$TEXTSTYLE
  7
Standard
  9
$CLAYER
  8
0
  9
$CELTYPE
  6
ByLayer
  9
$CECOLOR
 62
   256
  9
$CELTSCALE
 40
1.0
  9
$DISPSILH
 70
     0
  9
$DIMSCALE
 40
1.0
  9
$DIMASZ
 40
0.18
  9
$DIMEXO
 40
0.0625
  9
$DIMDLI
 40
0.38
  9
$DIMRND
 40
0.0
  9
$DIMDLE
 40
0.0
  9
$DIMEXE
 40
0.18
  9
$DIMTP
 40
0.0
  9
$DIMTM
 40
0.0
  9
$DIMTXT
 40
0.18
  9
$DIMCEN
 40
0.09
  9
$DIMTSZ
 40
0.0
  9
$DIMTOL
 70
     0
  9
$DIMLIM
 70
     0
  9
$DIMTIH
 70
     1
  9
$DIMTOH
 70
     1
  9
$DIMSE1
 70
     0
  9
$DIMSE2
 70
     0
  9
$DIMTAD
 70
     0
  9
$DIMZIN
 70
     0
  9
$DIMBLK
  1

  9
$DIMASO
 70
     1
  9
$DIMSHO
 70
     1
  9
$DIMPOST
  1

  9
$DIMAPOST
  1

  9
$DIMALT
 70
     0
  9
$DIMALTD
 70
     2
  9
$DIMALTF
 40
25.4
  9
$DIMLFAC
 40
1.0
  9
$DIMTOFL
 70
     0
  9
$DIMTVP
 40
0.0
  9
$DIMTIX
 70
     0
  9
$DIMSOXD
 70
     0
  9
$DIMSAH
 70
     0
  9
$DIMBLK1
  1

  9
$DIMBLK2
  1

  9
$DIMSTYLE
  2
Standard
  9
$DIMCLRD
 70
     0
  9
$DIMCLRE
 70
     0
  9
$DIMCLRT
 70
     0
  9
$DIMTFAC
 40
1.0
  9
$DIMGAP
 40
0.09
  9
$DIMJUST
 70
     0
  9
$DIMSD1
 70
     0
  9
$DIMSD2
 70
     0
  9
$DIMTOLJ
 70
     1
  9
$DIMTZIN
 70
     0
  9
$DIMALTZ
 70
     0
  9
$DIMALTTZ
 70
     0
  9
$DIMUPT
 70
     0
  9
$DIMDEC
 70
     4
  9
$DIMTDEC
 70
     4
  9
$DIMALTU
 70
     2
  9
$DIMALTTD
 70
     2
  9
$DIMTXSTY
  7
Standard
  9
$DIMAUNIT
 70
     0
  9
$DIMADEC
 70
     0
  9
$DIMALTRND
 40
0.0
  9
$DIMAZIN
 70
     0
  9
$DIMDSEP
 70
    46
  9
$DIMATFIT
 70
     3
  9
$DIMFRAC
 70
     0
  9
$DIMLDRBLK
  1

  9
$DIMLUNIT
 70
     2
  9
$DIMLWD
 70
    -2
  9
$DIMLWE
 70
    -2
  9
$DIMTMOVE
 70
     0
  9
$DIMFXL
 40
1.0
  9
$DIMFXLON
 70
     0
  9
$DIMJOGANG
 40
0.7853981633974483
  9
$DIMTFILL
 70
     0
  9
$DIMTFILLCLR
 70
     0
  9
$DIMARCSYM
 70
     0
  9
$DIMLTYPE
  6

  9
$DIMLTEX1
  6

  9
$DIMLTEX2
  6

  9
$DIMTXTDIRECTION
 70
     0
  9
$LUNITS
 70
     2
  9
$LUPREC
 70
     4
  9
$SKETCHINC
 40
0.1
  9
$FILLETRAD
 40
0.0
  9
$AUNITS
 70
     0
  9
$AUPREC
 70
     0
  9
$MENU
  1
.
  9
$ELEVATION
 40
0.0
  9
$PELEVATION
 40
0.0
  9
$THICKNESS
 40
0.0
  9
$LIMCHECK
 70
     0
  9
$CHAMFERA
 40
0.0
  9
$CHAMFERB
 40
0.0
  9
$CHAMFERC
 40
0.0
  9
$CHAMFERD
 40
0.0
  9
$SKPOLY
 70
     0
  9
$TDCREATE
 40
2452643.438384271
  9
$TDUCREATE
 40
2452643.063384271
  9
$TDUPDATE
 40
2456756.730928507
  9
$TDUUPDATE
 40
2456756.355928507
  9
$TDINDWG
 40
0.0052128588
  9
$TDUSRTIMER
 40
2456756.354662812
  9
$USRTIMER
 70
     1
  9
$ANGBASE
 50
0.0
  9
$ANGDIR
 70
     0
  9
$PDMODE
 70
     0
  9
$PDSIZE
 40
0.0
  9
$PLINEWID
 40
0.0
  9
$SPLFRAME
 70
     0
  9
$SPLINETYPE
 70
     6
  9
$SPLINESEGS
 70
     8
  9
$HANDSEED
  5
4D6
  9
$SURFTAB1
 70
     6
  9
$SURFTAB2
 70
     6
  9
$SURFTYPE
 70
     6
  9
$SURFU
 70
     6
  9
$SURFV
 70
     6
  9
$UCSBASE
  2

  9
$UCSNAME
  2

  9
$UCSORG
 10
0.0
 20
0.0
 30
0.0
  9
$UCSXDIR
 10
1.0
 20
0.0
 30
0.0
  9
$UCSYDIR
 10
0.0
 20
1.0
 30
0.0
  9
$UCSORTHOREF
  2

  9
$UCSORTHOVIEW
 70
     0
  9
$UCSORGTOP
 10
0.0
 20
0.0
 30
0.0
  9
$UCSORGBOTTOM
 10
0.0
 20
0.0
 30
0.0
  9
$UCSORGLEFT
 10
0.0
 20
0.0
 30
0.0
  9
$UCSORGRIGHT
 10
0.0
 20
0.0
 30
0.0
  9
$UCSORGFRONT
 10
0.0
 20
0.0
 30
0.0
  9
$UCSORGBACK
 10
0.0
 20
0.0
 30
0.0
  9
$PUCSBASE
  2

  9
$PUCSNAME
  2

  9
$PUCSORG
 10
0.0
 20
0.0
 30
0.0
  9
$PUCSXDIR
 10
1.0
 20
0.0
 30
0.0
  9
$PUCSYDIR
 10
0.0
 20
1.0
 30
0.0
  9
$PUCSORTHOREF
  2

  9
$PUCSORTHOVIEW
 70
     0
  9
$PUCSORGTOP
 10
0.0
 20
0.0
 30
0.0
  9
$PUCSORGBOTTOM
 10
0.0
 20
0.0
 30
0.0
  9
$PUCSORGLEFT
 10
0.0
 20
0.0
 30
0.0
  9
$PUCSORGRIGHT
 10
0.0
 20
0.0
 30
0.0
  9
$PUCSORGFRONT
 10
0.0
 20
0.0
 30
0.0
  9
$PUCSORGBACK
 10
0.0
 20
0.0
 30
0.0
  9
$USERI1
 70
     0
  9
$USERI2
 70
     0
  9
$USERI3
 70
     0
  9
$USERI4
 70
     0
  9
$USERI5
 70
     0
  9
$USERR1
 40
0.0
  9
$USERR2
 40
0.0
  9
$USERR3
 40
0.0
  9
$USERR4
 40
0.0
  9
$USERR5
 40
0.0
  9
$WORLDVIEW
 70
     1
  9
$SHADEDGE
 70
     3
  9
$SHADEDIF
 70
    70
  9
$TILEMODE
 70
     1
  9
$MAXACTVP
 70
    64
  9
$PINSBASE
 10
0.0
 20
0.0
 30
0.0
  9
$PLIMCHECK
 70
     0
  9
$PEXTMIN
 10
0.0
 20
0.0
 30
0.0
  9
$PEXTMAX
 10
0.0
 20
0.0
 30
0.0
  9
$PLIMMIN
 10
-0.5694444444444445
 20
-0.25
  9
$PLIMMAX
 10
11.125
 20
8.013888888888891
  9
$UNITMODE
 70
     0
  9
$VISRETAIN
 70
     1
  9
$PLINEGEN
 70
     0
  9
$PSLTSCALE
 70
     1
  9
$TREEDEPTH
 70
  3020
  9
$CMLSTYLE
  2
Standard
  9
$CMLJUST
 70
     0
  9
$CMLSCALE
 40
1.0
  9
$PROXYGRAPHICS
 70
     1
  9
$MEASUREMENT
 70
     0
  9
$CELWEIGHT
370
    -1
  9
$ENDCAPS
280
     0
  9
$JOINSTYLE
280
     0
  9
$LWDISPLAY
290
     0
  9
$INSUNITS
 70
     1
  9
$HYPERLINKBASE
  1

  9
$STYLESHEET
  1

  9
$XEDIT
290
     1
  9
$CEPSNTYPE
380
     0
  9
$PSTYLEMODE
290
     1
  9
$FINGERPRINTGUID
  2
{FDEAD576-A652-11D2-9A35-0060089B3A3F}
  9
$VERSIONGUID
  2
{FBC2AE19-5C5C-49EC-81BC-71B1A3362A02}
  9
$EXTNAMES
290
     1
  9
$PSVPSCALE
 40
0.0
  9
$OLESTARTUP
290
     0
  9
$SORTENTS
280
   127
  9
$INDEXCTL
280
     0
  9
$HIDETEXT
280
     1
  9
$XCLIPFRAME
280
     0
  9
$HALOGAP
280
     0
  9
$OBSCOLOR
 70
   257
  9
$OBSLTYPE
280
     0
  9
$INTERSECTIONDISPLAY
280
     0
  9
$INTERSECTIONCOLOR
 70
   257
  9
$DIMASSOC
280
     2
  9
$PROJECTNAME
  1

  9
$CAMERADISPLAY
290
     0
  9
$LENSLENGTH
 40
50.0
  9
$CAMERAHEIGHT
 40
0.0
  9
$STEPSPERSEC
 40
2.0
  9
$STEPSIZE
 40
6.0
  9
$3DDWFPREC
 40
2.0
  9
$PSOLWIDTH
 40
0.25
  9
$PSOLHEIGHT
 40
4.0
  9
$LOFTANG1
 40
1.570796326794897
  9
$LOFTANG2
 40
1.570796326794897
  9
$LOFTMAG1
 40
0.0
  9
$LOFTMAG2
 40
0.0
  9
$LOFTPARAM
 70
     7
  9
$LOFTNORMALS
280
     1
  9
$LATITUDE
 40
37.795
  9
$LONGITUDE
 40
-122.394
  9
$NORTHDIRECTION
 40
0.0
  9
$TIMEZONE
 70
 -8000
  9
$LIGHTGLYPHDISPLAY
280
     1
  9
$TILEMODELIGHTSYNCH
280
     1
  9
$CMATERIAL
347
96
  9
$SOLIDHIST
280
     1
  9
$SHOWHIST
280
     1
  9
$DWFFRAME
280
     2
  9
$DGNFRAME
280
     0
  9
$REALWORLDSCALE
290
     1
  9
$INTERFERECOLOR
 62
     1
  9
$CSHADOW
280
     0
  9
$SHADOWPLANELOCATION
 40
0.0
  0
ENDSEC
  0
SECTION
  2
CLASSES
  0
CLASS
  1
ACDBDICTIONARYWDFLT
  2
AcDbDictionaryWithDefault
  3
ObjectDBX Classes
 90
        0
 91
        7
280
     0
281
     0
  0
CLASS
  1
ACDBPLACEHOLDER
  2
AcDbPlaceHolder
  3
ObjectDBX Classes
 90
        0
 91
        1
280
     0
281
     0
  0
CLASS
  1
LAYOUT
  2
AcDbLayout
  3
ObjectDBX Classes
 90
        0
 91
        1
280
     0
281
     0
  0
CLASS
  1
DICTIONARYVAR
  2
AcDbDictionaryVar
  3
ObjectDBX Classes
 90
        0
 91
        5
280
     0
281
     0
  0
CLASS
  1
TABLESTYLE
  2
AcDbTableStyle
  3
ObjectDBX Classes
 90
     4095
 91
        7
280
     0
281
     0
  0
CLASS
  1
MATERIAL
  2
AcDbMaterial
  3
ObjectDBX Classes
 90
     1153
 91
        7
280
     0
281
     0
  0
CLASS
  1
VISUALSTYLE
  2
AcDbVisualStyle
  3
ObjectDBX Classes
 90
     4095
 91
        7
280
     0
281
     0
  0
CLASS
  1
SCALE
  2
AcDbScale
  3
ObjectDBX Classes
 90
     1153
 91
        7
280
     0
281
     0
  0
CLASS
  1
CELLSTYLEMAP
  2
AcDbCellStyleMap
  3
ObjectDBX Classes
 90
     1152
 91
        5
280
     0
281
     0
  0
CLASS
  1
RASTERVARIABLES
  2
AcDbRasterVariables
  3
ISM
 90
        0
 91
        7
280
     0
281
     0
  0
CLASS
  1
SUN
  2
AcDbSun
  3
SCENEOE
 90
     1153
 91
        7
280
     0
281
     0
  0
CLASS
  1
DIMASSOC
  2
AcDbDimAssoc
  3
"AcDbDimAssoc|Product Desc:     AcDim ARX App For Dimension|Company:          Autodesk, Inc.|WEB Address:      www.autodesk.com"
 90
        0
 91
        5
280
     0
281
     0
  0
ENDSEC
  0
SECTION
  2
TABLES
  0
TABLE
  2
VPORT
  5
8
330
0
100
AcDbSymbolTable
 70
     1
  0
VPORT
  5
94
330
8
100
AcDbSymbolTableRecord
100
AcDbViewportTableRecord
  2
*Active
 70
     0
 10
0.0
 20
0.0
 11
1.0
 21
1.0
 12
141.3618845469076
 22
109.4734103910993
 13
0.0
 23
0.0
 14
0.5
 24
0.5
 15
0.5
 25
0.5
 16
0.0
 26
0.0
 36
1.0
 17
-27.66959356597982
 27
-19.53870295786203
 37
0.0
 40
182.7206221079136
 41
1.102362204724409
 42
50.0
 43
0.0
 44
0.0
 50
0.0
 51
0.0
 71
    16
 72
  1000
 73
     1
 74
     3
 75
     0
 76
     0
 77
     0
 78
     0
281
     0
 65
     1
110
0.0
120
0.0
130
0.0
111
1.0
121
0.0
131
0.0
112
0.0
122
1.0
132
0.0
 79
     0
146
0.0
348
9F
 60
     2
 61
     5
292
     1
282
     1
141
0.0
142
0.0
 63
   250
421
  3355443
361
ED
  0
ENDTAB
  0
TABLE
  2
LTYPE
  5
5
330
0
100
AcDbSymbolTable
 70
     2
  0
LTYPE
  5
14
330
5
100
AcDbSymbolTableRecord
100
AcDbLinetypeTableRecord
  2
ByBlock
 70
     0
  3

 72
    65
 73
     0
 40
0.0
  0
LTYPE
  5
15
330
5
100
AcDbSymbolTableRecord
100
AcDbLinetypeTableRecord
  2
ByLayer
 70
     0
  3

 72
    65
 73
     0
 40
0.0
  0
LTYPE
  5
16
330
5
100
AcDbSymbolTableRecord
100
AcDbLinetypeTableRecord
  2
Continuous
 70
     0
  3
Solid line
 72
    65
 73
     0
 40
0.0
  0
LTYPE
  5
12A
330
5
100
AcDbSymbolTableRecord
100
AcDbLinetypeTableRecord
  2
CENTER
 70
     0
  3
Center ____ _ ____ _ ____ _ ____ _ ____ _ ____
 72
    65
 73
     4
 40
50.8
 49
31.75
 74
     0
 49
-6.35
 74
     0
 49
6.35
 74
     0
 49
-6.35
 74
     0
  0
ENDTAB
  0
TABLE
  2
LAYER
  5
2
330
0
100
AcDbSymbolTable
 70
     5
  0
LAYER
  5
10
330
2
100
AcDbSymbolTableRecord
100
AcDbLayerTableRecord
  2
0
 70
     0
 62
     7
  6
Continuous
370
    -3
390
F
347
98
348
0
  0
LAYER
  5
125
330
2
100
AcDbSymbolTableRecord
100
AcDbLayerTableRecord
  2
Defpoints
 70
     0
 62
     7
  6
Continuous
290
     0
370
    -3
390
F
347
98
348
0
  0
LAYER
  5
126
102
{ACAD_XDICTIONARY
360
127
102
}
330
2
100
AcDbSymbolTableRecord
100
AcDbLayerTableRecord
  2
中心線
 70
     0
 62
     7
  6
CENTER
370
    15
390
F
347
98
348
0
  0
LAYER
  5
12B
102
{ACAD_XDICTIONARY
360
12C
102
}
330
2
100
AcDbSymbolTableRecord
100
AcDbLayerTableRecord
  2
実線
 70
     0
 62
     7
  6
Continuous
370
    25
390
F
347
98
348
0
  0
LAYER
  5
12E
102
{ACAD_XDICTIONARY
360
12F
102
}
330
2
100
AcDbSymbolTableRecord
100
AcDbLayerTableRecord
  2
文字・寸法線
 70
     0
 62
     7
  6
Continuous
370
    13
390
F
347
98
348
0
  0
ENDTAB
  0
TABLE
  2
STYLE
  5
3
330
0
100
AcDbSymbolTable
 70
     1
  0
STYLE
  5
11
330
3
100
AcDbSymbolTableRecord
100
AcDbTextStyleTableRecord
  2
Standard
 70
     0
 40
0.0
 41
1.0
 50
0.0
 71
     0
 42
0.2
  3
arial.ttf
  4

1001
ACAD
1000
Arial
1071
        0
  0
ENDTAB
  0
TABLE
  2
VIEW
  5
6
330
0
100
AcDbSymbolTable
 70
     0
  0
ENDTAB
  0
TABLE
  2
UCS
  5
7
330
0
100
AcDbSymbolTable
 70
     0
  0
ENDTAB
  0
TABLE
  2
APPID
  5
9
330
0
100
AcDbSymbolTable
 70
     3
  0
APPID
  5
12
330
9
100
AcDbSymbolTableRecord
100
AcDbRegAppTableRecord
  2
ACAD
 70
     0
  0
APPID
  5
358
330
9
100
AcDbSymbolTableRecord
100
AcDbRegAppTableRecord
  2
ACAD_PSEXT
 70
     0
  0
APPID
  5
359
330
9
100
AcDbSymbolTableRecord
100
AcDbRegAppTableRecord
  2
ACAD_NAV_VCDISPLAY
 70
     0
  0
ENDTAB
  0
TABLE
  2
DIMSTYLE
  5
A
330
0
100
AcDbSymbolTable
 70
     2
100
AcDbDimStyleTable
  0
DIMSTYLE
105
27
330
A
100
AcDbSymbolTableRecord
100
AcDbDimStyleTableRecord
  2
Standard
 70
     0
178
     0
340
11
  0
DIMSTYLE
105
131
102
{ACAD_REACTORS
330
432
330
435
330
436
330
48E
330
491
102
}
330
A
100
AcDbSymbolTableRecord
100
AcDbDimStyleTableRecord
  2
ISO-25
 70
     0
 41
2.5
 42
0.625
 43
3.75
 44
0.5
 73
     0
 74
     0
 77
     1
 78
     8
140
3.0
141
2.5
143
0.03937007874016
147
0.625
171
     3
172
     1
178
     0
271
     2
272
     2
274
     3
283
     0
284
     8
340
11
  0
ENDTAB
  0
TABLE
  2
BLOCK_RECORD
  5
1
330
0
100
AcDbSymbolTable
 70
    21
  0
BLOCK_RECORD
  5
1F
330
1
100
AcDbSymbolTableRecord
100
AcDbBlockTableRecord
  2
*Model_Space
340
22
 70
     0
280
     1
281
     0
  0
BLOCK_RECORD
  5
58
330
1
100
AcDbSymbolTableRecord
100
AcDbBlockTableRecord
  2
*Paper_Space
340
59
 70
     0
280
     1
281
     0
  0
BLOCK_RECORD
  5
15C
330
1
100
AcDbSymbolTableRecord
100
AcDbBlockTableRecord
  2
*D0
340
0
 70
     0
280
     1
281
     0
  0
BLOCK_RECORD
  5
16B
330
1
100
AcDbSymbolTableRecord
100
AcDbBlockTableRecord
  2
*D1
340
0
 70
     0
280
     1
281
     0
  0
BLOCK_RECORD
  5
17A
330
1
100
AcDbSymbolTableRecord
100
AcDbBlockTableRecord
  2
*D2
340
0
 70
     0
280
     1
281
     0
  0
BLOCK_RECORD
  5
28B
330
1
100
AcDbSymbolTableRecord
100
AcDbBlockTableRecord
  2
*D3
340
0
 70
     0
280
     1
281
     0
  0
BLOCK_RECORD
  5
297
330
1
100
AcDbSymbolTableRecord
100
AcDbBlockTableRecord
  2
*D4
340
0
 70
     0
280
     1
281
     0
  0
BLOCK_RECORD
  5
2A3
330
1
100
AcDbSymbolTableRecord
100
AcDbBlockTableRecord
  2
*D5
340
0
 70
     0
280
     1
281
     0
  0
BLOCK_RECORD
  5
2C1
330
1
100
AcDbSymbolTableRecord
100
AcDbBlockTableRecord
  2
*D6
340
0
 70
     0
280
     1
281
     0
  0
BLOCK_RECORD
  5
2D1
330
1
100
AcDbSymbolTableRecord
100
AcDbBlockTableRecord
  2
*D7
340
0
 70
     0
280
     1
281
     0
  0
BLOCK_RECORD
  5
2E1
330
1
100
AcDbSymbolTableRecord
100
AcDbBlockTableRecord
  2
*D8
340
0
 70
     0
280
     1
281
     0
  0
BLOCK_RECORD
  5
2F1
330
1
100
AcDbSymbolTableRecord
100
AcDbBlockTableRecord
  2
*D9
340
0
 70
     0
280
     1
281
     0
  0
BLOCK_RECORD
  5
301
330
1
100
AcDbSymbolTableRecord
100
AcDbBlockTableRecord
  2
_DOT
340
0
 70
     0
280
     1
281
     0
  0
BLOCK_RECORD
  5
387
330
1
100
AcDbSymbolTableRecord
100
AcDbBlockTableRecord
  2
*D11
340
0
 70
     0
280
     1
281
     0
  0
BLOCK_RECORD
  5
394
330
1
100
AcDbSymbolTableRecord
100
AcDbBlockTableRecord
  2
*D12
340
0
 70
     0
280
     1
281
     0
  0
BLOCK_RECORD
  5
3A1
330
1
100
AcDbSymbolTableRecord
100
AcDbBlockTableRecord
  2
*D13
340
0
 70
     0
280
     1
281
     0
  0
BLOCK_RECORD
  5
407
330
1
100
AcDbSymbolTableRecord
100
AcDbBlockTableRecord
  2
*D14
340
0
 70
     0
280
     1
281
     0
  0
BLOCK_RECORD
  5
416
330
1
100
AcDbSymbolTableRecord
100
AcDbBlockTableRecord
  2
*D15
340
0
 70
     0
280
     1
281
     0
  0
BLOCK_RECORD
  5
494
330
1
100
AcDbSymbolTableRecord
100
AcDbBlockTableRecord
  2
*D16
340
0
 70
     0
280
     1
281
     0
  0
BLOCK_RECORD
  5
4A0
330
1
100
AcDbSymbolTableRecord
100
AcDbBlockTableRecord
  2
*D17
340
0
 70
     0
280
     1
281
     0
  0
BLOCK_RECORD
  5
4AC
330
1
100
AcDbSymbolTableRecord
100
AcDbBlockTableRecord
  2
*D18
340
0
 70
     0
280
     1
281
     0
  0
BLOCK_RECORD
  5
4B8
330
1
100
AcDbSymbolTableRecord
100
AcDbBlockTableRecord
  2
*D19
340
0
 70
     0
280
     1
281
     0
  0
BLOCK_RECORD
  5
4C4
330
1
100
AcDbSymbolTableRecord
100
AcDbBlockTableRecord
  2
*D20
340
0
 70
     0
280
     1
281
     0
  0
ENDTAB
  0
ENDSEC
  0
SECTION
  2
BLOCKS
  0
BLOCK
  5
20
330
1F
100
AcDbEntity
  8
0
100
AcDbBlockBegin
  2
*Model_Space
 70
     0
 10
0.0
 20
0.0
 30
0.0
  3
*Model_Space
  1
*Model_Space
  0
ENDBLK
  5
21
330
1F
100
AcDbEntity
  8
0
100
AcDbBlockEnd
  0
BLOCK
  5
5A
330
58
100
AcDbEntity
 67
     1
  8
0
100
AcDbBlockBegin
  2
*Paper_Space
 70
     0
 10
0.0
 20
0.0
 30
0.0
  3
*Paper_Space
  1
*Paper_Space
  0
ENDBLK
  5
5B
330
58
100
AcDbEntity
 67
     1
  8
0
100
AcDbBlockEnd
  0
BLOCK
  5
15D
330
15C
100
AcDbEntity
  8
0
 48
0.5
370
    25
100
AcDbBlockBegin
  2
*D0
 70
     1
 10
0.0
 20
0.0
 30
0.0
  3
*D0
  1
*D2
  0
LINE
  5
15E
330
15C
100
AcDbEntity
  8
文字・寸法線
 62
     0
 48
0.5
370
    -2
100
AcDbLine
 10
211.3085608366446
 20
52.99072334482156
 30
0.0
 11
203.6826938254571
 21
52.99072334482156
 31
0.0
  0
LINE
  5
15F
330
15C
100
AcDbEntity
  8
文字・寸法線
 62
     0
 48
0.5
370
    -2
100
AcDbLine
 10
212.8492881470838
 20
44.79072334482163
 30
0.0
 11
203.6826938254571
 21
44.79072334482163
 31
0.0
  0
LINE
  5
160
330
15C
100
AcDbEntity
  8
文字・寸法線
 62
     0
 48
0.5
370
    -2
100
AcDbLine
 10
204.1826938254571
 20
50.49072334482156
 30
0.0
 11
204.1826938254571
 21
47.29072334482163
 31
0.0
  0
SOLID
  5
161
330
15C
100
AcDbEntity
  8
文字・寸法線
 62
     0
100
AcDbTrace
 10
204.5993604921238
 20
50.49072334482156
 30
0.0
 11
203.7660271587905
 21
50.49072334482156
 31
0.0
 12
204.1826938254571
 22
52.99072334482156
 32
0.0
 13
204.1826938254571
 23
52.99072334482156
 33
0.0
  0
SOLID
  5
162
330
15C
100
AcDbEntity
  8
文字・寸法線
 62
     0
100
AcDbTrace
 10
203.7660271587905
 20
47.29072334482163
 30
0.0
 11
204.5993604921238
 21
47.29072334482163
 31
0.0
 12
204.1826938254571
 22
44.79072334482163
 32
0.0
 13
204.1826938254571
 23
44.79072334482163
 33
0.0
  0
MTEXT
  5
163
330
15C
100
AcDbEntity
  8
文字・寸法線
 62
     0
370
    25
100
AcDbMText
 10
202.0576938254571
 20
48.89072334482159
 30
0.0
 40
3.0
 41
0.0
 46
0.0
 71
     5
 72
     1
  1
T
 11
0.0
 21
1.0
 31
0.0
 73
     1
 44
1.0
  0
POINT
  5
164
330
15C
100
AcDbEntity
  8
Defpoints
 62
     0
100
AcDbPoint
 10
211.9335608366446
 20
52.99072334482156
 30
0.0
  0
POINT
  5
165
330
15C
100
AcDbEntity
  8
Defpoints
 62
     0
100
AcDbPoint
 10
213.4742881470838
 20
44.79072334482163
 30
0.0
  0
POINT
  5
166
330
15C
100
AcDbEntity
  8
Defpoints
 62
     0
100
AcDbPoint
 10
204.1826938254571
 20
44.79072334482163
 30
0.0
  0
ENDBLK
  5
167
330
15C
100
AcDbEntity
  8
0
 48
0.5
370
    25
100
AcDbBlockEnd
  0
BLOCK
  5
16C
330
16B
100
AcDbEntity
  8
0
 48
0.5
370
    25
100
AcDbBlockBegin
  2
*D1
 70
     1
 10
0.0
 20
0.0
 30
0.0
  3
*D1
  1
*D3
  0
LINE
  5
16D
330
16B
100
AcDbEntity
  8
文字・寸法線
 62
     0
 48
0.5
370
    -2
100
AcDbLine
 10
228.4335608366446
 20
45.16572334482163
 30
0.0
 11
228.4335608366446
 21
34.0267776586241
 31
0.0
  0
LINE
  5
16E
330
16B
100
AcDbEntity
  8
文字・寸法線
 62
     0
 48
0.5
370
    -2
100
AcDbLine
 10
278.4335608366446
 20
45.16572334482163
 30
0.0
 11
278.4335608366446
 21
34.0267776586241
 31
0.0
  0
LINE
  5
16F
330
16B
100
AcDbEntity
  8
文字・寸法線
 62
     0
 48
0.5
370
    -2
100
AcDbLine
 10
230.9335608366446
 20
34.5267776586241
 30
0.0
 11
275.9335608366446
 21
34.5267776586241
 31
0.0
  0
SOLID
  5
170
330
16B
100
AcDbEntity
  8
文字・寸法線
 62
     0
100
AcDbTrace
 10
230.9335608366446
 20
34.94344432529076
 30
0.0
 11
230.9335608366446
 21
34.11011099195743
 31
0.0
 12
228.4335608366446
 22
34.5267776586241
 32
0.0
 13
228.4335608366446
 23
34.5267776586241
 33
0.0
  0
SOLID
  5
171
330
16B
100
AcDbEntity
  8
文字・寸法線
 62
     0
100
AcDbTrace
 10
275.9335608366446
 20
34.11011099195743
 30
0.0
 11
275.9335608366446
 21
34.94344432529076
 31
0.0
 12
278.4335608366446
 22
34.5267776586241
 32
0.0
 13
278.4335608366446
 23
34.5267776586241
 33
0.0
  0
MTEXT
  5
172
330
16B
100
AcDbEntity
  8
文字・寸法線
 62
     0
370
    25
100
AcDbMText
 10
253.4335608366446
 20
36.73363304743719
 30
0.0
 40
3.0
 41
0.0
 46
0.0
 71
     5
 72
     1
  1
%%cB
 73
     1
 44
1.0
  0
POINT
  5
173
330
16B
100
AcDbEntity
  8
Defpoints
 62
     0
100
AcDbPoint
 10
228.4335608366446
 20
45.79072334482163
 30
0.0
  0
POINT
  5
174
330
16B
100
AcDbEntity
  8
Defpoints
 62
     0
100
AcDbPoint
 10
278.4335608366446
 20
45.79072334482163
 30
0.0
  0
POINT
  5
175
330
16B
100
AcDbEntity
  8
Defpoints
 62
     0
100
AcDbPoint
 10
278.4335608366446
 20
34.5267776586241
 30
0.0
  0
ENDBLK
  5
176
330
16B
100
AcDbEntity
  8
0
 48
0.5
370
    25
100
AcDbBlockEnd
  0
BLOCK
  5
17B
330
17A
100
AcDbEntity
  8
0
 48
0.5
370
    25
100
AcDbBlockBegin
  2
*D2
 70
     1
 10
0.0
 20
0.0
 30
0.0
  3
*D2
  1
*D4
  0
LINE
  5
17C
330
17A
100
AcDbEntity
  8
文字・寸法線
 62
     0
 48
0.5
370
    -2
100
AcDbLine
 10
225.9335608366446
 20
53.61572334482156
 30
0.0
 11
225.9335608366446
 21
64.04633181385071
 31
0.0
  0
LINE
  5
17D
330
17A
100
AcDbEntity
  8
文字・寸法線
 62
     0
 48
0.5
370
    -2
100
AcDbLine
 10
280.9335608366446
 20
53.61572334482156
 30
0.0
 11
280.9335608366446
 21
64.04633181385071
 31
0.0
  0
LINE
  5
17E
330
17A
100
AcDbEntity
  8
文字・寸法線
 62
     0
 48
0.5
370
    -2
100
AcDbLine
 10
228.4335608366446
 20
63.54633181385071
 30
0.0
 11
278.4335608366446
 21
63.54633181385071
 31
0.0
  0
SOLID
  5
17F
330
17A
100
AcDbEntity
  8
文字・寸法線
 62
     0
100
AcDbTrace
 10
228.4335608366446
 20
63.96299848051738
 30
0.0
 11
228.4335608366446
 21
63.12966514718405
 31
0.0
 12
225.9335608366446
 22
63.54633181385071
 32
0.0
 13
225.9335608366446
 23
63.54633181385071
 33
0.0
  0
SOLID
  5
180
330
17A
100
AcDbEntity
  8
文字・寸法線
 62
     0
100
AcDbTrace
 10
278.4335608366446
 20
63.12966514718405
 30
0.0
 11
278.4335608366446
 21
63.96299848051738
 31
0.0
 12
280.9335608366446
 22
63.54633181385071
 32
0.0
 13
280.9335608366446
 23
63.54633181385071
 33
0.0
  0
MTEXT
  5
181
330
17A
100
AcDbEntity
  8
文字・寸法線
 62
     0
370
    25
100
AcDbMText
 10
253.4335608366446
 20
65.7224914318589
 30
0.0
 40
3.0
 41
0.0
 46
0.0
 71
     5
 72
     1
  1
C
 73
     1
 44
1.0
  0
POINT
  5
182
330
17A
100
AcDbEntity
  8
Defpoints
 62
     0
100
AcDbPoint
 10
225.9335608366446
 20
52.99072334482156
 30
0.0
  0
POINT
  5
183
330
17A
100
AcDbEntity
  8
Defpoints
 62
     0
100
AcDbPoint
 10
280.9335608366446
 20
52.99072334482156
 30
0.0
  0
POINT
  5
184
330
17A
100
AcDbEntity
  8
Defpoints
 62
     0
100
AcDbPoint
 10
280.9335608366446
 20
63.54633181385071
 30
0.0
  0
ENDBLK
  5
185
330
17A
100
AcDbEntity
  8
0
 48
0.5
370
    25
100
AcDbBlockEnd
  0
BLOCK
  5
28C
330
28B
100
AcDbEntity
  8
0
100
AcDbBlockBegin
  2
*D3
 70
     1
 10
0.0
 20
0.0
 30
0.0
  3
*D3
  1
*D5
  0
LINE
  5
28E
330
28B
100
AcDbEntity
  8
文字・寸法線
 62
     0
 48
0.5
370
    -2
100
AcDbLine
 10
181.8198476028461
 20
103.1723162910909
 30
0.0
 11
174.1939805916586
 21
103.1723162910909
 31
0.0
  0
LINE
  5
28F
330
28B
100
AcDbEntity
  8
文字・寸法線
 62
     0
 48
0.5
370
    -2
100
AcDbLine
 10
183.3605749132853
 20
94.97231629109092
 30
0.0
 11
174.1939805916586
 21
94.97231629109092
 31
0.0
  0
LINE
  5
290
330
28B
100
AcDbEntity
  8
文字・寸法線
 62
     0
 48
0.5
370
    -2
100
AcDbLine
 10
174.6939805916586
 20
100.6723162910909
 30
0.0
 11
174.6939805916586
 21
97.47231629109092
 31
0.0
  0
SOLID
  5
291
330
28B
100
AcDbEntity
  8
文字・寸法線
 62
     0
100
AcDbTrace
 10
175.1106472583253
 20
100.6723162910909
 30
0.0
 11
174.277313924992
 21
100.6723162910909
 31
0.0
 12
174.6939805916586
 22
103.1723162910909
 32
0.0
 13
174.6939805916586
 23
103.1723162910909
 33
0.0
  0
SOLID
  5
292
330
28B
100
AcDbEntity
  8
文字・寸法線
 62
     0
100
AcDbTrace
 10
174.277313924992
 20
97.47231629109092
 30
0.0
 11
175.1106472583253
 21
97.47231629109092
 31
0.0
 12
174.6939805916586
 22
94.97231629109092
 32
0.0
 13
174.6939805916586
 23
94.97231629109092
 33
0.0
  0
MTEXT
  5
293
330
28B
100
AcDbEntity
  8
文字・寸法線
 62
     0
370
    25
100
AcDbMText
 10
172.5689805916586
 20
99.07231629109089
 30
0.0
 40
3.0
 41
0.0
 46
0.0
 71
     5
 72
     1
  1
T
 11
0.0
 21
1.0
 31
0.0
 73
     1
 44
1.0
  0
POINT
  5
294
330
28B
100
AcDbEntity
  8
Defpoints
 62
     0
100
AcDbPoint
 10
182.4448476028461
 20
103.1723162910909
 30
0.0
  0
POINT
  5
295
330
28B
100
AcDbEntity
  8
Defpoints
 62
     0
100
AcDbPoint
 10
183.9855749132853
 20
94.97231629109092
 30
0.0
  0
POINT
  5
296
330
28B
100
AcDbEntity
  8
Defpoints
 62
     0
100
AcDbPoint
 10
174.6939805916586
 20
94.97231629109092
 30
0.0
  0
ENDBLK
  5
28D
330
28B
100
AcDbEntity
  8
0
100
AcDbBlockEnd
  0
BLOCK
  5
298
330
297
100
AcDbEntity
  8
0
100
AcDbBlockBegin
  2
*D4
 70
     1
 10
0.0
 20
0.0
 30
0.0
  3
*D4
  1
*D6
  0
LINE
  5
29A
330
297
100
AcDbEntity
  8
文字・寸法線
 62
     0
 48
0.5
370
    -2
100
AcDbLine
 10
198.9448476028461
 20
95.34731629109092
 30
0.0
 11
198.9448476028461
 21
84.20837060489339
 31
0.0
  0
LINE
  5
29B
330
297
100
AcDbEntity
  8
文字・寸法線
 62
     0
 48
0.5
370
    -2
100
AcDbLine
 10
248.9448476028461
 20
95.34731629109092
 30
0.0
 11
248.9448476028461
 21
84.20837060489339
 31
0.0
  0
LINE
  5
29C
330
297
100
AcDbEntity
  8
文字・寸法線
 62
     0
 48
0.5
370
    -2
100
AcDbLine
 10
201.4448476028461
 20
84.70837060489339
 30
0.0
 11
246.4448476028461
 21
84.70837060489339
 31
0.0
  0
SOLID
  5
29D
330
297
100
AcDbEntity
  8
文字・寸法線
 62
     0
100
AcDbTrace
 10
201.4448476028461
 20
85.12503727156006
 30
0.0
 11
201.4448476028461
 21
84.29170393822672
 31
0.0
 12
198.9448476028461
 22
84.70837060489339
 32
0.0
 13
198.9448476028461
 23
84.70837060489339
 33
0.0
  0
SOLID
  5
29E
330
297
100
AcDbEntity
  8
文字・寸法線
 62
     0
100
AcDbTrace
 10
246.4448476028461
 20
84.29170393822672
 30
0.0
 11
246.4448476028461
 21
85.12503727156006
 31
0.0
 12
248.9448476028461
 22
84.70837060489339
 32
0.0
 13
248.9448476028461
 23
84.70837060489339
 33
0.0
  0
MTEXT
  5
29F
330
297
100
AcDbEntity
  8
文字・寸法線
 62
     0
370
    25
100
AcDbMText
 10
223.9448476028461
 20
86.91522599370649
 30
0.0
 40
3.0
 41
0.0
 46
0.0
 71
     5
 72
     1
  1
%%cB
 73
     1
 44
1.0
  0
POINT
  5
2A0
330
297
100
AcDbEntity
  8
Defpoints
 62
     0
100
AcDbPoint
 10
198.9448476028461
 20
95.97231629109092
 30
0.0
  0
POINT
  5
2A1
330
297
100
AcDbEntity
  8
Defpoints
 62
     0
100
AcDbPoint
 10
248.9448476028461
 20
95.97231629109092
 30
0.0
  0
POINT
  5
2A2
330
297
100
AcDbEntity
  8
Defpoints
 62
     0
100
AcDbPoint
 10
248.9448476028461
 20
84.70837060489339
 30
0.0
  0
ENDBLK
  5
299
330
297
100
AcDbEntity
  8
0
100
AcDbBlockEnd
  0
BLOCK
  5
2A4
330
2A3
100
AcDbEntity
  8
0
100
AcDbBlockBegin
  2
*D5
 70
     1
 10
0.0
 20
0.0
 30
0.0
  3
*D5
  1
*D7
  0
LINE
  5
2A6
330
2A3
100
AcDbEntity
  8
文字・寸法線
 62
     0
 48
0.5
370
    -2
100
AcDbLine
 10
196.4448476028461
 20
103.7973162910909
 30
0.0
 11
196.4448476028461
 21
114.22792476012
 31
0.0
  0
LINE
  5
2A7
330
2A3
100
AcDbEntity
  8
文字・寸法線
 62
     0
 48
0.5
370
    -2
100
AcDbLine
 10
251.4448476028461
 20
103.7973162910909
 30
0.0
 11
251.4448476028461
 21
114.22792476012
 31
0.0
  0
LINE
  5
2A8
330
2A3
100
AcDbEntity
  8
文字・寸法線
 62
     0
 48
0.5
370
    -2
100
AcDbLine
 10
198.9448476028461
 20
113.72792476012
 30
0.0
 11
248.9448476028461
 21
113.72792476012
 31
0.0
  0
SOLID
  5
2A9
330
2A3
100
AcDbEntity
  8
文字・寸法線
 62
     0
100
AcDbTrace
 10
198.9448476028461
 20
114.1445914267867
 30
0.0
 11
198.9448476028461
 21
113.3112580934533
 31
0.0
 12
196.4448476028461
 22
113.72792476012
 32
0.0
 13
196.4448476028461
 23
113.72792476012
 33
0.0
  0
SOLID
  5
2AA
330
2A3
100
AcDbEntity
  8
文字・寸法線
 62
     0
100
AcDbTrace
 10
248.9448476028461
 20
113.3112580934533
 30
0.0
 11
248.9448476028461
 21
114.1445914267867
 31
0.0
 12
251.4448476028461
 22
113.72792476012
 32
0.0
 13
251.4448476028461
 23
113.72792476012
 33
0.0
  0
MTEXT
  5
2AB
330
2A3
100
AcDbEntity
  8
文字・寸法線
 62
     0
370
    25
100
AcDbMText
 10
223.9448476028461
 20
115.9040843781282
 30
0.0
 40
3.0
 41
0.0
 46
0.0
 71
     5
 72
     1
  1
C
 73
     1
 44
1.0
  0
POINT
  5
2AC
330
2A3
100
AcDbEntity
  8
Defpoints
 62
     0
100
AcDbPoint
 10
196.4448476028461
 20
103.1723162910909
 30
0.0
  0
POINT
  5
2AD
330
2A3
100
AcDbEntity
  8
Defpoints
 62
     0
100
AcDbPoint
 10
251.4448476028461
 20
103.1723162910909
 30
0.0
  0
POINT
  5
2AE
330
2A3
100
AcDbEntity
  8
Defpoints
 62
     0
100
AcDbPoint
 10
251.4448476028461
 20
113.72792476012
 30
0.0
  0
ENDBLK
  5
2A5
330
2A3
100
AcDbEntity
  8
0
100
AcDbBlockEnd
  0
BLOCK
  5
2C2
330
2C1
100
AcDbEntity
  8
0
100
AcDbBlockBegin
  2
*D6
 70
     1
 10
0.0
 20
0.0
 30
0.0
  3
*D6
  1
*D6
  0
LINE
  5
2C4
330
2C1
100
AcDbEntity
  8
文字・寸法線
 62
     0
370
    -2
100
AcDbLine
 10
28.64661352324908
 20
90.13492575878851
 30
0.0
 11
28.64661352324909
 21
26.769473832513
 31
0.0
  0
LINE
  5
2C5
330
2C1
100
AcDbEntity
  8
文字・寸法線
 62
     0
370
    -2
100
AcDbLine
 10
96.19411510451626
 20
90.13492575878851
 30
0.0
 11
96.19411510451626
 21
26.769473832513
 31
0.0
  0
LINE
  5
2C6
330
2C1
100
AcDbEntity
  8
文字・寸法線
 62
     0
370
    -2
100
AcDbLine
 10
30.64661352324909
 20
27.769473832513
 30
0.0
 11
94.19411510451626
 21
27.769473832513
 31
0.0
  0
SOLID
  5
2C7
330
2C1
100
AcDbEntity
  8
文字・寸法線
 62
     0
100
AcDbTrace
 10
30.64661352324909
 20
28.10280716584633
 30
0.0
 11
30.64661352324909
 21
27.43614049917967
 31
0.0
 12
28.64661352324909
 22
27.769473832513
 32
0.0
 13
28.64661352324909
 23
27.769473832513
 33
0.0
  0
SOLID
  5
2C8
330
2C1
100
AcDbEntity
  8
文字・寸法線
 62
     0
100
AcDbTrace
 10
94.19411510451626
 20
27.43614049917967
 30
0.0
 11
94.19411510451626
 21
28.10280716584633
 31
0.0
 12
96.19411510451626
 22
27.769473832513
 32
0.0
 13
96.19411510451626
 23
27.769473832513
 33
0.0
  0
MTEXT
  5
2C9
330
2C1
100
AcDbEntity
  8
文字・寸法線
 62
     0
100
AcDbMText
 10
62.42036431388267
 20
30.501973832513
 30
0.0
 40
5.0
 41
0.0
 46
0.0
 71
     5
 72
     1
  1
\A1;%%c67.5
 73
     1
 44
1.0
  0
POINT
  5
2CA
330
2C1
100
AcDbEntity
  8
Defpoints
 62
     0
100
AcDbPoint
 10
28.64661352324908
 20
91.13492575878851
 30
0.0
  0
POINT
  5
2CB
330
2C1
100
AcDbEntity
  8
Defpoints
 62
     0
100
AcDbPoint
 10
96.19411510451626
 20
91.13492575878851
 30
0.0
  0
POINT
  5
2CC
330
2C1
100
AcDbEntity
  8
Defpoints
 62
     0
100
AcDbPoint
 10
96.19411510451626
 20
27.769473832513
 30
0.0
  0
ENDBLK
  5
2C3
330
2C1
100
AcDbEntity
  8
0
100
AcDbBlockEnd
  0
BLOCK
  5
2D2
330
2D1
100
AcDbEntity
  8
0
100
AcDbBlockBegin
  2
*D7
 70
     1
 10
0.0
 20
0.0
 30
0.0
  3
*D7
  1
*D7
  0
LINE
  5
2D4
330
2D1
100
AcDbEntity
  8
文字・寸法線
 62
     0
370
    -2
100
AcDbLine
 10
147.5652972850278
 20
90.69648244580537
 30
0.0
 11
147.5652972850278
 21
60.6250820080779
 31
0.0
  0
LINE
  5
2D5
330
2D1
100
AcDbEntity
  8
文字・寸法線
 62
     0
370
    -2
100
AcDbLine
 10
188.2565632978394
 20
90.69648244580537
 30
0.0
 11
188.2565632978394
 21
60.6250820080779
 31
0.0
  0
LINE
  5
2D6
330
2D1
100
AcDbEntity
  8
文字・寸法線
 62
     0
370
    -2
100
AcDbLine
 10
149.5652972850278
 20
60.8050820080779
 30
0.0
 11
186.2565632978394
 21
60.8050820080779
 31
0.0
  0
SOLID
  5
2D7
330
2D1
100
AcDbEntity
  8
文字・寸法線
 62
     0
100
AcDbTrace
 10
149.5652972850278
 20
61.13841534141124
 30
0.0
 11
149.5652972850278
 21
60.47174867474457
 31
0.0
 12
147.5652972850278
 22
60.8050820080779
 32
0.0
 13
147.5652972850278
 23
60.8050820080779
 33
0.0
  0
SOLID
  5
2D8
330
2D1
100
AcDbEntity
  8
文字・寸法線
 62
     0
100
AcDbTrace
 10
186.2565632978394
 20
60.47174867474457
 30
0.0
 11
186.2565632978394
 21
61.13841534141124
 31
0.0
 12
188.2565632978394
 22
60.8050820080779
 32
0.0
 13
188.2565632978394
 23
60.8050820080779
 33
0.0
  0
MTEXT
  5
2D9
330
2D1
100
AcDbEntity
  8
文字・寸法線
 62
     0
100
AcDbMText
 10
167.9109302914336
 20
63.4475820080779
 30
0.0
 40
5.0
 41
0.0
 46
0.0
 71
     5
 72
     1
  1
\A1;40.7
 73
     1
 44
1.0
  0
POINT
  5
2DA
330
2D1
100
AcDbEntity
  8
Defpoints
 62
     0
100
AcDbPoint
 10
147.5652972850278
 20
90.75898244580537
 30
0.0
  0
POINT
  5
2DB
330
2D1
100
AcDbEntity
  8
Defpoints
 62
     0
100
AcDbPoint
 10
188.2565632978394
 20
90.75898244580537
 30
0.0
  0
POINT
  5
2DC
330
2D1
100
AcDbEntity
  8
Defpoints
 62
     0
100
AcDbPoint
 10
188.2565632978394
 20
60.8050820080779
 30
0.0
  0
ENDBLK
  5
2D3
330
2D1
100
AcDbEntity
  8
0
100
AcDbBlockEnd
  0
BLOCK
  5
2E2
330
2E1
100
AcDbEntity
  8
0
100
AcDbBlockBegin
  2
*D8
 70
     1
 10
0.0
 20
0.0
 30
0.0
  3
*D8
  1
*D8
  0
LINE
  5
2E4
330
2E1
100
AcDbEntity
  8
文字・寸法線
 62
     0
370
    -2
100
AcDbLine
 10
145.5307339843873
 20
96.47007480108687
 30
0.0
 11
145.5307339843873
 21
123.2290022900874
 31
0.0
  0
LINE
  5
2E5
330
2E1
100
AcDbEntity
  8
文字・寸法線
 62
     0
370
    -2
100
AcDbLine
 10
190.29112659848
 20
96.6810247516502
 30
0.0
 11
190.29112659848
 21
123.2290022900874
 31
0.0
  0
LINE
  5
2E6
330
2E1
100
AcDbEntity
  8
文字・寸法線
 62
     0
370
    -2
100
AcDbLine
 10
147.5307339843873
 20
123.0490022900874
 30
0.0
 11
188.29112659848
 21
123.0490022900874
 31
0.0
  0
SOLID
  5
2E7
330
2E1
100
AcDbEntity
  8
文字・寸法線
 62
     0
100
AcDbTrace
 10
147.5307339843873
 20
123.3823356234207
 30
0.0
 11
147.5307339843873
 21
122.7156689567541
 31
0.0
 12
145.5307339843873
 22
123.0490022900874
 32
0.0
 13
145.5307339843873
 23
123.0490022900874
 33
0.0
  0
SOLID
  5
2E8
330
2E1
100
AcDbEntity
  8
文字・寸法線
 62
     0
100
AcDbTrace
 10
188.29112659848
 20
122.7156689567541
 30
0.0
 11
188.29112659848
 21
123.3823356234207
 31
0.0
 12
190.29112659848
 22
123.0490022900874
 32
0.0
 13
190.29112659848
 23
123.0490022900874
 33
0.0
  0
MTEXT
  5
2E9
330
2E1
100
AcDbEntity
  8
文字・寸法線
 62
     0
100
AcDbMText
 10
167.9109302914337
 20
125.6915022900874
 30
0.0
 40
5.0
 41
0.0
 46
0.0
 71
     5
 72
     1
  1
\A1;44.8
 73
     1
 44
1.0
  0
POINT
  5
2EA
330
2E1
100
AcDbEntity
  8
Defpoints
 62
     0
100
AcDbPoint
 10
145.5307339843873
 20
96.40757480108687
 30
0.0
  0
POINT
  5
2EB
330
2E1
100
AcDbEntity
  8
Defpoints
 62
     0
100
AcDbPoint
 10
190.29112659848
 20
96.6185247516502
 30
0.0
  0
POINT
  5
2EC
330
2E1
100
AcDbEntity
  8
Defpoints
 62
     0
100
AcDbPoint
 10
190.29112659848
 20
123.0490022900874
 30
0.0
  0
ENDBLK
  5
2E3
330
2E1
100
AcDbEntity
  8
0
100
AcDbBlockEnd
  0
BLOCK
  5
2F2
330
2F1
100
AcDbEntity
  8
0
100
AcDbBlockBegin
  2
*D9
 70
     1
 10
0.0
 20
0.0
 30
0.0
  3
*D9
  1
*D9
  0
LINE
  5
2F4
330
2F1
100
AcDbEntity
  8
文字・寸法線
 62
     0
370
    -2
100
AcDbLine
 10
134.0746795008001
 20
96.6185247516502
 30
0.0
 11
120.2421653208062
 21
96.6185247516502
 31
0.0
  0
LINE
  5
2F5
330
2F1
100
AcDbEntity
  8
文字・寸法線
 62
     0
370
    -2
100
AcDbLine
 10
134.0746795008001
 20
90.75898244580537
 30
0.0
 11
120.2421653208062
 21
90.75898244580537
 31
0.0
  0
LINE
  5
2F6
330
2F1
100
AcDbEntity
  8
文字・寸法線
 62
     0
370
    -2
100
AcDbLine
 10
120.4221653208062
 20
94.6185247516502
 30
0.0
 11
120.4221653208062
 21
92.75898244580537
 31
0.0
  0
SOLID
  5
2F7
330
2F1
100
AcDbEntity
  8
文字・寸法線
 62
     0
100
AcDbTrace
 10
120.7554986541395
 20
94.6185247516502
 30
0.0
 11
120.0888319874728
 21
94.6185247516502
 31
0.0
 12
120.4221653208062
 22
96.6185247516502
 32
0.0
 13
120.4221653208062
 23
96.6185247516502
 33
0.0
  0
SOLID
  5
2F8
330
2F1
100
AcDbEntity
  8
文字・寸法線
 62
     0
100
AcDbTrace
 10
120.0888319874728
 20
92.75898244580537
 30
0.0
 11
120.7554986541395
 21
92.75898244580537
 31
0.0
 12
120.4221653208062
 22
90.75898244580537
 32
0.0
 13
120.4221653208062
 23
90.75898244580537
 33
0.0
  0
MTEXT
  5
2F9
330
2F1
100
AcDbEntity
  8
文字・寸法線
 62
     0
100
AcDbMText
 10
115.7721380356765
 20
93.68875359872779
 30
0.0
 40
5.0
 41
0.0
 46
0.0
 71
     5
 72
     1
  1
\A1;5.9
 73
     1
 44
1.0
  0
POINT
  5
2FA
330
2F1
100
AcDbEntity
  8
Defpoints
 62
     0
100
AcDbPoint
 10
134.1371795008001
 20
96.6185247516502
 30
0.0
  0
POINT
  5
2FB
330
2F1
100
AcDbEntity
  8
Defpoints
 62
     0
100
AcDbPoint
 10
134.1371795008001
 20
90.75898244580537
 30
0.0
  0
POINT
  5
2FC
330
2F1
100
AcDbEntity
  8
Defpoints
 62
     0
100
AcDbPoint
 10
120.4221653208062
 20
90.75898244580537
 30
0.0
  0
ENDBLK
  5
2F3
330
2F1
100
AcDbEntity
  8
0
100
AcDbBlockEnd
  0
BLOCK
  5
302
330
301
100
AcDbEntity
  8
0
100
AcDbBlockBegin
  2
_DOT
 70
     0
 10
0.0
 20
0.0
 30
0.0
  3
_DOT
  1
_DOT
  0
POLYLINE
  5
304
330
301
100
AcDbEntity
  8
0
  6
ByBlock
 62
     0
100
AcDb2dPolyline
 66
     1
 10
0.0
 20
0.0
 30
0.0
 70
     1
 40
0.5
 41
0.5
  0
VERTEX
  5
306
330
304
100
AcDbEntity
  8
0
  6
ByBlock
 62
     0
100
AcDbVertex
100
AcDb2dVertex
 10
-0.25
 20
0.0
 30
0.0
 42
1.0
  0
VERTEX
  5
307
330
304
100
AcDbEntity
  8
0
  6
ByBlock
 62
     0
100
AcDbVertex
100
AcDb2dVertex
 10
0.25
 20
0.0
 30
0.0
 42
1.0
  0
SEQEND
  5
308
330
304
100
AcDbEntity
  8
0
  6
ByBlock
 62
     0
  0
LINE
  5
305
330
301
100
AcDbEntity
  8
0
  6
ByBlock
 62
     0
370
    -2
100
AcDbLine
 10
-0.5
 20
0.0
 30
0.0
 11
-1.0
 21
0.0
 31
0.0
  0
ENDBLK
  5
303
330
301
100
AcDbEntity
  8
0
100
AcDbBlockEnd
  0
BLOCK
  5
388
330
387
100
AcDbEntity
  8
0
 48
0.5
370
    25
100
AcDbBlockBegin
  2
*D11
 70
     1
 10
0.0
 20
0.0
 30
0.0
  3
*D11
  1
*D12
  0
LINE
  5
389
330
387
100
AcDbEntity
  8
文字・寸法線
 62
     0
 48
0.5
370
    -2
100
AcDbLine
 10
129.3498116034268
 20
67.63782389842316
 30
0.0
 11
122.535407200224
 21
67.63782389842316
 31
0.0
  0
LINE
  5
38A
330
387
100
AcDbEntity
  8
文字・寸法線
 62
     0
 48
0.5
370
    -2
100
AcDbLine
 10
131.9682833750815
 20
59.43782389842318
 30
0.0
 11
122.535407200224
 21
59.43782389842318
 31
0.0
  0
LINE
  5
38B
330
387
100
AcDbEntity
  8
文字・寸法線
 62
     0
 48
0.5
370
    -2
100
AcDbLine
 10
123.035407200224
 20
65.13782389842316
 30
0.0
 11
123.035407200224
 21
61.93782389842318
 31
0.0
  0
SOLID
  5
38C
330
387
100
AcDbEntity
  8
文字・寸法線
 62
     0
100
AcDbTrace
 10
123.4520738668906
 20
65.13782389842316
 30
0.0
 11
122.6187405335573
 21
65.13782389842316
 31
0.0
 12
123.035407200224
 22
67.63782389842316
 32
0.0
 13
123.035407200224
 23
67.63782389842316
 33
0.0
  0
SOLID
  5
38D
330
387
100
AcDbEntity
  8
文字・寸法線
 62
     0
100
AcDbTrace
 10
122.6187405335573
 20
61.93782389842318
 30
0.0
 11
123.4520738668906
 21
61.93782389842318
 31
0.0
 12
123.035407200224
 22
59.43782389842318
 32
0.0
 13
123.035407200224
 23
59.43782389842318
 33
0.0
  0
MTEXT
  5
38E
330
387
100
AcDbEntity
  8
文字・寸法線
 62
     0
370
    25
100
AcDbMText
 10
120.878907200224
 20
64.17623366904161
 30
0.0
 40
3.0
 41
0.0
 46
0.0
 71
     5
 72
     1
  1
8.2
 11
0.0
 21
1.0
 31
0.0
 73
     1
 44
1.0
  0
POINT
  5
38F
330
387
100
AcDbEntity
  8
Defpoints
 62
     0
100
AcDbPoint
 10
129.9748116034268
 20
67.63782389842316
 30
0.0
  0
POINT
  5
390
330
387
100
AcDbEntity
  8
Defpoints
 62
     0
100
AcDbPoint
 10
132.5932833750815
 20
59.43782389842318
 30
0.0
  0
POINT
  5
391
330
387
100
AcDbEntity
  8
Defpoints
 62
     0
100
AcDbPoint
 10
123.0354072002239
 20
59.43782389842318
 30
0.0
  0
ENDBLK
  5
392
330
387
100
AcDbEntity
  8
0
 48
0.5
370
    25
100
AcDbBlockEnd
  0
BLOCK
  5
395
330
394
100
AcDbEntity
  8
0
 48
0.5
370
    25
100
AcDbBlockBegin
  2
*D12
 70
     1
 10
0.0
 20
0.0
 30
0.0
  3
*D12
  1
*D13
  0
LINE
  5
396
330
394
100
AcDbEntity
  8
文字・寸法線
 62
     0
 48
0.5
370
    -2
100
AcDbLine
 10
141.2248116034268
 20
55.59048338950186
 30
0.0
 11
141.2248116034268
 21
49.16505104696296
 31
0.0
  0
LINE
  5
397
330
394
100
AcDbEntity
  8
文字・寸法線
 62
     0
 48
0.5
370
    -2
100
AcDbLine
 10
186.2248116034268
 20
56.01586159356418
 30
0.0
 11
186.2248116034268
 21
49.16505104696296
 31
0.0
  0
LINE
  5
398
330
394
100
AcDbEntity
  8
文字・寸法線
 62
     0
 48
0.5
370
    -2
100
AcDbLine
 10
143.7248116034268
 20
49.66505104696296
 30
0.0
 11
183.7248116034268
 21
49.66505104696296
 31
0.0
  0
SOLID
  5
399
330
394
100
AcDbEntity
  8
文字・寸法線
 62
     0
100
AcDbTrace
 10
143.7248116034268
 20
50.08171771362962
 30
0.0
 11
143.7248116034268
 21
49.24838438029629
 31
0.0
 12
141.2248116034268
 22
49.66505104696296
 32
0.0
 13
141.2248116034268
 23
49.66505104696296
 33
0.0
  0
SOLID
  5
39A
330
394
100
AcDbEntity
  8
文字・寸法線
 62
     0
100
AcDbTrace
 10
183.7248116034268
 20
49.24838438029629
 30
0.0
 11
183.7248116034268
 21
50.08171771362962
 31
0.0
 12
186.2248116034268
 22
49.66505104696296
 32
0.0
 13
186.2248116034268
 23
49.66505104696296
 33
0.0
  0
MTEXT
  5
39B
330
394
100
AcDbEntity
  8
文字・寸法線
 62
     0
370
    25
100
AcDbMText
 10
163.7248116034268
 20
51.86955104696296
 30
0.0
 40
3.0
 41
0.0
 46
0.0
 71
     5
 72
     1
  1
%%c45
 73
     1
 44
1.0
  0
POINT
  5
39C
330
394
100
AcDbEntity
  8
Defpoints
 62
     0
100
AcDbPoint
 10
141.2248116034268
 20
56.21548338950186
 30
0.0
  0
POINT
  5
39D
330
394
100
AcDbEntity
  8
Defpoints
 62
     0
100
AcDbPoint
 10
186.2248116034268
 20
56.64086159356418
 30
0.0
  0
POINT
  5
39E
330
394
100
AcDbEntity
  8
Defpoints
 62
     0
100
AcDbPoint
 10
186.2248116034268
 20
49.66505104696296
 30
0.0
  0
ENDBLK
  5
39F
330
394
100
AcDbEntity
  8
0
 48
0.5
370
    25
100
AcDbBlockEnd
  0
BLOCK
  5
3A2
330
3A1
100
AcDbEntity
  8
0
 48
0.5
370
    25
100
AcDbBlockBegin
  2
*D13
 70
     1
 10
0.0
 20
0.0
 30
0.0
  3
*D13
  1
*D14
  0
LINE
  5
3A3
330
3A1
100
AcDbEntity
  8
文字・寸法線
 62
     0
 48
0.5
370
    -2
100
AcDbLine
 10
187.7248116034268
 20
68.26282389842316
 30
0.0
 11
187.7248116034268
 21
75.00569233943258
 31
0.0
  0
LINE
  5
3A4
330
3A1
100
AcDbEntity
  8
文字・寸法線
 62
     0
 48
0.5
370
    -2
100
AcDbLine
 10
139.7248116034268
 20
68.26282389842316
 30
0.0
 11
139.7248116034268
 21
75.00569233943258
 31
0.0
  0
LINE
  5
3A5
330
3A1
100
AcDbEntity
  8
文字・寸法線
 62
     0
 48
0.5
370
    -2
100
AcDbLine
 10
185.2248116034268
 20
74.50569233943258
 30
0.0
 11
142.2248116034268
 21
74.50569233943258
 31
0.0
  0
SOLID
  5
3A6
330
3A1
100
AcDbEntity
  8
文字・寸法線
 62
     0
100
AcDbTrace
 10
185.2248116034268
 20
74.08902567276591
 30
0.0
 11
185.2248116034268
 21
74.92235900609926
 31
0.0
 12
187.7248116034268
 22
74.50569233943258
 32
0.0
 13
187.7248116034268
 23
74.50569233943258
 33
0.0
  0
SOLID
  5
3A7
330
3A1
100
AcDbEntity
  8
文字・寸法線
 62
     0
100
AcDbTrace
 10
142.2248116034268
 20
74.92235900609926
 30
0.0
 11
142.2248116034268
 21
74.08902567276591
 31
0.0
 12
139.7248116034268
 22
74.50569233943258
 32
0.0
 13
139.7248116034268
 23
74.50569233943258
 33
0.0
  0
MTEXT
  5
3A8
330
3A1
100
AcDbEntity
  8
文字・寸法線
 62
     0
370
    25
100
AcDbMText
 10
163.7248116034268
 20
76.66219233943258
 30
0.0
 40
3.0
 41
0.0
 46
0.0
 71
     5
 72
     1
  1
48
 73
     1
 44
1.0
  0
POINT
  5
3A9
330
3A1
100
AcDbEntity
  8
Defpoints
 62
     0
100
AcDbPoint
 10
187.7248116034268
 20
67.63782389842316
 30
0.0
  0
POINT
  5
3AA
330
3A1
100
AcDbEntity
  8
Defpoints
 62
     0
100
AcDbPoint
 10
139.7248116034268
 20
67.63782389842316
 30
0.0
  0
POINT
  5
3AB
330
3A1
100
AcDbEntity
  8
Defpoints
 62
     0
100
AcDbPoint
 10
139.7248116034268
 20
74.50569233943258
 30
0.0
  0
ENDBLK
  5
3AC
330
3A1
100
AcDbEntity
  8
0
 48
0.5
370
    25
100
AcDbBlockEnd
  0
BLOCK
  5
408
330
407
100
AcDbEntity
  8
0
 48
0.5
370
    25
100
AcDbBlockBegin
  2
*D14
 70
     1
 10
0.0
 20
0.0
 30
0.0
  3
*D14
  1
*D15
  0
LINE
  5
409
330
407
100
AcDbEntity
  8
文字・寸法線
 62
     0
 48
0.5
370
    -2
100
AcDbLine
 10
8.38214683925321
 20
63.31282389842312
 30
0.0
 11
8.38214683925321
 21
0.0
 31
0.0
  0
LINE
  5
40A
330
407
100
AcDbEntity
  8
文字・寸法線
 62
     0
 48
0.5
370
    -2
100
AcDbLine
 10
75.88214683925321
 20
63.31282389842312
 30
0.0
 11
75.88214683925321
 21
0.0
 31
0.0
  0
LINE
  5
40B
330
407
100
AcDbEntity
  8
文字・寸法線
 62
     0
 48
0.5
370
    -2
100
AcDbLine
 10
10.88214683925321
 20
0.5
 30
0.0
 11
73.38214683925321
 21
0.5
 31
0.0
  0
SOLID
  5
40C
330
407
100
AcDbEntity
  8
文字・寸法線
 62
     0
100
AcDbTrace
 10
10.88214683925321
 20
0.9166666666666667
 30
0.0
 11
10.88214683925321
 21
0.0833333333333333
 31
0.0
 12
8.38214683925321
 22
0.5
 32
0.0
 13
8.38214683925321
 23
0.5
 33
0.0
  0
SOLID
  5
40D
330
407
100
AcDbEntity
  8
文字・寸法線
 62
     0
100
AcDbTrace
 10
73.38214683925321
 20
0.0833333333333333
 30
0.0
 11
73.38214683925321
 21
0.9166666666666667
 31
0.0
 12
75.88214683925321
 22
0.5
 32
0.0
 13
75.88214683925321
 23
0.5
 33
0.0
  0
MTEXT
  5
40E
330
407
100
AcDbEntity
  8
文字・寸法線
 62
     0
370
    25
100
AcDbMText
 10
42.13214683925321
 20
3.0465
 30
0.0
 40
3.0
 41
0.0
 46
0.0
 71
     5
 72
     1
  1
φ67.5
 73
     1
 44
1.0
  0
POINT
  5
40F
330
407
100
AcDbEntity
  8
Defpoints
 62
     0
100
AcDbPoint
 10
8.38214683925321
 20
63.93782389842312
 30
0.0
  0
POINT
  5
410
330
407
100
AcDbEntity
  8
Defpoints
 62
     0
100
AcDbPoint
 10
75.88214683925321
 20
63.93782389842312
 30
0.0
  0
POINT
  5
411
330
407
100
AcDbEntity
  8
Defpoints
 62
     0
100
AcDbPoint
 10
75.88214683925321
 20
0.5
 30
0.0
  0
ENDBLK
  5
412
330
407
100
AcDbEntity
  8
0
 48
0.5
370
    25
100
AcDbBlockEnd
  0
BLOCK
  5
417
330
416
100
AcDbEntity
  8
0
 48
0.5
370
    25
100
AcDbBlockBegin
  2
*D15
 70
     1
 10
0.0
 20
0.0
 30
0.0
  3
*D15
  1
*D16
  0
LINE
  5
418
330
416
100
AcDbEntity
  8
文字・寸法線
 62
     0
 48
0.5
370
    -2
100
AcDbLine
 10
132.9748116034268
 20
63.31282389842312
 30
0.0
 11
132.9748116034268
 21
37.1060232279433
 31
0.0
  0
LINE
  5
419
330
416
100
AcDbEntity
  8
文字・寸法線
 62
     0
 48
0.5
370
    -2
100
AcDbLine
 10
194.4748116034268
 20
63.31282389842312
 30
0.0
 11
194.4748116034268
 21
37.1060232279433
 31
0.0
  0
LINE
  5
41A
330
416
100
AcDbEntity
  8
文字・寸法線
 62
     0
 48
0.5
370
    -2
100
AcDbLine
 10
135.4748116034268
 20
37.6060232279433
 30
0.0
 11
191.9748116034268
 21
37.6060232279433
 31
0.0
  0
SOLID
  5
41B
330
416
100
AcDbEntity
  8
文字・寸法線
 62
     0
100
AcDbTrace
 10
135.4748116034268
 20
38.02268989460996
 30
0.0
 11
135.4748116034268
 21
37.18935656127663
 31
0.0
 12
132.9748116034268
 22
37.6060232279433
 32
0.0
 13
132.9748116034268
 23
37.6060232279433
 33
0.0
  0
SOLID
  5
41C
330
416
100
AcDbEntity
  8
文字・寸法線
 62
     0
100
AcDbTrace
 10
191.9748116034268
 20
37.18935656127663
 30
0.0
 11
191.9748116034268
 21
38.02268989460996
 31
0.0
 12
194.4748116034268
 22
37.6060232279433
 32
0.0
 13
194.4748116034268
 23
37.6060232279433
 33
0.0
  0
MTEXT
  5
41D
330
416
100
AcDbEntity
  8
文字・寸法線
 62
     0
370
    25
100
AcDbMText
 10
163.7248116034268
 20
40.1525232279433
 30
0.0
 40
3.0
 41
0.0
 46
0.0
 71
     5
 72
     1
  1
φ61.5
 73
     1
 44
1.0
  0
POINT
  5
41E
330
416
100
AcDbEntity
  8
Defpoints
 62
     0
100
AcDbPoint
 10
132.9748116034268
 20
63.93782389842312
 30
0.0
  0
POINT
  5
41F
330
416
100
AcDbEntity
  8
Defpoints
 62
     0
100
AcDbPoint
 10
194.4748116034268
 20
63.93782389842312
 30
0.0
  0
POINT
  5
420
330
416
100
AcDbEntity
  8
Defpoints
 62
     0
100
AcDbPoint
 10
194.4748116034268
 20
37.6060232279433
 30
0.0
  0
ENDBLK
  5
421
330
416
100
AcDbEntity
  8
0
 48
0.5
370
    25
100
AcDbBlockEnd
  0
BLOCK
  5
495
330
494
100
AcDbEntity
  8
0
100
AcDbBlockBegin
  2
*D16
 70
     1
 10
0.0
 20
0.0
 30
0.0
  3
*D16
  1
*D17
  0
LINE
  5
497
330
494
100
AcDbEntity
  8
文字・寸法線
 62
     0
 48
0.5
370
    -2
100
AcDbLine
 10
144.3046967826412
 20
98.29525505369561
 30
0.0
 11
137.4902923794384
 21
98.29525505369561
 31
0.0
  0
LINE
  5
498
330
494
100
AcDbEntity
  8
文字・寸法線
 62
     0
 48
0.5
370
    -2
100
AcDbLine
 10
146.9231685542958
 20
90.09525505369562
 30
0.0
 11
137.4902923794384
 21
90.09525505369562
 31
0.0
  0
LINE
  5
499
330
494
100
AcDbEntity
  8
文字・寸法線
 62
     0
 48
0.5
370
    -2
100
AcDbLine
 10
137.9902923794384
 20
95.79525505369561
 30
0.0
 11
137.9902923794384
 21
92.59525505369562
 31
0.0
  0
SOLID
  5
49A
330
494
100
AcDbEntity
  8
文字・寸法線
 62
     0
100
AcDbTrace
 10
138.406959046105
 20
95.79525505369561
 30
0.0
 11
137.5736257127717
 21
95.79525505369561
 31
0.0
 12
137.9902923794384
 22
98.29525505369561
 32
0.0
 13
137.9902923794384
 23
98.29525505369561
 33
0.0
  0
SOLID
  5
49B
330
494
100
AcDbEntity
  8
文字・寸法線
 62
     0
100
AcDbTrace
 10
137.5736257127717
 20
92.59525505369562
 30
0.0
 11
138.406959046105
 21
92.59525505369562
 31
0.0
 12
137.9902923794384
 22
90.09525505369562
 32
0.0
 13
137.9902923794384
 23
90.09525505369562
 33
0.0
  0
MTEXT
  5
49C
330
494
100
AcDbEntity
  8
文字・寸法線
 62
     0
370
    25
100
AcDbMText
 10
135.8337923794384
 20
94.83366482431406
 30
0.0
 40
3.0
 41
0.0
 46
0.0
 71
     5
 72
     1
  1
8.2
 11
0.0
 21
1.0
 31
0.0
 73
     1
 44
1.0
  0
POINT
  5
49D
330
494
100
AcDbEntity
  8
Defpoints
 62
     0
100
AcDbPoint
 10
144.9296967826412
 20
98.29525505369561
 30
0.0
  0
POINT
  5
49E
330
494
100
AcDbEntity
  8
Defpoints
 62
     0
100
AcDbPoint
 10
147.5481685542958
 20
90.09525505369562
 30
0.0
  0
POINT
  5
49F
330
494
100
AcDbEntity
  8
Defpoints
 62
     0
100
AcDbPoint
 10
137.9902923794384
 20
90.09525505369562
 30
0.0
  0
ENDBLK
  5
496
330
494
100
AcDbEntity
  8
0
100
AcDbBlockEnd
  0
BLOCK
  5
4A1
330
4A0
100
AcDbEntity
  8
0
100
AcDbBlockBegin
  2
*D17
 70
     1
 10
0.0
 20
0.0
 30
0.0
  3
*D17
  1
*D18
  0
LINE
  5
4A3
330
4A0
100
AcDbEntity
  8
文字・寸法線
 62
     0
 48
0.5
370
    -2
100
AcDbLine
 10
156.1796967826412
 20
86.2479145447743
 30
0.0
 11
156.1796967826412
 21
79.8224822022354
 31
0.0
  0
LINE
  5
4A4
330
4A0
100
AcDbEntity
  8
文字・寸法線
 62
     0
 48
0.5
370
    -2
100
AcDbLine
 10
201.1796967826412
 20
86.67329274883663
 30
0.0
 11
201.1796967826412
 21
79.8224822022354
 31
0.0
  0
LINE
  5
4A5
330
4A0
100
AcDbEntity
  8
文字・寸法線
 62
     0
 48
0.5
370
    -2
100
AcDbLine
 10
158.6796967826412
 20
80.3224822022354
 30
0.0
 11
198.6796967826412
 21
80.3224822022354
 31
0.0
  0
SOLID
  5
4A6
330
4A0
100
AcDbEntity
  8
文字・寸法線
 62
     0
100
AcDbTrace
 10
158.6796967826412
 20
80.73914886890208
 30
0.0
 11
158.6796967826412
 21
79.90581553556873
 31
0.0
 12
156.1796967826412
 22
80.3224822022354
 32
0.0
 13
156.1796967826412
 23
80.3224822022354
 33
0.0
  0
SOLID
  5
4A7
330
4A0
100
AcDbEntity
  8
文字・寸法線
 62
     0
100
AcDbTrace
 10
198.6796967826412
 20
79.90581553556873
 30
0.0
 11
198.6796967826412
 21
80.73914886890208
 31
0.0
 12
201.1796967826412
 22
80.3224822022354
 32
0.0
 13
201.1796967826412
 23
80.3224822022354
 33
0.0
  0
MTEXT
  5
4A8
330
4A0
100
AcDbEntity
  8
文字・寸法線
 62
     0
370
    25
100
AcDbMText
 10
178.6796967826412
 20
82.5269822022354
 30
0.0
 40
3.0
 41
0.0
 46
0.0
 71
     5
 72
     1
  1
%%c45
 73
     1
 44
1.0
  0
POINT
  5
4A9
330
4A0
100
AcDbEntity
  8
Defpoints
 62
     0
100
AcDbPoint
 10
156.1796967826412
 20
86.8729145447743
 30
0.0
  0
POINT
  5
4AA
330
4A0
100
AcDbEntity
  8
Defpoints
 62
     0
100
AcDbPoint
 10
201.1796967826412
 20
87.29829274883663
 30
0.0
  0
POINT
  5
4AB
330
4A0
100
AcDbEntity
  8
Defpoints
 62
     0
100
AcDbPoint
 10
201.1796967826412
 20
80.3224822022354
 30
0.0
  0
ENDBLK
  5
4A2
330
4A0
100
AcDbEntity
  8
0
100
AcDbBlockEnd
  0
BLOCK
  5
4AD
330
4AC
100
AcDbEntity
  8
0
100
AcDbBlockBegin
  2
*D18
 70
     1
 10
0.0
 20
0.0
 30
0.0
  3
*D18
  1
*D19
  0
LINE
  5
4AF
330
4AC
100
AcDbEntity
  8
文字・寸法線
 62
     0
 48
0.5
370
    -2
100
AcDbLine
 10
202.6796967826412
 20
98.92025505369561
 30
0.0
 11
202.6796967826412
 21
105.663123494705
 31
0.0
  0
LINE
  5
4B0
330
4AC
100
AcDbEntity
  8
文字・寸法線
 62
     0
 48
0.5
370
    -2
100
AcDbLine
 10
154.6796967826412
 20
98.92025505369561
 30
0.0
 11
154.6796967826412
 21
105.663123494705
 31
0.0
  0
LINE
  5
4B1
330
4AC
100
AcDbEntity
  8
文字・寸法線
 62
     0
 48
0.5
370
    -2
100
AcDbLine
 10
200.1796967826412
 20
105.163123494705
 30
0.0
 11
157.1796967826412
 21
105.163123494705
 31
0.0
  0
SOLID
  5
4B2
330
4AC
100
AcDbEntity
  8
文字・寸法線
 62
     0
100
AcDbTrace
 10
200.1796967826412
 20
104.7464568280384
 30
0.0
 11
200.1796967826412
 21
105.5797901613717
 31
0.0
 12
202.6796967826412
 22
105.163123494705
 32
0.0
 13
202.6796967826412
 23
105.163123494705
 33
0.0
  0
SOLID
  5
4B3
330
4AC
100
AcDbEntity
  8
文字・寸法線
 62
     0
100
AcDbTrace
 10
157.1796967826412
 20
105.5797901613717
 30
0.0
 11
157.1796967826412
 21
104.7464568280384
 31
0.0
 12
154.6796967826412
 22
105.163123494705
 32
0.0
 13
154.6796967826412
 23
105.163123494705
 33
0.0
  0
MTEXT
  5
4B4
330
4AC
100
AcDbEntity
  8
文字・寸法線
 62
     0
370
    25
100
AcDbMText
 10
178.6796967826412
 20
107.319623494705
 30
0.0
 40
3.0
 41
0.0
 46
0.0
 71
     5
 72
     1
  1
48
 73
     1
 44
1.0
  0
POINT
  5
4B5
330
4AC
100
AcDbEntity
  8
Defpoints
 62
     0
100
AcDbPoint
 10
202.6796967826412
 20
98.29525505369561
 30
0.0
  0
POINT
  5
4B6
330
4AC
100
AcDbEntity
  8
Defpoints
 62
     0
100
AcDbPoint
 10
154.6796967826412
 20
98.29525505369561
 30
0.0
  0
POINT
  5
4B7
330
4AC
100
AcDbEntity
  8
Defpoints
 62
     0
100
AcDbPoint
 10
154.6796967826412
 20
105.163123494705
 30
0.0
  0
ENDBLK
  5
4AE
330
4AC
100
AcDbEntity
  8
0
100
AcDbBlockEnd
  0
BLOCK
  5
4B9
330
4B8
100
AcDbEntity
  8
0
100
AcDbBlockBegin
  2
*D19
 70
     1
 10
0.0
 20
0.0
 30
0.0
  3
*D19
  1
*D20
  0
LINE
  5
4BB
330
4B8
100
AcDbEntity
  8
文字・寸法線
 62
     0
 48
0.5
370
    -2
100
AcDbLine
 10
23.3370320184676
 20
93.97025505369557
 30
0.0
 11
23.3370320184676
 21
30.65743115527245
 31
0.0
  0
LINE
  5
4BC
330
4B8
100
AcDbEntity
  8
文字・寸法線
 62
     0
 48
0.5
370
    -2
100
AcDbLine
 10
90.8370320184676
 20
93.97025505369557
 30
0.0
 11
90.8370320184676
 21
30.65743115527245
 31
0.0
  0
LINE
  5
4BD
330
4B8
100
AcDbEntity
  8
文字・寸法線
 62
     0
 48
0.5
370
    -2
100
AcDbLine
 10
25.8370320184676
 20
31.15743115527245
 30
0.0
 11
88.3370320184676
 21
31.15743115527245
 31
0.0
  0
SOLID
  5
4BE
330
4B8
100
AcDbEntity
  8
文字・寸法線
 62
     0
100
AcDbTrace
 10
25.8370320184676
 20
31.57409782193912
 30
0.0
 11
25.8370320184676
 21
30.74076448860578
 31
0.0
 12
23.3370320184676
 22
31.15743115527245
 32
0.0
 13
23.3370320184676
 23
31.15743115527245
 33
0.0
  0
SOLID
  5
4BF
330
4B8
100
AcDbEntity
  8
文字・寸法線
 62
     0
100
AcDbTrace
 10
88.3370320184676
 20
30.74076448860578
 30
0.0
 11
88.3370320184676
 21
31.57409782193912
 31
0.0
 12
90.8370320184676
 22
31.15743115527245
 32
0.0
 13
90.8370320184676
 23
31.15743115527245
 33
0.0
  0
MTEXT
  5
4C0
330
4B8
100
AcDbEntity
  8
文字・寸法線
 62
     0
370
    25
100
AcDbMText
 10
57.0870320184676
 20
33.36793115527245
 30
0.0
 40
3.0
 41
0.0
 46
0.0
 71
     5
 72
     1
  1
%%c67.5
 73
     1
 44
1.0
  0
POINT
  5
4C1
330
4B8
100
AcDbEntity
  8
Defpoints
 62
     0
100
AcDbPoint
 10
23.3370320184676
 20
94.59525505369557
 30
0.0
  0
POINT
  5
4C2
330
4B8
100
AcDbEntity
  8
Defpoints
 62
     0
100
AcDbPoint
 10
90.8370320184676
 20
94.59525505369557
 30
0.0
  0
POINT
  5
4C3
330
4B8
100
AcDbEntity
  8
Defpoints
 62
     0
100
AcDbPoint
 10
90.8370320184676
 20
31.15743115527245
 30
0.0
  0
ENDBLK
  5
4BA
330
4B8
100
AcDbEntity
  8
0
100
AcDbBlockEnd
  0
BLOCK
  5
4C5
330
4C4
100
AcDbEntity
  8
0
100
AcDbBlockBegin
  2
*D20
 70
     1
 10
0.0
 20
0.0
 30
0.0
  3
*D20
  1
*D21
  0
LINE
  5
4C7
330
4C4
100
AcDbEntity
  8
文字・寸法線
 62
     0
 48
0.5
370
    -2
100
AcDbLine
 10
147.9296967826412
 20
93.97025505369557
 30
0.0
 11
147.9296967826412
 21
67.76345438321574
 31
0.0
  0
LINE
  5
4C8
330
4C4
100
AcDbEntity
  8
文字・寸法線
 62
     0
 48
0.5
370
    -2
100
AcDbLine
 10
209.4296967826412
 20
93.97025505369557
 30
0.0
 11
209.4296967826412
 21
67.76345438321574
 31
0.0
  0
LINE
  5
4C9
330
4C4
100
AcDbEntity
  8
文字・寸法線
 62
     0
 48
0.5
370
    -2
100
AcDbLine
 10
150.4296967826412
 20
68.26345438321574
 30
0.0
 11
206.9296967826412
 21
68.26345438321574
 31
0.0
  0
SOLID
  5
4CA
330
4C4
100
AcDbEntity
  8
文字・寸法線
 62
     0
100
AcDbTrace
 10
150.4296967826412
 20
68.68012104988242
 30
0.0
 11
150.4296967826412
 21
67.84678771654907
 31
0.0
 12
147.9296967826412
 22
68.26345438321574
 32
0.0
 13
147.9296967826412
 23
68.26345438321574
 33
0.0
  0
SOLID
  5
4CB
330
4C4
100
AcDbEntity
  8
文字・寸法線
 62
     0
100
AcDbTrace
 10
206.9296967826412
 20
67.84678771654907
 30
0.0
 11
206.9296967826412
 21
68.68012104988242
 31
0.0
 12
209.4296967826412
 22
68.26345438321574
 32
0.0
 13
209.4296967826412
 23
68.26345438321574
 33
0.0
  0
MTEXT
  5
4CC
330
4C4
100
AcDbEntity
  8
文字・寸法線
 62
     0
370
    25
100
AcDbMText
 10
178.6796967826412
 20
70.47395438321574
 30
0.0
 40
3.0
 41
0.0
 46
0.0
 71
     5
 72
     1
  1
%%c61.5
 73
     1
 44
1.0
  0
POINT
  5
4CD
330
4C4
100
AcDbEntity
  8
Defpoints
 62
     0
100
AcDbPoint
 10
147.9296967826412
 20
94.59525505369557
 30
0.0
  0
POINT
  5
4CE
330
4C4
100
AcDbEntity
  8
Defpoints
 62
     0
100
AcDbPoint
 10
209.4296967826412
 20
94.59525505369557
 30
0.0
  0
POINT
  5
4CF
330
4C4
100
AcDbEntity
  8
Defpoints
 62
     0
100
AcDbPoint
 10
209.4296967826412
 20
68.26345438321574
 30
0.0
  0
ENDBLK
  5
4C6
330
4C4
100
AcDbEntity
  8
0
100
AcDbBlockEnd
  0
ENDSEC
  0
SECTION
  2
ENTITIES
  0
MTEXT
  5
33E
330
1F
100
AcDbEntity
  8
文字・寸法線
 62
     0
100
AcDbMText
 10
39.35706233044374
 20
143.2119837112021
 30
0.0
 40
6.0
 41
0.0
 46
6.0
 71
     9
 72
     1
  1
{\fＭＳ ゴシック|b0|i0|c0|p0;S-A 33}
 73
     1
 44
1.0
1001
ACAD
1000
ACAD_MTEXT_DEFINED_HEIGHT_BEGIN
1070
    46
1040
6.0
1000
ACAD_MTEXT_DEFINED_HEIGHT_END
  0
LINE
  5
425
330
1F
100
AcDbEntity
  8
実線
100
AcDbLine
 10
172.9959062680807
 20
98.29525505369561
 30
0.0
 11
174.1427789301594
 21
96.79525505369561
 31
0.0
  0
LINE
  5
426
330
1F
100
AcDbEntity
  8
実線
100
AcDbLine
 10
173.9959062680798
 20
98.29525505369561
 30
0.0
 11
175.1427789301587
 21
96.79525505369561
 31
0.0
  0
LINE
  5
427
330
1F
100
AcDbEntity
  8
実線
100
AcDbLine
 10
174.9959062680802
 20
98.29525505369561
 30
0.0
 11
176.142778930159
 21
96.79525505369561
 31
0.0
  0
LINE
  5
428
330
1F
100
AcDbEntity
  8
実線
100
AcDbLine
 10
175.9959062680793
 20
98.29525505369561
 30
0.0
 11
177.142778930158
 21
96.79525505369561
 31
0.0
  0
LINE
  5
429
330
1F
100
AcDbEntity
  8
実線
100
AcDbLine
 10
176.9959062680784
 20
98.29525505369561
 30
0.0
 11
178.1427789301571
 21
96.79525505369561
 31
0.0
  0
LINE
  5
42A
330
1F
100
AcDbEntity
  8
実線
100
AcDbLine
 10
177.9959062680775
 20
98.29525505369561
 30
0.0
 11
179.1427789301565
 21
96.79525505369561
 31
0.0
  0
LINE
  5
42B
330
1F
100
AcDbEntity
  8
実線
100
AcDbLine
 10
178.9959062680779
 20
98.29525505369561
 30
0.0
 11
180.1427789301567
 21
96.79525505369561
 31
0.0
  0
LINE
  5
42C
330
1F
100
AcDbEntity
  8
実線
100
AcDbLine
 10
181.9959062680766
 20
98.29525505369561
 30
0.0
 11
183.1427789301553
 21
96.79525505369561
 31
0.0
  0
LINE
  5
42D
330
1F
100
AcDbEntity
  8
実線
100
AcDbLine
 10
182.9959062680757
 20
98.29525505369561
 30
0.0
 11
184.1427789301546
 21
96.79525505369561
 31
0.0
  0
LINE
  5
42E
330
1F
100
AcDbEntity
  8
実線
100
AcDbLine
 10
180.9959062680761
 20
98.29525505369561
 30
0.0
 11
182.1427789301551
 21
96.79525505369561
 31
0.0
  0
LINE
  5
42F
330
1F
100
AcDbEntity
  8
実線
100
AcDbLine
 10
179.995906268077
 20
98.29525505369561
 30
0.0
 11
181.1427789301558
 21
96.79525505369561
 31
0.0
  0
LINE
  5
430
102
{ACAD_REACTORS
330
434
102
}
330
1F
100
AcDbEntity
  8
実線
370
    25
100
AcDbLine
 10
185.4296967826412
 20
96.79525505369561
 30
0.0
 11
171.9296967826412
 21
96.79525505369561
 31
0.0
  0
LINE
  5
431
330
1F
100
AcDbEntity
  8
中心線
 48
0.5
370
    25
100
AcDbLine
 10
57.0870320184676
 20
56.99646350028924
 30
0.0
 11
57.0870320184676
 21
132.1832583770803
 31
0.0
  0
DIMENSION
  5
432
102
{ACAD_REACTORS
330
434
102
}
102
{ACAD_XDICTIONARY
360
433
102
}
330
1F
100
AcDbEntity
  8
文字・寸法線
 48
0.5
370
    25
100
AcDbDimension
280
     0
  2
*D16
 10
137.9902923794384
 20
90.09525505369562
 30
0.0
 11
137.9902923794384
 21
94.83366482431406
 31
0.0
 70
   160
 71
     5
 42
8.199999999999989
 73
     0
 74
     0
 75
     0
  3
ISO-25
100
AcDbAlignedDimension
 13
144.9296967826412
 23
98.29525505369561
 33
0.0
 14
147.5481685542958
 24
90.09525505369562
 34
0.0
 50
90.0
100
AcDbRotatedDimension
  0
DIMENSION
  5
435
330
1F
100
AcDbEntity
  8
文字・寸法線
 48
0.5
370
    25
100
AcDbDimension
280
     0
  2
*D17
 10
201.1796967826412
 20
80.3224822022354
 30
0.0
 11
178.6796967826412
 21
80.3224822022354
 31
0.0
 70
   160
  1
%%c<>
 71
     5
 42
45.0
 73
     0
 74
     0
 75
     0
  3
ISO-25
100
AcDbAlignedDimension
 13
156.1796967826412
 23
86.8729145447743
 33
0.0
 14
201.1796967826412
 24
87.29829274883663
 34
0.0
100
AcDbRotatedDimension
  0
DIMENSION
  5
436
330
1F
100
AcDbEntity
  8
文字・寸法線
 48
0.5
370
    25
100
AcDbDimension
280
     0
  2
*D18
 10
154.6796967826412
 20
105.163123494705
 30
0.0
 11
178.6796967826412
 21
107.319623494705
 31
0.0
 70
    32
 71
     5
 42
48.0
 73
     0
 74
     0
 75
     0
  3
ISO-25
100
AcDbAlignedDimension
 13
202.6796967826412
 23
98.29525505369561
 33
0.0
 14
154.6796967826412
 24
98.29525505369561
 34
0.0
100
AcDbRotatedDimension
  0
ARC
  5
437
330
1F
100
AcDbEntity
  8
実線
 48
0.5
370
    25
100
AcDbCircle
 10
57.0870320184676
 20
94.59525505369557
 30
0.0
 40
30.75
100
AcDbArc
 50
192.6025117169466
 51
257.3974882830432
  0
ARC
  5
438
330
1F
100
AcDbEntity
  8
実線
 48
0.5
370
    25
100
AcDbCircle
 10
57.08703201846805
 20
94.59525505369517
 30
0.0
 40
30.75000000000045
100
AcDbArc
 50
102.6025117169466
 51
167.3974882830534
  0
CIRCLE
  5
439
102
{ACAD_REACTORS
330
490
102
}
330
1F
100
AcDbEntity
  8
実線
 48
0.5
370
    25
100
AcDbCircle
 10
57.0870320184676
 20
94.59525505369557
 30
0.0
 40
33.75
  0
LINE
  5
43A
102
{ACAD_REACTORS
330
490
102
}
330
1F
100
AcDbEntity
  8
中心線
 48
0.5
370
    25
100
AcDbLine
 10
14.95488517921439
 20
94.59525505369557
 30
0.0
 11
98.55650128989004
 21
94.59525505369557
 31
0.0
  0
LINE
  5
43B
330
1F
100
AcDbEntity
  8
中心線
 48
0.5
370
    25
100
AcDbLine
 10
178.6796967826412
 20
86.36548954844115
 30
0.0
 11
178.6796967826412
 21
102.0963863309631
 31
0.0
  0
LINE
  5
43C
330
1F
100
AcDbEntity
  8
実線
100
AcDbLine
 10
146.1278824172816
 20
98.29525505369561
 30
0.0
 11
144.9296967826412
 21
96.72814258220042
 31
0.0
  0
LINE
  5
43D
330
1F
100
AcDbEntity
  8
実線
100
AcDbLine
 10
147.127882417282
 20
98.29525505369561
 30
0.0
 11
144.9296967826412
 21
95.42023800866077
 31
0.0
  0
LINE
  5
43E
330
1F
100
AcDbEntity
  8
実線
100
AcDbLine
 10
148.1278824172811
 20
98.29525505369561
 30
0.0
 11
144.9296967826412
 21
94.1123334351225
 31
0.0
  0
LINE
  5
43F
330
1F
100
AcDbEntity
  8
実線
100
AcDbLine
 10
153.2989298508207
 20
94.59525505369557
 30
0.0
 11
150.0370802732236
 21
90.32906707295992
 31
0.0
  0
LINE
  5
440
330
1F
100
AcDbEntity
  8
実線
100
AcDbLine
 10
148.2989298508209
 20
94.59525505369557
 30
0.0
 11
145.6228936393035
 21
91.09525505369557
 31
0.0
  0
LINE
  5
441
330
1F
100
AcDbEntity
  8
実線
100
AcDbLine
 10
149.2989298508202
 20
94.59525505369557
 30
0.0
 11
146.6228936393028
 21
91.09525505369557
 31
0.0
  0
LINE
  5
442
330
1F
100
AcDbEntity
  8
実線
100
AcDbLine
 10
150.2989298508205
 20
94.59525505369557
 30
0.0
 11
147.6228936393031
 21
91.09525505369557
 31
0.0
  0
LINE
  5
443
330
1F
100
AcDbEntity
  8
実線
100
AcDbLine
 10
151.2989298508205
 20
94.59525505369557
 30
0.0
 11
148.6228936393031
 21
91.09525505369557
 31
0.0
  0
LINE
  5
444
330
1F
100
AcDbEntity
  8
実線
100
AcDbLine
 10
152.2989298508211
 20
94.59525505369557
 30
0.0
 11
149.6228936393035
 21
91.09525505369557
 31
0.0
  0
LINE
  5
445
330
1F
100
AcDbEntity
  8
実線
100
AcDbLine
 10
147.9296967826412
 20
96.72814258220053
 30
0.0
 11
144.9296967826412
 21
92.80442886158262
 31
0.0
  0
LINE
  5
446
330
1F
100
AcDbEntity
  8
実線
100
AcDbLine
 10
147.9296967826412
 20
95.42023800866112
 30
0.0
 11
144.9296967826412
 21
91.4965242880432
 31
0.0
  0
LINE
  5
447
330
1F
100
AcDbEntity
  8
実線
370
    25
100
AcDbLine
 10
209.4296967826412
 20
94.59525505369557
 30
0.0
 11
147.9296967826412
 21
94.59525505369557
 31
0.0
  0
LINE
  5
448
102
{ACAD_REACTORS
330
493
102
}
330
1F
100
AcDbEntity
  8
実線
370
    25
100
AcDbLine
 10
147.9296967826412
 20
94.59525505369557
 30
0.0
 11
147.9296967826412
 21
96.79525505369561
 31
0.0
  0
LINE
  5
449
102
{ACAD_REACTORS
330
434
102
}
330
1F
100
AcDbEntity
  8
実線
370
    25
100
AcDbLine
 10
212.4296967826412
 20
98.29525505369561
 30
0.0
 11
144.9296967826412
 21
98.29525505369561
 31
0.0
  0
LINE
  5
44A
330
1F
100
AcDbEntity
  8
実線
370
    25
100
AcDbLine
 10
154.6796967826412
 20
96.79525505369561
 30
0.0
 11
147.9296967826412
 21
96.79525505369561
 31
0.0
  0
LINE
  5
44B
330
1F
100
AcDbEntity
  8
実線
100
AcDbLine
 10
156.1796967826412
 20
93.13140500496748
 30
0.0
 11
154.0370802732236
 21
90.32906707295992
 31
0.0
  0
LINE
  5
44C
330
1F
100
AcDbEntity
  8
実線
100
AcDbLine
 10
156.1796967826412
 20
94.43930957850746
 30
0.0
 11
153.6228936393026
 21
91.09525505369557
 31
0.0
  0
LINE
  5
44D
330
1F
100
AcDbEntity
  8
実線
100
AcDbLine
 10
155.29892985082
 20
94.59525505369557
 30
0.0
 11
152.6228936393026
 21
91.09525505369557
 31
0.0
  0
LINE
  5
44E
330
1F
100
AcDbEntity
  8
実線
100
AcDbLine
 10
154.2989298508198
 20
94.59525505369557
 30
0.0
 11
150.8726852126296
 21
90.11405402134257
 31
0.0
  0
LINE
  5
44F
330
1F
100
AcDbEntity
  8
実線
100
AcDbLine
 10
156.1796967826412
 20
91.82350043142903
 30
0.0
 11
154.8726852126296
 21
90.11405402134257
 31
0.0
  0
LINE
  5
450
330
1F
100
AcDbEntity
  8
実線
100
AcDbLine
 10
150.1278824172807
 20
98.29525505369561
 30
0.0
 11
148.9810097552019
 21
96.79525505369561
 31
0.0
  0
LINE
  5
451
330
1F
100
AcDbEntity
  8
実線
100
AcDbLine
 10
149.1278824172816
 20
98.29525505369561
 30
0.0
 11
147.9810097552026
 21
96.79525505369561
 31
0.0
  0
LINE
  5
452
330
1F
100
AcDbEntity
  8
実線
100
AcDbLine
 10
151.1278824172811
 20
98.29525505369561
 30
0.0
 11
149.9810097552021
 21
96.79525505369561
 31
0.0
  0
LINE
  5
453
330
1F
100
AcDbEntity
  8
実線
100
AcDbLine
 10
152.1278824172802
 20
98.29525505369561
 30
0.0
 11
150.9810097552015
 21
96.79525505369561
 31
0.0
  0
LINE
  5
454
330
1F
100
AcDbEntity
  8
実線
100
AcDbLine
 10
205.2315111480022
 20
98.29525505369561
 30
0.0
 11
206.3783838100809
 21
96.79525505369561
 31
0.0
  0
LINE
  5
455
330
1F
100
AcDbEntity
  8
実線
100
AcDbLine
 10
206.2315111480013
 20
98.29525505369561
 30
0.0
 11
207.3783838100803
 21
96.79525505369561
 31
0.0
  0
LINE
  5
456
330
1F
100
AcDbEntity
  8
実線
100
AcDbLine
 10
208.2315111480008
 20
98.29525505369561
 30
0.0
 11
209.3783838100798
 21
96.79525505369561
 31
0.0
  0
LINE
  5
457
330
1F
100
AcDbEntity
  8
実線
100
AcDbLine
 10
207.2315111480017
 20
98.29525505369561
 30
0.0
 11
208.3783838100805
 21
96.79525505369561
 31
0.0
  0
LINE
  5
458
330
1F
100
AcDbEntity
  8
実線
100
AcDbLine
 10
201.1796967826412
 20
91.82350043142903
 30
0.0
 11
202.4867083526528
 21
90.11405402134257
 31
0.0
  0
LINE
  5
459
330
1F
100
AcDbEntity
  8
実線
100
AcDbLine
 10
203.0604637144626
 20
94.59525505369557
 30
0.0
 11
206.4867083526528
 21
90.11405402134257
 31
0.0
  0
LINE
  5
45A
330
1F
100
AcDbEntity
  8
実線
100
AcDbLine
 10
202.0604637144624
 20
94.59525505369557
 30
0.0
 11
204.7364999259798
 21
91.09525505369557
 31
0.0
  0
LINE
  5
45B
330
1F
100
AcDbEntity
  8
実線
100
AcDbLine
 10
201.1796967826412
 20
94.43930957850746
 30
0.0
 11
203.7364999259798
 21
91.09525505369557
 31
0.0
  0
LINE
  5
45C
330
1F
100
AcDbEntity
  8
実線
100
AcDbLine
 10
201.1796967826412
 20
93.13140500496748
 30
0.0
 11
203.3223132920588
 21
90.32906707295992
 31
0.0
  0
LINE
  5
45D
330
1F
100
AcDbEntity
  8
実線
370
    25
100
AcDbLine
 10
202.6796967826412
 20
96.79525505369561
 30
0.0
 11
209.4296967826412
 21
96.79525505369561
 31
0.0
  0
LINE
  5
45E
102
{ACAD_REACTORS
330
493
102
}
330
1F
100
AcDbEntity
  8
実線
370
    25
100
AcDbLine
 10
209.4296967826412
 20
94.59525505369557
 30
0.0
 11
209.4296967826412
 21
96.79525505369561
 31
0.0
  0
LINE
  5
45F
330
1F
100
AcDbEntity
  8
実線
370
    25
100
AcDbLine
 10
144.9296967826412
 20
91.09525505369557
 30
0.0
 11
144.9296967826412
 21
98.29525505369561
 31
0.0
  0
LINE
  5
460
330
1F
100
AcDbEntity
  8
実線
370
    25
100
AcDbLine
 10
144.9296967826412
 20
91.09525505369557
 30
0.0
 11
149.6796967826412
 21
91.09525505369557
 31
0.0
  0
LINE
  5
461
330
1F
100
AcDbEntity
  8
実線
100
AcDbLine
 10
211.9779305754236
 20
91.09525505369557
 30
0.0
 11
212.4296967826412
 21
91.09525505369557
 31
0.0
  0
LINE
  5
462
330
1F
100
AcDbEntity
  8
実線
100
AcDbLine
 10
209.4296967826412
 20
95.42023800866112
 30
0.0
 11
212.4296967826412
 21
91.4965242880432
 31
0.0
  0
LINE
  5
463
330
1F
100
AcDbEntity
  8
実線
100
AcDbLine
 10
209.4296967826412
 20
96.72814258220053
 30
0.0
 11
212.4296967826412
 21
92.80442886158262
 31
0.0
  0
LINE
  5
464
330
1F
100
AcDbEntity
  8
実線
100
AcDbLine
 10
205.0604637144613
 20
94.59525505369557
 30
0.0
 11
207.7364999259789
 21
91.09525505369557
 31
0.0
  0
LINE
  5
465
330
1F
100
AcDbEntity
  8
実線
100
AcDbLine
 10
206.0604637144619
 20
94.59525505369557
 30
0.0
 11
208.7364999259793
 21
91.09525505369557
 31
0.0
  0
LINE
  5
466
330
1F
100
AcDbEntity
  8
実線
100
AcDbLine
 10
207.0604637144619
 20
94.59525505369557
 30
0.0
 11
209.7364999259793
 21
91.09525505369557
 31
0.0
  0
LINE
  5
467
330
1F
100
AcDbEntity
  8
実線
100
AcDbLine
 10
208.0604637144622
 20
94.59525505369557
 30
0.0
 11
210.7364999259796
 21
91.09525505369557
 31
0.0
  0
LINE
  5
468
330
1F
100
AcDbEntity
  8
実線
100
AcDbLine
 10
209.0604637144615
 20
94.59525505369557
 30
0.0
 11
211.7364999259789
 21
91.09525505369557
 31
0.0
  0
LINE
  5
469
330
1F
100
AcDbEntity
  8
実線
100
AcDbLine
 10
204.0604637144617
 20
94.59525505369557
 30
0.0
 11
207.3223132920588
 21
90.32906707295992
 31
0.0
  0
LINE
  5
46A
330
1F
100
AcDbEntity
  8
実線
100
AcDbLine
 10
209.2315111480013
 20
98.29525505369561
 30
0.0
 11
212.4296967826412
 21
94.1123334351225
 31
0.0
  0
LINE
  5
46B
330
1F
100
AcDbEntity
  8
実線
100
AcDbLine
 10
210.2315111480004
 20
98.29525505369561
 30
0.0
 11
212.4296967826412
 21
95.42023800866077
 31
0.0
  0
LINE
  5
46C
330
1F
100
AcDbEntity
  8
実線
100
AcDbLine
 10
211.2315111480008
 20
98.29525505369561
 30
0.0
 11
212.4296967826412
 21
96.72814258220042
 31
0.0
  0
LINE
  5
46D
330
1F
100
AcDbEntity
  8
実線
370
    25
100
AcDbLine
 10
212.4296967826412
 20
91.09525505369557
 30
0.0
 11
212.4296967826412
 21
98.29525505369561
 31
0.0
  0
ARC
  5
46E
330
1F
100
AcDbEntity
  8
実線
 48
0.5
370
    25
100
AcDbCircle
 10
26.3370320184676
 20
94.59525505369557
 30
0.0
 40
6.75
100
AcDbArc
 50
276.3012558584704
 51
83.69874414152967
  0
ARC
  5
46F
330
1F
100
AcDbEntity
  8
実線
 48
0.5
370
    25
100
AcDbCircle
 10
57.0870320184676
 20
63.84525505369562
 30
0.0
 40
6.75
100
AcDbArc
 50
6.301255858483817
 51
173.6987441415162
  0
ARC
  5
470
330
1F
100
AcDbEntity
  8
実線
 48
0.5
370
    25
100
AcDbCircle
 10
57.0870320184676
 20
125.3452550536955
 30
0.0
 40
6.75
100
AcDbArc
 50
186.3012558584837
 51
353.6987441415163
  0
ARC
  5
471
330
1F
100
AcDbEntity
  8
実線
 48
0.5
370
    25
100
AcDbCircle
 10
57.0870320184676
 20
94.59525505369557
 30
0.0
 40
30.75
100
AcDbArc
 50
282.6025117169568
 51
347.3974882830534
  0
ARC
  5
472
330
1F
100
AcDbEntity
  8
実線
 48
0.5
370
    25
100
AcDbCircle
 10
87.8370320184676
 20
94.59525505369557
 30
0.0
 40
6.75
100
AcDbArc
 50
96.30125585847034
 51
263.6987441415296
  0
ARC
  5
473
330
1F
100
AcDbEntity
  8
実線
 48
0.5
370
    25
100
AcDbCircle
 10
57.08703201846714
 20
94.59525505369517
 30
0.0
 40
30.75000000000045
100
AcDbArc
 50
12.60251171694664
 51
77.39748828305336
  0
LINE
  5
474
330
1F
100
AcDbEntity
  8
実線
 48
0.5
370
    25
100
AcDbLine
 10
185.4296967826412
 20
96.79525505369561
 30
0.0
 11
185.4296967826412
 21
98.29525505369561
 31
0.0
  0
LINE
  5
475
330
1F
100
AcDbEntity
  8
実線
 48
0.5
370
    25
100
AcDbLine
 10
171.9296967826412
 20
96.79525505369561
 30
0.0
 11
171.9296967826412
 21
98.29525505369561
 31
0.0
  0
LINE
  5
476
330
1F
100
AcDbEntity
  8
実線
100
AcDbLine
 10
171.9959062680804
 20
98.29525505369561
 30
0.0
 11
173.1427789301594
 21
96.79525505369561
 31
0.0
  0
LINE
  5
477
330
1F
100
AcDbEntity
  8
実線
100
AcDbLine
 10
171.9296967826412
 20
97.07394616897513
 30
0.0
 11
172.1427789301601
 21
96.79525505369561
 31
0.0
  0
LINE
  5
478
330
1F
100
AcDbEntity
  8
実線
100
AcDbLine
 10
184.027309905668
 20
98.29525505369561
 30
0.0
 11
185.174182567747
 21
96.79525505369561
 31
0.0
  0
LINE
  5
479
330
1F
100
AcDbEntity
  8
実線
100
AcDbLine
 10
185.0273099056685
 20
98.29525505369561
 30
0.0
 11
185.4296967826412
 21
97.76897141697073
 31
0.0
  0
LINE
  5
47A
330
1F
100
AcDbEntity
  8
中心線
  6
ByBlock
 48
0.5
370
    25
100
AcDbLine
 10
202.6796967826412
 20
96.79525505369561
 30
0.0
 11
202.6796967826412
 21
98.29525505369561
 31
0.0
  0
LINE
  5
47B
330
1F
100
AcDbEntity
  8
中心線
  6
ByBlock
 48
0.5
370
    25
100
AcDbLine
 10
154.6796967826412
 20
96.79525505369561
 30
0.0
 11
154.6796967826412
 21
98.29525505369561
 31
0.0
  0
LINE
  5
47C
330
1F
100
AcDbEntity
  8
実線
100
AcDbLine
 10
203.2315111480024
 20
98.29525505369561
 30
0.0
 11
204.3783838100814
 21
96.79525505369561
 31
0.0
  0
LINE
  5
47D
330
1F
100
AcDbEntity
  8
実線
100
AcDbLine
 10
204.2315111480029
 20
98.29525505369561
 30
0.0
 11
205.3783838100816
 21
96.79525505369561
 31
0.0
  0
LINE
  5
47E
330
1F
100
AcDbEntity
  8
実線
100
AcDbLine
 10
154.6796967826412
 20
97.70907101235811
 30
0.0
 11
153.9810097552003
 21
96.79525505369561
 31
0.0
  0
LINE
  5
47F
330
1F
100
AcDbEntity
  8
実線
100
AcDbLine
 10
154.12788241728
 20
98.29525505369561
 30
0.0
 11
152.981009755201
 21
96.79525505369561
 31
0.0
  0
LINE
  5
480
330
1F
100
AcDbEntity
  8
実線
100
AcDbLine
 10
153.1278824172795
 20
98.29525505369561
 30
0.0
 11
151.9810097552008
 21
96.79525505369561
 31
0.0
  0
LINE
  5
481
330
1F
100
AcDbEntity
  8
実線
100
AcDbLine
 10
202.6796967826412
 20
97.70907101235794
 30
0.0
 11
203.3783838100821
 21
96.79525505369561
 31
0.0
  0
CIRCLE
  5
482
330
1F
100
AcDbEntity
  8
実線
 48
0.5
370
    25
100
AcDbCircle
 10
56.75569323455233
 20
94.59525505369557
 30
0.0
 40
22.5
  0
LINE
  5
483
330
1F
100
AcDbEntity
  8
実線
 48
0.5
370
    25
100
AcDbLine
 10
201.1796967826412
 20
91.09525505369557
 30
0.0
 11
201.1796967826412
 21
94.59525505369557
 31
0.0
  0
LINE
  5
484
330
1F
100
AcDbEntity
  8
実線
 48
0.5
370
    25
100
AcDbLine
 10
156.1796967826412
 20
91.09525505369557
 30
0.0
 11
156.1796967826412
 21
94.59525505369557
 31
0.0
  0
LINE
  5
485
330
1F
100
AcDbEntity
  8
中心線
 48
0.5
370
    25
100
AcDbLine
 10
178.6796967826412
 20
86.36548954844115
 30
0.0
 11
178.6796967826412
 21
102.0963863309631
 31
0.0
  0
ARC
  5
486
330
1F
100
AcDbEntity
  8
実線
 48
0.5
370
    25
100
AcDbCircle
 10
206.6796967826412
 20
91.09525505369557
 30
0.0
 40
1.0
100
AcDbArc
 50
180.0
 51
0.0
  0
ARC
  5
487
330
1F
100
AcDbEntity
  8
実線
 48
0.5
370
    25
100
AcDbCircle
 10
202.6796967826412
 20
91.09525505369557
 30
0.0
 40
1.0
100
AcDbArc
 50
180.0
 51
0.0
  0
ARC
  5
488
330
1F
100
AcDbEntity
  8
実線
 48
0.5
370
    25
100
AcDbCircle
 10
154.6796967826412
 20
91.09525505369557
 30
0.0
 40
1.0
100
AcDbArc
 50
180.0
 51
0.0
  0
ARC
  5
489
330
1F
100
AcDbEntity
  8
実線
 48
0.5
370
    25
100
AcDbCircle
 10
150.6796967826412
 20
91.09525505369557
 30
0.0
 40
1.0
100
AcDbArc
 50
180.0
 51
0.0
  0
LINE
  5
48A
330
1F
100
AcDbEntity
  8
実線
370
    25
100
AcDbLine
 10
155.6796967826412
 20
91.09525505369557
 30
0.0
 11
201.6796967826412
 21
91.09525505369557
 31
0.0
  0
LINE
  5
48B
330
1F
100
AcDbEntity
  8
実線
370
    25
100
AcDbLine
 10
151.6796967826412
 20
91.09525505369557
 30
0.0
 11
153.6796967826412
 21
91.09525505369557
 31
0.0
  0
LINE
  5
48C
330
1F
100
AcDbEntity
  8
実線
370
    25
100
AcDbLine
 10
207.6796967826412
 20
91.09525505369557
 30
0.0
 11
212.4296967826412
 21
91.09525505369557
 31
0.0
  0
LINE
  5
48D
330
1F
100
AcDbEntity
  8
実線
370
    25
100
AcDbLine
 10
203.6796967826412
 20
91.09525505369557
 30
0.0
 11
205.6796967826412
 21
91.09525505369557
 31
0.0
  0
DIMENSION
  5
48E
102
{ACAD_REACTORS
330
490
102
}
102
{ACAD_XDICTIONARY
360
48F
102
}
330
1F
100
AcDbEntity
  8
文字・寸法線
 48
0.5
370
    25
100
AcDbDimension
280
     0
  2
*D19
 10
90.8370320184676
 20
31.15743115527245
 30
0.0
 11
57.0870320184676
 21
33.36793115527245
 31
0.0
 70
    32
  1
%%c<>
 71
     5
 42
67.5
 73
     0
 74
     0
 75
     0
  3
ISO-25
100
AcDbAlignedDimension
 13
23.3370320184676
 23
94.59525505369557
 33
0.0
 14
90.8370320184676
 24
94.59525505369557
 34
0.0
100
AcDbRotatedDimension
  0
DIMENSION
  5
491
102
{ACAD_REACTORS
330
493
102
}
102
{ACAD_XDICTIONARY
360
492
102
}
330
1F
100
AcDbEntity
  8
文字・寸法線
 48
0.5
370
    25
100
AcDbDimension
280
     0
  2
*D20
 10
209.4296967826412
 20
68.26345438321574
 30
0.0
 11
178.6796967826412
 21
70.47395438321574
 31
0.0
 70
    32
  1
%%c<>
 71
     5
 42
61.5
 73
     0
 74
     0
 75
     0
  3
ISO-25
100
AcDbAlignedDimension
 13
147.9296967826412
 23
94.59525505369557
 33
0.0
 14
209.4296967826412
 24
94.59525505369557
 34
0.0
100
AcDbRotatedDimension
  0
VIEWPORT
  5
2B5
330
58
100
AcDbEntity
 67
     1
  8
0
100
AcDbViewport
 10
5.437499999999999
 20
3.881944444444445
 30
0.0
 40
13.05
 41
9.316666666666666
 68
     1
 69
     1
 12
5.437499999999999
 22
3.881944444444445
 13
0.0
 23
0.0
 14
0.5
 24
0.5
 15
0.0
 25
0.0
 16
0.0
 26
0.0
 36
1.0
 17
0.0
 27
0.0
 37
0.0
 42
50.0
 43
0.0
 44
0.0
 45
9.316666666666666
 50
0.0
 51
0.0
 72
   100
 90
   557152
  1

281
     0
 71
     1
 74
     0
110
0.0
120
0.0
130
0.0
111
1.0
121
0.0
131
0.0
112
0.0
122
1.0
132
0.0
 79
     0
146
0.0
170
     0
 61
     5
348
9F
292
     1
282
     1
141
0.0
142
0.0
 63
   256
361
2B7
  0
VIEWPORT
  5
2B6
330
58
100
AcDbEntity
 67
     1
  8
0
100
AcDbViewport
 10
5.437499999999999
 20
3.881944444444445
 30
0.0
 40
8.7
 41
6.211111111111112
 68
     2
 69
     2
 12
152.1505002824645
 22
95.88396384706475
 13
0.0
 23
0.0
 14
0.5
 24
0.5
 15
0.0
 25
0.0
 16
0.0
 26
0.0
 36
1.0
 17
0.0
 27
0.0
 37
0.0
 42
50.0
 43
0.0
 44
0.0
 45
165.0017138062201
 50
0.0
 51
0.0
 72
   100
 90
   557152
  1

281
     0
 71
     1
 74
     0
110
0.0
120
0.0
130
0.0
111
1.0
121
0.0
131
0.0
112
0.0
122
1.0
132
0.0
 79
     0
146
0.0
170
     0
 61
     5
348
9F
292
     1
282
     1
141
0.0
142
0.0
 63
   256
  0
ENDSEC
  0
SECTION
  2
OBJECTS
  0
DICTIONARY
  5
C
330
0
100
AcDbDictionary
281
     1
  3
ACAD_COLOR
350
73
  3
ACAD_DETAILVIEWSTYLE
350
122
  3
ACAD_GROUP
350
D
  3
ACAD_IMAGE_VARS
350
DC
  3
ACAD_LAYOUT
350
1A
  3
ACAD_MATERIAL
350
72
  3
ACAD_MLEADERSTYLE
350
B5
  3
ACAD_MLINESTYLE
350
17
  3
ACAD_PLOTSETTINGS
350
19
  3
ACAD_PLOTSTYLENAME
350
E
  3
ACAD_SCALELIST
350
B6
  3
ACAD_SECTIONVIEWSTYLE
350
123
  3
ACAD_TABLESTYLE
350
86
  3
ACAD_VISUALSTYLE
350
99
  3
ACDB_RECOMPOSE_DATA
350
4D5
  3
AcDbVariableDictionary
350
66
  3
APPDATA
350
E1
  0
SUN
  5
ED
330
94
100
AcDbSun
 90
        1
290
     0
 63
     7
421
 16777215
 40
1.0
291
     1
 91
  2455826
 92
 54000000
292
     0
 70
     2
 71
   256
280
     1
  0
DICTIONARY
  5
127
330
126
100
AcDbDictionary
280
     1
281
     1
  3
ADSK_XREC_LAYER_RECONCILED
360
128
  0
DICTIONARY
  5
12C
330
12B
100
AcDbDictionary
280
     1
281
     1
  3
ADSK_XREC_LAYER_RECONCILED
360
12D
  0
DICTIONARY
  5
12F
330
12E
100
AcDbDictionary
280
     1
281
     1
  3
ADSK_XREC_LAYER_RECONCILED
360
130
  0
DICTIONARY
  5
433
330
432
100
AcDbDictionary
280
     1
281
     1
  3
ACAD_DIMASSOC
360
434
  0
DICTIONARY
  5
48F
330
48E
100
AcDbDictionary
280
     1
281
     1
  3
ACAD_DIMASSOC
360
490
  0
DICTIONARY
  5
492
330
491
100
AcDbDictionary
280
     1
281
     1
  3
ACAD_DIMASSOC
360
493
  0
SUN
  5
2B7
330
2B5
100
AcDbSun
 90
        1
290
     0
 63
     7
421
 16777215
 40
1.0
291
     1
 91
  2455826
 92
 54000000
292
     0
 70
     2
 71
   256
280
     1
  0
DICTIONARY
  5
73
102
{ACAD_REACTORS
330
C
102
}
330
C
100
AcDbDictionary
281
     1
  0
DICTIONARY
  5
122
102
{ACAD_REACTORS
330
C
102
}
330
C
100
AcDbDictionary
281
     1
  0
DICTIONARY
  5
D
102
{ACAD_REACTORS
330
C
102
}
330
C
100
AcDbDictionary
281
     1
  0
RASTERVARIABLES
  5
DC
102
{ACAD_REACTORS
330
C
102
}
330
C
100
AcDbRasterVariables
 90
        0
 70
     1
 71
     1
 72
     5
  0
DICTIONARY
  5
1A
102
{ACAD_REACTORS
330
C
102
}
330
C
100
AcDbDictionary
281
     1
  3
Model
350
22
  3
Sheet1
350
59
  0
DICTIONARY
  5
72
102
{ACAD_REACTORS
330
C
102
}
330
C
100
AcDbDictionary
281
     1
  3
ByBlock
350
E2
  3
ByLayer
350
96
  3
Global
350
98
  0
DICTIONARY
  5
B5
102
{ACAD_REACTORS
330
C
102
}
330
C
100
AcDbDictionary
281
     1
  0
DICTIONARY
  5
17
102
{ACAD_REACTORS
330
C
102
}
330
C
100
AcDbDictionary
281
     1
  3
Standard
350
18
  0
DICTIONARY
  5
19
102
{ACAD_REACTORS
330
C
102
}
330
C
100
AcDbDictionary
281
     1
  0
ACDBDICTIONARYWDFLT
  5
E
102
{ACAD_REACTORS
330
C
102
}
330
C
100
AcDbDictionary
281
     1
  3
Normal
350
F
100
AcDbDictionaryWithDefault
340
F
  0
DICTIONARY
  5
B6
102
{ACAD_REACTORS
330
C
102
}
330
C
100
AcDbDictionary
281
     1
  3
A0
350
B7
  3
A1
350
B8
  3
A2
350
B9
  3
A3
350
BA
  3
A4
350
BB
  3
A5
350
BC
  3
A6
350
BD
  3
A7
350
BE
  3
A8
350
BF
  3
A9
350
C0
  3
B0
350
C1
  3
B1
350
C2
  3
B2
350
C3
  3
B3
350
C4
  3
B4
350
C5
  3
B5
350
C6
  3
B6
350
C7
  3
B7
350
C8
  3
B8
350
C9
  3
B9
350
CA
  3
C0
350
CB
  3
C1
350
CC
  3
C2
350
CD
  3
C3
350
CE
  3
C4
350
CF
  3
C5
350
D0
  3
C6
350
D1
  3
C7
350
D2
  3
C8
350
D3
  3
C9
350
D4
  3
D0
350
D5
  3
D1
350
D6
  3
D2
350
D7
  0
DICTIONARY
  5
123
102
{ACAD_REACTORS
330
C
102
}
330
C
100
AcDbDictionary
281
     1
  0
DICTIONARY
  5
86
102
{ACAD_REACTORS
330
C
102
}
330
C
100
AcDbDictionary
281
     1
  3
Standard
350
87
  0
DICTIONARY
  5
99
102
{ACAD_REACTORS
330
C
102
}
330
C
100
AcDbDictionary
281
     1
  3
2dWireframe
350
9F
  3
3D Hidden
350
A1
  3
3dWireframe
350
A0
  3
Basic
350
9E
  3
Brighten
350
A5
  3
ColorChange
350
A9
  3
Conceptual
350
A2
  3
Dim
350
A4
  3
EdgeColorOff
350
E7
  3
Facepattern
350
A8
  3
Flat
350
9A
  3
FlatWithEdges
350
9B
  3
Gouraud
350
9C
  3
GouraudWithEdges
350
9D
  3
Hidden
350
E4
  3
JitterOff
350
E5
  3
Linepattern
350
A7
  3
OverhangOff
350
E6
  3
Realistic
350
A3
  3
Shaded
350
EC
  3
Shaded with edges
350
EB
  3
Shades of Gray
350
E8
  3
Sketchy
350
E9
  3
Thicken
350
A6
  3
Wireframe
350
E3
  3
X-Ray
350
EA
  0
XRECORD
  5
4D5
102
{ACAD_REACTORS
330
C
102
}
330
C
100
AcDbXrecord
280
     1
 90
        1
330
87
  0
DICTIONARY
  5
66
102
{ACAD_REACTORS
330
C
102
}
330
C
100
AcDbDictionary
281
     1
  3
CANNOSCALE
350
D8
  3
CTABLESTYLE
350
89
  3
DIMASSOC
350
67
  3
HIDETEXT
350
6B
  3
LIGHTSINBLOCKS
350
DF
  3
XCLIPFRAME
350
E0
  0
DICTIONARY
  5
E1
102
{ACAD_REACTORS
330
C
102
}
330
C
100
AcDbDictionary
281
     1
  0
XRECORD
  5
128
102
{ACAD_REACTORS
330
127
102
}
330
127
100
AcDbXrecord
280
     1
290
     1
  0
XRECORD
  5
12D
102
{ACAD_REACTORS
330
12C
102
}
330
12C
100
AcDbXrecord
280
     1
290
     1
  0
XRECORD
  5
130
102
{ACAD_REACTORS
330
12F
102
}
330
12F
100
AcDbXrecord
280
     1
290
     1
  0
DIMASSOC
  5
434
102
{ACAD_REACTORS
330
433
102
}
330
433
100
AcDbDimAssoc
330
432
 90
        1
 70
     0
 71
     0
  1
AcDbOsnapPointRef
 72
     1
331
449
 73
     2
 91
        0
 40
1.0
 10
0.0
 20
0.0
 30
2.000000000000000E+50
 75
     0
  0
DIMASSOC
  5
490
102
{ACAD_REACTORS
330
48F
102
}
330
48F
100
AcDbDimAssoc
330
48E
 90
        3
 70
     0
 71
     0
  1
AcDbOsnapPointRef
 72
     6
331
43A
 73
     2
 91
        0
 40
0.1002629761146787
 10
0.0
 20
0.0
 30
0.0
332
439
 74
     2
 92
        0
 75
     0
  1
AcDbOsnapPointRef
 72
     6
331
43A
 73
     2
 91
        0
 40
0.9076636358177209
 10
0.0
 20
0.0
 30
0.0
332
439
 74
     2
 92
        0
 75
     0
  0
DIMASSOC
  5
493
102
{ACAD_REACTORS
330
492
102
}
330
492
100
AcDbDimAssoc
330
491
 90
        3
 70
     0
 71
     0
  1
AcDbOsnapPointRef
 72
    13
331
448
 73
     2
 91
        0
 40
0.0
 10
0.0
 20
0.0
 30
2.000000000000000E+50
 75
     0
  1
AcDbOsnapPointRef
 72
    13
331
45E
 73
     2
 91
        0
 40
0.0
 10
0.0
 20
0.0
 30
2.000000000000000E+50
 75
     0
  0
LAYOUT
  5
22
102
{ACAD_REACTORS
330
1A
102
}
330
1A
100
AcDbPlotSettings
  1

  2
none_device
  4
ANSI_A_(8.50_x_11.00_Inches)
  6

 40
6.35
 41
19.05
 42
6.35
 43
19.05
 44
215.9
 45
279.4
 46
11.11250000000003
 47
0.0000000000000142
 48
0.0
 49
0.0
140
0.0
141
0.0
142
1.0
143
1.263157894736842
 70
 11444
 72
     0
 73
     1
 74
     1
  7
monochrome.ctb
 75
     0
 76
     0
 77
     2
 78
   300
147
0.7916666666666665
148
-702.8076765758875
149
-496.2830551296954
100
AcDbLayout
  1
Model
 70
     1
 71
     0
 10
0.0
 20
0.0
 11
12.0
 21
9.0
 12
0.0
 22
0.0
 32
0.0
 14
14.95488517921439
 24
30.65743115527245
 34
0.0
 15
212.4296967826412
 25
149.2119837112021
 35
0.0
146
0.0
 13
0.0
 23
0.0
 33
0.0
 16
1.0
 26
0.0
 36
0.0
 17
0.0
 27
1.0
 37
0.0
 76
     0
330
1F
331
94
  0
LAYOUT
  5
59
102
{ACAD_REACTORS
330
1A
102
}
330
1A
100
AcDbPlotSettings
  1

  2
None
  4
iso-a4
  6

 40
6.35
 41
6.35
 42
6.35
 43
14.46388888888889
 44
209.9027777777778
 45
297.0388888888888
 46
0.0
 47
0.0
 48
0.0
 49
0.0
140
0.0
141
0.0
142
1.0
143
1.0
 70
   688
 72
     0
 73
     1
 74
     5
  7

 75
    16
 76
     0
 77
     2
 78
   300
147
1.0
148
0.0
149
0.0
100
AcDbLayout
  1
Sheet1
 70
     1
 71
     1
 10
0.0
 20
0.0
 11
11.125
 21
8.01388888888889
 12
0.0
 22
0.0
 32
0.0
 14
0.0
 24
0.0
 34
0.0
 15
0.0
 25
0.0
 35
0.0
146
0.0
 13
0.0
 23
0.0
 33
0.0
 16
1.0
 26
0.0
 36
0.0
 17
0.0
 27
1.0
 37
0.0
 76
     0
330
58
331
2B5
  0
MATERIAL
  5
E2
102
{ACAD_REACTORS
330
72
102
}
330
72
100
AcDbMaterial
  1
ByBlock
 72
     1
 94
      127
  0
MATERIAL
  5
96
102
{ACAD_REACTORS
330
72
102
}
330
72
100
AcDbMaterial
  1
ByLayer
 72
     1
 94
       63
  0
MATERIAL
  5
98
102
{ACAD_REACTORS
330
72
102
}
330
72
100
AcDbMaterial
  1
Global
 72
     1
 94
       63
  0
MLINESTYLE
  5
18
102
{ACAD_REACTORS
330
17
102
}
330
17
100
AcDbMlineStyle
  2
STANDARD
 70
     0
  3

 62
   256
 51
90.0
 52
90.0
 71
     2
 49
0.5
 62
   256
  6
BYLAYER
 49
-0.5
 62
   256
  6
BYLAYER
  0
ACDBPLACEHOLDER
  5
F
102
{ACAD_REACTORS
330
E
102
}
330
E
  0
SCALE
  5
B7
102
{ACAD_REACTORS
330
B6
102
}
330
B6
100
AcDbScale
 70
     0
300
1:1
140
1.0
141
1.0
290
     1
  0
SCALE
  5
B8
102
{ACAD_REACTORS
330
B6
102
}
330
B6
100
AcDbScale
 70
     0
300
1:2
140
1.0
141
2.0
290
     0
  0
SCALE
  5
B9
102
{ACAD_REACTORS
330
B6
102
}
330
B6
100
AcDbScale
 70
     0
300
1:4
140
1.0
141
4.0
290
     0
  0
SCALE
  5
BA
102
{ACAD_REACTORS
330
B6
102
}
330
B6
100
AcDbScale
 70
     0
300
1:5
140
1.0
141
5.0
290
     0
  0
SCALE
  5
BB
102
{ACAD_REACTORS
330
B6
102
}
330
B6
100
AcDbScale
 70
     0
300
1:8
140
1.0
141
8.0
290
     0
  0
SCALE
  5
BC
102
{ACAD_REACTORS
330
B6
102
}
330
B6
100
AcDbScale
 70
     0
300
1:10
140
1.0
141
10.0
290
     0
  0
SCALE
  5
BD
102
{ACAD_REACTORS
330
B6
102
}
330
B6
100
AcDbScale
 70
     0
300
1:16
140
1.0
141
16.0
290
     0
  0
SCALE
  5
BE
102
{ACAD_REACTORS
330
B6
102
}
330
B6
100
AcDbScale
 70
     0
300
1:20
140
1.0
141
20.0
290
     0
  0
SCALE
  5
BF
102
{ACAD_REACTORS
330
B6
102
}
330
B6
100
AcDbScale
 70
     0
300
1:30
140
1.0
141
30.0
290
     0
  0
SCALE
  5
C0
102
{ACAD_REACTORS
330
B6
102
}
330
B6
100
AcDbScale
 70
     0
300
1:40
140
1.0
141
40.0
290
     0
  0
SCALE
  5
C1
102
{ACAD_REACTORS
330
B6
102
}
330
B6
100
AcDbScale
 70
     0
300
1:50
140
1.0
141
50.0
290
     0
  0
SCALE
  5
C2
102
{ACAD_REACTORS
330
B6
102
}
330
B6
100
AcDbScale
 70
     0
300
1:100
140
1.0
141
100.0
290
     0
  0
SCALE
  5
C3
102
{ACAD_REACTORS
330
B6
102
}
330
B6
100
AcDbScale
 70
     0
300
2:1
140
2.0
141
1.0
290
     0
  0
SCALE
  5
C4
102
{ACAD_REACTORS
330
B6
102
}
330
B6
100
AcDbScale
 70
     0
300
4:1
140
4.0
141
1.0
290
     0
  0
SCALE
  5
C5
102
{ACAD_REACTORS
330
B6
102
}
330
B6
100
AcDbScale
 70
     0
300
8:1
140
8.0
141
1.0
290
     0
  0
SCALE
  5
C6
102
{ACAD_REACTORS
330
B6
102
}
330
B6
100
AcDbScale
 70
     0
300
10:1
140
10.0
141
1.0
290
     0
  0
SCALE
  5
C7
102
{ACAD_REACTORS
330
B6
102
}
330
B6
100
AcDbScale
 70
     0
300
100:1
140
100.0
141
1.0
290
     0
  0
SCALE
  5
C8
102
{ACAD_REACTORS
330
B6
102
}
330
B6
100
AcDbScale
 70
     0
300
1/128" = 1'-0"
140
0.0078125
141
12.0
290
     0
  0
SCALE
  5
C9
102
{ACAD_REACTORS
330
B6
102
}
330
B6
100
AcDbScale
 70
     0
300
1/64" = 1'-0"
140
0.015625
141
12.0
290
     0
  0
SCALE
  5
CA
102
{ACAD_REACTORS
330
B6
102
}
330
B6
100
AcDbScale
 70
     0
300
1/32" = 1'-0"
140
0.03125
141
12.0
290
     0
  0
SCALE
  5
CB
102
{ACAD_REACTORS
330
B6
102
}
330
B6
100
AcDbScale
 70
     0
300
1/16" = 1'-0"
140
0.0625
141
12.0
290
     0
  0
SCALE
  5
CC
102
{ACAD_REACTORS
330
B6
102
}
330
B6
100
AcDbScale
 70
     0
300
3/32" = 1'-0"
140
0.09375
141
12.0
290
     0
  0
SCALE
  5
CD
102
{ACAD_REACTORS
330
B6
102
}
330
B6
100
AcDbScale
 70
     0
300
1/8" = 1'-0"
140
0.125
141
12.0
290
     0
  0
SCALE
  5
CE
102
{ACAD_REACTORS
330
B6
102
}
330
B6
100
AcDbScale
 70
     0
300
3/16" = 1'-0"
140
0.1875
141
12.0
290
     0
  0
SCALE
  5
CF
102
{ACAD_REACTORS
330
B6
102
}
330
B6
100
AcDbScale
 70
     0
300
1/4" = 1'-0"
140
0.25
141
12.0
290
     0
  0
SCALE
  5
D0
102
{ACAD_REACTORS
330
B6
102
}
330
B6
100
AcDbScale
 70
     0
300
3/8" = 1'-0"
140
0.375
141
12.0
290
     0
  0
SCALE
  5
D1
102
{ACAD_REACTORS
330
B6
102
}
330
B6
100
AcDbScale
 70
     0
300
1/2" = 1'-0"
140
0.5
141
12.0
290
     0
  0
SCALE
  5
D2
102
{ACAD_REACTORS
330
B6
102
}
330
B6
100
AcDbScale
 70
     0
300
3/4" = 1'-0"
140
0.75
141
12.0
290
     0
  0
SCALE
  5
D3
102
{ACAD_REACTORS
330
B6
102
}
330
B6
100
AcDbScale
 70
     0
300
1" = 1'-0"
140
1.0
141
12.0
290
     0
  0
SCALE
  5
D4
102
{ACAD_REACTORS
330
B6
102
}
330
B6
100
AcDbScale
 70
     0
300
1-1/2" = 1'-0"
140
1.5
141
12.0
290
     0
  0
SCALE
  5
D5
102
{ACAD_REACTORS
330
B6
102
}
330
B6
100
AcDbScale
 70
     0
300
3" = 1'-0"
140
3.0
141
12.0
290
     0
  0
SCALE
  5
D6
102
{ACAD_REACTORS
330
B6
102
}
330
B6
100
AcDbScale
 70
     0
300
6" = 1'-0"
140
6.0
141
12.0
290
     0
  0
SCALE
  5
D7
102
{ACAD_REACTORS
330
B6
102
}
330
B6
100
AcDbScale
 70
     0
300
1'-0" = 1'-0"
140
12.0
141
12.0
290
     0
  0
TABLESTYLE
  5
87
102
{ACAD_REACTORS
330
86
102
}
102
{ACAD_XDICTIONARY
360
4D3
102
}
330
86
100
AcDbTableStyle
  3
Standard
 70
     0
 71
     0
 40
0.06
 41
0.06
280
     0
281
     0
  7
Standard
140
0.18
170
     2
 62
     0
 63
   257
283
     0
 90
      512
 91
        0
  1

274
    -2
284
     1
 64
     0
275
    -2
285
     1
 65
     0
276
    -2
286
     1
 66
     0
277
    -2
287
     1
 67
     0
278
    -2
288
     1
 68
     0
279
    -2
289
     1
 69
     0
  7
Standard
140
0.25
170
     5
 62
     0
 63
   257
283
     0
 90
      512
 91
        0
  1

274
    -2
284
     1
 64
     0
275
    -2
285
     1
 65
     0
276
    -2
286
     1
 66
     0
277
    -2
287
     1
 67
     0
278
    -2
288
     1
 68
     0
279
    -2
289
     1
 69
     0
  7
Standard
140
0.18
170
     5
 62
     0
 63
   257
283
     0
 90
      512
 91
        0
  1

274
    -2
284
     1
 64
     0
275
    -2
285
     1
 65
     0
276
    -2
286
     1
 66
     0
277
    -2
287
     1
 67
     0
278
    -2
288
     1
 68
     0
279
    -2
289
     1
 69
     0
  0
VISUALSTYLE
  5
9F
102
{ACAD_REACTORS
330
99
102
}
330
99
100
AcDbVisualStyle
  2
2dWireframe
 70
     4
177
     3
291
     0
 70
    58
 90
        0
176
     1
 90
        2
176
     1
 90
        1
176
     1
 90
        0
176
     1
 40
-0.6
176
     1
 40
-30.0
176
     1
 62
     7
420
 16777215
176
     1
 90
        1
176
     1
 90
        4
176
     1
 62
     7
176
     1
 62
   257
176
     1
 90
        1
176
     1
 90
        1
176
     1
 40
1.0
176
     1
 90
        0
176
     1
 62
   257
176
     1
 40
1.0
176
     1
 90
        1
176
     1
 90
        6
176
     1
 90
        2
176
     1
 62
     7
176
     1
 90
        5
176
     1
 90
        0
176
     1
 90
        0
176
     1
290
     0
176
     1
 90
        1
176
     1
 40
0.0
176
     1
 90
        0
176
     1
290
     1
176
     1
290
     1
176
     1
290
     0
176
     1
290
     0
176
     1
290
     0
176
     1
290
     0
176
     1
290
     0
176
     1
290
     0
176
     1
290
     0
176
     1
 90
       50
176
     1
 40
0.0
176
     1
 40
1.0
176
     1
 90
        0
176
     1
 62
    18
420
        0
176
     1
 90
       50
176
     1
 90
        3
176
     1
 62
     5
420
      255
176
     1
290
     0
176
     1
 90
       50
176
     1
 90
       50
176
     1
 90
       50
176
     1
290
     0
176
     1
 90
       50
176
     1
 62
   256
176
     0
 40
1.0
176
     0
 90
        2
176
     1
  1
strokes_ogs.tif
176
     1
290
     0
176
     1
 40
1.0
176
     1
 40
1.0
176
     1
  0
VISUALSTYLE
  5
A1
102
{ACAD_REACTORS
330
99
102
}
330
99
100
AcDbVisualStyle
  2
3D Hidden
 70
     6
177
     3
291
     0
 70
    58
 90
        1
176
     1
 90
        2
176
     1
 90
        2
176
     1
 90
        0
176
     1
 40
-0.6
176
     1
 40
-30.0
176
     1
 62
     7
420
 16777215
176
     1
 90
        2
176
     1
 90
        2
176
     1
 62
     7
176
     1
 62
   257
176
     1
 90
        2
176
     1
 90
        1
176
     1
 40
40.0
176
     1
 90
        0
176
     1
 62
   257
176
     1
 40
1.0
176
     1
 90
        1
176
     1
 90
        6
176
     1
 90
        2
176
     1
 62
     7
176
     1
 90
        3
176
     1
 90
        0
176
     1
 90
        0
176
     1
290
     0
176
     1
 90
        1
176
     1
 40
0.0
176
     1
 90
        0
176
     1
290
     0
176
     1
290
     1
176
     1
290
     1
176
     1
290
     0
176
     1
290
     0
176
     1
290
     0
176
     1
290
     0
176
     1
290
     0
176
     1
290
     0
176
     1
 90
       50
176
     1
 40
0.0
176
     1
 40
1.0
176
     1
 90
        0
176
     1
 62
    18
420
        0
176
     1
 90
       50
176
     1
 90
        3
176
     1
 62
     5
420
      255
176
     1
290
     0
176
     1
 90
       50
176
     1
 90
       50
176
     1
 90
       50
176
     1
290
     0
176
     1
 90
       50
176
     1
 62
   256
176
     0
 40
1.0
176
     0
 90
        2
176
     1
  1
strokes_ogs.tif
176
     1
290
     0
176
     1
 40
1.0
176
     1
 40
1.0
176
     1
  0
VISUALSTYLE
  5
A0
102
{ACAD_REACTORS
330
99
102
}
330
99
100
AcDbVisualStyle
  2
3dWireframe
 70
     5
177
     3
291
     0
 70
    58
 90
        0
176
     1
 90
        2
176
     1
 90
        1
176
     1
 90
        0
176
     1
 40
-0.6
176
     1
 40
-30.0
176
     1
 62
     7
420
 16777215
176
     1
 90
        1
176
     1
 90
        4
176
     1
 62
     7
176
     1
 62
   257
176
     1
 90
        1
176
     1
 90
        1
176
     1
 40
1.0
176
     1
 90
        0
176
     1
 62
   257
176
     1
 40
1.0
176
     1
 90
        1
176
     1
 90
        6
176
     1
 90
        2
176
     1
 62
     7
176
     1
 90
        5
176
     1
 90
        0
176
     1
 90
        0
176
     1
290
     0
176
     1
 90
        1
176
     1
 40
0.0
176
     1
 90
        0
176
     1
290
     0
176
     1
290
     1
176
     1
290
     1
176
     1
290
     0
176
     1
290
     0
176
     1
290
     0
176
     1
290
     0
176
     1
290
     0
176
     1
290
     0
176
     1
 90
       50
176
     1
 40
0.0
176
     1
 40
1.0
176
     1
 90
        0
176
     1
 62
    18
420
        0
176
     1
 90
       50
176
     1
 90
        3
176
     1
 62
     5
420
      255
176
     1
290
     0
176
     1
 90
       50
176
     1
 90
       50
176
     1
 90
       50
176
     1
290
     0
176
     1
 90
       50
176
     1
 62
   256
176
     0
 40
1.0
176
     0
 90
        2
176
     1
  1
strokes_ogs.tif
176
     1
290
     0
176
     1
 40
1.0
176
     1
 40
1.0
176
     1
  0
VISUALSTYLE
  5
9E
102
{ACAD_REACTORS
330
99
102
}
330
99
100
AcDbVisualStyle
  2
Basic
 70
     7
177
     3
291
     1
 70
    58
 90
        1
176
     1
 90
        0
176
     1
 90
        1
176
     1
 90
        0
176
     1
 40
-0.6
176
     1
 40
-30.0
176
     1
 62
     7
420
 16777215
176
     1
 90
        0
176
     1
 90
        4
176
     1
 62
     7
176
     1
 62
   257
176
     1
 90
        1
176
     1
 90
        1
176
     1
 40
1.0
176
     1
 90
        8
176
     1
 62
     7
176
     1
 40
1.0
176
     1
 90
        1
176
     1
 90
        6
176
     1
 90
        2
176
     1
 62
     7
176
     1
 90
        5
176
     1
 90
        0
176
     1
 90
        0
176
     1
290
     0
176
     1
 90
        1
176
     1
 40
0.0
176
     1
 90
        0
176
     1
290
     0
176
     1
290
     1
176
     1
290
     1
176
     1
290
     0
176
     1
290
     0
176
     1
290
     0
176
     1
290
     0
176
     1
290
     0
176
     1
290
     0
176
     1
 90
       50
176
     1
 40
0.0
176
     1
 40
1.0
176
     1
 90
        0
176
     1
 62
    18
420
        0
176
     1
 90
       50
176
     1
 90
        3
176
     1
 62
     5
420
      255
176
     1
290
     0
176
     1
 90
       50
176
     1
 90
       50
176
     1
 90
       50
176
     1
290
     0
176
     1
 90
       50
176
     1
 62
   256
176
     0
 40
1.0
176
     0
 90
        2
176
     1
  1
strokes_ogs.tif
176
     1
290
     0
176
     1
 40
1.0
176
     1
 40
1.0
176
     1
  0
VISUALSTYLE
  5
A5
102
{ACAD_REACTORS
330
99
102
}
330
99
100
AcDbVisualStyle
  2
Brighten
 70
    12
177
     3
291
     1
 70
    58
 90
        2
176
     1
 90
        2
176
     1
 90
        1
176
     1
 90
        0
176
     1
 40
-0.6
176
     1
 40
-30.0
176
     1
 62
     7
420
 16777215
176
     1
 90
        1
176
     1
 90
        4
176
     1
 62
     7
176
     1
 62
   257
176
     1
 90
        1
176
     1
 90
        1
176
     1
 40
1.0
176
     1
 90
        8
176
     1
 62
     7
176
     1
 40
1.0
176
     1
 90
        1
176
     1
 90
        6
176
     1
 90
        2
176
     1
 62
     7
176
     1
 90
        5
176
     1
 90
        0
176
     1
 90
        0
176
     1
290
     0
176
     1
 90
        1
176
     1
 40
50.0
176
     1
 90
        0
176
     1
290
     0
176
     1
290
     1
176
     1
290
     1
176
     1
290
     0
176
     1
290
     0
176
     1
290
     0
176
     1
290
     0
176
     1
290
     0
176
     1
290
     0
176
     1
 90
       50
176
     1
 40
0.0
176
     1
 40
1.0
176
     1
 90
        0
176
     1
 62
    18
420
        0
176
     1
 90
       50
176
     1
 90
        3
176
     1
 62
     5
420
      255
176
     1
290
     0
176
     1
 90
       50
176
     1
 90
       50
176
     1
 90
       50
176
     1
290
     0
176
     1
 90
       50
176
     1
 62
   256
176
     0
 40
1.0
176
     0
 90
        2
176
     1
  1
strokes_ogs.tif
176
     1
290
     0
176
     1
 40
1.0
176
     1
 40
1.0
176
     1
  0
VISUALSTYLE
  5
A9
102
{ACAD_REACTORS
330
99
102
}
330
99
100
AcDbVisualStyle
  2
ColorChange
 70
    16
177
     3
291
     1
 70
    58
 90
        2
176
     1
 90
        2
176
     1
 90
        3
176
     1
 90
        0
176
     1
 40
-0.6
176
     1
 40
-30.0
176
     1
 62
     8
420
  8421504
176
     1
 90
        1
176
     1
 90
        4
176
     1
 62
     7
176
     1
 62
   257
176
     1
 90
        1
176
     1
 90
        1
176
     1
 40
1.0
176
     1
 90
        8
176
     1
 62
     8
420
  8421504
176
     1
 40
1.0
176
     1
 90
        1
176
     1
 90
        6
176
     1
 90
        2
176
     1
 62
     7
176
     1
 90
        5
176
     1
 90
        0
176
     1
 90
        0
176
     1
290
     0
176
     1
 90
        1
176
     1
 40
0.0
176
     1
 90
        0
176
     1
290
     0
176
     1
290
     1
176
     1
290
     1
176
     1
290
     0
176
     1
290
     0
176
     1
290
     0
176
     1
290
     0
176
     1
290
     0
176
     1
290
     0
176
     1
 90
       50
176
     1
 40
0.0
176
     1
 40
1.0
176
     1
 90
        0
176
     1
 62
    18
420
        0
176
     1
 90
       50
176
     1
 90
        3
176
     1
 62
     5
420
      255
176
     1
290
     0
176
     1
 90
       50
176
     1
 90
       50
176
     1
 90
       50
176
     1
290
     0
176
     1
 90
       50
176
     1
 62
   256
176
     0
 40
1.0
176
     0
 90
        2
176
     1
  1
strokes_ogs.tif
176
     1
290
     0
176
     1
 40
1.0
176
     1
 40
1.0
176
     1
  0
VISUALSTYLE
  5
A2
102
{ACAD_REACTORS
330
99
102
}
330
99
100
AcDbVisualStyle
  2
Conceptual
 70
     9
177
     3
291
     0
 70
    58
 90
        3
176
     1
 90
        2
176
     1
 90
        1
176
     1
 90
        0
176
     1
 40
-0.6
176
     1
 40
-30.0
176
     1
 62
     7
420
 16777215
176
     1
 90
        2
176
     1
 90
        2
176
     1
 62
     7
176
     1
 62
   257
176
     1
 90
        1
176
     1
 90
        1
176
     1
 40
40.0
176
     1
 90
        8
176
     1
 62
     7
176
     1
 40
1.0
176
     1
 90
        1
176
     1
 90
        6
176
     1
 90
        2
176
     1
 62
     7
176
     1
 90
        3
176
     1
 90
        0
176
     1
 90
        0
176
     1
290
     0
176
     1
 90
        1
176
     1
 40
0.0
176
     1
 90
        0
176
     1
290
     0
176
     1
290
     1
176
     1
290
     1
176
     1
290
     0
176
     1
290
     0
176
     1
290
     0
176
     1
290
     0
176
     1
290
     0
176
     1
290
     0
176
     1
 90
       50
176
     1
 40
0.0
176
     1
 40
1.0
176
     1
 90
        0
176
     1
 62
    18
420
        0
176
     1
 90
       50
176
     1
 90
        3
176
     1
 62
     5
420
      255
176
     1
290
     0
176
     1
 90
       50
176
     1
 90
       50
176
     1
 90
       50
176
     1
290
     0
176
     1
 90
       50
176
     1
 62
   256
176
     0
 40
1.0
176
     0
 90
        2
176
     1
  1
strokes_ogs.tif
176
     1
290
     0
176
     1
 40
1.0
176
     1
 40
1.0
176
     1
  0
VISUALSTYLE
  5
A4
102
{ACAD_REACTORS
330
99
102
}
330
99
100
AcDbVisualStyle
  2
Dim
 70
    11
177
     3
291
     1
 70
    58
 90
        2
176
     1
 90
        2
176
     1
 90
        1
176
     1
 90
        0
176
     1
 40
-0.6
176
     1
 40
-30.0
176
     1
 62
     7
420
 16777215
176
     1
 90
        1
176
     1
 90
        4
176
     1
 62
     7
176
     1
 62
   257
176
     1
 90
        1
176
     1
 90
        1
176
     1
 40
1.0
176
     1
 90
        8
176
     1
 62
     7
176
     1
 40
1.0
176
     1
 90
        1
176
     1
 90
        6
176
     1
 90
        2
176
     1
 62
     7
176
     1
 90
        5
176
     1
 90
        0
176
     1
 90
        0
176
     1
290
     0
176
     1
 90
        1
176
     1
 40
-50.0
176
     1
 90
        0
176
     1
290
     0
176
     1
290
     1
176
     1
290
     1
176
     1
290
     0
176
     1
290
     0
176
     1
290
     0
176
     1
290
     0
176
     1
290
     0
176
     1
290
     0
176
     1
 90
       50
176
     1
 40
0.0
176
     1
 40
1.0
176
     1
 90
        0
176
     1
 62
    18
420
        0
176
     1
 90
       50
176
     1
 90
        3
176
     1
 62
     5
420
      255
176
     1
290
     0
176
     1
 90
       50
176
     1
 90
       50
176
     1
 90
       50
176
     1
290
     0
176
     1
 90
       50
176
     1
 62
   256
176
     0
 40
1.0
176
     0
 90
        2
176
     1
  1
strokes_ogs.tif
176
     1
290
     0
176
     1
 40
1.0
176
     1
 40
1.0
176
     1
  0
VISUALSTYLE
  5
E7
102
{ACAD_REACTORS
330
99
102
}
330
99
100
AcDbVisualStyle
  2
EdgeColorOff
 70
    22
177
     3
291
     1
 70
    58
 90
        2
176
     0
 90
        2
176
     0
 90
        0
176
     0
 90
        0
176
     0
 40
0.6
176
     0
 40
30.0
176
     0
 62
     7
420
 16777215
176
     0
 90
        1
176
     0
 90
        4
176
     0
 62
     7
176
     0
 62
   257
176
     0
 90
        1
176
     0
 90
        1
176
     0
 40
1.0
176
     0
 90
        8
176
     2
 62
     7
176
     0
 40
1.0
176
     0
 90
        1
176
     0
 90
        6
176
     0
 90
        2
176
     0
 62
     7
176
     0
 90
        5
176
     0
 90
        0
176
     0
 90
        0
176
     0
290
     0
176
     0
 90
        1
176
     0
 40
0.0
176
     0
 90
        0
176
     0
290
     0
176
     0
290
     1
176
     0
290
     1
176
     0
290
     0
176
     0
290
     0
176
     0
290
     0
176
     0
290
     0
176
     0
290
     0
176
     0
290
     0
176
     0
 90
       50
176
     0
 40
0.0
176
     0
 40
1.0
176
     0
 90
        0
176
     0
 62
    18
420
        0
176
     0
 90
       50
176
     0
 90
        3
176
     0
 62
     5
420
      255
176
     0
290
     0
176
     0
 90
       50
176
     0
 90
       50
176
     0
 90
       50
176
     0
290
     0
176
     0
 90
       50
176
     0
 62
   256
176
     0
 40
1.0
176
     0
 90
        2
176
     0
  1
strokes_ogs.tif
176
     0
290
     0
176
     0
 40
1.0
176
     0
 40
1.0
176
     0
  0
VISUALSTYLE
  5
A8
102
{ACAD_REACTORS
330
99
102
}
330
99
100
AcDbVisualStyle
  2
Facepattern
 70
    15
177
     3
291
     1
 70
    58
 90
        2
176
     1
 90
        2
176
     1
 90
        1
176
     1
 90
        0
176
     1
 40
-0.6
176
     1
 40
-30.0
176
     1
 62
     7
420
 16777215
176
     1
 90
        1
176
     1
 90
        4
176
     1
 62
     7
176
     1
 62
   257
176
     1
 90
        1
176
     1
 90
        1
176
     1
 40
1.0
176
     1
 90
        8
176
     1
 62
     7
176
     1
 40
1.0
176
     1
 90
        1
176
     1
 90
        6
176
     1
 90
        2
176
     1
 62
     7
176
     1
 90
        5
176
     1
 90
        0
176
     1
 90
        0
176
     1
290
     0
176
     1
 90
        1
176
     1
 40
0.0
176
     1
 90
        0
176
     1
290
     0
176
     1
290
     1
176
     1
290
     1
176
     1
290
     0
176
     1
290
     0
176
     1
290
     0
176
     1
290
     0
176
     1
290
     0
176
     1
290
     0
176
     1
 90
       50
176
     1
 40
0.0
176
     1
 40
1.0
176
     1
 90
        0
176
     1
 62
    18
420
        0
176
     1
 90
       50
176
     1
 90
        3
176
     1
 62
     5
420
      255
176
     1
290
     0
176
     1
 90
       50
176
     1
 90
       50
176
     1
 90
       50
176
     1
290
     0
176
     1
 90
       50
176
     1
 62
   256
176
     0
 40
1.0
176
     0
 90
        2
176
     1
  1
strokes_ogs.tif
176
     1
290
     0
176
     1
 40
1.0
176
     1
 40
1.0
176
     1
  0
VISUALSTYLE
  5
9A
102
{ACAD_REACTORS
330
99
102
}
330
99
100
AcDbVisualStyle
  2
Flat
 70
     0
177
     3
291
     1
 70
    58
 90
        2
176
     1
 90
        1
176
     1
 90
        1
176
     1
 90
        2
176
     1
 40
-0.6
176
     1
 40
30.0
176
     1
 62
     7
420
 16777215
176
     1
 90
        0
176
     1
 90
        4
176
     1
 62
     7
176
     1
 62
   257
176
     1
 90
        1
176
     1
 90
        1
176
     1
 40
1.0
176
     1
 90
        8
176
     1
 62
     7
176
     1
 40
1.0
176
     1
 90
        1
176
     1
 90
        6
176
     1
 90
        2
176
     1
 62
     7
176
     1
 90
        5
176
     1
 90
        0
176
     1
 90
        0
176
     1
290
     0
176
     1
 90
        1
176
     1
 40
0.0
176
     1
 90
        0
176
     1
290
     0
176
     1
290
     1
176
     1
290
     1
176
     1
290
     0
176
     1
290
     0
176
     1
290
     0
176
     1
290
     0
176
     1
290
     0
176
     1
290
     0
176
     1
 90
       50
176
     1
 40
0.0
176
     1
 40
1.0
176
     1
 90
        0
176
     1
 62
    18
420
        0
176
     1
 90
       50
176
     1
 90
        3
176
     1
 62
     5
420
      255
176
     1
290
     0
176
     1
 90
       50
176
     1
 90
       50
176
     1
 90
       50
176
     1
290
     0
176
     1
 90
       50
176
     1
 62
   256
176
     0
 40
1.0
176
     0
 90
        2
176
     1
  1
strokes_ogs.tif
176
     1
290
     0
176
     1
 40
1.0
176
     1
 40
1.0
176
     1
  0
VISUALSTYLE
  5
9B
102
{ACAD_REACTORS
330
99
102
}
330
99
100
AcDbVisualStyle
  2
FlatWithEdges
 70
     1
177
     3
291
     1
 70
    58
 90
        2
176
     1
 90
        1
176
     1
 90
        1
176
     1
 90
        2
176
     1
 40
-0.6
176
     1
 40
30.0
176
     1
 62
     7
420
 16777215
176
     1
 90
        1
176
     1
 90
        4
176
     1
 62
     7
176
     1
 62
   257
176
     1
 90
        1
176
     1
 90
        1
176
     1
 40
1.0
176
     1
 90
        0
176
     1
 62
   257
176
     1
 40
1.0
176
     1
 90
        1
176
     1
 90
        6
176
     1
 90
        2
176
     1
 62
     7
176
     1
 90
        5
176
     1
 90
        0
176
     1
 90
        0
176
     1
290
     0
176
     1
 90
        1
176
     1
 40
0.0
176
     1
 90
        0
176
     1
290
     0
176
     1
290
     1
176
     1
290
     1
176
     1
290
     0
176
     1
290
     0
176
     1
290
     0
176
     1
290
     0
176
     1
290
     0
176
     1
290
     0
176
     1
 90
       50
176
     1
 40
0.0
176
     1
 40
1.0
176
     1
 90
        0
176
     1
 62
    18
420
        0
176
     1
 90
       50
176
     1
 90
        3
176
     1
 62
     5
420
      255
176
     1
290
     0
176
     1
 90
       50
176
     1
 90
       50
176
     1
 90
       50
176
     1
290
     0
176
     1
 90
       50
176
     1
 62
   256
176
     0
 40
1.0
176
     0
 90
        2
176
     1
  1
strokes_ogs.tif
176
     1
290
     0
176
     1
 40
1.0
176
     1
 40
1.0
176
     1
  0
VISUALSTYLE
  5
9C
102
{ACAD_REACTORS
330
99
102
}
330
99
100
AcDbVisualStyle
  2
Gouraud
 70
     2
177
     3
291
     1
 70
    58
 90
        2
176
     1
 90
        2
176
     1
 90
        1
176
     1
 90
        2
176
     1
 40
-0.6
176
     1
 40
30.0
176
     1
 62
     7
420
 16777215
176
     1
 90
        0
176
     1
 90
        4
176
     1
 62
     7
176
     1
 62
   257
176
     1
 90
        1
176
     1
 90
        1
176
     1
 40
1.0
176
     1
 90
        0
176
     1
 62
     7
176
     1
 40
1.0
176
     1
 90
        1
176
     1
 90
        6
176
     1
 90
        2
176
     1
 62
     7
176
     1
 90
        5
176
     1
 90
        0
176
     1
 90
        0
176
     1
290
     0
176
     1
 90
        1
176
     1
 40
0.0
176
     1
 90
        0
176
     1
290
     0
176
     1
290
     1
176
     1
290
     1
176
     1
290
     0
176
     1
290
     0
176
     1
290
     0
176
     1
290
     0
176
     1
290
     0
176
     1
290
     0
176
     1
 90
       50
176
     1
 40
0.0
176
     1
 40
1.0
176
     1
 90
        0
176
     1
 62
    18
420
        0
176
     1
 90
       50
176
     1
 90
        3
176
     1
 62
     5
420
      255
176
     1
290
     0
176
     1
 90
       50
176
     1
 90
       50
176
     1
 90
       50
176
     1
290
     0
176
     1
 90
       50
176
     1
 62
   256
176
     0
 40
1.0
176
     0
 90
        2
176
     1
  1
strokes_ogs.tif
176
     1
290
     0
176
     1
 40
1.0
176
     1
 40
1.0
176
     1
  0
VISUALSTYLE
  5
9D
102
{ACAD_REACTORS
330
99
102
}
330
99
100
AcDbVisualStyle
  2
GouraudWithEdges
 70
     3
177
     3
291
     1
 70
    58
 90
        2
176
     1
 90
        2
176
     1
 90
        1
176
     1
 90
        2
176
     1
 40
-0.6
176
     1
 40
30.0
176
     1
 62
     7
420
 16777215
176
     1
 90
        1
176
     1
 90
        4
176
     1
 62
     7
176
     1
 62
   257
176
     1
 90
        1
176
     1
 90
        1
176
     1
 40
1.0
176
     1
 90
        0
176
     1
 62
   257
176
     1
 40
1.0
176
     1
 90
        1
176
     1
 90
        6
176
     1
 90
        2
176
     1
 62
     7
176
     1
 90
        5
176
     1
 90
        0
176
     1
 90
        0
176
     1
290
     0
176
     1
 90
        1
176
     1
 40
0.0
176
     1
 90
        0
176
     1
290
     0
176
     1
290
     1
176
     1
290
     1
176
     1
290
     0
176
     1
290
     0
176
     1
290
     0
176
     1
290
     0
176
     1
290
     0
176
     1
290
     0
176
     1
 90
       50
176
     1
 40
0.0
176
     1
 40
1.0
176
     1
 90
        0
176
     1
 62
    18
420
        0
176
     1
 90
       50
176
     1
 90
        3
176
     1
 62
     5
420
      255
176
     1
290
     0
176
     1
 90
       50
176
     1
 90
       50
176
     1
 90
       50
176
     1
290
     0
176
     1
 90
       50
176
     1
 62
   256
176
     0
 40
1.0
176
     0
 90
        2
176
     1
  1
strokes_ogs.tif
176
     1
290
     0
176
     1
 40
1.0
176
     1
 40
1.0
176
     1
  0
VISUALSTYLE
  5
E4
102
{ACAD_REACTORS
330
99
102
}
330
99
100
AcDbVisualStyle
  2
Hidden
 70
     6
177
     3
291
     0
 70
    58
 90
        1
176
     1
 90
        2
176
     1
 90
        2
176
     1
 90
        0
176
     1
 40
0.6
176
     1
 40
30.0
176
     1
 62
     7
420
 16777215
176
     1
 90
        2
176
     1
 90
        2
176
     1
 62
     7
176
     1
 62
   257
176
     1
 90
        2
176
     1
 90
        1
176
     1
 40
40.0
176
     1
 90
        0
176
     1
 62
   257
176
     1
 40
1.0
176
     1
 90
        1
176
     1
 90
        6
176
     1
 90
        2
176
     1
 62
     7
176
     1
 90
        3
176
     1
 90
        0
176
     1
 90
        0
176
     1
290
     0
176
     1
 90
        1
176
     1
 40
0.0
176
     1
 90
        0
176
     1
290
     0
176
     1
290
     1
176
     1
290
     1
176
     1
290
     0
176
     1
290
     0
176
     1
290
     0
176
     1
290
     0
176
     1
290
     0
176
     1
290
     0
176
     1
 90
       50
176
     1
 40
0.0
176
     1
 40
1.0
176
     1
 90
        0
176
     1
 62
    18
420
        0
176
     1
 90
       50
176
     1
 90
        3
176
     1
 62
     5
420
      255
176
     1
290
     0
176
     1
 90
       50
176
     1
 90
       50
176
     1
 90
       50
176
     1
290
     0
176
     1
 90
       50
176
     1
 62
   256
176
     0
 40
1.0
176
     0
 90
        2
176
     1
  1
strokes_ogs.tif
176
     1
290
     0
176
     1
 40
1.0
176
     1
 40
1.0
176
     1
  0
VISUALSTYLE
  5
E5
102
{ACAD_REACTORS
330
99
102
}
330
99
100
AcDbVisualStyle
  2
JitterOff
 70
    20
177
     3
291
     1
 70
    58
 90
        2
176
     0
 90
        2
176
     0
 90
        0
176
     0
 90
        0
176
     0
 40
0.6
176
     0
 40
30.0
176
     0
 62
     7
420
 16777215
176
     0
 90
        1
176
     0
 90
        4
176
     0
 62
     7
176
     0
 62
   257
176
     0
 90
        1
176
     0
 90
        1
176
     0
 40
1.0
176
     0
 90
       10
176
     2
 62
     7
176
     0
 40
1.0
176
     0
 90
        1
176
     0
 90
        6
176
     0
 90
        2
176
     0
 62
     7
176
     0
 90
        5
176
     0
 90
        0
176
     0
 90
        0
176
     0
290
     0
176
     0
 90
        1
176
     0
 40
0.0
176
     0
 90
        0
176
     0
290
     0
176
     0
290
     1
176
     0
290
     1
176
     0
290
     0
176
     0
290
     0
176
     0
290
     0
176
     0
290
     0
176
     0
290
     0
176
     0
290
     0
176
     0
 90
       50
176
     0
 40
0.0
176
     0
 40
1.0
176
     0
 90
        0
176
     0
 62
    18
420
        0
176
     0
 90
       50
176
     0
 90
        3
176
     0
 62
     5
420
      255
176
     0
290
     0
176
     0
 90
       50
176
     0
 90
       50
176
     0
 90
       50
176
     0
290
     0
176
     0
 90
       50
176
     0
 62
   256
176
     0
 40
1.0
176
     0
 90
        2
176
     0
  1
strokes_ogs.tif
176
     0
290
     0
176
     0
 40
1.0
176
     0
 40
1.0
176
     0
  0
VISUALSTYLE
  5
A7
102
{ACAD_REACTORS
330
99
102
}
330
99
100
AcDbVisualStyle
  2
Linepattern
 70
    14
177
     3
291
     1
 70
    58
 90
        2
176
     1
 90
        2
176
     1
 90
        1
176
     1
 90
        0
176
     1
 40
-0.6
176
     1
 40
-30.0
176
     1
 62
     7
420
 16777215
176
     1
 90
        1
176
     1
 90
        4
176
     1
 62
     7
176
     1
 62
   257
176
     1
 90
        7
176
     1
 90
        7
176
     1
 40
1.0
176
     1
 90
        8
176
     1
 62
     7
176
     1
 40
1.0
176
     1
 90
        1
176
     1
 90
        6
176
     1
 90
        2
176
     1
 62
     7
176
     1
 90
        5
176
     1
 90
        0
176
     1
 90
        0
176
     1
290
     0
176
     1
 90
        1
176
     1
 40
0.0
176
     1
 90
        0
176
     1
290
     0
176
     1
290
     1
176
     1
290
     1
176
     1
290
     0
176
     1
290
     0
176
     1
290
     0
176
     1
290
     0
176
     1
290
     0
176
     1
290
     0
176
     1
 90
       50
176
     1
 40
0.0
176
     1
 40
1.0
176
     1
 90
        0
176
     1
 62
    18
420
        0
176
     1
 90
       50
176
     1
 90
        3
176
     1
 62
     5
420
      255
176
     1
290
     0
176
     1
 90
       50
176
     1
 90
       50
176
     1
 90
       50
176
     1
290
     0
176
     1
 90
       50
176
     1
 62
   256
176
     0
 40
1.0
176
     0
 90
        2
176
     1
  1
strokes_ogs.tif
176
     1
290
     0
176
     1
 40
1.0
176
     1
 40
1.0
176
     1
  0
VISUALSTYLE
  5
E6
102
{ACAD_REACTORS
330
99
102
}
330
99
100
AcDbVisualStyle
  2
OverhangOff
 70
    21
177
     3
291
     1
 70
    58
 90
        2
176
     0
 90
        2
176
     0
 90
        0
176
     0
 90
        0
176
     0
 40
0.6
176
     0
 40
30.0
176
     0
 62
     7
420
 16777215
176
     0
 90
        1
176
     0
 90
        4
176
     0
 62
     7
176
     0
 62
   257
176
     0
 90
        1
176
     0
 90
        1
176
     0
 40
1.0
176
     0
 90
        9
176
     2
 62
     7
176
     0
 40
1.0
176
     0
 90
        1
176
     0
 90
        6
176
     0
 90
        2
176
     0
 62
     7
176
     0
 90
        5
176
     0
 90
        0
176
     0
 90
        0
176
     0
290
     0
176
     0
 90
        1
176
     0
 40
0.0
176
     0
 90
        0
176
     0
290
     0
176
     0
290
     1
176
     0
290
     1
176
     0
290
     0
176
     0
290
     0
176
     0
290
     0
176
     0
290
     0
176
     0
290
     0
176
     0
290
     0
176
     0
 90
       50
176
     0
 40
0.0
176
     0
 40
1.0
176
     0
 90
        0
176
     0
 62
    18
420
        0
176
     0
 90
       50
176
     0
 90
        3
176
     0
 62
     5
420
      255
176
     0
290
     0
176
     0
 90
       50
176
     0
 90
       50
176
     0
 90
       50
176
     0
290
     0
176
     0
 90
       50
176
     0
 62
   256
176
     0
 40
1.0
176
     0
 90
        2
176
     0
  1
strokes_ogs.tif
176
     0
290
     0
176
     0
 40
1.0
176
     0
 40
1.0
176
     0
  0
VISUALSTYLE
  5
A3
102
{ACAD_REACTORS
330
99
102
}
330
99
100
AcDbVisualStyle
  2
Realistic
 70
     8
177
     3
291
     0
 70
    58
 90
        2
176
     1
 90
        2
176
     1
 90
        1
176
     1
 90
        0
176
     1
 40
-0.6
176
     1
 40
-30.0
176
     1
 62
     7
420
 16777215
176
     1
 90
        1
176
     1
 90
        0
176
     1
 62
     7
176
     1
 62
   257
176
     1
 90
        1
176
     1
 90
        1
176
     1
 40
1.0
176
     1
 90
        8
176
     1
 62
     8
420
  7895160
176
     1
 40
1.0
176
     1
 90
        1
176
     1
 90
        6
176
     1
 90
        2
176
     1
 62
     7
176
     1
 90
        5
176
     1
 90
        0
176
     1
 90
        0
176
     1
290
     0
176
     1
 90
       13
176
     1
 40
0.0
176
     1
 90
        0
176
     1
290
     0
176
     1
290
     1
176
     1
290
     1
176
     1
290
     0
176
     1
290
     0
176
     1
290
     0
176
     1
290
     0
176
     1
290
     0
176
     1
290
     0
176
     1
 90
       50
176
     1
 40
0.0
176
     1
 40
1.0
176
     1
 90
        0
176
     1
 62
    18
420
        0
176
     1
 90
       50
176
     1
 90
        3
176
     1
 62
     5
420
      255
176
     1
290
     0
176
     1
 90
       50
176
     1
 90
       50
176
     1
 90
       50
176
     1
290
     0
176
     1
 90
       50
176
     1
 62
   256
176
     0
 40
1.0
176
     0
 90
        2
176
     1
  1
strokes_ogs.tif
176
     1
290
     0
176
     1
 40
1.0
176
     1
 40
1.0
176
     1
  0
VISUALSTYLE
  5
EC
102
{ACAD_REACTORS
330
99
102
}
330
99
100
AcDbVisualStyle
  2
Shaded
 70
    27
177
     3
291
     0
 70
    58
 90
        2
176
     1
 90
        2
176
     1
 90
        1
176
     1
 90
        2
176
     1
 40
0.6
176
     1
 40
30.0
176
     1
 62
     7
420
 16777215
176
     1
 90
        0
176
     1
 90
        4
176
     1
 62
     7
176
     1
 62
   257
176
     1
 90
        1
176
     1
 90
        1
176
     1
 40
1.0
176
     1
 90
        8
176
     1
 62
   257
176
     1
 40
1.0
176
     1
 90
        1
176
     1
 90
        6
176
     1
 90
        2
176
     1
 62
     8
420
  7895160
176
     1
 90
        3
176
     1
 90
        0
176
     1
 90
        0
176
     1
290
     0
176
     1
 90
        5
176
     1
 40
0.0
176
     1
 90
        0
176
     1
290
     0
176
     1
290
     1
176
     1
290
     1
176
     1
290
     0
176
     1
290
     0
176
     1
290
     0
176
     1
290
     0
176
     1
290
     0
176
     1
290
     0
176
     1
 90
       50
176
     1
 40
0.0
176
     1
 40
1.0
176
     1
 90
        0
176
     1
 62
    18
420
        0
176
     1
 90
       50
176
     1
 90
        3
176
     1
 62
     5
420
      255
176
     1
290
     0
176
     1
 90
       50
176
     1
 90
       50
176
     1
 90
       50
176
     1
290
     0
176
     1
 90
       50
176
     1
 62
   256
176
     0
 40
1.0
176
     0
 90
        2
176
     1
  1
strokes_ogs.tif
176
     1
290
     0
176
     1
 40
1.0
176
     1
 40
1.0
176
     1
  0
VISUALSTYLE
  5
EB
102
{ACAD_REACTORS
330
99
102
}
330
99
100
AcDbVisualStyle
  2
Shaded with edges
 70
    26
177
     3
291
     0
 70
    58
 90
        2
176
     1
 90
        2
176
     1
 90
        1
176
     1
 90
        2
176
     1
 40
0.6
176
     1
 40
30.0
176
     1
 62
     7
420
 16777215
176
     1
 90
        1
176
     1
 90
       10
176
     1
 62
     7
176
     1
 62
   257
176
     1
 90
        2
176
     1
 90
        1
176
     1
 40
1.0
176
     1
 90
        8
176
     1
 62
   257
176
     1
 40
1.0
176
     1
 90
        1
176
     1
 90
        6
176
     1
 90
        2
176
     1
 62
     7
176
     1
 90
        3
176
     1
 90
        0
176
     1
 90
        0
176
     1
290
     0
176
     1
 90
        5
176
     1
 40
0.0
176
     1
 90
        0
176
     1
290
     0
176
     1
290
     1
176
     1
290
     1
176
     1
290
     0
176
     1
290
     0
176
     1
290
     0
176
     1
290
     0
176
     1
290
     0
176
     1
290
     0
176
     1
 90
       50
176
     1
 40
0.0
176
     1
 40
1.0
176
     1
 90
        0
176
     1
 62
    18
420
        0
176
     1
 90
       50
176
     1
 90
        3
176
     1
 62
     5
420
      255
176
     1
290
     0
176
     1
 90
       50
176
     1
 90
       50
176
     1
 90
       50
176
     1
290
     0
176
     1
 90
       50
176
     1
 62
   256
176
     0
 40
1.0
176
     0
 90
        2
176
     1
  1
strokes_ogs.tif
176
     1
290
     0
176
     1
 40
1.0
176
     1
 40
1.0
176
     1
  0
VISUALSTYLE
  5
E8
102
{ACAD_REACTORS
330
99
102
}
330
99
100
AcDbVisualStyle
  2
Shades of Gray
 70
    23
177
     3
291
     0
 70
    58
 90
        2
176
     1
 90
        2
176
     1
 90
        3
176
     1
 90
        0
176
     1
 40
0.6
176
     1
 40
30.0
176
     1
 62
     7
420
 16777215
176
     1
 90
        2
176
     1
 90
        2
176
     1
 62
     7
176
     1
 62
     7
176
     1
 90
        1
176
     1
 90
        1
176
     1
 40
40.0
176
     1
 90
        8
176
     1
 62
     7
176
     1
 40
1.0
176
     1
 90
        1
176
     1
 90
        6
176
     1
 90
        2
176
     1
 62
     7
176
     1
 90
        3
176
     1
 90
        0
176
     1
 90
        0
176
     1
290
     0
176
     1
 90
        1
176
     1
 40
0.0
176
     1
 90
        0
176
     1
290
     0
176
     1
290
     1
176
     1
290
     1
176
     1
290
     0
176
     1
290
     0
176
     1
290
     0
176
     1
290
     0
176
     1
290
     0
176
     1
290
     0
176
     1
 90
       50
176
     1
 40
0.0
176
     1
 40
1.0
176
     1
 90
        0
176
     1
 62
    18
420
        0
176
     1
 90
       50
176
     1
 90
        3
176
     1
 62
     5
420
      255
176
     1
290
     0
176
     1
 90
       50
176
     1
 90
       50
176
     1
 90
       50
176
     1
290
     0
176
     1
 90
       50
176
     1
 62
   256
176
     0
 40
1.0
176
     0
 90
        2
176
     1
  1
strokes_ogs.tif
176
     1
290
     0
176
     1
 40
1.0
176
     1
 40
1.0
176
     1
  0
VISUALSTYLE
  5
E9
102
{ACAD_REACTORS
330
99
102
}
330
99
100
AcDbVisualStyle
  2
Sketchy
 70
    24
177
     3
291
     0
 70
    58
 90
        1
176
     1
 90
        2
176
     1
 90
        2
176
     1
 90
        0
176
     1
 40
0.6
176
     1
 40
30.0
176
     1
 62
     7
420
 16777215
176
     1
 90
        2
176
     1
 90
        2
176
     1
 62
     7
176
     1
 62
     7
176
     1
 90
        1
176
     1
 90
        1
176
     1
 40
40.0
176
     1
 90
       11
176
     1
 62
     7
176
     1
 40
1.0
176
     1
 90
        1
176
     1
 90
        6
176
     1
 90
        2
176
     1
 62
     7
176
     1
 90
        6
176
     1
 90
        0
176
     1
 90
        0
176
     1
290
     0
176
     1
 90
        1
176
     1
 40
0.0
176
     1
 90
        0
176
     1
290
     0
176
     1
290
     1
176
     1
290
     1
176
     1
290
     0
176
     1
290
     0
176
     1
290
     0
176
     1
290
     0
176
     1
290
     0
176
     1
290
     0
176
     1
 90
       50
176
     1
 40
0.0
176
     1
 40
1.0
176
     1
 90
        0
176
     1
 62
    18
420
        0
176
     1
 90
       50
176
     1
 90
        3
176
     1
 62
     5
420
      255
176
     1
290
     0
176
     1
 90
       50
176
     1
 90
       50
176
     1
 90
       50
176
     1
290
     0
176
     1
 90
       50
176
     1
 62
   256
176
     0
 40
1.0
176
     0
 90
        2
176
     1
  1
strokes_ogs.tif
176
     1
290
     0
176
     1
 40
1.0
176
     1
 40
1.0
176
     1
  0
VISUALSTYLE
  5
A6
102
{ACAD_REACTORS
330
99
102
}
330
99
100
AcDbVisualStyle
  2
Thicken
 70
    13
177
     3
291
     1
 70
    58
 90
        2
176
     1
 90
        2
176
     1
 90
        1
176
     1
 90
        0
176
     1
 40
-0.6
176
     1
 40
-30.0
176
     1
 62
     7
420
 16777215
176
     1
 90
        1
176
     1
 90
        4
176
     1
 62
     7
176
     1
 62
   257
176
     1
 90
        1
176
     1
 90
        1
176
     1
 40
1.0
176
     1
 90
       12
176
     1
 62
     7
176
     1
 40
1.0
176
     1
 90
        1
176
     1
 90
        6
176
     1
 90
        2
176
     1
 62
     7
176
     1
 90
        5
176
     1
 90
        0
176
     1
 90
        0
176
     1
290
     0
176
     1
 90
        1
176
     1
 40
0.0
176
     1
 90
        0
176
     1
290
     0
176
     1
290
     1
176
     1
290
     1
176
     1
290
     0
176
     1
290
     0
176
     1
290
     0
176
     1
290
     0
176
     1
290
     0
176
     1
290
     0
176
     1
 90
       50
176
     1
 40
0.0
176
     1
 40
1.0
176
     1
 90
        0
176
     1
 62
    18
420
        0
176
     1
 90
       50
176
     1
 90
        3
176
     1
 62
     5
420
      255
176
     1
290
     0
176
     1
 90
       50
176
     1
 90
       50
176
     1
 90
       50
176
     1
290
     0
176
     1
 90
       50
176
     1
 62
   256
176
     0
 40
1.0
176
     0
 90
        2
176
     1
  1
strokes_ogs.tif
176
     1
290
     0
176
     1
 40
1.0
176
     1
 40
1.0
176
     1
  0
VISUALSTYLE
  5
E3
102
{ACAD_REACTORS
330
99
102
}
330
99
100
AcDbVisualStyle
  2
Wireframe
 70
     5
177
     3
291
     0
 70
    58
 90
        0
176
     1
 90
        2
176
     1
 90
        0
176
     1
 90
        0
176
     1
 40
0.6
176
     1
 40
30.0
176
     1
 62
     7
420
 16777215
176
     1
 90
        1
176
     1
 90
        4
176
     1
 62
     7
176
     1
 62
   257
176
     1
 90
        1
176
     1
 90
        1
176
     1
 40
1.0
176
     1
 90
        0
176
     1
 62
   257
176
     1
 40
1.0
176
     1
 90
        1
176
     1
 90
        6
176
     1
 90
        2
176
     1
 62
     7
176
     1
 90
        3
176
     1
 90
        0
176
     1
 90
        0
176
     1
290
     0
176
     1
 90
        1
176
     1
 40
0.0
176
     1
 90
        0
176
     1
290
     0
176
     1
290
     1
176
     1
290
     1
176
     1
290
     0
176
     1
290
     0
176
     1
290
     0
176
     1
290
     0
176
     1
290
     0
176
     1
290
     0
176
     1
 90
       50
176
     1
 40
0.0
176
     1
 40
1.0
176
     1
 90
        0
176
     1
 62
    18
420
        0
176
     1
 90
       50
176
     1
 90
        3
176
     1
 62
     5
420
      255
176
     1
290
     0
176
     1
 90
       50
176
     1
 90
       50
176
     1
 90
       50
176
     1
290
     0
176
     1
 90
       50
176
     1
 62
   256
176
     0
 40
1.0
176
     0
 90
        2
176
     1
  1
strokes_ogs.tif
176
     1
290
     0
176
     1
 40
1.0
176
     1
 40
1.0
176
     1
  0
VISUALSTYLE
  5
EA
102
{ACAD_REACTORS
330
99
102
}
330
99
100
AcDbVisualStyle
  2
X-Ray
 70
    25
177
     3
291
     0
 70
    58
 90
        2
176
     1
 90
        2
176
     1
 90
        1
176
     1
 90
        1
176
     1
 40
0.5
176
     1
 40
30.0
176
     1
 62
     7
420
 16777215
176
     1
 90
        1
176
     1
 90
        0
176
     1
 62
     7
176
     1
 62
   257
176
     1
 90
        1
176
     1
 90
        1
176
     1
 40
1.0
176
     1
 90
        8
176
     1
 62
     7
176
     1
 40
1.0
176
     1
 90
        1
176
     1
 90
        6
176
     1
 90
        2
176
     1
 62
     7
176
     1
 90
        3
176
     1
 90
        0
176
     1
 90
        0
176
     1
290
     0
176
     1
 90
       13
176
     1
 40
0.0
176
     1
 90
        0
176
     1
290
     0
176
     1
290
     1
176
     1
290
     1
176
     1
290
     0
176
     1
290
     0
176
     1
290
     0
176
     1
290
     0
176
     1
290
     0
176
     1
290
     0
176
     1
 90
       50
176
     1
 40
0.0
176
     1
 40
1.0
176
     1
 90
        0
176
     1
 62
    18
420
        0
176
     1
 90
       50
176
     1
 90
        3
176
     1
 62
     5
420
      255
176
     1
290
     0
176
     1
 90
       50
176
     1
 90
       50
176
     1
 90
       50
176
     1
290
     0
176
     1
 90
       50
176
     1
 62
   256
176
     0
 40
1.0
176
     0
 90
        2
176
     1
  1
strokes_ogs.tif
176
     1
290
     0
176
     1
 40
1.0
176
     1
 40
1.0
176
     1
  0
DICTIONARYVAR
  5
D8
102
{ACAD_REACTORS
330
66
102
}
330
66
100
DictionaryVariables
280
     0
  1
1:1
  0
DICTIONARYVAR
  5
89
102
{ACAD_REACTORS
330
66
102
}
330
66
100
DictionaryVariables
280
     0
  1
Standard
  0
DICTIONARYVAR
  5
67
102
{ACAD_REACTORS
330
66
102
}
330
66
100
DictionaryVariables
280
     0
  1
2
  0
DICTIONARYVAR
  5
6B
102
{ACAD_REACTORS
330
66
102
}
330
66
100
DictionaryVariables
280
     0
  1
1
  0
DICTIONARYVAR
  5
DF
102
{ACAD_REACTORS
330
66
102
}
330
66
100
DictionaryVariables
280
     0
  1
0
  0
DICTIONARYVAR
  5
E0
102
{ACAD_REACTORS
330
66
102
}
330
66
100
DictionaryVariables
280
     0
  1
0
  0
DICTIONARY
  5
4D3
330
87
100
AcDbDictionary
280
     1
281
     1
  3
ACAD_ROUNDTRIP_2008_TABLESTYLE_CELLSTYLEMAP
360
4D4
  0
CELLSTYLEMAP
  5
4D4
102
{ACAD_REACTORS
330
4D3
102
}
330
4D3
100
AcDbCellStyleMap
 90
        3
300
CELLSTYLE
  1
TABLEFORMAT_BEGIN
 90
        5
170
     1
 91
        0
 92
    32768
 62
   257
 93
        1
300
CONTENTFORMAT
  1
CONTENTFORMAT_BEGIN
 90
        0
 91
        0
 92
      512
 93
        0
300

 40
0.0
140
1.0
 94
        5
 62
     0
340
11
144
0.25
309
CONTENTFORMAT_END
171
     0
 94
        6
 95
        1
302
GRIDFORMAT
  1
GRIDFORMAT_BEGIN
 90
        0
 91
        1
 62
     0
 92
       -2
340
0
 93
        0
 40
0.045
309
GRIDFORMAT_END
 95
        2
302
GRIDFORMAT
  1
GRIDFORMAT_BEGIN
 90
        0
 91
        1
 62
     0
 92
       -2
340
0
 93
        0
 40
0.045
309
GRIDFORMAT_END
 95
        4
302
GRIDFORMAT
  1
GRIDFORMAT_BEGIN
 90
        0
 91
        1
 62
     0
 92
       -2
340
0
 93
        0
 40
0.045
309
GRIDFORMAT_END
 95
        8
302
GRIDFORMAT
  1
GRIDFORMAT_BEGIN
 90
        0
 91
        1
 62
     0
 92
       -2
340
0
 93
        0
 40
0.045
309
GRIDFORMAT_END
 95
       16
302
GRIDFORMAT
  1
GRIDFORMAT_BEGIN
 90
        0
 91
        1
 62
     0
 92
       -2
340
0
 93
        0
 40
0.045
309
GRIDFORMAT_END
 95
       32
302
GRIDFORMAT
  1
GRIDFORMAT_BEGIN
 90
        0
 91
        1
 62
     0
 92
       -2
340
0
 93
        0
 40
0.045
309
GRIDFORMAT_END
309
TABLEFORMAT_END
  1
CELLSTYLE_BEGIN
 90
        1
 91
        1
300
_TITLE
309
CELLSTYLE_END
300
CELLSTYLE
  1
TABLEFORMAT_BEGIN
 90
        5
170
     1
 91
        0
 92
        0
 62
   257
 93
        1
300
CONTENTFORMAT
  1
CONTENTFORMAT_BEGIN
 90
        0
 91
        0
 92
      512
 93
        0
300

 40
0.0
140
1.0
 94
        5
 62
     0
340
11
144
0.18
309
CONTENTFORMAT_END
171
     0
 94
        6
 95
        1
302
GRIDFORMAT
  1
GRIDFORMAT_BEGIN
 90
        0
 91
        1
 62
     0
 92
       -2
340
0
 93
        0
 40
0.045
309
GRIDFORMAT_END
 95
        2
302
GRIDFORMAT
  1
GRIDFORMAT_BEGIN
 90
        0
 91
        1
 62
     0
 92
       -2
340
0
 93
        0
 40
0.045
309
GRIDFORMAT_END
 95
        4
302
GRIDFORMAT
  1
GRIDFORMAT_BEGIN
 90
        0
 91
        1
 62
     0
 92
       -2
340
0
 93
        0
 40
0.045
309
GRIDFORMAT_END
 95
        8
302
GRIDFORMAT
  1
GRIDFORMAT_BEGIN
 90
        0
 91
        1
 62
     0
 92
       -2
340
0
 93
        0
 40
0.045
309
GRIDFORMAT_END
 95
       16
302
GRIDFORMAT
  1
GRIDFORMAT_BEGIN
 90
        0
 91
        1
 62
     0
 92
       -2
340
0
 93
        0
 40
0.045
309
GRIDFORMAT_END
 95
       32
302
GRIDFORMAT
  1
GRIDFORMAT_BEGIN
 90
        0
 91
        1
 62
     0
 92
       -2
340
0
 93
        0
 40
0.045
309
GRIDFORMAT_END
309
TABLEFORMAT_END
  1
CELLSTYLE_BEGIN
 90
        2
 91
        1
300
_HEADER
309
CELLSTYLE_END
300
CELLSTYLE
  1
TABLEFORMAT_BEGIN
 90
        5
170
     1
 91
        0
 92
        0
 62
   257
 93
        1
300
CONTENTFORMAT
  1
CONTENTFORMAT_BEGIN
 90
        0
 91
        0
 92
      512
 93
        0
300

 40
0.0
140
1.0
 94
        2
 62
     0
340
11
144
0.18
309
CONTENTFORMAT_END
171
     0
 94
        6
 95
        1
302
GRIDFORMAT
  1
GRIDFORMAT_BEGIN
 90
        0
 91
        1
 62
     0
 92
       -2
340
0
 93
        0
 40
0.045
309
GRIDFORMAT_END
 95
        2
302
GRIDFORMAT
  1
GRIDFORMAT_BEGIN
 90
        0
 91
        1
 62
     0
 92
       -2
340
0
 93
        0
 40
0.045
309
GRIDFORMAT_END
 95
        4
302
GRIDFORMAT
  1
GRIDFORMAT_BEGIN
 90
        0
 91
        1
 62
     0
 92
       -2
340
0
 93
        0
 40
0.045
309
GRIDFORMAT_END
 95
        8
302
GRIDFORMAT
  1
GRIDFORMAT_BEGIN
 90
        0
 91
        1
 62
     0
 92
       -2
340
0
 93
        0
 40
0.045
309
GRIDFORMAT_END
 95
       16
302
GRIDFORMAT
  1
GRIDFORMAT_BEGIN
 90
        0
 91
        1
 62
     0
 92
       -2
340
0
 93
        0
 40
0.045
309
GRIDFORMAT_END
 95
       32
302
GRIDFORMAT
  1
GRIDFORMAT_BEGIN
 90
        0
 91
        1
 62
     0
 92
       -2
340
0
 93
        0
 40
0.045
309
GRIDFORMAT_END
309
TABLEFORMAT_END
  1
CELLSTYLE_BEGIN
 90
        3
 91
        2
300
_DATA
309
CELLSTYLE_END
  0
ENDSEC
  0
EOF
