  0
SECTION
  2
HEADER
  9
$ACADVER
  1
AC1027
  9
$ACADMAINTVER
 70
   105
  9
$DWGCODEPAGE
  3
ANSI_932
  9
$LASTSAVEDBY
  1
AKIHIROMURAKAMI
  9
$REQUIREDVERSIONS
160
                 0
  9
$INSBASE
 10
0.0
 20
0.0
 30
0.0
  9
$EXTMIN
 10
52.46740873278617
 20
48.04378742027774
 30
0.0
  9
$EXTMAX
 10
252.9751400245271
 20
206.4015639748777
 30
0.0
  9
$LIMMIN
 10
0.0
 20
0.0
  9
$LIMMAX
 10
12.0
 20
9.0
  9
$ORTHOMODE
 70
     0
  9
$REGENMODE
 70
     1
  9
$FILLMODE
 70
     1
  9
$QTEXTMODE
 70
     0
  9
$MIRRTEXT
 70
     0
  9
$LTSCALE
 40
1.0
  9
$ATTMODE
 70
     1
  9
$TEXTSIZE
 40
0.2
  9
$TRACEWID
 40
0.05
  9
$TEXTSTYLE
  7
Standard
  9
$CLAYER
  8
0
  9
$CELTYPE
  6
ByLayer
  9
$CECOLOR
 62
   256
  9
$CELTSCALE
 40
1.0
  9
$DISPSILH
 70
     0
  9
$DIMSCALE
 40
1.0
  9
$DIMASZ
 40
0.18
  9
$DIMEXO
 40
0.0625
  9
$DIMDLI
 40
0.38
  9
$DIMRND
 40
0.0
  9
$DIMDLE
 40
0.0
  9
$DIMEXE
 40
0.18
  9
$DIMTP
 40
0.0
  9
$DIMTM
 40
0.0
  9
$DIMTXT
 40
0.18
  9
$DIMCEN
 40
0.09
  9
$DIMTSZ
 40
0.0
  9
$DIMTOL
 70
     0
  9
$DIMLIM
 70
     0
  9
$DIMTIH
 70
     1
  9
$DIMTOH
 70
     1
  9
$DIMSE1
 70
     0
  9
$DIMSE2
 70
     0
  9
$DIMTAD
 70
     0
  9
$DIMZIN
 70
     0
  9
$DIMBLK
  1

  9
$DIMASO
 70
     1
  9
$DIMSHO
 70
     1
  9
$DIMPOST
  1

  9
$DIMAPOST
  1

  9
$DIMALT
 70
     0
  9
$DIMALTD
 70
     2
  9
$DIMALTF
 40
25.4
  9
$DIMLFAC
 40
1.0
  9
$DIMTOFL
 70
     0
  9
$DIMTVP
 40
0.0
  9
$DIMTIX
 70
     0
  9
$DIMSOXD
 70
     0
  9
$DIMSAH
 70
     0
  9
$DIMBLK1
  1

  9
$DIMBLK2
  1

  9
$DIMSTYLE
  2
Standard
  9
$DIMCLRD
 70
     0
  9
$DIMCLRE
 70
     0
  9
$DIMCLRT
 70
     0
  9
$DIMTFAC
 40
1.0
  9
$DIMGAP
 40
0.09
  9
$DIMJUST
 70
     0
  9
$DIMSD1
 70
     0
  9
$DIMSD2
 70
     0
  9
$DIMTOLJ
 70
     1
  9
$DIMTZIN
 70
     0
  9
$DIMALTZ
 70
     0
  9
$DIMALTTZ
 70
     0
  9
$DIMUPT
 70
     0
  9
$DIMDEC
 70
     4
  9
$DIMTDEC
 70
     4
  9
$DIMALTU
 70
     2
  9
$DIMALTTD
 70
     2
  9
$DIMTXSTY
  7
Standard
  9
$DIMAUNIT
 70
     0
  9
$DIMADEC
 70
     0
  9
$DIMALTRND
 40
0.0
  9
$DIMAZIN
 70
     0
  9
$DIMDSEP
 70
    46
  9
$DIMATFIT
 70
     3
  9
$DIMFRAC
 70
     0
  9
$DIMLDRBLK
  1

  9
$DIMLUNIT
 70
     2
  9
$DIMLWD
 70
    -2
  9
$DIMLWE
 70
    -2
  9
$DIMTMOVE
 70
     0
  9
$DIMFXL
 40
1.0
  9
$DIMFXLON
 70
     0
  9
$DIMJOGANG
 40
0.7853981633974483
  9
$DIMTFILL
 70
     0
  9
$DIMTFILLCLR
 70
     0
  9
$DIMARCSYM
 70
     0
  9
$DIMLTYPE
  6

  9
$DIMLTEX1
  6

  9
$DIMLTEX2
  6

  9
$DIMTXTDIRECTION
 70
     0
  9
$LUNITS
 70
     2
  9
$LUPREC
 70
     4
  9
$SKETCHINC
 40
0.1
  9
$FILLETRAD
 40
0.0
  9
$AUNITS
 70
     0
  9
$AUPREC
 70
     0
  9
$MENU
  1
.
  9
$ELEVATION
 40
0.0
  9
$PELEVATION
 40
0.0
  9
$THICKNESS
 40
0.0
  9
$LIMCHECK
 70
     0
  9
$CHAMFERA
 40
0.0
  9
$CHAMFERB
 40
0.0
  9
$CHAMFERC
 40
0.0
  9
$CHAMFERD
 40
0.0
  9
$SKPOLY
 70
     0
  9
$TDCREATE
 40
2452643.438384271
  9
$TDUCREATE
 40
2452643.063384271
  9
$TDUPDATE
 40
2459566.717331007
  9
$TDUUPDATE
 40
2459566.342331007
  9
$TDINDWG
 40
0.0012952083
  9
$TDUSRTIMER
 40
0.0002716551
  9
$USRTIMER
 70
     1
  9
$ANGBASE
 50
0.0
  9
$ANGDIR
 70
     0
  9
$PDMODE
 70
     0
  9
$PDSIZE
 40
0.0
  9
$PLINEWID
 40
0.0
  9
$SPLFRAME
 70
     0
  9
$SPLINETYPE
 70
     6
  9
$SPLINESEGS
 70
     8
  9
$HANDSEED
  5
311
  9
$SURFTAB1
 70
     6
  9
$SURFTAB2
 70
     6
  9
$SURFTYPE
 70
     6
  9
$SURFU
 70
     6
  9
$SURFV
 70
     6
  9
$UCSBASE
  2

  9
$UCSNAME
  2

  9
$UCSORG
 10
0.0
 20
0.0
 30
0.0
  9
$UCSXDIR
 10
1.0
 20
0.0
 30
0.0
  9
$UCSYDIR
 10
0.0
 20
1.0
 30
0.0
  9
$UCSORTHOREF
  2

  9
$UCSORTHOVIEW
 70
     0
  9
$UCSORGTOP
 10
0.0
 20
0.0
 30
0.0
  9
$UCSORGBOTTOM
 10
0.0
 20
0.0
 30
0.0
  9
$UCSORGLEFT
 10
0.0
 20
0.0
 30
0.0
  9
$UCSORGRIGHT
 10
0.0
 20
0.0
 30
0.0
  9
$UCSORGFRONT
 10
0.0
 20
0.0
 30
0.0
  9
$UCSORGBACK
 10
0.0
 20
0.0
 30
0.0
  9
$PUCSBASE
  2

  9
$PUCSNAME
  2

  9
$PUCSORG
 10
0.0
 20
0.0
 30
0.0
  9
$PUCSXDIR
 10
1.0
 20
0.0
 30
0.0
  9
$PUCSYDIR
 10
0.0
 20
1.0
 30
0.0
  9
$PUCSORTHOREF
  2

  9
$PUCSORTHOVIEW
 70
     0
  9
$PUCSORGTOP
 10
0.0
 20
0.0
 30
0.0
  9
$PUCSORGBOTTOM
 10
0.0
 20
0.0
 30
0.0
  9
$PUCSORGLEFT
 10
0.0
 20
0.0
 30
0.0
  9
$PUCSORGRIGHT
 10
0.0
 20
0.0
 30
0.0
  9
$PUCSORGFRONT
 10
0.0
 20
0.0
 30
0.0
  9
$PUCSORGBACK
 10
0.0
 20
0.0
 30
0.0
  9
$USERI1
 70
     0
  9
$USERI2
 70
     0
  9
$USERI3
 70
     0
  9
$USERI4
 70
     0
  9
$USERI5
 70
     0
  9
$USERR1
 40
0.0
  9
$USERR2
 40
0.0
  9
$USERR3
 40
0.0
  9
$USERR4
 40
0.0
  9
$USERR5
 40
0.0
  9
$WORLDVIEW
 70
     1
  9
$SHADEDGE
 70
     3
  9
$SHADEDIF
 70
    70
  9
$TILEMODE
 70
     1
  9
$MAXACTVP
 70
    64
  9
$PINSBASE
 10
0.0
 20
0.0
 30
0.0
  9
$PLIMCHECK
 70
     0
  9
$PEXTMIN
 10
0.0
 20
0.0
 30
0.0
  9
$PEXTMAX
 10
0.0
 20
0.0
 30
0.0
  9
$PLIMMIN
 10
0.0
 20
0.0
  9
$PLIMMAX
 10
0.0
 20
0.0
  9
$UNITMODE
 70
     0
  9
$VISRETAIN
 70
     1
  9
$PLINEGEN
 70
     0
  9
$PSLTSCALE
 70
     1
  9
$TREEDEPTH
 70
  3020
  9
$CMLSTYLE
  2
Standard
  9
$CMLJUST
 70
     0
  9
$CMLSCALE
 40
1.0
  9
$PROXYGRAPHICS
 70
     1
  9
$MEASUREMENT
 70
     0
  9
$CELWEIGHT
370
    -1
  9
$ENDCAPS
280
     0
  9
$JOINSTYLE
280
     0
  9
$LWDISPLAY
290
     0
  9
$INSUNITS
 70
     1
  9
$HYPERLINKBASE
  1

  9
$STYLESHEET
  1

  9
$XEDIT
290
     1
  9
$CEPSNTYPE
380
     0
  9
$PSTYLEMODE
290
     1
  9
$FINGERPRINTGUID
  2
{FDEAD576-A652-11D2-9A35-0060089B3A3F}
  9
$VERSIONGUID
  2
{FBC2AE19-5C5C-49EC-81BC-71B1A3362A02}
  9
$EXTNAMES
290
     1
  9
$PSVPSCALE
 40
0.0
  9
$OLESTARTUP
290
     0
  9
$SORTENTS
280
   127
  9
$INDEXCTL
280
     0
  9
$HIDETEXT
280
     1
  9
$XCLIPFRAME
280
     0
  9
$HALOGAP
280
     0
  9
$OBSCOLOR
 70
   257
  9
$OBSLTYPE
280
     0
  9
$INTERSECTIONDISPLAY
280
     0
  9
$INTERSECTIONCOLOR
 70
   257
  9
$DIMASSOC
280
     2
  9
$PROJECTNAME
  1

  9
$CAMERADISPLAY
290
     0
  9
$LENSLENGTH
 40
50.0
  9
$CAMERAHEIGHT
 40
0.0
  9
$STEPSPERSEC
 40
2.0
  9
$STEPSIZE
 40
6.0
  9
$3DDWFPREC
 40
2.0
  9
$PSOLWIDTH
 40
0.25
  9
$PSOLHEIGHT
 40
4.0
  9
$LOFTANG1
 40
1.570796326794897
  9
$LOFTANG2
 40
1.570796326794897
  9
$LOFTMAG1
 40
0.0
  9
$LOFTMAG2
 40
0.0
  9
$LOFTPARAM
 70
     7
  9
$LOFTNORMALS
280
     1
  9
$LATITUDE
 40
37.795
  9
$LONGITUDE
 40
-122.394
  9
$NORTHDIRECTION
 40
0.0
  9
$TIMEZONE
 70
 -8000
  9
$LIGHTGLYPHDISPLAY
280
     1
  9
$TILEMODELIGHTSYNCH
280
     1
  9
$CMATERIAL
347
96
  9
$SOLIDHIST
280
     1
  9
$SHOWHIST
280
     1
  9
$DWFFRAME
280
     2
  9
$DGNFRAME
280
     0
  9
$REALWORLDSCALE
290
     1
  9
$INTERFERECOLOR
 62
     1
  9
$CSHADOW
280
     0
  9
$SHADOWPLANELOCATION
 40
0.0
  0
ENDSEC
  0
SECTION
  2
CLASSES
  0
CLASS
  1
ACDBDICTIONARYWDFLT
  2
AcDbDictionaryWithDefault
  3
ObjectDBX Classes
 90
        0
 91
        3
280
     0
281
     0
  0
CLASS
  1
ACDBPLACEHOLDER
  2
AcDbPlaceHolder
  3
ObjectDBX Classes
 90
        0
 91
        1
280
     0
281
     0
  0
CLASS
  1
LAYOUT
  2
AcDbLayout
  3
ObjectDBX Classes
 90
        0
 91
        1
280
     0
281
     0
  0
CLASS
  1
DICTIONARYVAR
  2
AcDbDictionaryVar
  3
ObjectDBX Classes
 90
        0
 91
        3
280
     0
281
     0
  0
CLASS
  1
TABLESTYLE
  2
AcDbTableStyle
  3
ObjectDBX Classes
 90
     4095
 91
        3
280
     0
281
     0
  0
CLASS
  1
MATERIAL
  2
AcDbMaterial
  3
ObjectDBX Classes
 90
     1153
 91
        3
280
     0
281
     0
  0
CLASS
  1
VISUALSTYLE
  2
AcDbVisualStyle
  3
ObjectDBX Classes
 90
     4095
 91
        3
280
     0
281
     0
  0
CLASS
  1
SCALE
  2
AcDbScale
  3
ObjectDBX Classes
 90
     1153
 91
        3
280
     0
281
     0
  0
CLASS
  1
CELLSTYLEMAP
  2
AcDbCellStyleMap
  3
ObjectDBX Classes
 90
     1152
 91
        3
280
     0
281
     0
  0
CLASS
  1
RASTERVARIABLES
  2
AcDbRasterVariables
  3
ISM
 90
        0
 91
        3
280
     0
281
     0
  0
CLASS
  1
SUN
  2
AcDbSun
  3
SCENEOE
 90
     1153
 91
        3
280
     0
281
     0
  0
CLASS
  1
DIMASSOC
  2
AcDbDimAssoc
  3
"AcDbDimAssoc|Product Desc:     AcDim ARX App For Dimension|Company:          Autodesk, Inc.|WEB Address:      www.autodesk.com"
 90
        0
 91
        3
280
     0
281
     0
  0
CLASS
  1
MLEADERSTYLE
  2
AcDbMLeaderStyle
  3
ACDB_MLEADERSTYLE_CLASS
 90
     4095
 91
        3
280
     0
281
     0
  0
ENDSEC
  0
SECTION
  2
TABLES
  0
TABLE
  2
VPORT
  5
8
330
0
100
AcDbSymbolTable
 70
     1
  0
VPORT
  5
94
330
8
100
AcDbSymbolTableRecord
100
AcDbViewportTableRecord
  2
*Active
 70
     0
 10
0.0
 20
0.0
 11
1.0
 21
1.0
 12
185.056586116755
 22
146.7613786554397
 13
0.0
 23
0.0
 14
0.5
 24
0.5
 15
0.5
 25
0.5
 16
0.0
 26
0.0
 36
1.0
 17
-27.66959356597982
 27
-19.53870295786201
 37
0.0
 40
230.9017671431258
 41
1.232851985559567
 42
50.0
 43
0.0
 44
0.0
 50
0.0
 51
0.0
 71
    16
 72
  1000
 73
     1
 74
     3
 75
     0
 76
     0
 77
     0
 78
     0
281
     0
 65
     1
110
0.0
120
0.0
130
0.0
111
1.0
121
0.0
131
0.0
112
0.0
122
1.0
132
0.0
 79
     0
146
0.0
348
9F
 60
     2
 61
     5
292
     1
282
     1
141
0.0
142
0.0
 63
   250
421
  3355443
361
ED
  0
ENDTAB
  0
TABLE
  2
LTYPE
  5
5
330
0
100
AcDbSymbolTable
 70
     3
  0
LTYPE
  5
14
330
5
100
AcDbSymbolTableRecord
100
AcDbLinetypeTableRecord
  2
ByBlock
 70
     0
  3

 72
    65
 73
     0
 40
0.0
  0
LTYPE
  5
15
330
5
100
AcDbSymbolTableRecord
100
AcDbLinetypeTableRecord
  2
ByLayer
 70
     0
  3

 72
    65
 73
     0
 40
0.0
  0
LTYPE
  5
16
330
5
100
AcDbSymbolTableRecord
100
AcDbLinetypeTableRecord
  2
Continuous
 70
     0
  3
Solid line
 72
    65
 73
     0
 40
0.0
  0
LTYPE
  5
129
330
5
100
AcDbSymbolTableRecord
100
AcDbLinetypeTableRecord
  2
CENTER
 70
     0
  3
Center ____ _ ____ _ ____ _ ____ _ ____ _ ____
 72
    65
 73
     4
 40
50.8
 49
31.75
 74
     0
 49
-6.35
 74
     0
 49
6.35
 74
     0
 49
-6.35
 74
     0
  0
LTYPE
  5
12C
330
5
100
AcDbSymbolTableRecord
100
AcDbLinetypeTableRecord
  2
DASHED
 70
     0
  3
Dashed __ __ __ __ __ __ __ __ __ __ __ __ __ _
 72
    65
 73
     2
 40
19.05
 49
12.7
 74
     0
 49
-6.35
 74
     0
  0
ENDTAB
  0
TABLE
  2
LAYER
  5
2
330
0
100
AcDbSymbolTable
 70
     7
  0
LAYER
  5
10
330
2
100
AcDbSymbolTableRecord
100
AcDbLayerTableRecord
  2
0
 70
     0
 62
     7
  6
Continuous
370
    -3
390
F
347
98
348
0
  0
LAYER
  5
125
330
2
100
AcDbSymbolTableRecord
100
AcDbLayerTableRecord
  2
Defpoints
 70
     0
 62
     7
  6
Continuous
290
     0
370
    -3
390
F
347
98
348
0
  0
LAYER
  5
126
330
2
100
AcDbSymbolTableRecord
100
AcDbLayerTableRecord
  2
文字
 70
     0
 62
     7
  6
Continuous
370
    25
390
F
347
98
348
0
  0
LAYER
  5
128
330
2
100
AcDbSymbolTableRecord
100
AcDbLayerTableRecord
  2
中心線
 70
     0
 62
     7
  6
CENTER
370
    30
390
F
347
98
348
0
  0
LAYER
  5
12A
330
2
100
AcDbSymbolTableRecord
100
AcDbLayerTableRecord
  2
実線
 70
     0
 62
   140
  6
Continuous
370
    30
390
F
347
98
348
0
  0
LAYER
  5
12B
330
2
100
AcDbSymbolTableRecord
100
AcDbLayerTableRecord
  2
破線
 70
     0
 62
     7
  6
DASHED
370
    20
390
F
347
98
348
0
  0
LAYER
  5
2DB
330
2
100
AcDbSymbolTableRecord
100
AcDbLayerTableRecord
  2
文字・寸法線
 70
     0
 62
     7
  6
Continuous
370
    13
390
F
347
98
348
0
  0
ENDTAB
  0
TABLE
  2
STYLE
  5
3
330
0
100
AcDbSymbolTable
 70
     1
  0
STYLE
  5
11
330
3
100
AcDbSymbolTableRecord
100
AcDbTextStyleTableRecord
  2
Standard
 70
     0
 40
0.0
 41
1.0
 50
0.0
 71
     0
 42
0.2
  3
arial.ttf
  4

1001
ACAD
1000
Arial
1071
        0
  0
ENDTAB
  0
TABLE
  2
VIEW
  5
6
330
0
100
AcDbSymbolTable
 70
     0
  0
ENDTAB
  0
TABLE
  2
UCS
  5
7
330
0
100
AcDbSymbolTable
 70
     0
  0
ENDTAB
  0
TABLE
  2
APPID
  5
9
330
0
100
AcDbSymbolTable
 70
     1
  0
APPID
  5
12
330
9
100
AcDbSymbolTableRecord
100
AcDbRegAppTableRecord
  2
ACAD
 70
     0
  0
ENDTAB
  0
TABLE
  2
DIMSTYLE
  5
A
330
0
100
AcDbSymbolTable
 70
     2
100
AcDbDimStyleTable
  0
DIMSTYLE
105
27
330
A
100
AcDbSymbolTableRecord
100
AcDbDimStyleTableRecord
  2
Standard
 70
     0
178
     0
340
11
  0
DIMSTYLE
105
12D
102
{ACAD_REACTORS
330
21C
330
21F
330
222
330
225
330
22A
330
22D
330
231
330
235
330
245
330
248
330
24B
330
24E
330
251
102
}
330
A
100
AcDbSymbolTableRecord
100
AcDbDimStyleTableRecord
  2
ISO-25
 70
     0
 41
2.5
 42
0.625
 43
3.75
 44
1.25
 73
     0
 74
     0
 77
     1
 78
     8
140
3.0
141
2.5
143
0.03937007874016
147
0.625
171
     3
172
     1
178
     0
271
     2
272
     2
274
     3
283
     0
284
     8
340
11
  0
ENDTAB
  0
TABLE
  2
BLOCK_RECORD
  5
1
330
0
100
AcDbSymbolTable
 70
    23
  0
BLOCK_RECORD
  5
1F
102
{ACAD_XDICTIONARY
360
30B
102
}
330
1
100
AcDbSymbolTableRecord
100
AcDbBlockTableRecord
  2
*Model_Space
340
22
 70
     0
280
     1
281
     0
  0
BLOCK_RECORD
  5
58
330
1
100
AcDbSymbolTableRecord
100
AcDbBlockTableRecord
  2
*Paper_Space
340
59
 70
     0
280
     1
281
     0
  0
BLOCK_RECORD
  5
5D
330
1
100
AcDbSymbolTableRecord
100
AcDbBlockTableRecord
  2
*Paper_Space0
340
5E
 70
     0
280
     1
281
     0
  0
BLOCK_RECORD
  5
158
330
1
100
AcDbSymbolTableRecord
100
AcDbBlockTableRecord
  2
*D1
340
0
 70
     0
280
     1
281
     0
  0
BLOCK_RECORD
  5
167
330
1
100
AcDbSymbolTableRecord
100
AcDbBlockTableRecord
  2
*D2
340
0
 70
     0
280
     1
281
     0
  0
BLOCK_RECORD
  5
176
330
1
100
AcDbSymbolTableRecord
100
AcDbBlockTableRecord
  2
*D3
340
0
 70
     0
280
     1
281
     0
  0
BLOCK_RECORD
  5
185
330
1
100
AcDbSymbolTableRecord
100
AcDbBlockTableRecord
  2
*D4
340
0
 70
     0
280
     1
281
     0
  0
BLOCK_RECORD
  5
196
330
1
100
AcDbSymbolTableRecord
100
AcDbBlockTableRecord
  2
*D5
340
0
 70
     0
280
     1
281
     0
  0
BLOCK_RECORD
  5
1A2
330
1
100
AcDbSymbolTableRecord
100
AcDbBlockTableRecord
  2
*D6
340
0
 70
     0
280
     1
281
     0
  0
BLOCK_RECORD
  5
1C5
330
1
100
AcDbSymbolTableRecord
100
AcDbBlockTableRecord
  2
*D7
340
0
 70
     0
280
     1
281
     0
  0
BLOCK_RECORD
  5
1D4
330
1
100
AcDbSymbolTableRecord
100
AcDbBlockTableRecord
  2
*D8
340
0
 70
     0
280
     1
281
     0
  0
BLOCK_RECORD
  5
1E3
330
1
100
AcDbSymbolTableRecord
100
AcDbBlockTableRecord
  2
*D9
340
0
 70
     0
280
     1
281
     0
  0
BLOCK_RECORD
  5
1F4
330
1
100
AcDbSymbolTableRecord
100
AcDbBlockTableRecord
  2
*D10
340
0
 70
     0
280
     1
281
     0
  0
BLOCK_RECORD
  5
203
330
1
100
AcDbSymbolTableRecord
100
AcDbBlockTableRecord
  2
*D11
340
0
 70
     0
280
     1
281
     0
  0
BLOCK_RECORD
  5
255
330
1
100
AcDbSymbolTableRecord
100
AcDbBlockTableRecord
  2
*D12
340
0
 70
     0
280
     1
281
     0
  0
BLOCK_RECORD
  5
261
330
1
100
AcDbSymbolTableRecord
100
AcDbBlockTableRecord
  2
*D13
340
0
 70
     0
280
     1
281
     0
  0
BLOCK_RECORD
  5
26D
330
1
100
AcDbSymbolTableRecord
100
AcDbBlockTableRecord
  2
*D14
340
0
 70
     0
280
     1
281
     0
  0
BLOCK_RECORD
  5
279
330
1
100
AcDbSymbolTableRecord
100
AcDbBlockTableRecord
  2
*D15
340
0
 70
     0
280
     1
281
     0
  0
BLOCK_RECORD
  5
285
330
1
100
AcDbSymbolTableRecord
100
AcDbBlockTableRecord
  2
*D16
340
0
 70
     0
280
     1
281
     0
  0
BLOCK_RECORD
  5
28E
330
1
100
AcDbSymbolTableRecord
100
AcDbBlockTableRecord
  2
*D17
340
0
 70
     0
280
     1
281
     0
  0
BLOCK_RECORD
  5
299
330
1
100
AcDbSymbolTableRecord
100
AcDbBlockTableRecord
  2
*D18
340
0
 70
     0
280
     1
281
     0
  0
BLOCK_RECORD
  5
2A5
330
1
100
AcDbSymbolTableRecord
100
AcDbBlockTableRecord
  2
*D19
340
0
 70
     0
280
     1
281
     0
  0
BLOCK_RECORD
  5
2B1
330
1
100
AcDbSymbolTableRecord
100
AcDbBlockTableRecord
  2
*D20
340
0
 70
     0
280
     1
281
     0
  0
BLOCK_RECORD
  5
2BF
330
1
100
AcDbSymbolTableRecord
100
AcDbBlockTableRecord
  2
*D21
340
0
 70
     0
280
     1
281
     0
  0
BLOCK_RECORD
  5
2CB
330
1
100
AcDbSymbolTableRecord
100
AcDbBlockTableRecord
  2
*D22
340
0
 70
     0
280
     1
281
     0
  0
ENDTAB
  0
ENDSEC
  0
SECTION
  2
BLOCKS
  0
BLOCK
  5
20
330
1F
100
AcDbEntity
  8
0
100
AcDbBlockBegin
  2
*Model_Space
 70
     0
 10
0.0
 20
0.0
 30
0.0
  3
*Model_Space
  1
*Model_Space
  0
ENDBLK
  5
21
330
1F
100
AcDbEntity
  8
0
100
AcDbBlockEnd
  0
BLOCK
  5
5A
330
58
100
AcDbEntity
 67
     1
  8
0
100
AcDbBlockBegin
  2
*Paper_Space
 70
     0
 10
0.0
 20
0.0
 30
0.0
  3
*Paper_Space
  1
*Paper_Space
  0
ENDBLK
  5
5B
330
58
100
AcDbEntity
 67
     1
  8
0
100
AcDbBlockEnd
  0
BLOCK
  5
5F
330
5D
100
AcDbEntity
  8
0
100
AcDbBlockBegin
  2
*Paper_Space0
 70
     0
 10
0.0
 20
0.0
 30
0.0
  3
*Paper_Space0
  1
*Paper_Space0
  0
ENDBLK
  5
60
330
5D
100
AcDbEntity
  8
0
100
AcDbBlockEnd
  0
BLOCK
  5
159
330
158
100
AcDbEntity
  8
0
370
    30
100
AcDbBlockBegin
  2
*D1
 70
     1
 10
0.0
 20
0.0
 30
0.0
  3
*D1
  1
*D2
  0
LINE
  5
15A
330
158
100
AcDbEntity
  8
文字
 62
     0
370
    -2
100
AcDbLine
 10
41.44003016461579
 20
114.2590244137424
 30
0.0
 11
2.375000000000005
 21
114.2590244137424
 31
0.0
  0
LINE
  5
15B
330
158
100
AcDbEntity
  8
文字
 62
     0
370
    -2
100
AcDbLine
 10
41.44003016461579
 20
24.25902441374238
 30
0.0
 11
2.375
 21
24.25902441374238
 31
0.0
  0
LINE
  5
15C
330
158
100
AcDbEntity
  8
文字
 62
     0
370
    -2
100
AcDbLine
 10
3.625000000000005
 20
111.7590244137424
 30
0.0
 11
3.625
 21
26.75902441374238
 31
0.0
  0
SOLID
  5
15D
330
158
100
AcDbEntity
  8
文字
 62
     0
100
AcDbTrace
 10
4.041666666666672
 20
111.7590244137424
 30
0.0
 11
3.208333333333339
 21
111.7590244137424
 31
0.0
 12
3.625000000000005
 22
114.2590244137424
 32
0.0
 13
3.625000000000005
 23
114.2590244137424
 33
0.0
  0
SOLID
  5
15E
330
158
100
AcDbEntity
  8
文字
 62
     0
100
AcDbTrace
 10
3.208333333333333
 20
26.75902441374238
 30
0.0
 11
4.041666666666667
 21
26.75902441374238
 31
0.0
 12
3.625
 22
24.25902441374238
 32
0.0
 13
3.625
 23
24.25902441374238
 33
0.0
  0
MTEXT
  5
15F
330
158
100
AcDbEntity
  8
文字
 62
     0
370
    30
100
AcDbMText
 10
1.469304229195092
 20
69.25902441374238
 30
0.0
 40
3.0
 41
0.0
 46
0.0
 71
     5
 72
     1
  1
90
 11
5.921189464667503E-17
 21
1.0
 31
0.0
 73
     1
 44
1.0
  0
POINT
  5
160
330
158
100
AcDbEntity
  8
Defpoints
 62
     0
100
AcDbPoint
 10
42.06503016461579
 20
114.2590244137424
 30
0.0
  0
POINT
  5
161
330
158
100
AcDbEntity
  8
Defpoints
 62
     0
100
AcDbPoint
 10
42.06503016461579
 20
24.25902441374238
 30
0.0
  0
POINT
  5
162
330
158
100
AcDbEntity
  8
Defpoints
 62
     0
100
AcDbPoint
 10
3.625
 20
24.25902441374238
 30
0.0
  0
ENDBLK
  5
163
330
158
100
AcDbEntity
  8
0
370
    30
100
AcDbBlockEnd
  0
BLOCK
  5
168
330
167
100
AcDbEntity
  8
0
370
    30
100
AcDbBlockBegin
  2
*D2
 70
     1
 10
0.0
 20
0.0
 30
0.0
  3
*D2
  1
*D3
  0
LINE
  5
169
330
167
100
AcDbEntity
  8
文字
 62
     0
370
    -2
100
AcDbLine
 10
27.06503016461579
 20
99.8840244137424
 30
0.0
 11
27.06503016461579
 21
131.0073541483916
 31
0.0
  0
LINE
  5
16A
330
167
100
AcDbEntity
  8
文字
 62
     0
370
    -2
100
AcDbLine
 10
77.0650301646158
 20
99.8840244137424
 30
0.0
 11
77.0650301646158
 21
131.0073541483916
 31
0.0
  0
LINE
  5
16B
330
167
100
AcDbEntity
  8
文字
 62
     0
370
    -2
100
AcDbLine
 10
29.56503016461579
 20
129.7573541483916
 30
0.0
 11
74.5650301646158
 21
129.7573541483916
 31
0.0
  0
SOLID
  5
16C
330
167
100
AcDbEntity
  8
文字
 62
     0
100
AcDbTrace
 10
29.56503016461579
 20
130.1740208150582
 30
0.0
 11
29.56503016461579
 21
129.3406874817249
 31
0.0
 12
27.06503016461579
 22
129.7573541483916
 32
0.0
 13
27.06503016461579
 23
129.7573541483916
 33
0.0
  0
SOLID
  5
16D
330
167
100
AcDbEntity
  8
文字
 62
     0
100
AcDbTrace
 10
74.5650301646158
 20
129.3406874817249
 30
0.0
 11
74.5650301646158
 21
130.1740208150582
 31
0.0
 12
77.0650301646158
 22
129.7573541483916
 32
0.0
 13
77.0650301646158
 23
129.7573541483916
 33
0.0
  0
MTEXT
  5
16E
330
167
100
AcDbEntity
  8
文字
 62
     0
370
    30
100
AcDbMText
 10
52.0650301646158
 20
131.9130499191965
 30
0.0
 40
3.0
 41
0.0
 46
0.0
 71
     5
 72
     1
  1
50
 73
     1
 44
1.0
  0
POINT
  5
16F
330
167
100
AcDbEntity
  8
Defpoints
 62
     0
100
AcDbPoint
 10
27.06503016461579
 20
99.2590244137424
 30
0.0
  0
POINT
  5
170
330
167
100
AcDbEntity
  8
Defpoints
 62
     0
100
AcDbPoint
 10
77.0650301646158
 20
99.2590244137424
 30
0.0
  0
POINT
  5
171
330
167
100
AcDbEntity
  8
Defpoints
 62
     0
100
AcDbPoint
 10
77.0650301646158
 20
129.7573541483916
 30
0.0
  0
ENDBLK
  5
172
330
167
100
AcDbEntity
  8
0
370
    30
100
AcDbBlockEnd
  0
BLOCK
  5
177
330
176
100
AcDbEntity
  8
0
370
    30
100
AcDbBlockBegin
  2
*D3
 70
     1
 10
0.0
 20
0.0
 30
0.0
  3
*D3
  1
*D4
  0
LINE
  5
178
330
176
100
AcDbEntity
  8
文字
 62
     0
370
    -2
100
AcDbLine
 10
51.44003016461579
 20
94.2590244137424
 30
0.0
 11
20.6575150823079
 21
94.2590244137424
 31
0.0
  0
LINE
  5
179
330
176
100
AcDbEntity
  8
文字
 62
     0
370
    -2
100
AcDbLine
 10
51.44003016461579
 20
114.2590244137424
 30
0.0
 11
20.6575150823079
 21
114.2590244137424
 31
0.0
  0
LINE
  5
17A
330
176
100
AcDbEntity
  8
文字
 62
     0
370
    -2
100
AcDbLine
 10
21.9075150823079
 20
96.7590244137424
 30
0.0
 11
21.9075150823079
 21
111.7590244137424
 31
0.0
  0
SOLID
  5
17B
330
176
100
AcDbEntity
  8
文字
 62
     0
100
AcDbTrace
 10
21.49084841564123
 20
96.7590244137424
 30
0.0
 11
22.32418174897457
 21
96.7590244137424
 31
0.0
 12
21.9075150823079
 22
94.2590244137424
 32
0.0
 13
21.9075150823079
 23
94.2590244137424
 33
0.0
  0
SOLID
  5
17C
330
176
100
AcDbEntity
  8
文字
 62
     0
100
AcDbTrace
 10
22.32418174897457
 20
111.7590244137424
 30
0.0
 11
21.49084841564123
 21
111.7590244137424
 31
0.0
 12
21.9075150823079
 22
114.2590244137424
 32
0.0
 13
21.9075150823079
 23
114.2590244137424
 33
0.0
  0
MTEXT
  5
17D
330
176
100
AcDbEntity
  8
文字
 62
     0
370
    30
100
AcDbMText
 10
19.75181931150299
 20
104.2590244137424
 30
0.0
 40
3.0
 41
0.0
 46
0.0
 71
     5
 72
     1
  1
20
 11
0.0
 21
1.0
 31
0.0
 73
     1
 44
1.0
  0
POINT
  5
17E
330
176
100
AcDbEntity
  8
Defpoints
 62
     0
100
AcDbPoint
 10
52.06503016461579
 20
94.2590244137424
 30
0.0
  0
POINT
  5
17F
330
176
100
AcDbEntity
  8
Defpoints
 62
     0
100
AcDbPoint
 10
52.06503016461579
 20
114.2590244137424
 30
0.0
  0
POINT
  5
180
330
176
100
AcDbEntity
  8
Defpoints
 62
     0
100
AcDbPoint
 10
21.9075150823079
 20
114.2590244137424
 30
0.0
  0
ENDBLK
  5
181
330
176
100
AcDbEntity
  8
0
370
    30
100
AcDbBlockEnd
  0
BLOCK
  5
186
330
185
100
AcDbEntity
  8
0
370
    30
100
AcDbBlockBegin
  2
*D4
 70
     1
 10
0.0
 20
0.0
 30
0.0
  3
*D4
  1
*D5
  0
LINE
  5
187
330
185
100
AcDbEntity
  8
文字
 62
     0
370
    -2
100
AcDbLine
 10
51.44003016461579
 20
34.2590244137424
 30
0.0
 11
20.93564411719888
 21
34.2590244137424
 31
0.0
  0
LINE
  5
188
330
185
100
AcDbEntity
  8
文字
 62
     0
370
    -2
100
AcDbLine
 10
41.44003016461579
 20
24.25902441374238
 30
0.0
 11
20.93564411719888
 21
24.25902441374238
 31
0.0
  0
LINE
  5
189
330
185
100
AcDbEntity
  8
文字
 62
     0
370
    -2
100
AcDbLine
 10
22.18564411719888
 20
31.7590244137424
 30
0.0
 11
22.18564411719888
 21
26.75902441374238
 31
0.0
  0
SOLID
  5
18A
330
185
100
AcDbEntity
  8
文字
 62
     0
100
AcDbTrace
 10
22.60231078386554
 20
31.7590244137424
 30
0.0
 11
21.76897745053221
 21
31.7590244137424
 31
0.0
 12
22.18564411719888
 22
34.2590244137424
 32
0.0
 13
22.18564411719888
 23
34.2590244137424
 33
0.0
  0
SOLID
  5
18B
330
185
100
AcDbEntity
  8
文字
 62
     0
100
AcDbTrace
 10
21.76897745053221
 20
26.75902441374238
 30
0.0
 11
22.60231078386554
 21
26.75902441374238
 31
0.0
 12
22.18564411719888
 22
24.25902441374238
 32
0.0
 13
22.18564411719888
 23
24.25902441374238
 33
0.0
  0
MTEXT
  5
18C
330
185
100
AcDbEntity
  8
文字
 62
     0
370
    30
100
AcDbMText
 10
20.02994834639397
 20
29.25902441374239
 30
0.0
 40
3.0
 41
0.0
 46
0.0
 71
     5
 72
     1
  1
10
 11
0.0
 21
1.0
 31
0.0
 73
     1
 44
1.0
  0
POINT
  5
18D
330
185
100
AcDbEntity
  8
Defpoints
 62
     0
100
AcDbPoint
 10
52.06503016461579
 20
34.2590244137424
 30
0.0
  0
POINT
  5
18E
330
185
100
AcDbEntity
  8
Defpoints
 62
     0
100
AcDbPoint
 10
42.06503016461579
 20
24.25902441374238
 30
0.0
  0
POINT
  5
18F
330
185
100
AcDbEntity
  8
Defpoints
 62
     0
100
AcDbPoint
 10
22.18564411719888
 20
24.25902441374238
 30
0.0
  0
ENDBLK
  5
190
330
185
100
AcDbEntity
  8
0
370
    30
100
AcDbBlockEnd
  0
BLOCK
  5
197
330
196
100
AcDbEntity
  8
0
370
    30
100
AcDbBlockBegin
  2
*D5
 70
     1
 10
0.0
 20
0.0
 30
0.0
  3
*D5
  1
*D6
  0
LINE
  5
198
330
196
100
AcDbEntity
  8
文字
 62
     0
370
    -2
100
AcDbLine
 10
63.69881140578927
 20
38.83123766691853
 30
0.0
 11
104.2232424123544
 21
54.75781705538804
 31
0.0
  0
MTEXT
  5
199
330
196
100
AcDbEntity
  8
文字
 62
     0
370
    30
100
AcDbMText
 10
99.52004238442888
 20
55.22560680682169
 30
0.0
 40
3.0
 41
0.0
 46
0.0
 71
     5
 72
     1
  1
R10
 11
0.9307024992938816
 21
0.3657770602540873
 31
0.0
 73
     1
 44
1.0
  0
LINE
  5
19A
330
196
100
AcDbEntity
  8
文字
 62
     0
370
    -2
100
AcDbLine
 10
52.06503016461578
 20
34.25902441374245
 30
0.0
 11
61.37205515755457
 21
37.91679501628332
 31
0.0
  0
SOLID
  5
19B
330
196
100
AcDbEntity
  8
文字
 62
     0
100
AcDbTrace
 10
63.54640429735007
 20
39.21903037495765
 30
0.0
 11
63.85121851422848
 21
38.44344495887942
 31
0.0
 12
61.37205515755457
 22
37.91679501628332
 32
0.0
 13
61.37205515755457
 23
37.91679501628332
 33
0.0
  0
POINT
  5
19C
330
196
100
AcDbEntity
  8
Defpoints
 62
     0
100
AcDbPoint
 10
61.37205515755457
 20
37.91679501628332
 30
0.0
  0
POINT
  5
19D
330
196
100
AcDbEntity
  8
Defpoints
 62
     0
100
AcDbPoint
 10
52.06503016461578
 20
34.25902441374245
 30
0.0
  0
ENDBLK
  5
19E
330
196
100
AcDbEntity
  8
0
370
    30
100
AcDbBlockEnd
  0
BLOCK
  5
1A3
330
1A2
100
AcDbEntity
  8
0
370
    30
100
AcDbBlockBegin
  2
*D6
 70
     1
 10
0.0
 20
0.0
 30
0.0
  3
*D6
  1
*D7
  0
LINE
  5
1A4
330
1A2
100
AcDbEntity
  8
文字
 62
     0
370
    -2
100
AcDbLine
 10
61.02869313036047
 20
97.40588733362586
 30
0.0
 11
97.53182349205476
 21
110.2209996190693
 31
0.0
  0
LINE
  5
1A5
330
1A2
100
AcDbEntity
  8
文字
 62
     0
370
    -2
100
AcDbLine
 10
43.10136719887115
 20
91.11216149385888
 30
0.0
 11
40.74250852367518
 21
90.28403967283691
 31
0.0
  0
MTEXT
  5
1A6
330
1A2
100
AcDbEntity
  8
文字
 62
     0
370
    30
100
AcDbMText
 10
93.0192881378201
 20
110.9821971343513
 30
0.0
 40
3.0
 41
0.0
 46
0.0
 71
     5
 72
     1
  1
%%c14
 11
0.9435434700783851
 21
0.3312487284087888
 31
0.0
 73
     1
 44
1.0
  0
LINE
  5
1A7
330
1A2
100
AcDbEntity
  8
文字
 62
     0
370
    -2
100
AcDbLine
 10
45.46022587406711
 20
91.94028331488084
 30
0.0
 11
58.66983445516451
 21
96.57776551260389
 31
0.0
  0
SOLID
  5
1A8
330
1A2
100
AcDbEntity
  8
文字
 62
     0
100
AcDbTrace
 10
43.2393875023748
 20
90.71901838132622
 30
0.0
 11
42.96334689536749
 21
91.50530460639153
 31
0.0
 12
45.46022587406711
 22
91.94028331488084
 32
0.0
 13
45.46022587406711
 23
91.94028331488084
 33
0.0
  0
SOLID
  5
1A9
330
1A2
100
AcDbEntity
  8
文字
 62
     0
100
AcDbTrace
 10
60.89067282685681
 20
97.79903044615851
 30
0.0
 11
61.16671343386412
 21
97.0127442210932
 31
0.0
 12
58.66983445516451
 22
96.57776551260389
 32
0.0
 13
58.66983445516451
 23
96.57776551260389
 33
0.0
  0
POINT
  5
1AA
330
1A2
100
AcDbEntity
  8
Defpoints
 62
     0
100
AcDbPoint
 10
58.66983445516451
 20
96.57776551260389
 30
0.0
  0
POINT
  5
1AB
330
1A2
100
AcDbEntity
  8
Defpoints
 62
     0
100
AcDbPoint
 10
45.46022587406711
 20
91.94028331488084
 30
0.0
  0
ENDBLK
  5
1AC
330
1A2
100
AcDbEntity
  8
0
370
    30
100
AcDbBlockEnd
  0
BLOCK
  5
1C6
330
1C5
100
AcDbEntity
  8
0
370
    30
100
AcDbBlockBegin
  2
*D7
 70
     1
 10
0.0
 20
0.0
 30
0.0
  3
*D7
  1
*D8
  0
LINE
  5
1C7
330
1C5
100
AcDbEntity
  8
文字
 62
     0
370
    -2
100
AcDbLine
 10
170.8060356796409
 20
114.2590244137424
 30
0.0
 11
143.603500150384
 21
114.2590244137424
 31
0.0
  0
LINE
  5
1C8
330
1C5
100
AcDbEntity
  8
文字
 62
     0
370
    -2
100
AcDbLine
 10
170.367773298527
 20
78.71119643734994
 30
0.0
 11
143.603500150384
 21
78.71119643734994
 31
0.0
  0
LINE
  5
1C9
330
1C5
100
AcDbEntity
  8
文字
 62
     0
370
    -2
100
AcDbLine
 10
144.853500150384
 20
111.7590244137424
 30
0.0
 11
144.853500150384
 21
81.21119643734994
 31
0.0
  0
SOLID
  5
1CA
330
1C5
100
AcDbEntity
  8
文字
 62
     0
100
AcDbTrace
 10
145.2701668170506
 20
111.7590244137424
 30
0.0
 11
144.4368334837173
 21
111.7590244137424
 31
0.0
 12
144.853500150384
 22
114.2590244137424
 32
0.0
 13
144.853500150384
 23
114.2590244137424
 33
0.0
  0
SOLID
  5
1CB
330
1C5
100
AcDbEntity
  8
文字
 62
     0
100
AcDbTrace
 10
144.4368334837173
 20
81.21119643734994
 30
0.0
 11
145.2701668170506
 21
81.21119643734994
 31
0.0
 12
144.853500150384
 22
78.71119643734994
 32
0.0
 13
144.853500150384
 23
78.71119643734994
 33
0.0
  0
MTEXT
  5
1CC
330
1C5
100
AcDbEntity
  8
文字
 62
     0
370
    30
100
AcDbMText
 10
142.6978043795791
 20
96.48511042554617
 30
0.0
 40
3.0
 41
0.0
 46
0.0
 71
     5
 72
     1
  1
35
 11
0.0
 21
1.0
 31
0.0
 73
     1
 44
1.0
  0
POINT
  5
1CD
330
1C5
100
AcDbEntity
  8
Defpoints
 62
     0
100
AcDbPoint
 10
171.4310356796409
 20
114.2590244137424
 30
0.0
  0
POINT
  5
1CE
330
1C5
100
AcDbEntity
  8
Defpoints
 62
     0
100
AcDbPoint
 10
170.992773298527
 20
78.71119643734994
 30
0.0
  0
POINT
  5
1CF
330
1C5
100
AcDbEntity
  8
Defpoints
 62
     0
100
AcDbPoint
 10
144.853500150384
 20
78.71119643734994
 30
0.0
  0
ENDBLK
  5
1D0
330
1C5
100
AcDbEntity
  8
0
370
    30
100
AcDbBlockEnd
  0
BLOCK
  5
1D5
330
1D4
100
AcDbEntity
  8
0
370
    30
100
AcDbBlockBegin
  2
*D8
 70
     1
 10
0.0
 20
0.0
 30
0.0
  3
*D8
  1
*D9
  0
LINE
  5
1D6
330
1D4
100
AcDbEntity
  8
文字
 62
     0
370
    -2
100
AcDbLine
 10
159.4942980607549
 20
58.75450921206019
 30
0.0
 11
191.1132949475038
 21
58.75450921206019
 31
0.0
  0
LINE
  5
1D7
330
1D4
100
AcDbEntity
  8
文字
 62
     0
370
    -2
100
AcDbLine
 10
159.0560356796409
 20
24.25902441374241
 30
0.0
 11
191.1132949475038
 21
24.25902441374241
 31
0.0
  0
LINE
  5
1D8
330
1D4
100
AcDbEntity
  8
文字
 62
     0
370
    -2
100
AcDbLine
 10
189.8632949475038
 20
56.25450921206019
 30
0.0
 11
189.8632949475038
 21
26.75902441374241
 31
0.0
  0
SOLID
  5
1D9
330
1D4
100
AcDbEntity
  8
文字
 62
     0
100
AcDbTrace
 10
190.2799616141705
 20
56.25450921206019
 30
0.0
 11
189.4466282808372
 21
56.25450921206019
 31
0.0
 12
189.8632949475038
 22
58.75450921206019
 32
0.0
 13
189.8632949475038
 23
58.75450921206019
 33
0.0
  0
SOLID
  5
1DA
330
1D4
100
AcDbEntity
  8
文字
 62
     0
100
AcDbTrace
 10
189.4466282808372
 20
26.75902441374241
 30
0.0
 11
190.2799616141705
 21
26.75902441374241
 31
0.0
 12
189.8632949475038
 22
24.25902441374241
 32
0.0
 13
189.8632949475038
 23
24.25902441374241
 33
0.0
  0
MTEXT
  5
1DB
330
1D4
100
AcDbEntity
  8
文字
 62
     0
370
    30
100
AcDbMText
 10
187.7075991766989
 20
41.5067668129013
 30
0.0
 40
3.0
 41
0.0
 46
0.0
 71
     5
 72
     1
  1
35
 11
0.0
 21
1.0
 31
0.0
 73
     1
 44
1.0
  0
POINT
  5
1DC
330
1D4
100
AcDbEntity
  8
Defpoints
 62
     0
100
AcDbPoint
 10
158.8692980607549
 20
58.75450921206019
 30
0.0
  0
POINT
  5
1DD
330
1D4
100
AcDbEntity
  8
Defpoints
 62
     0
100
AcDbPoint
 10
158.4310356796409
 20
24.25902441374241
 30
0.0
  0
POINT
  5
1DE
330
1D4
100
AcDbEntity
  8
Defpoints
 62
     0
100
AcDbPoint
 10
189.8632949475038
 20
24.25902441374241
 30
0.0
  0
ENDBLK
  5
1DF
330
1D4
100
AcDbEntity
  8
0
370
    30
100
AcDbBlockEnd
  0
BLOCK
  5
1E4
330
1E3
100
AcDbEntity
  8
0
370
    30
100
AcDbBlockBegin
  2
*D9
 70
     1
 10
0.0
 20
0.0
 30
0.0
  3
*D9
  1
*D10
  0
LINE
  5
1E5
330
1E3
100
AcDbEntity
  8
文字
 62
     0
370
    -2
100
AcDbLine
 10
171.4310356796409
 20
114.8840244137424
 30
0.0
 11
171.4310356796409
 21
124.8630758176818
 31
0.0
  0
LINE
  5
1E6
330
1E3
100
AcDbEntity
  8
文字
 62
     0
370
    -2
100
AcDbLine
 10
174.4310356796409
 20
114.8840244137424
 30
0.0
 11
174.4310356796409
 21
124.8630758176818
 31
0.0
  0
LINE
  5
1E7
330
1E3
100
AcDbEntity
  8
文字
 62
     0
370
    -2
100
AcDbLine
 10
176.9310356796409
 20
123.6130758176818
 30
0.0
 11
182.6455650111552
 21
123.6130758176818
 31
0.0
  0
LINE
  5
1E8
330
1E3
100
AcDbEntity
  8
文字
 62
     0
370
    -2
100
AcDbLine
 10
171.4310356796409
 20
123.6130758176818
 30
0.0
 11
174.4310356796409
 21
123.6130758176818
 31
0.0
  0
LINE
  5
1E9
330
1E3
100
AcDbEntity
  8
文字
 62
     0
370
    -2
100
AcDbLine
 10
168.9310356796409
 20
123.6130758176818
 30
0.0
 11
166.4310356796409
 21
123.6130758176818
 31
0.0
  0
SOLID
  5
1EA
330
1E3
100
AcDbEntity
  8
文字
 62
     0
100
AcDbTrace
 10
168.9310356796409
 20
123.1964091510151
 30
0.0
 11
168.9310356796409
 21
124.0297424843485
 31
0.0
 12
171.4310356796409
 22
123.6130758176818
 32
0.0
 13
171.4310356796409
 23
123.6130758176818
 33
0.0
  0
SOLID
  5
1EB
330
1E3
100
AcDbEntity
  8
文字
 62
     0
100
AcDbTrace
 10
176.9310356796409
 20
124.0297424843485
 30
0.0
 11
176.9310356796409
 21
123.1964091510151
 31
0.0
 12
174.4310356796409
 22
123.6130758176818
 32
0.0
 13
174.4310356796409
 23
123.6130758176818
 33
0.0
  0
MTEXT
  5
1EC
330
1E3
100
AcDbEntity
  8
文字
 62
     0
370
    30
100
AcDbMText
 10
181.0383003453981
 20
125.7687715884867
 30
0.0
 40
3.0
 41
0.0
 46
0.0
 71
     5
 72
     1
  1
3
 73
     1
 44
1.0
  0
POINT
  5
1ED
330
1E3
100
AcDbEntity
  8
Defpoints
 62
     0
100
AcDbPoint
 10
171.4310356796409
 20
114.2590244137424
 30
0.0
  0
POINT
  5
1EE
330
1E3
100
AcDbEntity
  8
Defpoints
 62
     0
100
AcDbPoint
 10
174.4310356796409
 20
114.2590244137424
 30
0.0
  0
POINT
  5
1EF
330
1E3
100
AcDbEntity
  8
Defpoints
 62
     0
100
AcDbPoint
 10
174.4310356796409
 20
123.6130758176818
 30
0.0
  0
ENDBLK
  5
1F0
330
1E3
100
AcDbEntity
  8
0
370
    30
100
AcDbBlockEnd
  0
BLOCK
  5
1F5
330
1F4
100
AcDbEntity
  8
0
370
    30
100
AcDbBlockBegin
  2
*D10
 70
     1
 10
0.0
 20
0.0
 30
0.0
  3
*D10
  1
*D11
  0
LINE
  5
1F6
330
1F4
100
AcDbEntity
  8
文字
 62
     0
370
    -2
100
AcDbLine
 10
155.4310356796409
 20
59.18246229502597
 30
0.0
 11
155.4310356796409
 21
124.8630758176818
 31
0.0
  0
LINE
  5
1F7
330
1F4
100
AcDbEntity
  8
文字
 62
     0
370
    -2
100
AcDbLine
 10
171.4310356796409
 20
80.58558653245879
 30
0.0
 11
171.4310356796409
 21
124.8630758176818
 31
0.0
  0
LINE
  5
1F8
330
1F4
100
AcDbEntity
  8
文字
 62
     0
370
    -2
100
AcDbLine
 10
157.9310356796409
 20
123.6130758176818
 30
0.0
 11
168.9310356796409
 21
123.6130758176818
 31
0.0
  0
SOLID
  5
1F9
330
1F4
100
AcDbEntity
  8
文字
 62
     0
100
AcDbTrace
 10
157.9310356796409
 20
124.0297424843485
 30
0.0
 11
157.9310356796409
 21
123.1964091510151
 31
0.0
 12
155.4310356796409
 22
123.6130758176818
 32
0.0
 13
155.4310356796409
 23
123.6130758176818
 33
0.0
  0
SOLID
  5
1FA
330
1F4
100
AcDbEntity
  8
文字
 62
     0
100
AcDbTrace
 10
168.9310356796409
 20
123.1964091510151
 30
0.0
 11
168.9310356796409
 21
124.0297424843485
 31
0.0
 12
171.4310356796409
 22
123.6130758176818
 32
0.0
 13
171.4310356796409
 23
123.6130758176818
 33
0.0
  0
MTEXT
  5
1FB
330
1F4
100
AcDbEntity
  8
文字
 62
     0
370
    30
100
AcDbMText
 10
163.4310356796409
 20
125.7687715884867
 30
0.0
 40
3.0
 41
0.0
 46
0.0
 71
     5
 72
     1
  1
16
 73
     1
 44
1.0
  0
POINT
  5
1FC
330
1F4
100
AcDbEntity
  8
Defpoints
 62
     0
100
AcDbPoint
 10
155.4310356796409
 20
58.55746229502597
 30
0.0
  0
POINT
  5
1FD
330
1F4
100
AcDbEntity
  8
Defpoints
 62
     0
100
AcDbPoint
 10
171.4310356796409
 20
79.96058653245879
 30
0.0
  0
POINT
  5
1FE
330
1F4
100
AcDbEntity
  8
Defpoints
 62
     0
100
AcDbPoint
 10
171.4310356796409
 20
123.6130758176818
 30
0.0
  0
ENDBLK
  5
1FF
330
1F4
100
AcDbEntity
  8
0
370
    30
100
AcDbBlockEnd
  0
BLOCK
  5
204
330
203
100
AcDbEntity
  8
0
370
    30
100
AcDbBlockBegin
  2
*D11
 70
     1
 10
0.0
 20
0.0
 30
0.0
  3
*D11
  1
*D12
  0
LINE
  5
205
330
203
100
AcDbEntity
  8
文字
 62
     0
370
    -2
100
AcDbLine
 10
155.4310356796409
 20
59.18246229502597
 30
0.0
 11
155.4310356796409
 21
133.5525763159214
 31
0.0
  0
LINE
  5
206
330
203
100
AcDbEntity
  8
文字
 62
     0
370
    -2
100
AcDbLine
 10
174.4310356796409
 20
79.53324335438418
 30
0.0
 11
174.4310356796409
 21
133.5525763159214
 31
0.0
  0
LINE
  5
207
330
203
100
AcDbEntity
  8
文字
 62
     0
370
    -2
100
AcDbLine
 10
157.9310356796409
 20
132.3025763159214
 30
0.0
 11
171.9310356796409
 21
132.3025763159214
 31
0.0
  0
SOLID
  5
208
330
203
100
AcDbEntity
  8
文字
 62
     0
100
AcDbTrace
 10
157.9310356796409
 20
132.719242982588
 30
0.0
 11
157.9310356796409
 21
131.8859096492547
 31
0.0
 12
155.4310356796409
 22
132.3025763159214
 32
0.0
 13
155.4310356796409
 23
132.3025763159214
 33
0.0
  0
SOLID
  5
209
330
203
100
AcDbEntity
  8
文字
 62
     0
100
AcDbTrace
 10
171.9310356796409
 20
131.8859096492547
 30
0.0
 11
171.9310356796409
 21
132.719242982588
 31
0.0
 12
174.4310356796409
 22
132.3025763159214
 32
0.0
 13
174.4310356796409
 23
132.3025763159214
 33
0.0
  0
MTEXT
  5
20A
330
203
100
AcDbEntity
  8
文字
 62
     0
370
    30
100
AcDbMText
 10
164.9310356796409
 20
134.4582720867263
 30
0.0
 40
3.0
 41
0.0
 46
0.0
 71
     5
 72
     1
  1
19
 73
     1
 44
1.0
  0
POINT
  5
20B
330
203
100
AcDbEntity
  8
Defpoints
 62
     0
100
AcDbPoint
 10
155.4310356796409
 20
58.55746229502597
 30
0.0
  0
POINT
  5
20C
330
203
100
AcDbEntity
  8
Defpoints
 62
     0
100
AcDbPoint
 10
174.4310356796409
 20
78.90824335438418
 30
0.0
  0
POINT
  5
20D
330
203
100
AcDbEntity
  8
Defpoints
 62
     0
100
AcDbPoint
 10
174.4310356796409
 20
132.3025763159214
 30
0.0
  0
ENDBLK
  5
20E
330
203
100
AcDbEntity
  8
0
370
    30
100
AcDbBlockEnd
  0
BLOCK
  5
256
330
255
100
AcDbEntity
  8
0
100
AcDbBlockBegin
  2
*D12
 70
     1
 10
0.0
 20
0.0
 30
0.0
  3
*D12
  1
*D13
  0
LINE
  5
258
330
255
100
AcDbEntity
  8
文字
 62
     0
370
    -2
100
AcDbLine
 10
103.3018752416391
 20
162.3028118340201
 30
0.0
 11
64.2368450770233
 21
162.3028118340201
 31
0.0
  0
LINE
  5
259
330
255
100
AcDbEntity
  8
文字
 62
     0
370
    -2
100
AcDbLine
 10
103.3018752416391
 20
72.30281183402012
 30
0.0
 11
64.2368450770233
 21
72.30281183402012
 31
0.0
  0
LINE
  5
25A
330
255
100
AcDbEntity
  8
文字
 62
     0
370
    -2
100
AcDbLine
 10
65.4868450770233
 20
159.8028118340201
 30
0.0
 11
65.4868450770233
 21
74.80281183402012
 31
0.0
  0
SOLID
  5
25B
330
255
100
AcDbEntity
  8
文字
 62
     0
100
AcDbTrace
 10
65.90351174368998
 20
159.8028118340201
 30
0.0
 11
65.07017841035663
 21
159.8028118340201
 31
0.0
 12
65.4868450770233
 22
162.3028118340201
 32
0.0
 13
65.4868450770233
 23
162.3028118340201
 33
0.0
  0
SOLID
  5
25C
330
255
100
AcDbEntity
  8
文字
 62
     0
100
AcDbTrace
 10
65.07017841035663
 20
74.80281183402012
 30
0.0
 11
65.90351174368998
 21
74.80281183402012
 31
0.0
 12
65.4868450770233
 22
72.30281183402012
 32
0.0
 13
65.4868450770233
 23
72.30281183402012
 33
0.0
  0
MTEXT
  5
25D
330
255
100
AcDbEntity
  8
文字
 62
     0
370
    30
100
AcDbMText
 10
63.33034507702331
 20
117.3028118340201
 30
0.0
 40
3.0
 41
0.0
 46
0.0
 71
     5
 72
     1
  1
90
 11
0.0
 21
1.0
 31
0.0
 73
     1
 44
1.0
  0
POINT
  5
25E
330
255
100
AcDbEntity
  8
Defpoints
 62
     0
100
AcDbPoint
 10
103.9268752416391
 20
162.3028118340201
 30
0.0
  0
POINT
  5
25F
330
255
100
AcDbEntity
  8
Defpoints
 62
     0
100
AcDbPoint
 10
103.9268752416391
 20
72.30281183402012
 30
0.0
  0
POINT
  5
260
330
255
100
AcDbEntity
  8
Defpoints
 62
     0
100
AcDbPoint
 10
65.4868450770233
 20
72.30281183402012
 30
0.0
  0
ENDBLK
  5
257
330
255
100
AcDbEntity
  8
0
100
AcDbBlockEnd
  0
BLOCK
  5
262
330
261
100
AcDbEntity
  8
0
100
AcDbBlockBegin
  2
*D13
 70
     1
 10
0.0
 20
0.0
 30
0.0
  3
*D13
  1
*D14
  0
LINE
  5
264
330
261
100
AcDbEntity
  8
文字
 62
     0
370
    -2
100
AcDbLine
 10
88.9268752416391
 20
147.9278118340201
 30
0.0
 11
88.9268752416391
 21
179.0511415686693
 31
0.0
  0
LINE
  5
265
330
261
100
AcDbEntity
  8
文字
 62
     0
370
    -2
100
AcDbLine
 10
138.9268752416391
 20
147.9278118340201
 30
0.0
 11
138.9268752416391
 21
179.0511415686693
 31
0.0
  0
LINE
  5
266
330
261
100
AcDbEntity
  8
文字
 62
     0
370
    -2
100
AcDbLine
 10
91.4268752416391
 20
177.8011415686693
 30
0.0
 11
136.4268752416391
 21
177.8011415686693
 31
0.0
  0
SOLID
  5
267
330
261
100
AcDbEntity
  8
文字
 62
     0
100
AcDbTrace
 10
91.4268752416391
 20
178.217808235336
 30
0.0
 11
91.4268752416391
 21
177.3844749020026
 31
0.0
 12
88.9268752416391
 22
177.8011415686693
 32
0.0
 13
88.9268752416391
 23
177.8011415686693
 33
0.0
  0
SOLID
  5
268
330
261
100
AcDbEntity
  8
文字
 62
     0
100
AcDbTrace
 10
136.4268752416391
 20
177.3844749020026
 30
0.0
 11
136.4268752416391
 21
178.217808235336
 31
0.0
 12
138.9268752416391
 22
177.8011415686693
 32
0.0
 13
138.9268752416391
 23
177.8011415686693
 33
0.0
  0
MTEXT
  5
269
330
261
100
AcDbEntity
  8
文字
 62
     0
370
    30
100
AcDbMText
 10
113.9268752416391
 20
179.9576415686693
 30
0.0
 40
3.0
 41
0.0
 46
0.0
 71
     5
 72
     1
  1
50
 73
     1
 44
1.0
  0
POINT
  5
26A
330
261
100
AcDbEntity
  8
Defpoints
 62
     0
100
AcDbPoint
 10
88.9268752416391
 20
147.3028118340201
 30
0.0
  0
POINT
  5
26B
330
261
100
AcDbEntity
  8
Defpoints
 62
     0
100
AcDbPoint
 10
138.9268752416391
 20
147.3028118340201
 30
0.0
  0
POINT
  5
26C
330
261
100
AcDbEntity
  8
Defpoints
 62
     0
100
AcDbPoint
 10
138.9268752416391
 20
177.8011415686693
 30
0.0
  0
ENDBLK
  5
263
330
261
100
AcDbEntity
  8
0
100
AcDbBlockEnd
  0
BLOCK
  5
26E
330
26D
100
AcDbEntity
  8
0
100
AcDbBlockBegin
  2
*D14
 70
     1
 10
0.0
 20
0.0
 30
0.0
  3
*D14
  1
*D15
  0
LINE
  5
270
330
26D
100
AcDbEntity
  8
文字
 62
     0
370
    -2
100
AcDbLine
 10
113.3018752416391
 20
142.3028118340201
 30
0.0
 11
82.5193601593312
 21
142.3028118340201
 31
0.0
  0
LINE
  5
271
330
26D
100
AcDbEntity
  8
文字
 62
     0
370
    -2
100
AcDbLine
 10
113.3018752416391
 20
162.3028118340201
 30
0.0
 11
82.5193601593312
 21
162.3028118340201
 31
0.0
  0
LINE
  5
272
330
26D
100
AcDbEntity
  8
文字
 62
     0
370
    -2
100
AcDbLine
 10
83.7693601593312
 20
144.8028118340201
 30
0.0
 11
83.7693601593312
 21
159.8028118340201
 31
0.0
  0
SOLID
  5
273
330
26D
100
AcDbEntity
  8
文字
 62
     0
100
AcDbTrace
 10
83.35269349266453
 20
144.8028118340201
 30
0.0
 11
84.18602682599787
 21
144.8028118340201
 31
0.0
 12
83.7693601593312
 22
142.3028118340201
 32
0.0
 13
83.7693601593312
 23
142.3028118340201
 33
0.0
  0
SOLID
  5
274
330
26D
100
AcDbEntity
  8
文字
 62
     0
100
AcDbTrace
 10
84.18602682599787
 20
159.8028118340201
 30
0.0
 11
83.35269349266453
 21
159.8028118340201
 31
0.0
 12
83.7693601593312
 22
162.3028118340201
 32
0.0
 13
83.7693601593312
 23
162.3028118340201
 33
0.0
  0
MTEXT
  5
275
330
26D
100
AcDbEntity
  8
文字
 62
     0
370
    30
100
AcDbMText
 10
81.6128601593312
 20
152.3028118340201
 30
0.0
 40
3.0
 41
0.0
 46
0.0
 71
     5
 72
     1
  1
20
 11
0.0
 21
1.0
 31
0.0
 73
     1
 44
1.0
  0
POINT
  5
276
330
26D
100
AcDbEntity
  8
Defpoints
 62
     0
100
AcDbPoint
 10
113.9268752416391
 20
142.3028118340201
 30
0.0
  0
POINT
  5
277
330
26D
100
AcDbEntity
  8
Defpoints
 62
     0
100
AcDbPoint
 10
113.9268752416391
 20
162.3028118340201
 30
0.0
  0
POINT
  5
278
330
26D
100
AcDbEntity
  8
Defpoints
 62
     0
100
AcDbPoint
 10
83.7693601593312
 20
162.3028118340201
 30
0.0
  0
ENDBLK
  5
26F
330
26D
100
AcDbEntity
  8
0
100
AcDbBlockEnd
  0
BLOCK
  5
27A
330
279
100
AcDbEntity
  8
0
100
AcDbBlockBegin
  2
*D15
 70
     1
 10
0.0
 20
0.0
 30
0.0
  3
*D15
  1
*D16
  0
LINE
  5
27C
330
279
100
AcDbEntity
  8
文字
 62
     0
370
    -2
100
AcDbLine
 10
113.3018752416391
 20
82.30281183402013
 30
0.0
 11
82.79748919422218
 21
82.30281183402013
 31
0.0
  0
LINE
  5
27D
330
279
100
AcDbEntity
  8
文字
 62
     0
370
    -2
100
AcDbLine
 10
103.3018752416391
 20
72.30281183402012
 30
0.0
 11
82.79748919422218
 21
72.30281183402012
 31
0.0
  0
LINE
  5
27E
330
279
100
AcDbEntity
  8
文字
 62
     0
370
    -2
100
AcDbLine
 10
84.04748919422218
 20
79.80281183402013
 30
0.0
 11
84.04748919422218
 21
74.80281183402012
 31
0.0
  0
SOLID
  5
27F
330
279
100
AcDbEntity
  8
文字
 62
     0
100
AcDbTrace
 10
84.46415586088885
 20
79.80281183402013
 30
0.0
 11
83.63082252755551
 21
79.80281183402013
 31
0.0
 12
84.04748919422218
 22
82.30281183402013
 32
0.0
 13
84.04748919422218
 23
82.30281183402013
 33
0.0
  0
SOLID
  5
280
330
279
100
AcDbEntity
  8
文字
 62
     0
100
AcDbTrace
 10
83.63082252755551
 20
74.80281183402012
 30
0.0
 11
84.46415586088885
 21
74.80281183402012
 31
0.0
 12
84.04748919422218
 22
72.30281183402012
 32
0.0
 13
84.04748919422218
 23
72.30281183402012
 33
0.0
  0
MTEXT
  5
281
330
279
100
AcDbEntity
  8
文字
 62
     0
370
    30
100
AcDbMText
 10
81.89098919422219
 20
77.30281183402013
 30
0.0
 40
3.0
 41
0.0
 46
0.0
 71
     5
 72
     1
  1
10
 11
0.0
 21
1.0
 31
0.0
 73
     1
 44
1.0
  0
POINT
  5
282
330
279
100
AcDbEntity
  8
Defpoints
 62
     0
100
AcDbPoint
 10
113.9268752416391
 20
82.30281183402013
 30
0.0
  0
POINT
  5
283
330
279
100
AcDbEntity
  8
Defpoints
 62
     0
100
AcDbPoint
 10
103.9268752416391
 20
72.30281183402012
 30
0.0
  0
POINT
  5
284
330
279
100
AcDbEntity
  8
Defpoints
 62
     0
100
AcDbPoint
 10
84.04748919422218
 20
72.30281183402012
 30
0.0
  0
ENDBLK
  5
27B
330
279
100
AcDbEntity
  8
0
100
AcDbBlockEnd
  0
BLOCK
  5
286
330
285
100
AcDbEntity
  8
0
100
AcDbBlockBegin
  2
*D16
 70
     1
 10
0.0
 20
0.0
 30
0.0
  3
*D16
  1
*D17
  0
LINE
  5
288
330
285
100
AcDbEntity
  8
文字
 62
     0
370
    -2
100
AcDbLine
 10
125.5606564828126
 20
86.87502508719628
 30
0.0
 11
166.0788766690841
 21
102.7991635500311
 31
0.0
  0
MTEXT
  5
289
330
285
100
AcDbEntity
  8
文字
 62
     0
370
    30
100
AcDbMText
 10
161.3815932928615
 20
103.2701427252213
 30
0.0
 40
3.0
 41
0.0
 46
0.0
 71
     5
 72
     1
  1
R10
 11
0.9307024992938817
 21
0.3657770602540868
 31
0.0
 73
     1
 44
1.0
  0
LINE
  5
28A
330
285
100
AcDbEntity
  8
文字
 62
     0
370
    -2
100
AcDbLine
 10
113.9268752416391
 20
82.30281183402019
 30
0.0
 11
123.2339002345779
 21
85.96058243656105
 31
0.0
  0
SOLID
  5
28B
330
285
100
AcDbEntity
  8
文字
 62
     0
100
AcDbTrace
 10
125.4082493743734
 20
87.26281779523539
 30
0.0
 11
125.7130635912518
 21
86.48723237915716
 31
0.0
 12
123.2339002345779
 22
85.96058243656105
 32
0.0
 13
123.2339002345779
 23
85.96058243656105
 33
0.0
  0
POINT
  5
28C
330
285
100
AcDbEntity
  8
Defpoints
 62
     0
100
AcDbPoint
 10
123.2339002345779
 20
85.96058243656105
 30
0.0
  0
POINT
  5
28D
330
285
100
AcDbEntity
  8
Defpoints
 62
     0
100
AcDbPoint
 10
113.9268752416391
 20
82.30281183402019
 30
0.0
  0
ENDBLK
  5
287
330
285
100
AcDbEntity
  8
0
100
AcDbBlockEnd
  0
BLOCK
  5
28F
330
28E
100
AcDbEntity
  8
0
100
AcDbBlockBegin
  2
*D17
 70
     1
 10
0.0
 20
0.0
 30
0.0
  3
*D17
  1
*D18
  0
LINE
  5
291
330
28E
100
AcDbEntity
  8
文字
 62
     0
370
    -2
100
AcDbLine
 10
122.8905382073838
 20
145.4496747539036
 30
0.0
 11
159.3883587234927
 21
158.2629229179217
 31
0.0
  0
LINE
  5
292
330
28E
100
AcDbEntity
  8
文字
 62
     0
370
    -2
100
AcDbLine
 10
104.9632122758944
 20
139.1559489141366
 30
0.0
 11
102.6043536006985
 21
138.3278270931147
 31
0.0
  0
MTEXT
  5
293
330
28E
100
AcDbEntity
  8
文字
 62
     0
370
    30
100
AcDbMText
 10
154.8819595290315
 20
159.0236308448948
 30
0.0
 40
3.0
 41
0.0
 46
0.0
 71
     5
 72
     1
  1
%%c14
 11
0.9435434700783865
 21
0.3312487284087852
 31
0.0
 73
     1
 44
1.0
  0
LINE
  5
294
330
28E
100
AcDbEntity
  8
文字
 62
     0
370
    -2
100
AcDbLine
 10
107.3220709510904
 20
139.9840707351586
 30
0.0
 11
120.5316795321878
 21
144.6215529328816
 31
0.0
  0
SOLID
  5
295
330
28E
100
AcDbEntity
  8
文字
 62
     0
100
AcDbTrace
 10
105.1012325793981
 20
138.762805801604
 30
0.0
 11
104.8251919723908
 21
139.5490920266693
 31
0.0
 12
107.3220709510904
 22
139.9840707351586
 32
0.0
 13
107.3220709510904
 23
139.9840707351586
 33
0.0
  0
SOLID
  5
296
330
28E
100
AcDbEntity
  8
文字
 62
     0
100
AcDbTrace
 10
122.7525179038801
 20
145.8428178664362
 30
0.0
 11
123.0285585108874
 21
145.0565316413709
 31
0.0
 12
120.5316795321878
 22
144.6215529328816
 32
0.0
 13
120.5316795321878
 23
144.6215529328816
 33
0.0
  0
POINT
  5
297
330
28E
100
AcDbEntity
  8
Defpoints
 62
     0
100
AcDbPoint
 10
120.5316795321878
 20
144.6215529328816
 30
0.0
  0
POINT
  5
298
330
28E
100
AcDbEntity
  8
Defpoints
 62
     0
100
AcDbPoint
 10
107.3220709510904
 20
139.9840707351586
 30
0.0
  0
ENDBLK
  5
290
330
28E
100
AcDbEntity
  8
0
100
AcDbBlockEnd
  0
BLOCK
  5
29A
330
299
100
AcDbEntity
  8
0
100
AcDbBlockBegin
  2
*D18
 70
     1
 10
0.0
 20
0.0
 30
0.0
  3
*D18
  1
*D19
  0
LINE
  5
29C
330
299
100
AcDbEntity
  8
文字
 62
     0
370
    -2
100
AcDbLine
 10
232.6678807566642
 20
162.3028118340201
 30
0.0
 11
205.4653452274073
 21
162.3028118340201
 31
0.0
  0
LINE
  5
29D
330
299
100
AcDbEntity
  8
文字
 62
     0
370
    -2
100
AcDbLine
 10
232.2296183755503
 20
126.7549838576277
 30
0.0
 11
205.4653452274073
 21
126.7549838576277
 31
0.0
  0
LINE
  5
29E
330
299
100
AcDbEntity
  8
文字
 62
     0
370
    -2
100
AcDbLine
 10
206.7153452274073
 20
159.8028118340201
 30
0.0
 11
206.7153452274073
 21
129.2549838576277
 31
0.0
  0
SOLID
  5
29F
330
299
100
AcDbEntity
  8
文字
 62
     0
100
AcDbTrace
 10
207.132011894074
 20
159.8028118340201
 30
0.0
 11
206.2986785607407
 21
159.8028118340201
 31
0.0
 12
206.7153452274073
 22
162.3028118340201
 32
0.0
 13
206.7153452274073
 23
162.3028118340201
 33
0.0
  0
SOLID
  5
2A0
330
299
100
AcDbEntity
  8
文字
 62
     0
100
AcDbTrace
 10
206.2986785607407
 20
129.2549838576277
 30
0.0
 11
207.132011894074
 21
129.2549838576277
 31
0.0
 12
206.7153452274073
 22
126.7549838576277
 32
0.0
 13
206.7153452274073
 23
126.7549838576277
 33
0.0
  0
MTEXT
  5
2A1
330
299
100
AcDbEntity
  8
文字
 62
     0
370
    30
100
AcDbMText
 10
204.5588452274073
 20
144.5288978458239
 30
0.0
 40
3.0
 41
0.0
 46
0.0
 71
     5
 72
     1
  1
35
 11
0.0
 21
1.0
 31
0.0
 73
     1
 44
1.0
  0
POINT
  5
2A2
330
299
100
AcDbEntity
  8
Defpoints
 62
     0
100
AcDbPoint
 10
233.2928807566642
 20
162.3028118340201
 30
0.0
  0
POINT
  5
2A3
330
299
100
AcDbEntity
  8
Defpoints
 62
     0
100
AcDbPoint
 10
232.8546183755503
 20
126.7549838576277
 30
0.0
  0
POINT
  5
2A4
330
299
100
AcDbEntity
  8
Defpoints
 62
     0
100
AcDbPoint
 10
206.7153452274073
 20
126.7549838576277
 30
0.0
  0
ENDBLK
  5
29B
330
299
100
AcDbEntity
  8
0
100
AcDbBlockEnd
  0
BLOCK
  5
2A6
330
2A5
100
AcDbEntity
  8
0
100
AcDbBlockBegin
  2
*D19
 70
     1
 10
0.0
 20
0.0
 30
0.0
  3
*D19
  1
*D20
  0
LINE
  5
2A8
330
2A5
100
AcDbEntity
  8
文字
 62
     0
370
    -2
100
AcDbLine
 10
221.3561431377782
 20
106.7982966323379
 30
0.0
 11
252.9751400245271
 21
106.7982966323379
 31
0.0
  0
LINE
  5
2A9
330
2A5
100
AcDbEntity
  8
文字
 62
     0
370
    -2
100
AcDbLine
 10
220.9178807566642
 20
72.30281183402015
 30
0.0
 11
252.9751400245271
 21
72.30281183402015
 31
0.0
  0
LINE
  5
2AA
330
2A5
100
AcDbEntity
  8
文字
 62
     0
370
    -2
100
AcDbLine
 10
251.7251400245271
 20
104.2982966323379
 30
0.0
 11
251.7251400245271
 21
74.80281183402015
 31
0.0
  0
SOLID
  5
2AB
330
2A5
100
AcDbEntity
  8
文字
 62
     0
100
AcDbTrace
 10
252.1418066911938
 20
104.2982966323379
 30
0.0
 11
251.3084733578604
 21
104.2982966323379
 31
0.0
 12
251.7251400245271
 22
106.7982966323379
 32
0.0
 13
251.7251400245271
 23
106.7982966323379
 33
0.0
  0
SOLID
  5
2AC
330
2A5
100
AcDbEntity
  8
文字
 62
     0
100
AcDbTrace
 10
251.3084733578604
 20
74.80281183402015
 30
0.0
 11
252.1418066911938
 21
74.80281183402015
 31
0.0
 12
251.7251400245271
 22
72.30281183402015
 32
0.0
 13
251.7251400245271
 23
72.30281183402015
 33
0.0
  0
MTEXT
  5
2AD
330
2A5
100
AcDbEntity
  8
文字
 62
     0
370
    30
100
AcDbMText
 10
249.5686400245271
 20
89.55055423317901
 30
0.0
 40
3.0
 41
0.0
 46
0.0
 71
     5
 72
     1
  1
35
 11
0.0
 21
1.0
 31
0.0
 73
     1
 44
1.0
  0
POINT
  5
2AE
330
2A5
100
AcDbEntity
  8
Defpoints
 62
     0
100
AcDbPoint
 10
220.7311431377782
 20
106.7982966323379
 30
0.0
  0
POINT
  5
2AF
330
2A5
100
AcDbEntity
  8
Defpoints
 62
     0
100
AcDbPoint
 10
220.2928807566642
 20
72.30281183402015
 30
0.0
  0
POINT
  5
2B0
330
2A5
100
AcDbEntity
  8
Defpoints
 62
     0
100
AcDbPoint
 10
251.7251400245271
 20
72.30281183402015
 30
0.0
  0
ENDBLK
  5
2A7
330
2A5
100
AcDbEntity
  8
0
100
AcDbBlockEnd
  0
BLOCK
  5
2B2
330
2B1
100
AcDbEntity
  8
0
100
AcDbBlockBegin
  2
*D20
 70
     1
 10
0.0
 20
0.0
 30
0.0
  3
*D20
  1
*D21
  0
LINE
  5
2B4
330
2B1
100
AcDbEntity
  8
文字
 62
     0
370
    -2
100
AcDbLine
 10
233.2928807566642
 20
162.9278118340201
 30
0.0
 11
233.2928807566642
 21
172.9068632379596
 31
0.0
  0
LINE
  5
2B5
330
2B1
100
AcDbEntity
  8
文字
 62
     0
370
    -2
100
AcDbLine
 10
236.2928807566642
 20
162.9278118340201
 30
0.0
 11
236.2928807566642
 21
172.9068632379596
 31
0.0
  0
LINE
  5
2B6
330
2B1
100
AcDbEntity
  8
文字
 62
     0
370
    -2
100
AcDbLine
 10
238.7928807566642
 20
171.6568632379596
 30
0.0
 11
244.5048807566642
 21
171.6568632379596
 31
0.0
  0
LINE
  5
2B7
330
2B1
100
AcDbEntity
  8
文字
 62
     0
370
    -2
100
AcDbLine
 10
233.2928807566642
 20
171.6568632379596
 30
0.0
 11
236.2928807566642
 21
171.6568632379596
 31
0.0
  0
LINE
  5
2B8
330
2B1
100
AcDbEntity
  8
文字
 62
     0
370
    -2
100
AcDbLine
 10
230.7928807566642
 20
171.6568632379596
 30
0.0
 11
228.2928807566642
 21
171.6568632379596
 31
0.0
  0
SOLID
  5
2B9
330
2B1
100
AcDbEntity
  8
文字
 62
     0
100
AcDbTrace
 10
230.7928807566642
 20
171.240196571293
 30
0.0
 11
230.7928807566642
 21
172.0735299046263
 31
0.0
 12
233.2928807566642
 22
171.6568632379596
 32
0.0
 13
233.2928807566642
 23
171.6568632379596
 33
0.0
  0
SOLID
  5
2BA
330
2B1
100
AcDbEntity
  8
文字
 62
     0
100
AcDbTrace
 10
238.7928807566642
 20
172.0735299046263
 30
0.0
 11
238.7928807566642
 21
171.240196571293
 31
0.0
 12
236.2928807566642
 22
171.6568632379596
 32
0.0
 13
236.2928807566642
 23
171.6568632379596
 33
0.0
  0
MTEXT
  5
2BB
330
2B1
100
AcDbEntity
  8
文字
 62
     0
370
    30
100
AcDbMText
 10
242.8988807566642
 20
173.8133632379596
 30
0.0
 40
3.0
 41
0.0
 46
0.0
 71
     5
 72
     1
  1
3
 73
     1
 44
1.0
  0
POINT
  5
2BC
330
2B1
100
AcDbEntity
  8
Defpoints
 62
     0
100
AcDbPoint
 10
233.2928807566642
 20
162.3028118340201
 30
0.0
  0
POINT
  5
2BD
330
2B1
100
AcDbEntity
  8
Defpoints
 62
     0
100
AcDbPoint
 10
236.2928807566642
 20
162.3028118340201
 30
0.0
  0
POINT
  5
2BE
330
2B1
100
AcDbEntity
  8
Defpoints
 62
     0
100
AcDbPoint
 10
236.2928807566642
 20
171.6568632379596
 30
0.0
  0
ENDBLK
  5
2B3
330
2B1
100
AcDbEntity
  8
0
100
AcDbBlockEnd
  0
BLOCK
  5
2C0
330
2BF
100
AcDbEntity
  8
0
100
AcDbBlockBegin
  2
*D21
 70
     1
 10
0.0
 20
0.0
 30
0.0
  3
*D21
  1
*D22
  0
LINE
  5
2C2
330
2BF
100
AcDbEntity
  8
文字
 62
     0
370
    -2
100
AcDbLine
 10
217.2928807566642
 20
107.2262497153037
 30
0.0
 11
217.2928807566642
 21
172.9068632379596
 31
0.0
  0
LINE
  5
2C3
330
2BF
100
AcDbEntity
  8
文字
 62
     0
370
    -2
100
AcDbLine
 10
233.2928807566642
 20
128.6293739527365
 30
0.0
 11
233.2928807566642
 21
172.9068632379596
 31
0.0
  0
LINE
  5
2C4
330
2BF
100
AcDbEntity
  8
文字
 62
     0
370
    -2
100
AcDbLine
 10
219.7928807566642
 20
171.6568632379596
 30
0.0
 11
230.7928807566642
 21
171.6568632379596
 31
0.0
  0
SOLID
  5
2C5
330
2BF
100
AcDbEntity
  8
文字
 62
     0
100
AcDbTrace
 10
219.7928807566642
 20
172.0735299046263
 30
0.0
 11
219.7928807566642
 21
171.240196571293
 31
0.0
 12
217.2928807566642
 22
171.6568632379596
 32
0.0
 13
217.2928807566642
 23
171.6568632379596
 33
0.0
  0
SOLID
  5
2C6
330
2BF
100
AcDbEntity
  8
文字
 62
     0
100
AcDbTrace
 10
230.7928807566642
 20
171.240196571293
 30
0.0
 11
230.7928807566642
 21
172.0735299046263
 31
0.0
 12
233.2928807566642
 22
171.6568632379596
 32
0.0
 13
233.2928807566642
 23
171.6568632379596
 33
0.0
  0
MTEXT
  5
2C7
330
2BF
100
AcDbEntity
  8
文字
 62
     0
370
    30
100
AcDbMText
 10
225.2928807566642
 20
173.8133632379596
 30
0.0
 40
3.0
 41
0.0
 46
0.0
 71
     5
 72
     1
  1
16
 73
     1
 44
1.0
  0
POINT
  5
2C8
330
2BF
100
AcDbEntity
  8
Defpoints
 62
     0
100
AcDbPoint
 10
217.2928807566642
 20
106.6012497153037
 30
0.0
  0
POINT
  5
2C9
330
2BF
100
AcDbEntity
  8
Defpoints
 62
     0
100
AcDbPoint
 10
233.2928807566642
 20
128.0043739527365
 30
0.0
  0
POINT
  5
2CA
330
2BF
100
AcDbEntity
  8
Defpoints
 62
     0
100
AcDbPoint
 10
233.2928807566642
 20
171.6568632379596
 30
0.0
  0
ENDBLK
  5
2C1
330
2BF
100
AcDbEntity
  8
0
100
AcDbBlockEnd
  0
BLOCK
  5
2CC
330
2CB
100
AcDbEntity
  8
0
100
AcDbBlockBegin
  2
*D22
 70
     1
 10
0.0
 20
0.0
 30
0.0
  3
*D22
  1
*D23
  0
LINE
  5
2CE
330
2CB
100
AcDbEntity
  8
文字
 62
     0
370
    -2
100
AcDbLine
 10
217.2928807566642
 20
107.2262497153037
 30
0.0
 11
217.2928807566642
 21
181.5963637361991
 31
0.0
  0
LINE
  5
2CF
330
2CB
100
AcDbEntity
  8
文字
 62
     0
370
    -2
100
AcDbLine
 10
236.2928807566642
 20
127.5770307746619
 30
0.0
 11
236.2928807566642
 21
181.5963637361991
 31
0.0
  0
LINE
  5
2D0
330
2CB
100
AcDbEntity
  8
文字
 62
     0
370
    -2
100
AcDbLine
 10
219.7928807566642
 20
180.3463637361991
 30
0.0
 11
233.7928807566642
 21
180.3463637361991
 31
0.0
  0
SOLID
  5
2D1
330
2CB
100
AcDbEntity
  8
文字
 62
     0
100
AcDbTrace
 10
219.7928807566642
 20
180.7630304028658
 30
0.0
 11
219.7928807566642
 21
179.9296970695324
 31
0.0
 12
217.2928807566642
 22
180.3463637361991
 32
0.0
 13
217.2928807566642
 23
180.3463637361991
 33
0.0
  0
SOLID
  5
2D2
330
2CB
100
AcDbEntity
  8
文字
 62
     0
100
AcDbTrace
 10
233.7928807566642
 20
179.9296970695324
 30
0.0
 11
233.7928807566642
 21
180.7630304028658
 31
0.0
 12
236.2928807566642
 22
180.3463637361991
 32
0.0
 13
236.2928807566642
 23
180.3463637361991
 33
0.0
  0
MTEXT
  5
2D3
330
2CB
100
AcDbEntity
  8
文字
 62
     0
370
    30
100
AcDbMText
 10
226.7928807566642
 20
182.5028637361991
 30
0.0
 40
3.0
 41
0.0
 46
0.0
 71
     5
 72
     1
  1
19
 73
     1
 44
1.0
  0
POINT
  5
2D4
330
2CB
100
AcDbEntity
  8
Defpoints
 62
     0
100
AcDbPoint
 10
217.2928807566642
 20
106.6012497153037
 30
0.0
  0
POINT
  5
2D5
330
2CB
100
AcDbEntity
  8
Defpoints
 62
     0
100
AcDbPoint
 10
236.2928807566642
 20
126.9520307746619
 30
0.0
  0
POINT
  5
2D6
330
2CB
100
AcDbEntity
  8
Defpoints
 62
     0
100
AcDbPoint
 10
236.2928807566642
 20
180.3463637361991
 30
0.0
  0
ENDBLK
  5
2CD
330
2CB
100
AcDbEntity
  8
0
100
AcDbBlockEnd
  0
ENDSEC
  0
SECTION
  2
ENTITIES
  0
LWPOLYLINE
  5
213
102
{ACAD_REACTORS
330
21E
330
221
330
224
102
}
330
1F
100
AcDbEntity
  8
実線
 62
     0
370
    30
100
AcDbPolyline
 90
       10
 70
     0
 43
0.0
 10
123.9268752416391
 20
72.30281183402013
 10
133.9268752416391
 20
72.30281183402013
 42
0.414213562373095
 10
138.9268752416391
 20
77.30281183402013
 10
138.9268752416391
 20
147.3028118340201
 42
0.414213562373095
 10
123.9268752416391
 20
162.3028118340201
 10
103.9268752416391
 20
162.3028118340201
 42
0.414213562373095
 10
88.9268752416391
 20
147.3028118340201
 10
88.9268752416391
 20
77.30281183402012
 42
0.414213562373095
 10
93.9268752416391
 20
72.30281183402012
 10
103.9268752416391
 20
72.30281183402012
  0
LINE
  5
214
330
1F
100
AcDbEntity
  8
中心線
 62
     0
370
    30
100
AcDbLine
 10
93.29288075666423
 20
142.3028118340201
 30
0.0
 11
153.8026245868132
 21
142.3028118340201
 31
0.0
  0
LINE
  5
215
330
1F
100
AcDbEntity
  8
中心線
 62
     0
370
    30
100
AcDbLine
 10
113.9268752416391
 20
172.3028118340201
 30
0.0
 11
113.9268752416391
 21
48.04378742027774
 31
0.0
  0
CIRCLE
  5
216
102
{ACAD_REACTORS
330
224
330
22F
102
}
330
1F
100
AcDbEntity
  8
実線
 62
     0
370
    30
100
AcDbCircle
 10
113.9268752416391
 20
142.3028118340201
 30
0.0
 40
7.0
  0
ARC
  5
217
102
{ACAD_REACTORS
330
227
330
22C
102
}
330
1F
100
AcDbEntity
  8
実線
 62
     0
370
    30
100
AcDbCircle
 10
113.9268752416391
 20
82.30281183402013
 30
0.0
 40
10.0
100
AcDbArc
 50
0.0
 51
180.0
  0
LINE
  5
218
102
{ACAD_REACTORS
330
21E
330
227
102
}
330
1F
100
AcDbEntity
  8
実線
 62
     0
370
    30
100
AcDbLine
 10
103.9268752416391
 20
82.30281183402013
 30
0.0
 11
103.9268752416391
 21
72.30281183402012
 31
0.0
  0
LINE
  5
219
330
1F
100
AcDbEntity
  8
実線
 62
     0
370
    30
100
AcDbLine
 10
123.9268752416391
 20
82.30281183402013
 30
0.0
 11
123.9268752416391
 21
72.30281183402013
 31
0.0
  0
LINE
  5
21A
330
1F
100
AcDbEntity
  8
実線
 62
     0
370
    30
100
AcDbLine
 10
233.2928807566642
 20
162.3028118340201
 30
0.0
 11
235.2928807566642
 21
162.3028118340201
 31
0.0
  0
LINE
  5
21B
330
1F
100
AcDbEntity
  8
中心線
 62
     0
370
    30
100
AcDbLine
 10
93.29288075666423
 20
142.3028118340201
 30
0.0
 11
70.27684092389552
 21
142.3028118340201
 31
0.0
  0
DIMENSION
  5
21C
102
{ACAD_REACTORS
330
21E
102
}
102
{ACAD_XDICTIONARY
360
21D
102
}
330
1F
100
AcDbEntity
  8
文字
 62
     0
370
    30
100
AcDbDimension
280
     0
  2
*D12
 10
65.4868450770233
 20
72.30281183402012
 30
0.0
 11
63.33034507702331
 21
117.3028118340201
 31
0.0
 70
    32
 71
     5
 42
89.99999999999999
 73
     0
 74
     0
 75
     0
  3
ISO-25
100
AcDbAlignedDimension
 13
103.9268752416391
 23
162.3028118340201
 33
0.0
 14
103.9268752416391
 24
72.30281183402012
 34
0.0
 50
90.0
100
AcDbRotatedDimension
  0
DIMENSION
  5
21F
102
{ACAD_REACTORS
330
221
102
}
102
{ACAD_XDICTIONARY
360
220
102
}
330
1F
100
AcDbEntity
  8
文字
 62
     0
370
    30
100
AcDbDimension
280
     0
  2
*D13
 10
138.9268752416391
 20
177.8011415686693
 30
0.0
 11
113.9268752416391
 21
179.9576415686693
 31
0.0
 70
    32
 71
     5
 42
50.0
 73
     0
 74
     0
 75
     0
  3
ISO-25
100
AcDbAlignedDimension
 13
88.9268752416391
 23
147.3028118340201
 33
0.0
 14
138.9268752416391
 24
147.3028118340201
 34
0.0
100
AcDbRotatedDimension
  0
DIMENSION
  5
222
102
{ACAD_REACTORS
330
224
102
}
102
{ACAD_XDICTIONARY
360
223
102
}
330
1F
100
AcDbEntity
  8
文字
 62
     0
370
    30
100
AcDbDimension
280
     0
  2
*D14
 10
83.7693601593312
 20
162.3028118340201
 30
0.0
 11
81.6128601593312
 21
152.3028118340201
 31
0.0
 70
    32
 71
     5
 42
20.0
 73
     0
 74
     0
 75
     0
  3
ISO-25
100
AcDbAlignedDimension
 13
113.9268752416391
 23
142.3028118340201
 33
0.0
 14
113.9268752416391
 24
162.3028118340201
 34
0.0
 50
90.0
100
AcDbRotatedDimension
  0
DIMENSION
  5
225
102
{ACAD_REACTORS
330
227
102
}
102
{ACAD_XDICTIONARY
360
226
102
}
330
1F
100
AcDbEntity
  8
文字
 62
     0
370
    30
100
AcDbDimension
280
     0
  2
*D15
 10
84.04748919422218
 20
72.30281183402012
 30
0.0
 11
81.89098919422219
 21
77.30281183402013
 31
0.0
 70
    32
 71
     5
 42
10.00000000000001
 73
     0
 74
     0
 75
     0
  3
ISO-25
100
AcDbAlignedDimension
 13
113.9268752416391
 23
82.30281183402013
 33
0.0
 14
103.9268752416391
 24
72.30281183402012
 34
0.0
 50
90.0
100
AcDbRotatedDimension
  0
LINE
  5
228
330
1F
100
AcDbEntity
  8
実線
 62
     0
370
    30
100
AcDbLine
 10
233.2928807566642
 20
162.3028118340201
 30
0.0
 11
236.2928807566642
 21
162.3028118340201
 31
0.0
  0
LINE
  5
229
330
1F
100
AcDbEntity
  8
文字
 62
     0
370
    30
100
AcDbLine
 10
138.9268752416391
 20
162.3028118340202
 30
0.0
 11
138.9268752416391
 21
117.3028118340202
 31
0.0
  0
DIMENSION
  5
22A
102
{ACAD_REACTORS
330
22C
102
}
102
{ACAD_XDICTIONARY
360
22B
102
}
330
1F
100
AcDbEntity
  8
文字
 62
     0
370
    30
100
AcDbDimension
280
     0
  2
*D16
 10
113.9268752416391
 20
82.30281183402019
 30
0.0
 11
162.1703915232994
 21
101.263082785494
 31
0.0
 70
   164
 71
     5
 42
9.999999999999988
 73
     0
 74
     0
 75
     0
  3
ISO-25
100
AcDbRadialDimension
 15
123.2339002345779
 25
85.96058243656105
 35
0.0
 40
0.0
1001
ACAD
1000
DSTYLE
1002
{
1070
   288
1070
     1
1002
}
  0
DIMENSION
  5
22D
102
{ACAD_REACTORS
330
22F
102
}
102
{ACAD_XDICTIONARY
360
22E
102
}
330
1F
100
AcDbEntity
  8
文字
 62
     0
370
    30
100
AcDbDimension
280
     0
  2
*D17
 10
107.3220709510904
 20
139.9840707351586
 30
0.0
 11
155.6141848431791
 21
156.9379280042865
 31
0.0
 70
   163
 71
     5
 42
13.99999999999999
 73
     0
 74
     0
 75
     0
  3
ISO-25
100
AcDbDiametricDimension
 15
120.5316795321878
 25
144.6215529328816
 35
0.0
 40
0.0
1001
ACAD
1000
DSTYLE
1002
{
1070
   288
1070
     1
1002
}
  0
MTEXT
  5
230
102
{ACAD_REACTORS
330
231
102
}
330
1F
100
AcDbEntity
  8
文字
 62
     0
370
    30
100
AcDbMText
 10
165.8003194539788
 20
174.5708229746408
 30
0.0
 40
3.0
 41
0.0
 46
0.0
 71
     7
 72
     1
  1
2-{\fArial|b0|i0|c0|p32;R15}
 73
     1
 44
1.0
  0
LEADER
  5
231
102
{ACAD_XDICTIONARY
360
232
102
}
330
1F
100
AcDbEntity
  8
文字
 62
     0
370
    30
100
AcDbLeader
  3
ISO-25
 73
     0
 74
     0
 40
3.06343792633015
 41
11.12414733969986
 76
     3
 10
134.5334769594373
 20
157.9094135518183
 30
0.0
 10
162.3093528507422
 20
173.9458229746408
 30
0.0
 10
165.1753194539788
 20
173.9458229746408
 30
0.0
340
230
1001
ACAD
1000
DSTYLE
1002
{
1070
   147
1040
0.625
1070
    77
1070
     1
1002
}
  0
MTEXT
  5
234
102
{ACAD_REACTORS
330
235
102
}
330
1F
100
AcDbEntity
  8
文字
 62
     0
370
    30
100
AcDbMText
 10
153.5074317977112
 20
58.66265459326246
 30
0.0
 40
3.0
 41
0.0
 46
0.0
 71
     7
 72
     1
  1
2-{\fArial|b0|i0|c0|p32;R5}
 73
     1
 44
1.0
  0
LEADER
  5
235
102
{ACAD_XDICTIONARY
360
236
102
}
330
1F
100
AcDbEntity
  8
文字
 62
     0
370
    30
100
AcDbLeader
  3
ISO-25
 73
     0
 74
     0
 40
3.06343792633015
 41
8.79331514324693
 76
     3
 10
137.4624091475718
 20
73.7672779280874
 30
0.0
 10
146.5439114141844
 20
58.03765459326246
 30
0.0
 10
152.8824317977112
 20
58.03765459326246
 30
0.0
340
234
1001
ACAD
1000
DSTYLE
1002
{
1070
   147
1040
0.625
1070
    77
1070
     1
1002
}
  0
LINE
  5
238
102
{ACAD_REACTORS
330
24A
102
}
330
1F
100
AcDbEntity
  8
実線
 62
     0
370
    30
100
AcDbLine
 10
220.2928807566643
 20
72.30281183402015
 30
0.0
 11
217.2928807566642
 21
72.30281183402013
 31
0.0
  0
LINE
  5
239
102
{ACAD_REACTORS
330
250
330
253
102
}
330
1F
100
AcDbEntity
  8
実線
 62
     0
370
    30
100
AcDbLine
 10
217.2928807566642
 20
72.30281183402013
 30
0.0
 11
217.2928807566643
 21
106.6012497153037
 31
0.0
  0
LINE
  5
23A
102
{ACAD_REACTORS
330
24A
102
}
330
1F
100
AcDbEntity
  8
実線
 62
     0
370
    30
100
AcDbLine
 10
220.2928807566642
 20
72.30281183402013
 30
0.0
 11
220.2928807566642
 21
105.5489065372291
 31
0.0
  0
LINE
  5
23B
102
{ACAD_REACTORS
330
247
330
24D
102
}
330
1F
100
AcDbEntity
  8
実線
 62
     0
370
    30
100
AcDbLine
 10
233.2928807566642
 20
162.3028118340201
 30
0.0
 11
233.2928807566642
 21
128.0043739527365
 31
0.0
  0
LINE
  5
23C
102
{ACAD_REACTORS
330
24D
102
}
330
1F
100
AcDbEntity
  8
実線
 62
     0
370
    30
100
AcDbLine
 10
236.2928807566642
 20
162.3028118340201
 30
0.0
 11
236.2928807566642
 21
126.9520307746619
 31
0.0
  0
LINE
  5
23D
330
1F
100
AcDbEntity
  8
実線
 62
     0
370
    30
100
AcDbLine
 10
232.8546183755503
 20
126.7549838576277
 30
0.0
 11
217.7311431377782
 21
107.8506398104126
 31
0.0
  0
LINE
  5
23E
330
1F
100
AcDbEntity
  8
実線
 62
     0
370
    30
100
AcDbLine
 10
235.8546183755503
 20
125.7026406795531
 30
0.0
 11
220.7311431377782
 21
106.7982966323379
 31
0.0
  0
ARC
  5
23F
102
{ACAD_REACTORS
330
253
102
}
330
1F
100
AcDbEntity
  8
実線
 62
     0
370
    30
100
AcDbCircle
 10
234.2928807566642
 20
126.9520307746619
 30
0.0
 40
2.0
100
AcDbArc
 50
321.34019174591
 51
0.0
  0
ARC
  5
240
102
{ACAD_REACTORS
330
24A
102
}
330
1F
100
AcDbEntity
  8
実線
 62
     0
370
    30
100
AcDbCircle
 10
222.2928807566642
 20
105.5489065372291
 30
0.0
 40
2.0
100
AcDbArc
 50
141.3401917459101
 51
180.0
  0
ARC
  5
241
102
{ACAD_REACTORS
330
247
330
250
102
}
330
1F
100
AcDbEntity
  8
実線
 62
     0
370
    30
100
AcDbCircle
 10
231.2928807566642
 20
128.0043739527365
 30
0.0
 40
2.0
100
AcDbArc
 50
321.34019174591
 51
0.0
  0
ARC
  5
242
102
{ACAD_REACTORS
330
250
330
253
102
}
330
1F
100
AcDbEntity
  8
実線
 62
     0
370
    30
100
AcDbCircle
 10
219.2928807566643
 20
106.6012497153037
 30
0.0
 40
2.0
100
AcDbArc
 50
141.3401917459101
 51
180.0
  0
LINE
  5
243
330
1F
100
AcDbEntity
  8
破線
 62
     0
370
    30
100
AcDbLine
 10
88.9268752416391
 20
127.3028118340201
 30
0.0
 11
138.9268752416391
 21
127.3028118340201
 31
0.0
  0
LINE
  5
244
330
1F
100
AcDbEntity
  8
破線
 62
     0
370
    30
100
AcDbLine
 10
88.9268752416391
 20
107.3028118340201
 30
0.0
 11
138.9268752416391
 21
107.3028118340201
 31
0.0
  0
DIMENSION
  5
245
102
{ACAD_REACTORS
330
247
102
}
102
{ACAD_XDICTIONARY
360
246
102
}
330
1F
100
AcDbEntity
  8
文字
 62
     0
370
    30
100
AcDbDimension
280
     0
  2
*D18
 10
206.7153452274073
 20
126.7549838576277
 30
0.0
 11
204.5588452274073
 21
144.5288978458239
 31
0.0
 70
    32
  1
35
 71
     5
 42
35.5478279763924
 73
     0
 74
     0
 75
     0
  3
ISO-25
100
AcDbAlignedDimension
 13
233.2928807566642
 23
162.3028118340201
 33
0.0
 14
232.8546183755503
 24
126.7549838576277
 34
0.0
 50
90.0
100
AcDbRotatedDimension
  0
DIMENSION
  5
248
102
{ACAD_REACTORS
330
24A
102
}
102
{ACAD_XDICTIONARY
360
249
102
}
330
1F
100
AcDbEntity
  8
文字
 62
     0
370
    30
100
AcDbDimension
280
     0
  2
*D19
 10
251.7251400245271
 20
72.30281183402015
 30
0.0
 11
249.5686400245271
 21
89.55055423317901
 31
0.0
 70
    32
  1
35
 71
     5
 42
34.49548479831775
 73
     0
 74
     0
 75
     0
  3
ISO-25
100
AcDbAlignedDimension
 13
220.7311431377782
 23
106.7982966323379
 33
0.0
 14
220.2928807566642
 24
72.30281183402015
 34
0.0
 50
90.0
100
AcDbRotatedDimension
  0
DIMENSION
  5
24B
102
{ACAD_REACTORS
330
24D
102
}
102
{ACAD_XDICTIONARY
360
24C
102
}
330
1F
100
AcDbEntity
  8
文字
 62
     0
370
    30
100
AcDbDimension
280
     0
  2
*D20
 10
236.2928807566642
 20
171.6568632379596
 30
0.0
 11
242.8988807566642
 21
173.8133632379596
 31
0.0
 70
    32
 71
     5
 42
3.0
 73
     0
 74
     0
 75
     0
  3
ISO-25
100
AcDbAlignedDimension
 13
233.2928807566642
 23
162.3028118340201
 33
0.0
 14
236.2928807566642
 24
162.3028118340201
 34
0.0
100
AcDbRotatedDimension
  0
DIMENSION
  5
24E
102
{ACAD_REACTORS
330
250
102
}
102
{ACAD_XDICTIONARY
360
24F
102
}
330
1F
100
AcDbEntity
  8
文字
 62
     0
370
    30
100
AcDbDimension
280
     0
  2
*D21
 10
233.2928807566642
 20
171.6568632379596
 30
0.0
 11
225.2928807566642
 21
173.8133632379596
 31
0.0
 70
    32
 71
     5
 42
16.0
 73
     0
 74
     0
 75
     0
  3
ISO-25
100
AcDbAlignedDimension
 13
217.2928807566642
 23
106.6012497153037
 33
0.0
 14
233.2928807566642
 24
128.0043739527365
 34
0.0
100
AcDbRotatedDimension
  0
DIMENSION
  5
251
102
{ACAD_REACTORS
330
253
102
}
102
{ACAD_XDICTIONARY
360
252
102
}
330
1F
100
AcDbEntity
  8
文字
 62
     0
370
    30
100
AcDbDimension
280
     0
  2
*D22
 10
236.2928807566642
 20
180.3463637361991
 30
0.0
 11
226.7928807566642
 21
182.5028637361991
 31
0.0
 70
    32
 71
     5
 42
19.0
 73
     0
 74
     0
 75
     0
  3
ISO-25
100
AcDbAlignedDimension
 13
217.2928807566642
 23
106.6012497153037
 33
0.0
 14
236.2928807566642
 24
126.9520307746619
 34
0.0
100
AcDbRotatedDimension
  0
LINE
  5
254
330
1F
100
AcDbEntity
  8
中心線
 62
     0
370
    30
100
AcDbLine
 10
212.0654585528561
 20
142.3028118340201
 30
0.0
 11
252.6588862716893
 21
142.3028118340201
 31
0.0
  0
MTEXT
  5
300
330
1F
100
AcDbEntity
  8
文字・寸法線
 62
     0
100
AcDbMText
 10
97.8959801613576
 20
200.4015639748777
 30
0.0
 40
6.0
 41
0.0
 46
6.0
 71
     9
 72
     1
  1
{\fＭＳ ゴシック|b0|i0|c0|p0;S-FA M12}
 73
     1
 44
1.0
1001
ACAD
1000
ACAD_MTEXT_DEFINED_HEIGHT_BEGIN
1070
    46
1040
6.0
1000
ACAD_MTEXT_DEFINED_HEIGHT_END
  0
ENDSEC
  0
SECTION
  2
OBJECTS
  0
DICTIONARY
  5
C
330
0
100
AcDbDictionary
281
     1
  3
ACAD_COLOR
350
73
  3
ACAD_DETAILVIEWSTYLE
350
122
  3
ACAD_GROUP
350
D
  3
ACAD_IMAGE_VARS
350
DC
  3
ACAD_LAYOUT
350
1A
  3
ACAD_MATERIAL
350
72
  3
ACAD_MLEADERSTYLE
350
B5
  3
ACAD_MLINESTYLE
350
17
  3
ACAD_PLOTSETTINGS
350
19
  3
ACAD_PLOTSTYLENAME
350
E
  3
ACAD_SCALELIST
350
B6
  3
ACAD_SECTIONVIEWSTYLE
350
123
  3
ACAD_TABLESTYLE
350
86
  3
ACAD_VISUALSTYLE
350
99
  3
AcDbVariableDictionary
350
66
  3
ACDB_RECOMPOSE_DATA
350
30F
  3
APPDATA
350
E1
  0
SUN
  5
ED
330
94
100
AcDbSun
 90
        1
290
     0
 63
     7
421
 16777215
 40
1.0
291
     1
 91
  2455826
 92
 54000000
292
     0
 70
     2
 71
   256
280
     1
  0
DICTIONARY
  5
30B
330
1F
100
AcDbDictionary
280
     1
281
     1
  3
DIM_BOUNDING_BOXES_V1
360
30C
  0
DICTIONARY
  5
21D
330
21C
100
AcDbDictionary
280
     1
281
     1
  3
ACAD_DIMASSOC
360
21E
  0
DICTIONARY
  5
220
330
21F
100
AcDbDictionary
280
     1
281
     1
  3
ACAD_DIMASSOC
360
221
  0
DICTIONARY
  5
223
330
222
100
AcDbDictionary
280
     1
281
     1
  3
ACAD_DIMASSOC
360
224
  0
DICTIONARY
  5
226
330
225
100
AcDbDictionary
280
     1
281
     1
  3
ACAD_DIMASSOC
360
227
  0
DICTIONARY
  5
22B
330
22A
100
AcDbDictionary
280
     1
281
     1
  3
ACAD_DIMASSOC
360
22C
  0
DICTIONARY
  5
22E
330
22D
100
AcDbDictionary
280
     1
281
     1
  3
ACAD_DIMASSOC
360
22F
  0
DICTIONARY
  5
232
330
231
100
AcDbDictionary
280
     1
281
     1
  0
DICTIONARY
  5
236
330
235
100
AcDbDictionary
280
     1
281
     1
  0
DICTIONARY
  5
246
330
245
100
AcDbDictionary
280
     1
281
     1
  3
ACAD_DIMASSOC
360
247
  0
DICTIONARY
  5
249
330
248
100
AcDbDictionary
280
     1
281
     1
  3
ACAD_DIMASSOC
360
24A
  0
DICTIONARY
  5
24C
330
24B
100
AcDbDictionary
280
     1
281
     1
  3
ACAD_DIMASSOC
360
24D
  0
DICTIONARY
  5
24F
330
24E
100
AcDbDictionary
280
     1
281
     1
  3
ACAD_DIMASSOC
360
250
  0
DICTIONARY
  5
252
330
251
100
AcDbDictionary
280
     1
281
     1
  3
ACAD_DIMASSOC
360
253
  0
DICTIONARY
  5
73
102
{ACAD_REACTORS
330
C
102
}
330
C
100
AcDbDictionary
281
     1
  0
DICTIONARY
  5
122
102
{ACAD_REACTORS
330
C
102
}
330
C
100
AcDbDictionary
281
     1
  0
DICTIONARY
  5
D
102
{ACAD_REACTORS
330
C
102
}
330
C
100
AcDbDictionary
281
     1
  0
RASTERVARIABLES
  5
DC
102
{ACAD_REACTORS
330
C
102
}
330
C
100
AcDbRasterVariables
 90
        0
 70
     1
 71
     1
 72
     5
  0
DICTIONARY
  5
1A
102
{ACAD_REACTORS
330
C
102
}
330
C
100
AcDbDictionary
281
     1
  3
Model
350
22
  3
Sheet1
350
59
  3
Sheet2
350
5E
  0
DICTIONARY
  5
72
102
{ACAD_REACTORS
330
C
102
}
330
C
100
AcDbDictionary
281
     1
  3
ByBlock
350
E2
  3
ByLayer
350
96
  3
Global
350
98
  0
DICTIONARY
  5
B5
102
{ACAD_REACTORS
330
C
102
}
330
C
100
AcDbDictionary
281
     1
  3
Standard
350
30A
  0
DICTIONARY
  5
17
102
{ACAD_REACTORS
330
C
102
}
330
C
100
AcDbDictionary
281
     1
  3
Standard
350
18
  0
DICTIONARY
  5
19
102
{ACAD_REACTORS
330
C
102
}
330
C
100
AcDbDictionary
281
     1
  0
ACDBDICTIONARYWDFLT
  5
E
102
{ACAD_REACTORS
330
C
102
}
330
C
100
AcDbDictionary
281
     1
  3
Normal
350
F
100
AcDbDictionaryWithDefault
340
F
  0
DICTIONARY
  5
B6
102
{ACAD_REACTORS
330
C
102
}
330
C
100
AcDbDictionary
281
     1
  3
A0
350
B7
  3
A1
350
B8
  3
A2
350
B9
  3
A3
350
BA
  3
A4
350
BB
  3
A5
350
BC
  3
A6
350
BD
  3
A7
350
BE
  3
A8
350
BF
  3
A9
350
C0
  3
B0
350
C1
  3
B1
350
C2
  3
B2
350
C3
  3
B3
350
C4
  3
B4
350
C5
  3
B5
350
C6
  3
B6
350
C7
  3
B7
350
C8
  3
B8
350
C9
  3
B9
350
CA
  3
C0
350
CB
  3
C1
350
CC
  3
C2
350
CD
  3
C3
350
CE
  3
C4
350
CF
  3
C5
350
D0
  3
C6
350
D1
  3
C7
350
D2
  3
C8
350
D3
  3
C9
350
D4
  3
D0
350
D5
  3
D1
350
D6
  3
D2
350
D7
  0
DICTIONARY
  5
123
102
{ACAD_REACTORS
330
C
102
}
330
C
100
AcDbDictionary
281
     1
  0
DICTIONARY
  5
86
102
{ACAD_REACTORS
330
C
102
}
330
C
100
AcDbDictionary
281
     1
  3
Standard
350
87
  0
DICTIONARY
  5
99
102
{ACAD_REACTORS
330
C
102
}
330
C
100
AcDbDictionary
281
     1
  3
2dWireframe
350
9F
  3
3D Hidden
350
A1
  3
3dWireframe
350
A0
  3
Basic
350
9E
  3
Brighten
350
A5
  3
ColorChange
350
A9
  3
Conceptual
350
A2
  3
Dim
350
A4
  3
EdgeColorOff
350
E7
  3
Facepattern
350
A8
  3
Flat
350
9A
  3
FlatWithEdges
350
9B
  3
Gouraud
350
9C
  3
GouraudWithEdges
350
9D
  3
Hidden
350
E4
  3
JitterOff
350
E5
  3
Linepattern
350
A7
  3
OverhangOff
350
E6
  3
Realistic
350
A3
  3
Shaded
350
EC
  3
Shaded with edges
350
EB
  3
Shades of Gray
350
E8
  3
Sketchy
350
E9
  3
Thicken
350
A6
  3
Wireframe
350
E3
  3
X-Ray
350
EA
  0
DICTIONARY
  5
66
102
{ACAD_REACTORS
330
C
102
}
330
C
100
AcDbDictionary
281
     1
  3
CANNOSCALE
350
D8
  3
CMLEADERSTYLE
350
310
  3
CTABLESTYLE
350
89
  3
DIMASSOC
350
67
  3
HIDETEXT
350
6B
  3
LIGHTSINBLOCKS
350
DF
  3
XCLIPFRAME
350
E0
  0
XRECORD
  5
30F
102
{ACAD_REACTORS
330
C
102
}
330
C
100
AcDbXrecord
280
     1
 90
        1
330
87
  0
DICTIONARY
  5
E1
102
{ACAD_REACTORS
330
C
102
}
330
C
100
AcDbDictionary
281
     1
  0
DICTIONARY
  5
30C
102
{ACAD_REACTORS
330
30B
102
}
330
30B
100
AcDbDictionary
281
     1
  0
DIMASSOC
  5
21E
102
{ACAD_REACTORS
330
21D
102
}
330
21D
100
AcDbDimAssoc
330
21C
 90
        3
 70
     0
 71
     0
  1
AcDbOsnapPointRef
 72
     1
331
213
 73
     2
 91
        5
 40
1.0
 10
0.0
 20
0.0
 30
2.000000000000000E+50
 75
     0
  1
AcDbOsnapPointRef
 72
     1
331
218
 73
     2
 91
        0
 40
1.0
 10
0.0
 20
0.0
 30
2.000000000000000E+50
 75
     0
  0
DIMASSOC
  5
221
102
{ACAD_REACTORS
330
220
102
}
330
220
100
AcDbDimAssoc
330
21F
 90
        3
 70
     0
 71
     0
  1
AcDbOsnapPointRef
 72
     6
331
213
 73
     2
 91
        7
 40
-0.0000000000000004
 10
0.0
 20
0.0
 30
0.0
332
213
 74
     2
 92
        6
 75
     0
  1
AcDbOsnapPointRef
 72
     1
331
213
 73
     2
 91
        3
 40
1.0
 10
0.0
 20
0.0
 30
2.000000000000000E+50
 75
     0
  0
DIMASSOC
  5
224
102
{ACAD_REACTORS
330
223
102
}
330
223
100
AcDbDimAssoc
330
222
 90
        3
 70
     0
 71
     0
  1
AcDbOsnapPointRef
 72
     3
331
216
 73
     2
 91
        0
 40
0.0
 10
0.0
 20
0.0
 30
0.0
 75
     0
  1
AcDbOsnapPointRef
 72
     2
331
213
 73
     2
 91
        5
 40
0.5000000000000003
 10
0.0
 20
0.0
 30
0.0
 75
     0
  0
DIMASSOC
  5
227
102
{ACAD_REACTORS
330
226
102
}
330
226
100
AcDbDimAssoc
330
225
 90
        3
 70
     0
 71
     0
  1
AcDbOsnapPointRef
 72
     3
331
217
 73
     2
 91
        0
 40
0.0
 10
0.0
 20
0.0
 30
0.0
 75
     0
  1
AcDbOsnapPointRef
 72
     1
331
218
 73
     2
 91
        0
 40
1.0
 10
0.0
 20
0.0
 30
2.000000000000000E+50
 75
     0
  0
DIMASSOC
  5
22C
102
{ACAD_REACTORS
330
22B
102
}
330
22B
100
AcDbDimAssoc
330
22A
 90
        2
 70
     0
 71
     0
  1
AcDbOsnapPointRef
 72
     3
331
217
 73
     2
 91
        0
 40
0.0
 10
0.0
 20
0.0
 30
0.0
 75
     0
  0
DIMASSOC
  5
22F
102
{ACAD_REACTORS
330
22E
102
}
330
22E
100
AcDbDimAssoc
330
22D
 90
        2
 70
     0
 71
     0
  1
AcDbOsnapPointRef
 72
     3
331
216
 73
     2
 91
        0
 40
0.0
 10
0.0
 20
0.0
 30
0.0
 75
     0
  0
DIMASSOC
  5
247
102
{ACAD_REACTORS
330
246
102
}
330
246
100
AcDbDimAssoc
330
245
 90
        3
 70
     0
 71
     0
  1
AcDbOsnapPointRef
 72
    13
331
23B
 73
     2
 91
        0
 40
0.0
 10
0.0
 20
0.0
 30
2.000000000000000E+50
 75
     0
  1
AcDbOsnapPointRef
 72
    13
331
241
 73
     2
 91
        0
 40
5.608444364956036
 10
0.0
 20
0.0
 30
2.000000000000000E+50
 75
     0
  0
DIMASSOC
  5
24A
102
{ACAD_REACTORS
330
249
102
}
330
249
100
AcDbDimAssoc
330
248
 90
        3
 70
     0
 71
     0
  1
AcDbOsnapPointRef
 72
    13
331
240
 73
     2
 91
        0
 40
2.466851711366243
 10
0.0
 20
0.0
 30
2.000000000000000E+50
 75
     0
  1
AcDbOsnapPointRef
 72
     6
331
23A
 73
     2
 91
        0
 40
0.0000000000000004
 10
0.0
 20
0.0
 30
0.0
332
238
 74
     2
 92
        0
 75
     0
  0
DIMASSOC
  5
24D
102
{ACAD_REACTORS
330
24C
102
}
330
24C
100
AcDbDimAssoc
330
24B
 90
        3
 70
     0
 71
     0
  1
AcDbOsnapPointRef
 72
    13
331
23B
 73
     2
 91
        0
 40
0.0
 10
0.0
 20
0.0
 30
2.000000000000000E+50
 75
     0
  1
AcDbOsnapPointRef
 72
    13
331
23C
 73
     2
 91
        0
 40
0.0
 10
0.0
 20
0.0
 30
2.000000000000000E+50
 75
     0
  0
DIMASSOC
  5
250
102
{ACAD_REACTORS
330
24F
102
}
330
24F
100
AcDbDimAssoc
330
24E
 90
        3
 70
     0
 71
     0
  1
AcDbOsnapPointRef
 72
     6
331
239
 73
     2
 91
        0
 40
1.0
 10
0.0
 20
0.0
 30
0.0
332
242
 74
     2
 92
        0
 75
     0
  1
AcDbOsnapPointRef
 72
     1
331
241
 73
     2
 91
        0
 40
6.283185307179586
 10
0.0
 20
0.0
 30
2.000000000000000E+50
 75
     0
  0
DIMASSOC
  5
253
102
{ACAD_REACTORS
330
252
102
}
330
252
100
AcDbDimAssoc
330
251
 90
        3
 70
     0
 71
     0
  1
AcDbOsnapPointRef
 72
     6
331
239
 73
     2
 91
        0
 40
1.0
 10
0.0
 20
0.0
 30
0.0
332
242
 74
     2
 92
        0
 75
     0
  1
AcDbOsnapPointRef
 72
     1
331
23F
 73
     2
 91
        0
 40
6.283185307179586
 10
0.0
 20
0.0
 30
2.000000000000000E+50
 75
     0
  0
LAYOUT
  5
22
102
{ACAD_REACTORS
330
1A
102
}
330
1A
100
AcDbPlotSettings
  1

  2
none_device
  4
ANSI_A_(8.50_x_11.00_Inches)
  6

 40
6.35
 41
19.05
 42
6.35
 43
19.05
 44
215.9
 45
279.4
 46
11.11250000000003
 47
0.0000000000000142
 48
0.0
 49
0.0
140
0.0
141
0.0
142
1.0
143
1.263157894736842
 70
 11444
 72
     0
 73
     1
 74
     1
  7
monochrome.ctb
 75
     0
 76
     0
 77
     2
 78
   300
147
0.7916666666666665
148
-702.8076765758875
149
-496.2830551296954
100
AcDbLayout
  1
Model
 70
     1
 71
     0
 10
0.0
 20
0.0
 11
12.0
 21
9.0
 12
0.0
 22
0.0
 32
0.0
 14
52.46740873278617
 24
48.04378742027774
 34
0.0
 15
252.9751400245271
 25
206.4015639748777
 35
0.0
146
0.0
 13
0.0
 23
0.0
 33
0.0
 16
1.0
 26
0.0
 36
0.0
 17
0.0
 27
1.0
 37
0.0
 76
     0
330
1F
331
94
  0
LAYOUT
  5
59
102
{ACAD_REACTORS
330
1A
102
}
330
1A
100
AcDbPlotSettings
  1

  2
None
  4

  6

 40
0.0
 41
0.0
 42
0.0
 43
0.0
 44
0.0
 45
0.0
 46
0.0
 47
0.0
 48
0.0
 49
0.0
140
0.0
141
0.0
142
1.0
143
1.0
 70
   688
 72
     0
 73
     0
 74
     5
  7

 75
    16
 76
     0
 77
     2
 78
   300
147
1.0
148
0.0
149
0.0
100
AcDbLayout
  1
Sheet1
 70
     1
 71
     1
 10
0.0
 20
0.0
 11
12.0
 21
9.0
 12
0.0
 22
0.0
 32
0.0
 14
0.0
 24
0.0
 34
0.0
 15
0.0
 25
0.0
 35
0.0
146
0.0
 13
0.0
 23
0.0
 33
0.0
 16
1.0
 26
0.0
 36
0.0
 17
0.0
 27
1.0
 37
0.0
 76
     0
330
58
  0
LAYOUT
  5
5E
102
{ACAD_REACTORS
330
1A
102
}
330
1A
100
AcDbPlotSettings
  1

  2
None
  4

  6

 40
0.0
 41
0.0
 42
0.0
 43
0.0
 44
0.0
 45
0.0
 46
0.0
 47
0.0
 48
0.0
 49
0.0
140
0.0
141
0.0
142
1.0
143
1.0
 70
   688
 72
     0
 73
     0
 74
     5
  7

 75
    16
 76
     0
 77
     2
 78
   300
147
1.0
148
0.0
149
0.0
100
AcDbLayout
  1
Sheet2
 70
     1
 71
     2
 10
0.0
 20
0.0
 11
12.0
 21
9.0
 12
0.0
 22
0.0
 32
0.0
 14
0.0
 24
0.0
 34
0.0
 15
0.0
 25
0.0
 35
0.0
146
0.0
 13
0.0
 23
0.0
 33
0.0
 16
1.0
 26
0.0
 36
0.0
 17
0.0
 27
1.0
 37
0.0
 76
     0
330
5D
  0
MATERIAL
  5
E2
102
{ACAD_REACTORS
330
72
102
}
330
72
100
AcDbMaterial
  1
ByBlock
 72
     1
 94
      127
  0
MATERIAL
  5
96
102
{ACAD_REACTORS
330
72
102
}
330
72
100
AcDbMaterial
  1
ByLayer
 72
     1
 94
       63
  0
MATERIAL
  5
98
102
{ACAD_REACTORS
330
72
102
}
330
72
100
AcDbMaterial
  1
Global
 72
     1
 94
       63
  0
MLEADERSTYLE
  5
30A
102
{ACAD_REACTORS
330
B5
102
}
330
B5
100
AcDbMLeaderStyle
179
     2
170
     2
171
     1
172
     0
 90
        2
 40
0.0
 41
0.0
173
     1
 91
-1056964608
340
14
 92
       -2
290
     1
 42
0.09
291
     1
 43
0.36
  3
Standard
341
0
 44
0.18
300

342
11
174
     1
178
     1
175
     1
176
     0
 93
-1056964608
 45
0.18
292
     0
297
     0
 46
0.18
343
0
 94
-1056964608
 47
1.0
 49
1.0
140
1.0
293
     1
141
0.0
294
     1
177
     0
142
1.0
295
     0
296
     0
143
0.125
271
     0
272
     9
273
     9
298
     0
  0
MLINESTYLE
  5
18
102
{ACAD_REACTORS
330
17
102
}
330
17
100
AcDbMlineStyle
  2
STANDARD
 70
     0
  3

 62
   256
 51
90.0
 52
90.0
 71
     2
 49
0.5
 62
   256
  6
BYLAYER
 49
-0.5
 62
   256
  6
BYLAYER
  0
ACDBPLACEHOLDER
  5
F
102
{ACAD_REACTORS
330
E
102
}
330
E
  0
SCALE
  5
B7
102
{ACAD_REACTORS
330
B6
102
}
330
B6
100
AcDbScale
 70
     0
300
1:1
140
1.0
141
1.0
290
     1
  0
SCALE
  5
B8
102
{ACAD_REACTORS
330
B6
102
}
330
B6
100
AcDbScale
 70
     0
300
1:2
140
1.0
141
2.0
290
     0
  0
SCALE
  5
B9
102
{ACAD_REACTORS
330
B6
102
}
330
B6
100
AcDbScale
 70
     0
300
1:4
140
1.0
141
4.0
290
     0
  0
SCALE
  5
BA
102
{ACAD_REACTORS
330
B6
102
}
330
B6
100
AcDbScale
 70
     0
300
1:5
140
1.0
141
5.0
290
     0
  0
SCALE
  5
BB
102
{ACAD_REACTORS
330
B6
102
}
330
B6
100
AcDbScale
 70
     0
300
1:8
140
1.0
141
8.0
290
     0
  0
SCALE
  5
BC
102
{ACAD_REACTORS
330
B6
102
}
330
B6
100
AcDbScale
 70
     0
300
1:10
140
1.0
141
10.0
290
     0
  0
SCALE
  5
BD
102
{ACAD_REACTORS
330
B6
102
}
330
B6
100
AcDbScale
 70
     0
300
1:16
140
1.0
141
16.0
290
     0
  0
SCALE
  5
BE
102
{ACAD_REACTORS
330
B6
102
}
330
B6
100
AcDbScale
 70
     0
300
1:20
140
1.0
141
20.0
290
     0
  0
SCALE
  5
BF
102
{ACAD_REACTORS
330
B6
102
}
330
B6
100
AcDbScale
 70
     0
300
1:30
140
1.0
141
30.0
290
     0
  0
SCALE
  5
C0
102
{ACAD_REACTORS
330
B6
102
}
330
B6
100
AcDbScale
 70
     0
300
1:40
140
1.0
141
40.0
290
     0
  0
SCALE
  5
C1
102
{ACAD_REACTORS
330
B6
102
}
330
B6
100
AcDbScale
 70
     0
300
1:50
140
1.0
141
50.0
290
     0
  0
SCALE
  5
C2
102
{ACAD_REACTORS
330
B6
102
}
330
B6
100
AcDbScale
 70
     0
300
1:100
140
1.0
141
100.0
290
     0
  0
SCALE
  5
C3
102
{ACAD_REACTORS
330
B6
102
}
330
B6
100
AcDbScale
 70
     0
300
2:1
140
2.0
141
1.0
290
     0
  0
SCALE
  5
C4
102
{ACAD_REACTORS
330
B6
102
}
330
B6
100
AcDbScale
 70
     0
300
4:1
140
4.0
141
1.0
290
     0
  0
SCALE
  5
C5
102
{ACAD_REACTORS
330
B6
102
}
330
B6
100
AcDbScale
 70
     0
300
8:1
140
8.0
141
1.0
290
     0
  0
SCALE
  5
C6
102
{ACAD_REACTORS
330
B6
102
}
330
B6
100
AcDbScale
 70
     0
300
10:1
140
10.0
141
1.0
290
     0
  0
SCALE
  5
C7
102
{ACAD_REACTORS
330
B6
102
}
330
B6
100
AcDbScale
 70
     0
300
100:1
140
100.0
141
1.0
290
     0
  0
SCALE
  5
C8
102
{ACAD_REACTORS
330
B6
102
}
330
B6
100
AcDbScale
 70
     0
300
1/128" = 1'-0"
140
0.0078125
141
12.0
290
     0
  0
SCALE
  5
C9
102
{ACAD_REACTORS
330
B6
102
}
330
B6
100
AcDbScale
 70
     0
300
1/64" = 1'-0"
140
0.015625
141
12.0
290
     0
  0
SCALE
  5
CA
102
{ACAD_REACTORS
330
B6
102
}
330
B6
100
AcDbScale
 70
     0
300
1/32" = 1'-0"
140
0.03125
141
12.0
290
     0
  0
SCALE
  5
CB
102
{ACAD_REACTORS
330
B6
102
}
330
B6
100
AcDbScale
 70
     0
300
1/16" = 1'-0"
140
0.0625
141
12.0
290
     0
  0
SCALE
  5
CC
102
{ACAD_REACTORS
330
B6
102
}
330
B6
100
AcDbScale
 70
     0
300
3/32" = 1'-0"
140
0.09375
141
12.0
290
     0
  0
SCALE
  5
CD
102
{ACAD_REACTORS
330
B6
102
}
330
B6
100
AcDbScale
 70
     0
300
1/8" = 1'-0"
140
0.125
141
12.0
290
     0
  0
SCALE
  5
CE
102
{ACAD_REACTORS
330
B6
102
}
330
B6
100
AcDbScale
 70
     0
300
3/16" = 1'-0"
140
0.1875
141
12.0
290
     0
  0
SCALE
  5
CF
102
{ACAD_REACTORS
330
B6
102
}
330
B6
100
AcDbScale
 70
     0
300
1/4" = 1'-0"
140
0.25
141
12.0
290
     0
  0
SCALE
  5
D0
102
{ACAD_REACTORS
330
B6
102
}
330
B6
100
AcDbScale
 70
     0
300
3/8" = 1'-0"
140
0.375
141
12.0
290
     0
  0
SCALE
  5
D1
102
{ACAD_REACTORS
330
B6
102
}
330
B6
100
AcDbScale
 70
     0
300
1/2" = 1'-0"
140
0.5
141
12.0
290
     0
  0
SCALE
  5
D2
102
{ACAD_REACTORS
330
B6
102
}
330
B6
100
AcDbScale
 70
     0
300
3/4" = 1'-0"
140
0.75
141
12.0
290
     0
  0
SCALE
  5
D3
102
{ACAD_REACTORS
330
B6
102
}
330
B6
100
AcDbScale
 70
     0
300
1" = 1'-0"
140
1.0
141
12.0
290
     0
  0
SCALE
  5
D4
102
{ACAD_REACTORS
330
B6
102
}
330
B6
100
AcDbScale
 70
     0
300
1-1/2" = 1'-0"
140
1.5
141
12.0
290
     0
  0
SCALE
  5
D5
102
{ACAD_REACTORS
330
B6
102
}
330
B6
100
AcDbScale
 70
     0
300
3" = 1'-0"
140
3.0
141
12.0
290
     0
  0
SCALE
  5
D6
102
{ACAD_REACTORS
330
B6
102
}
330
B6
100
AcDbScale
 70
     0
300
6" = 1'-0"
140
6.0
141
12.0
290
     0
  0
SCALE
  5
D7
102
{ACAD_REACTORS
330
B6
102
}
330
B6
100
AcDbScale
 70
     0
300
1'-0" = 1'-0"
140
12.0
141
12.0
290
     0
  0
TABLESTYLE
  5
87
102
{ACAD_REACTORS
330
86
102
}
102
{ACAD_XDICTIONARY
360
30D
102
}
330
86
100
AcDbTableStyle
  3
Standard
 70
     0
 71
     0
 40
0.06
 41
0.06
280
     0
281
     0
  7
Standard
140
0.18
170
     2
 62
     0
 63
   257
283
     0
 90
      512
 91
        0
  1

274
    -2
284
     1
 64
     0
275
    -2
285
     1
 65
     0
276
    -2
286
     1
 66
     0
277
    -2
287
     1
 67
     0
278
    -2
288
     1
 68
     0
279
    -2
289
     1
 69
     0
  7
Standard
140
0.25
170
     5
 62
     0
 63
   257
283
     0
 90
      512
 91
        0
  1

274
    -2
284
     1
 64
     0
275
    -2
285
     1
 65
     0
276
    -2
286
     1
 66
     0
277
    -2
287
     1
 67
     0
278
    -2
288
     1
 68
     0
279
    -2
289
     1
 69
     0
  7
Standard
140
0.18
170
     5
 62
     0
 63
   257
283
     0
 90
      512
 91
        0
  1

274
    -2
284
     1
 64
     0
275
    -2
285
     1
 65
     0
276
    -2
286
     1
 66
     0
277
    -2
287
     1
 67
     0
278
    -2
288
     1
 68
     0
279
    -2
289
     1
 69
     0
  0
VISUALSTYLE
  5
9F
102
{ACAD_REACTORS
330
99
102
}
330
99
100
AcDbVisualStyle
  2
2dWireframe
 70
     4
177
     3
291
     0
 70
    58
 90
        0
176
     1
 90
        2
176
     1
 90
        1
176
     1
 90
        0
176
     1
 40
-0.6
176
     1
 40
-30.0
176
     1
 62
     7
420
 16777215
176
     1
 90
        1
176
     1
 90
        4
176
     1
 62
     7
176
     1
 62
   257
176
     1
 90
        1
176
     1
 90
        1
176
     1
 40
1.0
176
     1
 90
        0
176
     1
 62
   257
176
     1
 40
1.0
176
     1
 90
        1
176
     1
 90
        6
176
     1
 90
        2
176
     1
 62
     7
176
     1
 90
        5
176
     1
 90
        0
176
     1
 90
        0
176
     1
290
     0
176
     1
 90
        1
176
     1
 40
0.0
176
     1
 90
        0
176
     1
290
     1
176
     1
290
     1
176
     1
290
     0
176
     1
290
     0
176
     1
290
     0
176
     1
290
     0
176
     1
290
     0
176
     1
290
     0
176
     1
290
     0
176
     1
 90
       50
176
     1
 40
0.0
176
     1
 40
1.0
176
     1
 90
        0
176
     1
 62
   178
420
        0
176
     1
 90
       50
176
     1
 90
        3
176
     1
 62
     5
420
      255
176
     1
290
     0
176
     1
 90
       50
176
     1
 90
       50
176
     1
 90
       50
176
     1
290
     0
176
     1
 90
       50
176
     1
 62
   256
176
     0
 40
1.0
176
     0
 90
        2
176
     1
  1
strokes_ogs.tif
176
     1
290
     0
176
     1
 40
1.0
176
     1
 40
1.0
176
     1
  0
VISUALSTYLE
  5
A1
102
{ACAD_REACTORS
330
99
102
}
330
99
100
AcDbVisualStyle
  2
3D Hidden
 70
     6
177
     3
291
     0
 70
    58
 90
        1
176
     1
 90
        2
176
     1
 90
        2
176
     1
 90
        0
176
     1
 40
-0.6
176
     1
 40
-30.0
176
     1
 62
     7
420
 16777215
176
     1
 90
        2
176
     1
 90
        2
176
     1
 62
     7
176
     1
 62
   257
176
     1
 90
        2
176
     1
 90
        1
176
     1
 40
40.0
176
     1
 90
        0
176
     1
 62
   257
176
     1
 40
1.0
176
     1
 90
        1
176
     1
 90
        6
176
     1
 90
        2
176
     1
 62
     7
176
     1
 90
        3
176
     1
 90
        0
176
     1
 90
        0
176
     1
290
     0
176
     1
 90
        1
176
     1
 40
0.0
176
     1
 90
        0
176
     1
290
     0
176
     1
290
     1
176
     1
290
     1
176
     1
290
     0
176
     1
290
     0
176
     1
290
     0
176
     1
290
     0
176
     1
290
     0
176
     1
290
     0
176
     1
 90
       50
176
     1
 40
0.0
176
     1
 40
1.0
176
     1
 90
        0
176
     1
 62
   178
420
        0
176
     1
 90
       50
176
     1
 90
        3
176
     1
 62
     5
420
      255
176
     1
290
     0
176
     1
 90
       50
176
     1
 90
       50
176
     1
 90
       50
176
     1
290
     0
176
     1
 90
       50
176
     1
 62
   256
176
     0
 40
1.0
176
     0
 90
        2
176
     1
  1
strokes_ogs.tif
176
     1
290
     0
176
     1
 40
1.0
176
     1
 40
1.0
176
     1
  0
VISUALSTYLE
  5
A0
102
{ACAD_REACTORS
330
99
102
}
330
99
100
AcDbVisualStyle
  2
3dWireframe
 70
     5
177
     3
291
     0
 70
    58
 90
        0
176
     1
 90
        2
176
     1
 90
        1
176
     1
 90
        0
176
     1
 40
-0.6
176
     1
 40
-30.0
176
     1
 62
     7
420
 16777215
176
     1
 90
        1
176
     1
 90
        4
176
     1
 62
     7
176
     1
 62
   257
176
     1
 90
        1
176
     1
 90
        1
176
     1
 40
1.0
176
     1
 90
        0
176
     1
 62
   257
176
     1
 40
1.0
176
     1
 90
        1
176
     1
 90
        6
176
     1
 90
        2
176
     1
 62
     7
176
     1
 90
        5
176
     1
 90
        0
176
     1
 90
        0
176
     1
290
     0
176
     1
 90
        1
176
     1
 40
0.0
176
     1
 90
        0
176
     1
290
     0
176
     1
290
     1
176
     1
290
     1
176
     1
290
     0
176
     1
290
     0
176
     1
290
     0
176
     1
290
     0
176
     1
290
     0
176
     1
290
     0
176
     1
 90
       50
176
     1
 40
0.0
176
     1
 40
1.0
176
     1
 90
        0
176
     1
 62
   178
420
        0
176
     1
 90
       50
176
     1
 90
        3
176
     1
 62
     5
420
      255
176
     1
290
     0
176
     1
 90
       50
176
     1
 90
       50
176
     1
 90
       50
176
     1
290
     0
176
     1
 90
       50
176
     1
 62
   256
176
     0
 40
1.0
176
     0
 90
        2
176
     1
  1
strokes_ogs.tif
176
     1
290
     0
176
     1
 40
1.0
176
     1
 40
1.0
176
     1
  0
VISUALSTYLE
  5
9E
102
{ACAD_REACTORS
330
99
102
}
330
99
100
AcDbVisualStyle
  2
Basic
 70
     7
177
     3
291
     1
 70
    58
 90
        1
176
     1
 90
        0
176
     1
 90
        1
176
     1
 90
        0
176
     1
 40
-0.6
176
     1
 40
-30.0
176
     1
 62
     7
420
 16777215
176
     1
 90
        0
176
     1
 90
        4
176
     1
 62
     7
176
     1
 62
   257
176
     1
 90
        1
176
     1
 90
        1
176
     1
 40
1.0
176
     1
 90
        8
176
     1
 62
     7
176
     1
 40
1.0
176
     1
 90
        1
176
     1
 90
        6
176
     1
 90
        2
176
     1
 62
     7
176
     1
 90
        5
176
     1
 90
        0
176
     1
 90
        0
176
     1
290
     0
176
     1
 90
        1
176
     1
 40
0.0
176
     1
 90
        0
176
     1
290
     0
176
     1
290
     1
176
     1
290
     1
176
     1
290
     0
176
     1
290
     0
176
     1
290
     0
176
     1
290
     0
176
     1
290
     0
176
     1
290
     0
176
     1
 90
       50
176
     1
 40
0.0
176
     1
 40
1.0
176
     1
 90
        0
176
     1
 62
   178
420
        0
176
     1
 90
       50
176
     1
 90
        3
176
     1
 62
     5
420
      255
176
     1
290
     0
176
     1
 90
       50
176
     1
 90
       50
176
     1
 90
       50
176
     1
290
     0
176
     1
 90
       50
176
     1
 62
   256
176
     0
 40
1.0
176
     0
 90
        2
176
     1
  1
strokes_ogs.tif
176
     1
290
     0
176
     1
 40
1.0
176
     1
 40
1.0
176
     1
  0
VISUALSTYLE
  5
A5
102
{ACAD_REACTORS
330
99
102
}
330
99
100
AcDbVisualStyle
  2
Brighten
 70
    12
177
     3
291
     1
 70
    58
 90
        2
176
     1
 90
        2
176
     1
 90
        1
176
     1
 90
        0
176
     1
 40
-0.6
176
     1
 40
-30.0
176
     1
 62
     7
420
 16777215
176
     1
 90
        1
176
     1
 90
        4
176
     1
 62
     7
176
     1
 62
   257
176
     1
 90
        1
176
     1
 90
        1
176
     1
 40
1.0
176
     1
 90
        8
176
     1
 62
     7
176
     1
 40
1.0
176
     1
 90
        1
176
     1
 90
        6
176
     1
 90
        2
176
     1
 62
     7
176
     1
 90
        5
176
     1
 90
        0
176
     1
 90
        0
176
     1
290
     0
176
     1
 90
        1
176
     1
 40
50.0
176
     1
 90
        0
176
     1
290
     0
176
     1
290
     1
176
     1
290
     1
176
     1
290
     0
176
     1
290
     0
176
     1
290
     0
176
     1
290
     0
176
     1
290
     0
176
     1
290
     0
176
     1
 90
       50
176
     1
 40
0.0
176
     1
 40
1.0
176
     1
 90
        0
176
     1
 62
   178
420
        0
176
     1
 90
       50
176
     1
 90
        3
176
     1
 62
     5
420
      255
176
     1
290
     0
176
     1
 90
       50
176
     1
 90
       50
176
     1
 90
       50
176
     1
290
     0
176
     1
 90
       50
176
     1
 62
   256
176
     0
 40
1.0
176
     0
 90
        2
176
     1
  1
strokes_ogs.tif
176
     1
290
     0
176
     1
 40
1.0
176
     1
 40
1.0
176
     1
  0
VISUALSTYLE
  5
A9
102
{ACAD_REACTORS
330
99
102
}
330
99
100
AcDbVisualStyle
  2
ColorChange
 70
    16
177
     3
291
     1
 70
    58
 90
        2
176
     1
 90
        2
176
     1
 90
        3
176
     1
 90
        0
176
     1
 40
-0.6
176
     1
 40
-30.0
176
     1
 62
     8
420
  8421504
176
     1
 90
        1
176
     1
 90
        4
176
     1
 62
     7
176
     1
 62
   257
176
     1
 90
        1
176
     1
 90
        1
176
     1
 40
1.0
176
     1
 90
        8
176
     1
 62
     8
420
  8421504
176
     1
 40
1.0
176
     1
 90
        1
176
     1
 90
        6
176
     1
 90
        2
176
     1
 62
     7
176
     1
 90
        5
176
     1
 90
        0
176
     1
 90
        0
176
     1
290
     0
176
     1
 90
        1
176
     1
 40
0.0
176
     1
 90
        0
176
     1
290
     0
176
     1
290
     1
176
     1
290
     1
176
     1
290
     0
176
     1
290
     0
176
     1
290
     0
176
     1
290
     0
176
     1
290
     0
176
     1
290
     0
176
     1
 90
       50
176
     1
 40
0.0
176
     1
 40
1.0
176
     1
 90
        0
176
     1
 62
   178
420
        0
176
     1
 90
       50
176
     1
 90
        3
176
     1
 62
     5
420
      255
176
     1
290
     0
176
     1
 90
       50
176
     1
 90
       50
176
     1
 90
       50
176
     1
290
     0
176
     1
 90
       50
176
     1
 62
   256
176
     0
 40
1.0
176
     0
 90
        2
176
     1
  1
strokes_ogs.tif
176
     1
290
     0
176
     1
 40
1.0
176
     1
 40
1.0
176
     1
  0
VISUALSTYLE
  5
A2
102
{ACAD_REACTORS
330
99
102
}
330
99
100
AcDbVisualStyle
  2
Conceptual
 70
     9
177
     3
291
     0
 70
    58
 90
        3
176
     1
 90
        2
176
     1
 90
        1
176
     1
 90
        0
176
     1
 40
-0.6
176
     1
 40
-30.0
176
     1
 62
     7
420
 16777215
176
     1
 90
        2
176
     1
 90
        2
176
     1
 62
     7
176
     1
 62
   257
176
     1
 90
        1
176
     1
 90
        1
176
     1
 40
40.0
176
     1
 90
        8
176
     1
 62
     7
176
     1
 40
1.0
176
     1
 90
        1
176
     1
 90
        6
176
     1
 90
        2
176
     1
 62
     7
176
     1
 90
        3
176
     1
 90
        0
176
     1
 90
        0
176
     1
290
     0
176
     1
 90
        1
176
     1
 40
0.0
176
     1
 90
        0
176
     1
290
     0
176
     1
290
     1
176
     1
290
     1
176
     1
290
     0
176
     1
290
     0
176
     1
290
     0
176
     1
290
     0
176
     1
290
     0
176
     1
290
     0
176
     1
 90
       50
176
     1
 40
0.0
176
     1
 40
1.0
176
     1
 90
        0
176
     1
 62
   178
420
        0
176
     1
 90
       50
176
     1
 90
        3
176
     1
 62
     5
420
      255
176
     1
290
     0
176
     1
 90
       50
176
     1
 90
       50
176
     1
 90
       50
176
     1
290
     0
176
     1
 90
       50
176
     1
 62
   256
176
     0
 40
1.0
176
     0
 90
        2
176
     1
  1
strokes_ogs.tif
176
     1
290
     0
176
     1
 40
1.0
176
     1
 40
1.0
176
     1
  0
VISUALSTYLE
  5
A4
102
{ACAD_REACTORS
330
99
102
}
330
99
100
AcDbVisualStyle
  2
Dim
 70
    11
177
     3
291
     1
 70
    58
 90
        2
176
     1
 90
        2
176
     1
 90
        1
176
     1
 90
        0
176
     1
 40
-0.6
176
     1
 40
-30.0
176
     1
 62
     7
420
 16777215
176
     1
 90
        1
176
     1
 90
        4
176
     1
 62
     7
176
     1
 62
   257
176
     1
 90
        1
176
     1
 90
        1
176
     1
 40
1.0
176
     1
 90
        8
176
     1
 62
     7
176
     1
 40
1.0
176
     1
 90
        1
176
     1
 90
        6
176
     1
 90
        2
176
     1
 62
     7
176
     1
 90
        5
176
     1
 90
        0
176
     1
 90
        0
176
     1
290
     0
176
     1
 90
        1
176
     1
 40
-50.0
176
     1
 90
        0
176
     1
290
     0
176
     1
290
     1
176
     1
290
     1
176
     1
290
     0
176
     1
290
     0
176
     1
290
     0
176
     1
290
     0
176
     1
290
     0
176
     1
290
     0
176
     1
 90
       50
176
     1
 40
0.0
176
     1
 40
1.0
176
     1
 90
        0
176
     1
 62
   178
420
        0
176
     1
 90
       50
176
     1
 90
        3
176
     1
 62
     5
420
      255
176
     1
290
     0
176
     1
 90
       50
176
     1
 90
       50
176
     1
 90
       50
176
     1
290
     0
176
     1
 90
       50
176
     1
 62
   256
176
     0
 40
1.0
176
     0
 90
        2
176
     1
  1
strokes_ogs.tif
176
     1
290
     0
176
     1
 40
1.0
176
     1
 40
1.0
176
     1
  0
VISUALSTYLE
  5
E7
102
{ACAD_REACTORS
330
99
102
}
330
99
100
AcDbVisualStyle
  2
EdgeColorOff
 70
    22
177
     3
291
     1
 70
    58
 90
        2
176
     0
 90
        2
176
     0
 90
        0
176
     0
 90
        0
176
     0
 40
0.6
176
     0
 40
30.0
176
     0
 62
     7
420
 16777215
176
     0
 90
        1
176
     0
 90
        4
176
     0
 62
     7
176
     0
 62
   257
176
     0
 90
        1
176
     0
 90
        1
176
     0
 40
1.0
176
     0
 90
        8
176
     2
 62
     7
176
     0
 40
1.0
176
     0
 90
        1
176
     0
 90
        6
176
     0
 90
        2
176
     0
 62
     7
176
     0
 90
        5
176
     0
 90
        0
176
     0
 90
        0
176
     0
290
     0
176
     0
 90
        1
176
     0
 40
0.0
176
     0
 90
        0
176
     0
290
     0
176
     0
290
     1
176
     0
290
     1
176
     0
290
     0
176
     0
290
     0
176
     0
290
     0
176
     0
290
     0
176
     0
290
     0
176
     0
290
     0
176
     0
 90
       50
176
     0
 40
0.0
176
     0
 40
1.0
176
     0
 90
        0
176
     0
 62
   178
420
        0
176
     0
 90
       50
176
     0
 90
        3
176
     0
 62
     5
420
      255
176
     0
290
     0
176
     0
 90
       50
176
     0
 90
       50
176
     0
 90
       50
176
     0
290
     0
176
     0
 90
       50
176
     0
 62
   256
176
     0
 40
1.0
176
     0
 90
        2
176
     0
  1
strokes_ogs.tif
176
     0
290
     0
176
     0
 40
1.0
176
     0
 40
1.0
176
     0
  0
VISUALSTYLE
  5
A8
102
{ACAD_REACTORS
330
99
102
}
330
99
100
AcDbVisualStyle
  2
Facepattern
 70
    15
177
     3
291
     1
 70
    58
 90
        2
176
     1
 90
        2
176
     1
 90
        1
176
     1
 90
        0
176
     1
 40
-0.6
176
     1
 40
-30.0
176
     1
 62
     7
420
 16777215
176
     1
 90
        1
176
     1
 90
        4
176
     1
 62
     7
176
     1
 62
   257
176
     1
 90
        1
176
     1
 90
        1
176
     1
 40
1.0
176
     1
 90
        8
176
     1
 62
     7
176
     1
 40
1.0
176
     1
 90
        1
176
     1
 90
        6
176
     1
 90
        2
176
     1
 62
     7
176
     1
 90
        5
176
     1
 90
        0
176
     1
 90
        0
176
     1
290
     0
176
     1
 90
        1
176
     1
 40
0.0
176
     1
 90
        0
176
     1
290
     0
176
     1
290
     1
176
     1
290
     1
176
     1
290
     0
176
     1
290
     0
176
     1
290
     0
176
     1
290
     0
176
     1
290
     0
176
     1
290
     0
176
     1
 90
       50
176
     1
 40
0.0
176
     1
 40
1.0
176
     1
 90
        0
176
     1
 62
   178
420
        0
176
     1
 90
       50
176
     1
 90
        3
176
     1
 62
     5
420
      255
176
     1
290
     0
176
     1
 90
       50
176
     1
 90
       50
176
     1
 90
       50
176
     1
290
     0
176
     1
 90
       50
176
     1
 62
   256
176
     0
 40
1.0
176
     0
 90
        2
176
     1
  1
strokes_ogs.tif
176
     1
290
     0
176
     1
 40
1.0
176
     1
 40
1.0
176
     1
  0
VISUALSTYLE
  5
9A
102
{ACAD_REACTORS
330
99
102
}
330
99
100
AcDbVisualStyle
  2
Flat
 70
     0
177
     3
291
     1
 70
    58
 90
        2
176
     1
 90
        1
176
     1
 90
        1
176
     1
 90
        2
176
     1
 40
-0.6
176
     1
 40
30.0
176
     1
 62
     7
420
 16777215
176
     1
 90
        0
176
     1
 90
        4
176
     1
 62
     7
176
     1
 62
   257
176
     1
 90
        1
176
     1
 90
        1
176
     1
 40
1.0
176
     1
 90
        8
176
     1
 62
     7
176
     1
 40
1.0
176
     1
 90
        1
176
     1
 90
        6
176
     1
 90
        2
176
     1
 62
     7
176
     1
 90
        5
176
     1
 90
        0
176
     1
 90
        0
176
     1
290
     0
176
     1
 90
        1
176
     1
 40
0.0
176
     1
 90
        0
176
     1
290
     0
176
     1
290
     1
176
     1
290
     1
176
     1
290
     0
176
     1
290
     0
176
     1
290
     0
176
     1
290
     0
176
     1
290
     0
176
     1
290
     0
176
     1
 90
       50
176
     1
 40
0.0
176
     1
 40
1.0
176
     1
 90
        0
176
     1
 62
   178
420
        0
176
     1
 90
       50
176
     1
 90
        3
176
     1
 62
     5
420
      255
176
     1
290
     0
176
     1
 90
       50
176
     1
 90
       50
176
     1
 90
       50
176
     1
290
     0
176
     1
 90
       50
176
     1
 62
   256
176
     0
 40
1.0
176
     0
 90
        2
176
     1
  1
strokes_ogs.tif
176
     1
290
     0
176
     1
 40
1.0
176
     1
 40
1.0
176
     1
  0
VISUALSTYLE
  5
9B
102
{ACAD_REACTORS
330
99
102
}
330
99
100
AcDbVisualStyle
  2
FlatWithEdges
 70
     1
177
     3
291
     1
 70
    58
 90
        2
176
     1
 90
        1
176
     1
 90
        1
176
     1
 90
        2
176
     1
 40
-0.6
176
     1
 40
30.0
176
     1
 62
     7
420
 16777215
176
     1
 90
        1
176
     1
 90
        4
176
     1
 62
     7
176
     1
 62
   257
176
     1
 90
        1
176
     1
 90
        1
176
     1
 40
1.0
176
     1
 90
        0
176
     1
 62
   257
176
     1
 40
1.0
176
     1
 90
        1
176
     1
 90
        6
176
     1
 90
        2
176
     1
 62
     7
176
     1
 90
        5
176
     1
 90
        0
176
     1
 90
        0
176
     1
290
     0
176
     1
 90
        1
176
     1
 40
0.0
176
     1
 90
        0
176
     1
290
     0
176
     1
290
     1
176
     1
290
     1
176
     1
290
     0
176
     1
290
     0
176
     1
290
     0
176
     1
290
     0
176
     1
290
     0
176
     1
290
     0
176
     1
 90
       50
176
     1
 40
0.0
176
     1
 40
1.0
176
     1
 90
        0
176
     1
 62
   178
420
        0
176
     1
 90
       50
176
     1
 90
        3
176
     1
 62
     5
420
      255
176
     1
290
     0
176
     1
 90
       50
176
     1
 90
       50
176
     1
 90
       50
176
     1
290
     0
176
     1
 90
       50
176
     1
 62
   256
176
     0
 40
1.0
176
     0
 90
        2
176
     1
  1
strokes_ogs.tif
176
     1
290
     0
176
     1
 40
1.0
176
     1
 40
1.0
176
     1
  0
VISUALSTYLE
  5
9C
102
{ACAD_REACTORS
330
99
102
}
330
99
100
AcDbVisualStyle
  2
Gouraud
 70
     2
177
     3
291
     1
 70
    58
 90
        2
176
     1
 90
        2
176
     1
 90
        1
176
     1
 90
        2
176
     1
 40
-0.6
176
     1
 40
30.0
176
     1
 62
     7
420
 16777215
176
     1
 90
        0
176
     1
 90
        4
176
     1
 62
     7
176
     1
 62
   257
176
     1
 90
        1
176
     1
 90
        1
176
     1
 40
1.0
176
     1
 90
        0
176
     1
 62
     7
176
     1
 40
1.0
176
     1
 90
        1
176
     1
 90
        6
176
     1
 90
        2
176
     1
 62
     7
176
     1
 90
        5
176
     1
 90
        0
176
     1
 90
        0
176
     1
290
     0
176
     1
 90
        1
176
     1
 40
0.0
176
     1
 90
        0
176
     1
290
     0
176
     1
290
     1
176
     1
290
     1
176
     1
290
     0
176
     1
290
     0
176
     1
290
     0
176
     1
290
     0
176
     1
290
     0
176
     1
290
     0
176
     1
 90
       50
176
     1
 40
0.0
176
     1
 40
1.0
176
     1
 90
        0
176
     1
 62
   178
420
        0
176
     1
 90
       50
176
     1
 90
        3
176
     1
 62
     5
420
      255
176
     1
290
     0
176
     1
 90
       50
176
     1
 90
       50
176
     1
 90
       50
176
     1
290
     0
176
     1
 90
       50
176
     1
 62
   256
176
     0
 40
1.0
176
     0
 90
        2
176
     1
  1
strokes_ogs.tif
176
     1
290
     0
176
     1
 40
1.0
176
     1
 40
1.0
176
     1
  0
VISUALSTYLE
  5
9D
102
{ACAD_REACTORS
330
99
102
}
330
99
100
AcDbVisualStyle
  2
GouraudWithEdges
 70
     3
177
     3
291
     1
 70
    58
 90
        2
176
     1
 90
        2
176
     1
 90
        1
176
     1
 90
        2
176
     1
 40
-0.6
176
     1
 40
30.0
176
     1
 62
     7
420
 16777215
176
     1
 90
        1
176
     1
 90
        4
176
     1
 62
     7
176
     1
 62
   257
176
     1
 90
        1
176
     1
 90
        1
176
     1
 40
1.0
176
     1
 90
        0
176
     1
 62
   257
176
     1
 40
1.0
176
     1
 90
        1
176
     1
 90
        6
176
     1
 90
        2
176
     1
 62
     7
176
     1
 90
        5
176
     1
 90
        0
176
     1
 90
        0
176
     1
290
     0
176
     1
 90
        1
176
     1
 40
0.0
176
     1
 90
        0
176
     1
290
     0
176
     1
290
     1
176
     1
290
     1
176
     1
290
     0
176
     1
290
     0
176
     1
290
     0
176
     1
290
     0
176
     1
290
     0
176
     1
290
     0
176
     1
 90
       50
176
     1
 40
0.0
176
     1
 40
1.0
176
     1
 90
        0
176
     1
 62
   178
420
        0
176
     1
 90
       50
176
     1
 90
        3
176
     1
 62
     5
420
      255
176
     1
290
     0
176
     1
 90
       50
176
     1
 90
       50
176
     1
 90
       50
176
     1
290
     0
176
     1
 90
       50
176
     1
 62
   256
176
     0
 40
1.0
176
     0
 90
        2
176
     1
  1
strokes_ogs.tif
176
     1
290
     0
176
     1
 40
1.0
176
     1
 40
1.0
176
     1
  0
VISUALSTYLE
  5
E4
102
{ACAD_REACTORS
330
99
102
}
330
99
100
AcDbVisualStyle
  2
Hidden
 70
     6
177
     3
291
     0
 70
    58
 90
        1
176
     1
 90
        2
176
     1
 90
        2
176
     1
 90
        0
176
     1
 40
0.6
176
     1
 40
30.0
176
     1
 62
     7
420
 16777215
176
     1
 90
        2
176
     1
 90
        2
176
     1
 62
     7
176
     1
 62
   257
176
     1
 90
        2
176
     1
 90
        1
176
     1
 40
40.0
176
     1
 90
        0
176
     1
 62
   257
176
     1
 40
1.0
176
     1
 90
        1
176
     1
 90
        6
176
     1
 90
        2
176
     1
 62
     7
176
     1
 90
        3
176
     1
 90
        0
176
     1
 90
        0
176
     1
290
     0
176
     1
 90
        1
176
     1
 40
0.0
176
     1
 90
        0
176
     1
290
     0
176
     1
290
     1
176
     1
290
     1
176
     1
290
     0
176
     1
290
     0
176
     1
290
     0
176
     1
290
     0
176
     1
290
     0
176
     1
290
     0
176
     1
 90
       50
176
     1
 40
0.0
176
     1
 40
1.0
176
     1
 90
        0
176
     1
 62
   178
420
        0
176
     1
 90
       50
176
     1
 90
        3
176
     1
 62
     5
420
      255
176
     1
290
     0
176
     1
 90
       50
176
     1
 90
       50
176
     1
 90
       50
176
     1
290
     0
176
     1
 90
       50
176
     1
 62
   256
176
     0
 40
1.0
176
     0
 90
        2
176
     1
  1
strokes_ogs.tif
176
     1
290
     0
176
     1
 40
1.0
176
     1
 40
1.0
176
     1
  0
VISUALSTYLE
  5
E5
102
{ACAD_REACTORS
330
99
102
}
330
99
100
AcDbVisualStyle
  2
JitterOff
 70
    20
177
     3
291
     1
 70
    58
 90
        2
176
     0
 90
        2
176
     0
 90
        0
176
     0
 90
        0
176
     0
 40
0.6
176
     0
 40
30.0
176
     0
 62
     7
420
 16777215
176
     0
 90
        1
176
     0
 90
        4
176
     0
 62
     7
176
     0
 62
   257
176
     0
 90
        1
176
     0
 90
        1
176
     0
 40
1.0
176
     0
 90
       10
176
     2
 62
     7
176
     0
 40
1.0
176
     0
 90
        1
176
     0
 90
        6
176
     0
 90
        2
176
     0
 62
     7
176
     0
 90
        5
176
     0
 90
        0
176
     0
 90
        0
176
     0
290
     0
176
     0
 90
        1
176
     0
 40
0.0
176
     0
 90
        0
176
     0
290
     0
176
     0
290
     1
176
     0
290
     1
176
     0
290
     0
176
     0
290
     0
176
     0
290
     0
176
     0
290
     0
176
     0
290
     0
176
     0
290
     0
176
     0
 90
       50
176
     0
 40
0.0
176
     0
 40
1.0
176
     0
 90
        0
176
     0
 62
   178
420
        0
176
     0
 90
       50
176
     0
 90
        3
176
     0
 62
     5
420
      255
176
     0
290
     0
176
     0
 90
       50
176
     0
 90
       50
176
     0
 90
       50
176
     0
290
     0
176
     0
 90
       50
176
     0
 62
   256
176
     0
 40
1.0
176
     0
 90
        2
176
     0
  1
strokes_ogs.tif
176
     0
290
     0
176
     0
 40
1.0
176
     0
 40
1.0
176
     0
  0
VISUALSTYLE
  5
A7
102
{ACAD_REACTORS
330
99
102
}
330
99
100
AcDbVisualStyle
  2
Linepattern
 70
    14
177
     3
291
     1
 70
    58
 90
        2
176
     1
 90
        2
176
     1
 90
        1
176
     1
 90
        0
176
     1
 40
-0.6
176
     1
 40
-30.0
176
     1
 62
     7
420
 16777215
176
     1
 90
        1
176
     1
 90
        4
176
     1
 62
     7
176
     1
 62
   257
176
     1
 90
        7
176
     1
 90
        7
176
     1
 40
1.0
176
     1
 90
        8
176
     1
 62
     7
176
     1
 40
1.0
176
     1
 90
        1
176
     1
 90
        6
176
     1
 90
        2
176
     1
 62
     7
176
     1
 90
        5
176
     1
 90
        0
176
     1
 90
        0
176
     1
290
     0
176
     1
 90
        1
176
     1
 40
0.0
176
     1
 90
        0
176
     1
290
     0
176
     1
290
     1
176
     1
290
     1
176
     1
290
     0
176
     1
290
     0
176
     1
290
     0
176
     1
290
     0
176
     1
290
     0
176
     1
290
     0
176
     1
 90
       50
176
     1
 40
0.0
176
     1
 40
1.0
176
     1
 90
        0
176
     1
 62
   178
420
        0
176
     1
 90
       50
176
     1
 90
        3
176
     1
 62
     5
420
      255
176
     1
290
     0
176
     1
 90
       50
176
     1
 90
       50
176
     1
 90
       50
176
     1
290
     0
176
     1
 90
       50
176
     1
 62
   256
176
     0
 40
1.0
176
     0
 90
        2
176
     1
  1
strokes_ogs.tif
176
     1
290
     0
176
     1
 40
1.0
176
     1
 40
1.0
176
     1
  0
VISUALSTYLE
  5
E6
102
{ACAD_REACTORS
330
99
102
}
330
99
100
AcDbVisualStyle
  2
OverhangOff
 70
    21
177
     3
291
     1
 70
    58
 90
        2
176
     0
 90
        2
176
     0
 90
        0
176
     0
 90
        0
176
     0
 40
0.6
176
     0
 40
30.0
176
     0
 62
     7
420
 16777215
176
     0
 90
        1
176
     0
 90
        4
176
     0
 62
     7
176
     0
 62
   257
176
     0
 90
        1
176
     0
 90
        1
176
     0
 40
1.0
176
     0
 90
        9
176
     2
 62
     7
176
     0
 40
1.0
176
     0
 90
        1
176
     0
 90
        6
176
     0
 90
        2
176
     0
 62
     7
176
     0
 90
        5
176
     0
 90
        0
176
     0
 90
        0
176
     0
290
     0
176
     0
 90
        1
176
     0
 40
0.0
176
     0
 90
        0
176
     0
290
     0
176
     0
290
     1
176
     0
290
     1
176
     0
290
     0
176
     0
290
     0
176
     0
290
     0
176
     0
290
     0
176
     0
290
     0
176
     0
290
     0
176
     0
 90
       50
176
     0
 40
0.0
176
     0
 40
1.0
176
     0
 90
        0
176
     0
 62
   178
420
        0
176
     0
 90
       50
176
     0
 90
        3
176
     0
 62
     5
420
      255
176
     0
290
     0
176
     0
 90
       50
176
     0
 90
       50
176
     0
 90
       50
176
     0
290
     0
176
     0
 90
       50
176
     0
 62
   256
176
     0
 40
1.0
176
     0
 90
        2
176
     0
  1
strokes_ogs.tif
176
     0
290
     0
176
     0
 40
1.0
176
     0
 40
1.0
176
     0
  0
VISUALSTYLE
  5
A3
102
{ACAD_REACTORS
330
99
102
}
330
99
100
AcDbVisualStyle
  2
Realistic
 70
     8
177
     3
291
     0
 70
    58
 90
        2
176
     1
 90
        2
176
     1
 90
        1
176
     1
 90
        0
176
     1
 40
-0.6
176
     1
 40
-30.0
176
     1
 62
     7
420
 16777215
176
     1
 90
        1
176
     1
 90
        0
176
     1
 62
     7
176
     1
 62
   257
176
     1
 90
        1
176
     1
 90
        1
176
     1
 40
1.0
176
     1
 90
        8
176
     1
 62
     8
420
  7895160
176
     1
 40
1.0
176
     1
 90
        1
176
     1
 90
        6
176
     1
 90
        2
176
     1
 62
     7
176
     1
 90
        5
176
     1
 90
        0
176
     1
 90
        0
176
     1
290
     0
176
     1
 90
       13
176
     1
 40
0.0
176
     1
 90
        0
176
     1
290
     0
176
     1
290
     1
176
     1
290
     1
176
     1
290
     0
176
     1
290
     0
176
     1
290
     0
176
     1
290
     0
176
     1
290
     0
176
     1
290
     0
176
     1
 90
       50
176
     1
 40
0.0
176
     1
 40
1.0
176
     1
 90
        0
176
     1
 62
   178
420
        0
176
     1
 90
       50
176
     1
 90
        3
176
     1
 62
     5
420
      255
176
     1
290
     0
176
     1
 90
       50
176
     1
 90
       50
176
     1
 90
       50
176
     1
290
     0
176
     1
 90
       50
176
     1
 62
   256
176
     0
 40
1.0
176
     0
 90
        2
176
     1
  1
strokes_ogs.tif
176
     1
290
     0
176
     1
 40
1.0
176
     1
 40
1.0
176
     1
  0
VISUALSTYLE
  5
EC
102
{ACAD_REACTORS
330
99
102
}
330
99
100
AcDbVisualStyle
  2
Shaded
 70
    27
177
     3
291
     0
 70
    58
 90
        2
176
     1
 90
        2
176
     1
 90
        1
176
     1
 90
        2
176
     1
 40
0.6
176
     1
 40
30.0
176
     1
 62
     7
420
 16777215
176
     1
 90
        0
176
     1
 90
        4
176
     1
 62
     7
176
     1
 62
   257
176
     1
 90
        1
176
     1
 90
        1
176
     1
 40
1.0
176
     1
 90
        8
176
     1
 62
   257
176
     1
 40
1.0
176
     1
 90
        1
176
     1
 90
        6
176
     1
 90
        2
176
     1
 62
     8
420
  7895160
176
     1
 90
        3
176
     1
 90
        0
176
     1
 90
        0
176
     1
290
     0
176
     1
 90
        5
176
     1
 40
0.0
176
     1
 90
        0
176
     1
290
     0
176
     1
290
     1
176
     1
290
     1
176
     1
290
     0
176
     1
290
     0
176
     1
290
     0
176
     1
290
     0
176
     1
290
     0
176
     1
290
     0
176
     1
 90
       50
176
     1
 40
0.0
176
     1
 40
1.0
176
     1
 90
        0
176
     1
 62
   178
420
        0
176
     1
 90
       50
176
     1
 90
        3
176
     1
 62
     5
420
      255
176
     1
290
     0
176
     1
 90
       50
176
     1
 90
       50
176
     1
 90
       50
176
     1
290
     0
176
     1
 90
       50
176
     1
 62
   256
176
     0
 40
1.0
176
     0
 90
        2
176
     1
  1
strokes_ogs.tif
176
     1
290
     0
176
     1
 40
1.0
176
     1
 40
1.0
176
     1
  0
VISUALSTYLE
  5
EB
102
{ACAD_REACTORS
330
99
102
}
330
99
100
AcDbVisualStyle
  2
Shaded with edges
 70
    26
177
     3
291
     0
 70
    58
 90
        2
176
     1
 90
        2
176
     1
 90
        1
176
     1
 90
        2
176
     1
 40
0.6
176
     1
 40
30.0
176
     1
 62
     7
420
 16777215
176
     1
 90
        1
176
     1
 90
       10
176
     1
 62
     7
176
     1
 62
   257
176
     1
 90
        2
176
     1
 90
        1
176
     1
 40
1.0
176
     1
 90
        8
176
     1
 62
   257
176
     1
 40
1.0
176
     1
 90
        1
176
     1
 90
        6
176
     1
 90
        2
176
     1
 62
     7
176
     1
 90
        3
176
     1
 90
        0
176
     1
 90
        0
176
     1
290
     0
176
     1
 90
        5
176
     1
 40
0.0
176
     1
 90
        0
176
     1
290
     0
176
     1
290
     1
176
     1
290
     1
176
     1
290
     0
176
     1
290
     0
176
     1
290
     0
176
     1
290
     0
176
     1
290
     0
176
     1
290
     0
176
     1
 90
       50
176
     1
 40
0.0
176
     1
 40
1.0
176
     1
 90
        0
176
     1
 62
   178
420
        0
176
     1
 90
       50
176
     1
 90
        3
176
     1
 62
     5
420
      255
176
     1
290
     0
176
     1
 90
       50
176
     1
 90
       50
176
     1
 90
       50
176
     1
290
     0
176
     1
 90
       50
176
     1
 62
   256
176
     0
 40
1.0
176
     0
 90
        2
176
     1
  1
strokes_ogs.tif
176
     1
290
     0
176
     1
 40
1.0
176
     1
 40
1.0
176
     1
  0
VISUALSTYLE
  5
E8
102
{ACAD_REACTORS
330
99
102
}
330
99
100
AcDbVisualStyle
  2
Shades of Gray
 70
    23
177
     3
291
     0
 70
    58
 90
        2
176
     1
 90
        2
176
     1
 90
        3
176
     1
 90
        0
176
     1
 40
0.6
176
     1
 40
30.0
176
     1
 62
     7
420
 16777215
176
     1
 90
        2
176
     1
 90
        2
176
     1
 62
     7
176
     1
 62
     7
176
     1
 90
        1
176
     1
 90
        1
176
     1
 40
40.0
176
     1
 90
        8
176
     1
 62
     7
176
     1
 40
1.0
176
     1
 90
        1
176
     1
 90
        6
176
     1
 90
        2
176
     1
 62
     7
176
     1
 90
        3
176
     1
 90
        0
176
     1
 90
        0
176
     1
290
     0
176
     1
 90
        1
176
     1
 40
0.0
176
     1
 90
        0
176
     1
290
     0
176
     1
290
     1
176
     1
290
     1
176
     1
290
     0
176
     1
290
     0
176
     1
290
     0
176
     1
290
     0
176
     1
290
     0
176
     1
290
     0
176
     1
 90
       50
176
     1
 40
0.0
176
     1
 40
1.0
176
     1
 90
        0
176
     1
 62
   178
420
        0
176
     1
 90
       50
176
     1
 90
        3
176
     1
 62
     5
420
      255
176
     1
290
     0
176
     1
 90
       50
176
     1
 90
       50
176
     1
 90
       50
176
     1
290
     0
176
     1
 90
       50
176
     1
 62
   256
176
     0
 40
1.0
176
     0
 90
        2
176
     1
  1
strokes_ogs.tif
176
     1
290
     0
176
     1
 40
1.0
176
     1
 40
1.0
176
     1
  0
VISUALSTYLE
  5
E9
102
{ACAD_REACTORS
330
99
102
}
330
99
100
AcDbVisualStyle
  2
Sketchy
 70
    24
177
     3
291
     0
 70
    58
 90
        1
176
     1
 90
        2
176
     1
 90
        2
176
     1
 90
        0
176
     1
 40
0.6
176
     1
 40
30.0
176
     1
 62
     7
420
 16777215
176
     1
 90
        2
176
     1
 90
        2
176
     1
 62
     7
176
     1
 62
     7
176
     1
 90
        1
176
     1
 90
        1
176
     1
 40
40.0
176
     1
 90
       11
176
     1
 62
     7
176
     1
 40
1.0
176
     1
 90
        1
176
     1
 90
        6
176
     1
 90
        2
176
     1
 62
     7
176
     1
 90
        6
176
     1
 90
        0
176
     1
 90
        0
176
     1
290
     0
176
     1
 90
        1
176
     1
 40
0.0
176
     1
 90
        0
176
     1
290
     0
176
     1
290
     1
176
     1
290
     1
176
     1
290
     0
176
     1
290
     0
176
     1
290
     0
176
     1
290
     0
176
     1
290
     0
176
     1
290
     0
176
     1
 90
       50
176
     1
 40
0.0
176
     1
 40
1.0
176
     1
 90
        0
176
     1
 62
   178
420
        0
176
     1
 90
       50
176
     1
 90
        3
176
     1
 62
     5
420
      255
176
     1
290
     0
176
     1
 90
       50
176
     1
 90
       50
176
     1
 90
       50
176
     1
290
     0
176
     1
 90
       50
176
     1
 62
   256
176
     0
 40
1.0
176
     0
 90
        2
176
     1
  1
strokes_ogs.tif
176
     1
290
     0
176
     1
 40
1.0
176
     1
 40
1.0
176
     1
  0
VISUALSTYLE
  5
A6
102
{ACAD_REACTORS
330
99
102
}
330
99
100
AcDbVisualStyle
  2
Thicken
 70
    13
177
     3
291
     1
 70
    58
 90
        2
176
     1
 90
        2
176
     1
 90
        1
176
     1
 90
        0
176
     1
 40
-0.6
176
     1
 40
-30.0
176
     1
 62
     7
420
 16777215
176
     1
 90
        1
176
     1
 90
        4
176
     1
 62
     7
176
     1
 62
   257
176
     1
 90
        1
176
     1
 90
        1
176
     1
 40
1.0
176
     1
 90
       12
176
     1
 62
     7
176
     1
 40
1.0
176
     1
 90
        1
176
     1
 90
        6
176
     1
 90
        2
176
     1
 62
     7
176
     1
 90
        5
176
     1
 90
        0
176
     1
 90
        0
176
     1
290
     0
176
     1
 90
        1
176
     1
 40
0.0
176
     1
 90
        0
176
     1
290
     0
176
     1
290
     1
176
     1
290
     1
176
     1
290
     0
176
     1
290
     0
176
     1
290
     0
176
     1
290
     0
176
     1
290
     0
176
     1
290
     0
176
     1
 90
       50
176
     1
 40
0.0
176
     1
 40
1.0
176
     1
 90
        0
176
     1
 62
   178
420
        0
176
     1
 90
       50
176
     1
 90
        3
176
     1
 62
     5
420
      255
176
     1
290
     0
176
     1
 90
       50
176
     1
 90
       50
176
     1
 90
       50
176
     1
290
     0
176
     1
 90
       50
176
     1
 62
   256
176
     0
 40
1.0
176
     0
 90
        2
176
     1
  1
strokes_ogs.tif
176
     1
290
     0
176
     1
 40
1.0
176
     1
 40
1.0
176
     1
  0
VISUALSTYLE
  5
E3
102
{ACAD_REACTORS
330
99
102
}
330
99
100
AcDbVisualStyle
  2
Wireframe
 70
     5
177
     3
291
     0
 70
    58
 90
        0
176
     1
 90
        2
176
     1
 90
        0
176
     1
 90
        0
176
     1
 40
0.6
176
     1
 40
30.0
176
     1
 62
     7
420
 16777215
176
     1
 90
        1
176
     1
 90
        4
176
     1
 62
     7
176
     1
 62
   257
176
     1
 90
        1
176
     1
 90
        1
176
     1
 40
1.0
176
     1
 90
        0
176
     1
 62
   257
176
     1
 40
1.0
176
     1
 90
        1
176
     1
 90
        6
176
     1
 90
        2
176
     1
 62
     7
176
     1
 90
        3
176
     1
 90
        0
176
     1
 90
        0
176
     1
290
     0
176
     1
 90
        1
176
     1
 40
0.0
176
     1
 90
        0
176
     1
290
     0
176
     1
290
     1
176
     1
290
     1
176
     1
290
     0
176
     1
290
     0
176
     1
290
     0
176
     1
290
     0
176
     1
290
     0
176
     1
290
     0
176
     1
 90
       50
176
     1
 40
0.0
176
     1
 40
1.0
176
     1
 90
        0
176
     1
 62
   178
420
        0
176
     1
 90
       50
176
     1
 90
        3
176
     1
 62
     5
420
      255
176
     1
290
     0
176
     1
 90
       50
176
     1
 90
       50
176
     1
 90
       50
176
     1
290
     0
176
     1
 90
       50
176
     1
 62
   256
176
     0
 40
1.0
176
     0
 90
        2
176
     1
  1
strokes_ogs.tif
176
     1
290
     0
176
     1
 40
1.0
176
     1
 40
1.0
176
     1
  0
VISUALSTYLE
  5
EA
102
{ACAD_REACTORS
330
99
102
}
330
99
100
AcDbVisualStyle
  2
X-Ray
 70
    25
177
     3
291
     0
 70
    58
 90
        2
176
     1
 90
        2
176
     1
 90
        1
176
     1
 90
        1
176
     1
 40
0.5
176
     1
 40
30.0
176
     1
 62
     7
420
 16777215
176
     1
 90
        1
176
     1
 90
        0
176
     1
 62
     7
176
     1
 62
   257
176
     1
 90
        1
176
     1
 90
        1
176
     1
 40
1.0
176
     1
 90
        8
176
     1
 62
     7
176
     1
 40
1.0
176
     1
 90
        1
176
     1
 90
        6
176
     1
 90
        2
176
     1
 62
     7
176
     1
 90
        3
176
     1
 90
        0
176
     1
 90
        0
176
     1
290
     0
176
     1
 90
       13
176
     1
 40
0.0
176
     1
 90
        0
176
     1
290
     0
176
     1
290
     1
176
     1
290
     1
176
     1
290
     0
176
     1
290
     0
176
     1
290
     0
176
     1
290
     0
176
     1
290
     0
176
     1
290
     0
176
     1
 90
       50
176
     1
 40
0.0
176
     1
 40
1.0
176
     1
 90
        0
176
     1
 62
   178
420
        0
176
     1
 90
       50
176
     1
 90
        3
176
     1
 62
     5
420
      255
176
     1
290
     0
176
     1
 90
       50
176
     1
 90
       50
176
     1
 90
       50
176
     1
290
     0
176
     1
 90
       50
176
     1
 62
   256
176
     0
 40
1.0
176
     0
 90
        2
176
     1
  1
strokes_ogs.tif
176
     1
290
     0
176
     1
 40
1.0
176
     1
 40
1.0
176
     1
  0
DICTIONARYVAR
  5
D8
102
{ACAD_REACTORS
330
66
102
}
330
66
100
DictionaryVariables
280
     0
  1
1:1
  0
DICTIONARYVAR
  5
310
102
{ACAD_REACTORS
330
66
102
}
330
66
100
DictionaryVariables
280
     0
  1
Standard
  0
DICTIONARYVAR
  5
89
102
{ACAD_REACTORS
330
66
102
}
330
66
100
DictionaryVariables
280
     0
  1
Standard
  0
DICTIONARYVAR
  5
67
102
{ACAD_REACTORS
330
66
102
}
330
66
100
DictionaryVariables
280
     0
  1
2
  0
DICTIONARYVAR
  5
6B
102
{ACAD_REACTORS
330
66
102
}
330
66
100
DictionaryVariables
280
     0
  1
1
  0
DICTIONARYVAR
  5
DF
102
{ACAD_REACTORS
330
66
102
}
330
66
100
DictionaryVariables
280
     0
  1
0
  0
DICTIONARYVAR
  5
E0
102
{ACAD_REACTORS
330
66
102
}
330
66
100
DictionaryVariables
280
     0
  1
0
  0
DICTIONARY
  5
30D
330
87
100
AcDbDictionary
280
     1
281
     1
  3
ACAD_ROUNDTRIP_2008_TABLESTYLE_CELLSTYLEMAP
360
30E
  0
CELLSTYLEMAP
  5
30E
102
{ACAD_REACTORS
330
30D
102
}
330
30D
100
AcDbCellStyleMap
 90
        3
300
CELLSTYLE
  1
TABLEFORMAT_BEGIN
 90
        5
170
     1
 91
        0
 92
    32768
 62
   257
 93
        1
300
CONTENTFORMAT
  1
CONTENTFORMAT_BEGIN
 90
        0
 91
        0
 92
      512
 93
        0
300

 40
0.0
140
1.0
 94
        5
 62
     0
340
11
144
0.25
309
CONTENTFORMAT_END
171
     0
 94
        6
 95
        1
302
GRIDFORMAT
  1
GRIDFORMAT_BEGIN
 90
        0
 91
        1
 62
     0
 92
       -2
340
0
 93
        0
 40
0.045
309
GRIDFORMAT_END
 95
        2
302
GRIDFORMAT
  1
GRIDFORMAT_BEGIN
 90
        0
 91
        1
 62
     0
 92
       -2
340
0
 93
        0
 40
0.045
309
GRIDFORMAT_END
 95
        4
302
GRIDFORMAT
  1
GRIDFORMAT_BEGIN
 90
        0
 91
        1
 62
     0
 92
       -2
340
0
 93
        0
 40
0.045
309
GRIDFORMAT_END
 95
        8
302
GRIDFORMAT
  1
GRIDFORMAT_BEGIN
 90
        0
 91
        1
 62
     0
 92
       -2
340
0
 93
        0
 40
0.045
309
GRIDFORMAT_END
 95
       16
302
GRIDFORMAT
  1
GRIDFORMAT_BEGIN
 90
        0
 91
        1
 62
     0
 92
       -2
340
0
 93
        0
 40
0.045
309
GRIDFORMAT_END
 95
       32
302
GRIDFORMAT
  1
GRIDFORMAT_BEGIN
 90
        0
 91
        1
 62
     0
 92
       -2
340
0
 93
        0
 40
0.045
309
GRIDFORMAT_END
309
TABLEFORMAT_END
  1
CELLSTYLE_BEGIN
 90
        1
 91
        1
300
_TITLE
309
CELLSTYLE_END
300
CELLSTYLE
  1
TABLEFORMAT_BEGIN
 90
        5
170
     1
 91
        0
 92
        0
 62
   257
 93
        1
300
CONTENTFORMAT
  1
CONTENTFORMAT_BEGIN
 90
        0
 91
        0
 92
      512
 93
        0
300

 40
0.0
140
1.0
 94
        5
 62
     0
340
11
144
0.18
309
CONTENTFORMAT_END
171
     0
 94
        6
 95
        1
302
GRIDFORMAT
  1
GRIDFORMAT_BEGIN
 90
        0
 91
        1
 62
     0
 92
       -2
340
0
 93
        0
 40
0.045
309
GRIDFORMAT_END
 95
        2
302
GRIDFORMAT
  1
GRIDFORMAT_BEGIN
 90
        0
 91
        1
 62
     0
 92
       -2
340
0
 93
        0
 40
0.045
309
GRIDFORMAT_END
 95
        4
302
GRIDFORMAT
  1
GRIDFORMAT_BEGIN
 90
        0
 91
        1
 62
     0
 92
       -2
340
0
 93
        0
 40
0.045
309
GRIDFORMAT_END
 95
        8
302
GRIDFORMAT
  1
GRIDFORMAT_BEGIN
 90
        0
 91
        1
 62
     0
 92
       -2
340
0
 93
        0
 40
0.045
309
GRIDFORMAT_END
 95
       16
302
GRIDFORMAT
  1
GRIDFORMAT_BEGIN
 90
        0
 91
        1
 62
     0
 92
       -2
340
0
 93
        0
 40
0.045
309
GRIDFORMAT_END
 95
       32
302
GRIDFORMAT
  1
GRIDFORMAT_BEGIN
 90
        0
 91
        1
 62
     0
 92
       -2
340
0
 93
        0
 40
0.045
309
GRIDFORMAT_END
309
TABLEFORMAT_END
  1
CELLSTYLE_BEGIN
 90
        2
 91
        1
300
_HEADER
309
CELLSTYLE_END
300
CELLSTYLE
  1
TABLEFORMAT_BEGIN
 90
        5
170
     1
 91
        0
 92
        0
 62
   257
 93
        1
300
CONTENTFORMAT
  1
CONTENTFORMAT_BEGIN
 90
        0
 91
        0
 92
      512
 93
        0
300

 40
0.0
140
1.0
 94
        2
 62
     0
340
11
144
0.18
309
CONTENTFORMAT_END
171
     0
 94
        6
 95
        1
302
GRIDFORMAT
  1
GRIDFORMAT_BEGIN
 90
        0
 91
        1
 62
     0
 92
       -2
340
0
 93
        0
 40
0.045
309
GRIDFORMAT_END
 95
        2
302
GRIDFORMAT
  1
GRIDFORMAT_BEGIN
 90
        0
 91
        1
 62
     0
 92
       -2
340
0
 93
        0
 40
0.045
309
GRIDFORMAT_END
 95
        4
302
GRIDFORMAT
  1
GRIDFORMAT_BEGIN
 90
        0
 91
        1
 62
     0
 92
       -2
340
0
 93
        0
 40
0.045
309
GRIDFORMAT_END
 95
        8
302
GRIDFORMAT
  1
GRIDFORMAT_BEGIN
 90
        0
 91
        1
 62
     0
 92
       -2
340
0
 93
        0
 40
0.045
309
GRIDFORMAT_END
 95
       16
302
GRIDFORMAT
  1
GRIDFORMAT_BEGIN
 90
        0
 91
        1
 62
     0
 92
       -2
340
0
 93
        0
 40
0.045
309
GRIDFORMAT_END
 95
       32
302
GRIDFORMAT
  1
GRIDFORMAT_BEGIN
 90
        0
 91
        1
 62
     0
 92
       -2
340
0
 93
        0
 40
0.045
309
GRIDFORMAT_END
309
TABLEFORMAT_END
  1
CELLSTYLE_BEGIN
 90
        3
 91
        2
300
_DATA
309
CELLSTYLE_END
  0
ENDSEC
  0
EOF
