  0
SECTION
  2
HEADER
  9
$ACADVER
  1
AC1032
  9
$ACADMAINTVER
 90
        4
  9
$DWGCODEPAGE
  3
ANSI_932
  9
$LASTSAVEDBY
  1
AKIHIROMURAKAMI
  9
$REQUIREDVERSIONS
160
                 0
  9
$INSBASE
 10
0.0
 20
0.0
 30
0.0
  9
$EXTMIN
 10
15.5731873863311
 20
21.88730368534839
 30
0.0
  9
$EXTMAX
 10
228.2693828663947
 20
177.7247642403819
 30
0.0
  9
$LIMMIN
 10
0.0
 20
0.0
  9
$LIMMAX
 10
12.0
 20
9.0
  9
$ORTHOMODE
 70
     0
  9
$REGENMODE
 70
     1
  9
$FILLMODE
 70
     1
  9
$QTEXTMODE
 70
     0
  9
$MIRRTEXT
 70
     0
  9
$LTSCALE
 40
1.0
  9
$ATTMODE
 70
     1
  9
$TEXTSIZE
 40
0.2
  9
$TRACEWID
 40
0.05
  9
$TEXTSTYLE
  7
Standard
  9
$CLAYER
  8
0
  9
$CELTYPE
  6
ByLayer
  9
$CECOLOR
 62
   256
  9
$CELTSCALE
 40
1.0
  9
$DISPSILH
 70
     0
  9
$DIMSCALE
 40
1.0
  9
$DIMASZ
 40
0.18
  9
$DIMEXO
 40
0.0625
  9
$DIMDLI
 40
0.38
  9
$DIMRND
 40
0.0
  9
$DIMDLE
 40
0.0
  9
$DIMEXE
 40
0.18
  9
$DIMTP
 40
0.0
  9
$DIMTM
 40
0.0
  9
$DIMTXT
 40
0.18
  9
$DIMCEN
 40
0.09
  9
$DIMTSZ
 40
0.0
  9
$DIMTOL
 70
     0
  9
$DIMLIM
 70
     0
  9
$DIMTIH
 70
     1
  9
$DIMTOH
 70
     1
  9
$DIMSE1
 70
     0
  9
$DIMSE2
 70
     0
  9
$DIMTAD
 70
     0
  9
$DIMZIN
 70
     0
  9
$DIMBLK
  1

  9
$DIMASO
 70
     1
  9
$DIMSHO
 70
     1
  9
$DIMPOST
  1

  9
$DIMAPOST
  1

  9
$DIMALT
 70
     0
  9
$DIMALTD
 70
     2
  9
$DIMALTF
 40
25.4
  9
$DIMLFAC
 40
1.0
  9
$DIMTOFL
 70
     0
  9
$DIMTVP
 40
0.0
  9
$DIMTIX
 70
     0
  9
$DIMSOXD
 70
     0
  9
$DIMSAH
 70
     0
  9
$DIMBLK1
  1

  9
$DIMBLK2
  1

  9
$DIMSTYLE
  2
Standard
  9
$DIMCLRD
 70
     0
  9
$DIMCLRE
 70
     0
  9
$DIMCLRT
 70
     0
  9
$DIMTFAC
 40
1.0
  9
$DIMGAP
 40
0.09
  9
$DIMJUST
 70
     0
  9
$DIMSD1
 70
     0
  9
$DIMSD2
 70
     0
  9
$DIMTOLJ
 70
     1
  9
$DIMTZIN
 70
     0
  9
$DIMALTZ
 70
     0
  9
$DIMALTTZ
 70
     0
  9
$DIMUPT
 70
     0
  9
$DIMDEC
 70
     4
  9
$DIMTDEC
 70
     4
  9
$DIMALTU
 70
     2
  9
$DIMALTTD
 70
     2
  9
$DIMTXSTY
  7
Standard
  9
$DIMAUNIT
 70
     0
  9
$DIMADEC
 70
     0
  9
$DIMALTRND
 40
0.0
  9
$DIMAZIN
 70
     0
  9
$DIMDSEP
 70
    46
  9
$DIMATFIT
 70
     3
  9
$DIMFRAC
 70
     0
  9
$DIMLDRBLK
  1

  9
$DIMLUNIT
 70
     2
  9
$DIMLWD
 70
    -2
  9
$DIMLWE
 70
    -2
  9
$DIMTMOVE
 70
     0
  9
$DIMFXL
 40
1.0
  9
$DIMFXLON
 70
     0
  9
$DIMJOGANG
 40
0.7853981633974483
  9
$DIMTFILL
 70
     0
  9
$DIMTFILLCLR
 70
     0
  9
$DIMARCSYM
 70
     0
  9
$DIMLTYPE
  6

  9
$DIMLTEX1
  6

  9
$DIMLTEX2
  6

  9
$DIMTXTDIRECTION
 70
     0
  9
$LUNITS
 70
     2
  9
$LUPREC
 70
     4
  9
$SKETCHINC
 40
0.1
  9
$FILLETRAD
 40
0.0
  9
$AUNITS
 70
     0
  9
$AUPREC
 70
     0
  9
$MENU
  1
.
  9
$ELEVATION
 40
0.0
  9
$PELEVATION
 40
0.0
  9
$THICKNESS
 40
0.0
  9
$LIMCHECK
 70
     0
  9
$CHAMFERA
 40
0.0
  9
$CHAMFERB
 40
0.0
  9
$CHAMFERC
 40
0.0
  9
$CHAMFERD
 40
0.0
  9
$SKPOLY
 70
     0
  9
$TDCREATE
 40
2452643.438384271
  9
$TDUCREATE
 40
2452643.063384271
  9
$TDUPDATE
 40
2459566.716124167
  9
$TDUUPDATE
 40
2459566.341124167
  9
$TDINDWG
 40
0.0013833912
  9
$TDUSRTIMER
 40
0.0004534259
  9
$USRTIMER
 70
     1
  9
$ANGBASE
 50
0.0
  9
$ANGDIR
 70
     0
  9
$PDMODE
 70
     0
  9
$PDSIZE
 40
0.0
  9
$PLINEWID
 40
0.0
  9
$SPLFRAME
 70
     0
  9
$SPLINETYPE
 70
     6
  9
$SPLINESEGS
 70
     8
  9
$HANDSEED
  5
334
  9
$SURFTAB1
 70
     6
  9
$SURFTAB2
 70
     6
  9
$SURFTYPE
 70
     6
  9
$SURFU
 70
     6
  9
$SURFV
 70
     6
  9
$UCSBASE
  2

  9
$UCSNAME
  2

  9
$UCSORG
 10
0.0
 20
0.0
 30
0.0
  9
$UCSXDIR
 10
1.0
 20
0.0
 30
0.0
  9
$UCSYDIR
 10
0.0
 20
1.0
 30
0.0
  9
$UCSORTHOREF
  2

  9
$UCSORTHOVIEW
 70
     0
  9
$UCSORGTOP
 10
0.0
 20
0.0
 30
0.0
  9
$UCSORGBOTTOM
 10
0.0
 20
0.0
 30
0.0
  9
$UCSORGLEFT
 10
0.0
 20
0.0
 30
0.0
  9
$UCSORGRIGHT
 10
0.0
 20
0.0
 30
0.0
  9
$UCSORGFRONT
 10
0.0
 20
0.0
 30
0.0
  9
$UCSORGBACK
 10
0.0
 20
0.0
 30
0.0
  9
$PUCSBASE
  2

  9
$PUCSNAME
  2

  9
$PUCSORG
 10
0.0
 20
0.0
 30
0.0
  9
$PUCSXDIR
 10
1.0
 20
0.0
 30
0.0
  9
$PUCSYDIR
 10
0.0
 20
1.0
 30
0.0
  9
$PUCSORTHOREF
  2

  9
$PUCSORTHOVIEW
 70
     0
  9
$PUCSORGTOP
 10
0.0
 20
0.0
 30
0.0
  9
$PUCSORGBOTTOM
 10
0.0
 20
0.0
 30
0.0
  9
$PUCSORGLEFT
 10
0.0
 20
0.0
 30
0.0
  9
$PUCSORGRIGHT
 10
0.0
 20
0.0
 30
0.0
  9
$PUCSORGFRONT
 10
0.0
 20
0.0
 30
0.0
  9
$PUCSORGBACK
 10
0.0
 20
0.0
 30
0.0
  9
$USERI1
 70
     0
  9
$USERI2
 70
     0
  9
$USERI3
 70
     0
  9
$USERI4
 70
     0
  9
$USERI5
 70
     0
  9
$USERR1
 40
0.0
  9
$USERR2
 40
0.0
  9
$USERR3
 40
0.0
  9
$USERR4
 40
0.0
  9
$USERR5
 40
0.0
  9
$WORLDVIEW
 70
     1
  9
$SHADEDGE
 70
     3
  9
$SHADEDIF
 70
    70
  9
$TILEMODE
 70
     1
  9
$MAXACTVP
 70
    64
  9
$PINSBASE
 10
0.0
 20
0.0
 30
0.0
  9
$PLIMCHECK
 70
     0
  9
$PEXTMIN
 10
0.0
 20
0.0
 30
0.0
  9
$PEXTMAX
 10
0.0
 20
0.0
 30
0.0
  9
$PLIMMIN
 10
0.0
 20
0.0
  9
$PLIMMAX
 10
0.0
 20
0.0
  9
$UNITMODE
 70
     0
  9
$VISRETAIN
 70
     1
  9
$PLINEGEN
 70
     0
  9
$PSLTSCALE
 70
     1
  9
$TREEDEPTH
 70
  3020
  9
$CMLSTYLE
  2
Standard
  9
$CMLJUST
 70
     0
  9
$CMLSCALE
 40
1.0
  9
$PROXYGRAPHICS
 70
     1
  9
$MEASUREMENT
 70
     0
  9
$CELWEIGHT
370
    -1
  9
$ENDCAPS
280
     0
  9
$JOINSTYLE
280
     0
  9
$LWDISPLAY
290
     0
  9
$INSUNITS
 70
     1
  9
$HYPERLINKBASE
  1

  9
$STYLESHEET
  1

  9
$XEDIT
290
     1
  9
$CEPSNTYPE
380
     0
  9
$PSTYLEMODE
290
     1
  9
$FINGERPRINTGUID
  2
{FDEAD576-A652-11D2-9A35-0060089B3A3F}
  9
$VERSIONGUID
  2
{FBC2AE19-5C5C-49EC-81BC-71B1A3362A02}
  9
$EXTNAMES
290
     1
  9
$PSVPSCALE
 40
0.0
  9
$OLESTARTUP
290
     0
  9
$SORTENTS
280
   127
  9
$INDEXCTL
280
     0
  9
$HIDETEXT
280
     1
  9
$XCLIPFRAME
280
     0
  9
$HALOGAP
280
     0
  9
$OBSCOLOR
 70
   257
  9
$OBSLTYPE
280
     0
  9
$INTERSECTIONDISPLAY
280
     0
  9
$INTERSECTIONCOLOR
 70
   257
  9
$DIMASSOC
280
     2
  9
$PROJECTNAME
  1

  9
$CAMERADISPLAY
290
     0
  9
$LENSLENGTH
 40
50.0
  9
$CAMERAHEIGHT
 40
0.0
  9
$STEPSPERSEC
 40
2.0
  9
$STEPSIZE
 40
6.0
  9
$3DDWFPREC
 40
2.0
  9
$PSOLWIDTH
 40
0.25
  9
$PSOLHEIGHT
 40
4.0
  9
$LOFTANG1
 40
1.570796326794897
  9
$LOFTANG2
 40
1.570796326794897
  9
$LOFTMAG1
 40
0.0
  9
$LOFTMAG2
 40
0.0
  9
$LOFTPARAM
 70
     7
  9
$LOFTNORMALS
280
     1
  9
$LATITUDE
 40
37.795
  9
$LONGITUDE
 40
-122.394
  9
$NORTHDIRECTION
 40
0.0
  9
$TIMEZONE
 70
 -8000
  9
$LIGHTGLYPHDISPLAY
280
     1
  9
$TILEMODELIGHTSYNCH
280
     1
  9
$CMATERIAL
347
96
  9
$SOLIDHIST
280
     1
  9
$SHOWHIST
280
     1
  9
$DWFFRAME
280
     2
  9
$DGNFRAME
280
     0
  9
$REALWORLDSCALE
290
     1
  9
$INTERFERECOLOR
 62
     1
  9
$CSHADOW
280
     0
  9
$SHADOWPLANELOCATION
 40
0.0
  0
ENDSEC
  0
SECTION
  2
CLASSES
  0
CLASS
  1
ACDBDICTIONARYWDFLT
  2
AcDbDictionaryWithDefault
  3
ObjectDBX Classes
 90
        0
 91
        3
280
     0
281
     0
  0
CLASS
  1
ACDBPLACEHOLDER
  2
AcDbPlaceHolder
  3
ObjectDBX Classes
 90
        0
 91
        1
280
     0
281
     0
  0
CLASS
  1
LAYOUT
  2
AcDbLayout
  3
ObjectDBX Classes
 90
        0
 91
        1
280
     0
281
     0
  0
CLASS
  1
DICTIONARYVAR
  2
AcDbDictionaryVar
  3
ObjectDBX Classes
 90
        0
 91
        3
280
     0
281
     0
  0
CLASS
  1
TABLESTYLE
  2
AcDbTableStyle
  3
ObjectDBX Classes
 90
     4095
 91
        3
280
     0
281
     0
  0
CLASS
  1
MATERIAL
  2
AcDbMaterial
  3
ObjectDBX Classes
 90
     1153
 91
        3
280
     0
281
     0
  0
CLASS
  1
VISUALSTYLE
  2
AcDbVisualStyle
  3
ObjectDBX Classes
 90
     4095
 91
        3
280
     0
281
     0
  0
CLASS
  1
SCALE
  2
AcDbScale
  3
ObjectDBX Classes
 90
     1153
 91
        3
280
     0
281
     0
  0
CLASS
  1
CELLSTYLEMAP
  2
AcDbCellStyleMap
  3
ObjectDBX Classes
 90
     1152
 91
        3
280
     0
281
     0
  0
CLASS
  1
RASTERVARIABLES
  2
AcDbRasterVariables
  3
ISM
 90
        0
 91
        3
280
     0
281
     0
  0
CLASS
  1
SUN
  2
AcDbSun
  3
SCENEOE
 90
     1153
 91
        3
280
     0
281
     0
  0
CLASS
  1
DIMASSOC
  2
AcDbDimAssoc
  3
"AcDbDimAssoc|Product Desc:     AcDim ARX App For Dimension|Company:          Autodesk, Inc.|WEB Address:      www.autodesk.com"
 90
        0
 91
        3
280
     0
281
     0
  0
CLASS
  1
MLEADERSTYLE
  2
AcDbMLeaderStyle
  3
ACDB_MLEADERSTYLE_CLASS
 90
     4095
 91
        3
280
     0
281
     0
  0
ENDSEC
  0
SECTION
  2
TABLES
  0
TABLE
  2
VPORT
  5
8
330
0
100
AcDbSymbolTable
 70
     1
  0
VPORT
  5
94
330
8
100
AcDbSymbolTableRecord
100
AcDbViewportTableRecord
  2
*Active
 70
     0
 10
0.0
 20
0.0
 11
1.0
 21
1.0
 12
154.7709239491073
 22
119.3447369207271
 13
0.0
 23
0.0
 14
0.5
 24
0.5
 15
0.5
 25
0.5
 16
0.0
 26
0.0
 36
1.0
 17
-27.66959356597987
 27
-19.53870295786201
 37
0.0
 40
158.9542097661342
 41
1.762376237623762
 42
50.0
 43
0.0
 44
0.0
 50
0.0
 51
0.0
 71
    16
 72
  1000
 73
     1
 74
     3
 75
     0
 76
     0
 77
     0
 78
     0
281
     0
 65
     1
110
0.0
120
0.0
130
0.0
111
1.0
121
0.0
131
0.0
112
0.0
122
1.0
132
0.0
 79
     0
146
0.0
348
9F
 60
     2
 61
     5
292
     1
282
     1
141
0.0
142
0.0
 63
   250
421
  3355443
361
ED
  0
ENDTAB
  0
TABLE
  2
LTYPE
  5
5
330
0
100
AcDbSymbolTable
 70
     3
  0
LTYPE
  5
14
330
5
100
AcDbSymbolTableRecord
100
AcDbLinetypeTableRecord
  2
ByBlock
 70
     0
  3

 72
    65
 73
     0
 40
0.0
  0
LTYPE
  5
15
330
5
100
AcDbSymbolTableRecord
100
AcDbLinetypeTableRecord
  2
ByLayer
 70
     0
  3

 72
    65
 73
     0
 40
0.0
  0
LTYPE
  5
16
330
5
100
AcDbSymbolTableRecord
100
AcDbLinetypeTableRecord
  2
Continuous
 70
     0
  3
Solid line
 72
    65
 73
     0
 40
0.0
  0
LTYPE
  5
129
330
5
100
AcDbSymbolTableRecord
100
AcDbLinetypeTableRecord
  2
CENTER
 70
     0
  3
Center ____ _ ____ _ ____ _ ____ _ ____ _ ____
 72
    65
 73
     4
 40
50.8
 49
31.75
 74
     0
 49
-6.35
 74
     0
 49
6.35
 74
     0
 49
-6.35
 74
     0
  0
LTYPE
  5
12C
330
5
100
AcDbSymbolTableRecord
100
AcDbLinetypeTableRecord
  2
DASHED
 70
     0
  3
Dashed __ __ __ __ __ __ __ __ __ __ __ __ __ _
 72
    65
 73
     2
 40
19.05
 49
12.7
 74
     0
 49
-6.35
 74
     0
  0
ENDTAB
  0
TABLE
  2
LAYER
  5
2
330
0
100
AcDbSymbolTable
 70
     7
  0
LAYER
  5
10
330
2
100
AcDbSymbolTableRecord
100
AcDbLayerTableRecord
  2
0
 70
     0
 62
     7
  6
Continuous
370
    -3
390
F
347
98
348
0
  0
LAYER
  5
125
330
2
100
AcDbSymbolTableRecord
100
AcDbLayerTableRecord
  2
Defpoints
 70
     0
 62
     7
  6
Continuous
290
     0
370
    -3
390
F
347
98
348
0
  0
LAYER
  5
126
330
2
100
AcDbSymbolTableRecord
100
AcDbLayerTableRecord
  2
文字
 70
     0
 62
     7
  6
Continuous
370
    25
390
F
347
98
348
0
  0
LAYER
  5
128
330
2
100
AcDbSymbolTableRecord
100
AcDbLayerTableRecord
  2
中心線
 70
     0
 62
     7
  6
CENTER
370
    30
390
F
347
98
348
0
  0
LAYER
  5
12A
330
2
100
AcDbSymbolTableRecord
100
AcDbLayerTableRecord
  2
実線
 70
     0
 62
   140
  6
Continuous
370
    30
390
F
347
98
348
0
  0
LAYER
  5
12B
330
2
100
AcDbSymbolTableRecord
100
AcDbLayerTableRecord
  2
破線
 70
     0
 62
     7
  6
DASHED
370
    20
390
F
347
98
348
0
  0
LAYER
  5
301
330
2
100
AcDbSymbolTableRecord
100
AcDbLayerTableRecord
  2
文字・寸法線
 70
     0
 62
     7
  6
Continuous
370
    13
390
F
347
98
348
0
  0
ENDTAB
  0
TABLE
  2
STYLE
  5
3
330
0
100
AcDbSymbolTable
 70
     1
  0
STYLE
  5
11
330
3
100
AcDbSymbolTableRecord
100
AcDbTextStyleTableRecord
  2
Standard
 70
     0
 40
0.0
 41
1.0
 50
0.0
 71
     0
 42
0.2
  3
arial.ttf
  4

1001
ACAD
1000
Arial
1071
        0
  0
ENDTAB
  0
TABLE
  2
VIEW
  5
6
330
0
100
AcDbSymbolTable
 70
     0
  0
ENDTAB
  0
TABLE
  2
UCS
  5
7
330
0
100
AcDbSymbolTable
 70
     0
  0
ENDTAB
  0
TABLE
  2
APPID
  5
9
330
0
100
AcDbSymbolTable
 70
     1
  0
APPID
  5
12
330
9
100
AcDbSymbolTableRecord
100
AcDbRegAppTableRecord
  2
ACAD
 70
     0
  0
ENDTAB
  0
TABLE
  2
DIMSTYLE
  5
A
330
0
100
AcDbSymbolTable
 70
     2
100
AcDbDimStyleTable
  0
DIMSTYLE
105
27
330
A
100
AcDbSymbolTableRecord
100
AcDbDimStyleTableRecord
  2
Standard
 70
     0
178
     0
340
11
  0
DIMSTYLE
105
12D
102
{ACAD_REACTORS
330
210
330
213
330
216
330
219
330
220
330
223
330
226
330
229
330
22D
330
231
330
23B
330
23E
330
2EF
102
}
330
A
100
AcDbSymbolTableRecord
100
AcDbDimStyleTableRecord
  2
ISO-25
 70
     0
 41
2.5
 42
0.625
 43
3.75
 44
1.25
 73
     0
 74
     0
 77
     1
 78
     8
140
3.0
141
2.5
143
0.03937007874016
147
0.625
171
     3
172
     1
178
     0
271
     2
272
     2
274
     3
283
     0
284
     8
340
11
  0
ENDTAB
  0
TABLE
  2
BLOCK_RECORD
  5
1
330
0
100
AcDbSymbolTable
 70
    23
  0
BLOCK_RECORD
  5
1F
102
{ACAD_XDICTIONARY
360
32E
102
}
330
1
100
AcDbSymbolTableRecord
100
AcDbBlockTableRecord
  2
*Model_Space
340
22
 70
     0
280
     1
281
     0
  0
BLOCK_RECORD
  5
58
330
1
100
AcDbSymbolTableRecord
100
AcDbBlockTableRecord
  2
*Paper_Space
340
59
 70
     0
280
     1
281
     0
  0
BLOCK_RECORD
  5
5D
330
1
100
AcDbSymbolTableRecord
100
AcDbBlockTableRecord
  2
*Paper_Space0
340
5E
 70
     0
280
     1
281
     0
  0
BLOCK_RECORD
  5
15C
330
1
100
AcDbSymbolTableRecord
100
AcDbBlockTableRecord
  2
*D1
340
0
 70
     0
280
     1
281
     0
  0
BLOCK_RECORD
  5
16B
330
1
100
AcDbSymbolTableRecord
100
AcDbBlockTableRecord
  2
*D2
340
0
 70
     0
280
     1
281
     0
  0
BLOCK_RECORD
  5
17A
330
1
100
AcDbSymbolTableRecord
100
AcDbBlockTableRecord
  2
*D3
340
0
 70
     0
280
     1
281
     0
  0
BLOCK_RECORD
  5
189
330
1
100
AcDbSymbolTableRecord
100
AcDbBlockTableRecord
  2
*D4
340
0
 70
     0
280
     1
281
     0
  0
BLOCK_RECORD
  5
19C
330
1
100
AcDbSymbolTableRecord
100
AcDbBlockTableRecord
  2
*D5
340
0
 70
     0
280
     1
281
     0
  0
BLOCK_RECORD
  5
1AB
330
1
100
AcDbSymbolTableRecord
100
AcDbBlockTableRecord
  2
*D6
340
0
 70
     0
280
     1
281
     0
  0
BLOCK_RECORD
  5
1BC
330
1
100
AcDbSymbolTableRecord
100
AcDbBlockTableRecord
  2
*D7
340
0
 70
     0
280
     1
281
     0
  0
BLOCK_RECORD
  5
1C8
330
1
100
AcDbSymbolTableRecord
100
AcDbBlockTableRecord
  2
*D8
340
0
 70
     0
280
     1
281
     0
  0
BLOCK_RECORD
  5
1E5
330
1
100
AcDbSymbolTableRecord
100
AcDbBlockTableRecord
  2
*D9
340
0
 70
     0
280
     1
281
     0
  0
BLOCK_RECORD
  5
1F4
330
1
100
AcDbSymbolTableRecord
100
AcDbBlockTableRecord
  2
*D10
340
0
 70
     0
280
     1
281
     0
  0
BLOCK_RECORD
  5
241
330
1
100
AcDbSymbolTableRecord
100
AcDbBlockTableRecord
  2
*D11
340
0
 70
     0
280
     1
281
     0
  0
BLOCK_RECORD
  5
24D
330
1
100
AcDbSymbolTableRecord
100
AcDbBlockTableRecord
  2
*D12
340
0
 70
     0
280
     1
281
     0
  0
BLOCK_RECORD
  5
259
330
1
100
AcDbSymbolTableRecord
100
AcDbBlockTableRecord
  2
*D13
340
0
 70
     0
280
     1
281
     0
  0
BLOCK_RECORD
  5
265
330
1
100
AcDbSymbolTableRecord
100
AcDbBlockTableRecord
  2
*D14
340
0
 70
     0
280
     1
281
     0
  0
BLOCK_RECORD
  5
271
330
1
100
AcDbSymbolTableRecord
100
AcDbBlockTableRecord
  2
*D15
340
0
 70
     0
280
     1
281
     0
  0
BLOCK_RECORD
  5
27D
330
1
100
AcDbSymbolTableRecord
100
AcDbBlockTableRecord
  2
*D16
340
0
 70
     0
280
     1
281
     0
  0
BLOCK_RECORD
  5
28B
330
1
100
AcDbSymbolTableRecord
100
AcDbBlockTableRecord
  2
*D17
340
0
 70
     0
280
     1
281
     0
  0
BLOCK_RECORD
  5
294
330
1
100
AcDbSymbolTableRecord
100
AcDbBlockTableRecord
  2
*D18
340
0
 70
     0
280
     1
281
     0
  0
BLOCK_RECORD
  5
29F
330
1
100
AcDbSymbolTableRecord
100
AcDbBlockTableRecord
  2
*D19
340
0
 70
     0
280
     1
281
     0
  0
BLOCK_RECORD
  5
2AB
330
1
100
AcDbSymbolTableRecord
100
AcDbBlockTableRecord
  2
*D20
340
0
 70
     0
280
     1
281
     0
  0
BLOCK_RECORD
  5
2E0
330
1
100
AcDbSymbolTableRecord
100
AcDbBlockTableRecord
  2
*D21
340
0
 70
     0
280
     1
281
     0
  0
BLOCK_RECORD
  5
2F1
330
1
100
AcDbSymbolTableRecord
100
AcDbBlockTableRecord
  2
*D22
340
0
 70
     0
280
     1
281
     0
  0
ENDTAB
  0
ENDSEC
  0
SECTION
  2
BLOCKS
  0
BLOCK
  5
20
330
1F
100
AcDbEntity
  8
0
100
AcDbBlockBegin
  2
*Model_Space
 70
     0
 10
0.0
 20
0.0
 30
0.0
  3
*Model_Space
  1
*Model_Space
  0
ENDBLK
  5
21
330
1F
100
AcDbEntity
  8
0
100
AcDbBlockEnd
  0
BLOCK
  5
5A
330
58
100
AcDbEntity
 67
     1
  8
0
100
AcDbBlockBegin
  2
*Paper_Space
 70
     0
 10
0.0
 20
0.0
 30
0.0
  3
*Paper_Space
  1
*Paper_Space
  0
ENDBLK
  5
5B
330
58
100
AcDbEntity
 67
     1
  8
0
100
AcDbBlockEnd
  0
BLOCK
  5
5F
330
5D
100
AcDbEntity
  8
0
100
AcDbBlockBegin
  2
*Paper_Space0
 70
     0
 10
0.0
 20
0.0
 30
0.0
  3
*Paper_Space0
  1
*Paper_Space0
  0
ENDBLK
  5
60
330
5D
100
AcDbEntity
  8
0
100
AcDbBlockEnd
  0
BLOCK
  5
15D
330
15C
100
AcDbEntity
  8
0
370
    30
100
AcDbBlockBegin
  2
*D1
 70
     1
 10
0.0
 20
0.0
 30
0.0
  3
*D1
  1
*D2
  0
LINE
  5
15E
330
15C
100
AcDbEntity
  8
文字
 62
     0
370
    -2
100
AcDbLine
 10
29.21403875793385
 20
102.8901841433003
 30
0.0
 11
29.21403875793385
 21
131.8427537952869
 31
0.0
  0
LINE
  5
15F
330
15C
100
AcDbEntity
  8
文字
 62
     0
370
    -2
100
AcDbLine
 10
79.21403875793385
 20
102.8901841433004
 30
0.0
 11
79.21403875793385
 21
131.8427537952869
 31
0.0
  0
LINE
  5
160
330
15C
100
AcDbEntity
  8
文字
 62
     0
370
    -2
100
AcDbLine
 10
31.71403875793385
 20
130.5927537952869
 30
0.0
 11
76.71403875793385
 21
130.5927537952869
 31
0.0
  0
SOLID
  5
161
330
15C
100
AcDbEntity
  8
文字
 62
     0
100
AcDbTrace
 10
31.71403875793385
 20
131.0094204619535
 30
0.0
 11
31.71403875793385
 21
130.1760871286202
 31
0.0
 12
29.21403875793385
 22
130.5927537952869
 32
0.0
 13
29.21403875793385
 23
130.5927537952869
 33
0.0
  0
SOLID
  5
162
330
15C
100
AcDbEntity
  8
文字
 62
     0
100
AcDbTrace
 10
76.71403875793385
 20
130.1760871286202
 30
0.0
 11
76.71403875793385
 21
131.0094204619535
 31
0.0
 12
79.21403875793385
 22
130.5927537952869
 32
0.0
 13
79.21403875793385
 23
130.5927537952869
 33
0.0
  0
MTEXT
  5
163
330
15C
100
AcDbEntity
  8
文字
 62
     0
370
    30
100
AcDbMText
 10
54.21403875793385
 20
132.7484495660918
 30
0.0
 40
3.0
 41
0.0
 46
0.0
 71
     5
 72
     1
  1
50
 73
     1
 44
1.0
  0
POINT
  5
164
330
15C
100
AcDbEntity
  8
Defpoints
 62
     0
100
AcDbPoint
 10
29.21403875793385
 20
102.2651841433003
 30
0.0
  0
POINT
  5
165
330
15C
100
AcDbEntity
  8
Defpoints
 62
     0
100
AcDbPoint
 10
79.21403875793385
 20
102.2651841433004
 30
0.0
  0
POINT
  5
166
330
15C
100
AcDbEntity
  8
Defpoints
 62
     0
100
AcDbPoint
 10
79.21403875793385
 20
130.5927537952869
 30
0.0
  0
ENDBLK
  5
167
330
15C
100
AcDbEntity
  8
0
370
    30
100
AcDbBlockEnd
  0
BLOCK
  5
16C
330
16B
100
AcDbEntity
  8
0
370
    30
100
AcDbBlockBegin
  2
*D2
 70
     1
 10
0.0
 20
0.0
 30
0.0
  3
*D2
  1
*D3
  0
LINE
  5
16D
330
16B
100
AcDbEntity
  8
文字
 62
     0
370
    -2
100
AcDbLine
 10
43.58903875793385
 20
117.2651841433003
 30
0.0
 11
2.375000000000006
 21
117.2651841433003
 31
0.0
  0
LINE
  5
16E
330
16B
100
AcDbEntity
  8
文字
 62
     0
370
    -2
100
AcDbLine
 10
38.58903875793385
 20
20.2651841433003
 30
0.0
 11
2.375
 21
20.26518414330031
 31
0.0
  0
LINE
  5
16F
330
16B
100
AcDbEntity
  8
文字
 62
     0
370
    -2
100
AcDbLine
 10
3.625000000000006
 20
114.7651841433003
 30
0.0
 11
3.625
 21
22.76518414330031
 31
0.0
  0
SOLID
  5
170
330
16B
100
AcDbEntity
  8
文字
 62
     0
100
AcDbTrace
 10
4.041666666666672
 20
114.7651841433003
 30
0.0
 11
3.208333333333339
 21
114.7651841433003
 31
0.0
 12
3.625000000000006
 22
117.2651841433003
 32
0.0
 13
3.625000000000006
 23
117.2651841433003
 33
0.0
  0
SOLID
  5
171
330
16B
100
AcDbEntity
  8
文字
 62
     0
100
AcDbTrace
 10
3.208333333333333
 20
22.76518414330031
 30
0.0
 11
4.041666666666667
 21
22.76518414330031
 31
0.0
 12
3.625
 22
20.26518414330031
 32
0.0
 13
3.625
 23
20.26518414330031
 33
0.0
  0
MTEXT
  5
172
330
16B
100
AcDbEntity
  8
文字
 62
     0
370
    30
100
AcDbMText
 10
1.469304229195092
 20
68.76518414330029
 30
0.0
 40
3.0
 41
0.0
 46
0.0
 71
     5
 72
     1
  1
97
 11
5.951711059846202E-17
 21
1.0
 31
0.0
 73
     1
 44
1.0
  0
POINT
  5
173
330
16B
100
AcDbEntity
  8
Defpoints
 62
     0
100
AcDbPoint
 10
44.21403875793385
 20
117.2651841433003
 30
0.0
  0
POINT
  5
174
330
16B
100
AcDbEntity
  8
Defpoints
 62
     0
100
AcDbPoint
 10
39.21403875793385
 20
20.2651841433003
 30
0.0
  0
POINT
  5
175
330
16B
100
AcDbEntity
  8
Defpoints
 62
     0
100
AcDbPoint
 10
3.625
 20
20.26518414330031
 30
0.0
  0
ENDBLK
  5
176
330
16B
100
AcDbEntity
  8
0
370
    30
100
AcDbBlockEnd
  0
BLOCK
  5
17B
330
17A
100
AcDbEntity
  8
0
370
    30
100
AcDbBlockBegin
  2
*D3
 70
     1
 10
0.0
 20
0.0
 30
0.0
  3
*D3
  1
*D4
  0
LINE
  5
17C
330
17A
100
AcDbEntity
  8
文字
 62
     0
370
    -2
100
AcDbLine
 10
53.58903875793385
 20
117.2651841433003
 30
0.0
 11
15.99025884307935
 21
117.2651841433003
 31
0.0
  0
LINE
  5
17D
330
17A
100
AcDbEntity
  8
文字
 62
     0
370
    -2
100
AcDbLine
 10
53.58903875793385
 20
97.2651841433003
 30
0.0
 11
15.99025884307935
 21
97.2651841433003
 31
0.0
  0
LINE
  5
17E
330
17A
100
AcDbEntity
  8
文字
 62
     0
370
    -2
100
AcDbLine
 10
17.24025884307935
 20
114.7651841433003
 30
0.0
 11
17.24025884307935
 21
99.7651841433003
 31
0.0
  0
SOLID
  5
17F
330
17A
100
AcDbEntity
  8
文字
 62
     0
100
AcDbTrace
 10
17.65692550974602
 20
114.7651841433003
 30
0.0
 11
16.82359217641269
 21
114.7651841433003
 31
0.0
 12
17.24025884307935
 22
117.2651841433003
 32
0.0
 13
17.24025884307935
 23
117.2651841433003
 33
0.0
  0
SOLID
  5
180
330
17A
100
AcDbEntity
  8
文字
 62
     0
100
AcDbTrace
 10
16.82359217641269
 20
99.7651841433003
 30
0.0
 11
17.65692550974602
 21
99.7651841433003
 31
0.0
 12
17.24025884307935
 22
97.2651841433003
 32
0.0
 13
17.24025884307935
 23
97.2651841433003
 33
0.0
  0
MTEXT
  5
181
330
17A
100
AcDbEntity
  8
文字
 62
     0
370
    30
100
AcDbMText
 10
15.08456307227444
 20
107.2651841433003
 30
0.0
 40
3.0
 41
0.0
 46
0.0
 71
     5
 72
     1
  1
20
 11
0.0
 21
1.0
 31
0.0
 73
     1
 44
1.0
  0
POINT
  5
182
330
17A
100
AcDbEntity
  8
Defpoints
 62
     0
100
AcDbPoint
 10
54.21403875793385
 20
117.2651841433003
 30
0.0
  0
POINT
  5
183
330
17A
100
AcDbEntity
  8
Defpoints
 62
     0
100
AcDbPoint
 10
54.21403875793385
 20
97.2651841433003
 30
0.0
  0
POINT
  5
184
330
17A
100
AcDbEntity
  8
Defpoints
 62
     0
100
AcDbPoint
 10
17.24025884307935
 20
97.2651841433003
 30
0.0
  0
ENDBLK
  5
185
330
17A
100
AcDbEntity
  8
0
370
    30
100
AcDbBlockEnd
  0
BLOCK
  5
18A
330
189
100
AcDbEntity
  8
0
370
    30
100
AcDbBlockBegin
  2
*D4
 70
     1
 10
0.0
 20
0.0
 30
0.0
  3
*D4
  1
*D5
  0
LINE
  5
18B
330
189
100
AcDbEntity
  8
文字
 62
     0
370
    -2
100
AcDbLine
 10
53.58903875793385
 20
35.26518414330032
 30
0.0
 11
16.87821039401887
 21
35.26518414330032
 31
0.0
  0
LINE
  5
18C
330
189
100
AcDbEntity
  8
文字
 62
     0
370
    -2
100
AcDbLine
 10
38.58903875793385
 20
20.2651841433003
 30
0.0
 11
16.87821039401887
 21
20.2651841433003
 31
0.0
  0
LINE
  5
18D
330
189
100
AcDbEntity
  8
文字
 62
     0
370
    -2
100
AcDbLine
 10
18.12821039401887
 20
32.76518414330032
 30
0.0
 11
18.12821039401887
 21
22.7651841433003
 31
0.0
  0
SOLID
  5
18E
330
189
100
AcDbEntity
  8
文字
 62
     0
100
AcDbTrace
 10
18.54487706068554
 20
32.76518414330032
 30
0.0
 11
17.7115437273522
 21
32.76518414330032
 31
0.0
 12
18.12821039401887
 22
35.26518414330032
 32
0.0
 13
18.12821039401887
 23
35.26518414330032
 33
0.0
  0
SOLID
  5
18F
330
189
100
AcDbEntity
  8
文字
 62
     0
100
AcDbTrace
 10
17.7115437273522
 20
22.7651841433003
 30
0.0
 11
18.54487706068554
 21
22.7651841433003
 31
0.0
 12
18.12821039401887
 22
20.2651841433003
 32
0.0
 13
18.12821039401887
 23
20.2651841433003
 33
0.0
  0
MTEXT
  5
190
330
189
100
AcDbEntity
  8
文字
 62
     0
370
    30
100
AcDbMText
 10
15.97251462321396
 20
27.76518414330031
 30
0.0
 40
3.0
 41
0.0
 46
0.0
 71
     5
 72
     1
  1
15
 11
0.0
 21
1.0
 31
0.0
 73
     1
 44
1.0
  0
POINT
  5
191
330
189
100
AcDbEntity
  8
Defpoints
 62
     0
100
AcDbPoint
 10
54.21403875793385
 20
35.26518414330032
 30
0.0
  0
POINT
  5
192
330
189
100
AcDbEntity
  8
Defpoints
 62
     0
100
AcDbPoint
 10
39.21403875793385
 20
20.2651841433003
 30
0.0
  0
POINT
  5
193
330
189
100
AcDbEntity
  8
Defpoints
 62
     0
100
AcDbPoint
 10
18.12821039401887
 20
20.2651841433003
 30
0.0
  0
ENDBLK
  5
194
330
189
100
AcDbEntity
  8
0
370
    30
100
AcDbBlockEnd
  0
BLOCK
  5
19D
330
19C
100
AcDbEntity
  8
0
370
    30
100
AcDbBlockBegin
  2
*D5
 70
     1
 10
0.0
 20
0.0
 30
0.0
  3
*D5
  1
*D6
  0
LINE
  5
19E
330
19C
100
AcDbEntity
  8
文字
 62
     0
370
    -2
100
AcDbLine
 10
177.5890387579338
 20
117.2651841433003
 30
0.0
 11
146.2480430866872
 21
117.2651841433003
 31
0.0
  0
LINE
  5
19F
330
19C
100
AcDbEntity
  8
文字
 62
     0
370
    -2
100
AcDbLine
 10
176.9622858238613
 20
76.67325081667624
 30
0.0
 11
146.2480430866872
 21
76.67325081667624
 31
0.0
  0
LINE
  5
1A0
330
19C
100
AcDbEntity
  8
文字
 62
     0
370
    -2
100
AcDbLine
 10
147.4980430866872
 20
114.7651841433003
 30
0.0
 11
147.4980430866872
 21
79.17325081667624
 31
0.0
  0
SOLID
  5
1A1
330
19C
100
AcDbEntity
  8
文字
 62
     0
100
AcDbTrace
 10
147.9147097533538
 20
114.7651841433003
 30
0.0
 11
147.0813764200205
 21
114.7651841433003
 31
0.0
 12
147.4980430866872
 22
117.2651841433003
 32
0.0
 13
147.4980430866872
 23
117.2651841433003
 33
0.0
  0
SOLID
  5
1A2
330
19C
100
AcDbEntity
  8
文字
 62
     0
100
AcDbTrace
 10
147.0813764200205
 20
79.17325081667624
 30
0.0
 11
147.9147097533538
 21
79.17325081667624
 31
0.0
 12
147.4980430866872
 22
76.67325081667624
 32
0.0
 13
147.4980430866872
 23
76.67325081667624
 33
0.0
  0
MTEXT
  5
1A3
330
19C
100
AcDbEntity
  8
文字
 62
     0
370
    30
100
AcDbMText
 10
145.3423473158823
 20
96.96921747998827
 30
0.0
 40
3.0
 41
0.0
 46
0.0
 71
     5
 72
     1
  1
40.59
 11
0.0
 21
1.0
 31
0.0
 73
     1
 44
1.0
  0
POINT
  5
1A4
330
19C
100
AcDbEntity
  8
Defpoints
 62
     0
100
AcDbPoint
 10
178.2140387579338
 20
117.2651841433003
 30
0.0
  0
POINT
  5
1A5
330
19C
100
AcDbEntity
  8
Defpoints
 62
     0
100
AcDbPoint
 10
177.5872858238613
 20
76.67325081667624
 30
0.0
  0
POINT
  5
1A6
330
19C
100
AcDbEntity
  8
Defpoints
 62
     0
100
AcDbPoint
 10
147.4980430866872
 20
76.67325081667624
 30
0.0
  0
ENDBLK
  5
1A7
330
19C
100
AcDbEntity
  8
0
370
    30
100
AcDbBlockEnd
  0
BLOCK
  5
1AC
330
1AB
100
AcDbEntity
  8
0
370
    30
100
AcDbBlockBegin
  2
*D6
 70
     1
 10
0.0
 20
0.0
 30
0.0
  3
*D6
  1
*D7
  0
LINE
  5
1AD
330
1AB
100
AcDbEntity
  8
文字
 62
     0
370
    -2
100
AcDbLine
 10
178.2140387579338
 20
117.8901841433003
 30
0.0
 11
178.2140387579338
 21
125.8706905914632
 31
0.0
  0
LINE
  5
1AE
330
1AB
100
AcDbEntity
  8
文字
 62
     0
370
    -2
100
AcDbLine
 10
181.2140387579338
 20
117.8901841433003
 30
0.0
 11
181.2140387579338
 21
125.8706905914632
 31
0.0
  0
LINE
  5
1AF
330
1AB
100
AcDbEntity
  8
文字
 62
     0
370
    -2
100
AcDbLine
 10
183.7140387579338
 20
124.6206905914632
 30
0.0
 11
189.4285680894482
 21
124.6206905914632
 31
0.0
  0
LINE
  5
1B0
330
1AB
100
AcDbEntity
  8
文字
 62
     0
370
    -2
100
AcDbLine
 10
178.2140387579338
 20
124.6206905914632
 30
0.0
 11
181.2140387579338
 21
124.6206905914632
 31
0.0
  0
LINE
  5
1B1
330
1AB
100
AcDbEntity
  8
文字
 62
     0
370
    -2
100
AcDbLine
 10
175.7140387579338
 20
124.6206905914632
 30
0.0
 11
173.2140387579338
 21
124.6206905914632
 31
0.0
  0
SOLID
  5
1B2
330
1AB
100
AcDbEntity
  8
文字
 62
     0
100
AcDbTrace
 10
175.7140387579338
 20
124.2040239247966
 30
0.0
 11
175.7140387579338
 21
125.0373572581299
 31
0.0
 12
178.2140387579338
 22
124.6206905914632
 32
0.0
 13
178.2140387579338
 23
124.6206905914632
 33
0.0
  0
SOLID
  5
1B3
330
1AB
100
AcDbEntity
  8
文字
 62
     0
100
AcDbTrace
 10
183.7140387579338
 20
125.0373572581299
 30
0.0
 11
183.7140387579338
 21
124.2040239247966
 31
0.0
 12
181.2140387579338
 22
124.6206905914632
 32
0.0
 13
181.2140387579338
 23
124.6206905914632
 33
0.0
  0
MTEXT
  5
1B4
330
1AB
100
AcDbEntity
  8
文字
 62
     0
370
    30
100
AcDbMText
 10
187.821303423691
 20
126.7763863622682
 30
0.0
 40
3.0
 41
0.0
 46
0.0
 71
     5
 72
     1
  1
3
 73
     1
 44
1.0
  0
POINT
  5
1B5
330
1AB
100
AcDbEntity
  8
Defpoints
 62
     0
100
AcDbPoint
 10
178.2140387579338
 20
117.2651841433003
 30
0.0
  0
POINT
  5
1B6
330
1AB
100
AcDbEntity
  8
Defpoints
 62
     0
100
AcDbPoint
 10
181.2140387579338
 20
117.2651841433003
 30
0.0
  0
POINT
  5
1B7
330
1AB
100
AcDbEntity
  8
Defpoints
 62
     0
100
AcDbPoint
 10
181.2140387579338
 20
124.6206905914632
 30
0.0
  0
ENDBLK
  5
1B8
330
1AB
100
AcDbEntity
  8
0
370
    30
100
AcDbBlockEnd
  0
BLOCK
  5
1BD
330
1BC
100
AcDbEntity
  8
0
370
    30
100
AcDbBlockBegin
  2
*D7
 70
     1
 10
0.0
 20
0.0
 30
0.0
  3
*D7
  1
*D8
  0
LINE
  5
1BE
330
1BC
100
AcDbEntity
  8
文字
 62
     0
370
    -2
100
AcDbLine
 10
70.8673449116596
 20
40.64267372025719
 30
0.0
 11
106.3916146403429
 21
52.11375270190804
 31
0.0
  0
MTEXT
  5
1BF
330
1BC
100
AcDbEntity
  8
文字
 62
     0
370
    30
100
AcDbMText
 10
101.7109543459099
 20
52.86762547207191
 30
0.0
 40
3.0
 41
0.0
 46
0.0
 71
     5
 72
     1
  1
R15
 11
0.9516174944986142
 21
0.307285118683252
 31
0.0
 73
     1
 44
1.0
  0
LINE
  5
1C0
330
1BC
100
AcDbEntity
  8
文字
 62
     0
370
    -2
100
AcDbLine
 10
54.21403875793382
 20
35.26518414330027
 30
0.0
 11
68.48830117541307
 21
39.87446092354907
 31
0.0
  0
SOLID
  5
1C1
330
1BC
100
AcDbEntity
  8
文字
 62
     0
100
AcDbTrace
 10
70.73930944554158
 20
41.03918100963161
 30
0.0
 11
70.99538037777762
 21
40.24616643088277
 31
0.0
 12
68.48830117541307
 22
39.87446092354907
 32
0.0
 13
68.48830117541307
 23
39.87446092354907
 33
0.0
  0
POINT
  5
1C2
330
1BC
100
AcDbEntity
  8
Defpoints
 62
     0
100
AcDbPoint
 10
68.48830117541307
 20
39.87446092354907
 30
0.0
  0
POINT
  5
1C3
330
1BC
100
AcDbEntity
  8
Defpoints
 62
     0
100
AcDbPoint
 10
54.21403875793382
 20
35.26518414330027
 30
0.0
  0
ENDBLK
  5
1C4
330
1BC
100
AcDbEntity
  8
0
370
    30
100
AcDbBlockEnd
  0
BLOCK
  5
1C9
330
1C8
100
AcDbEntity
  8
0
370
    30
100
AcDbBlockBegin
  2
*D8
 70
     1
 10
0.0
 20
0.0
 30
0.0
  3
*D8
  1
*D9
  0
LINE
  5
1CA
330
1C8
100
AcDbEntity
  8
文字
 62
     0
370
    -2
100
AcDbLine
 10
63.3164385775807
 20
99.98480130814035
 30
0.0
 11
109.2175864371835
 21
113.6991570910399
 31
0.0
  0
LINE
  5
1CB
330
1C8
100
AcDbEntity
  8
文字
 62
     0
370
    -2
100
AcDbLine
 10
45.11163893828697
 20
94.5455669784602
 30
0.0
 11
42.71627056469569
 21
93.8298782508707
 31
0.0
  0
MTEXT
  5
1CC
330
1C8
100
AcDbEntity
  8
文字
 62
     0
370
    30
100
AcDbMText
 10
104.7460789102248
 20
114.6728189506405
 30
0.0
 40
3.0
 41
0.0
 46
0.0
 71
     5
 72
     1
  1
%%c14
 11
0.9581473494365119
 21
0.2862754910357971
 31
0.0
 73
     1
 44
1.0
  0
LINE
  5
1CD
330
1C8
100
AcDbEntity
  8
文字
 62
     0
370
    -2
100
AcDbLine
 10
47.50700731187825
 20
95.2612557060497
 30
0.0
 11
60.92107020398942
 21
99.26911258055085
 31
0.0
  0
SOLID
  5
1CE
330
1C8
100
AcDbEntity
  8
文字
 62
     0
100
AcDbTrace
 10
45.23092039288522
 20
94.14633891619499
 30
0.0
 11
44.99235748368872
 21
94.94479504072541
 31
0.0
 12
47.50700731187825
 22
95.2612557060497
 32
0.0
 13
47.50700731187825
 23
95.2612557060497
 33
0.0
  0
SOLID
  5
1CF
330
1C8
100
AcDbEntity
  8
文字
 62
     0
100
AcDbTrace
 10
63.19715712298245
 20
100.3840293704056
 30
0.0
 11
63.43572003217895
 21
99.58557324587514
 31
0.0
 12
60.92107020398942
 22
99.26911258055085
 32
0.0
 13
60.92107020398942
 23
99.26911258055085
 33
0.0
  0
POINT
  5
1D0
330
1C8
100
AcDbEntity
  8
Defpoints
 62
     0
100
AcDbPoint
 10
60.92107020398942
 20
99.26911258055085
 30
0.0
  0
POINT
  5
1D1
330
1C8
100
AcDbEntity
  8
Defpoints
 62
     0
100
AcDbPoint
 10
47.50700731187825
 20
95.2612557060497
 30
0.0
  0
ENDBLK
  5
1D2
330
1C8
100
AcDbEntity
  8
0
370
    30
100
AcDbBlockEnd
  0
BLOCK
  5
1E6
330
1E5
100
AcDbEntity
  8
0
370
    30
100
AcDbBlockBegin
  2
*D9
 70
     1
 10
0.0
 20
0.0
 30
0.0
  3
*D9
  1
*D10
  0
LINE
  5
1E7
330
1E5
100
AcDbEntity
  8
文字
 62
     0
370
    -2
100
AcDbLine
 10
159.2140387579338
 20
59.9948321646927
 30
0.0
 11
159.2140387579338
 21
125.6623572581299
 31
0.0
  0
LINE
  5
1E8
330
1E5
100
AcDbEntity
  8
文字
 62
     0
370
    -2
100
AcDbLine
 10
178.2140387579338
 20
78.75227712177588
 30
0.0
 11
178.2140387579338
 21
125.6623572581299
 31
0.0
  0
LINE
  5
1E9
330
1E5
100
AcDbEntity
  8
文字
 62
     0
370
    -2
100
AcDbLine
 10
161.7140387579338
 20
124.4123572581299
 30
0.0
 11
175.7140387579338
 21
124.4123572581299
 31
0.0
  0
SOLID
  5
1EA
330
1E5
100
AcDbEntity
  8
文字
 62
     0
100
AcDbTrace
 10
161.7140387579338
 20
124.8290239247966
 30
0.0
 11
161.7140387579338
 21
123.9956905914633
 31
0.0
 12
159.2140387579338
 22
124.4123572581299
 32
0.0
 13
159.2140387579338
 23
124.4123572581299
 33
0.0
  0
SOLID
  5
1EB
330
1E5
100
AcDbEntity
  8
文字
 62
     0
100
AcDbTrace
 10
175.7140387579338
 20
123.9956905914633
 30
0.0
 11
175.7140387579338
 21
124.8290239247966
 31
0.0
 12
178.2140387579338
 22
124.4123572581299
 32
0.0
 13
178.2140387579338
 23
124.4123572581299
 33
0.0
  0
MTEXT
  5
1EC
330
1E5
100
AcDbEntity
  8
文字
 62
     0
370
    30
100
AcDbMText
 10
168.7140387579338
 20
126.5680530289348
 30
0.0
 40
3.0
 41
0.0
 46
0.0
 71
     5
 72
     1
  1
19
 73
     1
 44
1.0
  0
POINT
  5
1ED
330
1E5
100
AcDbEntity
  8
Defpoints
 62
     0
100
AcDbPoint
 10
159.2140387579338
 20
59.3698321646927
 30
0.0
  0
POINT
  5
1EE
330
1E5
100
AcDbEntity
  8
Defpoints
 62
     0
100
AcDbPoint
 10
178.2140387579338
 20
78.12727712177588
 30
0.0
  0
POINT
  5
1EF
330
1E5
100
AcDbEntity
  8
Defpoints
 62
     0
100
AcDbPoint
 10
178.2140387579338
 20
124.4123572581299
 30
0.0
  0
ENDBLK
  5
1F0
330
1E5
100
AcDbEntity
  8
0
370
    30
100
AcDbBlockEnd
  0
BLOCK
  5
1F5
330
1F4
100
AcDbEntity
  8
0
370
    30
100
AcDbBlockBegin
  2
*D10
 70
     1
 10
0.0
 20
0.0
 30
0.0
  3
*D10
  1
*D11
  0
LINE
  5
1F6
330
1F4
100
AcDbEntity
  8
文字
 62
     0
370
    -2
100
AcDbLine
 10
159.2140387579338
 20
59.9948321646927
 30
0.0
 11
159.2140387579338
 21
133.5944277982862
 31
0.0
  0
LINE
  5
1F7
330
1F4
100
AcDbEntity
  8
文字
 62
     0
370
    -2
100
AcDbLine
 10
181.2140387579338
 20
77.45913765406252
 30
0.0
 11
181.2140387579338
 21
133.5944277982862
 31
0.0
  0
LINE
  5
1F8
330
1F4
100
AcDbEntity
  8
文字
 62
     0
370
    -2
100
AcDbLine
 10
161.7140387579338
 20
132.3444277982862
 30
0.0
 11
178.7140387579338
 21
132.3444277982862
 31
0.0
  0
SOLID
  5
1F9
330
1F4
100
AcDbEntity
  8
文字
 62
     0
100
AcDbTrace
 10
161.7140387579338
 20
132.7610944649529
 30
0.0
 11
161.7140387579338
 21
131.9277611316196
 31
0.0
 12
159.2140387579338
 22
132.3444277982862
 32
0.0
 13
159.2140387579338
 23
132.3444277982862
 33
0.0
  0
SOLID
  5
1FA
330
1F4
100
AcDbEntity
  8
文字
 62
     0
100
AcDbTrace
 10
178.7140387579338
 20
131.9277611316196
 30
0.0
 11
178.7140387579338
 21
132.7610944649529
 31
0.0
 12
181.2140387579338
 22
132.3444277982862
 32
0.0
 13
181.2140387579338
 23
132.3444277982862
 33
0.0
  0
MTEXT
  5
1FB
330
1F4
100
AcDbEntity
  8
文字
 62
     0
370
    30
100
AcDbMText
 10
170.2140387579338
 20
134.4755669524472
 30
0.0
 40
3.0
 41
0.0
 46
0.0
 71
     5
 72
     1
  1
22
 73
     1
 44
1.0
  0
POINT
  5
1FC
330
1F4
100
AcDbEntity
  8
Defpoints
 62
     0
100
AcDbPoint
 10
159.2140387579338
 20
59.3698321646927
 30
0.0
  0
POINT
  5
1FD
330
1F4
100
AcDbEntity
  8
Defpoints
 62
     0
100
AcDbPoint
 10
181.2140387579338
 20
76.83413765406252
 30
0.0
  0
POINT
  5
1FE
330
1F4
100
AcDbEntity
  8
Defpoints
 62
     0
100
AcDbPoint
 10
181.2140387579338
 20
132.3444277982862
 30
0.0
  0
ENDBLK
  5
1FF
330
1F4
100
AcDbEntity
  8
0
370
    30
100
AcDbBlockEnd
  0
BLOCK
  5
242
330
241
100
AcDbEntity
  8
0
100
AcDbBlockBegin
  2
*D11
 70
     1
 10
0.0
 20
0.0
 30
0.0
  3
*D11
  1
*D12
  0
LINE
  5
244
330
241
100
AcDbEntity
  8
文字
 62
     0
370
    -2
100
AcDbLine
 10
55.21031665779395
 20
124.7774878286487
 30
0.0
 11
55.21031665779395
 21
153.7300574806353
 31
0.0
  0
LINE
  5
245
330
241
100
AcDbEntity
  8
文字
 62
     0
370
    -2
100
AcDbLine
 10
105.210316657794
 20
124.7774878286487
 30
0.0
 11
105.210316657794
 21
153.7300574806353
 31
0.0
  0
LINE
  5
246
330
241
100
AcDbEntity
  8
文字
 62
     0
370
    -2
100
AcDbLine
 10
57.71031665779395
 20
152.4800574806353
 30
0.0
 11
102.710316657794
 21
152.4800574806353
 31
0.0
  0
SOLID
  5
247
330
241
100
AcDbEntity
  8
文字
 62
     0
100
AcDbTrace
 10
57.71031665779395
 20
152.896724147302
 30
0.0
 11
57.71031665779395
 21
152.0633908139687
 31
0.0
 12
55.21031665779395
 22
152.4800574806353
 32
0.0
 13
55.21031665779395
 23
152.4800574806353
 33
0.0
  0
SOLID
  5
248
330
241
100
AcDbEntity
  8
文字
 62
     0
100
AcDbTrace
 10
102.710316657794
 20
152.0633908139687
 30
0.0
 11
102.710316657794
 21
152.896724147302
 31
0.0
 12
105.210316657794
 22
152.4800574806353
 32
0.0
 13
105.210316657794
 23
152.4800574806353
 33
0.0
  0
MTEXT
  5
249
330
241
100
AcDbEntity
  8
文字
 62
     0
370
    30
100
AcDbMText
 10
80.21031665779398
 20
154.6365574806353
 30
0.0
 40
3.0
 41
0.0
 46
0.0
 71
     5
 72
     1
  1
50
 73
     1
 44
1.0
  0
POINT
  5
24A
330
241
100
AcDbEntity
  8
Defpoints
 62
     0
100
AcDbPoint
 10
55.21031665779395
 20
124.1524878286487
 30
0.0
  0
POINT
  5
24B
330
241
100
AcDbEntity
  8
Defpoints
 62
     0
100
AcDbPoint
 10
105.210316657794
 20
124.1524878286487
 30
0.0
  0
POINT
  5
24C
330
241
100
AcDbEntity
  8
Defpoints
 62
     0
100
AcDbPoint
 10
105.210316657794
 20
152.4800574806353
 30
0.0
  0
ENDBLK
  5
243
330
241
100
AcDbEntity
  8
0
100
AcDbBlockEnd
  0
BLOCK
  5
24E
330
24D
100
AcDbEntity
  8
0
100
AcDbBlockBegin
  2
*D12
 70
     1
 10
0.0
 20
0.0
 30
0.0
  3
*D12
  1
*D13
  0
LINE
  5
250
330
24D
100
AcDbEntity
  8
文字
 62
     0
370
    -2
100
AcDbLine
 10
69.58531665779395
 20
139.1524878286486
 30
0.0
 11
28.37127789986011
 21
139.1524878286486
 31
0.0
  0
LINE
  5
251
330
24D
100
AcDbEntity
  8
文字
 62
     0
370
    -2
100
AcDbLine
 10
64.58531665779395
 20
42.15248782864869
 30
0.0
 11
28.3712778998601
 21
42.15248782864869
 31
0.0
  0
LINE
  5
252
330
24D
100
AcDbEntity
  8
文字
 62
     0
370
    -2
100
AcDbLine
 10
29.62127789986011
 20
136.6524878286486
 30
0.0
 11
29.6212778998601
 21
44.65248782864869
 31
0.0
  0
SOLID
  5
253
330
24D
100
AcDbEntity
  8
文字
 62
     0
100
AcDbTrace
 10
30.03794456652678
 20
136.6524878286486
 30
0.0
 11
29.20461123319344
 21
136.6524878286486
 31
0.0
 12
29.62127789986011
 22
139.1524878286486
 32
0.0
 13
29.62127789986011
 23
139.1524878286486
 33
0.0
  0
SOLID
  5
254
330
24D
100
AcDbEntity
  8
文字
 62
     0
100
AcDbTrace
 10
29.20461123319343
 20
44.65248782864869
 30
0.0
 11
30.03794456652677
 21
44.65248782864869
 31
0.0
 12
29.6212778998601
 22
42.15248782864869
 32
0.0
 13
29.6212778998601
 23
42.15248782864869
 33
0.0
  0
MTEXT
  5
255
330
24D
100
AcDbEntity
  8
文字
 62
     0
370
    30
100
AcDbMText
 10
27.46477789986011
 20
90.65248782864865
 30
0.0
 40
3.0
 41
0.0
 46
0.0
 71
     5
 72
     1
  1
97
 11
7.325182842887638E-17
 21
1.0
 31
0.0
 73
     1
 44
1.0
  0
POINT
  5
256
330
24D
100
AcDbEntity
  8
Defpoints
 62
     0
100
AcDbPoint
 10
70.21031665779395
 20
139.1524878286486
 30
0.0
  0
POINT
  5
257
330
24D
100
AcDbEntity
  8
Defpoints
 62
     0
100
AcDbPoint
 10
65.21031665779395
 20
42.15248782864869
 30
0.0
  0
POINT
  5
258
330
24D
100
AcDbEntity
  8
Defpoints
 62
     0
100
AcDbPoint
 10
29.6212778998601
 20
42.15248782864869
 30
0.0
  0
ENDBLK
  5
24F
330
24D
100
AcDbEntity
  8
0
100
AcDbBlockEnd
  0
BLOCK
  5
25A
330
259
100
AcDbEntity
  8
0
100
AcDbBlockBegin
  2
*D13
 70
     1
 10
0.0
 20
0.0
 30
0.0
  3
*D13
  1
*D14
  0
LINE
  5
25C
330
259
100
AcDbEntity
  8
文字
 62
     0
370
    -2
100
AcDbLine
 10
79.58531665779395
 20
139.1524878286487
 30
0.0
 11
41.98653674293946
 21
139.1524878286487
 31
0.0
  0
LINE
  5
25D
330
259
100
AcDbEntity
  8
文字
 62
     0
370
    -2
100
AcDbLine
 10
79.58531665779395
 20
119.1524878286487
 30
0.0
 11
41.98653674293946
 21
119.1524878286487
 31
0.0
  0
LINE
  5
25E
330
259
100
AcDbEntity
  8
文字
 62
     0
370
    -2
100
AcDbLine
 10
43.23653674293946
 20
136.6524878286487
 30
0.0
 11
43.23653674293946
 21
121.6524878286487
 31
0.0
  0
SOLID
  5
25F
330
259
100
AcDbEntity
  8
文字
 62
     0
100
AcDbTrace
 10
43.65320340960612
 20
136.6524878286487
 30
0.0
 11
42.81987007627279
 21
136.6524878286487
 31
0.0
 12
43.23653674293946
 22
139.1524878286487
 32
0.0
 13
43.23653674293946
 23
139.1524878286487
 33
0.0
  0
SOLID
  5
260
330
259
100
AcDbEntity
  8
文字
 62
     0
100
AcDbTrace
 10
42.81987007627279
 20
121.6524878286487
 30
0.0
 11
43.65320340960612
 21
121.6524878286487
 31
0.0
 12
43.23653674293946
 22
119.1524878286487
 32
0.0
 13
43.23653674293946
 23
119.1524878286487
 33
0.0
  0
MTEXT
  5
261
330
259
100
AcDbEntity
  8
文字
 62
     0
370
    30
100
AcDbMText
 10
41.08003674293946
 20
129.1524878286487
 30
0.0
 40
3.0
 41
0.0
 46
0.0
 71
     5
 72
     1
  1
20
 11
0.0
 21
1.0
 31
0.0
 73
     1
 44
1.0
  0
POINT
  5
262
330
259
100
AcDbEntity
  8
Defpoints
 62
     0
100
AcDbPoint
 10
80.21031665779395
 20
139.1524878286487
 30
0.0
  0
POINT
  5
263
330
259
100
AcDbEntity
  8
Defpoints
 62
     0
100
AcDbPoint
 10
80.21031665779395
 20
119.1524878286487
 30
0.0
  0
POINT
  5
264
330
259
100
AcDbEntity
  8
Defpoints
 62
     0
100
AcDbPoint
 10
43.23653674293946
 20
119.1524878286487
 30
0.0
  0
ENDBLK
  5
25B
330
259
100
AcDbEntity
  8
0
100
AcDbBlockEnd
  0
BLOCK
  5
266
330
265
100
AcDbEntity
  8
0
100
AcDbBlockBegin
  2
*D14
 70
     1
 10
0.0
 20
0.0
 30
0.0
  3
*D14
  1
*D15
  0
LINE
  5
268
330
265
100
AcDbEntity
  8
文字
 62
     0
370
    -2
100
AcDbLine
 10
79.58531665779395
 20
57.1524878286487
 30
0.0
 11
42.87448829387898
 21
57.1524878286487
 31
0.0
  0
LINE
  5
269
330
265
100
AcDbEntity
  8
文字
 62
     0
370
    -2
100
AcDbLine
 10
64.58531665779395
 20
42.15248782864869
 30
0.0
 11
42.87448829387898
 21
42.15248782864869
 31
0.0
  0
LINE
  5
26A
330
265
100
AcDbEntity
  8
文字
 62
     0
370
    -2
100
AcDbLine
 10
44.12448829387898
 20
54.6524878286487
 30
0.0
 11
44.12448829387898
 21
44.65248782864869
 31
0.0
  0
SOLID
  5
26B
330
265
100
AcDbEntity
  8
文字
 62
     0
100
AcDbTrace
 10
44.54115496054565
 20
54.6524878286487
 30
0.0
 11
43.70782162721232
 21
54.6524878286487
 31
0.0
 12
44.12448829387898
 22
57.1524878286487
 32
0.0
 13
44.12448829387898
 23
57.1524878286487
 33
0.0
  0
SOLID
  5
26C
330
265
100
AcDbEntity
  8
文字
 62
     0
100
AcDbTrace
 10
43.70782162721232
 20
44.65248782864869
 30
0.0
 11
44.54115496054565
 21
44.65248782864869
 31
0.0
 12
44.12448829387898
 22
42.15248782864869
 32
0.0
 13
44.12448829387898
 23
42.15248782864869
 33
0.0
  0
MTEXT
  5
26D
330
265
100
AcDbEntity
  8
文字
 62
     0
370
    30
100
AcDbMText
 10
41.96798829387898
 20
49.6524878286487
 30
0.0
 40
3.0
 41
0.0
 46
0.0
 71
     5
 72
     1
  1
15
 11
0.0
 21
1.0
 31
0.0
 73
     1
 44
1.0
  0
POINT
  5
26E
330
265
100
AcDbEntity
  8
Defpoints
 62
     0
100
AcDbPoint
 10
80.21031665779395
 20
57.1524878286487
 30
0.0
  0
POINT
  5
26F
330
265
100
AcDbEntity
  8
Defpoints
 62
     0
100
AcDbPoint
 10
65.21031665779395
 20
42.15248782864869
 30
0.0
  0
POINT
  5
270
330
265
100
AcDbEntity
  8
Defpoints
 62
     0
100
AcDbPoint
 10
44.12448829387898
 20
42.15248782864869
 30
0.0
  0
ENDBLK
  5
267
330
265
100
AcDbEntity
  8
0
100
AcDbBlockEnd
  0
BLOCK
  5
272
330
271
100
AcDbEntity
  8
0
100
AcDbBlockBegin
  2
*D15
 70
     1
 10
0.0
 20
0.0
 30
0.0
  3
*D15
  1
*D16
  0
LINE
  5
274
330
271
100
AcDbEntity
  8
文字
 62
     0
370
    -2
100
AcDbLine
 10
203.5300249827641
 20
138.5650843636671
 30
0.0
 11
172.2443209865473
 21
138.5650843636671
 31
0.0
  0
LINE
  5
275
330
271
100
AcDbEntity
  8
文字
 62
     0
370
    -2
100
AcDbLine
 10
202.9585637237214
 20
98.56055450202463
 30
0.0
 11
172.2443209865473
 21
98.56055450202463
 31
0.0
  0
LINE
  5
276
330
271
100
AcDbEntity
  8
文字
 62
     0
370
    -2
100
AcDbLine
 10
173.4943209865473
 20
136.0650843636671
 30
0.0
 11
173.4943209865473
 21
101.0605545020246
 31
0.0
  0
SOLID
  5
277
330
271
100
AcDbEntity
  8
文字
 62
     0
100
AcDbTrace
 10
173.910987653214
 20
136.0650843636671
 30
0.0
 11
173.0776543198807
 21
136.0650843636671
 31
0.0
 12
173.4943209865473
 22
138.5650843636671
 32
0.0
 13
173.4943209865473
 23
138.5650843636671
 33
0.0
  0
SOLID
  5
278
330
271
100
AcDbEntity
  8
文字
 62
     0
100
AcDbTrace
 10
173.0776543198807
 20
101.0605545020246
 30
0.0
 11
173.910987653214
 21
101.0605545020246
 31
0.0
 12
173.4943209865473
 22
98.56055450202463
 32
0.0
 13
173.4943209865473
 23
98.56055450202463
 33
0.0
  0
MTEXT
  5
279
330
271
100
AcDbEntity
  8
文字
 62
     0
370
    30
100
AcDbMText
 10
171.3378209865473
 20
118.5628194328459
 30
0.0
 40
3.0
 41
0.0
 46
0.0
 71
     5
 72
     1
  1
40
 11
0.0
 21
1.0
 31
0.0
 73
     1
 44
1.0
  0
POINT
  5
27A
330
271
100
AcDbEntity
  8
Defpoints
 62
     0
100
AcDbPoint
 10
204.1550249827641
 20
138.5650843636671
 30
0.0
  0
POINT
  5
27B
330
271
100
AcDbEntity
  8
Defpoints
 62
     0
100
AcDbPoint
 10
203.5835637237214
 20
98.56055450202463
 30
0.0
  0
POINT
  5
27C
330
271
100
AcDbEntity
  8
Defpoints
 62
     0
100
AcDbPoint
 10
173.4943209865473
 20
98.56055450202463
 30
0.0
  0
ENDBLK
  5
273
330
271
100
AcDbEntity
  8
0
100
AcDbBlockEnd
  0
BLOCK
  5
27E
330
27D
100
AcDbEntity
  8
0
100
AcDbBlockBegin
  2
*D16
 70
     1
 10
0.0
 20
0.0
 30
0.0
  3
*D16
  1
*D17
  0
LINE
  5
280
330
27D
100
AcDbEntity
  8
文字
 62
     0
370
    -2
100
AcDbLine
 10
204.210316657794
 20
139.7774878286487
 30
0.0
 11
204.210316657794
 21
147.7579942768116
 31
0.0
  0
LINE
  5
281
330
27D
100
AcDbEntity
  8
文字
 62
     0
370
    -2
100
AcDbLine
 10
207.210316657794
 20
139.7774878286487
 30
0.0
 11
207.210316657794
 21
147.7579942768116
 31
0.0
  0
LINE
  5
282
330
27D
100
AcDbEntity
  8
文字
 62
     0
370
    -2
100
AcDbLine
 10
209.710316657794
 20
146.5079942768116
 30
0.0
 11
215.422316657794
 21
146.5079942768116
 31
0.0
  0
LINE
  5
283
330
27D
100
AcDbEntity
  8
文字
 62
     0
370
    -2
100
AcDbLine
 10
204.210316657794
 20
146.5079942768116
 30
0.0
 11
207.210316657794
 21
146.5079942768116
 31
0.0
  0
LINE
  5
284
330
27D
100
AcDbEntity
  8
文字
 62
     0
370
    -2
100
AcDbLine
 10
201.710316657794
 20
146.5079942768116
 30
0.0
 11
199.210316657794
 21
146.5079942768116
 31
0.0
  0
SOLID
  5
285
330
27D
100
AcDbEntity
  8
文字
 62
     0
100
AcDbTrace
 10
201.710316657794
 20
146.0913276101449
 30
0.0
 11
201.710316657794
 21
146.9246609434782
 31
0.0
 12
204.210316657794
 22
146.5079942768116
 32
0.0
 13
204.210316657794
 23
146.5079942768116
 33
0.0
  0
SOLID
  5
286
330
27D
100
AcDbEntity
  8
文字
 62
     0
100
AcDbTrace
 10
209.710316657794
 20
146.9246609434782
 30
0.0
 11
209.710316657794
 21
146.0913276101449
 31
0.0
 12
207.210316657794
 22
146.5079942768116
 32
0.0
 13
207.210316657794
 23
146.5079942768116
 33
0.0
  0
MTEXT
  5
287
330
27D
100
AcDbEntity
  8
文字
 62
     0
370
    30
100
AcDbMText
 10
213.816316657794
 20
148.6644942768116
 30
0.0
 40
3.0
 41
0.0
 46
0.0
 71
     5
 72
     1
  1
3
 73
     1
 44
1.0
  0
POINT
  5
288
330
27D
100
AcDbEntity
  8
Defpoints
 62
     0
100
AcDbPoint
 10
204.210316657794
 20
139.1524878286487
 30
0.0
  0
POINT
  5
289
330
27D
100
AcDbEntity
  8
Defpoints
 62
     0
100
AcDbPoint
 10
207.210316657794
 20
139.1524878286487
 30
0.0
  0
POINT
  5
28A
330
27D
100
AcDbEntity
  8
Defpoints
 62
     0
100
AcDbPoint
 10
207.210316657794
 20
146.5079942768116
 30
0.0
  0
ENDBLK
  5
27F
330
27D
100
AcDbEntity
  8
0
100
AcDbBlockEnd
  0
BLOCK
  5
28C
330
28B
100
AcDbEntity
  8
0
100
AcDbBlockBegin
  2
*D17
 70
     1
 10
0.0
 20
0.0
 30
0.0
  3
*D17
  1
*D18
  0
LINE
  5
28E
330
28B
100
AcDbEntity
  8
文字
 62
     0
370
    -2
100
AcDbLine
 10
96.8636228115197
 20
62.52997740560558
 30
0.0
 11
132.3816648333529
 21
73.99904540947425
 31
0.0
  0
MTEXT
  5
28F
330
28B
100
AcDbEntity
  8
文字
 62
     0
370
    30
100
AcDbMText
 10
127.7069851181063
 20
74.75569447599192
 30
0.0
 40
3.0
 41
0.0
 46
0.0
 71
     5
 72
     1
  1
R15
 11
0.9516174944986142
 21
0.307285118683252
 31
0.0
 73
     1
 44
1.0
  0
LINE
  5
290
330
28B
100
AcDbEntity
  8
文字
 62
     0
370
    -2
100
AcDbLine
 10
80.21031665779392
 20
57.15248782864866
 30
0.0
 11
94.48457907527317
 21
61.76176460889745
 31
0.0
  0
SOLID
  5
291
330
28B
100
AcDbEntity
  8
文字
 62
     0
100
AcDbTrace
 10
96.73558734540168
 20
62.92648469498
 30
0.0
 11
96.99165827763773
 21
62.13347011623116
 31
0.0
 12
94.48457907527317
 22
61.76176460889745
 32
0.0
 13
94.48457907527317
 23
61.76176460889745
 33
0.0
  0
POINT
  5
292
330
28B
100
AcDbEntity
  8
Defpoints
 62
     0
100
AcDbPoint
 10
94.48457907527317
 20
61.76176460889745
 30
0.0
  0
POINT
  5
293
330
28B
100
AcDbEntity
  8
Defpoints
 62
     0
100
AcDbPoint
 10
80.21031665779392
 20
57.15248782864866
 30
0.0
  0
ENDBLK
  5
28D
330
28B
100
AcDbEntity
  8
0
100
AcDbBlockEnd
  0
BLOCK
  5
295
330
294
100
AcDbEntity
  8
0
100
AcDbBlockBegin
  2
*D18
 70
     1
 10
0.0
 20
0.0
 30
0.0
  3
*D18
  1
*D19
  0
LINE
  5
297
330
294
100
AcDbEntity
  8
文字
 62
     0
370
    -2
100
AcDbLine
 10
89.3127164774408
 20
121.8721049934887
 30
0.0
 11
135.2084723072805
 21
135.5848497444638
 31
0.0
  0
LINE
  5
298
330
294
100
AcDbEntity
  8
文字
 62
     0
370
    -2
100
AcDbLine
 10
71.10791683814708
 20
116.4328706638086
 30
0.0
 11
68.7125484645558
 21
115.7171819362191
 31
0.0
  0
MTEXT
  5
299
330
294
100
AcDbEntity
  8
文字
 62
     0
370
    30
100
AcDbMText
 10
130.7430709365998
 20
136.55773249625
 30
0.0
 40
3.0
 41
0.0
 46
0.0
 71
     5
 72
     1
  1
%%c14
 11
0.958147349436513
 21
0.2862754910357934
 31
0.0
 73
     1
 44
1.0
  0
LINE
  5
29A
330
294
100
AcDbEntity
  8
文字
 62
     0
370
    -2
100
AcDbLine
 10
73.50328521173836
 20
117.1485593913981
 30
0.0
 11
86.91734810384952
 21
121.1564162658992
 31
0.0
  0
SOLID
  5
29B
330
294
100
AcDbEntity
  8
文字
 62
     0
100
AcDbTrace
 10
71.22719829274533
 20
116.0336426015434
 30
0.0
 11
70.98863538354883
 21
116.8320987260738
 31
0.0
 12
73.50328521173836
 22
117.1485593913981
 32
0.0
 13
73.50328521173836
 23
117.1485593913981
 33
0.0
  0
SOLID
  5
29C
330
294
100
AcDbEntity
  8
文字
 62
     0
100
AcDbTrace
 10
89.19343502284255
 20
122.2713330557539
 30
0.0
 11
89.43199793203905
 21
121.4728769312235
 31
0.0
 12
86.91734810384952
 22
121.1564162658992
 32
0.0
 13
86.91734810384952
 23
121.1564162658992
 33
0.0
  0
POINT
  5
29D
330
294
100
AcDbEntity
  8
Defpoints
 62
     0
100
AcDbPoint
 10
86.91734810384952
 20
121.1564162658992
 30
0.0
  0
POINT
  5
29E
330
294
100
AcDbEntity
  8
Defpoints
 62
     0
100
AcDbPoint
 10
73.50328521173836
 20
117.1485593913981
 30
0.0
  0
ENDBLK
  5
296
330
294
100
AcDbEntity
  8
0
100
AcDbBlockEnd
  0
BLOCK
  5
2A0
330
29F
100
AcDbEntity
  8
0
100
AcDbBlockBegin
  2
*D19
 70
     1
 10
0.0
 20
0.0
 30
0.0
  3
*D19
  1
*D20
  0
LINE
  5
2A2
330
29F
100
AcDbEntity
  8
文字
 62
     0
370
    -2
100
AcDbLine
 10
185.210316657794
 20
81.88213585004108
 30
0.0
 11
185.210316657794
 21
147.5496609434783
 31
0.0
  0
LINE
  5
2A3
330
29F
100
AcDbEntity
  8
文字
 62
     0
370
    -2
100
AcDbLine
 10
204.210316657794
 20
100.6395808071243
 30
0.0
 11
204.210316657794
 21
147.5496609434783
 31
0.0
  0
LINE
  5
2A4
330
29F
100
AcDbEntity
  8
文字
 62
     0
370
    -2
100
AcDbLine
 10
187.710316657794
 20
146.2996609434783
 30
0.0
 11
201.710316657794
 21
146.2996609434783
 31
0.0
  0
SOLID
  5
2A5
330
29F
100
AcDbEntity
  8
文字
 62
     0
100
AcDbTrace
 10
187.710316657794
 20
146.716327610145
 30
0.0
 11
187.710316657794
 21
145.8829942768116
 31
0.0
 12
185.210316657794
 22
146.2996609434783
 32
0.0
 13
185.210316657794
 23
146.2996609434783
 33
0.0
  0
SOLID
  5
2A6
330
29F
100
AcDbEntity
  8
文字
 62
     0
100
AcDbTrace
 10
201.710316657794
 20
145.8829942768116
 30
0.0
 11
201.710316657794
 21
146.716327610145
 31
0.0
 12
204.210316657794
 22
146.2996609434783
 32
0.0
 13
204.210316657794
 23
146.2996609434783
 33
0.0
  0
MTEXT
  5
2A7
330
29F
100
AcDbEntity
  8
文字
 62
     0
370
    30
100
AcDbMText
 10
194.710316657794
 20
148.4561609434783
 30
0.0
 40
3.0
 41
0.0
 46
0.0
 71
     5
 72
     1
  1
19
 73
     1
 44
1.0
  0
POINT
  5
2A8
330
29F
100
AcDbEntity
  8
Defpoints
 62
     0
100
AcDbPoint
 10
185.210316657794
 20
81.25713585004108
 30
0.0
  0
POINT
  5
2A9
330
29F
100
AcDbEntity
  8
Defpoints
 62
     0
100
AcDbPoint
 10
204.210316657794
 20
100.0145808071243
 30
0.0
  0
POINT
  5
2AA
330
29F
100
AcDbEntity
  8
Defpoints
 62
     0
100
AcDbPoint
 10
204.210316657794
 20
146.2996609434783
 30
0.0
  0
ENDBLK
  5
2A1
330
29F
100
AcDbEntity
  8
0
100
AcDbBlockEnd
  0
BLOCK
  5
2AC
330
2AB
100
AcDbEntity
  8
0
100
AcDbBlockBegin
  2
*D20
 70
     1
 10
0.0
 20
0.0
 30
0.0
  3
*D20
  1
*D21
  0
LINE
  5
2AE
330
2AB
100
AcDbEntity
  8
文字
 62
     0
370
    -2
100
AcDbLine
 10
185.210316657794
 20
81.88213585004108
 30
0.0
 11
185.210316657794
 21
155.4817314836346
 31
0.0
  0
LINE
  5
2AF
330
2AB
100
AcDbEntity
  8
文字
 62
     0
370
    -2
100
AcDbLine
 10
207.210316657794
 20
99.3464413394109
 30
0.0
 11
207.210316657794
 21
155.4817314836346
 31
0.0
  0
LINE
  5
2B0
330
2AB
100
AcDbEntity
  8
文字
 62
     0
370
    -2
100
AcDbLine
 10
187.710316657794
 20
154.2317314836346
 30
0.0
 11
204.710316657794
 21
154.2317314836346
 31
0.0
  0
SOLID
  5
2B1
330
2AB
100
AcDbEntity
  8
文字
 62
     0
100
AcDbTrace
 10
187.710316657794
 20
154.6483981503013
 30
0.0
 11
187.710316657794
 21
153.8150648169679
 31
0.0
 12
185.210316657794
 22
154.2317314836346
 32
0.0
 13
185.210316657794
 23
154.2317314836346
 33
0.0
  0
SOLID
  5
2B2
330
2AB
100
AcDbEntity
  8
文字
 62
     0
100
AcDbTrace
 10
204.710316657794
 20
153.8150648169679
 30
0.0
 11
204.710316657794
 21
154.6483981503013
 31
0.0
 12
207.210316657794
 22
154.2317314836346
 32
0.0
 13
207.210316657794
 23
154.2317314836346
 33
0.0
  0
MTEXT
  5
2B3
330
2AB
100
AcDbEntity
  8
文字
 62
     0
370
    30
100
AcDbMText
 10
196.210316657794
 20
156.3627314836346
 30
0.0
 40
3.0
 41
0.0
 46
0.0
 71
     5
 72
     1
  1
22
 73
     1
 44
1.0
  0
POINT
  5
2B4
330
2AB
100
AcDbEntity
  8
Defpoints
 62
     0
100
AcDbPoint
 10
185.210316657794
 20
81.25713585004108
 30
0.0
  0
POINT
  5
2B5
330
2AB
100
AcDbEntity
  8
Defpoints
 62
     0
100
AcDbPoint
 10
207.210316657794
 20
98.7214413394109
 30
0.0
  0
POINT
  5
2B6
330
2AB
100
AcDbEntity
  8
Defpoints
 62
     0
100
AcDbPoint
 10
207.210316657794
 20
154.2317314836346
 30
0.0
  0
ENDBLK
  5
2AD
330
2AB
100
AcDbEntity
  8
0
100
AcDbBlockEnd
  0
BLOCK
  5
2E1
330
2E0
100
AcDbEntity
  8
0
100
AcDbBlockBegin
  2
*D21
 70
     1
 10
0.0
 20
0.0
 30
0.0
  3
*D21
  1
*D16
  0
LINE
  5
2E2
330
2E0
100
AcDbEntity
  8
文字
 62
     0
370
    -2
100
AcDbLine
 10
33.72370399621673
 20
40.00452986164247
 30
0.0
 11
2.437999999999962
 21
40.00452986164247
 31
0.0
  0
LINE
  5
2E3
330
2E0
100
AcDbEntity
  8
文字
 62
     0
370
    -2
100
AcDbLine
 10
33.15224273717405
 20
0.0
 30
0.0
 11
2.43799999999996
 21
0.0000000000000019
 31
0.0
  0
LINE
  5
2E4
330
2E0
100
AcDbEntity
  8
文字
 62
     0
370
    -2
100
AcDbLine
 10
3.687999999999962
 20
37.50452986164247
 30
0.0
 11
3.68799999999996
 21
2.500000000000002
 31
0.0
  0
SOLID
  5
2E5
330
2E0
100
AcDbEntity
  8
文字
 62
     0
100
AcDbTrace
 10
4.104666666666629
 20
37.50452986164247
 30
0.0
 11
3.271333333333296
 21
37.50452986164247
 31
0.0
 12
3.687999999999962
 22
40.00452986164247
 32
0.0
 13
3.687999999999962
 23
40.00452986164247
 33
0.0
  0
SOLID
  5
2E6
330
2E0
100
AcDbEntity
  8
文字
 62
     0
100
AcDbTrace
 10
3.271333333333293
 20
2.500000000000002
 30
0.0
 11
4.104666666666627
 21
2.500000000000002
 31
0.0
 12
3.68799999999996
 22
0.0000000000000018
 32
0.0
 13
3.68799999999996
 23
0.0000000000000018
 33
0.0
  0
MTEXT
  5
2E7
330
2E0
100
AcDbEntity
  8
文字
 62
     0
370
    30
100
AcDbMText
 10
1.53149999999996
 20
20.00226493082123
 30
0.0
 40
3.0
 41
0.0
 46
0.0
 71
     5
 72
     1
  1
40
 11
6.660583859667381E-17
 21
1.0
 31
0.0
 73
     1
 44
1.0
  0
POINT
  5
2E8
330
2E0
100
AcDbEntity
  8
Defpoints
 62
     0
100
AcDbPoint
 10
34.34870399621673
 20
40.00452986164247
 30
0.0
  0
POINT
  5
2E9
330
2E0
100
AcDbEntity
  8
Defpoints
 62
     0
100
AcDbPoint
 10
33.77724273717405
 20
0.0
 30
0.0
  0
POINT
  5
2EA
330
2E0
100
AcDbEntity
  8
Defpoints
 62
     0
100
AcDbPoint
 10
3.68799999999996
 20
0.0000000000000018
 30
0.0
  0
ENDBLK
  5
2EB
330
2E0
100
AcDbEntity
  8
0
100
AcDbBlockEnd
  0
BLOCK
  5
2F2
330
2F1
100
AcDbEntity
  8
0
100
AcDbBlockBegin
  2
*D22
 70
     1
 10
0.0
 20
0.0
 30
0.0
  3
*D22
  1
*D23
  0
LINE
  5
2F4
330
2F1
100
AcDbEntity
  8
文字
 62
     0
370
    -2
100
AcDbLine
 10
189.554544304386
 20
82.14587970531548
 30
0.0
 11
218.4069193523193
 21
82.14587970531548
 31
0.0
  0
LINE
  5
2F5
330
2F1
100
AcDbEntity
  8
文字
 62
     0
370
    -2
100
AcDbLine
 10
188.9830830453433
 20
42.14134984367301
 30
0.0
 11
218.4069193523193
 21
42.14134984367301
 31
0.0
  0
LINE
  5
2F6
330
2F1
100
AcDbEntity
  8
文字
 62
     0
370
    -2
100
AcDbLine
 10
217.1569193523193
 20
79.64587970531548
 30
0.0
 11
217.1569193523193
 21
44.64134984367301
 31
0.0
  0
SOLID
  5
2F7
330
2F1
100
AcDbEntity
  8
文字
 62
     0
100
AcDbTrace
 10
217.5735860189859
 20
79.64587970531548
 30
0.0
 11
216.7402526856526
 21
79.64587970531548
 31
0.0
 12
217.1569193523193
 22
82.14587970531548
 32
0.0
 13
217.1569193523193
 23
82.14587970531548
 33
0.0
  0
SOLID
  5
2F8
330
2F1
100
AcDbEntity
  8
文字
 62
     0
100
AcDbTrace
 10
216.7402526856526
 20
44.64134984367301
 30
0.0
 11
217.5735860189859
 21
44.64134984367301
 31
0.0
 12
217.1569193523193
 22
42.14134984367301
 32
0.0
 13
217.1569193523193
 23
42.14134984367301
 33
0.0
  0
MTEXT
  5
2F9
330
2F1
100
AcDbEntity
  8
文字
 62
     0
370
    30
100
AcDbMText
 10
215.0004193523193
 20
62.14361477449424
 30
0.0
 40
3.0
 41
0.0
 46
0.0
 71
     5
 72
     1
  1
40
 11
0.0
 21
1.0
 31
0.0
 73
     1
 44
1.0
  0
POINT
  5
2FA
330
2F1
100
AcDbEntity
  8
Defpoints
 62
     0
100
AcDbPoint
 10
188.929544304386
 20
82.14587970531548
 30
0.0
  0
POINT
  5
2FB
330
2F1
100
AcDbEntity
  8
Defpoints
 62
     0
100
AcDbPoint
 10
188.3580830453433
 20
42.14134984367301
 30
0.0
  0
POINT
  5
2FC
330
2F1
100
AcDbEntity
  8
Defpoints
 62
     0
100
AcDbPoint
 10
217.1569193523193
 20
42.14134984367301
 30
0.0
  0
ENDBLK
  5
2F3
330
2F1
100
AcDbEntity
  8
0
100
AcDbBlockEnd
  0
ENDSEC
  0
SECTION
  2
ENTITIES
  0
LWPOLYLINE
  5
203
102
{ACAD_REACTORS
330
212
330
215
330
218
102
}
330
1F
100
AcDbEntity
  8
実線
 62
     0
370
    30
100
AcDbPolyline
 90
       10
 70
     0
 43
0.0
 10
95.21031665779394
 20
42.15248782864869
 10
100.2103166577939
 20
42.15248782864869
 42
0.414213562373095
 10
105.2103166577939
 20
47.15248782864869
 10
105.210316657794
 20
124.1524878286487
 42
0.414213562373095
 10
90.21031665779395
 20
139.1524878286487
 10
70.21031665779394
 20
139.1524878286486
 42
0.4142135623730948
 10
55.21031665779395
 20
124.1524878286487
 10
55.21031665779395
 20
47.1524878286487
 42
0.414213562373095
 10
60.21031665779395
 20
42.1524878286487
 10
65.21031665779395
 20
42.15248782864869
  0
LINE
  5
204
330
1F
100
AcDbEntity
  8
中心線
 62
     0
370
    30
100
AcDbLine
 10
40.21031665779395
 20
119.1524878286487
 30
0.0
 11
228.2693828663947
 21
119.1524878286487
 31
0.0
  0
LINE
  5
205
330
1F
100
AcDbEntity
  8
中心線
 62
     0
370
    30
100
AcDbLine
 10
80.21031665779395
 20
149.1524878286487
 30
0.0
 11
80.21031665779392
 21
21.88730368534839
 31
0.0
  0
CIRCLE
  5
206
102
{ACAD_REACTORS
330
218
330
22B
102
}
330
1F
100
AcDbEntity
  8
実線
 62
     0
370
    30
100
AcDbCircle
 10
80.21031665779395
 20
119.1524878286487
 30
0.0
 40
7.0
  0
LINE
  5
207
330
1F
100
AcDbEntity
  8
破線
 62
     0
370
    30
100
AcDbLine
 10
105.210316657794
 20
99.15248782864869
 30
0.0
 11
55.21031665779395
 21
99.15248782864869
 31
0.0
  0
LINE
  5
208
330
1F
100
AcDbEntity
  8
破線
 62
     0
370
    30
100
AcDbLine
 10
55.21031665779392
 20
82.15248782864866
 30
0.0
 11
105.2103166577939
 21
82.15248782864866
 31
0.0
  0
LINE
  5
209
330
1F
100
AcDbEntity
  8
実線
 62
     0
370
    30
100
AcDbLine
 10
185.210316657794
 20
42.15248782864869
 30
0.0
 11
187.210316657794
 21
42.15248782864869
 31
0.0
  0
ARC
  5
20B
102
{ACAD_REACTORS
330
21B
330
228
102
}
330
1F
100
AcDbEntity
  8
実線
 62
     0
370
    30
100
AcDbCircle
 10
80.21031665779395
 20
57.1524878286487
 30
0.0
 40
15.0
100
AcDbArc
 50
359.9999999999998
 51
180.0
  0
LINE
  5
20C
102
{ACAD_REACTORS
330
215
330
21B
102
}
330
1F
100
AcDbEntity
  8
実線
 62
     0
370
    30
100
AcDbLine
 10
65.21031665779395
 20
57.1524878286487
 30
0.0
 11
65.21031665779395
 21
42.15248782864869
 31
0.0
  0
LINE
  5
20D
330
1F
100
AcDbEntity
  8
実線
 62
     0
370
    30
100
AcDbLine
 10
95.21031665779395
 20
57.1524878286487
 30
0.0
 11
95.21031665779394
 21
42.15248782864869
 31
0.0
  0
LINE
  5
20E
330
1F
100
AcDbEntity
  8
実線
 62
     0
370
    30
100
AcDbLine
 10
187.210316657794
 20
42.15248782864869
 30
0.0
 11
188.210316657794
 21
42.15248782864869
 31
0.0
  0
DIMENSION
  5
210
102
{ACAD_REACTORS
330
212
102
}
102
{ACAD_XDICTIONARY
360
211
102
}
330
1F
100
AcDbEntity
  8
文字
 62
     0
370
    30
100
AcDbDimension
280
     0
  2
*D11
 10
105.210316657794
 20
152.4800574806353
 30
0.0
 11
80.21031665779398
 21
154.6365574806353
 31
0.0
 70
    32
 71
     5
 42
50.00000000000004
 73
     0
 74
     0
 75
     0
  3
ISO-25
100
AcDbAlignedDimension
 13
55.21031665779395
 23
124.1524878286487
 33
0.0
 14
105.210316657794
 24
124.1524878286487
 34
0.0
100
AcDbRotatedDimension
  0
DIMENSION
  5
213
102
{ACAD_REACTORS
330
215
102
}
102
{ACAD_XDICTIONARY
360
214
102
}
330
1F
100
AcDbEntity
  8
文字
 62
     0
370
    30
100
AcDbDimension
280
     0
  2
*D12
 10
29.6212778998601
 20
42.15248782864869
 30
0.0
 11
27.46477789986011
 21
90.65248782864865
 31
0.0
 70
    32
 71
     5
 42
96.9999999999999
 73
     0
 74
     0
 75
     0
  3
ISO-25
100
AcDbAlignedDimension
 13
70.21031665779395
 23
139.1524878286486
 33
0.0
 14
65.21031665779395
 24
42.15248782864869
 34
0.0
 50
90.0
100
AcDbRotatedDimension
  0
DIMENSION
  5
216
102
{ACAD_REACTORS
330
218
102
}
102
{ACAD_XDICTIONARY
360
217
102
}
330
1F
100
AcDbEntity
  8
文字
 62
     0
370
    30
100
AcDbDimension
280
     0
  2
*D13
 10
43.23653674293946
 20
119.1524878286487
 30
0.0
 11
41.08003674293946
 21
129.1524878286487
 31
0.0
 70
    32
 71
     5
 42
20.0
 73
     0
 74
     0
 75
     0
  3
ISO-25
100
AcDbAlignedDimension
 13
80.21031665779395
 23
139.1524878286487
 33
0.0
 14
80.21031665779395
 24
119.1524878286487
 34
0.0
 50
90.0
100
AcDbRotatedDimension
  0
DIMENSION
  5
219
102
{ACAD_REACTORS
330
21B
102
}
102
{ACAD_XDICTIONARY
360
21A
102
}
330
1F
100
AcDbEntity
  8
文字
 62
     0
370
    30
100
AcDbDimension
280
     0
  2
*D14
 10
44.12448829387898
 20
42.15248782864869
 30
0.0
 11
41.96798829387898
 21
49.6524878286487
 31
0.0
 70
    32
 71
     5
 42
15.00000000000002
 73
     0
 74
     0
 75
     0
  3
ISO-25
100
AcDbAlignedDimension
 13
80.21031665779395
 23
57.1524878286487
 33
0.0
 14
65.21031665779395
 24
42.15248782864869
 34
0.0
 50
90.0
100
AcDbRotatedDimension
  0
LINE
  5
21C
102
{ACAD_REACTORS
330
225
102
}
330
1F
100
AcDbEntity
  8
実線
 62
     0
370
    30
100
AcDbLine
 10
204.210316657794
 20
139.1524878286487
 30
0.0
 11
204.210316657794
 21
100.0145808071243
 31
0.0
  0
LINE
  5
21D
102
{ACAD_REACTORS
330
225
102
}
330
1F
100
AcDbEntity
  8
実線
 62
     0
370
    30
100
AcDbLine
 10
207.210316657794
 20
139.1524878286487
 30
0.0
 11
207.210316657794
 21
98.7214413394109
 31
0.0
  0
ARC
  5
21E
102
{ACAD_REACTORS
330
240
102
}
330
1F
100
AcDbEntity
  8
実線
 62
     0
370
    30
100
AcDbCircle
 10
205.210316657794
 20
98.7214413394109
 30
0.0
 40
2.0
100
AcDbArc
 50
313.3634229583835
 51
0.0
  0
ARC
  5
21F
102
{ACAD_REACTORS
330
23D
102
}
330
1F
100
AcDbEntity
  8
実線
 62
     0
370
    30
100
AcDbCircle
 10
202.210316657794
 20
100.0145808071243
 30
0.0
 40
2.0
100
AcDbArc
 50
313.3634229583835
 51
0.0
  0
DIMENSION
  5
220
102
{ACAD_XDICTIONARY
360
221
102
}
330
1F
100
AcDbEntity
  8
文字
 62
     0
370
    30
100
AcDbDimension
280
     0
  2
*D15
 10
173.4943209865473
 20
98.56055450202463
 30
0.0
 11
171.3378209865473
 21
118.5628194328459
 31
0.0
 70
    32
 71
     5
 42
40.00452986164247
 73
     0
 74
     0
 75
     0
  3
ISO-25
100
AcDbAlignedDimension
 13
204.1550249827641
 23
138.5650843636671
 33
0.0
 14
203.5835637237214
 24
98.56055450202463
 34
0.0
 50
90.0
100
AcDbRotatedDimension
  0
DIMENSION
  5
223
102
{ACAD_REACTORS
330
225
102
}
102
{ACAD_XDICTIONARY
360
224
102
}
330
1F
100
AcDbEntity
  8
文字
 62
     0
370
    30
100
AcDbDimension
280
     0
  2
*D16
 10
207.210316657794
 20
146.5079942768116
 30
0.0
 11
213.816316657794
 21
148.6644942768116
 31
0.0
 70
    32
 71
     5
 42
3.0
 73
     0
 74
     0
 75
     0
  3
ISO-25
100
AcDbAlignedDimension
 13
204.210316657794
 23
139.1524878286487
 33
0.0
 14
207.210316657794
 24
139.1524878286487
 34
0.0
100
AcDbRotatedDimension
  0
DIMENSION
  5
226
102
{ACAD_REACTORS
330
228
102
}
102
{ACAD_XDICTIONARY
360
227
102
}
330
1F
100
AcDbEntity
  8
文字
 62
     0
370
    30
100
AcDbDimension
280
     0
  2
*D17
 10
80.21031665779392
 20
57.15248782864866
 30
0.0
 11
128.3696454765467
 21
72.70353134910566
 31
0.0
 70
   164
 71
     5
 42
15.00000000000004
 73
     0
 74
     0
 75
     0
  3
ISO-25
100
AcDbRadialDimension
 15
94.48457907527317
 25
61.76176460889745
 35
0.0
 40
0.0
1001
ACAD
1000
DSTYLE
1002
{
1070
   288
1070
     1
1002
}
  0
DIMENSION
  5
229
102
{ACAD_REACTORS
330
22B
102
}
102
{ACAD_XDICTIONARY
360
22A
102
}
330
1F
100
AcDbEntity
  8
文字
 62
     0
370
    30
100
AcDbDimension
280
     0
  2
*D18
 10
73.50328521173836
 20
117.1485593913981
 30
0.0
 11
131.3758829095345
 21
134.4397477803206
 31
0.0
 70
   163
 71
     5
 42
13.99999999999998
 73
     0
 74
     0
 75
     0
  3
ISO-25
100
AcDbDiametricDimension
 15
86.91734810384952
 25
121.1564162658992
 35
0.0
 40
0.0
1001
ACAD
1000
DSTYLE
1002
{
1070
   288
1070
     1
1002
}
  0
MTEXT
  5
22C
102
{ACAD_REACTORS
330
22D
102
}
330
1F
100
AcDbEntity
  8
文字
 62
     0
370
    30
100
AcDbMText
 10
124.3182757906088
 20
146.2274566552707
 30
0.0
 40
3.0
 41
0.0
 46
0.0
 71
     7
 72
     1
  1
2-{\fArial|b0|i0|c0|p32;R15}
 73
     1
 44
1.0
  0
LEADER
  5
22D
102
{ACAD_XDICTIONARY
360
22E
102
}
330
1F
100
AcDbEntity
  8
文字
 62
     0
370
    30
100
AcDbLeader
  3
ISO-25
 73
     0
 74
     0
 40
3.06343792633015
 41
11.12414733969986
 76
     3
 10
100.8169183755922
 20
134.7590895464469
 30
0.0
 10
119.5981811331962
 20
145.6024566552707
 30
0.0
 10
123.6932757906088
 20
145.6024566552707
 30
0.0
340
22C
1001
ACAD
1000
DSTYLE
1002
{
1070
   147
1040
0.625
1070
    77
1070
     1
1002
}
  0
MTEXT
  5
230
102
{ACAD_REACTORS
330
231
102
}
330
1F
100
AcDbEntity
  8
文字
 62
     0
370
    30
100
AcDbMText
 10
119.3078790317595
 20
32.61599920849271
 30
0.0
 40
3.0
 41
0.0
 46
0.0
 71
     7
 72
     1
  1
2-{\fArial|b0|i0|c0|p32;R5}
 73
     1
 44
1.0
  0
LEADER
  5
231
102
{ACAD_XDICTIONARY
360
232
102
}
330
1F
100
AcDbEntity
  8
文字
 62
     0
370
    30
100
AcDbLeader
  3
ISO-25
 73
     0
 74
     0
 40
3.06343792633015
 41
8.79331514324693
 76
     3
 10
103.7458505637267
 20
43.61695392271595
 30
0.0
 10
114.3405353815303
 20
31.99099920849271
 30
0.0
 10
118.6828790317595
 20
31.99099920849271
 30
0.0
340
230
1001
ACAD
1000
DSTYLE
1002
{
1070
   147
1040
0.625
1070
    77
1070
     1
1002
}
  0
LINE
  5
234
330
1F
100
AcDbEntity
  8
実線
 62
     0
370
    30
100
AcDbLine
 10
185.210316657794
 20
42.15248782864869
 30
0.0
 11
185.210316657794
 21
81.25713585004108
 31
0.0
  0
LINE
  5
235
330
1F
100
AcDbEntity
  8
実線
 62
     0
370
    30
100
AcDbLine
 10
188.210316657794
 20
42.15248782864869
 30
0.0
 11
188.210316657794
 21
79.91410788212973
 31
0.0
  0
LINE
  5
236
330
1F
100
AcDbEntity
  8
実線
 62
     0
370
    30
100
AcDbLine
 10
185.8781323488001
 20
82.74887475711246
 30
0.0
 11
203.5835637237214
 21
98.56055450202463
 31
0.0
  0
LINE
  5
237
330
1F
100
AcDbEntity
  8
実線
 62
     0
370
    30
100
AcDbLine
 10
188.8781323488001
 20
81.4058467892011
 30
0.0
 11
205.5818401872122
 21
96.32294614141755
 31
0.0
  0
ARC
  5
238
330
1F
100
AcDbEntity
  8
実線
 62
     0
370
    30
100
AcDbCircle
 10
190.210316657794
 20
79.91410788212973
 30
0.0
 40
2.0
100
AcDbArc
 50
131.7661671499588
 51
180.0
  0
ARC
  5
239
102
{ACAD_REACTORS
330
23D
330
240
102
}
330
1F
100
AcDbEntity
  8
実線
 62
     0
370
    30
100
AcDbCircle
 10
187.210316657794
 20
81.25713585004108
 30
0.0
 40
2.0
100
AcDbArc
 50
131.7661671499588
 51
180.0
  0
LINE
  5
23A
330
1F
100
AcDbEntity
  8
実線
 62
     0
370
    30
100
AcDbLine
 10
205.5818401872122
 20
96.32294614141755
 30
0.0
 11
206.5835637237214
 21
97.26741503431127
 31
0.0
  0
DIMENSION
  5
23B
102
{ACAD_REACTORS
330
23D
102
}
102
{ACAD_XDICTIONARY
360
23C
102
}
330
1F
100
AcDbEntity
  8
文字
 62
     0
370
    30
100
AcDbDimension
280
     0
  2
*D19
 10
204.210316657794
 20
146.2996609434783
 30
0.0
 11
194.710316657794
 21
148.4561609434783
 31
0.0
 70
    32
 71
     5
 42
19.0
 73
     0
 74
     0
 75
     0
  3
ISO-25
100
AcDbAlignedDimension
 13
185.210316657794
 23
81.25713585004108
 33
0.0
 14
204.210316657794
 24
100.0145808071243
 34
0.0
100
AcDbRotatedDimension
  0
DIMENSION
  5
23E
102
{ACAD_REACTORS
330
240
102
}
102
{ACAD_XDICTIONARY
360
23F
102
}
330
1F
100
AcDbEntity
  8
文字
 62
     0
370
    30
100
AcDbDimension
280
     0
  2
*D20
 10
207.210316657794
 20
154.2317314836346
 30
0.0
 11
196.210316657794
 21
156.3627314836346
 31
0.0
 70
    32
 71
     5
 42
22.0
 73
     0
 74
     0
 75
     0
  3
ISO-25
100
AcDbAlignedDimension
 13
185.210316657794
 23
81.25713585004108
 33
0.0
 14
207.210316657794
 24
98.7214413394109
 34
0.0
100
AcDbRotatedDimension
  0
LINE
  5
2BA
330
1F
100
AcDbEntity
  8
0
100
AcDbLine
 10
204.1550249827641
 20
138.5650843636671
 30
0.0
 11
207.210316657794
 21
138.5650843636671
 31
0.0
  0
DIMENSION
  5
2EF
102
{ACAD_XDICTIONARY
360
2F0
102
}
330
1F
100
AcDbEntity
  8
文字
 62
     0
370
    30
100
AcDbDimension
280
     0
  2
*D22
 10
217.1569193523193
 20
42.14134984367301
 30
0.0
 11
217.1569193523193
 21
62.14361477449424
 31
0.0
 70
   160
 71
     5
 42
40.00452986164247
 73
     0
 74
     0
 75
     0
  3
ISO-25
100
AcDbAlignedDimension
 13
188.929544304386
 23
82.14587970531548
 33
0.0
 14
188.3580830453433
 24
42.14134984367301
 34
0.0
 50
90.0
100
AcDbRotatedDimension
  0
MTEXT
  5
326
330
1F
100
AcDbEntity
  8
文字・寸法線
 62
     0
100
AcDbMText
 10
61.85890167204538
 20
171.7247642403819
 30
0.0
 40
6.0
 41
0.0
 46
6.0
 71
     9
 72
     1
  1
{\fＭＳ ゴシック|b0|i0|c0|p0;S-FB M20}
 73
     1
 44
1.0
  0
ENDSEC
  0
SECTION
  2
OBJECTS
  0
DICTIONARY
  5
C
330
0
100
AcDbDictionary
281
     1
  3
ACAD_COLOR
350
73
  3
ACAD_DETAILVIEWSTYLE
350
122
  3
ACAD_GROUP
350
D
  3
ACAD_IMAGE_VARS
350
DC
  3
ACAD_LAYOUT
350
1A
  3
ACAD_MATERIAL
350
72
  3
ACAD_MLEADERSTYLE
350
B5
  3
ACAD_MLINESTYLE
350
17
  3
ACAD_PLOTSETTINGS
350
19
  3
ACAD_PLOTSTYLENAME
350
E
  3
ACAD_SCALELIST
350
B6
  3
ACAD_SECTIONVIEWSTYLE
350
123
  3
ACAD_TABLESTYLE
350
86
  3
ACAD_VISUALSTYLE
350
99
  3
AcDbVariableDictionary
350
66
  3
ACDB_RECOMPOSE_DATA
350
332
  3
APPDATA
350
E1
  0
SUN
  5
ED
330
94
100
AcDbSun
 90
        1
290
     0
 63
     7
421
 16777215
 40
1.0
291
     1
 91
  2455826
 92
 54000000
292
     0
 70
     2
 71
   256
280
     1
  0
DICTIONARY
  5
32E
330
1F
100
AcDbDictionary
280
     1
281
     1
  3
DIM_BOUNDING_BOXES_V1
360
32F
  0
DICTIONARY
  5
211
330
210
100
AcDbDictionary
280
     1
281
     1
  3
ACAD_DIMASSOC
360
212
  0
DICTIONARY
  5
214
330
213
100
AcDbDictionary
280
     1
281
     1
  3
ACAD_DIMASSOC
360
215
  0
DICTIONARY
  5
217
330
216
100
AcDbDictionary
280
     1
281
     1
  3
ACAD_DIMASSOC
360
218
  0
DICTIONARY
  5
21A
330
219
100
AcDbDictionary
280
     1
281
     1
  3
ACAD_DIMASSOC
360
21B
  0
DICTIONARY
  5
221
330
220
100
AcDbDictionary
280
     1
281
     1
  0
DICTIONARY
  5
224
330
223
100
AcDbDictionary
280
     1
281
     1
  3
ACAD_DIMASSOC
360
225
  0
DICTIONARY
  5
227
330
226
100
AcDbDictionary
280
     1
281
     1
  3
ACAD_DIMASSOC
360
228
  0
DICTIONARY
  5
22A
330
229
100
AcDbDictionary
280
     1
281
     1
  3
ACAD_DIMASSOC
360
22B
  0
DICTIONARY
  5
22E
330
22D
100
AcDbDictionary
280
     1
281
     1
  0
DICTIONARY
  5
232
330
231
100
AcDbDictionary
280
     1
281
     1
  0
DICTIONARY
  5
23C
330
23B
100
AcDbDictionary
280
     1
281
     1
  3
ACAD_DIMASSOC
360
23D
  0
DICTIONARY
  5
23F
330
23E
100
AcDbDictionary
280
     1
281
     1
  3
ACAD_DIMASSOC
360
240
  0
DICTIONARY
  5
2F0
330
2EF
100
AcDbDictionary
280
     1
281
     1
  0
DICTIONARY
  5
73
102
{ACAD_REACTORS
330
C
102
}
330
C
100
AcDbDictionary
281
     1
  0
DICTIONARY
  5
122
102
{ACAD_REACTORS
330
C
102
}
330
C
100
AcDbDictionary
281
     1
  0
DICTIONARY
  5
D
102
{ACAD_REACTORS
330
C
102
}
330
C
100
AcDbDictionary
281
     1
  0
RASTERVARIABLES
  5
DC
102
{ACAD_REACTORS
330
C
102
}
330
C
100
AcDbRasterVariables
 90
        0
 70
     1
 71
     1
 72
     5
  0
DICTIONARY
  5
1A
102
{ACAD_REACTORS
330
C
102
}
330
C
100
AcDbDictionary
281
     1
  3
Model
350
22
  3
Sheet1
350
59
  3
Sheet2
350
5E
  0
DICTIONARY
  5
72
102
{ACAD_REACTORS
330
C
102
}
330
C
100
AcDbDictionary
281
     1
  3
ByBlock
350
E2
  3
ByLayer
350
96
  3
Global
350
98
  0
DICTIONARY
  5
B5
102
{ACAD_REACTORS
330
C
102
}
330
C
100
AcDbDictionary
281
     1
  3
Standard
350
32D
  0
DICTIONARY
  5
17
102
{ACAD_REACTORS
330
C
102
}
330
C
100
AcDbDictionary
281
     1
  3
Standard
350
18
  0
DICTIONARY
  5
19
102
{ACAD_REACTORS
330
C
102
}
330
C
100
AcDbDictionary
281
     1
  0
ACDBDICTIONARYWDFLT
  5
E
102
{ACAD_REACTORS
330
C
102
}
330
C
100
AcDbDictionary
281
     1
  3
Normal
350
F
100
AcDbDictionaryWithDefault
340
F
  0
DICTIONARY
  5
B6
102
{ACAD_REACTORS
330
C
102
}
330
C
100
AcDbDictionary
281
     1
  3
A0
350
B7
  3
A1
350
B8
  3
A2
350
B9
  3
A3
350
BA
  3
A4
350
BB
  3
A5
350
BC
  3
A6
350
BD
  3
A7
350
BE
  3
A8
350
BF
  3
A9
350
C0
  3
B0
350
C1
  3
B1
350
C2
  3
B2
350
C3
  3
B3
350
C4
  3
B4
350
C5
  3
B5
350
C6
  3
B6
350
C7
  3
B7
350
C8
  3
B8
350
C9
  3
B9
350
CA
  3
C0
350
CB
  3
C1
350
CC
  3
C2
350
CD
  3
C3
350
CE
  3
C4
350
CF
  3
C5
350
D0
  3
C6
350
D1
  3
C7
350
D2
  3
C8
350
D3
  3
C9
350
D4
  3
D0
350
D5
  3
D1
350
D6
  3
D2
350
D7
  0
DICTIONARY
  5
123
102
{ACAD_REACTORS
330
C
102
}
330
C
100
AcDbDictionary
281
     1
  0
DICTIONARY
  5
86
102
{ACAD_REACTORS
330
C
102
}
330
C
100
AcDbDictionary
281
     1
  3
Standard
350
87
  0
DICTIONARY
  5
99
102
{ACAD_REACTORS
330
C
102
}
330
C
100
AcDbDictionary
281
     1
  3
2dWireframe
350
9F
  3
3D Hidden
350
A1
  3
3dWireframe
350
A0
  3
Basic
350
9E
  3
Brighten
350
A5
  3
ColorChange
350
A9
  3
Conceptual
350
A2
  3
Dim
350
A4
  3
EdgeColorOff
350
E7
  3
Facepattern
350
A8
  3
Flat
350
9A
  3
FlatWithEdges
350
9B
  3
Gouraud
350
9C
  3
GouraudWithEdges
350
9D
  3
Hidden
350
E4
  3
JitterOff
350
E5
  3
Linepattern
350
A7
  3
OverhangOff
350
E6
  3
Realistic
350
A3
  3
Shaded
350
EC
  3
Shaded with edges
350
EB
  3
Shades of Gray
350
E8
  3
Sketchy
350
E9
  3
Thicken
350
A6
  3
Wireframe
350
E3
  3
X-Ray
350
EA
  0
DICTIONARY
  5
66
102
{ACAD_REACTORS
330
C
102
}
330
C
100
AcDbDictionary
281
     1
  3
CANNOSCALE
350
D8
  3
CMLEADERSTYLE
350
333
  3
CTABLESTYLE
350
89
  3
DIMASSOC
350
67
  3
HIDETEXT
350
6B
  3
LIGHTSINBLOCKS
350
DF
  3
XCLIPFRAME
350
E0
  0
XRECORD
  5
332
102
{ACAD_REACTORS
330
C
102
}
330
C
100
AcDbXrecord
280
     1
 90
        1
330
87
  0
DICTIONARY
  5
E1
102
{ACAD_REACTORS
330
C
102
}
330
C
100
AcDbDictionary
281
     1
  0
DICTIONARY
  5
32F
102
{ACAD_REACTORS
330
32E
102
}
330
32E
100
AcDbDictionary
281
     1
  0
DIMASSOC
  5
212
102
{ACAD_REACTORS
330
211
102
}
330
211
100
AcDbDimAssoc
330
210
 90
        3
 70
     0
 71
     0
  1
AcDbOsnapPointRef
 72
     1
331
203
 73
     2
 91
        6
 40
3.141592653589793
 10
0.0
 20
0.0
 30
2.000000000000000E+50
 75
     0
  1
AcDbOsnapPointRef
 72
     6
331
203
 73
     2
 91
        3
 40
1.0
 10
0.0
 20
0.0
 30
0.0
332
203
 74
     2
 92
        4
 75
     0
  0
DIMASSOC
  5
215
102
{ACAD_REACTORS
330
214
102
}
330
214
100
AcDbDimAssoc
330
213
 90
        3
 70
     0
 71
     0
  1
AcDbOsnapPointRef
 72
     5
331
203
 73
     2
 91
        6
 40
1.570796326794897
 10
0.0
 20
0.0
 30
0.0
 75
     0
  1
AcDbOsnapPointRef
 72
     1
331
20C
 73
     2
 91
        0
 40
1.0
 10
0.0
 20
0.0
 30
2.000000000000000E+50
 75
     0
  0
DIMASSOC
  5
218
102
{ACAD_REACTORS
330
217
102
}
330
217
100
AcDbDimAssoc
330
216
 90
        3
 70
     0
 71
     0
  1
AcDbOsnapPointRef
 72
     2
331
203
 73
     2
 91
        5
 40
0.4999999999999997
 10
0.0
 20
0.0
 30
0.0
 75
     0
  1
AcDbOsnapPointRef
 72
     3
331
206
 73
     2
 91
        0
 40
0.0
 10
0.0
 20
0.0
 30
0.0
 75
     0
  0
DIMASSOC
  5
21B
102
{ACAD_REACTORS
330
21A
102
}
330
21A
100
AcDbDimAssoc
330
219
 90
        3
 70
     0
 71
     0
  1
AcDbOsnapPointRef
 72
     3
331
20B
 73
     2
 91
        0
 40
6.283185307179585
 10
0.0
 20
0.0
 30
0.0
 75
     0
  1
AcDbOsnapPointRef
 72
     1
331
20C
 73
     2
 91
        0
 40
1.0
 10
0.0
 20
0.0
 30
2.000000000000000E+50
 75
     0
  0
DIMASSOC
  5
225
102
{ACAD_REACTORS
330
224
102
}
330
224
100
AcDbDimAssoc
330
223
 90
        3
 70
     0
 71
     0
  1
AcDbOsnapPointRef
 72
    13
331
21C
 73
     2
 91
        0
 40
0.0
 10
0.0
 20
0.0
 30
2.000000000000000E+50
 75
     0
  1
AcDbOsnapPointRef
 72
    13
331
21D
 73
     2
 91
        0
 40
0.0
 10
0.0
 20
0.0
 30
2.000000000000000E+50
 75
     0
  0
DIMASSOC
  5
228
102
{ACAD_REACTORS
330
227
102
}
330
227
100
AcDbDimAssoc
330
226
 90
        2
 70
     0
 71
     0
  1
AcDbOsnapPointRef
 72
     3
331
20B
 73
     2
 91
        0
 40
0.0
 10
0.0
 20
0.0
 30
0.0
 75
     0
  0
DIMASSOC
  5
22B
102
{ACAD_REACTORS
330
22A
102
}
330
22A
100
AcDbDimAssoc
330
229
 90
        2
 70
     0
 71
     0
  1
AcDbOsnapPointRef
 72
     3
331
206
 73
     2
 91
        0
 40
0.0
 10
0.0
 20
0.0
 30
0.0
 75
     0
  0
DIMASSOC
  5
23D
102
{ACAD_REACTORS
330
23C
102
}
330
23C
100
AcDbDimAssoc
330
23B
 90
        3
 70
     0
 71
     0
  1
AcDbOsnapPointRef
 72
     1
331
239
 73
     2
 91
        0
 40
3.141592653589793
 10
0.0
 20
0.0
 30
2.000000000000000E+50
 75
     0
  1
AcDbOsnapPointRef
 72
     1
331
21F
 73
     2
 91
        0
 40
6.283185307179586
 10
0.0
 20
0.0
 30
2.000000000000000E+50
 75
     0
  0
DIMASSOC
  5
240
102
{ACAD_REACTORS
330
23F
102
}
330
23F
100
AcDbDimAssoc
330
23E
 90
        3
 70
     0
 71
     0
  1
AcDbOsnapPointRef
 72
     1
331
239
 73
     2
 91
        0
 40
3.141592653589793
 10
0.0
 20
0.0
 30
2.000000000000000E+50
 75
     0
  1
AcDbOsnapPointRef
 72
     1
331
21E
 73
     2
 91
        0
 40
6.283185307179586
 10
0.0
 20
0.0
 30
2.000000000000000E+50
 75
     0
  0
LAYOUT
  5
22
102
{ACAD_REACTORS
330
1A
102
}
330
1A
100
AcDbPlotSettings
  1

  2
none_device
  4
ANSI_A_(8.50_x_11.00_Inches)
  6

 40
6.35
 41
19.05
 42
6.35
 43
19.05
 44
215.9
 45
279.4
 46
11.11250000000003
 47
0.0000000000000142
 48
0.0
 49
0.0
140
0.0
141
0.0
142
1.0
143
1.263157894736842
 70
 11444
 72
     0
 73
     1
 74
     1
  7
monochrome.ctb
 75
     0
 76
     0
 77
     2
 78
   300
147
0.7916666666666665
148
-702.8076765758875
149
-496.2830551296954
100
AcDbLayout
  1
Model
 70
     1
 71
     0
 10
0.0
 20
0.0
 11
12.0
 21
9.0
 12
0.0
 22
0.0
 32
0.0
 14
15.5731873863311
 24
21.88730368534839
 34
0.0
 15
228.2693828663947
 25
177.7247642403819
 35
0.0
146
0.0
 13
0.0
 23
0.0
 33
0.0
 16
1.0
 26
0.0
 36
0.0
 17
0.0
 27
1.0
 37
0.0
 76
     0
330
1F
331
94
  0
LAYOUT
  5
59
102
{ACAD_REACTORS
330
1A
102
}
330
1A
100
AcDbPlotSettings
  1

  2
None
  4

  6

 40
0.0
 41
0.0
 42
0.0
 43
0.0
 44
0.0
 45
0.0
 46
0.0
 47
0.0
 48
0.0
 49
0.0
140
0.0
141
0.0
142
1.0
143
1.0
 70
   688
 72
     0
 73
     0
 74
     5
  7

 75
    16
 76
     0
 77
     2
 78
   300
147
1.0
148
0.0
149
0.0
100
AcDbLayout
  1
Sheet1
 70
     1
 71
     1
 10
0.0
 20
0.0
 11
12.0
 21
9.0
 12
0.0
 22
0.0
 32
0.0
 14
0.0
 24
0.0
 34
0.0
 15
0.0
 25
0.0
 35
0.0
146
0.0
 13
0.0
 23
0.0
 33
0.0
 16
1.0
 26
0.0
 36
0.0
 17
0.0
 27
1.0
 37
0.0
 76
     0
330
58
  0
LAYOUT
  5
5E
102
{ACAD_REACTORS
330
1A
102
}
330
1A
100
AcDbPlotSettings
  1

  2
None
  4

  6

 40
0.0
 41
0.0
 42
0.0
 43
0.0
 44
0.0
 45
0.0
 46
0.0
 47
0.0
 48
0.0
 49
0.0
140
0.0
141
0.0
142
1.0
143
1.0
 70
   688
 72
     0
 73
     0
 74
     5
  7

 75
    16
 76
     0
 77
     2
 78
   300
147
1.0
148
0.0
149
0.0
100
AcDbLayout
  1
Sheet2
 70
     1
 71
     2
 10
0.0
 20
0.0
 11
12.0
 21
9.0
 12
0.0
 22
0.0
 32
0.0
 14
0.0
 24
0.0
 34
0.0
 15
0.0
 25
0.0
 35
0.0
146
0.0
 13
0.0
 23
0.0
 33
0.0
 16
1.0
 26
0.0
 36
0.0
 17
0.0
 27
1.0
 37
0.0
 76
     0
330
5D
  0
MATERIAL
  5
E2
102
{ACAD_REACTORS
330
72
102
}
330
72
100
AcDbMaterial
  1
ByBlock
 72
     1
 94
      127
  0
MATERIAL
  5
96
102
{ACAD_REACTORS
330
72
102
}
330
72
100
AcDbMaterial
  1
ByLayer
 72
     1
 94
       63
  0
MATERIAL
  5
98
102
{ACAD_REACTORS
330
72
102
}
330
72
100
AcDbMaterial
  1
Global
 72
     1
 94
       63
  0
MLEADERSTYLE
  5
32D
102
{ACAD_REACTORS
330
B5
102
}
330
B5
100
AcDbMLeaderStyle
179
     2
170
     2
171
     1
172
     0
 90
        2
 40
0.0
 41
0.0
173
     1
 91
-1056964608
340
14
 92
       -2
290
     1
 42
0.09
291
     1
 43
0.36
  3
Standard
341
0
 44
0.18
300

342
11
174
     1
178
     1
175
     1
176
     0
 93
-1056964608
 45
0.18
292
     0
297
     0
 46
0.18
343
0
 94
-1056964608
 47
1.0
 49
1.0
140
1.0
293
     1
141
0.0
294
     1
177
     0
142
1.0
295
     0
296
     0
143
0.125
271
     0
272
     9
273
     9
298
     0
  0
MLINESTYLE
  5
18
102
{ACAD_REACTORS
330
17
102
}
330
17
100
AcDbMlineStyle
  2
STANDARD
 70
     0
  3

 62
   256
 51
90.0
 52
90.0
 71
     2
 49
0.5
 62
   256
  6
BYLAYER
 49
-0.5
 62
   256
  6
BYLAYER
  0
ACDBPLACEHOLDER
  5
F
102
{ACAD_REACTORS
330
E
102
}
330
E
  0
SCALE
  5
B7
102
{ACAD_REACTORS
330
B6
102
}
330
B6
100
AcDbScale
 70
     0
300
1:1
140
1.0
141
1.0
290
     1
  0
SCALE
  5
B8
102
{ACAD_REACTORS
330
B6
102
}
330
B6
100
AcDbScale
 70
     0
300
1:2
140
1.0
141
2.0
290
     0
  0
SCALE
  5
B9
102
{ACAD_REACTORS
330
B6
102
}
330
B6
100
AcDbScale
 70
     0
300
1:4
140
1.0
141
4.0
290
     0
  0
SCALE
  5
BA
102
{ACAD_REACTORS
330
B6
102
}
330
B6
100
AcDbScale
 70
     0
300
1:5
140
1.0
141
5.0
290
     0
  0
SCALE
  5
BB
102
{ACAD_REACTORS
330
B6
102
}
330
B6
100
AcDbScale
 70
     0
300
1:8
140
1.0
141
8.0
290
     0
  0
SCALE
  5
BC
102
{ACAD_REACTORS
330
B6
102
}
330
B6
100
AcDbScale
 70
     0
300
1:10
140
1.0
141
10.0
290
     0
  0
SCALE
  5
BD
102
{ACAD_REACTORS
330
B6
102
}
330
B6
100
AcDbScale
 70
     0
300
1:16
140
1.0
141
16.0
290
     0
  0
SCALE
  5
BE
102
{ACAD_REACTORS
330
B6
102
}
330
B6
100
AcDbScale
 70
     0
300
1:20
140
1.0
141
20.0
290
     0
  0
SCALE
  5
BF
102
{ACAD_REACTORS
330
B6
102
}
330
B6
100
AcDbScale
 70
     0
300
1:30
140
1.0
141
30.0
290
     0
  0
SCALE
  5
C0
102
{ACAD_REACTORS
330
B6
102
}
330
B6
100
AcDbScale
 70
     0
300
1:40
140
1.0
141
40.0
290
     0
  0
SCALE
  5
C1
102
{ACAD_REACTORS
330
B6
102
}
330
B6
100
AcDbScale
 70
     0
300
1:50
140
1.0
141
50.0
290
     0
  0
SCALE
  5
C2
102
{ACAD_REACTORS
330
B6
102
}
330
B6
100
AcDbScale
 70
     0
300
1:100
140
1.0
141
100.0
290
     0
  0
SCALE
  5
C3
102
{ACAD_REACTORS
330
B6
102
}
330
B6
100
AcDbScale
 70
     0
300
2:1
140
2.0
141
1.0
290
     0
  0
SCALE
  5
C4
102
{ACAD_REACTORS
330
B6
102
}
330
B6
100
AcDbScale
 70
     0
300
4:1
140
4.0
141
1.0
290
     0
  0
SCALE
  5
C5
102
{ACAD_REACTORS
330
B6
102
}
330
B6
100
AcDbScale
 70
     0
300
8:1
140
8.0
141
1.0
290
     0
  0
SCALE
  5
C6
102
{ACAD_REACTORS
330
B6
102
}
330
B6
100
AcDbScale
 70
     0
300
10:1
140
10.0
141
1.0
290
     0
  0
SCALE
  5
C7
102
{ACAD_REACTORS
330
B6
102
}
330
B6
100
AcDbScale
 70
     0
300
100:1
140
100.0
141
1.0
290
     0
  0
SCALE
  5
C8
102
{ACAD_REACTORS
330
B6
102
}
330
B6
100
AcDbScale
 70
     0
300
1/128" = 1'-0"
140
0.0078125
141
12.0
290
     0
  0
SCALE
  5
C9
102
{ACAD_REACTORS
330
B6
102
}
330
B6
100
AcDbScale
 70
     0
300
1/64" = 1'-0"
140
0.015625
141
12.0
290
     0
  0
SCALE
  5
CA
102
{ACAD_REACTORS
330
B6
102
}
330
B6
100
AcDbScale
 70
     0
300
1/32" = 1'-0"
140
0.03125
141
12.0
290
     0
  0
SCALE
  5
CB
102
{ACAD_REACTORS
330
B6
102
}
330
B6
100
AcDbScale
 70
     0
300
1/16" = 1'-0"
140
0.0625
141
12.0
290
     0
  0
SCALE
  5
CC
102
{ACAD_REACTORS
330
B6
102
}
330
B6
100
AcDbScale
 70
     0
300
3/32" = 1'-0"
140
0.09375
141
12.0
290
     0
  0
SCALE
  5
CD
102
{ACAD_REACTORS
330
B6
102
}
330
B6
100
AcDbScale
 70
     0
300
1/8" = 1'-0"
140
0.125
141
12.0
290
     0
  0
SCALE
  5
CE
102
{ACAD_REACTORS
330
B6
102
}
330
B6
100
AcDbScale
 70
     0
300
3/16" = 1'-0"
140
0.1875
141
12.0
290
     0
  0
SCALE
  5
CF
102
{ACAD_REACTORS
330
B6
102
}
330
B6
100
AcDbScale
 70
     0
300
1/4" = 1'-0"
140
0.25
141
12.0
290
     0
  0
SCALE
  5
D0
102
{ACAD_REACTORS
330
B6
102
}
330
B6
100
AcDbScale
 70
     0
300
3/8" = 1'-0"
140
0.375
141
12.0
290
     0
  0
SCALE
  5
D1
102
{ACAD_REACTORS
330
B6
102
}
330
B6
100
AcDbScale
 70
     0
300
1/2" = 1'-0"
140
0.5
141
12.0
290
     0
  0
SCALE
  5
D2
102
{ACAD_REACTORS
330
B6
102
}
330
B6
100
AcDbScale
 70
     0
300
3/4" = 1'-0"
140
0.75
141
12.0
290
     0
  0
SCALE
  5
D3
102
{ACAD_REACTORS
330
B6
102
}
330
B6
100
AcDbScale
 70
     0
300
1" = 1'-0"
140
1.0
141
12.0
290
     0
  0
SCALE
  5
D4
102
{ACAD_REACTORS
330
B6
102
}
330
B6
100
AcDbScale
 70
     0
300
1-1/2" = 1'-0"
140
1.5
141
12.0
290
     0
  0
SCALE
  5
D5
102
{ACAD_REACTORS
330
B6
102
}
330
B6
100
AcDbScale
 70
     0
300
3" = 1'-0"
140
3.0
141
12.0
290
     0
  0
SCALE
  5
D6
102
{ACAD_REACTORS
330
B6
102
}
330
B6
100
AcDbScale
 70
     0
300
6" = 1'-0"
140
6.0
141
12.0
290
     0
  0
SCALE
  5
D7
102
{ACAD_REACTORS
330
B6
102
}
330
B6
100
AcDbScale
 70
     0
300
1'-0" = 1'-0"
140
12.0
141
12.0
290
     0
  0
TABLESTYLE
  5
87
102
{ACAD_REACTORS
330
86
102
}
102
{ACAD_XDICTIONARY
360
330
102
}
330
86
100
AcDbTableStyle
  3
Standard
 70
     0
 71
     0
 40
0.06
 41
0.06
280
     0
281
     0
  7
Standard
140
0.18
170
     2
 62
     0
 63
   257
283
     0
 90
      512
 91
        0
  1

274
    -2
284
     1
 64
     0
275
    -2
285
     1
 65
     0
276
    -2
286
     1
 66
     0
277
    -2
287
     1
 67
     0
278
    -2
288
     1
 68
     0
279
    -2
289
     1
 69
     0
  7
Standard
140
0.25
170
     5
 62
     0
 63
   257
283
     0
 90
      512
 91
        0
  1

274
    -2
284
     1
 64
     0
275
    -2
285
     1
 65
     0
276
    -2
286
     1
 66
     0
277
    -2
287
     1
 67
     0
278
    -2
288
     1
 68
     0
279
    -2
289
     1
 69
     0
  7
Standard
140
0.18
170
     5
 62
     0
 63
   257
283
     0
 90
      512
 91
        0
  1

274
    -2
284
     1
 64
     0
275
    -2
285
     1
 65
     0
276
    -2
286
     1
 66
     0
277
    -2
287
     1
 67
     0
278
    -2
288
     1
 68
     0
279
    -2
289
     1
 69
     0
  0
VISUALSTYLE
  5
9F
102
{ACAD_REACTORS
330
99
102
}
330
99
100
AcDbVisualStyle
  2
2dWireframe
 70
     4
177
     3
291
     0
 70
    58
 90
        0
176
     1
 90
        2
176
     1
 90
        1
176
     1
 90
        0
176
     1
 40
-0.6
176
     1
 40
-30.0
176
     1
 62
     7
420
 16777215
176
     1
 90
        1
176
     1
 90
        4
176
     1
 62
     7
176
     1
 62
   257
176
     1
 90
        1
176
     1
 90
        1
176
     1
 40
1.0
176
     1
 90
        0
176
     1
 62
   257
176
     1
 40
1.0
176
     1
 90
        1
176
     1
 90
        6
176
     1
 90
        2
176
     1
 62
     7
176
     1
 90
        5
176
     1
 90
        0
176
     1
 90
        0
176
     1
290
     0
176
     1
 90
        1
176
     1
 40
0.0
176
     1
 90
        0
176
     1
290
     1
176
     1
290
     1
176
     1
290
     0
176
     1
290
     0
176
     1
290
     0
176
     1
290
     0
176
     1
290
     0
176
     1
290
     0
176
     1
290
     0
176
     1
 90
       50
176
     1
 40
0.0
176
     1
 40
1.0
176
     1
 90
        0
176
     1
 62
   178
420
        0
176
     1
 90
       50
176
     1
 90
        3
176
     1
 62
     5
420
      255
176
     1
290
     0
176
     1
 90
       50
176
     1
 90
       50
176
     1
 90
       50
176
     1
290
     0
176
     1
 90
       50
176
     1
 62
   256
176
     0
 40
1.0
176
     0
 90
        2
176
     1
  1
strokes_ogs.tif
176
     1
290
     0
176
     1
 40
1.0
176
     1
 40
1.0
176
     1
  0
VISUALSTYLE
  5
A1
102
{ACAD_REACTORS
330
99
102
}
330
99
100
AcDbVisualStyle
  2
3D Hidden
 70
     6
177
     3
291
     0
 70
    58
 90
        1
176
     1
 90
        2
176
     1
 90
        2
176
     1
 90
        0
176
     1
 40
-0.6
176
     1
 40
-30.0
176
     1
 62
     7
420
 16777215
176
     1
 90
        2
176
     1
 90
        2
176
     1
 62
     7
176
     1
 62
   257
176
     1
 90
        2
176
     1
 90
        1
176
     1
 40
40.0
176
     1
 90
        0
176
     1
 62
   257
176
     1
 40
1.0
176
     1
 90
        1
176
     1
 90
        6
176
     1
 90
        2
176
     1
 62
     7
176
     1
 90
        3
176
     1
 90
        0
176
     1
 90
        0
176
     1
290
     0
176
     1
 90
        1
176
     1
 40
0.0
176
     1
 90
        0
176
     1
290
     0
176
     1
290
     1
176
     1
290
     1
176
     1
290
     0
176
     1
290
     0
176
     1
290
     0
176
     1
290
     0
176
     1
290
     0
176
     1
290
     0
176
     1
 90
       50
176
     1
 40
0.0
176
     1
 40
1.0
176
     1
 90
        0
176
     1
 62
   178
420
        0
176
     1
 90
       50
176
     1
 90
        3
176
     1
 62
     5
420
      255
176
     1
290
     0
176
     1
 90
       50
176
     1
 90
       50
176
     1
 90
       50
176
     1
290
     0
176
     1
 90
       50
176
     1
 62
   256
176
     0
 40
1.0
176
     0
 90
        2
176
     1
  1
strokes_ogs.tif
176
     1
290
     0
176
     1
 40
1.0
176
     1
 40
1.0
176
     1
  0
VISUALSTYLE
  5
A0
102
{ACAD_REACTORS
330
99
102
}
330
99
100
AcDbVisualStyle
  2
3dWireframe
 70
     5
177
     3
291
     0
 70
    58
 90
        0
176
     1
 90
        2
176
     1
 90
        1
176
     1
 90
        0
176
     1
 40
-0.6
176
     1
 40
-30.0
176
     1
 62
     7
420
 16777215
176
     1
 90
        1
176
     1
 90
        4
176
     1
 62
     7
176
     1
 62
   257
176
     1
 90
        1
176
     1
 90
        1
176
     1
 40
1.0
176
     1
 90
        0
176
     1
 62
   257
176
     1
 40
1.0
176
     1
 90
        1
176
     1
 90
        6
176
     1
 90
        2
176
     1
 62
     7
176
     1
 90
        5
176
     1
 90
        0
176
     1
 90
        0
176
     1
290
     0
176
     1
 90
        1
176
     1
 40
0.0
176
     1
 90
        0
176
     1
290
     0
176
     1
290
     1
176
     1
290
     1
176
     1
290
     0
176
     1
290
     0
176
     1
290
     0
176
     1
290
     0
176
     1
290
     0
176
     1
290
     0
176
     1
 90
       50
176
     1
 40
0.0
176
     1
 40
1.0
176
     1
 90
        0
176
     1
 62
   178
420
        0
176
     1
 90
       50
176
     1
 90
        3
176
     1
 62
     5
420
      255
176
     1
290
     0
176
     1
 90
       50
176
     1
 90
       50
176
     1
 90
       50
176
     1
290
     0
176
     1
 90
       50
176
     1
 62
   256
176
     0
 40
1.0
176
     0
 90
        2
176
     1
  1
strokes_ogs.tif
176
     1
290
     0
176
     1
 40
1.0
176
     1
 40
1.0
176
     1
  0
VISUALSTYLE
  5
9E
102
{ACAD_REACTORS
330
99
102
}
330
99
100
AcDbVisualStyle
  2
Basic
 70
     7
177
     3
291
     1
 70
    58
 90
        1
176
     1
 90
        0
176
     1
 90
        1
176
     1
 90
        0
176
     1
 40
-0.6
176
     1
 40
-30.0
176
     1
 62
     7
420
 16777215
176
     1
 90
        0
176
     1
 90
        4
176
     1
 62
     7
176
     1
 62
   257
176
     1
 90
        1
176
     1
 90
        1
176
     1
 40
1.0
176
     1
 90
        8
176
     1
 62
     7
176
     1
 40
1.0
176
     1
 90
        1
176
     1
 90
        6
176
     1
 90
        2
176
     1
 62
     7
176
     1
 90
        5
176
     1
 90
        0
176
     1
 90
        0
176
     1
290
     0
176
     1
 90
        1
176
     1
 40
0.0
176
     1
 90
        0
176
     1
290
     0
176
     1
290
     1
176
     1
290
     1
176
     1
290
     0
176
     1
290
     0
176
     1
290
     0
176
     1
290
     0
176
     1
290
     0
176
     1
290
     0
176
     1
 90
       50
176
     1
 40
0.0
176
     1
 40
1.0
176
     1
 90
        0
176
     1
 62
   178
420
        0
176
     1
 90
       50
176
     1
 90
        3
176
     1
 62
     5
420
      255
176
     1
290
     0
176
     1
 90
       50
176
     1
 90
       50
176
     1
 90
       50
176
     1
290
     0
176
     1
 90
       50
176
     1
 62
   256
176
     0
 40
1.0
176
     0
 90
        2
176
     1
  1
strokes_ogs.tif
176
     1
290
     0
176
     1
 40
1.0
176
     1
 40
1.0
176
     1
  0
VISUALSTYLE
  5
A5
102
{ACAD_REACTORS
330
99
102
}
330
99
100
AcDbVisualStyle
  2
Brighten
 70
    12
177
     3
291
     1
 70
    58
 90
        2
176
     1
 90
        2
176
     1
 90
        1
176
     1
 90
        0
176
     1
 40
-0.6
176
     1
 40
-30.0
176
     1
 62
     7
420
 16777215
176
     1
 90
        1
176
     1
 90
        4
176
     1
 62
     7
176
     1
 62
   257
176
     1
 90
        1
176
     1
 90
        1
176
     1
 40
1.0
176
     1
 90
        8
176
     1
 62
     7
176
     1
 40
1.0
176
     1
 90
        1
176
     1
 90
        6
176
     1
 90
        2
176
     1
 62
     7
176
     1
 90
        5
176
     1
 90
        0
176
     1
 90
        0
176
     1
290
     0
176
     1
 90
        1
176
     1
 40
50.0
176
     1
 90
        0
176
     1
290
     0
176
     1
290
     1
176
     1
290
     1
176
     1
290
     0
176
     1
290
     0
176
     1
290
     0
176
     1
290
     0
176
     1
290
     0
176
     1
290
     0
176
     1
 90
       50
176
     1
 40
0.0
176
     1
 40
1.0
176
     1
 90
        0
176
     1
 62
   178
420
        0
176
     1
 90
       50
176
     1
 90
        3
176
     1
 62
     5
420
      255
176
     1
290
     0
176
     1
 90
       50
176
     1
 90
       50
176
     1
 90
       50
176
     1
290
     0
176
     1
 90
       50
176
     1
 62
   256
176
     0
 40
1.0
176
     0
 90
        2
176
     1
  1
strokes_ogs.tif
176
     1
290
     0
176
     1
 40
1.0
176
     1
 40
1.0
176
     1
  0
VISUALSTYLE
  5
A9
102
{ACAD_REACTORS
330
99
102
}
330
99
100
AcDbVisualStyle
  2
ColorChange
 70
    16
177
     3
291
     1
 70
    58
 90
        2
176
     1
 90
        2
176
     1
 90
        3
176
     1
 90
        0
176
     1
 40
-0.6
176
     1
 40
-30.0
176
     1
 62
     8
420
  8421504
176
     1
 90
        1
176
     1
 90
        4
176
     1
 62
     7
176
     1
 62
   257
176
     1
 90
        1
176
     1
 90
        1
176
     1
 40
1.0
176
     1
 90
        8
176
     1
 62
     8
420
  8421504
176
     1
 40
1.0
176
     1
 90
        1
176
     1
 90
        6
176
     1
 90
        2
176
     1
 62
     7
176
     1
 90
        5
176
     1
 90
        0
176
     1
 90
        0
176
     1
290
     0
176
     1
 90
        1
176
     1
 40
0.0
176
     1
 90
        0
176
     1
290
     0
176
     1
290
     1
176
     1
290
     1
176
     1
290
     0
176
     1
290
     0
176
     1
290
     0
176
     1
290
     0
176
     1
290
     0
176
     1
290
     0
176
     1
 90
       50
176
     1
 40
0.0
176
     1
 40
1.0
176
     1
 90
        0
176
     1
 62
   178
420
        0
176
     1
 90
       50
176
     1
 90
        3
176
     1
 62
     5
420
      255
176
     1
290
     0
176
     1
 90
       50
176
     1
 90
       50
176
     1
 90
       50
176
     1
290
     0
176
     1
 90
       50
176
     1
 62
   256
176
     0
 40
1.0
176
     0
 90
        2
176
     1
  1
strokes_ogs.tif
176
     1
290
     0
176
     1
 40
1.0
176
     1
 40
1.0
176
     1
  0
VISUALSTYLE
  5
A2
102
{ACAD_REACTORS
330
99
102
}
330
99
100
AcDbVisualStyle
  2
Conceptual
 70
     9
177
     3
291
     0
 70
    58
 90
        3
176
     1
 90
        2
176
     1
 90
        1
176
     1
 90
        0
176
     1
 40
-0.6
176
     1
 40
-30.0
176
     1
 62
     7
420
 16777215
176
     1
 90
        2
176
     1
 90
        2
176
     1
 62
     7
176
     1
 62
   257
176
     1
 90
        1
176
     1
 90
        1
176
     1
 40
40.0
176
     1
 90
        8
176
     1
 62
     7
176
     1
 40
1.0
176
     1
 90
        1
176
     1
 90
        6
176
     1
 90
        2
176
     1
 62
     7
176
     1
 90
        3
176
     1
 90
        0
176
     1
 90
        0
176
     1
290
     0
176
     1
 90
        1
176
     1
 40
0.0
176
     1
 90
        0
176
     1
290
     0
176
     1
290
     1
176
     1
290
     1
176
     1
290
     0
176
     1
290
     0
176
     1
290
     0
176
     1
290
     0
176
     1
290
     0
176
     1
290
     0
176
     1
 90
       50
176
     1
 40
0.0
176
     1
 40
1.0
176
     1
 90
        0
176
     1
 62
   178
420
        0
176
     1
 90
       50
176
     1
 90
        3
176
     1
 62
     5
420
      255
176
     1
290
     0
176
     1
 90
       50
176
     1
 90
       50
176
     1
 90
       50
176
     1
290
     0
176
     1
 90
       50
176
     1
 62
   256
176
     0
 40
1.0
176
     0
 90
        2
176
     1
  1
strokes_ogs.tif
176
     1
290
     0
176
     1
 40
1.0
176
     1
 40
1.0
176
     1
  0
VISUALSTYLE
  5
A4
102
{ACAD_REACTORS
330
99
102
}
330
99
100
AcDbVisualStyle
  2
Dim
 70
    11
177
     3
291
     1
 70
    58
 90
        2
176
     1
 90
        2
176
     1
 90
        1
176
     1
 90
        0
176
     1
 40
-0.6
176
     1
 40
-30.0
176
     1
 62
     7
420
 16777215
176
     1
 90
        1
176
     1
 90
        4
176
     1
 62
     7
176
     1
 62
   257
176
     1
 90
        1
176
     1
 90
        1
176
     1
 40
1.0
176
     1
 90
        8
176
     1
 62
     7
176
     1
 40
1.0
176
     1
 90
        1
176
     1
 90
        6
176
     1
 90
        2
176
     1
 62
     7
176
     1
 90
        5
176
     1
 90
        0
176
     1
 90
        0
176
     1
290
     0
176
     1
 90
        1
176
     1
 40
-50.0
176
     1
 90
        0
176
     1
290
     0
176
     1
290
     1
176
     1
290
     1
176
     1
290
     0
176
     1
290
     0
176
     1
290
     0
176
     1
290
     0
176
     1
290
     0
176
     1
290
     0
176
     1
 90
       50
176
     1
 40
0.0
176
     1
 40
1.0
176
     1
 90
        0
176
     1
 62
   178
420
        0
176
     1
 90
       50
176
     1
 90
        3
176
     1
 62
     5
420
      255
176
     1
290
     0
176
     1
 90
       50
176
     1
 90
       50
176
     1
 90
       50
176
     1
290
     0
176
     1
 90
       50
176
     1
 62
   256
176
     0
 40
1.0
176
     0
 90
        2
176
     1
  1
strokes_ogs.tif
176
     1
290
     0
176
     1
 40
1.0
176
     1
 40
1.0
176
     1
  0
VISUALSTYLE
  5
E7
102
{ACAD_REACTORS
330
99
102
}
330
99
100
AcDbVisualStyle
  2
EdgeColorOff
 70
    22
177
     3
291
     1
 70
    58
 90
        2
176
     0
 90
        2
176
     0
 90
        0
176
     0
 90
        0
176
     0
 40
0.6
176
     0
 40
30.0
176
     0
 62
     7
420
 16777215
176
     0
 90
        1
176
     0
 90
        4
176
     0
 62
     7
176
     0
 62
   257
176
     0
 90
        1
176
     0
 90
        1
176
     0
 40
1.0
176
     0
 90
        8
176
     2
 62
     7
176
     0
 40
1.0
176
     0
 90
        1
176
     0
 90
        6
176
     0
 90
        2
176
     0
 62
     7
176
     0
 90
        5
176
     0
 90
        0
176
     0
 90
        0
176
     0
290
     0
176
     0
 90
        1
176
     0
 40
0.0
176
     0
 90
        0
176
     0
290
     0
176
     0
290
     1
176
     0
290
     1
176
     0
290
     0
176
     0
290
     0
176
     0
290
     0
176
     0
290
     0
176
     0
290
     0
176
     0
290
     0
176
     0
 90
       50
176
     0
 40
0.0
176
     0
 40
1.0
176
     0
 90
        0
176
     0
 62
   178
420
        0
176
     0
 90
       50
176
     0
 90
        3
176
     0
 62
     5
420
      255
176
     0
290
     0
176
     0
 90
       50
176
     0
 90
       50
176
     0
 90
       50
176
     0
290
     0
176
     0
 90
       50
176
     0
 62
   256
176
     0
 40
1.0
176
     0
 90
        2
176
     0
  1
strokes_ogs.tif
176
     0
290
     0
176
     0
 40
1.0
176
     0
 40
1.0
176
     0
  0
VISUALSTYLE
  5
A8
102
{ACAD_REACTORS
330
99
102
}
330
99
100
AcDbVisualStyle
  2
Facepattern
 70
    15
177
     3
291
     1
 70
    58
 90
        2
176
     1
 90
        2
176
     1
 90
        1
176
     1
 90
        0
176
     1
 40
-0.6
176
     1
 40
-30.0
176
     1
 62
     7
420
 16777215
176
     1
 90
        1
176
     1
 90
        4
176
     1
 62
     7
176
     1
 62
   257
176
     1
 90
        1
176
     1
 90
        1
176
     1
 40
1.0
176
     1
 90
        8
176
     1
 62
     7
176
     1
 40
1.0
176
     1
 90
        1
176
     1
 90
        6
176
     1
 90
        2
176
     1
 62
     7
176
     1
 90
        5
176
     1
 90
        0
176
     1
 90
        0
176
     1
290
     0
176
     1
 90
        1
176
     1
 40
0.0
176
     1
 90
        0
176
     1
290
     0
176
     1
290
     1
176
     1
290
     1
176
     1
290
     0
176
     1
290
     0
176
     1
290
     0
176
     1
290
     0
176
     1
290
     0
176
     1
290
     0
176
     1
 90
       50
176
     1
 40
0.0
176
     1
 40
1.0
176
     1
 90
        0
176
     1
 62
   178
420
        0
176
     1
 90
       50
176
     1
 90
        3
176
     1
 62
     5
420
      255
176
     1
290
     0
176
     1
 90
       50
176
     1
 90
       50
176
     1
 90
       50
176
     1
290
     0
176
     1
 90
       50
176
     1
 62
   256
176
     0
 40
1.0
176
     0
 90
        2
176
     1
  1
strokes_ogs.tif
176
     1
290
     0
176
     1
 40
1.0
176
     1
 40
1.0
176
     1
  0
VISUALSTYLE
  5
9A
102
{ACAD_REACTORS
330
99
102
}
330
99
100
AcDbVisualStyle
  2
Flat
 70
     0
177
     3
291
     1
 70
    58
 90
        2
176
     1
 90
        1
176
     1
 90
        1
176
     1
 90
        2
176
     1
 40
-0.6
176
     1
 40
30.0
176
     1
 62
     7
420
 16777215
176
     1
 90
        0
176
     1
 90
        4
176
     1
 62
     7
176
     1
 62
   257
176
     1
 90
        1
176
     1
 90
        1
176
     1
 40
1.0
176
     1
 90
        8
176
     1
 62
     7
176
     1
 40
1.0
176
     1
 90
        1
176
     1
 90
        6
176
     1
 90
        2
176
     1
 62
     7
176
     1
 90
        5
176
     1
 90
        0
176
     1
 90
        0
176
     1
290
     0
176
     1
 90
        1
176
     1
 40
0.0
176
     1
 90
        0
176
     1
290
     0
176
     1
290
     1
176
     1
290
     1
176
     1
290
     0
176
     1
290
     0
176
     1
290
     0
176
     1
290
     0
176
     1
290
     0
176
     1
290
     0
176
     1
 90
       50
176
     1
 40
0.0
176
     1
 40
1.0
176
     1
 90
        0
176
     1
 62
   178
420
        0
176
     1
 90
       50
176
     1
 90
        3
176
     1
 62
     5
420
      255
176
     1
290
     0
176
     1
 90
       50
176
     1
 90
       50
176
     1
 90
       50
176
     1
290
     0
176
     1
 90
       50
176
     1
 62
   256
176
     0
 40
1.0
176
     0
 90
        2
176
     1
  1
strokes_ogs.tif
176
     1
290
     0
176
     1
 40
1.0
176
     1
 40
1.0
176
     1
  0
VISUALSTYLE
  5
9B
102
{ACAD_REACTORS
330
99
102
}
330
99
100
AcDbVisualStyle
  2
FlatWithEdges
 70
     1
177
     3
291
     1
 70
    58
 90
        2
176
     1
 90
        1
176
     1
 90
        1
176
     1
 90
        2
176
     1
 40
-0.6
176
     1
 40
30.0
176
     1
 62
     7
420
 16777215
176
     1
 90
        1
176
     1
 90
        4
176
     1
 62
     7
176
     1
 62
   257
176
     1
 90
        1
176
     1
 90
        1
176
     1
 40
1.0
176
     1
 90
        0
176
     1
 62
   257
176
     1
 40
1.0
176
     1
 90
        1
176
     1
 90
        6
176
     1
 90
        2
176
     1
 62
     7
176
     1
 90
        5
176
     1
 90
        0
176
     1
 90
        0
176
     1
290
     0
176
     1
 90
        1
176
     1
 40
0.0
176
     1
 90
        0
176
     1
290
     0
176
     1
290
     1
176
     1
290
     1
176
     1
290
     0
176
     1
290
     0
176
     1
290
     0
176
     1
290
     0
176
     1
290
     0
176
     1
290
     0
176
     1
 90
       50
176
     1
 40
0.0
176
     1
 40
1.0
176
     1
 90
        0
176
     1
 62
   178
420
        0
176
     1
 90
       50
176
     1
 90
        3
176
     1
 62
     5
420
      255
176
     1
290
     0
176
     1
 90
       50
176
     1
 90
       50
176
     1
 90
       50
176
     1
290
     0
176
     1
 90
       50
176
     1
 62
   256
176
     0
 40
1.0
176
     0
 90
        2
176
     1
  1
strokes_ogs.tif
176
     1
290
     0
176
     1
 40
1.0
176
     1
 40
1.0
176
     1
  0
VISUALSTYLE
  5
9C
102
{ACAD_REACTORS
330
99
102
}
330
99
100
AcDbVisualStyle
  2
Gouraud
 70
     2
177
     3
291
     1
 70
    58
 90
        2
176
     1
 90
        2
176
     1
 90
        1
176
     1
 90
        2
176
     1
 40
-0.6
176
     1
 40
30.0
176
     1
 62
     7
420
 16777215
176
     1
 90
        0
176
     1
 90
        4
176
     1
 62
     7
176
     1
 62
   257
176
     1
 90
        1
176
     1
 90
        1
176
     1
 40
1.0
176
     1
 90
        0
176
     1
 62
     7
176
     1
 40
1.0
176
     1
 90
        1
176
     1
 90
        6
176
     1
 90
        2
176
     1
 62
     7
176
     1
 90
        5
176
     1
 90
        0
176
     1
 90
        0
176
     1
290
     0
176
     1
 90
        1
176
     1
 40
0.0
176
     1
 90
        0
176
     1
290
     0
176
     1
290
     1
176
     1
290
     1
176
     1
290
     0
176
     1
290
     0
176
     1
290
     0
176
     1
290
     0
176
     1
290
     0
176
     1
290
     0
176
     1
 90
       50
176
     1
 40
0.0
176
     1
 40
1.0
176
     1
 90
        0
176
     1
 62
   178
420
        0
176
     1
 90
       50
176
     1
 90
        3
176
     1
 62
     5
420
      255
176
     1
290
     0
176
     1
 90
       50
176
     1
 90
       50
176
     1
 90
       50
176
     1
290
     0
176
     1
 90
       50
176
     1
 62
   256
176
     0
 40
1.0
176
     0
 90
        2
176
     1
  1
strokes_ogs.tif
176
     1
290
     0
176
     1
 40
1.0
176
     1
 40
1.0
176
     1
  0
VISUALSTYLE
  5
9D
102
{ACAD_REACTORS
330
99
102
}
330
99
100
AcDbVisualStyle
  2
GouraudWithEdges
 70
     3
177
     3
291
     1
 70
    58
 90
        2
176
     1
 90
        2
176
     1
 90
        1
176
     1
 90
        2
176
     1
 40
-0.6
176
     1
 40
30.0
176
     1
 62
     7
420
 16777215
176
     1
 90
        1
176
     1
 90
        4
176
     1
 62
     7
176
     1
 62
   257
176
     1
 90
        1
176
     1
 90
        1
176
     1
 40
1.0
176
     1
 90
        0
176
     1
 62
   257
176
     1
 40
1.0
176
     1
 90
        1
176
     1
 90
        6
176
     1
 90
        2
176
     1
 62
     7
176
     1
 90
        5
176
     1
 90
        0
176
     1
 90
        0
176
     1
290
     0
176
     1
 90
        1
176
     1
 40
0.0
176
     1
 90
        0
176
     1
290
     0
176
     1
290
     1
176
     1
290
     1
176
     1
290
     0
176
     1
290
     0
176
     1
290
     0
176
     1
290
     0
176
     1
290
     0
176
     1
290
     0
176
     1
 90
       50
176
     1
 40
0.0
176
     1
 40
1.0
176
     1
 90
        0
176
     1
 62
   178
420
        0
176
     1
 90
       50
176
     1
 90
        3
176
     1
 62
     5
420
      255
176
     1
290
     0
176
     1
 90
       50
176
     1
 90
       50
176
     1
 90
       50
176
     1
290
     0
176
     1
 90
       50
176
     1
 62
   256
176
     0
 40
1.0
176
     0
 90
        2
176
     1
  1
strokes_ogs.tif
176
     1
290
     0
176
     1
 40
1.0
176
     1
 40
1.0
176
     1
  0
VISUALSTYLE
  5
E4
102
{ACAD_REACTORS
330
99
102
}
330
99
100
AcDbVisualStyle
  2
Hidden
 70
     6
177
     3
291
     0
 70
    58
 90
        1
176
     1
 90
        2
176
     1
 90
        2
176
     1
 90
        0
176
     1
 40
0.6
176
     1
 40
30.0
176
     1
 62
     7
420
 16777215
176
     1
 90
        2
176
     1
 90
        2
176
     1
 62
     7
176
     1
 62
   257
176
     1
 90
        2
176
     1
 90
        1
176
     1
 40
40.0
176
     1
 90
        0
176
     1
 62
   257
176
     1
 40
1.0
176
     1
 90
        1
176
     1
 90
        6
176
     1
 90
        2
176
     1
 62
     7
176
     1
 90
        3
176
     1
 90
        0
176
     1
 90
        0
176
     1
290
     0
176
     1
 90
        1
176
     1
 40
0.0
176
     1
 90
        0
176
     1
290
     0
176
     1
290
     1
176
     1
290
     1
176
     1
290
     0
176
     1
290
     0
176
     1
290
     0
176
     1
290
     0
176
     1
290
     0
176
     1
290
     0
176
     1
 90
       50
176
     1
 40
0.0
176
     1
 40
1.0
176
     1
 90
        0
176
     1
 62
   178
420
        0
176
     1
 90
       50
176
     1
 90
        3
176
     1
 62
     5
420
      255
176
     1
290
     0
176
     1
 90
       50
176
     1
 90
       50
176
     1
 90
       50
176
     1
290
     0
176
     1
 90
       50
176
     1
 62
   256
176
     0
 40
1.0
176
     0
 90
        2
176
     1
  1
strokes_ogs.tif
176
     1
290
     0
176
     1
 40
1.0
176
     1
 40
1.0
176
     1
  0
VISUALSTYLE
  5
E5
102
{ACAD_REACTORS
330
99
102
}
330
99
100
AcDbVisualStyle
  2
JitterOff
 70
    20
177
     3
291
     1
 70
    58
 90
        2
176
     0
 90
        2
176
     0
 90
        0
176
     0
 90
        0
176
     0
 40
0.6
176
     0
 40
30.0
176
     0
 62
     7
420
 16777215
176
     0
 90
        1
176
     0
 90
        4
176
     0
 62
     7
176
     0
 62
   257
176
     0
 90
        1
176
     0
 90
        1
176
     0
 40
1.0
176
     0
 90
       10
176
     2
 62
     7
176
     0
 40
1.0
176
     0
 90
        1
176
     0
 90
        6
176
     0
 90
        2
176
     0
 62
     7
176
     0
 90
        5
176
     0
 90
        0
176
     0
 90
        0
176
     0
290
     0
176
     0
 90
        1
176
     0
 40
0.0
176
     0
 90
        0
176
     0
290
     0
176
     0
290
     1
176
     0
290
     1
176
     0
290
     0
176
     0
290
     0
176
     0
290
     0
176
     0
290
     0
176
     0
290
     0
176
     0
290
     0
176
     0
 90
       50
176
     0
 40
0.0
176
     0
 40
1.0
176
     0
 90
        0
176
     0
 62
   178
420
        0
176
     0
 90
       50
176
     0
 90
        3
176
     0
 62
     5
420
      255
176
     0
290
     0
176
     0
 90
       50
176
     0
 90
       50
176
     0
 90
       50
176
     0
290
     0
176
     0
 90
       50
176
     0
 62
   256
176
     0
 40
1.0
176
     0
 90
        2
176
     0
  1
strokes_ogs.tif
176
     0
290
     0
176
     0
 40
1.0
176
     0
 40
1.0
176
     0
  0
VISUALSTYLE
  5
A7
102
{ACAD_REACTORS
330
99
102
}
330
99
100
AcDbVisualStyle
  2
Linepattern
 70
    14
177
     3
291
     1
 70
    58
 90
        2
176
     1
 90
        2
176
     1
 90
        1
176
     1
 90
        0
176
     1
 40
-0.6
176
     1
 40
-30.0
176
     1
 62
     7
420
 16777215
176
     1
 90
        1
176
     1
 90
        4
176
     1
 62
     7
176
     1
 62
   257
176
     1
 90
        7
176
     1
 90
        7
176
     1
 40
1.0
176
     1
 90
        8
176
     1
 62
     7
176
     1
 40
1.0
176
     1
 90
        1
176
     1
 90
        6
176
     1
 90
        2
176
     1
 62
     7
176
     1
 90
        5
176
     1
 90
        0
176
     1
 90
        0
176
     1
290
     0
176
     1
 90
        1
176
     1
 40
0.0
176
     1
 90
        0
176
     1
290
     0
176
     1
290
     1
176
     1
290
     1
176
     1
290
     0
176
     1
290
     0
176
     1
290
     0
176
     1
290
     0
176
     1
290
     0
176
     1
290
     0
176
     1
 90
       50
176
     1
 40
0.0
176
     1
 40
1.0
176
     1
 90
        0
176
     1
 62
   178
420
        0
176
     1
 90
       50
176
     1
 90
        3
176
     1
 62
     5
420
      255
176
     1
290
     0
176
     1
 90
       50
176
     1
 90
       50
176
     1
 90
       50
176
     1
290
     0
176
     1
 90
       50
176
     1
 62
   256
176
     0
 40
1.0
176
     0
 90
        2
176
     1
  1
strokes_ogs.tif
176
     1
290
     0
176
     1
 40
1.0
176
     1
 40
1.0
176
     1
  0
VISUALSTYLE
  5
E6
102
{ACAD_REACTORS
330
99
102
}
330
99
100
AcDbVisualStyle
  2
OverhangOff
 70
    21
177
     3
291
     1
 70
    58
 90
        2
176
     0
 90
        2
176
     0
 90
        0
176
     0
 90
        0
176
     0
 40
0.6
176
     0
 40
30.0
176
     0
 62
     7
420
 16777215
176
     0
 90
        1
176
     0
 90
        4
176
     0
 62
     7
176
     0
 62
   257
176
     0
 90
        1
176
     0
 90
        1
176
     0
 40
1.0
176
     0
 90
        9
176
     2
 62
     7
176
     0
 40
1.0
176
     0
 90
        1
176
     0
 90
        6
176
     0
 90
        2
176
     0
 62
     7
176
     0
 90
        5
176
     0
 90
        0
176
     0
 90
        0
176
     0
290
     0
176
     0
 90
        1
176
     0
 40
0.0
176
     0
 90
        0
176
     0
290
     0
176
     0
290
     1
176
     0
290
     1
176
     0
290
     0
176
     0
290
     0
176
     0
290
     0
176
     0
290
     0
176
     0
290
     0
176
     0
290
     0
176
     0
 90
       50
176
     0
 40
0.0
176
     0
 40
1.0
176
     0
 90
        0
176
     0
 62
   178
420
        0
176
     0
 90
       50
176
     0
 90
        3
176
     0
 62
     5
420
      255
176
     0
290
     0
176
     0
 90
       50
176
     0
 90
       50
176
     0
 90
       50
176
     0
290
     0
176
     0
 90
       50
176
     0
 62
   256
176
     0
 40
1.0
176
     0
 90
        2
176
     0
  1
strokes_ogs.tif
176
     0
290
     0
176
     0
 40
1.0
176
     0
 40
1.0
176
     0
  0
VISUALSTYLE
  5
A3
102
{ACAD_REACTORS
330
99
102
}
330
99
100
AcDbVisualStyle
  2
Realistic
 70
     8
177
     3
291
     0
 70
    58
 90
        2
176
     1
 90
        2
176
     1
 90
        1
176
     1
 90
        0
176
     1
 40
-0.6
176
     1
 40
-30.0
176
     1
 62
     7
420
 16777215
176
     1
 90
        1
176
     1
 90
        0
176
     1
 62
     7
176
     1
 62
   257
176
     1
 90
        1
176
     1
 90
        1
176
     1
 40
1.0
176
     1
 90
        8
176
     1
 62
     8
420
  7895160
176
     1
 40
1.0
176
     1
 90
        1
176
     1
 90
        6
176
     1
 90
        2
176
     1
 62
     7
176
     1
 90
        5
176
     1
 90
        0
176
     1
 90
        0
176
     1
290
     0
176
     1
 90
       13
176
     1
 40
0.0
176
     1
 90
        0
176
     1
290
     0
176
     1
290
     1
176
     1
290
     1
176
     1
290
     0
176
     1
290
     0
176
     1
290
     0
176
     1
290
     0
176
     1
290
     0
176
     1
290
     0
176
     1
 90
       50
176
     1
 40
0.0
176
     1
 40
1.0
176
     1
 90
        0
176
     1
 62
   178
420
        0
176
     1
 90
       50
176
     1
 90
        3
176
     1
 62
     5
420
      255
176
     1
290
     0
176
     1
 90
       50
176
     1
 90
       50
176
     1
 90
       50
176
     1
290
     0
176
     1
 90
       50
176
     1
 62
   256
176
     0
 40
1.0
176
     0
 90
        2
176
     1
  1
strokes_ogs.tif
176
     1
290
     0
176
     1
 40
1.0
176
     1
 40
1.0
176
     1
  0
VISUALSTYLE
  5
EC
102
{ACAD_REACTORS
330
99
102
}
330
99
100
AcDbVisualStyle
  2
Shaded
 70
    27
177
     3
291
     0
 70
    58
 90
        2
176
     1
 90
        2
176
     1
 90
        1
176
     1
 90
        2
176
     1
 40
0.6
176
     1
 40
30.0
176
     1
 62
     7
420
 16777215
176
     1
 90
        0
176
     1
 90
        4
176
     1
 62
     7
176
     1
 62
   257
176
     1
 90
        1
176
     1
 90
        1
176
     1
 40
1.0
176
     1
 90
        8
176
     1
 62
   257
176
     1
 40
1.0
176
     1
 90
        1
176
     1
 90
        6
176
     1
 90
        2
176
     1
 62
     8
420
  7895160
176
     1
 90
        3
176
     1
 90
        0
176
     1
 90
        0
176
     1
290
     0
176
     1
 90
        5
176
     1
 40
0.0
176
     1
 90
        0
176
     1
290
     0
176
     1
290
     1
176
     1
290
     1
176
     1
290
     0
176
     1
290
     0
176
     1
290
     0
176
     1
290
     0
176
     1
290
     0
176
     1
290
     0
176
     1
 90
       50
176
     1
 40
0.0
176
     1
 40
1.0
176
     1
 90
        0
176
     1
 62
   178
420
        0
176
     1
 90
       50
176
     1
 90
        3
176
     1
 62
     5
420
      255
176
     1
290
     0
176
     1
 90
       50
176
     1
 90
       50
176
     1
 90
       50
176
     1
290
     0
176
     1
 90
       50
176
     1
 62
   256
176
     0
 40
1.0
176
     0
 90
        2
176
     1
  1
strokes_ogs.tif
176
     1
290
     0
176
     1
 40
1.0
176
     1
 40
1.0
176
     1
  0
VISUALSTYLE
  5
EB
102
{ACAD_REACTORS
330
99
102
}
330
99
100
AcDbVisualStyle
  2
Shaded with edges
 70
    26
177
     3
291
     0
 70
    58
 90
        2
176
     1
 90
        2
176
     1
 90
        1
176
     1
 90
        2
176
     1
 40
0.6
176
     1
 40
30.0
176
     1
 62
     7
420
 16777215
176
     1
 90
        1
176
     1
 90
       10
176
     1
 62
     7
176
     1
 62
   257
176
     1
 90
        2
176
     1
 90
        1
176
     1
 40
1.0
176
     1
 90
        8
176
     1
 62
   257
176
     1
 40
1.0
176
     1
 90
        1
176
     1
 90
        6
176
     1
 90
        2
176
     1
 62
     7
176
     1
 90
        3
176
     1
 90
        0
176
     1
 90
        0
176
     1
290
     0
176
     1
 90
        5
176
     1
 40
0.0
176
     1
 90
        0
176
     1
290
     0
176
     1
290
     1
176
     1
290
     1
176
     1
290
     0
176
     1
290
     0
176
     1
290
     0
176
     1
290
     0
176
     1
290
     0
176
     1
290
     0
176
     1
 90
       50
176
     1
 40
0.0
176
     1
 40
1.0
176
     1
 90
        0
176
     1
 62
   178
420
        0
176
     1
 90
       50
176
     1
 90
        3
176
     1
 62
     5
420
      255
176
     1
290
     0
176
     1
 90
       50
176
     1
 90
       50
176
     1
 90
       50
176
     1
290
     0
176
     1
 90
       50
176
     1
 62
   256
176
     0
 40
1.0
176
     0
 90
        2
176
     1
  1
strokes_ogs.tif
176
     1
290
     0
176
     1
 40
1.0
176
     1
 40
1.0
176
     1
  0
VISUALSTYLE
  5
E8
102
{ACAD_REACTORS
330
99
102
}
330
99
100
AcDbVisualStyle
  2
Shades of Gray
 70
    23
177
     3
291
     0
 70
    58
 90
        2
176
     1
 90
        2
176
     1
 90
        3
176
     1
 90
        0
176
     1
 40
0.6
176
     1
 40
30.0
176
     1
 62
     7
420
 16777215
176
     1
 90
        2
176
     1
 90
        2
176
     1
 62
     7
176
     1
 62
     7
176
     1
 90
        1
176
     1
 90
        1
176
     1
 40
40.0
176
     1
 90
        8
176
     1
 62
     7
176
     1
 40
1.0
176
     1
 90
        1
176
     1
 90
        6
176
     1
 90
        2
176
     1
 62
     7
176
     1
 90
        3
176
     1
 90
        0
176
     1
 90
        0
176
     1
290
     0
176
     1
 90
        1
176
     1
 40
0.0
176
     1
 90
        0
176
     1
290
     0
176
     1
290
     1
176
     1
290
     1
176
     1
290
     0
176
     1
290
     0
176
     1
290
     0
176
     1
290
     0
176
     1
290
     0
176
     1
290
     0
176
     1
 90
       50
176
     1
 40
0.0
176
     1
 40
1.0
176
     1
 90
        0
176
     1
 62
   178
420
        0
176
     1
 90
       50
176
     1
 90
        3
176
     1
 62
     5
420
      255
176
     1
290
     0
176
     1
 90
       50
176
     1
 90
       50
176
     1
 90
       50
176
     1
290
     0
176
     1
 90
       50
176
     1
 62
   256
176
     0
 40
1.0
176
     0
 90
        2
176
     1
  1
strokes_ogs.tif
176
     1
290
     0
176
     1
 40
1.0
176
     1
 40
1.0
176
     1
  0
VISUALSTYLE
  5
E9
102
{ACAD_REACTORS
330
99
102
}
330
99
100
AcDbVisualStyle
  2
Sketchy
 70
    24
177
     3
291
     0
 70
    58
 90
        1
176
     1
 90
        2
176
     1
 90
        2
176
     1
 90
        0
176
     1
 40
0.6
176
     1
 40
30.0
176
     1
 62
     7
420
 16777215
176
     1
 90
        2
176
     1
 90
        2
176
     1
 62
     7
176
     1
 62
     7
176
     1
 90
        1
176
     1
 90
        1
176
     1
 40
40.0
176
     1
 90
       11
176
     1
 62
     7
176
     1
 40
1.0
176
     1
 90
        1
176
     1
 90
        6
176
     1
 90
        2
176
     1
 62
     7
176
     1
 90
        6
176
     1
 90
        0
176
     1
 90
        0
176
     1
290
     0
176
     1
 90
        1
176
     1
 40
0.0
176
     1
 90
        0
176
     1
290
     0
176
     1
290
     1
176
     1
290
     1
176
     1
290
     0
176
     1
290
     0
176
     1
290
     0
176
     1
290
     0
176
     1
290
     0
176
     1
290
     0
176
     1
 90
       50
176
     1
 40
0.0
176
     1
 40
1.0
176
     1
 90
        0
176
     1
 62
   178
420
        0
176
     1
 90
       50
176
     1
 90
        3
176
     1
 62
     5
420
      255
176
     1
290
     0
176
     1
 90
       50
176
     1
 90
       50
176
     1
 90
       50
176
     1
290
     0
176
     1
 90
       50
176
     1
 62
   256
176
     0
 40
1.0
176
     0
 90
        2
176
     1
  1
strokes_ogs.tif
176
     1
290
     0
176
     1
 40
1.0
176
     1
 40
1.0
176
     1
  0
VISUALSTYLE
  5
A6
102
{ACAD_REACTORS
330
99
102
}
330
99
100
AcDbVisualStyle
  2
Thicken
 70
    13
177
     3
291
     1
 70
    58
 90
        2
176
     1
 90
        2
176
     1
 90
        1
176
     1
 90
        0
176
     1
 40
-0.6
176
     1
 40
-30.0
176
     1
 62
     7
420
 16777215
176
     1
 90
        1
176
     1
 90
        4
176
     1
 62
     7
176
     1
 62
   257
176
     1
 90
        1
176
     1
 90
        1
176
     1
 40
1.0
176
     1
 90
       12
176
     1
 62
     7
176
     1
 40
1.0
176
     1
 90
        1
176
     1
 90
        6
176
     1
 90
        2
176
     1
 62
     7
176
     1
 90
        5
176
     1
 90
        0
176
     1
 90
        0
176
     1
290
     0
176
     1
 90
        1
176
     1
 40
0.0
176
     1
 90
        0
176
     1
290
     0
176
     1
290
     1
176
     1
290
     1
176
     1
290
     0
176
     1
290
     0
176
     1
290
     0
176
     1
290
     0
176
     1
290
     0
176
     1
290
     0
176
     1
 90
       50
176
     1
 40
0.0
176
     1
 40
1.0
176
     1
 90
        0
176
     1
 62
   178
420
        0
176
     1
 90
       50
176
     1
 90
        3
176
     1
 62
     5
420
      255
176
     1
290
     0
176
     1
 90
       50
176
     1
 90
       50
176
     1
 90
       50
176
     1
290
     0
176
     1
 90
       50
176
     1
 62
   256
176
     0
 40
1.0
176
     0
 90
        2
176
     1
  1
strokes_ogs.tif
176
     1
290
     0
176
     1
 40
1.0
176
     1
 40
1.0
176
     1
  0
VISUALSTYLE
  5
E3
102
{ACAD_REACTORS
330
99
102
}
330
99
100
AcDbVisualStyle
  2
Wireframe
 70
     5
177
     3
291
     0
 70
    58
 90
        0
176
     1
 90
        2
176
     1
 90
        0
176
     1
 90
        0
176
     1
 40
0.6
176
     1
 40
30.0
176
     1
 62
     7
420
 16777215
176
     1
 90
        1
176
     1
 90
        4
176
     1
 62
     7
176
     1
 62
   257
176
     1
 90
        1
176
     1
 90
        1
176
     1
 40
1.0
176
     1
 90
        0
176
     1
 62
   257
176
     1
 40
1.0
176
     1
 90
        1
176
     1
 90
        6
176
     1
 90
        2
176
     1
 62
     7
176
     1
 90
        3
176
     1
 90
        0
176
     1
 90
        0
176
     1
290
     0
176
     1
 90
        1
176
     1
 40
0.0
176
     1
 90
        0
176
     1
290
     0
176
     1
290
     1
176
     1
290
     1
176
     1
290
     0
176
     1
290
     0
176
     1
290
     0
176
     1
290
     0
176
     1
290
     0
176
     1
290
     0
176
     1
 90
       50
176
     1
 40
0.0
176
     1
 40
1.0
176
     1
 90
        0
176
     1
 62
   178
420
        0
176
     1
 90
       50
176
     1
 90
        3
176
     1
 62
     5
420
      255
176
     1
290
     0
176
     1
 90
       50
176
     1
 90
       50
176
     1
 90
       50
176
     1
290
     0
176
     1
 90
       50
176
     1
 62
   256
176
     0
 40
1.0
176
     0
 90
        2
176
     1
  1
strokes_ogs.tif
176
     1
290
     0
176
     1
 40
1.0
176
     1
 40
1.0
176
     1
  0
VISUALSTYLE
  5
EA
102
{ACAD_REACTORS
330
99
102
}
330
99
100
AcDbVisualStyle
  2
X-Ray
 70
    25
177
     3
291
     0
 70
    58
 90
        2
176
     1
 90
        2
176
     1
 90
        1
176
     1
 90
        1
176
     1
 40
0.5
176
     1
 40
30.0
176
     1
 62
     7
420
 16777215
176
     1
 90
        1
176
     1
 90
        0
176
     1
 62
     7
176
     1
 62
   257
176
     1
 90
        1
176
     1
 90
        1
176
     1
 40
1.0
176
     1
 90
        8
176
     1
 62
     7
176
     1
 40
1.0
176
     1
 90
        1
176
     1
 90
        6
176
     1
 90
        2
176
     1
 62
     7
176
     1
 90
        3
176
     1
 90
        0
176
     1
 90
        0
176
     1
290
     0
176
     1
 90
       13
176
     1
 40
0.0
176
     1
 90
        0
176
     1
290
     0
176
     1
290
     1
176
     1
290
     1
176
     1
290
     0
176
     1
290
     0
176
     1
290
     0
176
     1
290
     0
176
     1
290
     0
176
     1
290
     0
176
     1
 90
       50
176
     1
 40
0.0
176
     1
 40
1.0
176
     1
 90
        0
176
     1
 62
   178
420
        0
176
     1
 90
       50
176
     1
 90
        3
176
     1
 62
     5
420
      255
176
     1
290
     0
176
     1
 90
       50
176
     1
 90
       50
176
     1
 90
       50
176
     1
290
     0
176
     1
 90
       50
176
     1
 62
   256
176
     0
 40
1.0
176
     0
 90
        2
176
     1
  1
strokes_ogs.tif
176
     1
290
     0
176
     1
 40
1.0
176
     1
 40
1.0
176
     1
  0
DICTIONARYVAR
  5
D8
102
{ACAD_REACTORS
330
66
102
}
330
66
100
DictionaryVariables
280
     0
  1
1:1
  0
DICTIONARYVAR
  5
333
102
{ACAD_REACTORS
330
66
102
}
330
66
100
DictionaryVariables
280
     0
  1
Standard
  0
DICTIONARYVAR
  5
89
102
{ACAD_REACTORS
330
66
102
}
330
66
100
DictionaryVariables
280
     0
  1
Standard
  0
DICTIONARYVAR
  5
67
102
{ACAD_REACTORS
330
66
102
}
330
66
100
DictionaryVariables
280
     0
  1
2
  0
DICTIONARYVAR
  5
6B
102
{ACAD_REACTORS
330
66
102
}
330
66
100
DictionaryVariables
280
     0
  1
1
  0
DICTIONARYVAR
  5
DF
102
{ACAD_REACTORS
330
66
102
}
330
66
100
DictionaryVariables
280
     0
  1
0
  0
DICTIONARYVAR
  5
E0
102
{ACAD_REACTORS
330
66
102
}
330
66
100
DictionaryVariables
280
     0
  1
0
  0
DICTIONARY
  5
330
330
87
100
AcDbDictionary
280
     1
281
     1
  3
ACAD_ROUNDTRIP_2008_TABLESTYLE_CELLSTYLEMAP
360
331
  0
CELLSTYLEMAP
  5
331
102
{ACAD_REACTORS
330
330
102
}
330
330
100
AcDbCellStyleMap
 90
        3
300
CELLSTYLE
  1
TABLEFORMAT_BEGIN
 90
        5
170
     1
 91
        0
 92
    32768
 62
   257
 93
        1
300
CONTENTFORMAT
  1
CONTENTFORMAT_BEGIN
 90
        0
 91
        0
 92
      512
 93
        0
300

 40
0.0
140
1.0
 94
        5
 62
     0
340
11
144
0.25
309
CONTENTFORMAT_END
171
     0
 94
        6
 95
        1
302
GRIDFORMAT
  1
GRIDFORMAT_BEGIN
 90
        0
 91
        1
 62
     0
 92
       -2
340
0
 93
        0
 40
0.045
309
GRIDFORMAT_END
 95
        2
302
GRIDFORMAT
  1
GRIDFORMAT_BEGIN
 90
        0
 91
        1
 62
     0
 92
       -2
340
0
 93
        0
 40
0.045
309
GRIDFORMAT_END
 95
        4
302
GRIDFORMAT
  1
GRIDFORMAT_BEGIN
 90
        0
 91
        1
 62
     0
 92
       -2
340
0
 93
        0
 40
0.045
309
GRIDFORMAT_END
 95
        8
302
GRIDFORMAT
  1
GRIDFORMAT_BEGIN
 90
        0
 91
        1
 62
     0
 92
       -2
340
0
 93
        0
 40
0.045
309
GRIDFORMAT_END
 95
       16
302
GRIDFORMAT
  1
GRIDFORMAT_BEGIN
 90
        0
 91
        1
 62
     0
 92
       -2
340
0
 93
        0
 40
0.045
309
GRIDFORMAT_END
 95
       32
302
GRIDFORMAT
  1
GRIDFORMAT_BEGIN
 90
        0
 91
        1
 62
     0
 92
       -2
340
0
 93
        0
 40
0.045
309
GRIDFORMAT_END
309
TABLEFORMAT_END
  1
CELLSTYLE_BEGIN
 90
        1
 91
        1
300
_TITLE
309
CELLSTYLE_END
300
CELLSTYLE
  1
TABLEFORMAT_BEGIN
 90
        5
170
     1
 91
        0
 92
        0
 62
   257
 93
        1
300
CONTENTFORMAT
  1
CONTENTFORMAT_BEGIN
 90
        0
 91
        0
 92
      512
 93
        0
300

 40
0.0
140
1.0
 94
        5
 62
     0
340
11
144
0.18
309
CONTENTFORMAT_END
171
     0
 94
        6
 95
        1
302
GRIDFORMAT
  1
GRIDFORMAT_BEGIN
 90
        0
 91
        1
 62
     0
 92
       -2
340
0
 93
        0
 40
0.045
309
GRIDFORMAT_END
 95
        2
302
GRIDFORMAT
  1
GRIDFORMAT_BEGIN
 90
        0
 91
        1
 62
     0
 92
       -2
340
0
 93
        0
 40
0.045
309
GRIDFORMAT_END
 95
        4
302
GRIDFORMAT
  1
GRIDFORMAT_BEGIN
 90
        0
 91
        1
 62
     0
 92
       -2
340
0
 93
        0
 40
0.045
309
GRIDFORMAT_END
 95
        8
302
GRIDFORMAT
  1
GRIDFORMAT_BEGIN
 90
        0
 91
        1
 62
     0
 92
       -2
340
0
 93
        0
 40
0.045
309
GRIDFORMAT_END
 95
       16
302
GRIDFORMAT
  1
GRIDFORMAT_BEGIN
 90
        0
 91
        1
 62
     0
 92
       -2
340
0
 93
        0
 40
0.045
309
GRIDFORMAT_END
 95
       32
302
GRIDFORMAT
  1
GRIDFORMAT_BEGIN
 90
        0
 91
        1
 62
     0
 92
       -2
340
0
 93
        0
 40
0.045
309
GRIDFORMAT_END
309
TABLEFORMAT_END
  1
CELLSTYLE_BEGIN
 90
        2
 91
        1
300
_HEADER
309
CELLSTYLE_END
300
CELLSTYLE
  1
TABLEFORMAT_BEGIN
 90
        5
170
     1
 91
        0
 92
        0
 62
   257
 93
        1
300
CONTENTFORMAT
  1
CONTENTFORMAT_BEGIN
 90
        0
 91
        0
 92
      512
 93
        0
300

 40
0.0
140
1.0
 94
        2
 62
     0
340
11
144
0.18
309
CONTENTFORMAT_END
171
     0
 94
        6
 95
        1
302
GRIDFORMAT
  1
GRIDFORMAT_BEGIN
 90
        0
 91
        1
 62
     0
 92
       -2
340
0
 93
        0
 40
0.045
309
GRIDFORMAT_END
 95
        2
302
GRIDFORMAT
  1
GRIDFORMAT_BEGIN
 90
        0
 91
        1
 62
     0
 92
       -2
340
0
 93
        0
 40
0.045
309
GRIDFORMAT_END
 95
        4
302
GRIDFORMAT
  1
GRIDFORMAT_BEGIN
 90
        0
 91
        1
 62
     0
 92
       -2
340
0
 93
        0
 40
0.045
309
GRIDFORMAT_END
 95
        8
302
GRIDFORMAT
  1
GRIDFORMAT_BEGIN
 90
        0
 91
        1
 62
     0
 92
       -2
340
0
 93
        0
 40
0.045
309
GRIDFORMAT_END
 95
       16
302
GRIDFORMAT
  1
GRIDFORMAT_BEGIN
 90
        0
 91
        1
 62
     0
 92
       -2
340
0
 93
        0
 40
0.045
309
GRIDFORMAT_END
 95
       32
302
GRIDFORMAT
  1
GRIDFORMAT_BEGIN
 90
        0
 91
        1
 62
     0
 92
       -2
340
0
 93
        0
 40
0.045
309
GRIDFORMAT_END
309
TABLEFORMAT_END
  1
CELLSTYLE_BEGIN
 90
        3
 91
        2
300
_DATA
309
CELLSTYLE_END
  0
ENDSEC
  0
EOF
