  0
SECTION
  2
HEADER
  9
$ACADVER
  1
AC1027
  9
$ACADMAINTVER
 70
     8
  9
$DWGCODEPAGE
  3
ANSI_932
  9
$REQUIREDVERSIONS
160
                 0
  9
$LASTSAVEDBY
  1
akihiro
  9
$INSBASE
 10
0.0
 20
0.0
 30
0.0
  9
$EXTMIN
 10
6.701059053772493
 20
7.174753623189588
 30
0.0
  9
$EXTMAX
 10
217.2824999652206
 20
139.606173782506
 30
0.0
  9
$LIMMIN
 10
0.0
 20
0.0
  9
$LIMMAX
 10
420.0
 20
297.0
  9
$ORTHOMODE
 70
     1
  9
$REGENMODE
 70
     1
  9
$FILLMODE
 70
     1
  9
$QTEXTMODE
 70
     0
  9
$MIRRTEXT
 70
     0
  9
$LTSCALE
 40
0.2
  9
$ATTMODE
 70
     1
  9
$TEXTSIZE
 40
3.0
  9
$TRACEWID
 40
1.0
  9
$TEXTSTYLE
  7
Standard
  9
$CLAYER
  8
文字
  9
$CELTYPE
  6
ByLayer
  9
$CECOLOR
 62
   256
  9
$CELTSCALE
 40
1.0
  9
$DISPSILH
 70
     0
  9
$DIMSCALE
 40
1.0
  9
$DIMASZ
 40
2.5
  9
$DIMEXO
 40
0.625
  9
$DIMDLI
 40
3.75
  9
$DIMRND
 40
0.0
  9
$DIMDLE
 40
0.0
  9
$DIMEXE
 40
1.25
  9
$DIMTP
 40
0.0
  9
$DIMTM
 40
0.0
  9
$DIMTXT
 40
2.5
  9
$DIMCEN
 40
2.5
  9
$DIMTSZ
 40
0.0
  9
$DIMTOL
 70
     0
  9
$DIMLIM
 70
     0
  9
$DIMTIH
 70
     0
  9
$DIMTOH
 70
     0
  9
$DIMSE1
 70
     0
  9
$DIMSE2
 70
     0
  9
$DIMTAD
 70
     1
  9
$DIMZIN
 70
     8
  9
$DIMBLK
  1

  9
$DIMASO
 70
     1
  9
$DIMSHO
 70
     1
  9
$DIMPOST
  1

  9
$DIMAPOST
  1

  9
$DIMALT
 70
     0
  9
$DIMALTD
 70
     3
  9
$DIMALTF
 40
0.03937007874016
  9
$DIMLFAC
 40
1.0
  9
$DIMTOFL
 70
     1
  9
$DIMTVP
 40
0.0
  9
$DIMTIX
 70
     0
  9
$DIMSOXD
 70
     0
  9
$DIMSAH
 70
     0
  9
$DIMBLK1
  1

  9
$DIMBLK2
  1

  9
$DIMSTYLE
  2
ISO-25
  9
$DIMCLRD
 70
     0
  9
$DIMCLRE
 70
     0
  9
$DIMCLRT
 70
     0
  9
$DIMTFAC
 40
1.0
  9
$DIMGAP
 40
0.625
  9
$DIMJUST
 70
     0
  9
$DIMSD1
 70
     0
  9
$DIMSD2
 70
     0
  9
$DIMTOLJ
 70
     0
  9
$DIMTZIN
 70
     8
  9
$DIMALTZ
 70
     0
  9
$DIMALTTZ
 70
     0
  9
$DIMUPT
 70
     0
  9
$DIMDEC
 70
     2
  9
$DIMTDEC
 70
     2
  9
$DIMALTU
 70
     2
  9
$DIMALTTD
 70
     3
  9
$DIMTXSTY
  7
Standard
  9
$DIMAUNIT
 70
     0
  9
$DIMADEC
 70
     0
  9
$DIMALTRND
 40
0.0
  9
$DIMAZIN
 70
     0
  9
$DIMDSEP
 70
    46
  9
$DIMATFIT
 70
     3
  9
$DIMFRAC
 70
     0
  9
$DIMLDRBLK
  1

  9
$DIMLUNIT
 70
     2
  9
$DIMLWD
 70
    -2
  9
$DIMLWE
 70
    -2
  9
$DIMTMOVE
 70
     0
  9
$DIMFXL
 40
1.0
  9
$DIMFXLON
 70
     0
  9
$DIMJOGANG
 40
0.7853981633974483
  9
$DIMTFILL
 70
     0
  9
$DIMTFILLCLR
 70
     0
  9
$DIMARCSYM
 70
     0
  9
$DIMLTYPE
  6

  9
$DIMLTEX1
  6

  9
$DIMLTEX2
  6

  9
$DIMTXTDIRECTION
 70
     0
  9
$LUNITS
 70
     2
  9
$LUPREC
 70
     4
  9
$SKETCHINC
 40
1.0
  9
$FILLETRAD
 40
2.0
  9
$AUNITS
 70
     0
  9
$AUPREC
 70
     0
  9
$MENU
  1
.
  9
$ELEVATION
 40
0.0
  9
$PELEVATION
 40
0.0
  9
$THICKNESS
 40
0.0
  9
$LIMCHECK
 70
     0
  9
$CHAMFERA
 40
0.0
  9
$CHAMFERB
 40
0.0
  9
$CHAMFERC
 40
0.0
  9
$CHAMFERD
 40
0.0
  9
$SKPOLY
 70
     0
  9
$TDCREATE
 40
2452936.788310359
  9
$TDUCREATE
 40
2452936.413310359
  9
$TDUPDATE
 40
2456741.422723738
  9
$TDUUPDATE
 40
2456741.047723738
  9
$TDINDWG
 40
1.08759875
  9
$TDUSRTIMER
 40
2456741.047505625
  9
$USRTIMER
 70
     1
  9
$ANGBASE
 50
0.0
  9
$ANGDIR
 70
     0
  9
$PDMODE
 70
     0
  9
$PDSIZE
 40
0.0
  9
$PLINEWID
 40
0.0
  9
$SPLFRAME
 70
     0
  9
$SPLINETYPE
 70
     6
  9
$SPLINESEGS
 70
     8
  9
$HANDSEED
  5
1D7D
  9
$SURFTAB1
 70
     6
  9
$SURFTAB2
 70
     6
  9
$SURFTYPE
 70
     6
  9
$SURFU
 70
     6
  9
$SURFV
 70
     6
  9
$UCSBASE
  2

  9
$UCSNAME
  2

  9
$UCSORG
 10
0.0
 20
0.0
 30
0.0
  9
$UCSXDIR
 10
1.0
 20
0.0
 30
0.0
  9
$UCSYDIR
 10
0.0
 20
1.0
 30
0.0
  9
$UCSORTHOREF
  2

  9
$UCSORTHOVIEW
 70
     0
  9
$UCSORGTOP
 10
0.0
 20
0.0
 30
0.0
  9
$UCSORGBOTTOM
 10
0.0
 20
0.0
 30
0.0
  9
$UCSORGLEFT
 10
0.0
 20
0.0
 30
0.0
  9
$UCSORGRIGHT
 10
0.0
 20
0.0
 30
0.0
  9
$UCSORGFRONT
 10
0.0
 20
0.0
 30
0.0
  9
$UCSORGBACK
 10
0.0
 20
0.0
 30
0.0
  9
$PUCSBASE
  2

  9
$PUCSNAME
  2

  9
$PUCSORG
 10
0.0
 20
0.0
 30
0.0
  9
$PUCSXDIR
 10
1.0
 20
0.0
 30
0.0
  9
$PUCSYDIR
 10
0.0
 20
1.0
 30
0.0
  9
$PUCSORTHOREF
  2

  9
$PUCSORTHOVIEW
 70
     0
  9
$PUCSORGTOP
 10
0.0
 20
0.0
 30
0.0
  9
$PUCSORGBOTTOM
 10
0.0
 20
0.0
 30
0.0
  9
$PUCSORGLEFT
 10
0.0
 20
0.0
 30
0.0
  9
$PUCSORGRIGHT
 10
0.0
 20
0.0
 30
0.0
  9
$PUCSORGFRONT
 10
0.0
 20
0.0
 30
0.0
  9
$PUCSORGBACK
 10
0.0
 20
0.0
 30
0.0
  9
$USERI1
 70
     0
  9
$USERI2
 70
     0
  9
$USERI3
 70
     0
  9
$USERI4
 70
     0
  9
$USERI5
 70
     0
  9
$USERR1
 40
0.0
  9
$USERR2
 40
0.0
  9
$USERR3
 40
0.0
  9
$USERR4
 40
0.0
  9
$USERR5
 40
0.0
  9
$WORLDVIEW
 70
     1
  9
$SHADEDGE
 70
     3
  9
$SHADEDIF
 70
    70
  9
$TILEMODE
 70
     1
  9
$MAXACTVP
 70
    64
  9
$PINSBASE
 10
0.0
 20
0.0
 30
0.0
  9
$PLIMCHECK
 70
     0
  9
$PEXTMIN
 10
-5.563045354333553
 20
-8.581001749020459
 30
0.0
  9
$PEXTMAX
 10
291.4369546456665
 20
201.4189982509796
 30
0.0
  9
$PLIMMIN
 10
-5.873749
 20
-5.87375
  9
$PLIMMAX
 10
291.052246
 20
204.099578
  9
$UNITMODE
 70
     0
  9
$VISRETAIN
 70
     1
  9
$PLINEGEN
 70
     0
  9
$PSLTSCALE
 70
     0
  9
$TREEDEPTH
 70
  3020
  9
$CMLSTYLE
  2
Standard
  9
$CMLJUST
 70
     0
  9
$CMLSCALE
 40
20.0
  9
$PROXYGRAPHICS
 70
     1
  9
$MEASUREMENT
 70
     1
  9
$CELWEIGHT
370
    -1
  9
$ENDCAPS
280
     0
  9
$JOINSTYLE
280
     0
  9
$LWDISPLAY
290
     0
  9
$INSUNITS
 70
     4
  9
$HYPERLINKBASE
  1

  9
$STYLESHEET
  1

  9
$XEDIT
290
     1
  9
$CEPSNTYPE
380
     0
  9
$PSTYLEMODE
290
     1
  9
$FINGERPRINTGUID
  2
{86E58535-AB5B-4AFE-AB1B-6758AAB7EA7D}
  9
$VERSIONGUID
  2
{8BEFDD4E-6743-4803-8635-03E1052F2918}
  9
$EXTNAMES
290
     1
  9
$PSVPSCALE
 40
0.0
  9
$OLESTARTUP
290
     0
  9
$SORTENTS
280
   127
  9
$INDEXCTL
280
     0
  9
$HIDETEXT
280
     1
  9
$XCLIPFRAME
280
     0
  9
$HALOGAP
280
     0
  9
$OBSCOLOR
 70
   257
  9
$OBSLTYPE
280
     0
  9
$INTERSECTIONDISPLAY
280
     0
  9
$INTERSECTIONCOLOR
 70
   257
  9
$DIMASSOC
280
     2
  9
$PROJECTNAME
  1

  9
$CAMERADISPLAY
290
     0
  9
$LENSLENGTH
 40
50.0
  9
$CAMERAHEIGHT
 40
0.0
  9
$STEPSPERSEC
 40
2.0
  9
$STEPSIZE
 40
6.0
  9
$3DDWFPREC
 40
2.0
  9
$PSOLWIDTH
 40
0.25
  9
$PSOLHEIGHT
 40
4.0
  9
$LOFTANG1
 40
1.570796326794897
  9
$LOFTANG2
 40
1.570796326794897
  9
$LOFTMAG1
 40
0.0
  9
$LOFTMAG2
 40
0.0
  9
$LOFTPARAM
 70
     7
  9
$LOFTNORMALS
280
     1
  9
$LATITUDE
 40
37.795
  9
$LONGITUDE
 40
-122.394
  9
$NORTHDIRECTION
 40
0.0
  9
$TIMEZONE
 70
 -8000
  9
$LIGHTGLYPHDISPLAY
280
     1
  9
$TILEMODELIGHTSYNCH
280
     1
  9
$SOLIDHIST
280
     1
  9
$SHOWHIST
280
     1
  9
$DWFFRAME
280
     2
  9
$DGNFRAME
280
     2
  9
$REALWORLDSCALE
290
     1
  9
$INTERFERECOLOR
 62
   256
  9
$CSHADOW
280
     0
  9
$SHADOWPLANELOCATION
 40
0.0
  0
ENDSEC
  0
SECTION
  2
CLASSES
  0
CLASS
  1
ACDBDICTIONARYWDFLT
  2
AcDbDictionaryWithDefault
  3
ObjectDBX Classes
 90
        0
 91
        5
280
     0
281
     0
  0
CLASS
  1
DIMASSOC
  2
AcDbDimAssoc
  3
"AcDbDimAssoc|Product Desc:     AcDim ARX App For Dimension|Company:          Autodesk, Inc.|WEB Address:      www.autodesk.com"
 90
        0
 91
        4
280
     0
281
     0
  0
CLASS
  1
DICTIONARYVAR
  2
AcDbDictionaryVar
  3
ObjectDBX Classes
 90
        0
 91
        4
280
     0
281
     0
  0
CLASS
  1
ACDBPLACEHOLDER
  2
AcDbPlaceHolder
  3
ObjectDBX Classes
 90
        0
 91
        1
280
     0
281
     0
  0
CLASS
  1
LAYOUT
  2
AcDbLayout
  3
ObjectDBX Classes
 90
        0
 91
        1
280
     0
281
     0
  0
CLASS
  1
VISUALSTYLE
  2
AcDbVisualStyle
  3
ObjectDBX Classes
 90
     4095
 91
        5
280
     0
281
     0
  0
CLASS
  1
SCALE
  2
AcDbScale
  3
ObjectDBX Classes
 90
     1153
 91
        5
280
     0
281
     0
  0
CLASS
  1
MATERIAL
  2
AcDbMaterial
  3
ObjectDBX Classes
 90
     1153
 91
        5
280
     0
281
     0
  0
CLASS
  1
TABLESTYLE
  2
AcDbTableStyle
  3
ObjectDBX Classes
 90
     4095
 91
        5
280
     0
281
     0
  0
CLASS
  1
SUN
  2
AcDbSun
  3
SCENEOE
 90
     1153
 91
        5
280
     0
281
     0
  0
CLASS
  1
RASTERVARIABLES
  2
AcDbRasterVariables
  3
ISM
 90
        0
 91
        5
280
     0
281
     0
  0
CLASS
  1
CELLSTYLEMAP
  2
AcDbCellStyleMap
  3
ObjectDBX Classes
 90
     1152
 91
        4
280
     0
281
     0
  0
ENDSEC
  0
SECTION
  2
TABLES
  0
TABLE
  2
VPORT
  5
8
330
0
100
AcDbSymbolTable
 70
     1
  0
VPORT
  5
1CB6
330
8
100
AcDbSymbolTableRecord
100
AcDbViewportTableRecord
  2
*Active
 70
     0
 10
0.0
 20
0.0
 11
1.0
 21
1.0
 12
111.9917795094966
 22
73.3904637028478
 13
0.0
 23
0.0
 14
10.0
 24
10.0
 15
10.0
 25
10.0
 16
0.0
 26
0.0
 36
1.0
 17
0.0
 27
0.0
 37
0.0
 40
135.0800485625028
 41
1.762376237623762
 42
50.0
 43
0.0
 44
0.0
 50
0.0
 51
0.0
 71
    16
 72
  1000
 73
     1
 74
     3
 75
     0
 76
     0
 77
     0
 78
     0
281
     0
 65
     1
110
0.0
120
0.0
130
0.0
111
1.0
121
0.0
131
0.0
112
0.0
122
1.0
132
0.0
 79
     0
146
0.0
348
1CBC
 60
     3
 61
     5
292
     1
282
     1
141
0.0
142
0.0
 63
   256
361
1CF8
  0
ENDTAB
  0
TABLE
  2
LTYPE
  5
5
330
0
100
AcDbSymbolTable
 70
     6
  0
LTYPE
  5
14
330
5
100
AcDbSymbolTableRecord
100
AcDbLinetypeTableRecord
  2
ByBlock
 70
     0
  3

 72
    65
 73
     0
 40
0.0
  0
LTYPE
  5
15
330
5
100
AcDbSymbolTableRecord
100
AcDbLinetypeTableRecord
  2
ByLayer
 70
     0
  3

 72
    65
 73
     0
 40
0.0
  0
LTYPE
  5
16
330
5
100
AcDbSymbolTableRecord
100
AcDbLinetypeTableRecord
  2
Continuous
 70
     0
  3
Solid line
 72
    65
 73
     0
 40
0.0
  0
LTYPE
  5
35
330
5
100
AcDbSymbolTableRecord
100
AcDbLinetypeTableRecord
  2
ACAD_ISO08W100
 70
     0
  3
ISO long-dash short-dash ____ __ ____ __ ____ _
 72
    65
 73
     4
 40
36.0
 49
24.0
 74
     0
 49
-3.0
 74
     0
 49
6.0
 74
     0
 49
-3.0
 74
     0
  0
LTYPE
  5
127
330
5
100
AcDbSymbolTableRecord
100
AcDbLinetypeTableRecord
  2
HIDDENX2
 70
     0
  3
Hidden (2x) ____ ____ ____ ____ ____ ____ ____
 72
    65
 73
     2
 40
19.05
 49
12.7
 74
     0
 49
-6.35
 74
     0
  0
LTYPE
  5
5EC
330
5
100
AcDbSymbolTableRecord
100
AcDbLinetypeTableRecord
  2
CENTER
 70
     0
  3
Center ____ _ ____ _ ____ _ ____ _ ____ _ ____
 72
    65
 73
     4
 40
50.8
 49
31.75
 74
     0
 49
-6.35
 74
     0
 49
6.35
 74
     0
 49
-6.35
 74
     0
  0
LTYPE
  5
5ED
330
5
100
AcDbSymbolTableRecord
100
AcDbLinetypeTableRecord
  2
ACAD_ISO02W100
 70
     0
  3
ISO dash __ __ __ __ __ __ __ __ __ __ __ __ __
 72
    65
 73
     2
 40
15.0
 49
12.0
 74
     0
 49
-3.0
 74
     0
  0
LTYPE
  5
605
330
5
100
AcDbSymbolTableRecord
100
AcDbLinetypeTableRecord
  2
DASHED
 70
     0
  3
Dashed __ __ __ __ __ __ __ __ __ __ __ __ __ _
 72
    65
 73
     2
 40
19.05
 49
12.7
 74
     0
 49
-6.35
 74
     0
  0
ENDTAB
  0
TABLE
  2
LAYER
  5
2
330
0
100
AcDbSymbolTable
 70
     9
  0
LAYER
  5
10
330
2
100
AcDbSymbolTableRecord
100
AcDbLayerTableRecord
  2
0
 70
     0
 62
     7
  6
Continuous
370
    -3
390
F
347
1CF4
348
0
  0
LAYER
  5
2E
330
2
100
AcDbSymbolTableRecord
100
AcDbLayerTableRecord
  2
枠
 70
     0
 62
     1
  6
Continuous
370
    30
390
F
347
1CF4
348
0
  0
LAYER
  5
2F
330
2
100
AcDbSymbolTableRecord
100
AcDbLayerTableRecord
  2
文字
 70
     0
 62
     7
  6
Continuous
370
    18
390
F
347
1CF4
348
0
  0
LAYER
  5
36
330
2
100
AcDbSymbolTableRecord
100
AcDbLayerTableRecord
  2
中心線
 70
     0
 62
     7
  6
CENTER
370
    15
390
F
347
1CF4
348
0
  0
LAYER
  5
52
330
2
100
AcDbSymbolTableRecord
100
AcDbLayerTableRecord
  2
隠れ線
 70
     0
 62
     2
  6
Continuous
290
     0
370
    -3
390
F
347
1CF4
348
0
  0
LAYER
  5
128
330
2
100
AcDbSymbolTableRecord
100
AcDbLayerTableRecord
  2
実線
 70
     0
 62
     7
  6
Continuous
370
    20
390
F
347
1CF4
348
0
  0
LAYER
  5
129
330
2
100
AcDbSymbolTableRecord
100
AcDbLayerTableRecord
  2
破線
 70
     0
 62
     7
  6
DASHED
370
    15
390
F
347
1CF4
348
0
  0
LAYER
  5
677
330
2
100
AcDbSymbolTableRecord
100
AcDbLayerTableRecord
  2
Defpoints
 70
     0
 62
     7
  6
Continuous
290
     0
370
    -3
390
F
347
1CF4
348
0
  0
LAYER
  5
1D08
330
2
100
AcDbSymbolTableRecord
100
AcDbLayerTableRecord
  2
文字・寸法線
 70
     0
 62
     7
  6
Continuous
370
    -3
390
F
347
1CF4
348
0
  0
ENDTAB
  0
TABLE
  2
STYLE
  5
3
330
0
100
AcDbSymbolTable
 70
     2
  0
STYLE
  5
11
330
3
100
AcDbSymbolTableRecord
100
AcDbTextStyleTableRecord
  2
Standard
 70
     0
 40
0.0
 41
1.0
 50
0.0
 71
     0
 42
3.0
  3
txt.shx
  4
bigfont.shx
  0
STYLE
  5
34
330
3
100
AcDbSymbolTableRecord
100
AcDbTextStyleTableRecord
  2

 70
     1
 40
0.0
 41
1.0
 50
0.0
 71
     0
 42
2.5
  3
ltypeshp.shx
  4

  0
ENDTAB
  0
TABLE
  2
VIEW
  5
6
330
0
100
AcDbSymbolTable
 70
     0
  0
ENDTAB
  0
TABLE
  2
UCS
  5
7
330
0
100
AcDbSymbolTable
 70
     0
  0
ENDTAB
  0
TABLE
  2
APPID
  5
9
330
0
100
AcDbSymbolTable
 70
     4
  0
APPID
  5
12
330
9
100
AcDbSymbolTableRecord
100
AcDbRegAppTableRecord
  2
ACAD
 70
     0
  0
APPID
  5
1282
330
9
100
AcDbSymbolTableRecord
100
AcDbRegAppTableRecord
  2
ACAD_DIMASSOC_CALC_DIMLFAC
 70
     0
  0
APPID
  5
1283
330
9
100
AcDbSymbolTableRecord
100
AcDbRegAppTableRecord
  2
ACAD_DIMASSOC_DIMLFAC
 70
     0
  0
APPID
  5
1284
330
9
100
AcDbSymbolTableRecord
100
AcDbRegAppTableRecord
  2
ACAD_DIMASSOC_OVERRIDDEN_DIMLFAC
 70
     0
  0
ENDTAB
  0
TABLE
  2
DIMSTYLE
  5
A
330
0
100
AcDbSymbolTable
 70
     2
100
AcDbDimStyleTable
  0
DIMSTYLE
105
29
102
{ACAD_REACTORS
330
1B47
330
1B50
330
1B51
330
1B57
330
1B5D
330
1B5E
330
1B61
330
1D59
330
1D6B
102
}
330
A
100
AcDbSymbolTableRecord
100
AcDbDimStyleTableRecord
  2
ISO-25
 70
     0
 41
2.5
 42
0.625
 43
3.75
 44
1.25
 73
     0
 74
     0
 77
     1
 78
     8
140
2.5
141
2.5
143
0.03937007874016
147
0.625
171
     3
172
     1
178
     0
271
     2
272
     2
274
     3
283
     0
284
     8
340
11
  0
DIMSTYLE
105
1D0A
330
A
100
AcDbSymbolTableRecord
100
AcDbDimStyleTableRecord
  2
Standard
 70
     0
178
     0
340
11
  0
ENDTAB
  0
TABLE
  2
BLOCK_RECORD
  5
1
330
0
100
AcDbSymbolTable
 70
    35
  0
BLOCK_RECORD
  5
21
330
1
100
AcDbSymbolTableRecord
100
AcDbBlockTableRecord
  2
*Model_Space
340
24
 70
     0
280
     1
281
     0
  0
BLOCK_RECORD
  5
1D
330
1
100
AcDbSymbolTableRecord
100
AcDbBlockTableRecord
  2
*Paper_Space
340
20
 70
     0
280
     1
281
     0
  0
BLOCK_RECORD
  5
1581
330
1
100
AcDbSymbolTableRecord
100
AcDbBlockTableRecord
  2
_Dot
340
0
 70
     0
280
     1
281
     0
  0
BLOCK_RECORD
  5
1591
330
1
100
AcDbSymbolTableRecord
100
AcDbBlockTableRecord
  2
_None
340
0
 70
     0
280
     1
281
     0
  0
BLOCK_RECORD
  5
15A6
330
1
100
AcDbSymbolTableRecord
100
AcDbBlockTableRecord
  2
_DatumFilled
340
0
 70
     0
280
     1
281
     0
  0
BLOCK_RECORD
  5
16CF
330
1
100
AcDbSymbolTableRecord
100
AcDbBlockTableRecord
  2
_DotSmall
340
0
 70
     0
280
     1
281
     0
  0
BLOCK_RECORD
  5
1992
330
1
100
AcDbSymbolTableRecord
100
AcDbBlockTableRecord
  2
*D4
340
0
 70
     0
280
     1
281
     0
  0
BLOCK_RECORD
  5
199E
330
1
100
AcDbSymbolTableRecord
100
AcDbBlockTableRecord
  2
*D5
340
0
 70
     0
280
     1
281
     0
  0
BLOCK_RECORD
  5
19AC
330
1
100
AcDbSymbolTableRecord
100
AcDbBlockTableRecord
  2
*D6
340
0
 70
     0
280
     1
281
     0
  0
BLOCK_RECORD
  5
19B8
330
1
100
AcDbSymbolTableRecord
100
AcDbBlockTableRecord
  2
*D7
340
0
 70
     0
280
     1
281
     0
  0
BLOCK_RECORD
  5
19C4
330
1
100
AcDbSymbolTableRecord
100
AcDbBlockTableRecord
  2
*D8
340
0
 70
     0
280
     1
281
     0
  0
BLOCK_RECORD
  5
19D0
330
1
100
AcDbSymbolTableRecord
100
AcDbBlockTableRecord
  2
*D9
340
0
 70
     0
280
     1
281
     0
  0
BLOCK_RECORD
  5
19DC
330
1
100
AcDbSymbolTableRecord
100
AcDbBlockTableRecord
  2
*D10
340
0
 70
     0
280
     1
281
     0
  0
BLOCK_RECORD
  5
19ED
330
1
100
AcDbSymbolTableRecord
100
AcDbBlockTableRecord
  2
*D11
340
0
 70
     0
280
     1
281
     0
  0
BLOCK_RECORD
  5
19F9
330
1
100
AcDbSymbolTableRecord
100
AcDbBlockTableRecord
  2
*D12
340
0
 70
     0
280
     1
281
     0
  0
BLOCK_RECORD
  5
1A05
330
1
100
AcDbSymbolTableRecord
100
AcDbBlockTableRecord
  2
A$C76A36C9E
340
0
 70
     0
280
     1
281
     0
  0
BLOCK_RECORD
  5
1AA8
330
1
100
AcDbSymbolTableRecord
100
AcDbBlockTableRecord
  2
*D14
340
0
 70
     0
280
     1
281
     0
  0
BLOCK_RECORD
  5
1AB4
330
1
100
AcDbSymbolTableRecord
100
AcDbBlockTableRecord
  2
*D15
340
0
 70
     0
280
     1
281
     0
  0
BLOCK_RECORD
  5
1AC0
330
1
100
AcDbSymbolTableRecord
100
AcDbBlockTableRecord
  2
*D16
340
0
 70
     0
280
     1
281
     0
  0
BLOCK_RECORD
  5
1ACC
330
1
100
AcDbSymbolTableRecord
100
AcDbBlockTableRecord
  2
*D17
340
0
 70
     0
280
     1
281
     0
  0
BLOCK_RECORD
  5
1AD8
330
1
100
AcDbSymbolTableRecord
100
AcDbBlockTableRecord
  2
*D18
340
0
 70
     0
280
     1
281
     0
  0
BLOCK_RECORD
  5
1AE6
330
1
100
AcDbSymbolTableRecord
100
AcDbBlockTableRecord
  2
*D19
340
0
 70
     0
280
     1
281
     0
  0
BLOCK_RECORD
  5
1AF2
330
1
100
AcDbSymbolTableRecord
100
AcDbBlockTableRecord
  2
*D20
340
0
 70
     0
280
     1
281
     0
  0
BLOCK_RECORD
  5
1AFE
330
1
100
AcDbSymbolTableRecord
100
AcDbBlockTableRecord
  2
*D21
340
0
 70
     0
280
     1
281
     0
  0
BLOCK_RECORD
  5
1B0A
330
1
100
AcDbSymbolTableRecord
100
AcDbBlockTableRecord
  2
A$C518B1B4A
340
0
 70
     0
280
     1
281
     0
  0
BLOCK_RECORD
  5
1B7F
330
1
100
AcDbSymbolTableRecord
100
AcDbBlockTableRecord
  2
*D23
340
0
 70
     0
280
     1
281
     0
  0
BLOCK_RECORD
  5
1B8B
330
1
100
AcDbSymbolTableRecord
100
AcDbBlockTableRecord
  2
*D24
340
0
 70
     0
280
     1
281
     0
  0
BLOCK_RECORD
  5
1B97
330
1
100
AcDbSymbolTableRecord
100
AcDbBlockTableRecord
  2
*D25
340
0
 70
     0
280
     1
281
     0
  0
BLOCK_RECORD
  5
1BAC
330
1
100
AcDbSymbolTableRecord
100
AcDbBlockTableRecord
  2
*D26
340
0
 70
     0
280
     1
281
     0
  0
BLOCK_RECORD
  5
1BB8
330
1
100
AcDbSymbolTableRecord
100
AcDbBlockTableRecord
  2
*D27
340
0
 70
     0
280
     1
281
     0
  0
BLOCK_RECORD
  5
1BC6
330
1
100
AcDbSymbolTableRecord
100
AcDbBlockTableRecord
  2
*D28
340
0
 70
     0
280
     1
281
     0
  0
BLOCK_RECORD
  5
1BDB
330
1
100
AcDbSymbolTableRecord
100
AcDbBlockTableRecord
  2
*D29
340
0
 70
     0
280
     1
281
     0
  0
BLOCK_RECORD
  5
1BE7
330
1
100
AcDbSymbolTableRecord
100
AcDbBlockTableRecord
  2
*D30
340
0
 70
     0
280
     1
281
     0
  0
BLOCK_RECORD
  5
1C7A
330
1
100
AcDbSymbolTableRecord
100
AcDbBlockTableRecord
  2
*D31
340
0
 70
     0
280
     1
281
     0
  0
BLOCK_RECORD
  5
1D5C
330
1
100
AcDbSymbolTableRecord
100
AcDbBlockTableRecord
  2
*D33
340
0
 70
     0
280
     1
281
     0
  0
BLOCK_RECORD
  5
1D6E
330
1
100
AcDbSymbolTableRecord
100
AcDbBlockTableRecord
  2
*D34
340
0
 70
     0
280
     1
281
     0
  0
ENDTAB
  0
ENDSEC
  0
SECTION
  2
BLOCKS
  0
BLOCK
  5
22
330
21
100
AcDbEntity
  8
0
100
AcDbBlockBegin
  2
*Model_Space
 70
     0
 10
0.0
 20
0.0
 30
0.0
  3
*Model_Space
  1
*Model_Space
  0
ENDBLK
  5
23
330
21
100
AcDbEntity
  8
0
100
AcDbBlockEnd
  0
BLOCK
  5
1E
330
1D
100
AcDbEntity
 67
     1
  8
0
100
AcDbBlockBegin
  2
*Paper_Space
 70
     0
 10
0.0
 20
0.0
 30
0.0
  3
*Paper_Space
  1
*Paper_Space
  0
ENDBLK
  5
1F
330
1D
100
AcDbEntity
 67
     1
  8
0
100
AcDbBlockEnd
  0
BLOCK
  5
1584
330
1581
100
AcDbEntity
  8
0
 62
     0
100
AcDbBlockBegin
  2
_Dot
 70
     0
 10
0.0
 20
0.0
 30
0.0
  3
_Dot
  1
_Dot
  0
LWPOLYLINE
  5
1582
330
1581
100
AcDbEntity
  8
0
  6
ByBlock
 62
     0
100
AcDbPolyline
 90
        2
 70
     1
 43
0.5
 10
-0.25
 20
0.0
 42
1.0
 10
0.25
 20
0.0
 42
1.0
  0
LINE
  5
1583
330
1581
100
AcDbEntity
  8
0
  6
ByBlock
 62
     0
370
    -2
100
AcDbLine
 10
-0.5
 20
0.0
 30
0.0
 11
-1.0
 21
0.0
 31
0.0
  0
ENDBLK
  5
1585
330
1581
100
AcDbEntity
  8
0
 62
     0
100
AcDbBlockEnd
  0
BLOCK
  5
1592
330
1591
100
AcDbEntity
  8
0
 62
     0
100
AcDbBlockBegin
  2
_None
 70
     0
 10
0.0
 20
0.0
 30
0.0
  3
_None
  1
_None
  0
ENDBLK
  5
1593
330
1591
100
AcDbEntity
  8
0
 62
     0
100
AcDbBlockEnd
  0
BLOCK
  5
15A8
330
15A6
100
AcDbEntity
  8
0
 62
     0
100
AcDbBlockBegin
  2
_DatumFilled
 70
     0
 10
0.0
 20
0.0
 30
0.0
  3
_DatumFilled
  1
_DatumFilled
  0
SOLID
  5
15A7
330
15A6
100
AcDbEntity
  8
0
  6
ByBlock
 62
     0
100
AcDbTrace
 10
0.0
 20
0.57735027
 30
0.0
 11
-1.0
 21
0.0
 31
0.0
 12
0.0
 22
-0.57735027
 32
0.0
 13
0.0
 23
-0.57735027
 33
0.0
  0
ENDBLK
  5
15A9
330
15A6
100
AcDbEntity
  8
0
 62
     0
100
AcDbBlockEnd
  0
BLOCK
  5
16D1
330
16CF
100
AcDbEntity
  8
0
 62
     0
100
AcDbBlockBegin
  2
_DotSmall
 70
     0
 10
0.0
 20
0.0
 30
0.0
  3
_DotSmall
  1
_DotSmall
  0
LWPOLYLINE
  5
16D0
330
16CF
100
AcDbEntity
  8
0
  6
ByBlock
 62
     0
100
AcDbPolyline
 90
        2
 70
     1
 43
0.5
 10
-0.0625
 20
0.0
 42
1.0
 10
0.0625
 20
0.0
 42
1.0
  0
ENDBLK
  5
16D2
330
16CF
100
AcDbEntity
  8
0
 62
     0
100
AcDbBlockEnd
  0
BLOCK
  5
1993
330
1992
100
AcDbEntity
  8
0
370
    30
100
AcDbBlockBegin
  2
*D4
 70
     1
 10
0.0
 20
0.0
 30
0.0
  3
*D4
  1
*D4
  0
LINE
  5
1994
330
1992
100
AcDbEntity
  8
文字
 62
     0
370
    -2
100
AcDbLine
 10
192.2214242466307
 20
115.3847432098993
 30
0.0
 11
192.2214242466307
 21
74.91396239368606
 31
0.0
  0
LINE
  5
1995
330
1992
100
AcDbEntity
  8
文字
 62
     0
370
    -2
100
AcDbLine
 10
220.2214242466307
 20
115.3847432098993
 30
0.0
 11
220.2214242466307
 21
74.91396239368606
 31
0.0
  0
LINE
  5
1996
330
1992
100
AcDbEntity
  8
文字
 62
     0
370
    -2
100
AcDbLine
 10
194.7214242466307
 20
76.16396239368606
 30
0.0
 11
217.7214242466307
 21
76.16396239368606
 31
0.0
  0
SOLID
  5
1997
330
1992
100
AcDbEntity
  8
文字
 62
     0
100
AcDbTrace
 10
194.7214242466307
 20
76.58062906035273
 30
0.0
 11
194.7214242466307
 21
75.74729572701939
 31
0.0
 12
192.2214242466307
 22
76.16396239368606
 32
0.0
 13
192.2214242466307
 23
76.16396239368606
 33
0.0
  0
SOLID
  5
1998
330
1992
100
AcDbEntity
  8
文字
 62
     0
100
AcDbTrace
 10
217.7214242466307
 20
76.58062906035273
 30
0.0
 11
217.7214242466307
 21
75.74729572701939
 31
0.0
 12
220.2214242466307
 22
76.16396239368606
 32
0.0
 13
220.2214242466307
 23
76.16396239368606
 33
0.0
  0
MTEXT
  5
1999
330
1992
100
AcDbEntity
  8
文字
 62
     0
100
AcDbMText
 10
206.2214242466307
 20
78.03896239368606
 30
0.0
 40
2.5
 41
0.0
 46
0.0
 71
     5
 72
     1
  1
%%c28
 73
     1
 44
1.0
  0
POINT
  5
199A
330
1992
100
AcDbEntity
  8
Defpoints
 62
     0
100
AcDbPoint
 10
192.2214242466307
 20
116.0097432098993
 30
0.0
  0
POINT
  5
199B
330
1992
100
AcDbEntity
  8
Defpoints
 62
     0
100
AcDbPoint
 10
220.2214242466307
 20
116.0097432098993
 30
0.0
  0
POINT
  5
199C
330
1992
100
AcDbEntity
  8
Defpoints
 62
     0
100
AcDbPoint
 10
220.2214242466307
 20
76.16396239368606
 30
0.0
  0
ENDBLK
  5
199D
330
1992
100
AcDbEntity
  8
0
370
    30
100
AcDbBlockEnd
  0
BLOCK
  5
199F
330
199E
100
AcDbEntity
  8
0
370
    30
100
AcDbBlockBegin
  2
*D5
 70
     1
 10
0.0
 20
0.0
 30
0.0
  3
*D5
  1
*D5
  0
LINE
  5
19A0
330
199E
100
AcDbEntity
  8
文字
 62
     0
370
    -2
100
AcDbLine
 10
71.59625003018851
 20
83.94882055485836
 30
0.0
 11
55.97592567393417
 21
83.94882055485836
 31
0.0
  0
LINE
  5
19A1
330
199E
100
AcDbEntity
  8
文字
 62
     0
370
    -2
100
AcDbLine
 10
71.59625003018851
 20
82.34882055485836
 30
0.0
 11
55.97592567393417
 21
82.34882055485836
 31
0.0
  0
LINE
  5
19A2
330
199E
100
AcDbEntity
  8
文字
 62
     0
370
    -2
100
AcDbLine
 10
57.22592567393417
 20
86.44882055485836
 30
0.0
 11
57.22592567393417
 21
88.94882055485836
 31
0.0
  0
LINE
  5
19A3
330
199E
100
AcDbEntity
  8
文字
 62
     0
370
    -2
100
AcDbLine
 10
57.22592567393416
 20
79.84882055485836
 30
0.0
 11
57.22592567393416
 21
71.93215388819169
 31
0.0
  0
LINE
  5
19A4
330
199E
100
AcDbEntity
  8
文字
 62
     0
370
    -2
100
AcDbLine
 10
57.22592567393417
 20
83.94882055485836
 30
0.0
 11
57.22592567393417
 21
82.34882055485836
 31
0.0
  0
SOLID
  5
19A5
330
199E
100
AcDbEntity
  8
文字
 62
     0
100
AcDbTrace
 10
56.80925900726751
 20
86.44882055485836
 30
0.0
 11
57.64259234060084
 21
86.44882055485836
 31
0.0
 12
57.22592567393417
 22
83.94882055485836
 32
0.0
 13
57.22592567393417
 23
83.94882055485836
 33
0.0
  0
SOLID
  5
19A6
330
199E
100
AcDbEntity
  8
文字
 62
     0
100
AcDbTrace
 10
56.8092590072675
 20
79.84882055485836
 30
0.0
 11
57.64259234060083
 21
79.84882055485836
 31
0.0
 12
57.22592567393417
 22
82.34882055485836
 32
0.0
 13
57.22592567393417
 23
82.34882055485836
 33
0.0
  0
MTEXT
  5
19A7
330
199E
100
AcDbEntity
  8
文字
 62
     0
100
AcDbMText
 10
55.35092567393416
 20
74.64048722152505
 30
0.0
 40
2.5
 41
0.0
 46
0.0
 71
     5
 72
     1
  1
1.5
 11
6.123031769111886E-17
 21
1.0
 31
0.0
 73
     1
 44
1.0
  0
POINT
  5
19A8
330
199E
100
AcDbEntity
  8
Defpoints
 62
     0
100
AcDbPoint
 10
72.22125003018851
 20
83.94882055485836
 30
0.0
  0
POINT
  5
19A9
330
199E
100
AcDbEntity
  8
Defpoints
 62
     0
100
AcDbPoint
 10
72.22125003018851
 20
82.34882055485836
 30
0.0
  0
POINT
  5
19AA
330
199E
100
AcDbEntity
  8
Defpoints
 62
     0
100
AcDbPoint
 10
57.22592567393417
 20
82.34882055485836
 30
0.0
  0
ENDBLK
  5
19AB
330
199E
100
AcDbEntity
  8
0
370
    30
100
AcDbBlockEnd
  0
BLOCK
  5
19AD
330
19AC
100
AcDbEntity
  8
0
370
    30
100
AcDbBlockBegin
  2
*D6
 70
     1
 10
0.0
 20
0.0
 30
0.0
  3
*D6
  1
*D6
  0
LINE
  5
19AE
330
19AC
100
AcDbEntity
  8
文字
 62
     0
370
    -2
100
AcDbLine
 10
199.7262337182474
 20
115.3847432098993
 30
0.0
 11
199.7262337182474
 21
82.51985031794277
 31
0.0
  0
LINE
  5
19AF
330
19AC
100
AcDbEntity
  8
文字
 62
     0
370
    -2
100
AcDbLine
 10
212.716614775014
 20
115.3847432098993
 30
0.0
 11
212.716614775014
 21
82.51985031794277
 31
0.0
  0
LINE
  5
19B0
330
19AC
100
AcDbEntity
  8
文字
 62
     0
370
    -2
100
AcDbLine
 10
202.2262337182474
 20
83.76985031794277
 30
0.0
 11
210.216614775014
 21
83.76985031794277
 31
0.0
  0
SOLID
  5
19B1
330
19AC
100
AcDbEntity
  8
文字
 62
     0
100
AcDbTrace
 10
202.2262337182474
 20
84.18651698460944
 30
0.0
 11
202.2262337182474
 21
83.3531836512761
 31
0.0
 12
199.7262337182474
 22
83.76985031794277
 32
0.0
 13
199.7262337182474
 23
83.76985031794277
 33
0.0
  0
SOLID
  5
19B2
330
19AC
100
AcDbEntity
  8
文字
 62
     0
100
AcDbTrace
 10
210.216614775014
 20
84.18651698460944
 30
0.0
 11
210.216614775014
 21
83.3531836512761
 31
0.0
 12
212.716614775014
 22
83.76985031794277
 32
0.0
 13
212.716614775014
 23
83.76985031794277
 33
0.0
  0
MTEXT
  5
19B3
330
19AC
100
AcDbEntity
  8
文字
 62
     0
100
AcDbMText
 10
206.4041474863344
 20
85.64485031794277
 30
0.0
 40
2.5
 41
0.0
 46
0.0
 71
     5
 72
     1
  1
13
 73
     1
 44
1.0
  0
POINT
  5
19B4
330
19AC
100
AcDbEntity
  8
Defpoints
 62
     0
100
AcDbPoint
 10
199.7262337182474
 20
116.0097432098993
 30
0.0
  0
POINT
  5
19B5
330
19AC
100
AcDbEntity
  8
Defpoints
 62
     0
100
AcDbPoint
 10
212.716614775014
 20
116.0097432098993
 30
0.0
  0
POINT
  5
19B6
330
19AC
100
AcDbEntity
  8
Defpoints
 62
     0
100
AcDbPoint
 10
212.716614775014
 20
83.76985031794277
 30
0.0
  0
ENDBLK
  5
19B7
330
19AC
100
AcDbEntity
  8
0
370
    30
100
AcDbBlockEnd
  0
BLOCK
  5
19B9
330
19B8
100
AcDbEntity
  8
0
100
AcDbBlockBegin
  2
*D7
 70
     1
 10
0.0
 20
0.0
 30
0.0
  3
*D7
  1
*D7
  0
LINE
  5
19BA
330
19B8
100
AcDbEntity
  8
文字
 62
     0
370
    -2
100
AcDbLine
 10
87.2212500301885
 20
135.0570527207158
 30
0.0
 11
87.2212500301885
 21
147.9015722211
 31
0.0
  0
LINE
  5
19BB
330
19B8
100
AcDbEntity
  8
文字
 62
     0
370
    -2
100
AcDbLine
 10
95.22125003018851
 20
135.0570527207158
 30
0.0
 11
95.22125003018851
 21
147.9015722211
 31
0.0
  0
LINE
  5
19BC
330
19B8
100
AcDbEntity
  8
文字
 62
     0
370
    -2
100
AcDbLine
 10
89.7212500301885
 20
146.6515722211
 30
0.0
 11
92.72125003018851
 21
146.6515722211
 31
0.0
  0
SOLID
  5
19BD
330
19B8
100
AcDbEntity
  8
文字
 62
     0
100
AcDbTrace
 10
89.7212500301885
 20
147.0682388877666
 30
0.0
 11
89.7212500301885
 21
146.2349055544333
 31
0.0
 12
87.2212500301885
 22
146.6515722211
 32
0.0
 13
87.2212500301885
 23
146.6515722211
 33
0.0
  0
SOLID
  5
19BE
330
19B8
100
AcDbEntity
  8
文字
 62
     0
100
AcDbTrace
 10
92.72125003018851
 20
147.0682388877666
 30
0.0
 11
92.72125003018851
 21
146.2349055544333
 31
0.0
 12
95.22125003018851
 22
146.6515722211
 32
0.0
 13
95.22125003018851
 23
146.6515722211
 33
0.0
  0
MTEXT
  5
19BF
330
19B8
100
AcDbEntity
  8
文字
 62
     0
100
AcDbMText
 10
91.22125003018851
 20
148.5265722211
 30
0.0
 40
2.5
 41
0.0
 46
0.0
 71
     5
 72
     1
  1
{\fArial|b0|i0|c0|p32;M}8
 73
     1
 44
1.0
  0
POINT
  5
19C0
330
19B8
100
AcDbEntity
  8
Defpoints
 62
     0
100
AcDbPoint
 10
87.2212500301885
 20
134.4320527207158
 30
0.0
  0
POINT
  5
19C1
330
19B8
100
AcDbEntity
  8
Defpoints
 62
     0
100
AcDbPoint
 10
95.22125003018851
 20
134.4320527207158
 30
0.0
  0
POINT
  5
19C2
330
19B8
100
AcDbEntity
  8
Defpoints
 62
     0
100
AcDbPoint
 10
95.22125003018851
 20
146.6515722211
 30
0.0
  0
ENDBLK
  5
19C3
330
19B8
100
AcDbEntity
  8
0
100
AcDbBlockEnd
  0
BLOCK
  5
19C5
330
19C4
100
AcDbEntity
  8
0
100
AcDbBlockBegin
  2
*D8
 70
     1
 10
0.0
 20
0.0
 30
0.0
  3
*D8
  1
*D8
  0
LINE
  5
19C6
330
19C4
100
AcDbEntity
  8
文字
 62
     0
370
    -2
100
AcDbLine
 10
72.22125003018851
 20
81.72382055485836
 30
0.0
 11
72.22125003018851
 21
61.64683633055239
 31
0.0
  0
LINE
  5
19C7
330
19C4
100
AcDbEntity
  8
文字
 62
     0
370
    -2
100
AcDbLine
 10
110.2212500301885
 20
81.72382055485835
 30
0.0
 11
110.2212500301885
 21
61.64683633055239
 31
0.0
  0
LINE
  5
19C8
330
19C4
100
AcDbEntity
  8
文字
 62
     0
370
    -2
100
AcDbLine
 10
74.72125003018851
 20
62.89683633055239
 30
0.0
 11
107.7212500301885
 21
62.89683633055239
 31
0.0
  0
SOLID
  5
19C9
330
19C4
100
AcDbEntity
  8
文字
 62
     0
100
AcDbTrace
 10
74.72125003018851
 20
63.31350299721905
 30
0.0
 11
74.72125003018851
 21
62.48016966388573
 31
0.0
 12
72.22125003018851
 22
62.89683633055239
 32
0.0
 13
72.22125003018851
 23
62.89683633055239
 33
0.0
  0
SOLID
  5
19CA
330
19C4
100
AcDbEntity
  8
文字
 62
     0
100
AcDbTrace
 10
107.7212500301885
 20
63.31350299721905
 30
0.0
 11
107.7212500301885
 21
62.48016966388573
 31
0.0
 12
110.2212500301885
 22
62.89683633055239
 32
0.0
 13
110.2212500301885
 23
62.89683633055239
 33
0.0
  0
MTEXT
  5
19CB
330
19C4
100
AcDbEntity
  8
文字
 62
     0
100
AcDbMText
 10
91.22125003018851
 20
64.77183633055239
 30
0.0
 40
2.5
 41
0.0
 46
0.0
 71
     5
 72
     1
  1
%%c38
 73
     1
 44
1.0
  0
POINT
  5
19CC
330
19C4
100
AcDbEntity
  8
Defpoints
 62
     0
100
AcDbPoint
 10
72.22125003018851
 20
82.34882055485836
 30
0.0
  0
POINT
  5
19CD
330
19C4
100
AcDbEntity
  8
Defpoints
 62
     0
100
AcDbPoint
 10
110.2212500301885
 20
82.34882055485835
 30
0.0
  0
POINT
  5
19CE
330
19C4
100
AcDbEntity
  8
Defpoints
 62
     0
100
AcDbPoint
 10
110.2212500301885
 20
62.89683633055239
 30
0.0
  0
ENDBLK
  5
19CF
330
19C4
100
AcDbEntity
  8
0
100
AcDbBlockEnd
  0
BLOCK
  5
19D1
330
19D0
100
AcDbEntity
  8
0
100
AcDbBlockBegin
  2
*D9
 70
     1
 10
0.0
 20
0.0
 30
0.0
  3
*D9
  1
*D9
  0
LINE
  5
19D2
330
19D0
100
AcDbEntity
  8
文字
 62
     0
370
    -2
100
AcDbLine
 10
110.8462500301885
 20
82.34882055485835
 30
0.0
 11
126.0779593090463
 21
82.34882055485835
 31
0.0
  0
LINE
  5
19D3
330
19D0
100
AcDbEntity
  8
文字
 62
     0
370
    -2
100
AcDbLine
 10
96.86248092256537
 20
94.93228662189009
 30
0.0
 11
126.0779593090463
 21
94.93228662189009
 31
0.0
  0
LINE
  5
19D4
330
19D0
100
AcDbEntity
  8
文字
 62
     0
370
    -2
100
AcDbLine
 10
124.8279593090463
 20
84.84882055485835
 30
0.0
 11
124.8279593090463
 21
92.43228662189009
 31
0.0
  0
SOLID
  5
19D5
330
19D0
100
AcDbEntity
  8
文字
 62
     0
100
AcDbTrace
 10
124.4112926423796
 20
84.84882055485835
 30
0.0
 11
125.2446259757129
 21
84.84882055485835
 31
0.0
 12
124.8279593090463
 22
82.34882055485835
 32
0.0
 13
124.8279593090463
 23
82.34882055485835
 33
0.0
  0
SOLID
  5
19D6
330
19D0
100
AcDbEntity
  8
文字
 62
     0
100
AcDbTrace
 10
124.4112926423796
 20
92.43228662189009
 30
0.0
 11
125.2446259757129
 21
92.43228662189009
 31
0.0
 12
124.8279593090463
 22
94.93228662189009
 32
0.0
 13
124.8279593090463
 23
94.93228662189009
 33
0.0
  0
MTEXT
  5
19D7
330
19D0
100
AcDbEntity
  8
文字
 62
     0
100
AcDbMText
 10
122.9529593090462
 20
88.64055358837423
 30
0.0
 40
2.5
 41
0.0
 46
0.0
 71
     5
 72
     1
  1
13
 11
6.123031769111886E-17
 21
1.0
 31
0.0
 73
     1
 44
1.0
  0
POINT
  5
19D8
330
19D0
100
AcDbEntity
  8
Defpoints
 62
     0
100
AcDbPoint
 10
110.2212500301885
 20
82.34882055485835
 30
0.0
  0
POINT
  5
19D9
330
19D0
100
AcDbEntity
  8
Defpoints
 62
     0
100
AcDbPoint
 10
96.23748092256537
 20
94.93228662189009
 30
0.0
  0
POINT
  5
19DA
330
19D0
100
AcDbEntity
  8
Defpoints
 62
     0
100
AcDbPoint
 10
124.8279593090463
 20
94.93228662189009
 30
0.0
  0
ENDBLK
  5
19DB
330
19D0
100
AcDbEntity
  8
0
100
AcDbBlockEnd
  0
BLOCK
  5
19DD
330
19DC
100
AcDbEntity
  8
0
100
AcDbBlockBegin
  2
*D10
 70
     1
 10
0.0
 20
0.0
 30
0.0
  3
*D10
  1
*D10
  0
LINE
  5
19DE
330
19DC
100
AcDbEntity
  8
文字
 62
     0
370
    -2
100
AcDbLine
 10
96.86248092256537
 20
94.93228662189009
 30
0.0
 11
126.0779593090463
 21
94.93228662189009
 31
0.0
  0
LINE
  5
19DF
330
19DC
100
AcDbEntity
  8
文字
 62
     0
370
    -2
100
AcDbLine
 10
99.37863313321532
 20
100.4320527207158
 30
0.0
 11
126.0779593090463
 21
100.4320527207158
 31
0.0
  0
LINE
  5
19E0
330
19DC
100
AcDbEntity
  8
文字
 62
     0
370
    -2
100
AcDbLine
 10
124.8279593090463
 20
92.43228662189009
 30
0.0
 11
124.8279593090463
 21
89.93228662189009
 31
0.0
  0
LINE
  5
19E1
330
19DC
100
AcDbEntity
  8
文字
 62
     0
370
    -2
100
AcDbLine
 10
124.8279593090463
 20
102.9320527207158
 30
0.0
 11
124.8279593090463
 21
105.4320527207158
 31
0.0
  0
LINE
  5
19E2
330
19DC
100
AcDbEntity
  8
文字
 62
     0
370
    -2
100
AcDbLine
 10
124.8279593090463
 20
97.68216967130294
 30
0.0
 11
130.7654593090463
 21
99.46341967130294
 31
0.0
  0
LINE
  5
19E3
330
19DC
100
AcDbEntity
  8
文字
 62
     0
370
    -2
100
AcDbLine
 10
130.7654593090463
 20
99.46341967130294
 30
0.0
 11
130.7654593090463
 21
105.7134196713029
 31
0.0
  0
MTEXT
  5
19E4
330
19DC
100
AcDbEntity
  8
文字
 62
     0
100
AcDbMText
 10
128.8904593090463
 20
102.588419671303
 30
0.0
 40
2.5
 41
0.0
 46
0.0
 71
     5
 72
     1
  1
5.5
 11
6.123031769111886E-17
 21
1.0
 31
0.0
 73
     1
 44
1.0
  0
LINE
  5
19E5
330
19DC
100
AcDbEntity
  8
文字
 62
     0
370
    -2
100
AcDbLine
 10
124.8279593090463
 20
94.93228662189009
 30
0.0
 11
124.8279593090463
 21
100.4320527207158
 31
0.0
  0
LINE
  5
19E6
330
19DC
100
AcDbEntity
  8
文字
 62
     0
370
    -2
100
AcDbLine
 10
124.8279593090463
 20
94.93228662189009
 30
0.0
 11
124.8279593090463
 21
100.4320527207158
 31
0.0
  0
SOLID
  5
19E7
330
19DC
100
AcDbEntity
  8
文字
 62
     0
100
AcDbTrace
 10
124.4112926423796
 20
92.43228662189009
 30
0.0
 11
125.2446259757129
 21
92.43228662189009
 31
0.0
 12
124.8279593090463
 22
94.93228662189009
 32
0.0
 13
124.8279593090463
 23
94.93228662189009
 33
0.0
  0
SOLID
  5
19E8
330
19DC
100
AcDbEntity
  8
文字
 62
     0
100
AcDbTrace
 10
124.4112926423796
 20
102.9320527207158
 30
0.0
 11
125.2446259757129
 21
102.9320527207158
 31
0.0
 12
124.8279593090463
 22
100.4320527207158
 32
0.0
 13
124.8279593090463
 23
100.4320527207158
 33
0.0
  0
POINT
  5
19E9
330
19DC
100
AcDbEntity
  8
Defpoints
 62
     0
100
AcDbPoint
 10
96.23748092256537
 20
94.93228662189009
 30
0.0
  0
POINT
  5
19EA
330
19DC
100
AcDbEntity
  8
Defpoints
 62
     0
100
AcDbPoint
 10
98.75363313321532
 20
100.4320527207158
 30
0.0
  0
POINT
  5
19EB
330
19DC
100
AcDbEntity
  8
Defpoints
 62
     0
100
AcDbPoint
 10
124.8279593090463
 20
100.4320527207158
 30
0.0
  0
ENDBLK
  5
19EC
330
19DC
100
AcDbEntity
  8
0
100
AcDbBlockEnd
  0
BLOCK
  5
19EE
330
19ED
100
AcDbEntity
  8
0
100
AcDbBlockBegin
  2
*D11
 70
     1
 10
0.0
 20
0.0
 30
0.0
  3
*D11
  1
*D11
  0
LINE
  5
19EF
330
19ED
100
AcDbEntity
  8
文字
 62
     0
370
    -2
100
AcDbLine
 10
99.37863313321532
 20
100.4320527207158
 30
0.0
 11
126.0779593090463
 21
100.4320527207158
 31
0.0
  0
LINE
  5
19F0
330
19ED
100
AcDbEntity
  8
文字
 62
     0
370
    -2
100
AcDbLine
 10
94.84625003018851
 20
135.4320527207158
 30
0.0
 11
126.0779593090463
 21
135.4320527207158
 31
0.0
  0
LINE
  5
19F1
330
19ED
100
AcDbEntity
  8
文字
 62
     0
370
    -2
100
AcDbLine
 10
124.8279593090463
 20
102.9320527207158
 30
0.0
 11
124.8279593090463
 21
132.9320527207158
 31
0.0
  0
SOLID
  5
19F2
330
19ED
100
AcDbEntity
  8
文字
 62
     0
100
AcDbTrace
 10
124.4112926423796
 20
102.9320527207158
 30
0.0
 11
125.2446259757129
 21
102.9320527207158
 31
0.0
 12
124.8279593090463
 22
100.4320527207158
 32
0.0
 13
124.8279593090463
 23
100.4320527207158
 33
0.0
  0
SOLID
  5
19F3
330
19ED
100
AcDbEntity
  8
文字
 62
     0
100
AcDbTrace
 10
124.4112926423796
 20
132.9320527207158
 30
0.0
 11
125.2446259757129
 21
132.9320527207158
 31
0.0
 12
124.8279593090463
 22
135.4320527207158
 32
0.0
 13
124.8279593090463
 23
135.4320527207158
 33
0.0
  0
MTEXT
  5
19F4
330
19ED
100
AcDbEntity
  8
文字
 62
     0
100
AcDbMText
 10
122.9529593090463
 20
117.9320527207158
 30
0.0
 40
2.5
 41
0.0
 46
0.0
 71
     5
 72
     1
  1
35
 11
6.123031769111886E-17
 21
1.0
 31
0.0
 73
     1
 44
1.0
  0
POINT
  5
19F5
330
19ED
100
AcDbEntity
  8
Defpoints
 62
     0
100
AcDbPoint
 10
98.75363313321532
 20
100.4320527207158
 30
0.0
  0
POINT
  5
19F6
330
19ED
100
AcDbEntity
  8
Defpoints
 62
     0
100
AcDbPoint
 10
94.22125003018851
 20
135.4320527207158
 30
0.0
  0
POINT
  5
19F7
330
19ED
100
AcDbEntity
  8
Defpoints
 62
     0
100
AcDbPoint
 10
124.8279593090463
 20
135.4320527207158
 30
0.0
  0
ENDBLK
  5
19F8
330
19ED
100
AcDbEntity
  8
0
100
AcDbBlockEnd
  0
BLOCK
  5
19FA
330
19F9
100
AcDbEntity
  8
0
100
AcDbBlockBegin
  2
*D12
 70
     1
 10
0.0
 20
0.0
 30
0.0
  3
*D12
  1
*D12
  0
LINE
  5
19FB
330
19F9
100
AcDbEntity
  8
文字
 62
     0
370
    -2
100
AcDbLine
 10
110.8462500301885
 20
82.34882055485835
 30
0.0
 11
141.6100264422735
 21
82.34882055485835
 31
0.0
  0
LINE
  5
19FC
330
19F9
100
AcDbEntity
  8
文字
 62
     0
370
    -2
100
AcDbLine
 10
94.84625003018851
 20
135.4320527207158
 30
0.0
 11
141.6100264422735
 21
135.4320527207158
 31
0.0
  0
LINE
  5
19FD
330
19F9
100
AcDbEntity
  8
文字
 62
     0
370
    -2
100
AcDbLine
 10
140.3600264422735
 20
84.84882055485835
 30
0.0
 11
140.3600264422735
 21
132.9320527207158
 31
0.0
  0
SOLID
  5
19FE
330
19F9
100
AcDbEntity
  8
文字
 62
     0
100
AcDbTrace
 10
139.9433597756068
 20
84.84882055485835
 30
0.0
 11
140.7766931089401
 21
84.84882055485835
 31
0.0
 12
140.3600264422735
 22
82.34882055485835
 32
0.0
 13
140.3600264422735
 23
82.34882055485835
 33
0.0
  0
SOLID
  5
19FF
330
19F9
100
AcDbEntity
  8
文字
 62
     0
100
AcDbTrace
 10
139.9433597756068
 20
132.9320527207158
 30
0.0
 11
140.7766931089401
 21
132.9320527207158
 31
0.0
 12
140.3600264422735
 22
135.4320527207158
 32
0.0
 13
140.3600264422735
 23
135.4320527207158
 33
0.0
  0
MTEXT
  5
1A00
330
19F9
100
AcDbEntity
  8
文字
 62
     0
100
AcDbMText
 10
138.4850264422734
 20
108.8904366377871
 30
0.0
 40
2.5
 41
0.0
 46
0.0
 71
     5
 72
     1
  1
53.5
 11
6.123031769111886E-17
 21
1.0
 31
0.0
 73
     1
 44
1.0
  0
POINT
  5
1A01
330
19F9
100
AcDbEntity
  8
Defpoints
 62
     0
100
AcDbPoint
 10
110.2212500301885
 20
82.34882055485835
 30
0.0
  0
POINT
  5
1A02
330
19F9
100
AcDbEntity
  8
Defpoints
 62
     0
100
AcDbPoint
 10
94.22125003018851
 20
135.4320527207158
 30
0.0
  0
POINT
  5
1A03
330
19F9
100
AcDbEntity
  8
Defpoints
 62
     0
100
AcDbPoint
 10
140.3600264422735
 20
135.4320527207158
 30
0.0
  0
ENDBLK
  5
1A04
330
19F9
100
AcDbEntity
  8
0
100
AcDbBlockEnd
  0
BLOCK
  5
1A4C
330
1A05
100
AcDbEntity
  8
0
 62
     0
100
AcDbBlockBegin
  2
A$C76A36C9E
 70
     0
 10
0.0
 20
0.0
 30
0.0
  3
A$C76A36C9E
  1
A$C76A36C9E
  0
LWPOLYLINE
  5
1A06
330
1A05
100
AcDbEntity
  8
実線
370
    50
100
AcDbPolyline
 90
        6
 70
     0
 43
0.0
 10
-136.9787502058973
 20
95.18495711771044
 10
-136.9787502058973
 20
115.6320525348278
 10
-137.9787502058973
 20
116.6320525348278
 10
-143.9787502058973
 20
116.6320525348278
 10
-144.9787502058973
 20
115.6320525348278
 10
-144.9787502058973
 20
95.18495711771044
  0
LINE
  5
1A07
330
1A05
100
AcDbEntity
  8
実線
370
    20
100
AcDbLine
 10
-137.9787502058973
 20
88.68519101888472
 30
0.0
 11
-137.9787502058973
 21
81.6320525348278
 31
0.0
  0
LINE
  5
1A08
330
1A05
100
AcDbEntity
  8
実線
370
    20
100
AcDbLine
 10
-143.9787502058973
 20
88.68519101888475
 30
0.0
 11
-143.9787502058973
 21
81.6320525348278
 31
0.0
  0
LWPOLYLINE
  5
1A09
330
1A05
100
AcDbEntity
  8
実線
370
    50
100
AcDbPolyline
 90
        4
 70
     0
 43
0.0
 10
-133.4463671028705
 20
89.68495711771044
 10
-133.4463671028705
 20
95.18495711771044
 10
-148.4463671028705
 20
95.18495711771044
 10
-148.4463671028705
 20
89.68495711771044
  0
LINE
  5
1A0A
330
1A05
100
AcDbEntity
  8
実線
370
    50
100
AcDbLine
 10
-144.3456442458684
 20
95.18495711771044
 30
0.0
 11
-144.3456442458684
 21
89.68495711771044
 31
0.0
  0
LINE
  5
1A0B
330
1A05
100
AcDbEntity
  8
実線
370
    50
100
AcDbLine
 10
-137.4873226877818
 20
95.18495711771044
 30
0.0
 11
-137.4873226877818
 21
89.68495711771044
 31
0.0
  0
ARC
  5
1A0C
330
1A05
100
AcDbEntity
  8
実線
370
    50
100
AcDbCircle
 10
-146.3960056743694
 20
91.28535523740777
 30
0.0
 40
2.601010597636193
100
AcDbArc
 50
217.973618634994
 51
322.0263813650058
  0
ARC
  5
1A0D
330
1A05
100
AcDbEntity
  8
実線
370
    50
100
AcDbCircle
 10
-140.916483466825
 20
95.06408242612318
 30
0.0
 40
6.379195304435764
100
AcDbArc
 50
237.4827287485465
 51
302.5172712514534
  0
ARC
  5
1A0E
330
1A05
100
AcDbEntity
  8
実線
370
    50
100
AcDbCircle
 10
-135.4668448953261
 20
91.22496313739819
 30
0.0
 40
2.540462369428222
100
AcDbArc
 50
217.3146110078773
 51
322.6853889921216
  0
LINE
  5
1A0F
330
1A05
100
AcDbEntity
  8
実線
370
    50
100
AcDbLine
 10
-140.9787502058973
 20
88.68519101888472
 30
0.0
 11
-145.9949810982741
 21
88.68519101888472
 31
0.0
  0
LINE
  5
1A10
330
1A05
100
AcDbEntity
  8
実線
370
    50
100
AcDbLine
 10
-140.9787502058976
 20
88.68519101888472
 30
0.0
 11
-135.9625193135205
 21
88.68519101888472
 31
0.0
  0
DIMENSION
  5
1A11
102
{ACAD_REACTORS
330
1A13
102
}
102
{ACAD_XDICTIONARY
360
1A12
102
}
330
1A05
100
AcDbEntity
  8
文字
100
AcDbDimension
280
     0
  2
*D12
 10
-91.83997379381236
 20
116.6320525348278
 30
0.0
 11
-93.71497379381239
 21
90.09043645189911
 31
0.0
 12
-232.2000002360858
 22
-18.80000018588799
 32
0.0
 70
    32
  1
53.5
 71
     5
 42
53.08323216585745
 73
     0
 74
     0
 75
     0
  3
ISO-25
100
AcDbAlignedDimension
 13
-121.9787502058973
 23
63.54882036897036
 33
0.0
 14
-137.9787502058973
 24
116.6320525348278
 34
0.0
 50
90.0
100
AcDbRotatedDimension
  0
LINE
  5
1A14
330
1A05
100
AcDbEntity
  8
中心線
100
AcDbLine
 10
-25.97857598945512
 20
97.20974302401129
 30
0.0
 11
-25.97857598945512
 21
73.28463913907507
 31
0.0
  0
LINE
  5
1A15
330
1A05
100
AcDbEntity
  8
中心線
100
AcDbLine
 10
-25.97857598945512
 20
97.20974302401129
 30
0.0
 11
-25.97857598945512
 21
122.905154338709
 31
0.0
  0
DIMENSION
  5
1A16
102
{ACAD_REACTORS
330
1A18
102
}
102
{ACAD_XDICTIONARY
360
1A17
102
}
330
1A05
100
AcDbEntity
  8
文字
100
AcDbDimension
280
     0
  2
*D11
 10
-107.3720409270395
 20
116.6320525348278
 30
0.0
 11
-109.2470409270396
 21
99.13205253482784
 31
0.0
 12
-232.2000002360858
 22
-18.80000018588799
 32
0.0
 70
    32
 71
     5
 42
35.0
 73
     0
 74
     0
 75
     0
  3
ISO-25
100
AcDbAlignedDimension
 13
-133.4463671028705
 23
81.6320525348278
 33
0.0
 14
-137.9787502058973
 24
116.6320525348278
 34
0.0
 50
90.0
100
AcDbRotatedDimension
1001
ACAD
1000
DSTYLE
1002
{
1070
   279
1070
     1
1002
}
  0
DIMENSION
  5
1A19
102
{ACAD_REACTORS
330
1A1B
102
}
102
{ACAD_XDICTIONARY
360
1A1A
102
}
330
1A05
100
AcDbEntity
  8
文字
100
AcDbDimension
280
     0
  2
*D10
 10
-107.3720409270395
 20
81.6320525348278
 30
0.0
 11
-103.3095409270396
 21
81.28841948541498
 31
0.0
 12
-232.2000002360858
 22
-18.80000018588799
 32
0.0
 70
    32
 71
     5
 42
5.499766098825717
 73
     0
 74
     0
 75
     0
  3
ISO-25
100
AcDbAlignedDimension
 13
-135.9625193135205
 23
76.13228643600209
 33
0.0
 14
-133.4463671028705
 24
81.6320525348278
 34
0.0
 50
90.0
100
AcDbRotatedDimension
1001
ACAD
1000
DSTYLE
1002
{
1070
   279
1070
     1
1002
}
  0
DIMENSION
  5
1A1C
102
{ACAD_REACTORS
330
1A1E
102
}
102
{ACAD_XDICTIONARY
360
1A1D
102
}
330
1A05
100
AcDbEntity
  8
文字
100
AcDbDimension
280
     0
  2
*D9
 10
-107.3720409270396
 20
76.13228643600209
 30
0.0
 11
-109.2470409270396
 21
69.84055340248625
 31
0.0
 12
-232.2000002360858
 22
-18.80000018588799
 32
0.0
 70
    32
  1
13
 71
     5
 42
12.58346606703174
 73
     0
 74
     0
 75
     0
  3
ISO-25
100
AcDbAlignedDimension
 13
-121.9787502058973
 23
63.54882036897036
 33
0.0
 14
-135.9625193135205
 24
76.13228643600209
 34
0.0
 50
90.0
100
AcDbRotatedDimension
  0
DIMENSION
  5
1A1F
330
1A05
100
AcDbEntity
  8
文字
100
AcDbDimension
280
     0
  2
*D8
 10
-121.9787502058973
 20
44.0968361446644
 30
0.0
 11
-140.9787502058973
 21
45.9718361446644
 31
0.0
 12
-232.2000002360858
 22
-18.80000018588799
 32
0.0
 70
    32
  1
%%c<>
 71
     5
 42
38.0
 73
     0
 74
     0
 75
     0
  3
ISO-25
100
AcDbAlignedDimension
 13
-159.9787502058973
 23
63.54882036897038
 33
0.0
 14
-121.9787502058973
 24
63.54882036897036
 34
0.0
100
AcDbRotatedDimension
  0
DIMENSION
  5
1A20
102
{ACAD_REACTORS
330
1A22
102
}
102
{ACAD_XDICTIONARY
360
1A21
102
}
330
1A05
100
AcDbEntity
  8
文字
100
AcDbDimension
280
     0
  2
*D7
 10
-136.9787502058973
 20
127.851572035212
 30
0.0
 11
-140.9787502058973
 21
129.726572035212
 31
0.0
 12
-232.2000002360858
 22
-18.80000018588799
 32
0.0
 70
    32
  1
{\fArial|b0|i0|c0|p32;M}<>
 71
     5
 42
8.000000000000014
 73
     0
 74
     0
 75
     0
  3
ISO-25
100
AcDbAlignedDimension
 13
-144.9787502058973
 23
115.6320525348278
 33
0.0
 14
-136.9787502058973
 24
115.6320525348278
 34
0.0
100
AcDbRotatedDimension
  0
LINE
  5
1A23
102
{ACAD_REACTORS
330
1A18
330
1A13
102
}
330
1A05
100
AcDbEntity
  8
実線
370
    20
100
AcDbLine
 10
-137.9787502058973
 20
116.6320525348278
 30
0.0
 11
-137.9787502058973
 21
95.18495711771044
 31
0.0
  0
LINE
  5
1A24
330
1A05
100
AcDbEntity
  8
実線
370
    20
100
AcDbLine
 10
-143.9787502058973
 20
116.6320525348278
 30
0.0
 11
-143.9787502058973
 21
95.18495711771044
 31
0.0
  0
LINE
  5
1A25
102
{ACAD_REACTORS
330
1A22
102
}
330
1A05
100
AcDbEntity
  8
実線
370
    20
100
AcDbLine
 10
-144.9787502058973
 20
115.6320525348278
 30
0.0
 11
-136.9787502058973
 21
115.6320525348278
 31
0.0
  0
LWPOLYLINE
  5
1A26
330
1A05
100
AcDbEntity
  8
実線
370
    50
100
AcDbPolyline
 90
        4
 70
     0
 43
0.0
 10
-144.9787502058973
 20
88.68519101888472
 10
-144.9787502058973
 20
81.6320525348278
 10
-136.9787502058973
 20
81.6320525348278
 10
-136.9787502058973
 20
88.68519101888472
  0
DIMENSION
  5
1A27
102
{ACAD_REACTORS
330
1A29
102
}
102
{ACAD_XDICTIONARY
360
1A28
102
}
330
1A05
100
AcDbEntity
  8
文字
100
AcDbDimension
280
     0
  2
*D6
 10
-19.48338546107183
 20
64.96985013205477
 30
0.0
 11
-25.79585274975142
 21
64.96985013205477
 31
0.0
 12
-232.2000002360858
 22
-18.80000018588799
 32
0.0
 70
   128
  1
13
 71
     5
 42
12.99038105676658
 73
     0
 74
     0
 75
     0
  3
ISO-25
100
AcDbAlignedDimension
 13
-32.47376651783841
 23
97.20974302401126
 33
0.0
 14
-19.48338546107183
 24
97.20974302401129
 34
0.0
100
AcDbRotatedDimension
  0
DIMENSION
  5
1A2A
102
{ACAD_REACTORS
330
1A2C
102
}
102
{ACAD_XDICTIONARY
360
1A2B
102
}
330
1A05
100
AcDbEntity
  8
文字
100
AcDbDimension
280
     0
  2
*D5
 10
-174.9740745621517
 20
63.54882036897038
 30
0.0
 11
-176.8490745621517
 21
55.84048703563706
 31
0.0
 12
-232.2000002360858
 22
-18.80000018588799
 32
0.0
 70
    32
  1
1.5
 71
     5
 42
1.599999999999994
 73
     0
 74
     0
 75
     0
  3
ISO-25
100
AcDbAlignedDimension
 13
-159.9787502058973
 23
65.14882036897038
 33
0.0
 14
-159.9787502058973
 24
63.54882036897038
 34
0.0
 50
90.0
100
AcDbRotatedDimension
  0
CIRCLE
  5
1A2D
330
1A05
100
AcDbEntity
  8
実線
370
    20
100
AcDbCircle
 10
-25.97857598945512
 20
97.20974302401129
 30
0.0
 40
3.4
  0
CIRCLE
  5
1A2E
330
1A05
100
AcDbEntity
  8
実線
370
    50
100
AcDbCircle
 10
-25.97857598945512
 20
97.20974302401129
 30
0.0
 40
4.0
  0
LWPOLYLINE
  5
1A2F
102
{ACAD_REACTORS
330
1A29
102
}
330
1A05
100
AcDbEntity
  8
実線
370
    50
100
AcDbPolyline
 90
        6
 70
     1
 43
0.0
 10
-19.48338546107183
 20
100.9597430240113
 10
-25.97857598945512
 20
104.7097430240113
 10
-32.47376651783841
 20
100.9597430240113
 10
-32.47376651783841
 20
93.45974302401126
 10
-25.97857598945512
 20
89.70974302401126
 10
-19.48338546107183
 20
93.45974302401126
  0
DIMENSION
  5
1A30
102
{ACAD_REACTORS
330
1A32
102
}
102
{ACAD_XDICTIONARY
360
1A31
102
}
330
1A05
100
AcDbEntity
  8
文字
100
AcDbDimension
280
     0
  2
*D4
 10
-11.97857598945512
 20
57.36396220779807
 30
0.0
 11
-25.97857598945512
 21
59.23896220779807
 31
0.0
 12
-232.2000002360858
 22
-18.80000018588799
 32
0.0
 70
    32
  1
%%c<>
 71
     5
 42
28.0
 73
     0
 74
     0
 75
     0
  3
ISO-25
100
AcDbAlignedDimension
 13
-39.97857598945512
 23
97.20974302401129
 33
0.0
 14
-11.97857598945512
 24
97.20974302401129
 34
0.0
100
AcDbRotatedDimension
  0
ARC
  5
1A33
330
1A05
100
AcDbEntity
  8
実線
370
    50
100
AcDbCircle
 10
-140.9787502058973
 20
62.86352625132333
 30
0.0
 40
14.18529411764706
100
AcDbArc
 50
110.7090084471018
 51
164.6470298493059
  0
LINE
  5
1A34
102
{ACAD_REACTORS
330
1A1E
330
1A1B
102
}
330
1A05
100
AcDbEntity
  8
実線
370
    50
100
AcDbLine
 10
-140.9787502058976
 20
76.13228643600209
 30
0.0
 11
-135.9625193135205
 21
76.13228643600209
 31
0.0
  0
LINE
  5
1A35
330
1A05
100
AcDbEntity
  8
実線
370
    50
100
AcDbLine
 10
-140.9787502058973
 20
76.13228643600209
 30
0.0
 11
-145.9949810982741
 21
76.13228643600209
 31
0.0
  0
ARC
  5
1A36
330
1A05
100
AcDbEntity
  8
実線
370
    50
100
AcDbCircle
 10
-135.4668448953261
 20
78.67205855451556
 30
0.0
 40
2.540462369428222
100
AcDbArc
 50
217.3146110078773
 51
322.6853889921216
  0
ARC
  5
1A37
330
1A05
100
AcDbEntity
  8
実線
370
    50
100
AcDbCircle
 10
-140.916483466825
 20
82.51117784324055
 30
0.0
 40
6.379195304435764
100
AcDbArc
 50
237.4827287485465
 51
302.5172712514534
  0
ARC
  5
1A38
330
1A05
100
AcDbEntity
  8
実線
370
    50
100
AcDbCircle
 10
-146.3960056743694
 20
78.73245065452514
 30
0.0
 40
2.601010597636193
100
AcDbArc
 50
217.973618634994
 51
322.0263813650058
  0
LINE
  5
1A39
330
1A05
100
AcDbEntity
  8
実線
370
    50
100
AcDbLine
 10
-137.4873226877818
 20
81.6320525348278
 30
0.0
 11
-137.4873226877818
 21
77.1320525348278
 31
0.0
  0
LINE
  5
1A3A
330
1A05
100
AcDbEntity
  8
実線
370
    50
100
AcDbLine
 10
-144.3456442458684
 20
81.6320525348278
 30
0.0
 11
-144.3456442458684
 21
77.1320525348278
 31
0.0
  0
LWPOLYLINE
  5
1A3B
102
{ACAD_REACTORS
330
1A1B
330
1A18
102
}
330
1A05
100
AcDbEntity
  8
実線
370
    50
100
AcDbPolyline
 90
        4
 70
     0
 43
0.0
 10
-133.4463671028705
 20
77.1320525348278
 10
-133.4463671028705
 20
81.6320525348278
 10
-148.4463671028705
 20
81.6320525348278
 10
-148.4463671028705
 20
77.1320525348278
  0
LINE
  5
1A3C
102
{ACAD_REACTORS
330
1A29
102
}
330
1A05
100
AcDbEntity
  8
中心線
100
AcDbLine
 10
-56.39333659375262
 20
97.20974302401129
 30
0.0
 11
-16.39090544331049
 21
97.20974302401129
 31
0.0
  0
LINE
  5
1A3D
330
1A05
100
AcDbEntity
  8
実線
370
    50
100
AcDbLine
 10
-156.4653650853308
 20
65.14882036897038
 30
0.0
 11
-125.371059793796
 21
65.14882036897035
 31
0.0
  0
LINE
  5
1A3E
330
1A05
100
AcDbEntity
  8
中心線
100
AcDbLine
 10
-16.39090544331049
 20
97.20974302401129
 30
0.0
 11
4.251392774196745
 21
97.20974302401129
 31
0.0
  0
CIRCLE
  5
1A3F
330
1A05
100
AcDbEntity
  8
実線
370
    50
100
AcDbCircle
 10
-25.97857598945512
 20
97.20974302401129
 30
0.0
 40
19.0
  0
CIRCLE
  5
1A40
102
{ACAD_REACTORS
330
1A32
102
}
330
1A05
100
AcDbEntity
  8
実線
370
    50
100
AcDbCircle
 10
-25.97857598945512
 20
97.20974302401129
 30
0.0
 40
14.0
  0
ARC
  5
1A41
330
1A05
100
AcDbEntity
  8
実線
370
    50
100
AcDbCircle
 10
-125.371059793796
 20
67.14882036897038
 30
0.0
 40
2.0
100
AcDbArc
 50
195.3529701506943
 51
270.0
  0
LINE
  5
1A42
330
1A05
100
AcDbEntity
  8
実線
370
    50
100
AcDbLine
 10
-125.371059793796
 20
65.14882036897035
 30
0.0
 11
-121.9787502058973
 21
65.14882036897035
 31
0.0
  0
ARC
  5
1A43
330
1A05
100
AcDbEntity
  8
実線
370
    50
100
AcDbCircle
 10
-156.5864406179986
 20
67.14882036897038
 30
0.0
 40
2.0
100
AcDbArc
 50
270.0
 51
344.6470298493056
  0
ARC
  5
1A44
102
{ACAD_REACTORS
330
1A1E
330
1A1B
102
}
330
1A05
100
AcDbEntity
  8
実線
370
    50
100
AcDbCircle
 10
-140.9787502058973
 20
62.86352625132333
 30
0.0
 40
14.18529411764706
100
AcDbArc
 50
15.35297015069416
 51
69.29099155289825
  0
LINE
  5
1A45
330
1A05
100
AcDbEntity
  8
実線
370
    50
100
AcDbLine
 10
-156.4653650853308
 20
65.14882036897038
 30
0.0
 11
-156.5864406179986
 21
65.14882036897038
 31
0.0
  0
LINE
  5
1A46
102
{ACAD_REACTORS
330
1A2C
102
}
330
1A05
100
AcDbEntity
  8
実線
370
    50
100
AcDbLine
 10
-159.9787502058973
 20
65.14882036897038
 30
0.0
 11
-156.4653650853308
 21
65.14882036897038
 31
0.0
  0
LINE
  5
1A47
330
1A05
100
AcDbEntity
  8
中心線
100
AcDbLine
 10
-140.9787502058973
 20
52.63205253482781
 30
0.0
 11
-140.9787502058973
 21
125.3376695381868
 31
0.0
  0
LINE
  5
1A48
102
{ACAD_REACTORS
330
1A1E
330
1A13
102
}
330
1A05
100
AcDbEntity
  8
実線
370
    50
100
AcDbLine
 10
-121.9787502058973
 20
65.14882036897035
 30
0.0
 11
-121.9787502058973
 21
63.54882036897036
 31
0.0
  0
LINE
  5
1A49
102
{ACAD_REACTORS
330
1A2C
102
}
330
1A05
100
AcDbEntity
  8
実線
370
    50
100
AcDbLine
 10
-159.9787502058973
 20
63.54882036897038
 30
0.0
 11
-159.9787502058973
 21
65.14882036897038
 31
0.0
  0
LINE
  5
1A4A
330
1A05
100
AcDbEntity
  8
実線
370
    50
100
AcDbLine
 10
-121.9787502058973
 20
63.54882036897036
 30
0.0
 11
-159.9787502058973
 21
63.54882036897038
 31
0.0
  0
TEXT
  5
1A4B
330
1A05
100
AcDbEntity
  8
文字
100
AcDbText
 10
2.672502397611936
 20
1.442331116837359
 30
0.0
 40
3.0
  1
ＳＵＳ304Ｊ3
100
AcDbText
  0
ENDBLK
  5
1A4D
330
1A05
100
AcDbEntity
  8
0
 62
     0
100
AcDbBlockEnd
  0
BLOCK
  5
1AA9
330
1AA8
100
AcDbEntity
  8
0
370
    30
100
AcDbBlockBegin
  2
*D14
 70
     1
 10
0.0
 20
0.0
 30
0.0
  3
*D14
  1
*D14
  0
LINE
  5
1AAA
330
1AA8
100
AcDbEntity
  8
文字
 62
     0
370
    -2
100
AcDbLine
 10
64.4883025909753
 20
66.02446679583329
 30
0.0
 11
64.4883025909753
 21
46.01500613681003
 31
0.0
  0
LINE
  5
1AAB
330
1AA8
100
AcDbEntity
  8
文字
 62
     0
370
    -2
100
AcDbLine
 10
124.4883025909753
 20
66.02446679583328
 30
0.0
 11
124.4883025909753
 21
46.01500613681003
 31
0.0
  0
LINE
  5
1AAC
330
1AA8
100
AcDbEntity
  8
文字
 62
     0
370
    -2
100
AcDbLine
 10
66.9883025909753
 20
47.26500613681003
 30
0.0
 11
121.9883025909753
 21
47.26500613681003
 31
0.0
  0
SOLID
  5
1AAD
330
1AA8
100
AcDbEntity
  8
文字
 62
     0
100
AcDbTrace
 10
66.9883025909753
 20
47.68167280347669
 30
0.0
 11
66.9883025909753
 21
46.84833947014337
 31
0.0
 12
64.4883025909753
 22
47.26500613681003
 32
0.0
 13
64.4883025909753
 23
47.26500613681003
 33
0.0
  0
SOLID
  5
1AAE
330
1AA8
100
AcDbEntity
  8
文字
 62
     0
100
AcDbTrace
 10
121.9883025909753
 20
47.68167280347669
 30
0.0
 11
121.9883025909753
 21
46.84833947014337
 31
0.0
 12
124.4883025909753
 22
47.26500613681003
 32
0.0
 13
124.4883025909753
 23
47.26500613681003
 33
0.0
  0
MTEXT
  5
1AAF
330
1AA8
100
AcDbEntity
  8
文字
 62
     0
100
AcDbMText
 10
94.4883025909753
 20
49.14000613681003
 30
0.0
 40
2.5
 41
0.0
 46
0.0
 71
     5
 72
     1
  1
%%c60
 73
     1
 44
1.0
  0
POINT
  5
1AB0
330
1AA8
100
AcDbEntity
  8
Defpoints
 62
     0
100
AcDbPoint
 10
64.4883025909753
 20
66.64946679583329
 30
0.0
  0
POINT
  5
1AB1
330
1AA8
100
AcDbEntity
  8
Defpoints
 62
     0
100
AcDbPoint
 10
124.4883025909753
 20
66.64946679583328
 30
0.0
  0
POINT
  5
1AB2
330
1AA8
100
AcDbEntity
  8
Defpoints
 62
     0
100
AcDbPoint
 10
124.4883025909753
 20
47.26500613681003
 30
0.0
  0
ENDBLK
  5
1AB3
330
1AA8
100
AcDbEntity
  8
0
370
    30
100
AcDbBlockEnd
  0
BLOCK
  5
1AB5
330
1AB4
100
AcDbEntity
  8
0
370
    30
100
AcDbBlockBegin
  2
*D15
 70
     1
 10
0.0
 20
0.0
 30
0.0
  3
*D15
  1
*D15
  0
LINE
  5
1AB6
330
1AB4
100
AcDbEntity
  8
文字
 62
     0
370
    -2
100
AcDbLine
 10
103.5633025909753
 20
86.17778419700053
 30
0.0
 11
139.3522667143918
 21
86.17778419700053
 31
0.0
  0
LINE
  5
1AB7
330
1AB4
100
AcDbEntity
  8
文字
 62
     0
370
    -2
100
AcDbLine
 10
125.1133025909753
 20
66.02446679583328
 30
0.0
 11
139.3522667143918
 21
66.02446679583328
 31
0.0
  0
LINE
  5
1AB8
330
1AB4
100
AcDbEntity
  8
文字
 62
     0
370
    -2
100
AcDbLine
 10
138.1022667143918
 20
83.67778419700053
 30
0.0
 11
138.1022667143918
 21
68.52446679583328
 31
0.0
  0
SOLID
  5
1AB9
330
1AB4
100
AcDbEntity
  8
文字
 62
     0
370
    30
100
AcDbTrace
 10
137.6856000477252
 20
83.67778419700053
 30
0.0
 11
138.5189333810585
 21
83.67778419700053
 31
0.0
 12
138.1022667143918
 22
86.17778419700053
 32
0.0
 13
138.1022667143918
 23
86.17778419700053
 33
0.0
  0
SOLID
  5
1ABA
330
1AB4
100
AcDbEntity
  8
文字
 62
     0
370
    30
100
AcDbTrace
 10
137.6856000477252
 20
68.52446679583328
 30
0.0
 11
138.5189333810585
 21
68.52446679583328
 31
0.0
 12
138.1022667143918
 22
66.02446679583328
 32
0.0
 13
138.1022667143918
 23
66.02446679583328
 33
0.0
  0
MTEXT
  5
1ABB
330
1AB4
100
AcDbEntity
  8
文字
 62
     0
100
AcDbMText
 10
136.2272667143918
 20
76.10112549641691
 30
0.0
 40
2.5
 41
0.0
 46
0.0
 71
     5
 72
     1
  1
19
 11
6.123031769111886E-17
 21
1.0
 31
0.0
 73
     1
 44
1.0
  0
POINT
  5
1ABC
330
1AB4
100
AcDbEntity
  8
Defpoints
 62
     0
370
    30
100
AcDbPoint
 10
102.9383025909753
 20
86.17778419700053
 30
0.0
  0
POINT
  5
1ABD
330
1AB4
100
AcDbEntity
  8
Defpoints
 62
     0
370
    30
100
AcDbPoint
 10
124.4883025909753
 20
66.02446679583328
 30
0.0
  0
POINT
  5
1ABE
330
1AB4
100
AcDbEntity
  8
Defpoints
 62
     0
370
    30
100
AcDbPoint
 10
138.1022667143918
 20
66.02446679583328
 30
0.0
  0
ENDBLK
  5
1ABF
330
1AB4
100
AcDbEntity
  8
0
370
    30
100
AcDbBlockEnd
  0
BLOCK
  5
1AC1
330
1AC0
100
AcDbEntity
  8
0
370
    30
100
AcDbBlockBegin
  2
*D16
 70
     1
 10
0.0
 20
0.0
 30
0.0
  3
*D16
  1
*D16
  0
LINE
  5
1AC2
330
1AC0
100
AcDbEntity
  8
文字
 62
     0
370
    -2
100
AcDbLine
 10
106.0633025909753
 20
86.17778419700053
 30
0.0
 11
139.3179534981718
 21
86.17778419700053
 31
0.0
  0
LINE
  5
1AC3
330
1AC0
100
AcDbEntity
  8
文字
 62
     0
370
    -2
100
AcDbLine
 10
106.0633025909753
 20
94.21331810293327
 30
0.0
 11
139.3179534981718
 21
94.21331810293327
 31
0.0
  0
LINE
  5
1AC4
330
1AC0
100
AcDbEntity
  8
文字
 62
     0
370
    -2
100
AcDbLine
 10
138.0679534981718
 20
88.67778419700053
 30
0.0
 11
138.0679534981718
 21
91.71331810293327
 31
0.0
  0
SOLID
  5
1AC5
330
1AC0
100
AcDbEntity
  8
文字
 62
     0
370
    30
100
AcDbTrace
 10
137.6512868315052
 20
88.67778419700053
 30
0.0
 11
138.4846201648385
 21
88.67778419700053
 31
0.0
 12
138.0679534981718
 22
86.17778419700053
 32
0.0
 13
138.0679534981718
 23
86.17778419700053
 33
0.0
  0
SOLID
  5
1AC6
330
1AC0
100
AcDbEntity
  8
文字
 62
     0
370
    30
100
AcDbTrace
 10
137.6512868315052
 20
91.71331810293327
 30
0.0
 11
138.4846201648385
 21
91.71331810293327
 31
0.0
 12
138.0679534981718
 22
94.21331810293327
 32
0.0
 13
138.0679534981718
 23
94.21331810293327
 33
0.0
  0
MTEXT
  5
1AC7
330
1AC0
100
AcDbEntity
  8
文字
 62
     0
100
AcDbMText
 10
136.1929534981718
 20
90.19555114996692
 30
0.0
 40
2.5
 41
0.0
 46
0.0
 71
     5
 72
     1
  1
8
 11
6.123031769111886E-17
 21
1.0
 31
0.0
 73
     1
 44
1.0
  0
POINT
  5
1AC8
330
1AC0
100
AcDbEntity
  8
Defpoints
 62
     0
370
    30
100
AcDbPoint
 10
105.4383025909753
 20
86.17778419700053
 30
0.0
  0
POINT
  5
1AC9
330
1AC0
100
AcDbEntity
  8
Defpoints
 62
     0
370
    30
100
AcDbPoint
 10
105.4383025909753
 20
94.21331810293327
 30
0.0
  0
POINT
  5
1ACA
330
1AC0
100
AcDbEntity
  8
Defpoints
 62
     0
370
    30
100
AcDbPoint
 10
138.0679534981718
 20
94.21331810293327
 30
0.0
  0
ENDBLK
  5
1ACB
330
1AC0
100
AcDbEntity
  8
0
370
    30
100
AcDbBlockEnd
  0
BLOCK
  5
1ACD
330
1ACC
100
AcDbEntity
  8
0
370
    30
100
AcDbBlockBegin
  2
*D17
 70
     1
 10
0.0
 20
0.0
 30
0.0
  3
*D17
  1
*D17
  0
LINE
  5
1ACE
330
1ACC
100
AcDbEntity
  8
文字
 62
     0
370
    -2
100
AcDbLine
 10
188.1028069713284
 20
113.1979665591597
 30
0.0
 11
188.1028069713284
 21
61.77700724119347
 31
0.0
  0
LINE
  5
1ACF
330
1ACC
100
AcDbEntity
  8
文字
 62
     0
370
    -2
100
AcDbLine
 10
234.1028069713284
 20
113.1979665591597
 30
0.0
 11
234.1028069713284
 21
61.77700724119347
 31
0.0
  0
LINE
  5
1AD0
330
1ACC
100
AcDbEntity
  8
文字
 62
     0
370
    -2
100
AcDbLine
 10
190.6028069713284
 20
63.02700724119347
 30
0.0
 11
231.6028069713284
 21
63.02700724119347
 31
0.0
  0
SOLID
  5
1AD1
330
1ACC
100
AcDbEntity
  8
文字
 62
     0
100
AcDbTrace
 10
190.6028069713284
 20
63.44367390786014
 30
0.0
 11
190.6028069713284
 21
62.61034057452681
 31
0.0
 12
188.1028069713284
 22
63.02700724119347
 32
0.0
 13
188.1028069713284
 23
63.02700724119347
 33
0.0
  0
SOLID
  5
1AD2
330
1ACC
100
AcDbEntity
  8
文字
 62
     0
100
AcDbTrace
 10
231.6028069713284
 20
63.44367390786014
 30
0.0
 11
231.6028069713284
 21
62.61034057452681
 31
0.0
 12
234.1028069713284
 22
63.02700724119347
 32
0.0
 13
234.1028069713284
 23
63.02700724119347
 33
0.0
  0
MTEXT
  5
1AD3
330
1ACC
100
AcDbEntity
  8
文字
 62
     0
100
AcDbMText
 10
211.1028069713284
 20
64.90200724119347
 30
0.0
 40
2.5
 41
0.0
 46
0.0
 71
     5
 72
     1
  1
%%c46
 73
     1
 44
1.0
  0
POINT
  5
1AD4
330
1ACC
100
AcDbEntity
  8
Defpoints
 62
     0
100
AcDbPoint
 10
188.1028069713284
 20
113.8229665591597
 30
0.0
  0
POINT
  5
1AD5
330
1ACC
100
AcDbEntity
  8
Defpoints
 62
     0
100
AcDbPoint
 10
234.1028069713284
 20
113.8229665591597
 30
0.0
  0
POINT
  5
1AD6
330
1ACC
100
AcDbEntity
  8
Defpoints
 62
     0
100
AcDbPoint
 10
234.1028069713284
 20
63.02700724119347
 30
0.0
  0
ENDBLK
  5
1AD7
330
1ACC
100
AcDbEntity
  8
0
370
    30
100
AcDbBlockEnd
  0
BLOCK
  5
1AD9
330
1AD8
100
AcDbEntity
  8
0
370
    30
100
AcDbBlockBegin
  2
*D18
 70
     1
 10
0.0
 20
0.0
 30
0.0
  3
*D18
  1
*D18
  0
LINE
  5
1ADA
330
1AD8
100
AcDbEntity
  8
文字
 62
     0
370
    -2
100
AcDbLine
 10
63.86330259097529
 20
66.64946679583329
 30
0.0
 11
46.85625347364544
 21
66.64946679583329
 31
0.0
  0
LINE
  5
1ADB
330
1AD8
100
AcDbEntity
  8
文字
 62
     0
370
    -2
100
AcDbLine
 10
63.86330259097529
 20
68.64946679583329
 30
0.0
 11
46.85625347364544
 21
68.64946679583329
 31
0.0
  0
LINE
  5
1ADC
330
1AD8
100
AcDbEntity
  8
文字
 62
     0
370
    -2
100
AcDbLine
 10
48.10625347364544
 20
64.14946679583329
 30
0.0
 11
48.10625347364544
 21
61.64946679583329
 31
0.0
  0
LINE
  5
1ADD
330
1AD8
100
AcDbEntity
  8
文字
 62
     0
370
    -2
100
AcDbLine
 10
48.10625347364544
 20
71.14946679583329
 30
0.0
 11
48.10625347364544
 21
76.56613346249996
 31
0.0
  0
LINE
  5
1ADE
330
1AD8
100
AcDbEntity
  8
文字
 62
     0
370
    -2
100
AcDbLine
 10
48.10625347364544
 20
66.64946679583329
 30
0.0
 11
48.10625347364544
 21
68.64946679583329
 31
0.0
  0
SOLID
  5
1ADF
330
1AD8
100
AcDbEntity
  8
文字
 62
     0
370
    30
100
AcDbTrace
 10
47.68958680697877
 20
64.14946679583329
 30
0.0
 11
48.5229201403121
 21
64.14946679583329
 31
0.0
 12
48.10625347364544
 22
66.64946679583329
 32
0.0
 13
48.10625347364544
 23
66.64946679583329
 33
0.0
  0
SOLID
  5
1AE0
330
1AD8
100
AcDbEntity
  8
文字
 62
     0
370
    30
100
AcDbTrace
 10
47.68958680697877
 20
71.14946679583329
 30
0.0
 11
48.5229201403121
 21
71.14946679583329
 31
0.0
 12
48.10625347364544
 22
68.64946679583329
 32
0.0
 13
48.10625347364544
 23
68.64946679583329
 33
0.0
  0
MTEXT
  5
1AE1
330
1AD8
100
AcDbEntity
  8
文字
 62
     0
100
AcDbMText
 10
46.23125347364543
 20
75.10780012916663
 30
0.0
 40
2.5
 41
0.0
 46
0.0
 71
     5
 72
     1
  1
2
 11
6.123031769111886E-17
 21
1.0
 31
0.0
 73
     1
 44
1.0
  0
POINT
  5
1AE2
330
1AD8
100
AcDbEntity
  8
Defpoints
 62
     0
370
    30
100
AcDbPoint
 10
64.4883025909753
 20
66.64946679583329
 30
0.0
  0
POINT
  5
1AE3
330
1AD8
100
AcDbEntity
  8
Defpoints
 62
     0
370
    30
100
AcDbPoint
 10
64.4883025909753
 20
68.64946679583329
 30
0.0
  0
POINT
  5
1AE4
330
1AD8
100
AcDbEntity
  8
Defpoints
 62
     0
370
    30
100
AcDbPoint
 10
48.10625347364544
 20
68.64946679583329
 30
0.0
  0
ENDBLK
  5
1AE5
330
1AD8
100
AcDbEntity
  8
0
370
    30
100
AcDbBlockEnd
  0
BLOCK
  5
1AE7
330
1AE6
100
AcDbEntity
  8
0
100
AcDbBlockBegin
  2
*D19
 70
     1
 10
0.0
 20
0.0
 30
0.0
  3
*D19
  1
*D19
  0
LINE
  5
1AE8
330
1AE6
100
AcDbEntity
  8
文字
 62
     0
370
    -2
100
AcDbLine
 10
201.6198287998888
 20
107.7229665591597
 30
0.0
 11
201.6198287998888
 21
69.90949830411887
 31
0.0
  0
LINE
  5
1AE9
330
1AE6
100
AcDbEntity
  8
文字
 62
     0
370
    -2
100
AcDbLine
 10
220.585785142768
 20
107.7229665591597
 30
0.0
 11
220.585785142768
 21
69.90949830411887
 31
0.0
  0
LINE
  5
1AEA
330
1AE6
100
AcDbEntity
  8
文字
 62
     0
370
    -2
100
AcDbLine
 10
204.1198287998888
 20
71.15949830411887
 30
0.0
 11
218.085785142768
 21
71.15949830411887
 31
0.0
  0
SOLID
  5
1AEB
330
1AE6
100
AcDbEntity
  8
文字
 62
     0
100
AcDbTrace
 10
204.1198287998888
 20
71.57616497078554
 30
0.0
 11
204.1198287998888
 21
70.7428316374522
 31
0.0
 12
201.6198287998888
 22
71.15949830411887
 32
0.0
 13
201.6198287998888
 23
71.15949830411887
 33
0.0
  0
SOLID
  5
1AEC
330
1AE6
100
AcDbEntity
  8
文字
 62
     0
100
AcDbTrace
 10
218.085785142768
 20
71.57616497078554
 30
0.0
 11
218.085785142768
 21
70.7428316374522
 31
0.0
 12
220.585785142768
 22
71.15949830411887
 32
0.0
 13
220.585785142768
 23
71.15949830411887
 33
0.0
  0
MTEXT
  5
1AED
330
1AE6
100
AcDbEntity
  8
文字
 62
     0
100
AcDbMText
 10
211.1028069713284
 20
73.03449830411887
 30
0.0
 40
2.5
 41
0.0
 46
0.0
 71
     5
 72
     1
  1
19
 73
     1
 44
1.0
  0
POINT
  5
1AEE
330
1AE6
100
AcDbEntity
  8
Defpoints
 62
     0
100
AcDbPoint
 10
201.6198287998888
 20
108.3479665591597
 30
0.0
  0
POINT
  5
1AEF
330
1AE6
100
AcDbEntity
  8
Defpoints
 62
     0
100
AcDbPoint
 10
220.585785142768
 20
108.3479665591597
 30
0.0
  0
POINT
  5
1AF0
330
1AE6
100
AcDbEntity
  8
Defpoints
 62
     0
100
AcDbPoint
 10
220.585785142768
 20
71.15949830411887
 30
0.0
  0
ENDBLK
  5
1AF1
330
1AE6
100
AcDbEntity
  8
0
100
AcDbBlockEnd
  0
BLOCK
  5
1AF3
330
1AF2
100
AcDbEntity
  8
0
100
AcDbBlockBegin
  2
*D20
 70
     1
 10
0.0
 20
0.0
 30
0.0
  3
*D20
  1
*D20
  0
LINE
  5
1AF4
330
1AF2
100
AcDbEntity
  8
文字
 62
     0
370
    -2
100
AcDbLine
 10
88.48830259097527
 20
142.2133181029333
 30
0.0
 11
88.48830259097527
 21
155.4106552626019
 31
0.0
  0
LINE
  5
1AF5
330
1AF2
100
AcDbEntity
  8
文字
 62
     0
370
    -2
100
AcDbLine
 10
100.4883025909753
 20
142.2133181029333
 30
0.0
 11
100.4883025909753
 21
155.4106552626019
 31
0.0
  0
LINE
  5
1AF6
330
1AF2
100
AcDbEntity
  8
文字
 62
     0
370
    -2
100
AcDbLine
 10
90.98830259097527
 20
154.1606552626019
 30
0.0
 11
97.98830259097527
 21
154.1606552626019
 31
0.0
  0
SOLID
  5
1AF7
330
1AF2
100
AcDbEntity
  8
文字
 62
     0
100
AcDbTrace
 10
90.98830259097527
 20
154.5773219292686
 30
0.0
 11
90.98830259097527
 21
153.7439885959353
 31
0.0
 12
88.48830259097527
 22
154.1606552626019
 32
0.0
 13
88.48830259097527
 23
154.1606552626019
 33
0.0
  0
SOLID
  5
1AF8
330
1AF2
100
AcDbEntity
  8
文字
 62
     0
100
AcDbTrace
 10
97.98830259097527
 20
154.5773219292686
 30
0.0
 11
97.98830259097527
 21
153.7439885959353
 31
0.0
 12
100.4883025909753
 22
154.1606552626019
 32
0.0
 13
100.4883025909753
 23
154.1606552626019
 33
0.0
  0
MTEXT
  5
1AF9
330
1AF2
100
AcDbEntity
  8
文字
 62
     0
100
AcDbMText
 10
94.48830259097527
 20
156.0356552626019
 30
0.0
 40
2.5
 41
0.0
 46
0.0
 71
     5
 72
     1
  1
{\fArial|b0|i0|c0|p32;M}12
 73
     1
 44
1.0
  0
POINT
  5
1AFA
330
1AF2
100
AcDbEntity
  8
Defpoints
 62
     0
100
AcDbPoint
 10
88.48830259097527
 20
141.5883181029333
 30
0.0
  0
POINT
  5
1AFB
330
1AF2
100
AcDbEntity
  8
Defpoints
 62
     0
100
AcDbPoint
 10
100.4883025909753
 20
141.5883181029333
 30
0.0
  0
POINT
  5
1AFC
330
1AF2
100
AcDbEntity
  8
Defpoints
 62
     0
100
AcDbPoint
 10
100.4883025909753
 20
154.1606552626019
 30
0.0
  0
ENDBLK
  5
1AFD
330
1AF2
100
AcDbEntity
  8
0
100
AcDbBlockEnd
  0
BLOCK
  5
1AFF
330
1AFE
100
AcDbEntity
  8
0
100
AcDbBlockBegin
  2
*D21
 70
     1
 10
0.0
 20
0.0
 30
0.0
  3
*D21
  1
*D21
  0
LINE
  5
1B00
330
1AFE
100
AcDbEntity
  8
文字
 62
     0
370
    -2
100
AcDbLine
 10
101.1133025909753
 20
144.2133181029333
 30
0.0
 11
139.3179534981718
 21
144.2133181029333
 31
0.0
  0
LINE
  5
1B01
330
1AFE
100
AcDbEntity
  8
文字
 62
     0
370
    -2
100
AcDbLine
 10
106.0633025909753
 20
94.21331810293327
 30
0.0
 11
139.3179534981718
 21
94.21331810293327
 31
0.0
  0
LINE
  5
1B02
330
1AFE
100
AcDbEntity
  8
文字
 62
     0
370
    -2
100
AcDbLine
 10
138.0679534981718
 20
141.7133181029333
 30
0.0
 11
138.0679534981718
 21
96.71331810293327
 31
0.0
  0
SOLID
  5
1B03
330
1AFE
100
AcDbEntity
  8
文字
 62
     0
100
AcDbTrace
 10
137.6512868315052
 20
141.7133181029333
 30
0.0
 11
138.4846201648385
 21
141.7133181029333
 31
0.0
 12
138.0679534981718
 22
144.2133181029333
 32
0.0
 13
138.0679534981718
 23
144.2133181029333
 33
0.0
  0
SOLID
  5
1B04
330
1AFE
100
AcDbEntity
  8
文字
 62
     0
100
AcDbTrace
 10
137.6512868315052
 20
96.71331810293327
 30
0.0
 11
138.4846201648385
 21
96.71331810293327
 31
0.0
 12
138.0679534981718
 22
94.21331810293327
 32
0.0
 13
138.0679534981718
 23
94.21331810293327
 33
0.0
  0
MTEXT
  5
1B05
330
1AFE
100
AcDbEntity
  8
文字
 62
     0
100
AcDbMText
 10
136.1929534981718
 20
119.2133181029333
 30
0.0
 40
2.5
 41
0.0
 46
0.0
 71
     5
 72
     1
  1
50
 11
6.123031769111886E-17
 21
1.0
 31
0.0
 73
     1
 44
1.0
  0
POINT
  5
1B06
330
1AFE
100
AcDbEntity
  8
Defpoints
 62
     0
100
AcDbPoint
 10
100.4883025909753
 20
144.2133181029333
 30
0.0
  0
POINT
  5
1B07
330
1AFE
100
AcDbEntity
  8
Defpoints
 62
     0
100
AcDbPoint
 10
105.4383025909753
 20
94.21331810293327
 30
0.0
  0
POINT
  5
1B08
330
1AFE
100
AcDbEntity
  8
Defpoints
 62
     0
100
AcDbPoint
 10
138.0679534981718
 20
94.21331810293327
 30
0.0
  0
ENDBLK
  5
1B09
330
1AFE
100
AcDbEntity
  8
0
100
AcDbBlockEnd
  0
BLOCK
  5
1B43
330
1B0A
100
AcDbEntity
  8
0
 62
     1
100
AcDbBlockBegin
  2
A$C518B1B4A
 70
     0
 10
0.0
 20
0.0
 30
0.0
  3
A$C518B1B4A
  1
A$C518B1B4A
  0
DIMENSION
  5
1B0B
102
{ACAD_REACTORS
330
1B0D
102
}
102
{ACAD_XDICTIONARY
360
1B0C
102
}
330
1B0A
100
AcDbEntity
  8
文字
100
AcDbDimension
280
     0
  2
*D21
 10
-73.03485347315655
 20
-19.60964845622647
 30
0.0
 11
-74.90985347315657
 21
5.390351543773548
 31
0.0
 12
-211.1028069713284
 22
-113.8229665591597
 32
0.0
 70
    32
 71
     5
 42
50.0
 73
     0
 74
     0
 75
     0
  3
ISO-25
100
AcDbAlignedDimension
 13
-110.6145043803531
 23
30.39035154377353
 33
0.0
 14
-105.6645043803531
 24
-19.60964845622647
 34
0.0
 50
90.0
100
AcDbRotatedDimension
  0
LINE
  5
1B0E
330
1B0A
100
AcDbEntity
  8
実線
370
    20
100
AcDbLine
 10
-112.6145043803531
 20
30.39035154377353
 30
0.0
 11
-112.6145043803531
 21
-19.60964845622647
 31
0.0
  0
LINE
  5
1B0F
330
1B0A
100
AcDbEntity
  8
実線
370
    20
100
AcDbLine
 10
-120.6145043803531
 20
30.39035154377353
 30
0.0
 11
-120.6145043803531
 21
-19.60964845622647
 31
0.0
  0
LINE
  5
1B10
330
1B0A
100
AcDbEntity
  8
実線
370
    20
100
AcDbLine
 10
-122.6145043803531
 20
28.39035154377353
 30
0.0
 11
-110.6145043803531
 21
28.39035154377353
 31
0.0
  0
LWPOLYLINE
  5
1B11
330
1B0A
100
AcDbEntity
  8
実線
100
AcDbPolyline
 90
        6
 70
     1
 43
0.0
 10
-122.6145043803531
 20
-19.60964845622647
 10
-110.6145043803531
 20
-19.60964845622647
 10
-110.6145043803531
 20
28.39035154377353
 10
-112.6145043803531
 20
30.39035154377353
 10
-120.6145043803531
 20
30.39035154377353
 10
-122.6145043803531
 20
28.39035154377353
  0
LINE
  5
1B12
330
1B0A
100
AcDbEntity
  8
中心線
100
AcDbLine
 10
0.0
 20
0.0
 30
0.0
 11
44.45988741376516
 21
0.0
 31
0.0
  0
LINE
  5
1B13
330
1B0A
100
AcDbEntity
  8
中心線
100
AcDbLine
 10
0.0
 20
0.0
 30
0.0
 11
-42.52630118444506
 21
0.0
 31
0.0
  0
DIMENSION
  5
1B14
330
1B0A
100
AcDbEntity
  8
文字
100
AcDbDimension
280
     0
  2
*D20
 10
-110.6145043803531
 20
40.33768870344221
 30
0.0
 11
-116.6145043803531
 21
42.21268870344221
 31
0.0
 12
-211.1028069713284
 22
-113.8229665591597
 32
0.0
 70
    32
  1
{\fArial|b0|i0|c0|p32;M}<>
 71
     5
 42
12.0
 73
     0
 74
     0
 75
     0
  3
ISO-25
100
AcDbAlignedDimension
 13
-122.6145043803531
 23
27.76535154377353
 33
0.0
 14
-110.6145043803531
 24
27.76535154377353
 34
0.0
100
AcDbRotatedDimension
  0
DIMENSION
  5
1B15
102
{ACAD_REACTORS
330
1B17
102
}
102
{ACAD_XDICTIONARY
360
1B16
102
}
330
1B0A
100
AcDbEntity
  8
文字
100
AcDbDimension
280
     0
  2
*D19
 10
9.482978171439612
 20
-42.66346825504087
 30
0.0
 11
0.0
 21
-40.78846825504087
 31
0.0
 12
-211.1028069713284
 22
-113.8229665591597
 32
0.0
 70
    32
  1
19
 71
     5
 42
18.9659563428792
 73
     0
 74
     0
 75
     0
  3
ISO-25
100
AcDbAlignedDimension
 13
-9.482978171439584
 23
-5.474999999999994
 33
0.0
 14
9.482978171439612
 24
-5.474999999999994
 34
0.0
100
AcDbRotatedDimension
  0
LINE
  5
1B18
330
1B0A
100
AcDbEntity
  8
中心線
100
AcDbLine
 10
0.0
 20
0.0
 30
0.0
 11
0.0
 21
-36.41035681156728
 31
0.0
  0
LINE
  5
1B19
330
1B0A
100
AcDbEntity
  8
中心線
100
AcDbLine
 10
0.0
 20
0.0
 30
0.0
 11
0.0
 21
42.76732667452831
 31
0.0
  0
LINE
  5
1B1A
330
1B0A
100
AcDbEntity
  8
中心線
100
AcDbLine
 10
-116.6145043803531
 20
-54.09738755106875
 30
0.0
 11
-116.6145043803531
 21
35.04188265915826
 31
0.0
  0
DIMENSION
  5
1B1B
102
{ACAD_REACTORS
330
1B1D
102
}
102
{ACAD_XDICTIONARY
360
1B1C
102
}
330
1B0A
100
AcDbEntity
  8
文字
100
AcDbDimension
280
     0
  2
*D18
 10
-162.996553497683
 20
-45.17349976332645
 30
0.0
 11
-164.871553497683
 21
-38.7151664299931
 31
0.0
 12
-211.1028069713284
 22
-113.8229665591597
 32
0.0
 70
    32
 71
     5
 42
2.0
 73
     0
 74
     0
 75
     0
  3
ISO-25
100
AcDbAlignedDimension
 13
-146.6145043803531
 23
-47.17349976332645
 33
0.0
 14
-146.6145043803531
 24
-45.17349976332645
 34
0.0
 50
90.0
100
AcDbRotatedDimension
  0
DIMENSION
  5
1B1E
102
{ACAD_REACTORS
330
1B20
102
}
102
{ACAD_XDICTIONARY
360
1B1F
102
}
330
1B0A
100
AcDbEntity
  8
文字
100
AcDbDimension
280
     0
  2
*D17
 10
23.0
 20
-50.79595931796626
 30
0.0
 11
0.0
 21
-48.92095931796626
 31
0.0
 12
-211.1028069713284
 22
-113.8229665591597
 32
0.0
 70
    32
  1
%%c<>
 71
     5
 42
46.0
 73
     0
 74
     0
 75
     0
  3
ISO-25
100
AcDbAlignedDimension
 13
-23.0
 23
0.0
 33
0.0
 14
23.0
 24
0.0
 34
0.0
100
AcDbRotatedDimension
  0
DIMENSION
  5
1B21
330
1B0A
100
AcDbEntity
  8
文字
100
AcDbDimension
280
     0
  2
*D16
 10
-73.03485347315655
 20
-19.60964845622647
 30
0.0
 11
-74.90985347315657
 21
-23.62741540919282
 31
0.0
 12
-211.1028069713284
 22
-113.8229665591597
 32
0.0
 70
    32
  1
8
 71
     5
 42
8.035533905932738
 73
     0
 74
     0
 75
     0
  3
ISO-25
100
AcDbAlignedDimension
 13
-105.6645043803531
 23
-27.6451823621592
 33
0.0
 14
-105.6645043803531
 24
-19.60964845622647
 34
0.0
 50
90.0
100
AcDbRotatedDimension
  0
DIMENSION
  5
1B22
102
{ACAD_REACTORS
330
1B24
102
}
102
{ACAD_XDICTIONARY
360
1B23
102
}
330
1B0A
100
AcDbEntity
  8
文字
100
AcDbDimension
280
     0
  2
*D15
 10
-73.00054025693657
 20
-47.79849976332646
 30
0.0
 11
-74.8755402569366
 21
-37.72184106274283
 31
0.0
 12
-211.1028069713284
 22
-113.8229665591597
 32
0.0
 70
    32
  1
19
 71
     5
 42
20.15331740116726
 73
     0
 74
     0
 75
     0
  3
ISO-25
100
AcDbAlignedDimension
 13
-108.1645043803531
 23
-27.6451823621592
 33
0.0
 14
-86.6145043803531
 24
-47.79849976332646
 34
0.0
 50
90.0
100
AcDbRotatedDimension
  0
DIMENSION
  5
1B25
102
{ACAD_REACTORS
330
1B27
102
}
102
{ACAD_XDICTIONARY
360
1B26
102
}
330
1B0A
100
AcDbEntity
  8
文字
100
AcDbDimension
280
     0
  2
*D14
 10
-86.6145043803531
 20
-66.55796042234971
 30
0.0
 11
-116.6145043803531
 21
-64.68296042234971
 31
0.0
 12
-211.1028069713284
 22
-113.8229665591597
 32
0.0
 70
    32
  1
%%c<>
 71
     5
 42
60.0
 73
     0
 74
     0
 75
     0
  3
ISO-25
100
AcDbAlignedDimension
 13
-146.6145043803531
 23
-47.17349976332645
 33
0.0
 14
-86.6145043803531
 24
-47.17349976332646
 34
0.0
100
AcDbRotatedDimension
  0
ARC
  5
1B28
330
1B0A
100
AcDbEntity
  8
実線
100
AcDbCircle
 10
-116.6145043803531
 20
-6.885517455278304
 30
0.0
 40
20.60203494178584
100
AcDbArc
 50
253.2134882526869
 51
286.7865117473133
  0
LINE
  5
1B29
330
1B0A
100
AcDbEntity
  8
実線
100
AcDbLine
 10
-124.0810731213618
 20
-27.4875301457851
 30
0.0
 11
-109.2084944623676
 21
-27.4875301457851
 31
0.0
  0
CIRCLE
  5
1B2A
330
1B0A
100
AcDbEntity
  8
実線
370
    20
100
AcDbCircle
 10
0.0
 20
0.0
 30
0.0
 40
5.15
  0
CIRCLE
  5
1B2B
330
1B0A
100
AcDbEntity
  8
実線
100
AcDbCircle
 10
0.0
 20
0.0
 30
0.0
 40
6.0
  0
LWPOLYLINE
  5
1B2C
102
{ACAD_REACTORS
330
1B17
102
}
330
1B0A
100
AcDbEntity
  8
実線
100
AcDbPolyline
 90
        6
 70
     1
 43
0.0
 10
-9.482978171439584
 20
-5.474999999999994
 10
0.0
 20
-10.94999999999999
 10
9.482978171439612
 20
-5.474999999999994
 10
9.48297817143964
 20
5.474999999999994
 10
0.0000000000000284
 20
10.94999999999999
 10
-9.482978171439584
 20
5.475000000000023
  0
LINE
  5
1B2D
330
1B0A
100
AcDbEntity
  8
実線
100
AcDbLine
 10
-127.5645043803531
 20
-25.60964845622647
 30
0.0
 11
-127.5645043803531
 21
-26.60964845622647
 31
0.0
  0
LINE
  5
1B2E
330
1B0A
100
AcDbEntity
  8
実線
100
AcDbLine
 10
-105.6645043803531
 20
-25.60964845622647
 30
0.0
 11
-105.6645043803531
 21
-26.60964845622647
 31
0.0
  0
LINE
  5
1B2F
330
1B0A
100
AcDbEntity
  8
実線
100
AcDbLine
 10
-105.6645043803531
 20
-26.60964845622647
 30
0.0
 11
-105.6645043803531
 21
-25.60964845622647
 31
0.0
  0
ARC
  5
1B30
102
{ACAD_REACTORS
330
1B24
102
}
330
1B0A
100
AcDbEntity
  8
実線
100
AcDbCircle
 10
-108.1645043803531
 20
-24.10964845622644
 30
0.0
 40
3.535533905932768
100
AcDbArc
 50
225.0
 51
315.0
  0
ARC
  5
1B31
330
1B0A
100
AcDbEntity
  8
実線
100
AcDbCircle
 10
-125.0645043803531
 20
-24.03971975646913
 30
0.0
 40
3.58532195511595
100
AcDbArc
 50
225.7902212344514
 51
314.2097787655485
  0
LINE
  5
1B32
330
1B0A
100
AcDbEntity
  8
実線
100
AcDbLine
 10
-122.5645043803531
 20
-19.60964845622647
 30
0.0
 11
-122.5645043803531
 21
-26.60964845622647
 31
0.0
  0
LINE
  5
1B33
330
1B0A
100
AcDbEntity
  8
実線
100
AcDbLine
 10
-110.6645043803531
 20
-19.60964845622647
 30
0.0
 11
-110.6645043803531
 21
-26.60964845622648
 31
0.0
  0
LWPOLYLINE
  5
1B34
102
{ACAD_REACTORS
330
1B0D
102
}
330
1B0A
100
AcDbEntity
  8
実線
100
AcDbPolyline
 90
        4
 70
     0
 43
0.0
 10
-105.6645043803531
 20
-25.60964845622647
 10
-105.6645043803531
 20
-19.60964845622647
 10
-127.5645043803531
 20
-19.60964845622647
 10
-127.5645043803531
 20
-25.60964845622647
  0
CIRCLE
  5
1B35
330
1B0A
100
AcDbEntity
  8
実線
100
AcDbCircle
 10
0.0
 20
0.0
 30
0.0
 40
30.0
  0
CIRCLE
  5
1B36
102
{ACAD_REACTORS
330
1B20
102
}
330
1B0A
100
AcDbEntity
  8
実線
100
AcDbCircle
 10
0.0
 20
0.0
 30
0.0
 40
23.0
  0
LINE
  5
1B37
330
1B0A
100
AcDbEntity
  8
実線
100
AcDbLine
 10
-142.2741484844553
 20
-45.17349976332645
 30
0.0
 11
-90.9548602762509
 21
-45.17349976332646
 31
0.0
  0
LINE
  5
1B38
330
1B0A
100
AcDbEntity
  8
実線
100
AcDbLine
 10
-112.6145043803531
 20
-27.17349976332646
 30
0.0
 11
-112.6538633828662
 21
-27.17349976332646
 31
0.0
  0
LINE
  5
1B39
330
1B0A
100
AcDbEntity
  8
実線
100
AcDbLine
 10
-90.9548602762509
 20
-45.17349976332646
 30
0.0
 11
-86.6145043803531
 21
-45.17349976332646
 31
0.0
  0
ARC
  5
1B3A
330
1B0A
100
AcDbEntity
  8
実線
100
AcDbCircle
 10
-90.9548602762509
 20
-42.17349976332645
 30
0.0
 40
3.0
100
AcDbArc
 50
190.4756333660877
 51
270.0
  0
ARC
  5
1B3B
330
1B0A
100
AcDbEntity
  8
実線
100
AcDbCircle
 10
-112.5881713031187
 20
-46.17348151513463
 30
0.0
 40
19.0
100
AcDbArc
 50
10.47563336608763
 51
79.99041238858658
  0
ARC
  5
1B3C
330
1B0A
100
AcDbEntity
  8
実線
100
AcDbCircle
 10
-142.2741484844553
 20
-42.17349976332645
 30
0.0
 40
3.0
100
AcDbArc
 50
270.0
 51
349.5243666339124
  0
ARC
  5
1B3D
330
1B0A
100
AcDbEntity
  8
実線
100
AcDbCircle
 10
-120.6408374575875
 20
-46.17348151513463
 30
0.0
 40
19.0
100
AcDbArc
 50
100.4318012170099
 51
169.5243666339124
  0
LINE
  5
1B3E
330
1B0A
100
AcDbEntity
  8
実線
100
AcDbLine
 10
-120.5751453778401
 20
-27.17349976332645
 30
0.0
 11
-120.6145043803531
 21
-27.17349976332645
 31
0.0
  0
LINE
  5
1B3F
102
{ACAD_REACTORS
330
1B27
330
1B1D
102
}
330
1B0A
100
AcDbEntity
  8
実線
100
AcDbLine
 10
-146.6145043803531
 20
-47.17349976332645
 30
0.0
 11
-146.6145043803531
 21
-45.17349976332645
 31
0.0
  0
LINE
  5
1B40
330
1B0A
100
AcDbEntity
  8
実線
100
AcDbLine
 10
-146.6145043803531
 20
-45.17349976332645
 30
0.0
 11
-142.2741484844553
 21
-45.17349976332645
 31
0.0
  0
LINE
  5
1B41
102
{ACAD_REACTORS
330
1B27
102
}
330
1B0A
100
AcDbEntity
  8
実線
100
AcDbLine
 10
-86.6145043803531
 20
-47.17349976332646
 30
0.0
 11
-86.6145043803531
 21
-45.17349976332646
 31
0.0
  0
LINE
  5
1B42
330
1B0A
100
AcDbEntity
  8
実線
100
AcDbLine
 10
-146.6145043803531
 20
-47.17349976332645
 30
0.0
 11
-86.6145043803531
 21
-47.17349976332646
 31
0.0
  0
ENDBLK
  5
1B44
330
1B0A
100
AcDbEntity
  8
0
 62
     1
100
AcDbBlockEnd
  0
BLOCK
  5
1B89
330
1B7F
100
AcDbEntity
  8
0
100
AcDbBlockBegin
  2
*D23
 70
     1
 10
0.0
 20
0.0
 30
0.0
  3
*D23
  1
*D23
  0
LINE
  5
1C5A
330
1B7F
100
AcDbEntity
  8
文字
 62
     0
370
    -2
100
AcDbLine
 10
50.20810817110232
 20
102.8092142822128
 30
0.0
 11
50.20810817110232
 21
116.5704027489815
 31
0.0
  0
LINE
  5
1C5B
330
1B7F
100
AcDbEntity
  8
文字
 62
     0
370
    -2
100
AcDbLine
 10
62.20810817110232
 20
102.8092142822128
 30
0.0
 11
62.20810817110232
 21
116.5704027489815
 31
0.0
  0
LINE
  5
1C5C
330
1B7F
100
AcDbEntity
  8
文字
 62
     0
370
    -2
100
AcDbLine
 10
52.70810817110232
 20
115.3204027489815
 30
0.0
 11
59.70810817110232
 21
115.3204027489815
 31
0.0
  0
SOLID
  5
1C5D
330
1B7F
100
AcDbEntity
  8
文字
 62
     0
100
AcDbTrace
 10
52.70810817110232
 20
115.7370694156482
 30
0.0
 11
52.70810817110232
 21
114.9037360823148
 31
0.0
 12
50.20810817110232
 22
115.3204027489815
 32
0.0
 13
50.20810817110232
 23
115.3204027489815
 33
0.0
  0
SOLID
  5
1C5E
330
1B7F
100
AcDbEntity
  8
文字
 62
     0
100
AcDbTrace
 10
59.70810817110232
 20
115.7370694156482
 30
0.0
 11
59.70810817110232
 21
114.9037360823148
 31
0.0
 12
62.20810817110232
 22
115.3204027489815
 32
0.0
 13
62.20810817110232
 23
115.3204027489815
 33
0.0
  0
MTEXT
  5
1C5F
330
1B7F
100
AcDbEntity
  8
文字
 62
     0
100
AcDbMText
 10
56.20810817110232
 20
117.1954027489815
 30
0.0
 40
2.5
 41
0.0
 46
0.0
 71
     5
 72
     1
  1
M12
 73
     1
 44
1.0
  0
POINT
  5
1C60
330
1B7F
100
AcDbEntity
  8
Defpoints
 62
     0
100
AcDbPoint
 10
50.20810817110232
 20
102.1842142822128
 30
0.0
  0
POINT
  5
1C61
330
1B7F
100
AcDbEntity
  8
Defpoints
 62
     0
100
AcDbPoint
 10
62.20810817110232
 20
102.1842142822128
 30
0.0
  0
POINT
  5
1C62
330
1B7F
100
AcDbEntity
  8
Defpoints
 62
     0
100
AcDbPoint
 10
62.20810817110232
 20
115.3204027489815
 30
0.0
  0
ENDBLK
  5
1B8A
330
1B7F
100
AcDbEntity
  8
0
100
AcDbBlockEnd
  0
BLOCK
  5
1B95
330
1B8B
100
AcDbEntity
  8
0
100
AcDbBlockBegin
  2
*D24
 70
     1
 10
0.0
 20
0.0
 30
0.0
  3
*D24
  1
*D24
  0
LINE
  5
1C48
330
1B8B
100
AcDbEntity
  8
文字
 62
     0
370
    -2
100
AcDbLine
 10
67.41386327922032
 20
46.80921428221284
 30
0.0
 11
101.0377590782989
 21
46.80921428221283
 31
0.0
  0
LINE
  5
1C49
330
1B8B
100
AcDbEntity
  8
文字
 62
     0
370
    -2
100
AcDbLine
 10
67.75282875958942
 20
54.80921428221284
 30
0.0
 11
101.0377590782989
 21
54.80921428221284
 31
0.0
  0
LINE
  5
1C4A
330
1B8B
100
AcDbEntity
  8
文字
 62
     0
370
    -2
100
AcDbLine
 10
99.7877590782989
 20
49.30921428221283
 30
0.0
 11
99.7877590782989
 21
52.30921428221284
 31
0.0
  0
SOLID
  5
1C4B
330
1B8B
100
AcDbEntity
  8
文字
 62
     0
100
AcDbTrace
 10
99.37109241163223
 20
49.30921428221283
 30
0.0
 11
100.2044257449656
 21
49.30921428221283
 31
0.0
 12
99.7877590782989
 22
46.80921428221283
 32
0.0
 13
99.7877590782989
 23
46.80921428221283
 33
0.0
  0
SOLID
  5
1C4C
330
1B8B
100
AcDbEntity
  8
文字
 62
     0
100
AcDbTrace
 10
99.37109241163223
 20
52.30921428221284
 30
0.0
 11
100.2044257449656
 21
52.30921428221284
 31
0.0
 12
99.7877590782989
 22
54.80921428221284
 32
0.0
 13
99.7877590782989
 23
54.80921428221284
 33
0.0
  0
MTEXT
  5
1C4D
330
1B8B
100
AcDbEntity
  8
文字
 62
     0
100
AcDbMText
 10
97.91275907829889
 20
50.80921428221284
 30
0.0
 40
2.5
 41
0.0
 46
0.0
 71
     5
 72
     1
  1
8
 11
6.123031769111886E-17
 21
1.0
 31
0.0
 73
     1
 44
1.0
  0
POINT
  5
1C4E
330
1B8B
100
AcDbEntity
  8
Defpoints
 62
     0
100
AcDbPoint
 10
66.78886327922032
 20
46.80921428221284
 30
0.0
  0
POINT
  5
1C4F
330
1B8B
100
AcDbEntity
  8
Defpoints
 62
     0
100
AcDbPoint
 10
67.12782875958942
 20
54.80921428221284
 30
0.0
  0
POINT
  5
1C50
330
1B8B
100
AcDbEntity
  8
Defpoints
 62
     0
100
AcDbPoint
 10
99.7877590782989
 20
54.80921428221284
 30
0.0
  0
ENDBLK
  5
1B96
330
1B8B
100
AcDbEntity
  8
0
100
AcDbBlockEnd
  0
BLOCK
  5
1BA1
330
1B97
100
AcDbEntity
  8
0
100
AcDbBlockBegin
  2
*D25
 70
     1
 10
0.0
 20
0.0
 30
0.0
  3
*D25
  1
*D25
  0
LINE
  5
1C63
330
1B97
100
AcDbEntity
  8
文字
 62
     0
370
    -2
100
AcDbLine
 10
62.83310817110232
 20
104.8092142822128
 30
0.0
 11
101.0377590782989
 21
104.8092142822128
 31
0.0
  0
LINE
  5
1C64
330
1B97
100
AcDbEntity
  8
文字
 62
     0
370
    -2
100
AcDbLine
 10
67.75282875958939
 20
54.80921428221284
 30
0.0
 11
101.0377590782989
 21
54.80921428221284
 31
0.0
  0
LINE
  5
1C65
330
1B97
100
AcDbEntity
  8
文字
 62
     0
370
    -2
100
AcDbLine
 10
99.78775907829892
 20
102.3092142822128
 30
0.0
 11
99.7877590782989
 21
57.30921428221284
 31
0.0
  0
SOLID
  5
1C66
330
1B97
100
AcDbEntity
  8
文字
 62
     0
100
AcDbTrace
 10
99.37109241163225
 20
102.3092142822128
 30
0.0
 11
100.2044257449656
 21
102.3092142822128
 31
0.0
 12
99.78775907829892
 22
104.8092142822128
 32
0.0
 13
99.78775907829892
 23
104.8092142822128
 33
0.0
  0
SOLID
  5
1C67
330
1B97
100
AcDbEntity
  8
文字
 62
     0
100
AcDbTrace
 10
99.37109241163223
 20
57.30921428221284
 30
0.0
 11
100.2044257449656
 21
57.30921428221284
 31
0.0
 12
99.7877590782989
 22
54.80921428221284
 32
0.0
 13
99.7877590782989
 23
54.80921428221284
 33
0.0
  0
MTEXT
  5
1C68
330
1B97
100
AcDbEntity
  8
文字
 62
     0
100
AcDbMText
 10
97.91275907829889
 20
79.80921428221285
 30
0.0
 40
2.5
 41
0.0
 46
0.0
 71
     5
 72
     1
  1
50
 11
6.123031769111886E-17
 21
1.0
 31
0.0
 73
     1
 44
1.0
  0
POINT
  5
1C69
330
1B97
100
AcDbEntity
  8
Defpoints
 62
     0
100
AcDbPoint
 10
62.20810817110232
 20
104.8092142822128
 30
0.0
  0
POINT
  5
1C6A
330
1B97
100
AcDbEntity
  8
Defpoints
 62
     0
100
AcDbPoint
 10
67.12782875958939
 20
54.80921428221284
 30
0.0
  0
POINT
  5
1C6B
330
1B97
100
AcDbEntity
  8
Defpoints
 62
     0
100
AcDbPoint
 10
99.7877590782989
 20
54.80921428221284
 30
0.0
  0
ENDBLK
  5
1BA2
330
1B97
100
AcDbEntity
  8
0
100
AcDbBlockEnd
  0
BLOCK
  5
1BB6
330
1BAC
100
AcDbEntity
  8
0
100
AcDbBlockBegin
  2
*D26
 70
     1
 10
0.0
 20
0.0
 30
0.0
  3
*D26
  1
*D26
  0
LINE
  5
1BAD
330
1BAC
100
AcDbEntity
  8
文字
 62
     0
370
    -2
100
AcDbLine
 10
163.3396343800159
 20
68.8827140455393
 30
0.0
 11
163.3396343800159
 21
31.06924579049843
 31
0.0
  0
LINE
  5
1BAE
330
1BAC
100
AcDbEntity
  8
文字
 62
     0
370
    -2
100
AcDbLine
 10
182.3055907228951
 20
68.8827140455393
 30
0.0
 11
182.3055907228951
 21
31.06924579049843
 31
0.0
  0
LINE
  5
1BAF
330
1BAC
100
AcDbEntity
  8
文字
 62
     0
370
    -2
100
AcDbLine
 10
165.8396343800159
 20
32.31924579049843
 30
0.0
 11
179.8055907228951
 21
32.31924579049843
 31
0.0
  0
SOLID
  5
1BB0
330
1BAC
100
AcDbEntity
  8
文字
 62
     0
100
AcDbTrace
 10
165.8396343800159
 20
32.73591245716509
 30
0.0
 11
165.8396343800159
 21
31.90257912383176
 31
0.0
 12
163.3396343800159
 22
32.31924579049843
 32
0.0
 13
163.3396343800159
 23
32.31924579049843
 33
0.0
  0
SOLID
  5
1BB1
330
1BAC
100
AcDbEntity
  8
文字
 62
     0
100
AcDbTrace
 10
179.8055907228951
 20
32.73591245716509
 30
0.0
 11
179.8055907228951
 21
31.90257912383176
 31
0.0
 12
182.3055907228951
 22
32.31924579049843
 32
0.0
 13
182.3055907228951
 23
32.31924579049843
 33
0.0
  0
MTEXT
  5
1BB2
330
1BAC
100
AcDbEntity
  8
文字
 62
     0
100
AcDbMText
 10
172.8226125514554
 20
34.19424579049843
 30
0.0
 40
2.5
 41
0.0
 46
0.0
 71
     5
 72
     1
  1
19
 73
     1
 44
1.0
  0
POINT
  5
1BB3
330
1BAC
100
AcDbEntity
  8
Defpoints
 62
     0
100
AcDbPoint
 10
163.3396343800159
 20
69.5077140455393
 30
0.0
  0
POINT
  5
1BB4
330
1BAC
100
AcDbEntity
  8
Defpoints
 62
     0
100
AcDbPoint
 10
182.3055907228951
 20
69.5077140455393
 30
0.0
  0
POINT
  5
1BB5
330
1BAC
100
AcDbEntity
  8
Defpoints
 62
     0
100
AcDbPoint
 10
182.3055907228951
 20
32.31924579049843
 30
0.0
  0
ENDBLK
  5
1BB7
330
1BAC
100
AcDbEntity
  8
0
100
AcDbBlockEnd
  0
BLOCK
  5
1BC4
330
1BB8
100
AcDbEntity
  8
0
100
AcDbBlockBegin
  2
*D27
 70
     1
 10
0.0
 20
0.0
 30
0.0
  3
*D27
  1
*D27
  0
LINE
  5
1BB9
330
1BB8
100
AcDbEntity
  8
文字
 62
     0
370
    -2
100
AcDbLine
 10
25.58310817110237
 20
27.80921428221285
 30
0.0
 11
8.576059053772495
 21
27.80921428221285
 31
0.0
  0
LINE
  5
1BBA
330
1BB8
100
AcDbEntity
  8
文字
 62
     0
370
    -2
100
AcDbLine
 10
25.58310817110237
 20
29.80921428221285
 30
0.0
 11
8.576059053772497
 21
29.80921428221285
 31
0.0
  0
LINE
  5
1BBB
330
1BB8
100
AcDbEntity
  8
文字
 62
     0
370
    -2
100
AcDbLine
 10
9.826059053772495
 20
25.30921428221285
 30
0.0
 11
9.826059053772495
 21
22.80921428221285
 31
0.0
  0
LINE
  5
1BBC
330
1BB8
100
AcDbEntity
  8
文字
 62
     0
370
    -2
100
AcDbLine
 10
9.826059053772497
 20
32.30921428221286
 30
0.0
 11
9.826059053772498
 21
37.72588094887952
 31
0.0
  0
LINE
  5
1BBD
330
1BB8
100
AcDbEntity
  8
文字
 62
     0
370
    -2
100
AcDbLine
 10
9.826059053772495
 20
27.80921428221285
 30
0.0
 11
9.826059053772497
 21
29.80921428221285
 31
0.0
  0
SOLID
  5
1BBE
330
1BB8
100
AcDbEntity
  8
文字
 62
     0
100
AcDbTrace
 10
9.409392387105829
 20
25.30921428221285
 30
0.0
 11
10.24272572043916
 21
25.30921428221285
 31
0.0
 12
9.826059053772495
 22
27.80921428221285
 32
0.0
 13
9.826059053772495
 23
27.80921428221285
 33
0.0
  0
SOLID
  5
1BBF
330
1BB8
100
AcDbEntity
  8
文字
 62
     0
100
AcDbTrace
 10
9.40939238710583
 20
32.30921428221286
 30
0.0
 11
10.24272572043916
 21
32.30921428221286
 31
0.0
 12
9.826059053772497
 22
29.80921428221285
 32
0.0
 13
9.826059053772497
 23
29.80921428221285
 33
0.0
  0
MTEXT
  5
1BC0
330
1BB8
100
AcDbEntity
  8
文字
 62
     0
100
AcDbMText
 10
7.951059053772492
 20
36.26754761554619
 30
0.0
 40
2.5
 41
0.0
 46
0.0
 71
     5
 72
     1
  1
2
 11
6.123031769111886E-17
 21
1.0
 31
0.0
 73
     1
 44
1.0
  0
POINT
  5
1BC1
330
1BB8
100
AcDbEntity
  8
Defpoints
 62
     0
100
AcDbPoint
 10
26.20810817110237
 20
27.80921428221285
 30
0.0
  0
POINT
  5
1BC2
330
1BB8
100
AcDbEntity
  8
Defpoints
 62
     0
100
AcDbPoint
 10
26.20810817110237
 20
29.80921428221285
 30
0.0
  0
POINT
  5
1BC3
330
1BB8
100
AcDbEntity
  8
Defpoints
 62
     0
100
AcDbPoint
 10
9.826059053772497
 20
29.80921428221285
 30
0.0
  0
ENDBLK
  5
1BC5
330
1BB8
100
AcDbEntity
  8
0
100
AcDbBlockEnd
  0
BLOCK
  5
1BD0
330
1BC6
100
AcDbEntity
  8
0
100
AcDbBlockBegin
  2
*D28
 70
     1
 10
0.0
 20
0.0
 30
0.0
  3
*D28
  1
*D28
  0
LINE
  5
1BC7
330
1BC6
100
AcDbEntity
  8
文字
 62
     0
370
    -2
100
AcDbLine
 10
149.8226125514554
 20
74.3577140455393
 30
0.0
 11
149.8226125514554
 21
22.93675472757303
 31
0.0
  0
LINE
  5
1BC8
330
1BC6
100
AcDbEntity
  8
文字
 62
     0
370
    -2
100
AcDbLine
 10
195.8226125514554
 20
74.3577140455393
 30
0.0
 11
195.8226125514554
 21
22.93675472757303
 31
0.0
  0
LINE
  5
1BC9
330
1BC6
100
AcDbEntity
  8
文字
 62
     0
370
    -2
100
AcDbLine
 10
152.3226125514554
 20
24.18675472757303
 30
0.0
 11
193.3226125514554
 21
24.18675472757303
 31
0.0
  0
SOLID
  5
1BCA
330
1BC6
100
AcDbEntity
  8
文字
 62
     0
100
AcDbTrace
 10
152.3226125514554
 20
24.6034213942397
 30
0.0
 11
152.3226125514554
 21
23.77008806090636
 31
0.0
 12
149.8226125514554
 22
24.18675472757303
 32
0.0
 13
149.8226125514554
 23
24.18675472757303
 33
0.0
  0
SOLID
  5
1BCB
330
1BC6
100
AcDbEntity
  8
文字
 62
     0
100
AcDbTrace
 10
193.3226125514554
 20
24.6034213942397
 30
0.0
 11
193.3226125514554
 21
23.77008806090636
 31
0.0
 12
195.8226125514554
 22
24.18675472757303
 32
0.0
 13
195.8226125514554
 23
24.18675472757303
 33
0.0
  0
MTEXT
  5
1BCC
330
1BC6
100
AcDbEntity
  8
文字
 62
     0
100
AcDbMText
 10
172.8226125514554
 20
26.06175472757303
 30
0.0
 40
2.5
 41
0.0
 46
0.0
 71
     5
 72
     1
  1
%%c46
 73
     1
 44
1.0
  0
POINT
  5
1BCD
330
1BC6
100
AcDbEntity
  8
Defpoints
 62
     0
100
AcDbPoint
 10
149.8226125514554
 20
74.9827140455393
 30
0.0
  0
POINT
  5
1BCE
330
1BC6
100
AcDbEntity
  8
Defpoints
 62
     0
100
AcDbPoint
 10
195.8226125514554
 20
74.9827140455393
 30
0.0
  0
POINT
  5
1BCF
330
1BC6
100
AcDbEntity
  8
Defpoints
 62
     0
100
AcDbPoint
 10
195.8226125514554
 20
24.18675472757303
 30
0.0
  0
ENDBLK
  5
1BD1
330
1BC6
100
AcDbEntity
  8
0
100
AcDbBlockEnd
  0
BLOCK
  5
1BE5
330
1BDB
100
AcDbEntity
  8
0
100
AcDbBlockBegin
  2
*D29
 70
     1
 10
0.0
 20
0.0
 30
0.0
  3
*D29
  1
*D29
  0
LINE
  5
1C70
330
1BDB
100
AcDbEntity
  8
文字
 62
     0
370
    -2
100
AcDbLine
 10
67.42011370499269
 20
46.80921428221284
 30
0.0
 11
101.0720722945189
 21
46.80921428221283
 31
0.0
  0
LINE
  5
1C71
330
1BDB
100
AcDbEntity
  8
文字
 62
     0
370
    -2
100
AcDbLine
 10
86.83310817110235
 20
27.80921428221284
 30
0.0
 11
101.0720722945189
 21
27.80921428221283
 31
0.0
  0
LINE
  5
1C72
330
1BDB
100
AcDbEntity
  8
文字
 62
     0
370
    -2
100
AcDbLine
 10
99.82207229451889
 20
44.30921428221283
 30
0.0
 11
99.82207229451888
 21
30.30921428221283
 31
0.0
  0
SOLID
  5
1C73
330
1BDB
100
AcDbEntity
  8
文字
 62
     0
100
AcDbTrace
 10
99.40540562785222
 20
44.30921428221283
 30
0.0
 11
100.2387389611856
 21
44.30921428221283
 31
0.0
 12
99.82207229451889
 22
46.80921428221283
 32
0.0
 13
99.82207229451889
 23
46.80921428221283
 33
0.0
  0
SOLID
  5
1C74
330
1BDB
100
AcDbEntity
  8
文字
 62
     0
100
AcDbTrace
 10
99.4054056278522
 20
30.30921428221283
 30
0.0
 11
100.2387389611855
 21
30.30921428221283
 31
0.0
 12
99.82207229451888
 22
27.80921428221283
 32
0.0
 13
99.82207229451888
 23
27.80921428221283
 33
0.0
  0
MTEXT
  5
1C75
330
1BDB
100
AcDbEntity
  8
文字
 62
     0
100
AcDbMText
 10
97.94707229451888
 20
37.30921428221284
 30
0.0
 40
2.5
 41
0.0
 46
0.0
 71
     5
 72
     1
  1
19
 11
6.123031769111886E-17
 21
1.0
 31
0.0
 73
     1
 44
1.0
  0
POINT
  5
1C76
330
1BDB
100
AcDbEntity
  8
Defpoints
 62
     0
100
AcDbPoint
 10
66.79511370499269
 20
46.80921428221284
 30
0.0
  0
POINT
  5
1C77
330
1BDB
100
AcDbEntity
  8
Defpoints
 62
     0
100
AcDbPoint
 10
86.20810817110235
 20
27.80921428221284
 30
0.0
  0
POINT
  5
1C78
330
1BDB
100
AcDbEntity
  8
Defpoints
 62
     0
100
AcDbPoint
 10
99.82207229451888
 20
27.80921428221283
 30
0.0
  0
ENDBLK
  5
1BE6
330
1BDB
100
AcDbEntity
  8
0
100
AcDbBlockEnd
  0
BLOCK
  5
1BF1
330
1BE7
100
AcDbEntity
  8
0
100
AcDbBlockBegin
  2
*D30
 70
     1
 10
0.0
 20
0.0
 30
0.0
  3
*D30
  1
*D30
  0
LINE
  5
1BE8
330
1BE7
100
AcDbEntity
  8
文字
 62
     0
370
    -2
100
AcDbLine
 10
26.20810817110237
 20
27.18421428221285
 30
0.0
 11
26.20810817110237
 21
7.174753623189588
 31
0.0
  0
LINE
  5
1BE9
330
1BE7
100
AcDbEntity
  8
文字
 62
     0
370
    -2
100
AcDbLine
 10
86.20810817110235
 20
27.18421428221284
 30
0.0
 11
86.20810817110235
 21
7.174753623189588
 31
0.0
  0
LINE
  5
1BEA
330
1BE7
100
AcDbEntity
  8
文字
 62
     0
370
    -2
100
AcDbLine
 10
28.70810817110237
 20
8.424753623189588
 30
0.0
 11
83.70810817110235
 21
8.424753623189588
 31
0.0
  0
SOLID
  5
1BEB
330
1BE7
100
AcDbEntity
  8
文字
 62
     0
100
AcDbTrace
 10
28.70810817110237
 20
8.841420289856254
 30
0.0
 11
28.70810817110237
 21
8.008086956522922
 31
0.0
 12
26.20810817110237
 22
8.424753623189588
 32
0.0
 13
26.20810817110237
 23
8.424753623189588
 33
0.0
  0
SOLID
  5
1BEC
330
1BE7
100
AcDbEntity
  8
文字
 62
     0
100
AcDbTrace
 10
83.70810817110235
 20
8.841420289856254
 30
0.0
 11
83.70810817110235
 21
8.008086956522922
 31
0.0
 12
86.20810817110235
 22
8.424753623189588
 32
0.0
 13
86.20810817110235
 23
8.424753623189588
 33
0.0
  0
MTEXT
  5
1BED
330
1BE7
100
AcDbEntity
  8
文字
 62
     0
100
AcDbMText
 10
56.20810817110236
 20
10.29975362318959
 30
0.0
 40
2.5
 41
0.0
 46
0.0
 71
     5
 72
     1
  1
%%c60
 73
     1
 44
1.0
  0
POINT
  5
1BEE
330
1BE7
100
AcDbEntity
  8
Defpoints
 62
     0
100
AcDbPoint
 10
26.20810817110237
 20
27.80921428221285
 30
0.0
  0
POINT
  5
1BEF
330
1BE7
100
AcDbEntity
  8
Defpoints
 62
     0
100
AcDbPoint
 10
86.20810817110235
 20
27.80921428221284
 30
0.0
  0
POINT
  5
1BF0
330
1BE7
100
AcDbEntity
  8
Defpoints
 62
     0
100
AcDbPoint
 10
86.20810817110235
 20
8.424753623189588
 30
0.0
  0
ENDBLK
  5
1BF2
330
1BE7
100
AcDbEntity
  8
0
100
AcDbBlockEnd
  0
BLOCK
  5
1C84
330
1C7A
100
AcDbEntity
  8
0
100
AcDbBlockBegin
  2
*D31
 70
     1
 10
0.0
 20
0.0
 30
0.0
  3
*D31
  1
*D31
  0
LINE
  5
1C87
330
1C7A
100
AcDbEntity
  8
文字
 62
     0
370
    -2
100
AcDbLine
 10
86.83310817110235
 20
27.80921428221284
 30
0.0
 11
107.2461401751122
 21
27.80921428221283
 31
0.0
  0
LINE
  5
1C88
330
1C7A
100
AcDbEntity
  8
文字
 62
     0
370
    -2
100
AcDbLine
 10
60.83310817110235
 20
104.8092142822128
 30
0.0
 11
107.2461401751123
 21
104.8092142822128
 31
0.0
  0
LINE
  5
1C89
330
1C7A
100
AcDbEntity
  8
文字
 62
     0
370
    -2
100
AcDbLine
 10
105.9961401751122
 20
30.30921428221283
 30
0.0
 11
105.9961401751123
 21
102.3092142822128
 31
0.0
  0
SOLID
  5
1C8A
330
1C7A
100
AcDbEntity
  8
文字
 62
     0
100
AcDbTrace
 10
105.5794735084456
 20
30.30921428221283
 30
0.0
 11
106.4128068417789
 21
30.30921428221283
 31
0.0
 12
105.9961401751122
 22
27.80921428221283
 32
0.0
 13
105.9961401751122
 23
27.80921428221283
 33
0.0
  0
SOLID
  5
1C8B
330
1C7A
100
AcDbEntity
  8
文字
 62
     0
100
AcDbTrace
 10
105.5794735084456
 20
102.3092142822128
 30
0.0
 11
106.4128068417789
 21
102.3092142822128
 31
0.0
 12
105.9961401751123
 22
104.8092142822128
 32
0.0
 13
105.9961401751123
 23
104.8092142822128
 33
0.0
  0
MTEXT
  5
1C8C
330
1C7A
100
AcDbEntity
  8
文字
 62
     0
100
AcDbMText
 10
104.1211401751122
 20
66.30921428221285
 30
0.0
 40
2.5
 41
0.0
 46
0.0
 71
     5
 72
     1
  1
77
 11
6.123031769111886E-17
 21
1.0
 31
0.0
 73
     1
 44
1.0
  0
POINT
  5
1C8D
330
1C7A
100
AcDbEntity
  8
Defpoints
 62
     0
100
AcDbPoint
 10
86.20810817110235
 20
27.80921428221284
 30
0.0
  0
POINT
  5
1C8E
330
1C7A
100
AcDbEntity
  8
Defpoints
 62
     0
100
AcDbPoint
 10
60.20810817110235
 20
104.8092142822128
 30
0.0
  0
POINT
  5
1C8F
330
1C7A
100
AcDbEntity
  8
Defpoints
 62
     0
100
AcDbPoint
 10
105.9961401751123
 20
104.8092142822128
 30
0.0
  0
ENDBLK
  5
1C85
330
1C7A
100
AcDbEntity
  8
0
100
AcDbBlockEnd
  0
BLOCK
  5
1D5D
330
1D5C
100
AcDbEntity
  8
0
100
AcDbBlockBegin
  2
*D33
 70
     1
 10
0.0
 20
0.0
 30
0.0
  3
*D33
  1
*D28
  0
LINE
  5
1D5E
330
1D5C
100
AcDbEntity
  8
文字
 62
     0
370
    -2
100
AcDbLine
 10
0.0
 20
51.42095931796626
 30
0.0
 11
0.0
 21
0.0
 31
0.0
  0
LINE
  5
1D5F
330
1D5C
100
AcDbEntity
  8
文字
 62
     0
370
    -2
100
AcDbLine
 10
46.0
 20
51.42095931796626
 30
0.0
 11
46.0
 21
0.0
 31
0.0
  0
LINE
  5
1D60
330
1D5C
100
AcDbEntity
  8
文字
 62
     0
370
    -2
100
AcDbLine
 10
2.5
 20
1.25
 30
0.0
 11
43.5
 21
1.25
 31
0.0
  0
SOLID
  5
1D61
330
1D5C
100
AcDbEntity
  8
文字
 62
     0
100
AcDbTrace
 10
2.5
 20
1.666666666666667
 30
0.0
 11
2.5
 21
0.8333333333333333
 31
0.0
 12
0.0
 22
1.25
 32
0.0
 13
0.0
 23
1.25
 33
0.0
  0
SOLID
  5
1D62
330
1D5C
100
AcDbEntity
  8
文字
 62
     0
100
AcDbTrace
 10
43.5
 20
0.8333333333333333
 30
0.0
 11
43.5
 21
1.666666666666667
 31
0.0
 12
46.0
 22
1.25
 32
0.0
 13
46.0
 23
1.25
 33
0.0
  0
MTEXT
  5
1D63
330
1D5C
100
AcDbEntity
  8
文字
 62
     0
100
AcDbMText
 10
23.0
 20
3.125
 30
0.0
 40
2.5
 41
0.0
 46
0.0
 71
     5
 72
     1
  1
%%c46
 73
     1
 44
1.0
  0
POINT
  5
1D64
330
1D5C
100
AcDbEntity
  8
Defpoints
 62
     0
100
AcDbPoint
 10
0.0
 20
52.04595931796626
 30
0.0
  0
POINT
  5
1D65
330
1D5C
100
AcDbEntity
  8
Defpoints
 62
     0
100
AcDbPoint
 10
46.0
 20
52.04595931796626
 30
0.0
  0
POINT
  5
1D66
330
1D5C
100
AcDbEntity
  8
Defpoints
 62
     0
100
AcDbPoint
 10
46.0
 20
1.25
 30
0.0
  0
ENDBLK
  5
1D67
330
1D5C
100
AcDbEntity
  8
0
100
AcDbBlockEnd
  0
BLOCK
  5
1D6F
330
1D6E
100
AcDbEntity
  8
0
100
AcDbBlockBegin
  2
*D34
 70
     1
 10
0.0
 20
0.0
 30
0.0
  3
*D34
  1
*D34
  0
LINE
  5
1D71
330
1D6E
100
AcDbEntity
  8
文字
 62
     0
370
    -2
100
AcDbLine
 10
149.8873421330931
 20
74.40546632596623
 30
0.0
 11
149.8873421330931
 21
22.98450700799997
 31
0.0
  0
LINE
  5
1D72
330
1D6E
100
AcDbEntity
  8
文字
 62
     0
370
    -2
100
AcDbLine
 10
195.8873421330931
 20
74.40546632596623
 30
0.0
 11
195.8873421330931
 21
22.98450700799997
 31
0.0
  0
LINE
  5
1D73
330
1D6E
100
AcDbEntity
  8
文字
 62
     0
370
    -2
100
AcDbLine
 10
152.3873421330931
 20
24.23450700799997
 30
0.0
 11
193.3873421330931
 21
24.23450700799997
 31
0.0
  0
SOLID
  5
1D74
330
1D6E
100
AcDbEntity
  8
文字
 62
     0
100
AcDbTrace
 10
152.3873421330931
 20
24.65117367466663
 30
0.0
 11
152.3873421330931
 21
23.8178403413333
 31
0.0
 12
149.8873421330931
 22
24.23450700799997
 32
0.0
 13
149.8873421330931
 23
24.23450700799997
 33
0.0
  0
SOLID
  5
1D75
330
1D6E
100
AcDbEntity
  8
文字
 62
     0
100
AcDbTrace
 10
193.3873421330931
 20
23.8178403413333
 30
0.0
 11
193.3873421330931
 21
24.65117367466663
 31
0.0
 12
195.8873421330931
 22
24.23450700799997
 32
0.0
 13
195.8873421330931
 23
24.23450700799997
 33
0.0
  0
MTEXT
  5
1D76
330
1D6E
100
AcDbEntity
  8
文字
 62
     0
100
AcDbMText
 10
172.8873421330931
 20
26.10950700799997
 30
0.0
 40
2.5
 41
0.0
 46
0.0
 71
     5
 72
     1
  1
%%c46
 73
     1
 44
1.0
  0
POINT
  5
1D77
330
1D6E
100
AcDbEntity
  8
Defpoints
 62
     0
100
AcDbPoint
 10
149.8873421330931
 20
75.03046632596623
 30
0.0
  0
POINT
  5
1D78
330
1D6E
100
AcDbEntity
  8
Defpoints
 62
     0
100
AcDbPoint
 10
195.8873421330931
 20
75.03046632596623
 30
0.0
  0
POINT
  5
1D79
330
1D6E
100
AcDbEntity
  8
Defpoints
 62
     0
100
AcDbPoint
 10
195.8873421330931
 20
24.23450700799997
 30
0.0
  0
ENDBLK
  5
1D70
330
1D6E
100
AcDbEntity
  8
0
100
AcDbBlockEnd
  0
ENDSEC
  0
SECTION
  2
ENTITIES
  0
MTEXT
  5
B75
330
21
100
AcDbEntity
  8
中心線
100
AcDbMText
 10
112.831139206696
 20
180.2175614817369
 30
0.0
 40
2.5
 41
0.0
 46
0.0
 71
     7
 72
     1
  1

 73
     1
 44
1.0
  0
DIMENSION
  5
1B47
102
{ACAD_REACTORS
330
1B49
102
}
102
{ACAD_XDICTIONARY
360
1B48
102
}
330
21
100
AcDbEntity
  8
文字
100
AcDbDimension
280
     0
  2
*D25
 10
99.7877590782989
 20
54.80921428221284
 30
0.0
 11
97.91275907829889
 21
79.80921428221285
 31
0.0
 70
    32
 71
     5
 42
49.99999999999999
 73
     0
 74
     0
 75
     0
  3
ISO-25
100
AcDbAlignedDimension
 13
62.20810817110232
 23
104.8092142822128
 33
0.0
 14
67.12782875958939
 24
54.80921428221284
 34
0.0
 50
90.0
100
AcDbRotatedDimension
  0
LINE
  5
1B4A
330
21
100
AcDbEntity
  8
実線
370
    20
100
AcDbLine
 10
60.20810817110235
 20
104.8092142822128
 30
0.0
 11
60.20810817110236
 21
73.49739251305506
 31
0.0
  0
LINE
  5
1B4B
330
21
100
AcDbEntity
  8
実線
370
    20
100
AcDbLine
 10
52.20810817110232
 20
104.8092142822128
 30
0.0
 11
52.20810817110232
 21
73.49739251305506
 31
0.0
  0
LINE
  5
1B4C
330
21
100
AcDbEntity
  8
実線
370
    20
100
AcDbLine
 10
50.20810817110232
 20
102.8092142822128
 30
0.0
 11
62.20810817110232
 21
102.8092142822128
 31
0.0
  0
LINE
  5
1B4E
330
21
100
AcDbEntity
  8
中心線
100
AcDbLine
 10
172.8226125514554
 20
74.9827140455393
 30
0.0
 11
217.2824999652206
 21
74.9827140455393
 31
0.0
  0
LINE
  5
1B4F
330
21
100
AcDbEntity
  8
中心線
100
AcDbLine
 10
172.8226125514554
 20
74.9827140455393
 30
0.0
 11
130.2963113670104
 21
74.9827140455393
 31
0.0
  0
DIMENSION
  5
1B50
330
21
100
AcDbEntity
  8
文字
100
AcDbDimension
280
     0
  2
*D23
 10
62.20810817110232
 20
115.3204027489815
 30
0.0
 11
56.20810817110232
 21
117.1954027489815
 31
0.0
 70
    32
  1
M<>
 71
     5
 42
12.0
 73
     0
 74
     0
 75
     0
  3
ISO-25
100
AcDbAlignedDimension
 13
50.20810817110232
 23
102.1842142822128
 33
0.0
 14
62.20810817110232
 24
102.1842142822128
 34
0.0
100
AcDbRotatedDimension
  0
DIMENSION
  5
1B51
102
{ACAD_REACTORS
330
1B53
102
}
102
{ACAD_XDICTIONARY
360
1B52
102
}
330
21
100
AcDbEntity
  8
文字
100
AcDbDimension
280
     0
  2
*D26
 10
182.3055907228951
 20
32.31924579049843
 30
0.0
 11
172.8226125514554
 21
34.19424579049843
 31
0.0
 70
    32
  1
19
 71
     5
 42
18.9659563428792
 73
     0
 74
     0
 75
     0
  3
ISO-25
100
AcDbAlignedDimension
 13
163.3396343800159
 23
69.5077140455393
 33
0.0
 14
182.3055907228951
 24
69.5077140455393
 34
0.0
100
AcDbRotatedDimension
  0
LINE
  5
1B54
330
21
100
AcDbEntity
  8
中心線
100
AcDbLine
 10
172.8226125514554
 20
74.9827140455393
 30
0.0
 11
172.8226125514554
 21
38.57235723397201
 31
0.0
  0
LINE
  5
1B55
330
21
100
AcDbEntity
  8
中心線
100
AcDbLine
 10
172.8226125514554
 20
74.9827140455393
 30
0.0
 11
172.8226125514554
 21
117.7500407200676
 31
0.0
  0
LINE
  5
1B56
330
21
100
AcDbEntity
  8
中心線
100
AcDbLine
 10
56.20810817110234
 20
20.88532649447055
 30
0.0
 11
56.20810817110237
 21
110.0245967046976
 31
0.0
  0
DIMENSION
  5
1B57
102
{ACAD_REACTORS
330
1B59
102
}
102
{ACAD_XDICTIONARY
360
1B58
102
}
330
21
100
AcDbEntity
  8
文字
100
AcDbDimension
280
     0
  2
*D27
 10
9.826059053772497
 20
29.80921428221285
 30
0.0
 11
7.951059053772492
 21
36.26754761554619
 31
0.0
 70
    32
 71
     5
 42
2.0
 73
     0
 74
     0
 75
     0
  3
ISO-25
100
AcDbAlignedDimension
 13
26.20810817110237
 23
27.80921428221285
 33
0.0
 14
26.20810817110237
 24
29.80921428221285
 34
0.0
 50
90.0
100
AcDbRotatedDimension
  0
DIMENSION
  5
1B5D
330
21
100
AcDbEntity
  8
文字
100
AcDbDimension
280
     0
  2
*D24
 10
99.7877590782989
 20
54.80921428221284
 30
0.0
 11
97.91275907829889
 21
50.80921428221284
 31
0.0
 70
    32
  1
8
 71
     5
 42
8.000000000000007
 73
     0
 74
     0
 75
     0
  3
ISO-25
100
AcDbAlignedDimension
 13
66.78886327922032
 23
46.80921428221284
 33
0.0
 14
67.12782875958942
 24
54.80921428221284
 34
0.0
 50
90.0
100
AcDbRotatedDimension
  0
DIMENSION
  5
1B5E
330
21
100
AcDbEntity
  8
文字
100
AcDbDimension
280
     0
  2
*D29
 10
99.82207229451888
 20
27.80921428221283
 30
0.0
 11
97.94707229451888
 21
37.30921428221284
 31
0.0
 70
    32
  1
19
 71
     5
 42
19.0
 73
     0
 74
     0
 75
     0
  3
ISO-25
100
AcDbAlignedDimension
 13
66.79511370499269
 23
46.80921428221284
 33
0.0
 14
86.20810817110235
 24
27.80921428221284
 34
0.0
 50
90.0
100
AcDbRotatedDimension
  0
DIMENSION
  5
1B61
102
{ACAD_REACTORS
330
1B63
102
}
102
{ACAD_XDICTIONARY
360
1B62
102
}
330
21
100
AcDbEntity
  8
文字
100
AcDbDimension
280
     0
  2
*D30
 10
86.20810817110235
 20
8.424753623189588
 30
0.0
 11
56.20810817110236
 21
10.29975362318959
 31
0.0
 70
    32
  1
%%c<>
 71
     5
 42
59.99999999999999
 73
     0
 74
     0
 75
     0
  3
ISO-25
100
AcDbAlignedDimension
 13
26.20810817110237
 23
27.80921428221285
 33
0.0
 14
86.20810817110235
 24
27.80921428221284
 34
0.0
100
AcDbRotatedDimension
  0
ARC
  5
1B64
330
21
100
AcDbEntity
  8
実線
100
AcDbCircle
 10
56.17782875958942
 20
67.41122697271965
 30
0.0
 40
20.60203494178584
100
AcDbArc
 50
253.2134882526869
 51
286.7865117473133
  0
LINE
  5
1B65
330
21
100
AcDbEntity
  8
実線
100
AcDbLine
 10
48.71126001858075
 20
46.80921428221284
 30
0.0
 11
63.58383867757495
 21
46.80921428221284
 31
0.0
  0
CIRCLE
  5
1B66
330
21
100
AcDbEntity
  8
実線
370
    20
100
AcDbCircle
 10
172.8226125514554
 20
74.9827140455393
 30
0.0
 40
5.15
  0
CIRCLE
  5
1B67
330
21
100
AcDbEntity
  8
実線
100
AcDbCircle
 10
172.8226125514554
 20
74.9827140455393
 30
0.0
 40
6.0
  0
LWPOLYLINE
  5
1B68
102
{ACAD_REACTORS
330
1B53
102
}
330
21
100
AcDbEntity
  8
実線
100
AcDbPolyline
 90
        6
 70
     1
 43
0.0
 10
163.3396343800159
 20
69.5077140455393
 10
172.8226125514554
 20
64.03271404553931
 10
182.3055907228951
 20
69.5077140455393
 10
182.3055907228951
 20
80.45771404553929
 10
172.8226125514555
 20
85.93271404553929
 10
163.3396343800159
 20
80.45771404553932
  0
LINE
  5
1B69
330
21
100
AcDbEntity
  8
実線
100
AcDbLine
 10
45.2278287595894
 20
48.68709597177148
 30
0.0
 11
45.2278287595894
 21
47.68709597177148
 31
0.0
  0
LINE
  5
1B6A
330
21
100
AcDbEntity
  8
実線
100
AcDbLine
 10
67.12782875958939
 20
48.68709597177148
 30
0.0
 11
67.1278287595894
 21
47.68709597177148
 31
0.0
  0
LINE
  5
1B6B
330
21
100
AcDbEntity
  8
実線
100
AcDbLine
 10
67.1278287595894
 20
47.68709597177148
 30
0.0
 11
67.12782875958939
 21
48.68709597177148
 31
0.0
  0
ARC
  5
1B6C
330
21
100
AcDbEntity
  8
実線
100
AcDbCircle
 10
64.62782875958939
 20
50.80760150717479
 30
0.0
 40
3.998444046936609
100
AcDbArc
 50
231.2999591855179
 51
308.7000408144821
  0
ARC
  5
1B6D
330
21
100
AcDbEntity
  8
実線
100
AcDbCircle
 10
47.72782875958941
 20
50.80785884565257
 30
0.0
 40
3.998644884832185
100
AcDbArc
 50
231.3022646769323
 51
308.6977353230674
  0
LINE
  5
1B6E
330
21
100
AcDbEntity
  8
実線
100
AcDbLine
 10
50.2278287595894
 20
54.80921428221284
 30
0.0
 11
50.2278287595894
 21
47.68709597177148
 31
0.0
  0
LINE
  5
1B6F
330
21
100
AcDbEntity
  8
実線
100
AcDbLine
 10
62.12782875958939
 20
54.80921428221284
 30
0.0
 11
62.12782875958939
 21
47.68709597177146
 31
0.0
  0
LWPOLYLINE
  5
1B70
102
{ACAD_REACTORS
330
1B49
102
}
330
21
100
AcDbEntity
  8
実線
100
AcDbPolyline
 90
        4
 70
     0
 43
0.0
 10
67.12782875958939
 20
48.68709597177148
 10
67.12782875958939
 20
54.80921428221284
 10
45.2278287595894
 20
54.80921428221284
 10
45.2278287595894
 20
48.68709597177148
  0
CIRCLE
  5
1B71
330
21
100
AcDbEntity
  8
実線
100
AcDbCircle
 10
172.8226125514554
 20
74.9827140455393
 30
0.0
 40
30.0
  0
CIRCLE
  5
1B72
102
{ACAD_REACTORS
102
}
330
21
100
AcDbEntity
  8
実線
100
AcDbCircle
 10
172.8226125514554
 20
74.9827140455393
 30
0.0
 40
23.0
  0
LINE
  5
1B73
330
21
100
AcDbEntity
  8
実線
100
AcDbLine
 10
30.54846406700017
 20
29.80921428221285
 30
0.0
 11
81.86775227520455
 21
29.80921428221284
 31
0.0
  0
LINE
  5
1B75
330
21
100
AcDbEntity
  8
実線
100
AcDbLine
 10
81.86775227520455
 20
29.80921428221284
 30
0.0
 11
86.20810817110235
 21
29.80921428221284
 31
0.0
  0
ARC
  5
1B76
330
21
100
AcDbEntity
  8
実線
100
AcDbCircle
 10
81.86775227520455
 20
32.80921428221285
 30
0.0
 40
3.0
100
AcDbArc
 50
190.4756333660877
 51
270.0
  0
ARC
  5
1B77
330
21
100
AcDbEntity
  8
実線
100
AcDbCircle
 10
60.98276358737024
 20
28.72915235835791
 30
0.0
 40
18.27997251781661
100
AcDbArc
 50
11.14891730703848
 51
82.06404436425734
  0
ARC
  5
1B78
330
21
100
AcDbEntity
  8
実線
100
AcDbCircle
 10
30.54846406700017
 20
32.80921428221285
 30
0.0
 40
3.0
100
AcDbArc
 50
270.0
 51
349.5243666339124
  0
ARC
  5
1B79
330
21
100
AcDbEntity
  8
実線
100
AcDbCircle
 10
51.36954345727621
 20
28.80086053898198
 30
0.0
 40
18.20349624060662
100
AcDbArc
 50
98.39701428240012
 51
169.0336307489436
  0
LINE
  5
1B7B
102
{ACAD_REACTORS
330
1B63
330
1B59
102
}
330
21
100
AcDbEntity
  8
実線
100
AcDbLine
 10
26.20810817110237
 20
27.80921428221285
 30
0.0
 11
26.20810817110237
 21
29.80921428221285
 31
0.0
  0
LINE
  5
1B7C
330
21
100
AcDbEntity
  8
実線
100
AcDbLine
 10
26.20810817110237
 20
29.80921428221285
 30
0.0
 11
30.54846406700017
 21
29.80921428221285
 31
0.0
  0
LINE
  5
1B7D
102
{ACAD_REACTORS
330
1B63
102
}
330
21
100
AcDbEntity
  8
実線
100
AcDbLine
 10
86.20810817110235
 20
27.80921428221284
 30
0.0
 11
86.20810817110235
 21
29.80921428221284
 31
0.0
  0
LINE
  5
1B7E
102
{ACAD_REACTORS
102
}
330
21
100
AcDbEntity
  8
実線
100
AcDbLine
 10
26.20810817110237
 20
27.80921428221285
 30
0.0
 11
86.20810817110235
 21
27.80921428221284
 31
0.0
  0
LWPOLYLINE
  5
1C02
330
21
100
AcDbEntity
  8
実線
100
AcDbPolyline
 90
        2
 70
     0
 43
0.0
 10
62.20810817110234
 20
54.80921428221284
 10
62.20810817110235
 20
73.49739251305506
  0
LWPOLYLINE
  5
1C6C
102
{ACAD_REACTORS
102
}
330
21
100
AcDbEntity
  8
実線
100
AcDbPolyline
 90
        6
 70
     0
 43
0.0
 10
62.20810817110235
 20
73.49739251305506
 10
62.20810817110235
 20
102.8092142822128
 10
60.20810817110235
 20
104.8092142822128
 10
52.20810817110232
 20
104.8092142822128
 10
50.20810817110232
 20
102.8092142822128
 10
50.20810817110233
 20
73.49739251305506
  0
LWPOLYLINE
  5
1C6D
330
21
100
AcDbEntity
  8
実線
100
AcDbPolyline
 90
        2
 70
     0
 43
0.0
 10
50.20810817110233
 20
73.49739251305506
 10
50.20810817110234
 20
54.80921428221284
  0
LINE
  5
1C6E
330
21
100
AcDbEntity
  8
実線
370
    20
100
AcDbLine
 10
60.20810817110236
 20
73.49739251305506
 30
0.0
 11
60.20810817110235
 21
54.80921428221285
 31
0.0
  0
LINE
  5
1C6F
330
21
100
AcDbEntity
  8
実線
370
    20
100
AcDbLine
 10
52.20810817110232
 20
73.49739251305506
 30
0.0
 11
52.20810817110232
 21
54.80921428221285
 31
0.0
  0
MTEXT
  5
1D2D
330
21
100
AcDbEntity
  8
文字・寸法線
 62
     0
100
AcDbMText
 10
46.1119586903317
 20
133.606173782506
 30
0.0
 40
6.0
 41
0.0
 46
6.0
 71
     9
 72
     1
  1
{\fＭＳ ゴシック|b0|i0|c0|p0;S-A M12X50}
 73
     1
 44
1.0
1001
ACAD
1000
ACAD_MTEXT_DEFINED_HEIGHT_BEGIN
1070
    46
1040
6.0
1000
ACAD_MTEXT_DEFINED_HEIGHT_END
  0
DIMENSION
  5
1D6B
102
{ACAD_XDICTIONARY
360
1D6C
102
}
330
21
100
AcDbEntity
  8
文字
100
AcDbDimension
280
     0
  2
*D34
 10
195.8873421330931
 20
24.23450700799997
 30
0.0
 11
172.8873421330931
 21
26.10950700799997
 31
0.0
 70
    32
  1
%%c<>
 71
     5
 42
46.0
 73
     0
 74
     0
 75
     0
  3
ISO-25
100
AcDbAlignedDimension
 13
149.8873421330931
 23
75.03046632596623
 33
0.0
 14
195.8873421330931
 24
75.03046632596623
 34
0.0
100
AcDbRotatedDimension
  0
VIEWPORT
  5
D76
330
1D
100
AcDbEntity
 67
     1
  8
0
100
AcDbViewport
 10
142.7906768561673
 20
97.75279802543767
 30
0.0
 40
299.3158069403287
 41
252.8978475752509
 68
     1
 69
     1
 12
142.7906768561673
 22
97.75279802543767
 13
0.0
 23
0.0
 14
10.0
 24
10.0
 15
10.0
 25
10.0
 16
0.0
 26
0.0
 36
1.0
 17
0.0
 27
0.0
 37
0.0
 42
50.0
 43
0.0
 44
0.0
 45
252.8978475752509
 50
0.0
 51
0.0
 72
  1000
 90
    32800
  1

281
     0
 71
     1
 74
     0
110
0.0
120
0.0
130
0.0
111
1.0
121
0.0
131
0.0
112
0.0
122
1.0
132
0.0
 79
     0
146
0.0
170
     0
 61
     5
348
1CBC
292
     1
282
     1
141
0.0
142
0.0
 63
   256
  0
TEXT
  5
E38
330
1D
100
AcDbEntity
 67
     1
  8
文字
100
AcDbText
 10
189.1368982000617
 20
22.28943943320934
 30
0.0
 40
3.0
  1
若野久哉
100
AcDbText
  0
LINE
  5
E39
330
1D
100
AcDbEntity
 67
     1
  8
枠
100
AcDbLine
 10
4.436954645666447
 20
1.418998250979541
 30
0.0
 11
281.4369546456664
 21
1.418998250979541
 31
0.0
  0
LINE
  5
E3A
330
1D
100
AcDbEntity
 67
     1
  8
枠
100
AcDbLine
 10
281.4369546456664
 20
1.418998250979541
 30
0.0
 11
281.4369546456664
 21
191.4189982509795
 31
0.0
  0
LINE
  5
E3B
330
1D
100
AcDbEntity
 67
     1
  8
枠
100
AcDbLine
 10
231.9369546456664
 20
1.418998250979541
 30
0.0
 11
231.9369546456664
 21
10.21899825097955
 31
0.0
  0
LINE
  5
E3C
330
1D
100
AcDbEntity
 67
     1
  8
枠
100
AcDbLine
 10
206.6369546456664
 20
1.418998250979541
 30
0.0
 11
206.6369546456664
 21
44.31899825097955
 31
0.0
  0
LINE
  5
E3D
330
1D
100
AcDbEntity
 67
     1
  8
枠
100
AcDbLine
 10
132.9369546456664
 20
1.418998250979541
 30
0.0
 11
132.9369546456664
 21
44.31899825097955
 31
0.0
  0
LINE
  5
E3E
330
1D
100
AcDbEntity
 67
     1
  8
枠
100
AcDbLine
 10
132.9369546456664
 20
10.21899825097955
 30
0.0
 11
281.4369546456664
 21
10.21899825097955
 31
0.0
  0
LINE
  5
E3F
330
1D
100
AcDbEntity
 67
     1
  8
枠
100
AcDbLine
 10
132.9369546456664
 20
16.81899825097955
 30
0.0
 11
281.4369546456664
 21
16.81899825097955
 31
0.0
  0
LINE
  5
E40
330
1D
100
AcDbEntity
 67
     1
  8
枠
100
AcDbLine
 10
132.9369546456664
 20
31.11899825097954
 30
0.0
 11
281.4369546456664
 21
31.11899825097954
 31
0.0
  0
LINE
  5
E41
330
1D
100
AcDbEntity
 67
     1
  8
枠
100
AcDbLine
 10
132.9369546456664
 20
32.21899825097955
 30
0.0
 11
206.6369546456664
 21
32.21899825097954
 31
0.0
  0
LINE
  5
E42
330
1D
100
AcDbEntity
 67
     1
  8
枠
100
AcDbLine
 10
132.9369546456664
 20
37.71899825097955
 30
0.0
 11
281.4369546456664
 21
37.71899825097955
 31
0.0
  0
LINE
  5
E43
330
1D
100
AcDbEntity
 67
     1
  8
枠
100
AcDbLine
 10
132.9369546456664
 20
44.31899825097955
 30
0.0
 11
281.4369546456664
 21
44.31899825097955
 31
0.0
  0
LINE
  5
E44
330
1D
100
AcDbEntity
 67
     1
  8
枠
100
AcDbLine
 10
157.6869546456664
 20
10.21899825097954
 30
0.0
 11
157.6869546456664
 21
31.11899825097954
 31
0.0
  0
LINE
  5
E45
330
1D
100
AcDbEntity
 67
     1
  8
枠
100
AcDbLine
 10
182.4369546456664
 20
16.81899825097955
 30
0.0
 11
182.4369546456664
 21
31.11899825097954
 31
0.0
  0
LINE
  5
E46
330
1D
100
AcDbEntity
 67
     1
  8
枠
100
AcDbLine
 10
182.4369546456664
 20
32.21899825097955
 30
0.0
 11
182.4369546456664
 21
37.71899825097955
 31
0.0
  0
LINE
  5
E47
330
1D
100
AcDbEntity
 67
     1
  8
枠
100
AcDbLine
 10
157.6869546456664
 20
32.21899825097955
 30
0.0
 11
157.6869546456664
 21
44.31899825097955
 31
0.0
  0
LINE
  5
E48
330
1D
100
AcDbEntity
 67
     1
  8
枠
100
AcDbLine
 10
206.6369546456664
 20
23.41899825097954
 30
0.0
 11
281.4369546456664
 21
23.41899825097954
 31
0.0
  0
LINE
  5
E49
330
1D
100
AcDbEntity
 67
     1
  8
枠
100
AcDbLine
 10
206.6369546456664
 20
24.51899825097954
 30
0.0
 11
281.4369546456664
 21
24.51899825097954
 31
0.0
  0
LINE
  5
E4A
330
1D
100
AcDbEntity
 67
     1
  8
枠
100
AcDbLine
 10
231.9369546456664
 20
31.11899825097954
 30
0.0
 11
231.9369546456664
 21
44.31899825097955
 31
0.0
  0
LINE
  5
E4B
330
1D
100
AcDbEntity
 67
     1
  8
枠
100
AcDbLine
 10
257.2369546456665
 20
10.21899825097955
 30
0.0
 11
257.2369546456665
 21
31.11899825097954
 31
0.0
  0
MTEXT
  5
E4C
330
1D
100
AcDbEntity
 67
     1
  8
枠
100
AcDbMText
 10
140.308655994144
 20
42.34381540500034
 30
0.0
 40
2.75
 41
24.75
 46
0.0
 71
     1
 72
     5
  1
品　名
 73
     1
 44
1.0
  0
MTEXT
  5
E4D
330
1D
100
AcDbEntity
 67
     1
  8
枠
100
AcDbMText
 10
214.008655994144
 20
42.34381540500034
 30
0.0
 40
2.75
 41
24.75
 46
0.0
 71
     1
 72
     5
  1
品　番
 73
     1
 44
1.0
  0
MTEXT
  5
E4E
330
1D
100
AcDbEntity
 67
     1
  8
枠
100
AcDbMText
 10
214.008655994144
 20
35.74381540500034
 30
0.0
 40
2.75
 41
24.75
 46
0.0
 71
     1
 72
     5
  1
サイズ
 73
     1
 44
1.0
  0
MTEXT
  5
E4F
330
1D
100
AcDbEntity
 67
     1
  8
枠
100
AcDbMText
 10
140.3898809858921
 20
36.19800252836497
 30
0.0
 40
2.75
 41
13.71479298395914
 46
0.0
 71
     1
 72
     5
  1
承　認
 73
     1
 44
1.0
  0
MTEXT
  5
E50
330
1D
100
AcDbEntity
 67
     1
  8
枠
100
AcDbMText
 10
165.1398809858921
 20
36.19800252836497
 30
0.0
 40
2.75
 41
13.71479298395914
 46
0.0
 71
     1
 72
     5
  1
検　図
 73
     1
 44
1.0
  0
MTEXT
  5
E51
330
1D
100
AcDbEntity
 67
     1
  8
枠
100
AcDbMText
 10
189.8898809858921
 20
36.19800252836497
 30
0.0
 40
2.75
 41
13.71479298395914
 46
0.0
 71
     1
 72
     5
  1
製　図
 73
     1
 44
1.0
  0
MTEXT
  5
E52
330
1D
100
AcDbEntity
 67
     1
  8
枠
100
AcDbMText
 10
140.308655994144
 20
14.84381540500034
 30
0.0
 40
2.75
 41
24.75
 46
0.0
 71
     1
 72
     5
  1
日　付
 73
     1
 44
1.0
  0
MTEXT
  5
E53
330
1D
100
AcDbEntity
 67
     1
  8
枠
100
AcDbMText
 10
213.4727090807019
 20
6.087336740342778
 30
0.0
 40
2.75
 41
24.75
 46
0.0
 71
     1
 72
     5
  1
製品単重
 73
     1
 44
1.0
  0
MTEXT
  5
E54
330
1D
100
AcDbEntity
 67
     1
  8
枠
100
AcDbMText
 10
235.1352069906946
 20
28.84811476570477
 30
0.0
 40
2.75
 41
12.98637275453505
 46
0.0
 71
     1
 72
     5
  1
材　質
 73
     1
 44
1.0
  0
MTEXT
  5
E55
330
1D
100
AcDbEntity
 67
     1
  8
枠
100
AcDbMText
 10
263.9413539160176
 20
29.1148716436978
 30
0.0
 40
2.75
 41
19.22203116086617
 46
0.0
 71
     1
 72
     5
  1
表面処理
 73
     1
 44
1.0
  0
MTEXT
  5
E56
330
1D
100
AcDbEntity
 67
     1
  8
枠
100
AcDbMText
 10
141.7259951838142
 20
6.593284364494766
 30
0.0
 40
3.3
 41
172.2729598878279
 46
0.0
 71
     1
 72
     5
  1
サン・ファスナー部品株式会社
 73
     1
 44
1.0
  0
LINE
  5
E57
330
1D
100
AcDbEntity
 67
     1
  8
枠
100
AcDbLine
 10
4.436954645666447
 20
1.418998250979541
 30
0.0
 11
4.436954645666447
 21
191.4189982509795
 31
0.0
  0
LINE
  5
E58
330
1D
100
AcDbEntity
 67
     1
  8
枠
100
AcDbLine
 10
4.436954645666447
 20
191.4189982509795
 30
0.0
 11
281.4369546456664
 21
191.4189982509795
 31
0.0
  0
LINE
  5
E59
330
1D
100
AcDbEntity
 67
     1
  8
枠
100
AcDbLine
 10
4.436954645666447
 20
201.4189982509795
 30
0.0
 11
281.4369546456664
 21
201.4189982509795
 31
0.0
  0
LINE
  5
E5A
330
1D
100
AcDbEntity
 67
     1
  8
枠
100
AcDbLine
 10
291.4369546456664
 20
1.418998250979541
 30
0.0
 11
291.4369546456664
 21
191.4189982509795
 31
0.0
  0
LINE
  5
E5B
330
1D
100
AcDbEntity
 67
     1
  8
枠
100
AcDbLine
 10
4.436954645666447
 20
-8.581001749020459
 30
0.0
 11
281.4369546456664
 21
-8.581001749020459
 31
0.0
  0
LINE
  5
E5C
330
1D
100
AcDbEntity
 67
     1
  8
枠
100
AcDbLine
 10
-5.563045354333553
 20
1.418998250979541
 30
0.0
 11
-5.563045354333553
 21
191.4189982509795
 31
0.0
  0
LINE
  5
E5D
330
1D
100
AcDbEntity
 67
     1
  8
枠
370
    30
100
AcDbLine
 10
-5.563045354333553
 20
191.4189982509795
 30
0.0
 11
-5.563045354333553
 21
201.4189982509795
 31
0.0
  0
LINE
  5
E5E
330
1D
100
AcDbEntity
 67
     1
  8
枠
370
    30
100
AcDbLine
 10
4.436954645666447
 20
201.4189982509795
 30
0.0
 11
-5.563045354333553
 21
201.4189982509795
 31
0.0
  0
LINE
  5
E5F
330
1D
100
AcDbEntity
 67
     1
  8
枠
370
    30
100
AcDbLine
 10
281.4369546456664
 20
201.4189982509795
 30
0.0
 11
291.4369546456665
 21
201.4189982509796
 31
0.0
  0
LINE
  5
E60
330
1D
100
AcDbEntity
 67
     1
  8
枠
370
    30
100
AcDbLine
 10
291.4369546456664
 20
191.4189982509795
 30
0.0
 11
291.4369546456665
 21
201.4189982509795
 31
0.0
  0
LINE
  5
E61
330
1D
100
AcDbEntity
 67
     1
  8
枠
370
    30
100
AcDbLine
 10
291.4369546456664
 20
1.418998250979541
 30
0.0
 11
291.4369546456664
 21
-8.581001749020459
 31
0.0
  0
LINE
  5
E62
330
1D
100
AcDbEntity
 67
     1
  8
枠
370
    30
100
AcDbLine
 10
281.4369546456664
 20
-8.581001749020459
 30
0.0
 11
291.4369546456664
 21
-8.581001749020459
 31
0.0
  0
LINE
  5
E63
330
1D
100
AcDbEntity
 67
     1
  8
枠
370
    30
100
AcDbLine
 10
4.436954645666447
 20
-8.581001749020459
 30
0.0
 11
-5.563045354333553
 21
-8.581001749020459
 31
0.0
  0
LINE
  5
E64
330
1D
100
AcDbEntity
 67
     1
  8
枠
370
    30
100
AcDbLine
 10
-5.563045354333553
 20
1.418998250979541
 30
0.0
 11
-5.563045354333553
 21
-8.581001749020459
 31
0.0
  0
VIEWPORT
  5
E66
330
1D
100
AcDbEntity
 67
     1
  8
隠れ線
100
AcDbViewport
 10
142.9369546456664
 20
117.8689982509795
 30
0.0
 40
277.0
 41
147.1
 68
     2
 69
     2
 12
118.1072611561008
 22
70.95236954622388
 13
0.0
 23
0.0
 14
10.0
 24
10.0
 15
10.0
 25
10.0
 16
0.0
 26
0.0
 36
1.0
 17
0.0
 27
0.0
 37
0.0
 42
50.0
 43
0.0
 44
0.0
 45
176.9923186757548
 50
0.0
 51
0.0
 72
  1000
 90
    32864
  1

281
     0
 71
     1
 74
     0
110
0.0
120
0.0
130
0.0
111
1.0
121
0.0
131
0.0
112
0.0
122
1.0
132
0.0
 79
     0
146
0.0
170
     0
 61
     5
348
1CBC
292
     1
282
     1
141
0.0
142
0.0
 63
   256
  0
TEXT
  5
E67
330
1D
100
AcDbEntity
 67
     1
  8
文字
100
AcDbText
 10
250.7522128869007
 20
39.53904474383654
 30
0.0
 40
3.0
  1
S-AS
100
AcDbText
  0
TEXT
  5
E68
330
1D
100
AcDbEntity
 67
     1
  8
文字
100
AcDbText
 10
246.9656574027194
 20
32.59731321567915
 30
0.0
 40
3.0
  1
M12×50
100
AcDbText
  0
TEXT
  5
E69
330
1D
100
AcDbEntity
 67
     1
  8
文字
100
AcDbText
 10
164.4936929688445
 20
11.95388451620579
 30
0.0
 40
3.0
  1
2007年　8月　1日
100
AcDbText
  0
TEXT
  5
1037
330
1D
100
AcDbEntity
 67
     1
  8
文字
100
AcDbText
 10
230.4899637331878
 20
18.63904474383655
 30
0.0
 40
3.0
  1
SUS304
100
AcDbText
  0
TEXT
  5
1039
330
1D
100
AcDbEntity
 67
     1
  8
文字
100
AcDbText
 10
260.6156884518213
 20
18.63904474383655
 30
0.0
 40
3.0
  1
光沢バレル
100
AcDbText
  0
TEXT
  5
1A53
330
1D
100
AcDbEntity
 67
     1
  8
文字
100
AcDbText
 10
227.773056370491
 20
11.6613293678169
 30
0.0
 40
3.0
  1
SUS304J3
100
AcDbText
  0
MTEXT
  5
1A65
330
1D
100
AcDbEntity
 67
     1
  8
文字
370
    30
100
AcDbMText
 10
163.5269126457226
 20
42.23971717877276
 30
0.0
 40
3.0
 41
47.21178542417238
 46
0.0
 71
     1
 72
     5
  1
サン・アジャストボルト
 73
     1
 44
1.0
  0
LINE
  5
1A82
330
1D
100
AcDbEntity
 67
     1
  8
文字
 62
     1
100
AcDbLine
 10
222.8854944955509
 20
31.11899825097954
 30
0.0
 11
222.8854944955509
 21
10.21899825097955
 31
0.0
  0
MTEXT
  5
1A83
330
1D
100
AcDbEntity
 67
     1
  8
文字
 62
     1
100
AcDbMText
 10
209.9109533077603
 20
21.27270069743591
 30
0.0
 40
3.0
 41
58.91111111111111
 46
0.0
 71
     1
 72
     5
  1
{\fSystem|b0|i0|c128|p32;受　座}
 73
     1
 44
1.0
  0
MTEXT
  5
1A84
330
1D
100
AcDbEntity
 67
     1
  8
文字
 62
     1
100
AcDbMText
 10
209.2871537426279
 20
14.55362942047028
 30
0.0
 40
3.0
 41
16.24853984988445
 46
0.0
 71
     1
 72
     5
  1
ボルト
 73
     1
 44
1.0
  0
MTEXT
  5
1A85
330
1D
100
AcDbEntity
 67
     1
  8
文字
 62
     0
100
AcDbMText
 10
260.8159339835437
 20
15.14100087346762
 30
0.0
 40
3.0
 41
19.68820139987139
 46
0.0
 71
     1
 72
     5
  1
パシペート
 73
     1
 44
1.0
  0
MTEXT
  5
1A90
330
1D
100
AcDbEntity
 67
     1
  8
文字
 62
     1
100
AcDbMText
 10
208.7834570189407
 20
29.3024570071973
 30
0.0
 40
3.0
 41
15.69853984988447
 46
0.0
 71
     1
 72
     5
  1
名　称
 73
     1
 44
1.0
  0
ENDSEC
  0
SECTION
  2
OBJECTS
  0
DICTIONARY
  5
C
330
0
100
AcDbDictionary
281
     1
  3
ACAD_COLOR
350
1C
  3
ACAD_DETAILVIEWSTYLE
350
1D02
  3
ACAD_GROUP
350
D
  3
ACAD_IMAGE_VARS
350
1CF9
  3
ACAD_LAYOUT
350
1A
  3
ACAD_MATERIAL
350
1B
  3
ACAD_MLEADERSTYLE
350
1CFF
  3
ACAD_MLINESTYLE
350
17
  3
ACAD_PLOTSETTINGS
350
19
  3
ACAD_PLOTSTYLENAME
350
E
  3
ACAD_SCALELIST
350
1CD0
  3
ACAD_SECTIONVIEWSTYLE
350
1D03
  3
ACAD_TABLESTYLE
350
1CF5
  3
ACAD_VISUALSTYLE
350
1CB7
  3
AcadDim
350
1271
  3
ACDB_RECOMPOSE_DATA
350
1D7C
  3
AcDbVariableDictionary
350
13CA
  3
APPDATA
350
1CF7
  0
SUN
  5
1CF8
330
1CB6
100
AcDbSun
 90
        1
290
     0
 63
     7
421
 16777215
 40
1.0
291
     1
 91
  2455826
 92
 54000000
292
     0
 70
     2
 71
   256
280
     1
  0
DICTIONARY
  5
1A12
330
1A11
100
AcDbDictionary
280
     1
281
     1
  3
ACAD_DIMASSOC
360
1A13
  0
DICTIONARY
  5
1A17
330
1A16
100
AcDbDictionary
280
     1
281
     1
  3
ACAD_DIMASSOC
360
1A18
  0
DICTIONARY
  5
1A1A
330
1A19
100
AcDbDictionary
280
     1
281
     1
  3
ACAD_DIMASSOC
360
1A1B
  0
DICTIONARY
  5
1A1D
330
1A1C
100
AcDbDictionary
280
     1
281
     1
  3
ACAD_DIMASSOC
360
1A1E
  0
DICTIONARY
  5
1A21
330
1A20
100
AcDbDictionary
280
     1
281
     1
  3
ACAD_DIMASSOC
360
1A22
  0
DICTIONARY
  5
1A28
330
1A27
100
AcDbDictionary
280
     1
281
     1
  3
ACAD_DIMASSOC
360
1A29
  0
DICTIONARY
  5
1A2B
330
1A2A
100
AcDbDictionary
280
     1
281
     1
  3
ACAD_DIMASSOC
360
1A2C
  0
DICTIONARY
  5
1A31
330
1A30
100
AcDbDictionary
280
     1
281
     1
  3
ACAD_DIMASSOC
360
1A32
  0
DICTIONARY
  5
1B0C
330
1B0B
100
AcDbDictionary
280
     1
281
     1
  3
ACAD_DIMASSOC
360
1B0D
  0
DICTIONARY
  5
1B16
330
1B15
100
AcDbDictionary
280
     1
281
     1
  3
ACAD_DIMASSOC
360
1B17
  0
DICTIONARY
  5
1B1C
330
1B1B
100
AcDbDictionary
280
     1
281
     1
  3
ACAD_DIMASSOC
360
1B1D
  0
DICTIONARY
  5
1B1F
330
1B1E
100
AcDbDictionary
280
     1
281
     1
  3
ACAD_DIMASSOC
360
1B20
  0
DICTIONARY
  5
1B23
330
1B22
100
AcDbDictionary
280
     1
281
     1
  3
ACAD_DIMASSOC
360
1B24
  0
DICTIONARY
  5
1B26
330
1B25
100
AcDbDictionary
280
     1
281
     1
  3
ACAD_DIMASSOC
360
1B27
  0
DICTIONARY
  5
1B48
330
1B47
100
AcDbDictionary
280
     1
281
     1
  3
ACAD_DIMASSOC
360
1B49
  0
DICTIONARY
  5
1B52
330
1B51
100
AcDbDictionary
280
     1
281
     1
  3
ACAD_DIMASSOC
360
1B53
  0
DICTIONARY
  5
1B58
330
1B57
100
AcDbDictionary
280
     1
281
     1
  3
ACAD_DIMASSOC
360
1B59
  0
DICTIONARY
  5
1B62
330
1B61
100
AcDbDictionary
280
     1
281
     1
  3
ACAD_DIMASSOC
360
1B63
  0
DICTIONARY
  5
1D6C
330
1D6B
100
AcDbDictionary
280
     1
281
     1
  0
DICTIONARY
  5
1C
102
{ACAD_REACTORS
330
C
102
}
330
C
100
AcDbDictionary
281
     1
  0
DICTIONARY
  5
1D02
102
{ACAD_REACTORS
330
C
102
}
330
C
100
AcDbDictionary
281
     1
  0
DICTIONARY
  5
D
102
{ACAD_REACTORS
330
C
102
}
330
C
100
AcDbDictionary
281
     1
  0
RASTERVARIABLES
  5
1CF9
102
{ACAD_REACTORS
330
C
102
}
330
C
100
AcDbRasterVariables
 90
        0
 70
     1
 71
     1
 72
     1
  0
DICTIONARY
  5
1A
102
{ACAD_REACTORS
330
C
102
}
330
C
100
AcDbDictionary
281
     1
  3
Model
350
24
  3
レイアウト1
350
20
  0
DICTIONARY
  5
1B
102
{ACAD_REACTORS
330
C
102
}
330
C
100
AcDbDictionary
281
     1
  3
ByBlock
350
1CF3
  3
ByLayer
350
1CF2
  3
Global
350
1CF4
  0
DICTIONARY
  5
1CFF
102
{ACAD_REACTORS
330
C
102
}
330
C
100
AcDbDictionary
281
     1
  0
DICTIONARY
  5
17
102
{ACAD_REACTORS
330
C
102
}
330
C
100
AcDbDictionary
281
     1
  3
Standard
350
18
  0
DICTIONARY
  5
19
102
{ACAD_REACTORS
330
C
102
}
330
C
100
AcDbDictionary
281
     1
  0
ACDBDICTIONARYWDFLT
  5
E
102
{ACAD_REACTORS
330
C
102
}
330
C
100
AcDbDictionary
281
     1
  3
Normal
350
F
100
AcDbDictionaryWithDefault
340
F
  0
DICTIONARY
  5
1CD0
102
{ACAD_REACTORS
330
C
102
}
330
C
100
AcDbDictionary
281
     1
  3
A0
350
1CD1
  3
A1
350
1CD2
  3
A2
350
1CD3
  3
A3
350
1CD4
  3
A4
350
1CD5
  3
A5
350
1CD6
  3
A6
350
1CD7
  3
A7
350
1CD8
  3
A8
350
1CD9
  3
A9
350
1CDA
  3
B0
350
1CDB
  3
B1
350
1CDC
  3
B2
350
1CDD
  3
B3
350
1CDE
  3
B4
350
1CDF
  3
B5
350
1CE0
  3
B6
350
1CE1
  3
B7
350
1CE2
  3
B8
350
1CE3
  3
B9
350
1CE4
  3
C0
350
1CE5
  3
C1
350
1CE6
  3
C2
350
1CE7
  3
C3
350
1CE8
  3
C4
350
1CE9
  3
C5
350
1CEA
  3
C6
350
1CEB
  3
C7
350
1CEC
  3
C8
350
1CED
  3
C9
350
1CEE
  3
D0
350
1CEF
  3
D1
350
1CF0
  3
D2
350
1CF1
  0
DICTIONARY
  5
1D03
102
{ACAD_REACTORS
330
C
102
}
330
C
100
AcDbDictionary
281
     1
  0
DICTIONARY
  5
1CF5
102
{ACAD_REACTORS
330
C
102
}
330
C
100
AcDbDictionary
281
     1
  3
Standard
350
1CF6
  0
DICTIONARY
  5
1CB7
102
{ACAD_REACTORS
330
C
102
}
330
C
100
AcDbDictionary
281
     1
  3
2dWireframe
350
1CBC
  3
Basic
350
1CBF
  3
Brighten
350
1CC3
  3
ColorChange
350
1CC7
  3
Conceptual
350
1CC1
  3
Dim
350
1CC2
  3
EdgeColorOff
350
1CCA
  3
Facepattern
350
1CC6
  3
Flat
350
1CB8
  3
FlatWithEdges
350
1CB9
  3
Gouraud
350
1CBA
  3
GouraudWithEdges
350
1CBB
  3
Hidden
350
1CBE
  3
JitterOff
350
1CC8
  3
Linepattern
350
1CC5
  3
OverhangOff
350
1CC9
  3
Realistic
350
1CC0
  3
Shaded
350
1CCF
  3
Shaded with edges
350
1CCE
  3
Shades of Gray
350
1CCB
  3
Sketchy
350
1CCC
  3
Thicken
350
1CC4
  3
Wireframe
350
1CBD
  3
X-Ray
350
1CCD
  0
XRECORD
  5
1271
102
{ACAD_REACTORS
330
C
102
}
330
C
100
AcDbXrecord
280
     1
 90
   990106
  3

 60
     0
 61
     0
 62
     4
 63
     4
 64
     1
 65
     0
 66
     0
 67
     3
 68
     1
 69
     0
 70
     0
 71
     0
 72
     0
 40
0.0
170
     2
340
0
  0
XRECORD
  5
1D7C
102
{ACAD_REACTORS
330
C
102
}
330
C
100
AcDbXrecord
280
     1
 90
        1
330
1CF6
  0
DICTIONARY
  5
13CA
102
{ACAD_REACTORS
330
C
102
}
330
C
100
AcDbDictionary
281
     1
  3
CANNOSCALE
350
1CFA
  3
CTABLESTYLE
350
1CFE
  3
DIMASSOC
350
13CC
  3
HIDETEXT
350
13CB
  3
MSLTSCALE
350
1D00
  3
PROJECTNAME
350
13CD
  3
XCLIPFRAME
350
1D01
  0
DICTIONARY
  5
1CF7
102
{ACAD_REACTORS
330
C
102
}
330
C
100
AcDbDictionary
281
     1
  0
DIMASSOC
  5
1A13
102
{ACAD_REACTORS
330
1A12
102
}
330
1A12
100
AcDbDimAssoc
330
1A11
 90
        3
 70
     0
 71
     0
  1
AcDbOsnapPointRef
 72
     1
331
1A48
 73
     2
 91
        0
 40
1.0
 10
0.0
 20
0.0
 30
2.000000000000000E+50
 75
     0
  1
AcDbOsnapPointRef
 72
    13
331
1A23
 73
     2
 91
        0
 40
0.0
 10
0.0
 20
0.0
 30
2.000000000000000E+50
 75
     0
  0
DIMASSOC
  5
1A18
102
{ACAD_REACTORS
330
1A17
102
}
330
1A17
100
AcDbDimAssoc
330
1A16
 90
        3
 70
     0
 71
     0
  1
AcDbOsnapPointRef
 72
     1
331
1A3B
 73
     2
 91
        1
 40
1.0
 10
0.0
 20
0.0
 30
2.000000000000000E+50
 75
     0
  1
AcDbOsnapPointRef
 72
    13
331
1A23
 73
     2
 91
        0
 40
0.0
 10
0.0
 20
0.0
 30
2.000000000000000E+50
 75
     0
  0
DIMASSOC
  5
1A1B
102
{ACAD_REACTORS
330
1A1A
102
}
330
1A1A
100
AcDbDimAssoc
330
1A19
 90
        3
 70
     0
 71
     0
  1
AcDbOsnapPointRef
 72
     6
331
1A34
 73
     2
 91
        0
 40
1.0
 10
0.0
 20
0.0
 30
0.0
332
1A44
 74
     2
 92
        0
 75
     0
  1
AcDbOsnapPointRef
 72
     1
331
1A3B
 73
     2
 91
        1
 40
1.0
 10
0.0
 20
0.0
 30
2.000000000000000E+50
 75
     0
  0
DIMASSOC
  5
1A1E
102
{ACAD_REACTORS
330
1A1D
102
}
330
1A1D
100
AcDbDimAssoc
330
1A1C
 90
        3
 70
     0
 71
     0
  1
AcDbOsnapPointRef
 72
     1
331
1A48
 73
     2
 91
        0
 40
1.0
 10
0.0
 20
0.0
 30
2.000000000000000E+50
 75
     0
  1
AcDbOsnapPointRef
 72
     6
331
1A34
 73
     2
 91
        0
 40
1.0
 10
0.0
 20
0.0
 30
0.0
332
1A44
 74
     2
 92
        0
 75
     0
  0
DIMASSOC
  5
1A22
102
{ACAD_REACTORS
330
1A21
102
}
330
1A21
100
AcDbDimAssoc
330
1A20
 90
        3
 70
     0
 71
     0
  1
AcDbOsnapPointRef
 72
    13
331
1A25
 73
     2
 91
        0
 40
0.0
 10
0.0
 20
0.0
 30
2.000000000000000E+50
 75
     0
  1
AcDbOsnapPointRef
 72
     1
331
1A25
 73
     2
 91
        0
 40
1.0
 10
0.0
 20
0.0
 30
2.000000000000000E+50
 75
     0
  0
DIMASSOC
  5
1A29
102
{ACAD_REACTORS
330
1A28
102
}
330
1A28
100
AcDbDimAssoc
330
1A27
 90
        3
 70
     0
 71
     0
  1
AcDbOsnapPointRef
 72
     2
331
1A2F
 73
     2
 91
        3
 40
0.5
 10
0.0
 20
0.0
 30
0.0
 75
     0
  1
AcDbOsnapPointRef
 72
     6
331
1A2F
 73
     2
 91
        6
 40
0.5000000000000038
 10
0.0
 20
0.0
 30
0.0
332
1A3C
 74
     2
 92
        0
 75
     0
  0
DIMASSOC
  5
1A2C
102
{ACAD_REACTORS
330
1A2B
102
}
330
1A2B
100
AcDbDimAssoc
330
1A2A
 90
        3
 70
     0
 71
     0
  1
AcDbOsnapPointRef
 72
    13
331
1A46
 73
     2
 91
        0
 40
0.0
 10
0.0
 20
0.0
 30
2.000000000000000E+50
 75
     0
  1
AcDbOsnapPointRef
 72
    13
331
1A49
 73
     2
 91
        0
 40
0.0
 10
0.0
 20
0.0
 30
2.000000000000000E+50
 75
     0
  0
DIMASSOC
  5
1A32
102
{ACAD_REACTORS
330
1A31
102
}
330
1A31
100
AcDbDimAssoc
330
1A30
 90
        3
 70
     0
 71
     0
  1
AcDbOsnapPointRef
 72
     5
331
1A40
 73
     2
 91
        0
 40
3.141592653589793
 10
0.0
 20
0.0
 30
0.0
 75
     0
  1
AcDbOsnapPointRef
 72
     5
331
1A40
 73
     2
 91
        0
 40
0.0
 10
0.0
 20
0.0
 30
0.0
 75
     0
  0
DIMASSOC
  5
1B0D
102
{ACAD_REACTORS
330
1B0C
102
}
330
1B0C
100
AcDbDimAssoc
330
1B0B
 90
        2
 70
     0
 71
     0
  1
AcDbOsnapPointRef
 72
     1
331
1B34
 73
     2
 91
        1
 40
1.0
 10
0.0
 20
0.0
 30
2.000000000000000E+50
 75
     0
  0
DIMASSOC
  5
1B17
102
{ACAD_REACTORS
330
1B16
102
}
330
1B16
100
AcDbDimAssoc
330
1B15
 90
        3
 70
     0
 71
     0
  1
AcDbOsnapPointRef
 72
    13
331
1B2C
 73
     2
 91
        1
 40
0.0
 10
0.0
 20
0.0
 30
2.000000000000000E+50
 75
     0
  1
AcDbOsnapPointRef
 72
     1
331
1B2C
 73
     2
 91
        2
 40
1.0
 10
0.0
 20
0.0
 30
2.000000000000000E+50
 75
     0
  0
DIMASSOC
  5
1B1D
102
{ACAD_REACTORS
330
1B1C
102
}
330
1B1C
100
AcDbDimAssoc
330
1B1B
 90
        3
 70
     0
 71
     0
  1
AcDbOsnapPointRef
 72
    13
331
1B3F
 73
     2
 91
        0
 40
0.0
 10
0.0
 20
0.0
 30
2.000000000000000E+50
 75
     0
  1
AcDbOsnapPointRef
 72
     1
331
1B3F
 73
     2
 91
        0
 40
1.0
 10
0.0
 20
0.0
 30
2.000000000000000E+50
 75
     0
  0
DIMASSOC
  5
1B20
102
{ACAD_REACTORS
330
1B1F
102
}
330
1B1F
100
AcDbDimAssoc
330
1B1E
 90
        3
 70
     0
 71
     0
  1
AcDbOsnapPointRef
 72
     5
331
1B36
 73
     2
 91
        0
 40
3.141592653589793
 10
0.0
 20
0.0
 30
0.0
 75
     0
  1
AcDbOsnapPointRef
 72
     5
331
1B36
 73
     2
 91
        0
 40
0.0
 10
0.0
 20
0.0
 30
0.0
 75
     0
  0
DIMASSOC
  5
1B24
102
{ACAD_REACTORS
330
1B23
102
}
330
1B23
100
AcDbDimAssoc
330
1B22
 90
        1
 70
     0
 71
     0
  1
AcDbOsnapPointRef
 72
     2
331
1B30
 73
     2
 91
        0
 40
4.71238898038469
 10
0.0
 20
0.0
 30
0.0
 75
     0
  0
DIMASSOC
  5
1B27
102
{ACAD_REACTORS
330
1B26
102
}
330
1B26
100
AcDbDimAssoc
330
1B25
 90
        3
 70
     0
 71
     0
  1
AcDbOsnapPointRef
 72
    13
331
1B3F
 73
     2
 91
        0
 40
0.0
 10
0.0
 20
0.0
 30
2.000000000000000E+50
 75
     0
  1
AcDbOsnapPointRef
 72
    13
331
1B41
 73
     2
 91
        0
 40
0.0
 10
0.0
 20
0.0
 30
2.000000000000000E+50
 75
     0
  0
DIMASSOC
  5
1B49
102
{ACAD_REACTORS
330
1B48
102
}
330
1B48
100
AcDbDimAssoc
330
1B47
 90
        2
 70
     0
 71
     0
  1
AcDbOsnapPointRef
 72
     1
331
1B70
 73
     2
 91
        1
 40
1.0
 10
0.0
 20
0.0
 30
2.000000000000000E+50
 75
     0
  0
DIMASSOC
  5
1B53
102
{ACAD_REACTORS
330
1B52
102
}
330
1B52
100
AcDbDimAssoc
330
1B51
 90
        3
 70
     0
 71
     0
  1
AcDbOsnapPointRef
 72
    13
331
1B68
 73
     2
 91
        1
 40
0.0
 10
0.0
 20
0.0
 30
2.000000000000000E+50
 75
     0
  1
AcDbOsnapPointRef
 72
     1
331
1B68
 73
     2
 91
        2
 40
1.0
 10
0.0
 20
0.0
 30
2.000000000000000E+50
 75
     0
  0
DIMASSOC
  5
1B59
102
{ACAD_REACTORS
330
1B58
102
}
330
1B58
100
AcDbDimAssoc
330
1B57
 90
        3
 70
     0
 71
     0
  1
AcDbOsnapPointRef
 72
    13
331
1B7B
 73
     2
 91
        0
 40
0.0
 10
0.0
 20
0.0
 30
2.000000000000000E+50
 75
     0
  1
AcDbOsnapPointRef
 72
     1
331
1B7B
 73
     2
 91
        0
 40
1.0
 10
0.0
 20
0.0
 30
2.000000000000000E+50
 75
     0
  0
DIMASSOC
  5
1B63
102
{ACAD_REACTORS
330
1B62
102
}
330
1B62
100
AcDbDimAssoc
330
1B61
 90
        3
 70
     0
 71
     0
  1
AcDbOsnapPointRef
 72
    13
331
1B7B
 73
     2
 91
        0
 40
0.0
 10
0.0
 20
0.0
 30
2.000000000000000E+50
 75
     0
  1
AcDbOsnapPointRef
 72
    13
331
1B7D
 73
     2
 91
        0
 40
0.0
 10
0.0
 20
0.0
 30
2.000000000000000E+50
 75
     0
  0
LAYOUT
  5
24
102
{ACAD_REACTORS
330
1A
102
}
330
1A
100
AcDbPlotSettings
  1

  2
\\SF05\Brother HL-1440 series
  4
A4
  6

 40
6.72041654586792
 41
5.027085304260254
 42
6.889755249023438
 43
5.027069091796875
 44
209.9733276367188
 45
296.9259948730469
 46
-6.82
 47
-5.06
 48
0.0
 49
0.0
140
297.0000000000001
141
210.0
142
1.0
143
1.0
 70
 11956
 72
     1
 73
     1
 74
     4
  7

 75
    16
 76
     0
 77
     2
 78
   300
147
1.0
148
0.0
149
0.0
100
AcDbLayout
  1
Model
 70
     1
 71
     0
 10
0.0
 20
0.0
 11
12.0
 21
9.0
 12
0.0
 22
0.0
 32
0.0
 14
0.0
 24
0.0
 34
0.0
 15
217.2824999652206
 25
139.606173782506
 35
0.0
146
0.0
 13
0.0
 23
0.0
 33
0.0
 16
1.0
 26
0.0
 36
0.0
 17
0.0
 27
1.0
 37
0.0
 76
     0
330
21
331
1CB6
  0
LAYOUT
  5
20
102
{ACAD_REACTORS
330
1A
102
}
330
1A
100
AcDbPlotSettings
  1

  2
自動 Canon LBP3500 (SUN9 上)
  4
A4
  6

 40
5.87375
 41
5.873748
 42
5.873749
 43
5.873749
 44
209.973328
 45
296.925995
 46
0.0
 47
0.0
 48
4.436955
 49
1.418998
140
281.436955
141
191.418998
142
1.0
143
1.0
 70
   688
 72
     1
 73
     1
 74
     5
  7
monochrome.ctb
 75
     0
 76
     1
 77
     2
 78
   300
147
1.0
148
0.0
149
0.0
100
AcDbLayout
  1
レイアウト1
 70
     0
 71
     1
 10
-5.873749
 20
-5.87375
 11
291.052246
 21
204.099578
 12
0.0
 22
0.0
 32
0.0
 14
-5.563045354333553
 24
-8.581001749020459
 34
0.0
 15
291.4369546456665
 25
201.4189982509796
 35
0.0
146
0.0
 13
0.0
 23
0.0
 33
0.0
 16
1.0
 26
0.0
 36
0.0
 17
0.0
 27
1.0
 37
0.0
 76
     0
330
1D
331
D76
  0
MATERIAL
  5
1CF3
102
{ACAD_REACTORS
330
1B
102
}
330
1B
100
AcDbMaterial
  1
ByBlock
 72
     1
 94
      127
  0
MATERIAL
  5
1CF2
102
{ACAD_REACTORS
330
1B
102
}
330
1B
100
AcDbMaterial
  1
ByLayer
 72
     1
 94
      127
  0
MATERIAL
  5
1CF4
102
{ACAD_REACTORS
330
1B
102
}
330
1B
100
AcDbMaterial
  1
Global
 72
     1
 94
      127
  0
MLINESTYLE
  5
18
102
{ACAD_REACTORS
330
17
102
}
330
17
100
AcDbMlineStyle
  2
STANDARD
 70
     0
  3

 62
   256
 51
90.0
 52
90.0
 71
     2
 49
0.5
 62
   256
  6
BYLAYER
 49
-0.5
 62
   256
  6
BYLAYER
  0
ACDBPLACEHOLDER
  5
F
102
{ACAD_REACTORS
330
E
102
}
330
E
  0
SCALE
  5
1CD1
102
{ACAD_REACTORS
330
1CD0
102
}
330
1CD0
100
AcDbScale
 70
     0
300
1:1
140
1.0
141
1.0
290
     1
  0
SCALE
  5
1CD2
102
{ACAD_REACTORS
330
1CD0
102
}
330
1CD0
100
AcDbScale
 70
     0
300
1:2
140
1.0
141
2.0
290
     0
  0
SCALE
  5
1CD3
102
{ACAD_REACTORS
330
1CD0
102
}
330
1CD0
100
AcDbScale
 70
     0
300
1:4
140
1.0
141
4.0
290
     0
  0
SCALE
  5
1CD4
102
{ACAD_REACTORS
330
1CD0
102
}
330
1CD0
100
AcDbScale
 70
     0
300
1:5
140
1.0
141
5.0
290
     0
  0
SCALE
  5
1CD5
102
{ACAD_REACTORS
330
1CD0
102
}
330
1CD0
100
AcDbScale
 70
     0
300
1:8
140
1.0
141
8.0
290
     0
  0
SCALE
  5
1CD6
102
{ACAD_REACTORS
330
1CD0
102
}
330
1CD0
100
AcDbScale
 70
     0
300
1:10
140
1.0
141
10.0
290
     0
  0
SCALE
  5
1CD7
102
{ACAD_REACTORS
330
1CD0
102
}
330
1CD0
100
AcDbScale
 70
     0
300
1:16
140
1.0
141
16.0
290
     0
  0
SCALE
  5
1CD8
102
{ACAD_REACTORS
330
1CD0
102
}
330
1CD0
100
AcDbScale
 70
     0
300
1:20
140
1.0
141
20.0
290
     0
  0
SCALE
  5
1CD9
102
{ACAD_REACTORS
330
1CD0
102
}
330
1CD0
100
AcDbScale
 70
     0
300
1:30
140
1.0
141
30.0
290
     0
  0
SCALE
  5
1CDA
102
{ACAD_REACTORS
330
1CD0
102
}
330
1CD0
100
AcDbScale
 70
     0
300
1:40
140
1.0
141
40.0
290
     0
  0
SCALE
  5
1CDB
102
{ACAD_REACTORS
330
1CD0
102
}
330
1CD0
100
AcDbScale
 70
     0
300
1:50
140
1.0
141
50.0
290
     0
  0
SCALE
  5
1CDC
102
{ACAD_REACTORS
330
1CD0
102
}
330
1CD0
100
AcDbScale
 70
     0
300
1:100
140
1.0
141
100.0
290
     0
  0
SCALE
  5
1CDD
102
{ACAD_REACTORS
330
1CD0
102
}
330
1CD0
100
AcDbScale
 70
     0
300
2:1
140
2.0
141
1.0
290
     0
  0
SCALE
  5
1CDE
102
{ACAD_REACTORS
330
1CD0
102
}
330
1CD0
100
AcDbScale
 70
     0
300
4:1
140
4.0
141
1.0
290
     0
  0
SCALE
  5
1CDF
102
{ACAD_REACTORS
330
1CD0
102
}
330
1CD0
100
AcDbScale
 70
     0
300
8:1
140
8.0
141
1.0
290
     0
  0
SCALE
  5
1CE0
102
{ACAD_REACTORS
330
1CD0
102
}
330
1CD0
100
AcDbScale
 70
     0
300
10:1
140
10.0
141
1.0
290
     0
  0
SCALE
  5
1CE1
102
{ACAD_REACTORS
330
1CD0
102
}
330
1CD0
100
AcDbScale
 70
     0
300
100:1
140
100.0
141
1.0
290
     0
  0
SCALE
  5
1CE2
102
{ACAD_REACTORS
330
1CD0
102
}
330
1CD0
100
AcDbScale
 70
     0
300
1/128" = 1'-0"
140
0.0078125
141
12.0
290
     0
  0
SCALE
  5
1CE3
102
{ACAD_REACTORS
330
1CD0
102
}
330
1CD0
100
AcDbScale
 70
     0
300
1/64" = 1'-0"
140
0.015625
141
12.0
290
     0
  0
SCALE
  5
1CE4
102
{ACAD_REACTORS
330
1CD0
102
}
330
1CD0
100
AcDbScale
 70
     0
300
1/32" = 1'-0"
140
0.03125
141
12.0
290
     0
  0
SCALE
  5
1CE5
102
{ACAD_REACTORS
330
1CD0
102
}
330
1CD0
100
AcDbScale
 70
     0
300
1/16" = 1'-0"
140
0.0625
141
12.0
290
     0
  0
SCALE
  5
1CE6
102
{ACAD_REACTORS
330
1CD0
102
}
330
1CD0
100
AcDbScale
 70
     0
300
3/32" = 1'-0"
140
0.09375
141
12.0
290
     0
  0
SCALE
  5
1CE7
102
{ACAD_REACTORS
330
1CD0
102
}
330
1CD0
100
AcDbScale
 70
     0
300
1/8" = 1'-0"
140
0.125
141
12.0
290
     0
  0
SCALE
  5
1CE8
102
{ACAD_REACTORS
330
1CD0
102
}
330
1CD0
100
AcDbScale
 70
     0
300
3/16" = 1'-0"
140
0.1875
141
12.0
290
     0
  0
SCALE
  5
1CE9
102
{ACAD_REACTORS
330
1CD0
102
}
330
1CD0
100
AcDbScale
 70
     0
300
1/4" = 1'-0"
140
0.25
141
12.0
290
     0
  0
SCALE
  5
1CEA
102
{ACAD_REACTORS
330
1CD0
102
}
330
1CD0
100
AcDbScale
 70
     0
300
3/8" = 1'-0"
140
0.375
141
12.0
290
     0
  0
SCALE
  5
1CEB
102
{ACAD_REACTORS
330
1CD0
102
}
330
1CD0
100
AcDbScale
 70
     0
300
1/2" = 1'-0"
140
0.5
141
12.0
290
     0
  0
SCALE
  5
1CEC
102
{ACAD_REACTORS
330
1CD0
102
}
330
1CD0
100
AcDbScale
 70
     0
300
3/4" = 1'-0"
140
0.75
141
12.0
290
     0
  0
SCALE
  5
1CED
102
{ACAD_REACTORS
330
1CD0
102
}
330
1CD0
100
AcDbScale
 70
     0
300
1" = 1'-0"
140
1.0
141
12.0
290
     0
  0
SCALE
  5
1CEE
102
{ACAD_REACTORS
330
1CD0
102
}
330
1CD0
100
AcDbScale
 70
     0
300
1-1/2" = 1'-0"
140
1.5
141
12.0
290
     0
  0
SCALE
  5
1CEF
102
{ACAD_REACTORS
330
1CD0
102
}
330
1CD0
100
AcDbScale
 70
     0
300
3" = 1'-0"
140
3.0
141
12.0
290
     0
  0
SCALE
  5
1CF0
102
{ACAD_REACTORS
330
1CD0
102
}
330
1CD0
100
AcDbScale
 70
     0
300
6" = 1'-0"
140
6.0
141
12.0
290
     0
  0
SCALE
  5
1CF1
102
{ACAD_REACTORS
330
1CD0
102
}
330
1CD0
100
AcDbScale
 70
     0
300
1'-0" = 1'-0"
140
12.0
141
12.0
290
     0
  0
TABLESTYLE
  5
1CF6
102
{ACAD_REACTORS
330
1CF5
102
}
102
{ACAD_XDICTIONARY
360
1D7A
102
}
330
1CF5
100
AcDbTableStyle
  3
Standard
 70
     0
 71
     0
 40
0.06
 41
0.06
280
     0
281
     0
  7
Standard
140
4.5
170
     2
 62
     0
 63
   257
283
     0
 90
        4
 91
        0
  1

274
    -2
284
     1
 64
     0
275
    -2
285
     1
 65
     0
276
    -2
286
     1
 66
     0
277
    -2
287
     1
 67
     0
278
    -2
288
     1
 68
     0
279
    -2
289
     1
 69
     0
  7
Standard
140
6.0
170
     5
 62
     0
 63
   257
283
     0
 90
        4
 91
        0
  1

274
    -2
284
     1
 64
     0
275
    -2
285
     1
 65
     0
276
    -2
286
     1
 66
     0
277
    -2
287
     1
 67
     0
278
    -2
288
     1
 68
     0
279
    -2
289
     1
 69
     0
  7
Standard
140
4.5
170
     5
 62
     0
 63
   257
283
     0
 90
        4
 91
        0
  1

274
    -2
284
     1
 64
     0
275
    -2
285
     1
 65
     0
276
    -2
286
     1
 66
     0
277
    -2
287
     1
 67
     0
278
    -2
288
     1
 68
     0
279
    -2
289
     1
 69
     0
  0
VISUALSTYLE
  5
1CBC
102
{ACAD_REACTORS
330
1CB7
102
}
330
1CB7
100
AcDbVisualStyle
  2
2dWireframe
 70
     4
177
     3
291
     0
 70
    58
 90
        0
176
     1
 90
        2
176
     1
 90
        0
176
     1
 90
        0
176
     1
 40
0.6
176
     1
 40
30.0
176
     1
 62
     7
420
 16777215
176
     1
 90
        1
176
     1
 90
        4
176
     1
 62
     7
176
     1
 62
   257
176
     1
 90
        1
176
     1
 90
        1
176
     1
 40
1.0
176
     1
 90
        0
176
     1
 62
   257
176
     1
 40
1.0
176
     1
 90
        1
176
     1
 90
        6
176
     1
 90
        2
176
     1
 62
     7
176
     1
 90
        5
176
     1
 90
        0
176
     1
 90
        0
176
     1
290
     0
176
     1
 90
        1
176
     1
 40
0.0
176
     1
 90
        0
176
     1
290
     1
176
     1
290
     1
176
     1
290
     0
176
     1
290
     0
176
     1
290
     0
176
     1
290
     0
176
     1
290
     0
176
     1
290
     0
176
     1
290
     0
176
     1
 90
       50
176
     1
 40
0.0
176
     1
 40
1.0
176
     1
 90
        0
176
     1
 62
    18
420
        0
176
     1
 90
       50
176
     1
 90
        3
176
     1
 62
     5
420
      255
176
     1
290
     0
176
     1
 90
       50
176
     1
 90
       50
176
     1
 90
       50
176
     1
290
     0
176
     1
 90
       50
176
     1
 62
   256
176
     0
 40
1.0
176
     0
 90
        2
176
     1
  1
strokes_ogs.tif
176
     1
290
     0
176
     1
 40
1.0
176
     1
 40
1.0
176
     1
  0
VISUALSTYLE
  5
1CBF
102
{ACAD_REACTORS
330
1CB7
102
}
330
1CB7
100
AcDbVisualStyle
  2
Basic
 70
     7
177
     3
291
     1
 70
    58
 90
        1
176
     1
 90
        0
176
     1
 90
        1
176
     1
 90
        0
176
     1
 40
0.6
176
     1
 40
30.0
176
     1
 62
     7
420
 16777215
176
     1
 90
        0
176
     1
 90
        4
176
     1
 62
     7
176
     1
 62
   257
176
     1
 90
        1
176
     1
 90
        1
176
     1
 40
1.0
176
     1
 90
        8
176
     1
 62
     7
176
     1
 40
1.0
176
     1
 90
        1
176
     1
 90
        6
176
     1
 90
        2
176
     1
 62
     7
176
     1
 90
        5
176
     1
 90
        0
176
     1
 90
        0
176
     1
290
     0
176
     1
 90
        1
176
     1
 40
0.0
176
     1
 90
        0
176
     1
290
     0
176
     1
290
     1
176
     1
290
     1
176
     1
290
     0
176
     1
290
     0
176
     1
290
     0
176
     1
290
     0
176
     1
290
     0
176
     1
290
     0
176
     1
 90
       50
176
     1
 40
0.0
176
     1
 40
1.0
176
     1
 90
        0
176
     1
 62
    18
420
        0
176
     1
 90
       50
176
     1
 90
        3
176
     1
 62
     5
420
      255
176
     1
290
     0
176
     1
 90
       50
176
     1
 90
       50
176
     1
 90
       50
176
     1
290
     0
176
     1
 90
       50
176
     1
 62
   256
176
     0
 40
1.0
176
     0
 90
        2
176
     1
  1
strokes_ogs.tif
176
     1
290
     0
176
     1
 40
1.0
176
     1
 40
1.0
176
     1
  0
VISUALSTYLE
  5
1CC3
102
{ACAD_REACTORS
330
1CB7
102
}
330
1CB7
100
AcDbVisualStyle
  2
Brighten
 70
    12
177
     3
291
     1
 70
    58
 90
        2
176
     1
 90
        2
176
     1
 90
        0
176
     1
 90
        0
176
     1
 40
0.6
176
     1
 40
30.0
176
     1
 62
     7
420
 16777215
176
     1
 90
        1
176
     1
 90
        4
176
     1
 62
     7
176
     1
 62
   257
176
     1
 90
        1
176
     1
 90
        1
176
     1
 40
1.0
176
     1
 90
        8
176
     1
 62
     7
176
     1
 40
1.0
176
     1
 90
        1
176
     1
 90
        6
176
     1
 90
        2
176
     1
 62
     7
176
     1
 90
        5
176
     1
 90
        0
176
     1
 90
        0
176
     1
290
     0
176
     1
 90
        1
176
     1
 40
50.0
176
     1
 90
        0
176
     1
290
     0
176
     1
290
     1
176
     1
290
     1
176
     1
290
     0
176
     1
290
     0
176
     1
290
     0
176
     1
290
     0
176
     1
290
     0
176
     1
290
     0
176
     1
 90
       50
176
     1
 40
0.0
176
     1
 40
1.0
176
     1
 90
        0
176
     1
 62
    18
420
        0
176
     1
 90
       50
176
     1
 90
        3
176
     1
 62
     5
420
      255
176
     1
290
     0
176
     1
 90
       50
176
     1
 90
       50
176
     1
 90
       50
176
     1
290
     0
176
     1
 90
       50
176
     1
 62
   256
176
     0
 40
1.0
176
     0
 90
        2
176
     1
  1
strokes_ogs.tif
176
     1
290
     0
176
     1
 40
1.0
176
     1
 40
1.0
176
     1
  0
VISUALSTYLE
  5
1CC7
102
{ACAD_REACTORS
330
1CB7
102
}
330
1CB7
100
AcDbVisualStyle
  2
ColorChange
 70
    16
177
     3
291
     1
 70
    58
 90
        2
176
     1
 90
        2
176
     1
 90
        3
176
     1
 90
        0
176
     1
 40
0.6
176
     1
 40
30.0
176
     1
 62
     8
420
  8421504
176
     1
 90
        1
176
     1
 90
        4
176
     1
 62
     7
176
     1
 62
   257
176
     1
 90
        1
176
     1
 90
        1
176
     1
 40
1.0
176
     1
 90
        8
176
     1
 62
     8
420
  8421504
176
     1
 40
1.0
176
     1
 90
        1
176
     1
 90
        6
176
     1
 90
        2
176
     1
 62
     7
176
     1
 90
        5
176
     1
 90
        0
176
     1
 90
        0
176
     1
290
     0
176
     1
 90
        1
176
     1
 40
0.0
176
     1
 90
        0
176
     1
290
     0
176
     1
290
     1
176
     1
290
     1
176
     1
290
     0
176
     1
290
     0
176
     1
290
     0
176
     1
290
     0
176
     1
290
     0
176
     1
290
     0
176
     1
 90
       50
176
     1
 40
0.0
176
     1
 40
1.0
176
     1
 90
        0
176
     1
 62
    18
420
        0
176
     1
 90
       50
176
     1
 90
        3
176
     1
 62
     5
420
      255
176
     1
290
     0
176
     1
 90
       50
176
     1
 90
       50
176
     1
 90
       50
176
     1
290
     0
176
     1
 90
       50
176
     1
 62
   256
176
     0
 40
1.0
176
     0
 90
        2
176
     1
  1
strokes_ogs.tif
176
     1
290
     0
176
     1
 40
1.0
176
     1
 40
1.0
176
     1
  0
VISUALSTYLE
  5
1CC1
102
{ACAD_REACTORS
330
1CB7
102
}
330
1CB7
100
AcDbVisualStyle
  2
Conceptual
 70
     9
177
     3
291
     0
 70
    58
 90
        3
176
     1
 90
        2
176
     1
 90
        0
176
     1
 90
        0
176
     1
 40
0.6
176
     1
 40
30.0
176
     1
 62
     7
420
 16777215
176
     1
 90
        2
176
     1
 90
        2
176
     1
 62
     7
176
     1
 62
   257
176
     1
 90
        1
176
     1
 90
        1
176
     1
 40
179.0
176
     1
 90
        8
176
     1
 62
     7
176
     1
 40
1.0
176
     1
 90
        1
176
     1
 90
        6
176
     1
 90
        2
176
     1
 62
     7
176
     1
 90
        3
176
     1
 90
        0
176
     1
 90
        0
176
     1
290
     0
176
     1
 90
        1
176
     1
 40
0.0
176
     1
 90
        0
176
     1
290
     0
176
     1
290
     1
176
     1
290
     1
176
     1
290
     0
176
     1
290
     0
176
     1
290
     0
176
     1
290
     0
176
     1
290
     0
176
     1
290
     0
176
     1
 90
       50
176
     1
 40
0.0
176
     1
 40
1.0
176
     1
 90
        0
176
     1
 62
    18
420
        0
176
     1
 90
       50
176
     1
 90
        3
176
     1
 62
     5
420
      255
176
     1
290
     0
176
     1
 90
       50
176
     1
 90
       50
176
     1
 90
       50
176
     1
290
     0
176
     1
 90
       50
176
     1
 62
   256
176
     0
 40
1.0
176
     0
 90
        2
176
     1
  1
strokes_ogs.tif
176
     1
290
     0
176
     1
 40
1.0
176
     1
 40
1.0
176
     1
  0
VISUALSTYLE
  5
1CC2
102
{ACAD_REACTORS
330
1CB7
102
}
330
1CB7
100
AcDbVisualStyle
  2
Dim
 70
    11
177
     3
291
     1
 70
    58
 90
        2
176
     1
 90
        2
176
     1
 90
        0
176
     1
 90
        0
176
     1
 40
0.6
176
     1
 40
30.0
176
     1
 62
     7
420
 16777215
176
     1
 90
        1
176
     1
 90
        4
176
     1
 62
     7
176
     1
 62
   257
176
     1
 90
        1
176
     1
 90
        1
176
     1
 40
1.0
176
     1
 90
        8
176
     1
 62
     7
176
     1
 40
1.0
176
     1
 90
        1
176
     1
 90
        6
176
     1
 90
        2
176
     1
 62
     7
176
     1
 90
        5
176
     1
 90
        0
176
     1
 90
        0
176
     1
290
     0
176
     1
 90
        1
176
     1
 40
-50.0
176
     1
 90
        0
176
     1
290
     0
176
     1
290
     1
176
     1
290
     1
176
     1
290
     0
176
     1
290
     0
176
     1
290
     0
176
     1
290
     0
176
     1
290
     0
176
     1
290
     0
176
     1
 90
       50
176
     1
 40
0.0
176
     1
 40
1.0
176
     1
 90
        0
176
     1
 62
    18
420
        0
176
     1
 90
       50
176
     1
 90
        3
176
     1
 62
     5
420
      255
176
     1
290
     0
176
     1
 90
       50
176
     1
 90
       50
176
     1
 90
       50
176
     1
290
     0
176
     1
 90
       50
176
     1
 62
   256
176
     0
 40
1.0
176
     0
 90
        2
176
     1
  1
strokes_ogs.tif
176
     1
290
     0
176
     1
 40
1.0
176
     1
 40
1.0
176
     1
  0
VISUALSTYLE
  5
1CCA
102
{ACAD_REACTORS
330
1CB7
102
}
330
1CB7
100
AcDbVisualStyle
  2
EdgeColorOff
 70
    22
177
     3
291
     1
 70
    58
 90
        2
176
     0
 90
        2
176
     0
 90
        0
176
     0
 90
        0
176
     0
 40
0.6
176
     0
 40
30.0
176
     0
 62
     7
420
 16777215
176
     0
 90
        1
176
     0
 90
        4
176
     0
 62
     7
176
     0
 62
   257
176
     0
 90
        1
176
     0
 90
        1
176
     0
 40
1.0
176
     0
 90
        8
176
     2
 62
     7
176
     0
 40
1.0
176
     0
 90
        1
176
     0
 90
        6
176
     0
 90
        2
176
     0
 62
     7
176
     0
 90
        5
176
     0
 90
        0
176
     0
 90
        0
176
     0
290
     0
176
     0
 90
        1
176
     0
 40
0.0
176
     0
 90
        0
176
     0
290
     0
176
     0
290
     1
176
     0
290
     1
176
     0
290
     0
176
     0
290
     0
176
     0
290
     0
176
     0
290
     0
176
     0
290
     0
176
     0
290
     0
176
     0
 90
       50
176
     0
 40
0.0
176
     0
 40
1.0
176
     0
 90
        0
176
     0
 62
    18
420
        0
176
     0
 90
       50
176
     0
 90
        3
176
     0
 62
     5
420
      255
176
     0
290
     0
176
     0
 90
       50
176
     0
 90
       50
176
     0
 90
       50
176
     0
290
     0
176
     0
 90
       50
176
     0
 62
   256
176
     0
 40
1.0
176
     0
 90
        2
176
     0
  1
strokes_ogs.tif
176
     0
290
     0
176
     0
 40
1.0
176
     0
 40
1.0
176
     0
  0
VISUALSTYLE
  5
1CC6
102
{ACAD_REACTORS
330
1CB7
102
}
330
1CB7
100
AcDbVisualStyle
  2
Facepattern
 70
    15
177
     3
291
     1
 70
    58
 90
        2
176
     1
 90
        2
176
     1
 90
        0
176
     1
 90
        0
176
     1
 40
0.6
176
     1
 40
30.0
176
     1
 62
     7
420
 16777215
176
     1
 90
        1
176
     1
 90
        4
176
     1
 62
     7
176
     1
 62
   257
176
     1
 90
        1
176
     1
 90
        1
176
     1
 40
1.0
176
     1
 90
        8
176
     1
 62
     7
176
     1
 40
1.0
176
     1
 90
        1
176
     1
 90
        6
176
     1
 90
        2
176
     1
 62
     7
176
     1
 90
        5
176
     1
 90
        0
176
     1
 90
        0
176
     1
290
     0
176
     1
 90
        1
176
     1
 40
0.0
176
     1
 90
        0
176
     1
290
     0
176
     1
290
     1
176
     1
290
     1
176
     1
290
     0
176
     1
290
     0
176
     1
290
     0
176
     1
290
     0
176
     1
290
     0
176
     1
290
     0
176
     1
 90
       50
176
     1
 40
0.0
176
     1
 40
1.0
176
     1
 90
        0
176
     1
 62
    18
420
        0
176
     1
 90
       50
176
     1
 90
        3
176
     1
 62
     5
420
      255
176
     1
290
     0
176
     1
 90
       50
176
     1
 90
       50
176
     1
 90
       50
176
     1
290
     0
176
     1
 90
       50
176
     1
 62
   256
176
     0
 40
1.0
176
     0
 90
        2
176
     1
  1
strokes_ogs.tif
176
     1
290
     0
176
     1
 40
1.0
176
     1
 40
1.0
176
     1
  0
VISUALSTYLE
  5
1CB8
102
{ACAD_REACTORS
330
1CB7
102
}
330
1CB7
100
AcDbVisualStyle
  2
Flat
 70
     0
177
     3
291
     1
 70
    58
 90
        2
176
     1
 90
        1
176
     1
 90
        1
176
     1
 90
        2
176
     1
 40
0.6
176
     1
 40
30.0
176
     1
 62
     7
420
 16777215
176
     1
 90
        0
176
     1
 90
        0
176
     1
 62
     7
176
     1
 62
   257
176
     1
 90
        1
176
     1
 90
        1
176
     1
 40
1.0
176
     1
 90
        8
176
     1
 62
     7
176
     1
 40
1.0
176
     1
 90
        1
176
     1
 90
        6
176
     1
 90
        2
176
     1
 62
     7
176
     1
 90
        5
176
     1
 90
        0
176
     1
 90
        0
176
     1
290
     0
176
     1
 90
       13
176
     1
 40
0.0
176
     1
 90
        0
176
     1
290
     0
176
     1
290
     1
176
     1
290
     1
176
     1
290
     0
176
     1
290
     0
176
     1
290
     0
176
     1
290
     0
176
     1
290
     0
176
     1
290
     0
176
     1
 90
       50
176
     1
 40
0.0
176
     1
 40
1.0
176
     1
 90
        0
176
     1
 62
    18
420
        0
176
     1
 90
       50
176
     1
 90
        3
176
     1
 62
     5
420
      255
176
     1
290
     0
176
     1
 90
       50
176
     1
 90
       50
176
     1
 90
       50
176
     1
290
     0
176
     1
 90
       50
176
     1
 62
   256
176
     0
 40
1.0
176
     0
 90
        2
176
     1
  1
strokes_ogs.tif
176
     1
290
     0
176
     1
 40
1.0
176
     1
 40
1.0
176
     1
  0
VISUALSTYLE
  5
1CB9
102
{ACAD_REACTORS
330
1CB7
102
}
330
1CB7
100
AcDbVisualStyle
  2
FlatWithEdges
 70
     1
177
     3
291
     1
 70
    58
 90
        2
176
     1
 90
        1
176
     1
 90
        1
176
     1
 90
        2
176
     1
 40
0.6
176
     1
 40
30.0
176
     1
 62
     7
420
 16777215
176
     1
 90
        1
176
     1
 90
        0
176
     1
 62
     7
176
     1
 62
   257
176
     1
 90
        1
176
     1
 90
        1
176
     1
 40
1.0
176
     1
 90
        0
176
     1
 62
   257
176
     1
 40
1.0
176
     1
 90
        1
176
     1
 90
        6
176
     1
 90
        2
176
     1
 62
     7
176
     1
 90
        5
176
     1
 90
        0
176
     1
 90
        0
176
     1
290
     0
176
     1
 90
       13
176
     1
 40
0.0
176
     1
 90
        0
176
     1
290
     0
176
     1
290
     1
176
     1
290
     1
176
     1
290
     0
176
     1
290
     0
176
     1
290
     0
176
     1
290
     0
176
     1
290
     0
176
     1
290
     0
176
     1
 90
       50
176
     1
 40
0.0
176
     1
 40
1.0
176
     1
 90
        0
176
     1
 62
    18
420
        0
176
     1
 90
       50
176
     1
 90
        3
176
     1
 62
     5
420
      255
176
     1
290
     0
176
     1
 90
       50
176
     1
 90
       50
176
     1
 90
       50
176
     1
290
     0
176
     1
 90
       50
176
     1
 62
   256
176
     0
 40
1.0
176
     0
 90
        2
176
     1
  1
strokes_ogs.tif
176
     1
290
     0
176
     1
 40
1.0
176
     1
 40
1.0
176
     1
  0
VISUALSTYLE
  5
1CBA
102
{ACAD_REACTORS
330
1CB7
102
}
330
1CB7
100
AcDbVisualStyle
  2
Gouraud
 70
     2
177
     3
291
     1
 70
    58
 90
        2
176
     1
 90
        2
176
     1
 90
        1
176
     1
 90
        2
176
     1
 40
0.6
176
     1
 40
30.0
176
     1
 62
     7
420
 16777215
176
     1
 90
        0
176
     1
 90
        0
176
     1
 62
     7
176
     1
 62
   257
176
     1
 90
        1
176
     1
 90
        1
176
     1
 40
1.0
176
     1
 90
        0
176
     1
 62
     7
176
     1
 40
1.0
176
     1
 90
        1
176
     1
 90
        6
176
     1
 90
        2
176
     1
 62
     7
176
     1
 90
        5
176
     1
 90
        0
176
     1
 90
        0
176
     1
290
     0
176
     1
 90
       13
176
     1
 40
0.0
176
     1
 90
        0
176
     1
290
     0
176
     1
290
     1
176
     1
290
     1
176
     1
290
     0
176
     1
290
     0
176
     1
290
     0
176
     1
290
     0
176
     1
290
     0
176
     1
290
     0
176
     1
 90
       50
176
     1
 40
0.0
176
     1
 40
1.0
176
     1
 90
        0
176
     1
 62
    18
420
        0
176
     1
 90
       50
176
     1
 90
        3
176
     1
 62
     5
420
      255
176
     1
290
     0
176
     1
 90
       50
176
     1
 90
       50
176
     1
 90
       50
176
     1
290
     0
176
     1
 90
       50
176
     1
 62
   256
176
     0
 40
1.0
176
     0
 90
        2
176
     1
  1
strokes_ogs.tif
176
     1
290
     0
176
     1
 40
1.0
176
     1
 40
1.0
176
     1
  0
VISUALSTYLE
  5
1CBB
102
{ACAD_REACTORS
330
1CB7
102
}
330
1CB7
100
AcDbVisualStyle
  2
GouraudWithEdges
 70
     3
177
     3
291
     1
 70
    58
 90
        2
176
     1
 90
        2
176
     1
 90
        1
176
     1
 90
        2
176
     1
 40
0.6
176
     1
 40
30.0
176
     1
 62
     7
420
 16777215
176
     1
 90
        1
176
     1
 90
        0
176
     1
 62
     7
176
     1
 62
   257
176
     1
 90
        1
176
     1
 90
        1
176
     1
 40
1.0
176
     1
 90
        0
176
     1
 62
   257
176
     1
 40
1.0
176
     1
 90
        1
176
     1
 90
        6
176
     1
 90
        2
176
     1
 62
     7
176
     1
 90
        5
176
     1
 90
        0
176
     1
 90
        0
176
     1
290
     0
176
     1
 90
       13
176
     1
 40
0.0
176
     1
 90
        0
176
     1
290
     0
176
     1
290
     1
176
     1
290
     1
176
     1
290
     0
176
     1
290
     0
176
     1
290
     0
176
     1
290
     0
176
     1
290
     0
176
     1
290
     0
176
     1
 90
       50
176
     1
 40
0.0
176
     1
 40
1.0
176
     1
 90
        0
176
     1
 62
    18
420
        0
176
     1
 90
       50
176
     1
 90
        3
176
     1
 62
     5
420
      255
176
     1
290
     0
176
     1
 90
       50
176
     1
 90
       50
176
     1
 90
       50
176
     1
290
     0
176
     1
 90
       50
176
     1
 62
   256
176
     0
 40
1.0
176
     0
 90
        2
176
     1
  1
strokes_ogs.tif
176
     1
290
     0
176
     1
 40
1.0
176
     1
 40
1.0
176
     1
  0
VISUALSTYLE
  5
1CBE
102
{ACAD_REACTORS
330
1CB7
102
}
330
1CB7
100
AcDbVisualStyle
  2
Hidden
 70
     6
177
     3
291
     0
 70
    58
 90
        1
176
     1
 90
        2
176
     1
 90
        2
176
     1
 90
        0
176
     1
 40
0.6
176
     1
 40
30.0
176
     1
 62
     7
420
 16777215
176
     1
 90
        2
176
     1
 90
        2
176
     1
 62
     7
176
     1
 62
   257
176
     1
 90
        2
176
     1
 90
        1
176
     1
 40
40.0
176
     1
 90
        0
176
     1
 62
   257
176
     1
 40
1.0
176
     1
 90
        1
176
     1
 90
        6
176
     1
 90
        2
176
     1
 62
     7
176
     1
 90
        3
176
     1
 90
        0
176
     1
 90
        0
176
     1
290
     0
176
     1
 90
        1
176
     1
 40
0.0
176
     1
 90
        0
176
     1
290
     0
176
     1
290
     1
176
     1
290
     1
176
     1
290
     0
176
     1
290
     0
176
     1
290
     0
176
     1
290
     0
176
     1
290
     0
176
     1
290
     0
176
     1
 90
       50
176
     1
 40
0.0
176
     1
 40
1.0
176
     1
 90
        0
176
     1
 62
    18
420
        0
176
     1
 90
       50
176
     1
 90
        3
176
     1
 62
     5
420
      255
176
     1
290
     0
176
     1
 90
       50
176
     1
 90
       50
176
     1
 90
       50
176
     1
290
     0
176
     1
 90
       50
176
     1
 62
   256
176
     0
 40
1.0
176
     0
 90
        2
176
     1
  1
strokes_ogs.tif
176
     1
290
     0
176
     1
 40
1.0
176
     1
 40
1.0
176
     1
  0
VISUALSTYLE
  5
1CC8
102
{ACAD_REACTORS
330
1CB7
102
}
330
1CB7
100
AcDbVisualStyle
  2
JitterOff
 70
    20
177
     3
291
     1
 70
    58
 90
        2
176
     0
 90
        2
176
     0
 90
        0
176
     0
 90
        0
176
     0
 40
0.6
176
     0
 40
30.0
176
     0
 62
     7
420
 16777215
176
     0
 90
        1
176
     0
 90
        4
176
     0
 62
     7
176
     0
 62
   257
176
     0
 90
        1
176
     0
 90
        1
176
     0
 40
1.0
176
     0
 90
       10
176
     2
 62
     7
176
     0
 40
1.0
176
     0
 90
        1
176
     0
 90
        6
176
     0
 90
        2
176
     0
 62
     7
176
     0
 90
        5
176
     0
 90
        0
176
     0
 90
        0
176
     0
290
     0
176
     0
 90
        1
176
     0
 40
0.0
176
     0
 90
        0
176
     0
290
     0
176
     0
290
     1
176
     0
290
     1
176
     0
290
     0
176
     0
290
     0
176
     0
290
     0
176
     0
290
     0
176
     0
290
     0
176
     0
290
     0
176
     0
 90
       50
176
     0
 40
0.0
176
     0
 40
1.0
176
     0
 90
        0
176
     0
 62
    18
420
        0
176
     0
 90
       50
176
     0
 90
        3
176
     0
 62
     5
420
      255
176
     0
290
     0
176
     0
 90
       50
176
     0
 90
       50
176
     0
 90
       50
176
     0
290
     0
176
     0
 90
       50
176
     0
 62
   256
176
     0
 40
1.0
176
     0
 90
        2
176
     0
  1
strokes_ogs.tif
176
     0
290
     0
176
     0
 40
1.0
176
     0
 40
1.0
176
     0
  0
VISUALSTYLE
  5
1CC5
102
{ACAD_REACTORS
330
1CB7
102
}
330
1CB7
100
AcDbVisualStyle
  2
Linepattern
 70
    14
177
     3
291
     1
 70
    58
 90
        2
176
     1
 90
        2
176
     1
 90
        0
176
     1
 90
        0
176
     1
 40
0.6
176
     1
 40
30.0
176
     1
 62
     7
420
 16777215
176
     1
 90
        1
176
     1
 90
        4
176
     1
 62
     7
176
     1
 62
   257
176
     1
 90
        7
176
     1
 90
        7
176
     1
 40
1.0
176
     1
 90
        8
176
     1
 62
     7
176
     1
 40
1.0
176
     1
 90
        1
176
     1
 90
        6
176
     1
 90
        2
176
     1
 62
     7
176
     1
 90
        5
176
     1
 90
        0
176
     1
 90
        0
176
     1
290
     0
176
     1
 90
        1
176
     1
 40
0.0
176
     1
 90
        0
176
     1
290
     0
176
     1
290
     1
176
     1
290
     1
176
     1
290
     0
176
     1
290
     0
176
     1
290
     0
176
     1
290
     0
176
     1
290
     0
176
     1
290
     0
176
     1
 90
       50
176
     1
 40
0.0
176
     1
 40
1.0
176
     1
 90
        0
176
     1
 62
    18
420
        0
176
     1
 90
       50
176
     1
 90
        3
176
     1
 62
     5
420
      255
176
     1
290
     0
176
     1
 90
       50
176
     1
 90
       50
176
     1
 90
       50
176
     1
290
     0
176
     1
 90
       50
176
     1
 62
   256
176
     0
 40
1.0
176
     0
 90
        2
176
     1
  1
strokes_ogs.tif
176
     1
290
     0
176
     1
 40
1.0
176
     1
 40
1.0
176
     1
  0
VISUALSTYLE
  5
1CC9
102
{ACAD_REACTORS
330
1CB7
102
}
330
1CB7
100
AcDbVisualStyle
  2
OverhangOff
 70
    21
177
     3
291
     1
 70
    58
 90
        2
176
     0
 90
        2
176
     0
 90
        0
176
     0
 90
        0
176
     0
 40
0.6
176
     0
 40
30.0
176
     0
 62
     7
420
 16777215
176
     0
 90
        1
176
     0
 90
        4
176
     0
 62
     7
176
     0
 62
   257
176
     0
 90
        1
176
     0
 90
        1
176
     0
 40
1.0
176
     0
 90
        9
176
     2
 62
     7
176
     0
 40
1.0
176
     0
 90
        1
176
     0
 90
        6
176
     0
 90
        2
176
     0
 62
     7
176
     0
 90
        5
176
     0
 90
        0
176
     0
 90
        0
176
     0
290
     0
176
     0
 90
        1
176
     0
 40
0.0
176
     0
 90
        0
176
     0
290
     0
176
     0
290
     1
176
     0
290
     1
176
     0
290
     0
176
     0
290
     0
176
     0
290
     0
176
     0
290
     0
176
     0
290
     0
176
     0
290
     0
176
     0
 90
       50
176
     0
 40
0.0
176
     0
 40
1.0
176
     0
 90
        0
176
     0
 62
    18
420
        0
176
     0
 90
       50
176
     0
 90
        3
176
     0
 62
     5
420
      255
176
     0
290
     0
176
     0
 90
       50
176
     0
 90
       50
176
     0
 90
       50
176
     0
290
     0
176
     0
 90
       50
176
     0
 62
   256
176
     0
 40
1.0
176
     0
 90
        2
176
     0
  1
strokes_ogs.tif
176
     0
290
     0
176
     0
 40
1.0
176
     0
 40
1.0
176
     0
  0
VISUALSTYLE
  5
1CC0
102
{ACAD_REACTORS
330
1CB7
102
}
330
1CB7
100
AcDbVisualStyle
  2
Realistic
 70
     8
177
     3
291
     0
 70
    58
 90
        2
176
     1
 90
        3
176
     1
 90
        0
176
     1
 90
        2
176
     1
 40
0.6
176
     1
 40
30.0
176
     1
 62
     7
420
 16777215
176
     1
 90
        0
176
     1
 90
        0
176
     1
 62
     7
176
     1
 62
   257
176
     1
 90
        1
176
     1
 90
        1
176
     1
 40
1.0
176
     1
 90
        8
176
     1
 62
   257
176
     1
 40
1.0
176
     1
 90
        1
176
     1
 90
        6
176
     1
 90
        2
176
     1
 62
     7
176
     1
 90
        3
176
     1
 90
        0
176
     1
 90
        0
176
     1
290
     0
176
     1
 90
       13
176
     1
 40
0.0
176
     1
 90
        0
176
     1
290
     0
176
     1
290
     1
176
     1
290
     1
176
     1
290
     0
176
     1
290
     0
176
     1
290
     0
176
     1
290
     0
176
     1
290
     0
176
     1
290
     0
176
     1
 90
       50
176
     1
 40
0.0
176
     1
 40
1.0
176
     1
 90
        0
176
     1
 62
    18
420
        0
176
     1
 90
       50
176
     1
 90
        3
176
     1
 62
     5
420
      255
176
     1
290
     0
176
     1
 90
       50
176
     1
 90
       50
176
     1
 90
       50
176
     1
290
     0
176
     1
 90
       50
176
     1
 62
   256
176
     0
 40
1.0
176
     0
 90
        2
176
     1
  1
strokes_ogs.tif
176
     1
290
     0
176
     1
 40
1.0
176
     1
 40
1.0
176
     1
  0
VISUALSTYLE
  5
1CCF
102
{ACAD_REACTORS
330
1CB7
102
}
330
1CB7
100
AcDbVisualStyle
  2
Shaded
 70
    27
177
     3
291
     0
 70
    58
 90
        2
176
     1
 90
        2
176
     1
 90
        1
176
     1
 90
        2
176
     1
 40
0.6
176
     1
 40
30.0
176
     1
 62
     7
420
 16777215
176
     1
 90
        0
176
     1
 90
        4
176
     1
 62
     7
176
     1
 62
   257
176
     1
 90
        1
176
     1
 90
        1
176
     1
 40
1.0
176
     1
 90
        8
176
     1
 62
   257
176
     1
 40
1.0
176
     1
 90
        1
176
     1
 90
        6
176
     1
 90
        2
176
     1
 62
     8
420
  7895160
176
     1
 90
        3
176
     1
 90
        0
176
     1
 90
        0
176
     1
290
     0
176
     1
 90
        5
176
     1
 40
0.0
176
     1
 90
        0
176
     1
290
     0
176
     1
290
     1
176
     1
290
     1
176
     1
290
     0
176
     1
290
     0
176
     1
290
     0
176
     1
290
     0
176
     1
290
     0
176
     1
290
     0
176
     1
 90
       50
176
     1
 40
0.0
176
     1
 40
1.0
176
     1
 90
        0
176
     1
 62
    18
420
        0
176
     1
 90
       50
176
     1
 90
        3
176
     1
 62
     5
420
      255
176
     1
290
     0
176
     1
 90
       50
176
     1
 90
       50
176
     1
 90
       50
176
     1
290
     0
176
     1
 90
       50
176
     1
 62
   256
176
     0
 40
1.0
176
     0
 90
        2
176
     1
  1
strokes_ogs.tif
176
     1
290
     0
176
     1
 40
1.0
176
     1
 40
1.0
176
     1
  0
VISUALSTYLE
  5
1CCE
102
{ACAD_REACTORS
330
1CB7
102
}
330
1CB7
100
AcDbVisualStyle
  2
Shaded with edges
 70
    26
177
     3
291
     0
 70
    58
 90
        2
176
     1
 90
        2
176
     1
 90
        1
176
     1
 90
        2
176
     1
 40
0.6
176
     1
 40
30.0
176
     1
 62
     7
420
 16777215
176
     1
 90
        1
176
     1
 90
       10
176
     1
 62
     7
176
     1
 62
   257
176
     1
 90
        2
176
     1
 90
        1
176
     1
 40
1.0
176
     1
 90
        8
176
     1
 62
   257
176
     1
 40
1.0
176
     1
 90
        1
176
     1
 90
        6
176
     1
 90
        2
176
     1
 62
     7
176
     1
 90
        3
176
     1
 90
        0
176
     1
 90
        0
176
     1
290
     0
176
     1
 90
        5
176
     1
 40
0.0
176
     1
 90
        0
176
     1
290
     0
176
     1
290
     1
176
     1
290
     1
176
     1
290
     0
176
     1
290
     0
176
     1
290
     0
176
     1
290
     0
176
     1
290
     0
176
     1
290
     0
176
     1
 90
       50
176
     1
 40
0.0
176
     1
 40
1.0
176
     1
 90
        0
176
     1
 62
    18
420
        0
176
     1
 90
       50
176
     1
 90
        3
176
     1
 62
     5
420
      255
176
     1
290
     0
176
     1
 90
       50
176
     1
 90
       50
176
     1
 90
       50
176
     1
290
     0
176
     1
 90
       50
176
     1
 62
   256
176
     0
 40
1.0
176
     0
 90
        2
176
     1
  1
strokes_ogs.tif
176
     1
290
     0
176
     1
 40
1.0
176
     1
 40
1.0
176
     1
  0
VISUALSTYLE
  5
1CCB
102
{ACAD_REACTORS
330
1CB7
102
}
330
1CB7
100
AcDbVisualStyle
  2
Shades of Gray
 70
    23
177
     3
291
     0
 70
    58
 90
        2
176
     1
 90
        2
176
     1
 90
        3
176
     1
 90
        0
176
     1
 40
0.6
176
     1
 40
30.0
176
     1
 62
     7
420
 16777215
176
     1
 90
        2
176
     1
 90
        2
176
     1
 62
     7
176
     1
 62
     7
176
     1
 90
        1
176
     1
 90
        1
176
     1
 40
40.0
176
     1
 90
        8
176
     1
 62
     7
176
     1
 40
1.0
176
     1
 90
        1
176
     1
 90
        6
176
     1
 90
        2
176
     1
 62
     7
176
     1
 90
        3
176
     1
 90
        0
176
     1
 90
        0
176
     1
290
     0
176
     1
 90
        1
176
     1
 40
0.0
176
     1
 90
        0
176
     1
290
     0
176
     1
290
     1
176
     1
290
     1
176
     1
290
     0
176
     1
290
     0
176
     1
290
     0
176
     1
290
     0
176
     1
290
     0
176
     1
290
     0
176
     1
 90
       50
176
     1
 40
0.0
176
     1
 40
1.0
176
     1
 90
        0
176
     1
 62
    18
420
        0
176
     1
 90
       50
176
     1
 90
        3
176
     1
 62
     5
420
      255
176
     1
290
     0
176
     1
 90
       50
176
     1
 90
       50
176
     1
 90
       50
176
     1
290
     0
176
     1
 90
       50
176
     1
 62
   256
176
     0
 40
1.0
176
     0
 90
        2
176
     1
  1
strokes_ogs.tif
176
     1
290
     0
176
     1
 40
1.0
176
     1
 40
1.0
176
     1
  0
VISUALSTYLE
  5
1CCC
102
{ACAD_REACTORS
330
1CB7
102
}
330
1CB7
100
AcDbVisualStyle
  2
Sketchy
 70
    24
177
     3
291
     0
 70
    58
 90
        1
176
     1
 90
        2
176
     1
 90
        2
176
     1
 90
        0
176
     1
 40
0.6
176
     1
 40
30.0
176
     1
 62
     7
420
 16777215
176
     1
 90
        2
176
     1
 90
        2
176
     1
 62
     7
176
     1
 62
     7
176
     1
 90
        1
176
     1
 90
        1
176
     1
 40
40.0
176
     1
 90
       11
176
     1
 62
     7
176
     1
 40
1.0
176
     1
 90
        1
176
     1
 90
        6
176
     1
 90
        2
176
     1
 62
     7
176
     1
 90
        6
176
     1
 90
        0
176
     1
 90
        0
176
     1
290
     0
176
     1
 90
        1
176
     1
 40
0.0
176
     1
 90
        0
176
     1
290
     0
176
     1
290
     1
176
     1
290
     1
176
     1
290
     0
176
     1
290
     0
176
     1
290
     0
176
     1
290
     0
176
     1
290
     0
176
     1
290
     0
176
     1
 90
       50
176
     1
 40
0.0
176
     1
 40
1.0
176
     1
 90
        0
176
     1
 62
    18
420
        0
176
     1
 90
       50
176
     1
 90
        3
176
     1
 62
     5
420
      255
176
     1
290
     0
176
     1
 90
       50
176
     1
 90
       50
176
     1
 90
       50
176
     1
290
     0
176
     1
 90
       50
176
     1
 62
   256
176
     0
 40
1.0
176
     0
 90
        2
176
     1
  1
strokes_ogs.tif
176
     1
290
     0
176
     1
 40
1.0
176
     1
 40
1.0
176
     1
  0
VISUALSTYLE
  5
1CC4
102
{ACAD_REACTORS
330
1CB7
102
}
330
1CB7
100
AcDbVisualStyle
  2
Thicken
 70
    13
177
     3
291
     1
 70
    58
 90
        2
176
     1
 90
        2
176
     1
 90
        0
176
     1
 90
        0
176
     1
 40
0.6
176
     1
 40
30.0
176
     1
 62
     7
420
 16777215
176
     1
 90
        1
176
     1
 90
        4
176
     1
 62
     7
176
     1
 62
   257
176
     1
 90
        1
176
     1
 90
        1
176
     1
 40
1.0
176
     1
 90
       12
176
     1
 62
     7
176
     1
 40
1.0
176
     1
 90
        1
176
     1
 90
        6
176
     1
 90
        2
176
     1
 62
     7
176
     1
 90
        5
176
     1
 90
        0
176
     1
 90
        0
176
     1
290
     0
176
     1
 90
        1
176
     1
 40
0.0
176
     1
 90
        0
176
     1
290
     0
176
     1
290
     1
176
     1
290
     1
176
     1
290
     0
176
     1
290
     0
176
     1
290
     0
176
     1
290
     0
176
     1
290
     0
176
     1
290
     0
176
     1
 90
       50
176
     1
 40
0.0
176
     1
 40
1.0
176
     1
 90
        0
176
     1
 62
    18
420
        0
176
     1
 90
       50
176
     1
 90
        3
176
     1
 62
     5
420
      255
176
     1
290
     0
176
     1
 90
       50
176
     1
 90
       50
176
     1
 90
       50
176
     1
290
     0
176
     1
 90
       50
176
     1
 62
   256
176
     0
 40
1.0
176
     0
 90
        2
176
     1
  1
strokes_ogs.tif
176
     1
290
     0
176
     1
 40
1.0
176
     1
 40
1.0
176
     1
  0
VISUALSTYLE
  5
1CBD
102
{ACAD_REACTORS
330
1CB7
102
}
330
1CB7
100
AcDbVisualStyle
  2
Wireframe
 70
     5
177
     3
291
     0
 70
    58
 90
        0
176
     1
 90
        2
176
     1
 90
        0
176
     1
 90
        0
176
     1
 40
0.6
176
     1
 40
30.0
176
     1
 62
     7
420
 16777215
176
     1
 90
        1
176
     1
 90
        4
176
     1
 62
     7
176
     1
 62
   257
176
     1
 90
        1
176
     1
 90
        1
176
     1
 40
1.0
176
     1
 90
        0
176
     1
 62
   257
176
     1
 40
1.0
176
     1
 90
        1
176
     1
 90
        6
176
     1
 90
        2
176
     1
 62
     7
176
     1
 90
        3
176
     1
 90
        0
176
     1
 90
        0
176
     1
290
     0
176
     1
 90
        1
176
     1
 40
0.0
176
     1
 90
        0
176
     1
290
     0
176
     1
290
     1
176
     1
290
     1
176
     1
290
     0
176
     1
290
     0
176
     1
290
     0
176
     1
290
     0
176
     1
290
     0
176
     1
290
     0
176
     1
 90
       50
176
     1
 40
0.0
176
     1
 40
1.0
176
     1
 90
        0
176
     1
 62
    18
420
        0
176
     1
 90
       50
176
     1
 90
        3
176
     1
 62
     5
420
      255
176
     1
290
     0
176
     1
 90
       50
176
     1
 90
       50
176
     1
 90
       50
176
     1
290
     0
176
     1
 90
       50
176
     1
 62
   256
176
     0
 40
1.0
176
     0
 90
        2
176
     1
  1
strokes_ogs.tif
176
     1
290
     0
176
     1
 40
1.0
176
     1
 40
1.0
176
     1
  0
VISUALSTYLE
  5
1CCD
102
{ACAD_REACTORS
330
1CB7
102
}
330
1CB7
100
AcDbVisualStyle
  2
X-Ray
 70
    25
177
     3
291
     0
 70
    58
 90
        2
176
     1
 90
        2
176
     1
 90
        1
176
     1
 90
        1
176
     1
 40
0.5
176
     1
 40
30.0
176
     1
 62
     7
420
 16777215
176
     1
 90
        1
176
     1
 90
        0
176
     1
 62
     7
176
     1
 62
   257
176
     1
 90
        1
176
     1
 90
        1
176
     1
 40
1.0
176
     1
 90
        8
176
     1
 62
     7
176
     1
 40
1.0
176
     1
 90
        1
176
     1
 90
        6
176
     1
 90
        2
176
     1
 62
     7
176
     1
 90
        3
176
     1
 90
        0
176
     1
 90
        0
176
     1
290
     0
176
     1
 90
       13
176
     1
 40
0.0
176
     1
 90
        0
176
     1
290
     0
176
     1
290
     1
176
     1
290
     1
176
     1
290
     0
176
     1
290
     0
176
     1
290
     0
176
     1
290
     0
176
     1
290
     0
176
     1
290
     0
176
     1
 90
       50
176
     1
 40
0.0
176
     1
 40
1.0
176
     1
 90
        0
176
     1
 62
    18
420
        0
176
     1
 90
       50
176
     1
 90
        3
176
     1
 62
     5
420
      255
176
     1
290
     0
176
     1
 90
       50
176
     1
 90
       50
176
     1
 90
       50
176
     1
290
     0
176
     1
 90
       50
176
     1
 62
   256
176
     0
 40
1.0
176
     0
 90
        2
176
     1
  1
strokes_ogs.tif
176
     1
290
     0
176
     1
 40
1.0
176
     1
 40
1.0
176
     1
  0
DICTIONARYVAR
  5
1CFA
102
{ACAD_REACTORS
330
13CA
102
}
330
13CA
100
DictionaryVariables
280
     0
  1
1:1
  0
DICTIONARYVAR
  5
1CFE
102
{ACAD_REACTORS
330
13CA
102
}
330
13CA
100
DictionaryVariables
280
     0
  1
Standard
  0
DICTIONARYVAR
  5
13CC
102
{ACAD_REACTORS
330
13CA
102
}
330
13CA
100
DictionaryVariables
280
     0
  1
2
  0
DICTIONARYVAR
  5
13CB
102
{ACAD_REACTORS
330
13CA
102
}
330
13CA
100
DictionaryVariables
280
     0
  1
1
  0
DICTIONARYVAR
  5
1D00
102
{ACAD_REACTORS
330
13CA
102
}
330
13CA
100
DictionaryVariables
280
     0
  1
0
  0
DICTIONARYVAR
  5
13CD
102
{ACAD_REACTORS
330
13CA
102
}
330
13CA
100
DictionaryVariables
280
     0
  1

  0
DICTIONARYVAR
  5
1D01
102
{ACAD_REACTORS
330
13CA
102
}
330
13CA
100
DictionaryVariables
280
     0
  1
0
  0
DICTIONARY
  5
1D7A
330
1CF6
100
AcDbDictionary
280
     1
281
     1
  3
ACAD_ROUNDTRIP_2008_TABLESTYLE_CELLSTYLEMAP
360
1D7B
  0
CELLSTYLEMAP
  5
1D7B
102
{ACAD_REACTORS
330
1D7A
102
}
330
1D7A
100
AcDbCellStyleMap
 90
        3
300
CELLSTYLE
  1
TABLEFORMAT_BEGIN
 90
        5
170
     1
 91
        0
 92
        0
 62
   257
 93
        1
300
CONTENTFORMAT
  1
CONTENTFORMAT_BEGIN
 90
        0
 91
        0
 92
        4
 93
        0
300

 40
0.0
140
1.0
 94
        5
 62
     0
340
11
144
6.0
309
CONTENTFORMAT_END
171
     1
301
MARGIN
  1
CELLMARGIN_BEGIN
 40
1.5
 40
1.5
 40
1.5
 40
1.5
 40
1.5
 40
1.5
309
CELLMARGIN_END
 94
        6
 95
        1
302
GRIDFORMAT
  1
GRIDFORMAT_BEGIN
 90
        0
 91
        1
 62
     0
 92
       -2
340
14
 93
        0
 40
0.045
309
GRIDFORMAT_END
 95
        2
302
GRIDFORMAT
  1
GRIDFORMAT_BEGIN
 90
        0
 91
        1
 62
     0
 92
       -2
340
14
 93
        0
 40
0.045
309
GRIDFORMAT_END
 95
        4
302
GRIDFORMAT
  1
GRIDFORMAT_BEGIN
 90
        0
 91
        1
 62
     0
 92
       -2
340
14
 93
        0
 40
0.045
309
GRIDFORMAT_END
 95
        8
302
GRIDFORMAT
  1
GRIDFORMAT_BEGIN
 90
        0
 91
        1
 62
     0
 92
       -2
340
14
 93
        0
 40
0.045
309
GRIDFORMAT_END
 95
       16
302
GRIDFORMAT
  1
GRIDFORMAT_BEGIN
 90
        0
 91
        1
 62
     0
 92
       -2
340
14
 93
        0
 40
0.045
309
GRIDFORMAT_END
 95
       32
302
GRIDFORMAT
  1
GRIDFORMAT_BEGIN
 90
        0
 91
        1
 62
     0
 92
       -2
340
14
 93
        0
 40
0.045
309
GRIDFORMAT_END
309
TABLEFORMAT_END
  1
CELLSTYLE_BEGIN
 90
        1
 91
        1
300
_TITLE
309
CELLSTYLE_END
300
CELLSTYLE
  1
TABLEFORMAT_BEGIN
 90
        5
170
     1
 91
        0
 92
        0
 62
   257
 93
        1
300
CONTENTFORMAT
  1
CONTENTFORMAT_BEGIN
 90
        0
 91
        0
 92
        4
 93
        0
300

 40
0.0
140
1.0
 94
        5
 62
     0
340
11
144
4.5
309
CONTENTFORMAT_END
171
     1
301
MARGIN
  1
CELLMARGIN_BEGIN
 40
1.5
 40
1.5
 40
1.5
 40
1.5
 40
1.5
 40
1.5
309
CELLMARGIN_END
 94
        6
 95
        1
302
GRIDFORMAT
  1
GRIDFORMAT_BEGIN
 90
        0
 91
        1
 62
     0
 92
       -2
340
14
 93
        0
 40
0.045
309
GRIDFORMAT_END
 95
        2
302
GRIDFORMAT
  1
GRIDFORMAT_BEGIN
 90
        0
 91
        1
 62
     0
 92
       -2
340
14
 93
        0
 40
0.045
309
GRIDFORMAT_END
 95
        4
302
GRIDFORMAT
  1
GRIDFORMAT_BEGIN
 90
        0
 91
        1
 62
     0
 92
       -2
340
14
 93
        0
 40
0.045
309
GRIDFORMAT_END
 95
        8
302
GRIDFORMAT
  1
GRIDFORMAT_BEGIN
 90
        0
 91
        1
 62
     0
 92
       -2
340
14
 93
        0
 40
0.045
309
GRIDFORMAT_END
 95
       16
302
GRIDFORMAT
  1
GRIDFORMAT_BEGIN
 90
        0
 91
        1
 62
     0
 92
       -2
340
14
 93
        0
 40
0.045
309
GRIDFORMAT_END
 95
       32
302
GRIDFORMAT
  1
GRIDFORMAT_BEGIN
 90
        0
 91
        1
 62
     0
 92
       -2
340
14
 93
        0
 40
0.045
309
GRIDFORMAT_END
309
TABLEFORMAT_END
  1
CELLSTYLE_BEGIN
 90
        2
 91
        1
300
_HEADER
309
CELLSTYLE_END
300
CELLSTYLE
  1
TABLEFORMAT_BEGIN
 90
        5
170
     1
 91
        0
 92
        0
 62
   257
 93
        1
300
CONTENTFORMAT
  1
CONTENTFORMAT_BEGIN
 90
        0
 91
        0
 92
        4
 93
        0
300

 40
0.0
140
1.0
 94
        2
 62
     0
340
11
144
4.5
309
CONTENTFORMAT_END
171
     1
301
MARGIN
  1
CELLMARGIN_BEGIN
 40
1.5
 40
1.5
 40
1.5
 40
1.5
 40
1.5
 40
1.5
309
CELLMARGIN_END
 94
        6
 95
        1
302
GRIDFORMAT
  1
GRIDFORMAT_BEGIN
 90
        0
 91
        1
 62
     0
 92
       -2
340
14
 93
        0
 40
0.045
309
GRIDFORMAT_END
 95
        2
302
GRIDFORMAT
  1
GRIDFORMAT_BEGIN
 90
        0
 91
        1
 62
     0
 92
       -2
340
14
 93
        0
 40
0.045
309
GRIDFORMAT_END
 95
        4
302
GRIDFORMAT
  1
GRIDFORMAT_BEGIN
 90
        0
 91
        1
 62
     0
 92
       -2
340
14
 93
        0
 40
0.045
309
GRIDFORMAT_END
 95
        8
302
GRIDFORMAT
  1
GRIDFORMAT_BEGIN
 90
        0
 91
        1
 62
     0
 92
       -2
340
14
 93
        0
 40
0.045
309
GRIDFORMAT_END
 95
       16
302
GRIDFORMAT
  1
GRIDFORMAT_BEGIN
 90
        0
 91
        1
 62
     0
 92
       -2
340
14
 93
        0
 40
0.045
309
GRIDFORMAT_END
 95
       32
302
GRIDFORMAT
  1
GRIDFORMAT_BEGIN
 90
        0
 91
        1
 62
     0
 92
       -2
340
14
 93
        0
 40
0.045
309
GRIDFORMAT_END
309
TABLEFORMAT_END
  1
CELLSTYLE_BEGIN
 90
        3
 91
        2
300
_DATA
309
CELLSTYLE_END
  0
ENDSEC
  0
EOF
