  0
SECTION
  2
HEADER
  9
$ACADVER
  1
AC1027
  9
$ACADMAINTVER
 70
     8
  9
$DWGCODEPAGE
  3
ANSI_932
  9
$REQUIREDVERSIONS
160
                 0
  9
$LASTSAVEDBY
  1
Yasu
  9
$INSBASE
 10
0.0
 20
0.0
 30
0.0
  9
$EXTMIN
 10
-0.4542544119649818
 20
18.59104255941395
 30
0.0
  9
$EXTMAX
 10
212.6668473660957
 20
205.3905434215117
 30
0.0
  9
$LIMMIN
 10
0.0
 20
0.0
  9
$LIMMAX
 10
420.0
 20
297.0
  9
$ORTHOMODE
 70
     0
  9
$REGENMODE
 70
     1
  9
$FILLMODE
 70
     1
  9
$QTEXTMODE
 70
     0
  9
$MIRRTEXT
 70
     0
  9
$LTSCALE
 40
0.2
  9
$ATTMODE
 70
     1
  9
$TEXTSIZE
 40
3.0
  9
$TRACEWID
 40
1.0
  9
$TEXTSTYLE
  7
Standard
  9
$CLAYER
  8
文字
  9
$CELTYPE
  6
ByLayer
  9
$CECOLOR
 62
   256
  9
$CELTSCALE
 40
1.0
  9
$DISPSILH
 70
     0
  9
$DIMSCALE
 40
1.0
  9
$DIMASZ
 40
2.5
  9
$DIMEXO
 40
0.625
  9
$DIMDLI
 40
3.75
  9
$DIMRND
 40
0.0
  9
$DIMDLE
 40
0.0
  9
$DIMEXE
 40
1.25
  9
$DIMTP
 40
0.0
  9
$DIMTM
 40
0.0
  9
$DIMTXT
 40
2.5
  9
$DIMCEN
 40
2.5
  9
$DIMTSZ
 40
0.0
  9
$DIMTOL
 70
     0
  9
$DIMLIM
 70
     0
  9
$DIMTIH
 70
     0
  9
$DIMTOH
 70
     0
  9
$DIMSE1
 70
     0
  9
$DIMSE2
 70
     0
  9
$DIMTAD
 70
     1
  9
$DIMZIN
 70
     8
  9
$DIMBLK
  1

  9
$DIMASO
 70
     1
  9
$DIMSHO
 70
     1
  9
$DIMPOST
  1

  9
$DIMAPOST
  1

  9
$DIMALT
 70
     0
  9
$DIMALTD
 70
     3
  9
$DIMALTF
 40
0.03937007874016
  9
$DIMLFAC
 40
1.0
  9
$DIMTOFL
 70
     1
  9
$DIMTVP
 40
0.0
  9
$DIMTIX
 70
     0
  9
$DIMSOXD
 70
     0
  9
$DIMSAH
 70
     0
  9
$DIMBLK1
  1

  9
$DIMBLK2
  1

  9
$DIMSTYLE
  2
ISO-25
  9
$DIMCLRD
 70
     0
  9
$DIMCLRE
 70
     0
  9
$DIMCLRT
 70
     0
  9
$DIMTFAC
 40
1.0
  9
$DIMGAP
 40
0.625
  9
$DIMJUST
 70
     0
  9
$DIMSD1
 70
     0
  9
$DIMSD2
 70
     0
  9
$DIMTOLJ
 70
     0
  9
$DIMTZIN
 70
     8
  9
$DIMALTZ
 70
     0
  9
$DIMALTTZ
 70
     0
  9
$DIMUPT
 70
     0
  9
$DIMDEC
 70
     2
  9
$DIMTDEC
 70
     2
  9
$DIMALTU
 70
     2
  9
$DIMALTTD
 70
     3
  9
$DIMTXSTY
  7
Standard
  9
$DIMAUNIT
 70
     0
  9
$DIMADEC
 70
     0
  9
$DIMALTRND
 40
0.0
  9
$DIMAZIN
 70
     0
  9
$DIMDSEP
 70
    46
  9
$DIMATFIT
 70
     3
  9
$DIMFRAC
 70
     0
  9
$DIMLDRBLK
  1

  9
$DIMLUNIT
 70
     2
  9
$DIMLWD
 70
    -2
  9
$DIMLWE
 70
    -2
  9
$DIMTMOVE
 70
     0
  9
$DIMFXL
 40
1.0
  9
$DIMFXLON
 70
     0
  9
$DIMJOGANG
 40
0.7853981633974483
  9
$DIMTFILL
 70
     0
  9
$DIMTFILLCLR
 70
     0
  9
$DIMARCSYM
 70
     0
  9
$DIMLTYPE
  6

  9
$DIMLTEX1
  6

  9
$DIMLTEX2
  6

  9
$DIMTXTDIRECTION
 70
     0
  9
$LUNITS
 70
     2
  9
$LUPREC
 70
     4
  9
$SKETCHINC
 40
1.0
  9
$FILLETRAD
 40
2.0
  9
$AUNITS
 70
     0
  9
$AUPREC
 70
     0
  9
$MENU
  1
.
  9
$ELEVATION
 40
0.0
  9
$PELEVATION
 40
0.0
  9
$THICKNESS
 40
0.0
  9
$LIMCHECK
 70
     0
  9
$CHAMFERA
 40
0.0
  9
$CHAMFERB
 40
0.0
  9
$CHAMFERC
 40
0.0
  9
$CHAMFERD
 40
0.0
  9
$SKPOLY
 70
     0
  9
$TDCREATE
 40
2452936.788310359
  9
$TDUCREATE
 40
2452936.413310359
  9
$TDUPDATE
 40
2456738.859153368
  9
$TDUUPDATE
 40
2456738.484153368
  9
$TDINDWG
 40
1.022089213
  9
$TDUSRTIMER
 40
2456738.483759838
  9
$USRTIMER
 70
     1
  9
$ANGBASE
 50
0.0
  9
$ANGDIR
 70
     0
  9
$PDMODE
 70
     0
  9
$PDSIZE
 40
0.0
  9
$PLINEWID
 40
0.0
  9
$SPLFRAME
 70
     0
  9
$SPLINETYPE
 70
     6
  9
$SPLINESEGS
 70
     8
  9
$HANDSEED
  5
215C
  9
$SURFTAB1
 70
     6
  9
$SURFTAB2
 70
     6
  9
$SURFTYPE
 70
     6
  9
$SURFU
 70
     6
  9
$SURFV
 70
     6
  9
$UCSBASE
  2

  9
$UCSNAME
  2

  9
$UCSORG
 10
0.0
 20
0.0
 30
0.0
  9
$UCSXDIR
 10
1.0
 20
0.0
 30
0.0
  9
$UCSYDIR
 10
0.0
 20
1.0
 30
0.0
  9
$UCSORTHOREF
  2

  9
$UCSORTHOVIEW
 70
     0
  9
$UCSORGTOP
 10
0.0
 20
0.0
 30
0.0
  9
$UCSORGBOTTOM
 10
0.0
 20
0.0
 30
0.0
  9
$UCSORGLEFT
 10
0.0
 20
0.0
 30
0.0
  9
$UCSORGRIGHT
 10
0.0
 20
0.0
 30
0.0
  9
$UCSORGFRONT
 10
0.0
 20
0.0
 30
0.0
  9
$UCSORGBACK
 10
0.0
 20
0.0
 30
0.0
  9
$PUCSBASE
  2

  9
$PUCSNAME
  2

  9
$PUCSORG
 10
0.0
 20
0.0
 30
0.0
  9
$PUCSXDIR
 10
1.0
 20
0.0
 30
0.0
  9
$PUCSYDIR
 10
0.0
 20
1.0
 30
0.0
  9
$PUCSORTHOREF
  2

  9
$PUCSORTHOVIEW
 70
     0
  9
$PUCSORGTOP
 10
0.0
 20
0.0
 30
0.0
  9
$PUCSORGBOTTOM
 10
0.0
 20
0.0
 30
0.0
  9
$PUCSORGLEFT
 10
0.0
 20
0.0
 30
0.0
  9
$PUCSORGRIGHT
 10
0.0
 20
0.0
 30
0.0
  9
$PUCSORGFRONT
 10
0.0
 20
0.0
 30
0.0
  9
$PUCSORGBACK
 10
0.0
 20
0.0
 30
0.0
  9
$USERI1
 70
     0
  9
$USERI2
 70
     0
  9
$USERI3
 70
     0
  9
$USERI4
 70
     0
  9
$USERI5
 70
     0
  9
$USERR1
 40
0.0
  9
$USERR2
 40
0.0
  9
$USERR3
 40
0.0
  9
$USERR4
 40
0.0
  9
$USERR5
 40
0.0
  9
$WORLDVIEW
 70
     1
  9
$SHADEDGE
 70
     3
  9
$SHADEDIF
 70
    70
  9
$TILEMODE
 70
     1
  9
$MAXACTVP
 70
    64
  9
$PINSBASE
 10
0.0
 20
0.0
 30
0.0
  9
$PLIMCHECK
 70
     0
  9
$PEXTMIN
 10
0.0
 20
0.0
 30
0.0
  9
$PEXTMAX
 10
0.0
 20
0.0
 30
0.0
  9
$PLIMMIN
 10
-6.35
 20
-6.35
  9
$PLIMMAX
 10
413.8083333333333
 20
290.6888888888888
  9
$UNITMODE
 70
     0
  9
$VISRETAIN
 70
     1
  9
$PLINEGEN
 70
     0
  9
$PSLTSCALE
 70
     1
  9
$TREEDEPTH
 70
  3020
  9
$CMLSTYLE
  2
Standard
  9
$CMLJUST
 70
     0
  9
$CMLSCALE
 40
20.0
  9
$PROXYGRAPHICS
 70
     1
  9
$MEASUREMENT
 70
     1
  9
$CELWEIGHT
370
    -1
  9
$ENDCAPS
280
     0
  9
$JOINSTYLE
280
     0
  9
$LWDISPLAY
290
     0
  9
$INSUNITS
 70
     4
  9
$HYPERLINKBASE
  1

  9
$STYLESHEET
  1

  9
$XEDIT
290
     1
  9
$CEPSNTYPE
380
     0
  9
$PSTYLEMODE
290
     1
  9
$FINGERPRINTGUID
  2
{86E58535-AB5B-4AFE-AB1B-6758AAB7EA7D}
  9
$VERSIONGUID
  2
{41679FD5-DF6E-4BD3-8D77-F32399357267}
  9
$EXTNAMES
290
     1
  9
$PSVPSCALE
 40
0.0
  9
$OLESTARTUP
290
     0
  9
$SORTENTS
280
   127
  9
$INDEXCTL
280
     0
  9
$HIDETEXT
280
     1
  9
$XCLIPFRAME
280
     2
  9
$HALOGAP
280
     0
  9
$OBSCOLOR
 70
   257
  9
$OBSLTYPE
280
     0
  9
$INTERSECTIONDISPLAY
280
     0
  9
$INTERSECTIONCOLOR
 70
   257
  9
$DIMASSOC
280
     2
  9
$PROJECTNAME
  1

  9
$CAMERADISPLAY
290
     0
  9
$LENSLENGTH
 40
50.0
  9
$CAMERAHEIGHT
 40
0.0
  9
$STEPSPERSEC
 40
2.0
  9
$STEPSIZE
 40
6.0
  9
$3DDWFPREC
 40
2.0
  9
$PSOLWIDTH
 40
0.25
  9
$PSOLHEIGHT
 40
4.0
  9
$LOFTANG1
 40
1.570796326794897
  9
$LOFTANG2
 40
1.570796326794897
  9
$LOFTMAG1
 40
0.0
  9
$LOFTMAG2
 40
0.0
  9
$LOFTPARAM
 70
     7
  9
$LOFTNORMALS
280
     1
  9
$LATITUDE
 40
37.795
  9
$LONGITUDE
 40
-122.394
  9
$NORTHDIRECTION
 40
0.0
  9
$TIMEZONE
 70
 -8000
  9
$LIGHTGLYPHDISPLAY
280
     1
  9
$TILEMODELIGHTSYNCH
280
     1
  9
$SOLIDHIST
280
     1
  9
$SHOWHIST
280
     1
  9
$DWFFRAME
280
     2
  9
$DGNFRAME
280
     2
  9
$REALWORLDSCALE
290
     1
  9
$INTERFERECOLOR
 62
   256
  9
$CSHADOW
280
     0
  9
$SHADOWPLANELOCATION
 40
0.0
  0
ENDSEC
  0
SECTION
  2
CLASSES
  0
CLASS
  1
ACDBDICTIONARYWDFLT
  2
AcDbDictionaryWithDefault
  3
ObjectDBX Classes
 90
        0
 91
       11
280
     0
281
     0
  0
CLASS
  1
DIMASSOC
  2
AcDbDimAssoc
  3
"AcDbDimAssoc|Product Desc:     AcDim ARX App For Dimension|Company:          Autodesk, Inc.|WEB Address:      www.autodesk.com"
 90
        0
 91
        7
280
     0
281
     0
  0
CLASS
  1
DICTIONARYVAR
  2
AcDbDictionaryVar
  3
ObjectDBX Classes
 90
        0
 91
        7
280
     0
281
     0
  0
CLASS
  1
ACDBPLACEHOLDER
  2
AcDbPlaceHolder
  3
ObjectDBX Classes
 90
        0
 91
        1
280
     0
281
     0
  0
CLASS
  1
LAYOUT
  2
AcDbLayout
  3
ObjectDBX Classes
 90
        0
 91
        1
280
     0
281
     0
  0
CLASS
  1
VISUALSTYLE
  2
AcDbVisualStyle
  3
ObjectDBX Classes
 90
     4095
 91
       11
280
     0
281
     0
  0
CLASS
  1
SCALE
  2
AcDbScale
  3
ObjectDBX Classes
 90
     1153
 91
       11
280
     0
281
     0
  0
CLASS
  1
MATERIAL
  2
AcDbMaterial
  3
ObjectDBX Classes
 90
     1153
 91
       11
280
     0
281
     0
  0
CLASS
  1
TABLESTYLE
  2
AcDbTableStyle
  3
ObjectDBX Classes
 90
     4095
 91
       11
280
     0
281
     0
  0
CLASS
  1
SUN
  2
AcDbSun
  3
SCENEOE
 90
     1153
 91
       11
280
     0
281
     0
  0
CLASS
  1
RASTERVARIABLES
  2
AcDbRasterVariables
  3
ISM
 90
        0
 91
       11
280
     0
281
     0
  0
CLASS
  1
CELLSTYLEMAP
  2
AcDbCellStyleMap
  3
ObjectDBX Classes
 90
     1152
 91
        7
280
     0
281
     0
  0
ENDSEC
  0
SECTION
  2
TABLES
  0
TABLE
  2
VPORT
  5
8
330
0
100
AcDbSymbolTable
 70
     1
  0
VPORT
  5
2040
330
8
100
AcDbSymbolTableRecord
100
AcDbViewportTableRecord
  2
*Active
 70
     0
 10
0.0
 20
0.0
 11
1.0
 21
1.0
 12
106.1062964770654
 22
111.9907929904628
 13
0.0
 23
0.0
 14
10.0
 24
10.0
 15
10.0
 25
10.0
 16
0.0
 26
0.0
 36
1.0
 17
0.0
 27
0.0
 37
0.0
 40
190.5354908793397
 41
1.762376237623762
 42
50.0
 43
0.0
 44
0.0
 50
0.0
 51
0.0
 71
    16
 72
  1000
 73
     1
 74
     3
 75
     0
 76
     0
 77
     0
 78
     0
281
     0
 65
     1
110
0.0
120
0.0
130
0.0
111
1.0
121
0.0
131
0.0
112
0.0
122
1.0
132
0.0
 79
     0
146
0.0
348
2051
 60
     3
 61
     5
292
     1
282
     1
141
0.0
142
0.0
 63
   256
361
2096
  0
ENDTAB
  0
TABLE
  2
LTYPE
  5
5
330
0
100
AcDbSymbolTable
 70
     6
  0
LTYPE
  5
14
330
5
100
AcDbSymbolTableRecord
100
AcDbLinetypeTableRecord
  2
ByBlock
 70
     0
  3

 72
    65
 73
     0
 40
0.0
  0
LTYPE
  5
15
330
5
100
AcDbSymbolTableRecord
100
AcDbLinetypeTableRecord
  2
ByLayer
 70
     0
  3

 72
    65
 73
     0
 40
0.0
  0
LTYPE
  5
16
330
5
100
AcDbSymbolTableRecord
100
AcDbLinetypeTableRecord
  2
Continuous
 70
     0
  3
Solid line
 72
    65
 73
     0
 40
0.0
  0
LTYPE
  5
35
330
5
100
AcDbSymbolTableRecord
100
AcDbLinetypeTableRecord
  2
ACAD_ISO08W100
 70
     0
  3
ISO long-dash short-dash ____ __ ____ __ ____ _
 72
    65
 73
     4
 40
36.0
 49
24.0
 74
     0
 49
-3.0
 74
     0
 49
6.0
 74
     0
 49
-3.0
 74
     0
  0
LTYPE
  5
127
330
5
100
AcDbSymbolTableRecord
100
AcDbLinetypeTableRecord
  2
HIDDENX2
 70
     0
  3
Hidden (2x) ____ ____ ____ ____ ____ ____ ____
 72
    65
 73
     2
 40
19.05
 49
12.7
 74
     0
 49
-6.35
 74
     0
  0
LTYPE
  5
5EC
330
5
100
AcDbSymbolTableRecord
100
AcDbLinetypeTableRecord
  2
CENTER
 70
     0
  3
Center ____ _ ____ _ ____ _ ____ _ ____ _ ____
 72
    65
 73
     4
 40
50.8
 49
31.75
 74
     0
 49
-6.35
 74
     0
 49
6.35
 74
     0
 49
-6.35
 74
     0
  0
LTYPE
  5
5ED
330
5
100
AcDbSymbolTableRecord
100
AcDbLinetypeTableRecord
  2
ACAD_ISO02W100
 70
     0
  3
ISO dash __ __ __ __ __ __ __ __ __ __ __ __ __
 72
    65
 73
     2
 40
15.0
 49
12.0
 74
     0
 49
-3.0
 74
     0
  0
LTYPE
  5
605
330
5
100
AcDbSymbolTableRecord
100
AcDbLinetypeTableRecord
  2
DASHED
 70
     0
  3
Dashed __ __ __ __ __ __ __ __ __ __ __ __ __ _
 72
    65
 73
     2
 40
19.05
 49
12.7
 74
     0
 49
-6.35
 74
     0
  0
ENDTAB
  0
TABLE
  2
LAYER
  5
2
330
0
100
AcDbSymbolTable
 70
     9
  0
LAYER
  5
10
330
2
100
AcDbSymbolTableRecord
100
AcDbLayerTableRecord
  2
0
 70
     0
 62
     7
  6
Continuous
370
    -3
390
F
347
2089
348
0
  0
LAYER
  5
2E
330
2
100
AcDbSymbolTableRecord
100
AcDbLayerTableRecord
  2
枠
 70
     0
 62
     1
  6
Continuous
370
    30
390
F
347
2089
348
0
  0
LAYER
  5
2F
330
2
100
AcDbSymbolTableRecord
100
AcDbLayerTableRecord
  2
文字
 70
     0
 62
     7
  6
Continuous
370
    18
390
F
347
2089
348
0
  0
LAYER
  5
36
330
2
100
AcDbSymbolTableRecord
100
AcDbLayerTableRecord
  2
中心線
 70
     0
 62
     7
  6
CENTER
370
    15
390
F
347
2089
348
0
  0
LAYER
  5
52
330
2
100
AcDbSymbolTableRecord
100
AcDbLayerTableRecord
  2
隠れ線
 70
     0
 62
     2
  6
Continuous
290
     0
370
    -3
390
F
347
2089
348
0
  0
LAYER
  5
128
330
2
100
AcDbSymbolTableRecord
100
AcDbLayerTableRecord
  2
実線
 70
     0
 62
     7
  6
Continuous
370
    20
390
F
347
2089
348
0
  0
LAYER
  5
129
330
2
100
AcDbSymbolTableRecord
100
AcDbLayerTableRecord
  2
破線
 70
     0
 62
     7
  6
DASHED
370
    15
390
F
347
2089
348
0
  0
LAYER
  5
677
330
2
100
AcDbSymbolTableRecord
100
AcDbLayerTableRecord
  2
Defpoints
 70
     0
 62
     7
  6
Continuous
290
     0
370
    -3
390
F
347
2089
348
0
  0
LAYER
  5
20A6
330
2
100
AcDbSymbolTableRecord
100
AcDbLayerTableRecord
  2
文字・寸法線
 70
     0
 62
     7
  6
Continuous
370
    -3
390
F
347
2089
348
0
  0
ENDTAB
  0
TABLE
  2
STYLE
  5
3
330
0
100
AcDbSymbolTable
 70
     2
  0
STYLE
  5
11
330
3
100
AcDbSymbolTableRecord
100
AcDbTextStyleTableRecord
  2
Standard
 70
     0
 40
0.0
 41
1.0
 50
0.0
 71
     0
 42
3.0
  3
txt.shx
  4
bigfont.shx
  0
STYLE
  5
34
330
3
100
AcDbSymbolTableRecord
100
AcDbTextStyleTableRecord
  2

 70
     1
 40
0.0
 41
1.0
 50
0.0
 71
     0
 42
2.5
  3
ltypeshp.shx
  4

  0
ENDTAB
  0
TABLE
  2
VIEW
  5
6
330
0
100
AcDbSymbolTable
 70
     0
  0
ENDTAB
  0
TABLE
  2
UCS
  5
7
330
0
100
AcDbSymbolTable
 70
     0
  0
ENDTAB
  0
TABLE
  2
APPID
  5
9
330
0
100
AcDbSymbolTable
 70
     4
  0
APPID
  5
12
330
9
100
AcDbSymbolTableRecord
100
AcDbRegAppTableRecord
  2
ACAD
 70
     0
  0
APPID
  5
1282
330
9
100
AcDbSymbolTableRecord
100
AcDbRegAppTableRecord
  2
ACAD_DIMASSOC_CALC_DIMLFAC
 70
     0
  0
APPID
  5
1283
330
9
100
AcDbSymbolTableRecord
100
AcDbRegAppTableRecord
  2
ACAD_DIMASSOC_DIMLFAC
 70
     0
  0
APPID
  5
1284
330
9
100
AcDbSymbolTableRecord
100
AcDbRegAppTableRecord
  2
ACAD_DIMASSOC_OVERRIDDEN_DIMLFAC
 70
     0
  0
ENDTAB
  0
TABLE
  2
DIMSTYLE
  5
A
330
0
100
AcDbSymbolTable
 70
     1
100
AcDbDimStyleTable
  0
DIMSTYLE
105
29
102
{ACAD_REACTORS
330
1E6C
330
1E84
330
1E8B
330
1E8E
330
1F73
330
20F6
330
2105
330
2116
330
2129
330
212C
330
2131
102
}
330
A
100
AcDbSymbolTableRecord
100
AcDbDimStyleTableRecord
  2
ISO-25
 70
     0
 41
2.5
 42
0.625
 43
3.75
 44
1.25
 73
     0
 74
     0
 77
     1
 78
     8
140
2.5
141
2.5
143
0.03937007874016
147
0.625
171
     3
172
     1
178
     0
271
     2
272
     2
274
     3
283
     0
284
     8
340
11
  0
ENDTAB
  0
TABLE
  2
BLOCK_RECORD
  5
1
330
0
100
AcDbSymbolTable
 70
    39
  0
BLOCK_RECORD
  5
21
330
1
100
AcDbSymbolTableRecord
100
AcDbBlockTableRecord
  2
*Model_Space
340
24
 70
     0
280
     1
281
     0
  0
BLOCK_RECORD
  5
208F
330
1
100
AcDbSymbolTableRecord
100
AcDbBlockTableRecord
  2
*Paper_Space
340
2090
 70
     0
280
     1
281
     0
  0
BLOCK_RECORD
  5
1581
330
1
100
AcDbSymbolTableRecord
100
AcDbBlockTableRecord
  2
_Dot
340
0
 70
     0
280
     1
281
     0
  0
BLOCK_RECORD
  5
1591
330
1
100
AcDbSymbolTableRecord
100
AcDbBlockTableRecord
  2
_None
340
0
 70
     0
280
     1
281
     0
  0
BLOCK_RECORD
  5
15A6
330
1
100
AcDbSymbolTableRecord
100
AcDbBlockTableRecord
  2
_DatumFilled
340
0
 70
     0
280
     1
281
     0
  0
BLOCK_RECORD
  5
16CF
330
1
100
AcDbSymbolTableRecord
100
AcDbBlockTableRecord
  2
_DotSmall
340
0
 70
     0
280
     1
281
     0
  0
BLOCK_RECORD
  5
1992
330
1
100
AcDbSymbolTableRecord
100
AcDbBlockTableRecord
  2
*D4
340
0
 70
     0
280
     1
281
     0
  0
BLOCK_RECORD
  5
199E
330
1
100
AcDbSymbolTableRecord
100
AcDbBlockTableRecord
  2
*D5
340
0
 70
     0
280
     1
281
     0
  0
BLOCK_RECORD
  5
19AC
330
1
100
AcDbSymbolTableRecord
100
AcDbBlockTableRecord
  2
*D6
340
0
 70
     0
280
     1
281
     0
  0
BLOCK_RECORD
  5
19B8
330
1
100
AcDbSymbolTableRecord
100
AcDbBlockTableRecord
  2
*D7
340
0
 70
     0
280
     1
281
     0
  0
BLOCK_RECORD
  5
19C4
330
1
100
AcDbSymbolTableRecord
100
AcDbBlockTableRecord
  2
*D8
340
0
 70
     0
280
     1
281
     0
  0
BLOCK_RECORD
  5
19D0
330
1
100
AcDbSymbolTableRecord
100
AcDbBlockTableRecord
  2
*D9
340
0
 70
     0
280
     1
281
     0
  0
BLOCK_RECORD
  5
19DC
330
1
100
AcDbSymbolTableRecord
100
AcDbBlockTableRecord
  2
*D10
340
0
 70
     0
280
     1
281
     0
  0
BLOCK_RECORD
  5
19ED
330
1
100
AcDbSymbolTableRecord
100
AcDbBlockTableRecord
  2
*D11
340
0
 70
     0
280
     1
281
     0
  0
BLOCK_RECORD
  5
19F9
330
1
100
AcDbSymbolTableRecord
100
AcDbBlockTableRecord
  2
*D12
340
0
 70
     0
280
     1
281
     0
  0
BLOCK_RECORD
  5
1A05
330
1
100
AcDbSymbolTableRecord
100
AcDbBlockTableRecord
  2
A$C76A36C9E
340
0
 70
     0
280
     1
281
     0
  0
BLOCK_RECORD
  5
1AA8
330
1
100
AcDbSymbolTableRecord
100
AcDbBlockTableRecord
  2
*D14
340
0
 70
     0
280
     1
281
     0
  0
BLOCK_RECORD
  5
1AB4
330
1
100
AcDbSymbolTableRecord
100
AcDbBlockTableRecord
  2
*D15
340
0
 70
     0
280
     1
281
     0
  0
BLOCK_RECORD
  5
1AC0
330
1
100
AcDbSymbolTableRecord
100
AcDbBlockTableRecord
  2
*D16
340
0
 70
     0
280
     1
281
     0
  0
BLOCK_RECORD
  5
1ACC
330
1
100
AcDbSymbolTableRecord
100
AcDbBlockTableRecord
  2
*D17
340
0
 70
     0
280
     1
281
     0
  0
BLOCK_RECORD
  5
1AD8
330
1
100
AcDbSymbolTableRecord
100
AcDbBlockTableRecord
  2
*D18
340
0
 70
     0
280
     1
281
     0
  0
BLOCK_RECORD
  5
1AE6
330
1
100
AcDbSymbolTableRecord
100
AcDbBlockTableRecord
  2
*D19
340
0
 70
     0
280
     1
281
     0
  0
BLOCK_RECORD
  5
1AF2
330
1
100
AcDbSymbolTableRecord
100
AcDbBlockTableRecord
  2
*D20
340
0
 70
     0
280
     1
281
     0
  0
BLOCK_RECORD
  5
1AFE
330
1
100
AcDbSymbolTableRecord
100
AcDbBlockTableRecord
  2
*D21
340
0
 70
     0
280
     1
281
     0
  0
BLOCK_RECORD
  5
1B0A
330
1
100
AcDbSymbolTableRecord
100
AcDbBlockTableRecord
  2
A$C518B1B4A
340
0
 70
     0
280
     1
281
     0
  0
BLOCK_RECORD
  5
1E9A
330
1
100
AcDbSymbolTableRecord
100
AcDbBlockTableRecord
  2
*D23
340
0
 70
     0
280
     1
281
     0
  0
BLOCK_RECORD
  5
1EA6
330
1
100
AcDbSymbolTableRecord
100
AcDbBlockTableRecord
  2
*D24
340
0
 70
     0
280
     1
281
     0
  0
BLOCK_RECORD
  5
1EB2
330
1
100
AcDbSymbolTableRecord
100
AcDbBlockTableRecord
  2
*D25
340
0
 70
     0
280
     1
281
     0
  0
BLOCK_RECORD
  5
1EBE
330
1
100
AcDbSymbolTableRecord
100
AcDbBlockTableRecord
  2
*D26
340
0
 70
     0
280
     1
281
     0
  0
BLOCK_RECORD
  5
1ECA
330
1
100
AcDbSymbolTableRecord
100
AcDbBlockTableRecord
  2
*D27
340
0
 70
     0
280
     1
281
     0
  0
BLOCK_RECORD
  5
1ED6
330
1
100
AcDbSymbolTableRecord
100
AcDbBlockTableRecord
  2
*D28
340
0
 70
     0
280
     1
281
     0
  0
BLOCK_RECORD
  5
1EE2
330
1
100
AcDbSymbolTableRecord
100
AcDbBlockTableRecord
  2
*D29
340
0
 70
     0
280
     1
281
     0
  0
BLOCK_RECORD
  5
1F4D
330
1
100
AcDbSymbolTableRecord
100
AcDbBlockTableRecord
  2
*D30
340
0
 70
     0
280
     1
281
     0
  0
BLOCK_RECORD
  5
1F74
330
1
100
AcDbSymbolTableRecord
100
AcDbBlockTableRecord
  2
*D31
340
0
 70
     0
280
     1
281
     0
  0
BLOCK_RECORD
  5
20F8
330
1
100
AcDbSymbolTableRecord
100
AcDbBlockTableRecord
  2
*D33
340
0
 70
     0
280
     1
281
     0
  0
BLOCK_RECORD
  5
2108
330
1
100
AcDbSymbolTableRecord
100
AcDbBlockTableRecord
  2
*D34
340
0
 70
     0
280
     1
281
     0
  0
BLOCK_RECORD
  5
2119
330
1
100
AcDbSymbolTableRecord
100
AcDbBlockTableRecord
  2
*D35
340
0
 70
     0
280
     1
281
     0
  0
BLOCK_RECORD
  5
2135
330
1
100
AcDbSymbolTableRecord
100
AcDbBlockTableRecord
  2
*D36
340
0
 70
     0
280
     1
281
     0
  0
BLOCK_RECORD
  5
2141
330
1
100
AcDbSymbolTableRecord
100
AcDbBlockTableRecord
  2
*D37
340
0
 70
     0
280
     1
281
     0
  0
BLOCK_RECORD
  5
214D
330
1
100
AcDbSymbolTableRecord
100
AcDbBlockTableRecord
  2
*D38
340
0
 70
     0
280
     1
281
     0
  0
ENDTAB
  0
ENDSEC
  0
SECTION
  2
BLOCKS
  0
BLOCK
  5
22
330
21
100
AcDbEntity
  8
0
100
AcDbBlockBegin
  2
*Model_Space
 70
     0
 10
0.0
 20
0.0
 30
0.0
  3
*Model_Space
  1
*Model_Space
  0
ENDBLK
  5
23
330
21
100
AcDbEntity
  8
0
100
AcDbBlockEnd
  0
BLOCK
  5
2091
330
208F
100
AcDbEntity
 67
     1
  8
0
100
AcDbBlockBegin
  2
*Paper_Space
 70
     0
 10
0.0
 20
0.0
 30
0.0
  3
*Paper_Space
  1
*Paper_Space
  0
ENDBLK
  5
2092
330
208F
100
AcDbEntity
 67
     1
  8
0
100
AcDbBlockEnd
  0
BLOCK
  5
1584
330
1581
100
AcDbEntity
  8
0
 62
     0
100
AcDbBlockBegin
  2
_Dot
 70
     0
 10
0.0
 20
0.0
 30
0.0
  3
_Dot
  1
_Dot
  0
LWPOLYLINE
  5
1582
330
1581
100
AcDbEntity
  8
0
  6
ByBlock
 62
     0
100
AcDbPolyline
 90
        2
 70
     1
 43
0.5
 10
-0.25
 20
0.0
 42
1.0
 10
0.25
 20
0.0
 42
1.0
  0
LINE
  5
1583
330
1581
100
AcDbEntity
  8
0
  6
ByBlock
 62
     0
370
    -2
100
AcDbLine
 10
-0.5
 20
0.0
 30
0.0
 11
-1.0
 21
0.0
 31
0.0
  0
ENDBLK
  5
1585
330
1581
100
AcDbEntity
  8
0
 62
     0
100
AcDbBlockEnd
  0
BLOCK
  5
1592
330
1591
100
AcDbEntity
  8
0
 62
     0
100
AcDbBlockBegin
  2
_None
 70
     0
 10
0.0
 20
0.0
 30
0.0
  3
_None
  1
_None
  0
ENDBLK
  5
1593
330
1591
100
AcDbEntity
  8
0
 62
     0
100
AcDbBlockEnd
  0
BLOCK
  5
15A8
330
15A6
100
AcDbEntity
  8
0
 62
     0
100
AcDbBlockBegin
  2
_DatumFilled
 70
     0
 10
0.0
 20
0.0
 30
0.0
  3
_DatumFilled
  1
_DatumFilled
  0
SOLID
  5
15A7
330
15A6
100
AcDbEntity
  8
0
  6
ByBlock
 62
     0
100
AcDbTrace
 10
0.0
 20
0.57735027
 30
0.0
 11
-1.0
 21
0.0
 31
0.0
 12
0.0
 22
-0.57735027
 32
0.0
 13
0.0
 23
-0.57735027
 33
0.0
  0
ENDBLK
  5
15A9
330
15A6
100
AcDbEntity
  8
0
 62
     0
100
AcDbBlockEnd
  0
BLOCK
  5
16D1
330
16CF
100
AcDbEntity
  8
0
 62
     0
100
AcDbBlockBegin
  2
_DotSmall
 70
     0
 10
0.0
 20
0.0
 30
0.0
  3
_DotSmall
  1
_DotSmall
  0
LWPOLYLINE
  5
16D0
330
16CF
100
AcDbEntity
  8
0
  6
ByBlock
 62
     0
100
AcDbPolyline
 90
        2
 70
     1
 43
0.5
 10
-0.0625
 20
0.0
 42
1.0
 10
0.0625
 20
0.0
 42
1.0
  0
ENDBLK
  5
16D2
330
16CF
100
AcDbEntity
  8
0
 62
     0
100
AcDbBlockEnd
  0
BLOCK
  5
1993
330
1992
100
AcDbEntity
  8
0
370
    30
100
AcDbBlockBegin
  2
*D4
 70
     1
 10
0.0
 20
0.0
 30
0.0
  3
*D4
  1
*D13
  0
LINE
  5
1994
330
1992
100
AcDbEntity
  8
文字
 62
     0
370
    -2
100
AcDbLine
 10
192.2214242466307
 20
115.3847432098993
 30
0.0
 11
192.2214242466307
 21
74.91396239368606
 31
0.0
  0
LINE
  5
1995
330
1992
100
AcDbEntity
  8
文字
 62
     0
370
    -2
100
AcDbLine
 10
220.2214242466307
 20
115.3847432098993
 30
0.0
 11
220.2214242466307
 21
74.91396239368606
 31
0.0
  0
LINE
  5
1996
330
1992
100
AcDbEntity
  8
文字
 62
     0
370
    -2
100
AcDbLine
 10
194.7214242466307
 20
76.16396239368606
 30
0.0
 11
217.7214242466307
 21
76.16396239368606
 31
0.0
  0
SOLID
  5
1997
330
1992
100
AcDbEntity
  8
文字
 62
     0
100
AcDbTrace
 10
194.7214242466307
 20
76.58062906035273
 30
0.0
 11
194.7214242466307
 21
75.74729572701939
 31
0.0
 12
192.2214242466307
 22
76.16396239368606
 32
0.0
 13
192.2214242466307
 23
76.16396239368606
 33
0.0
  0
SOLID
  5
1998
330
1992
100
AcDbEntity
  8
文字
 62
     0
100
AcDbTrace
 10
217.7214242466307
 20
76.58062906035273
 30
0.0
 11
217.7214242466307
 21
75.74729572701939
 31
0.0
 12
220.2214242466307
 22
76.16396239368606
 32
0.0
 13
220.2214242466307
 23
76.16396239368606
 33
0.0
  0
MTEXT
  5
1999
330
1992
100
AcDbEntity
  8
文字
 62
     0
100
AcDbMText
 10
206.2214242466307
 20
78.03896239368606
 30
0.0
 40
2.5
 41
0.0
 46
0.0
 71
     5
 72
     1
  1
%%c28
 73
     1
 44
1.0
  0
POINT
  5
199A
330
1992
100
AcDbEntity
  8
Defpoints
 62
     0
100
AcDbPoint
 10
192.2214242466307
 20
116.0097432098993
 30
0.0
  0
POINT
  5
199B
330
1992
100
AcDbEntity
  8
Defpoints
 62
     0
100
AcDbPoint
 10
220.2214242466307
 20
116.0097432098993
 30
0.0
  0
POINT
  5
199C
330
1992
100
AcDbEntity
  8
Defpoints
 62
     0
100
AcDbPoint
 10
220.2214242466307
 20
76.16396239368606
 30
0.0
  0
ENDBLK
  5
199D
330
1992
100
AcDbEntity
  8
0
370
    30
100
AcDbBlockEnd
  0
BLOCK
  5
199F
330
199E
100
AcDbEntity
  8
0
370
    30
100
AcDbBlockBegin
  2
*D5
 70
     1
 10
0.0
 20
0.0
 30
0.0
  3
*D5
  1
*D14
  0
LINE
  5
19A0
330
199E
100
AcDbEntity
  8
文字
 62
     0
370
    -2
100
AcDbLine
 10
71.59625003018851
 20
83.94882055485836
 30
0.0
 11
55.97592567393417
 21
83.94882055485836
 31
0.0
  0
LINE
  5
19A1
330
199E
100
AcDbEntity
  8
文字
 62
     0
370
    -2
100
AcDbLine
 10
71.59625003018851
 20
82.34882055485836
 30
0.0
 11
55.97592567393417
 21
82.34882055485836
 31
0.0
  0
LINE
  5
19A2
330
199E
100
AcDbEntity
  8
文字
 62
     0
370
    -2
100
AcDbLine
 10
57.22592567393417
 20
86.44882055485836
 30
0.0
 11
57.22592567393417
 21
88.94882055485836
 31
0.0
  0
LINE
  5
19A3
330
199E
100
AcDbEntity
  8
文字
 62
     0
370
    -2
100
AcDbLine
 10
57.22592567393416
 20
79.84882055485836
 30
0.0
 11
57.22592567393416
 21
71.93215388819169
 31
0.0
  0
LINE
  5
19A4
330
199E
100
AcDbEntity
  8
文字
 62
     0
370
    -2
100
AcDbLine
 10
57.22592567393417
 20
83.94882055485836
 30
0.0
 11
57.22592567393417
 21
82.34882055485836
 31
0.0
  0
SOLID
  5
19A5
330
199E
100
AcDbEntity
  8
文字
 62
     0
100
AcDbTrace
 10
56.80925900726751
 20
86.44882055485836
 30
0.0
 11
57.64259234060084
 21
86.44882055485836
 31
0.0
 12
57.22592567393417
 22
83.94882055485836
 32
0.0
 13
57.22592567393417
 23
83.94882055485836
 33
0.0
  0
SOLID
  5
19A6
330
199E
100
AcDbEntity
  8
文字
 62
     0
100
AcDbTrace
 10
56.8092590072675
 20
79.84882055485836
 30
0.0
 11
57.64259234060083
 21
79.84882055485836
 31
0.0
 12
57.22592567393417
 22
82.34882055485836
 32
0.0
 13
57.22592567393417
 23
82.34882055485836
 33
0.0
  0
MTEXT
  5
19A7
330
199E
100
AcDbEntity
  8
文字
 62
     0
100
AcDbMText
 10
55.35092567393416
 20
74.64048722152505
 30
0.0
 40
2.5
 41
0.0
 46
0.0
 71
     5
 72
     1
  1
1.5
 11
6.123031769111886E-17
 21
1.0
 31
0.0
 73
     1
 44
1.0
  0
POINT
  5
19A8
330
199E
100
AcDbEntity
  8
Defpoints
 62
     0
100
AcDbPoint
 10
72.22125003018851
 20
83.94882055485836
 30
0.0
  0
POINT
  5
19A9
330
199E
100
AcDbEntity
  8
Defpoints
 62
     0
100
AcDbPoint
 10
72.22125003018851
 20
82.34882055485836
 30
0.0
  0
POINT
  5
19AA
330
199E
100
AcDbEntity
  8
Defpoints
 62
     0
100
AcDbPoint
 10
57.22592567393417
 20
82.34882055485836
 30
0.0
  0
ENDBLK
  5
19AB
330
199E
100
AcDbEntity
  8
0
370
    30
100
AcDbBlockEnd
  0
BLOCK
  5
19AD
330
19AC
100
AcDbEntity
  8
0
370
    30
100
AcDbBlockBegin
  2
*D6
 70
     1
 10
0.0
 20
0.0
 30
0.0
  3
*D6
  1
*D15
  0
LINE
  5
19AE
330
19AC
100
AcDbEntity
  8
文字
 62
     0
370
    -2
100
AcDbLine
 10
199.7262337182474
 20
115.3847432098993
 30
0.0
 11
199.7262337182474
 21
82.51985031794277
 31
0.0
  0
LINE
  5
19AF
330
19AC
100
AcDbEntity
  8
文字
 62
     0
370
    -2
100
AcDbLine
 10
212.716614775014
 20
115.3847432098993
 30
0.0
 11
212.716614775014
 21
82.51985031794277
 31
0.0
  0
LINE
  5
19B0
330
19AC
100
AcDbEntity
  8
文字
 62
     0
370
    -2
100
AcDbLine
 10
202.2262337182474
 20
83.76985031794277
 30
0.0
 11
210.216614775014
 21
83.76985031794277
 31
0.0
  0
SOLID
  5
19B1
330
19AC
100
AcDbEntity
  8
文字
 62
     0
100
AcDbTrace
 10
202.2262337182474
 20
84.18651698460944
 30
0.0
 11
202.2262337182474
 21
83.3531836512761
 31
0.0
 12
199.7262337182474
 22
83.76985031794277
 32
0.0
 13
199.7262337182474
 23
83.76985031794277
 33
0.0
  0
SOLID
  5
19B2
330
19AC
100
AcDbEntity
  8
文字
 62
     0
100
AcDbTrace
 10
210.216614775014
 20
84.18651698460944
 30
0.0
 11
210.216614775014
 21
83.3531836512761
 31
0.0
 12
212.716614775014
 22
83.76985031794277
 32
0.0
 13
212.716614775014
 23
83.76985031794277
 33
0.0
  0
MTEXT
  5
19B3
330
19AC
100
AcDbEntity
  8
文字
 62
     0
100
AcDbMText
 10
206.4041474863344
 20
85.64485031794277
 30
0.0
 40
2.5
 41
0.0
 46
0.0
 71
     5
 72
     1
  1
13
 73
     1
 44
1.0
  0
POINT
  5
19B4
330
19AC
100
AcDbEntity
  8
Defpoints
 62
     0
100
AcDbPoint
 10
199.7262337182474
 20
116.0097432098993
 30
0.0
  0
POINT
  5
19B5
330
19AC
100
AcDbEntity
  8
Defpoints
 62
     0
100
AcDbPoint
 10
212.716614775014
 20
116.0097432098993
 30
0.0
  0
POINT
  5
19B6
330
19AC
100
AcDbEntity
  8
Defpoints
 62
     0
100
AcDbPoint
 10
212.716614775014
 20
83.76985031794277
 30
0.0
  0
ENDBLK
  5
19B7
330
19AC
100
AcDbEntity
  8
0
370
    30
100
AcDbBlockEnd
  0
BLOCK
  5
19B9
330
19B8
100
AcDbEntity
  8
0
100
AcDbBlockBegin
  2
*D7
 70
     1
 10
0.0
 20
0.0
 30
0.0
  3
*D7
  1
*D16
  0
LINE
  5
19BA
330
19B8
100
AcDbEntity
  8
文字
 62
     0
370
    -2
100
AcDbLine
 10
87.2212500301885
 20
135.0570527207158
 30
0.0
 11
87.2212500301885
 21
147.9015722211
 31
0.0
  0
LINE
  5
19BB
330
19B8
100
AcDbEntity
  8
文字
 62
     0
370
    -2
100
AcDbLine
 10
95.22125003018851
 20
135.0570527207158
 30
0.0
 11
95.22125003018851
 21
147.9015722211
 31
0.0
  0
LINE
  5
19BC
330
19B8
100
AcDbEntity
  8
文字
 62
     0
370
    -2
100
AcDbLine
 10
89.7212500301885
 20
146.6515722211
 30
0.0
 11
92.72125003018851
 21
146.6515722211
 31
0.0
  0
SOLID
  5
19BD
330
19B8
100
AcDbEntity
  8
文字
 62
     0
100
AcDbTrace
 10
89.7212500301885
 20
147.0682388877666
 30
0.0
 11
89.7212500301885
 21
146.2349055544333
 31
0.0
 12
87.2212500301885
 22
146.6515722211
 32
0.0
 13
87.2212500301885
 23
146.6515722211
 33
0.0
  0
SOLID
  5
19BE
330
19B8
100
AcDbEntity
  8
文字
 62
     0
100
AcDbTrace
 10
92.72125003018851
 20
147.0682388877666
 30
0.0
 11
92.72125003018851
 21
146.2349055544333
 31
0.0
 12
95.22125003018851
 22
146.6515722211
 32
0.0
 13
95.22125003018851
 23
146.6515722211
 33
0.0
  0
MTEXT
  5
19BF
330
19B8
100
AcDbEntity
  8
文字
 62
     0
100
AcDbMText
 10
91.22125003018851
 20
148.5265722211
 30
0.0
 40
2.5
 41
0.0
 46
0.0
 71
     5
 72
     1
  1
{\fArial|b0|i0|c0|p32;M}8
 73
     1
 44
1.0
  0
POINT
  5
19C0
330
19B8
100
AcDbEntity
  8
Defpoints
 62
     0
100
AcDbPoint
 10
87.2212500301885
 20
134.4320527207158
 30
0.0
  0
POINT
  5
19C1
330
19B8
100
AcDbEntity
  8
Defpoints
 62
     0
100
AcDbPoint
 10
95.22125003018851
 20
134.4320527207158
 30
0.0
  0
POINT
  5
19C2
330
19B8
100
AcDbEntity
  8
Defpoints
 62
     0
100
AcDbPoint
 10
95.22125003018851
 20
146.6515722211
 30
0.0
  0
ENDBLK
  5
19C3
330
19B8
100
AcDbEntity
  8
0
100
AcDbBlockEnd
  0
BLOCK
  5
19C5
330
19C4
100
AcDbEntity
  8
0
100
AcDbBlockBegin
  2
*D8
 70
     1
 10
0.0
 20
0.0
 30
0.0
  3
*D8
  1
*D17
  0
LINE
  5
19C6
330
19C4
100
AcDbEntity
  8
文字
 62
     0
370
    -2
100
AcDbLine
 10
72.22125003018851
 20
81.72382055485836
 30
0.0
 11
72.22125003018851
 21
61.64683633055239
 31
0.0
  0
LINE
  5
19C7
330
19C4
100
AcDbEntity
  8
文字
 62
     0
370
    -2
100
AcDbLine
 10
110.2212500301885
 20
81.72382055485835
 30
0.0
 11
110.2212500301885
 21
61.64683633055239
 31
0.0
  0
LINE
  5
19C8
330
19C4
100
AcDbEntity
  8
文字
 62
     0
370
    -2
100
AcDbLine
 10
74.72125003018851
 20
62.89683633055239
 30
0.0
 11
107.7212500301885
 21
62.89683633055239
 31
0.0
  0
SOLID
  5
19C9
330
19C4
100
AcDbEntity
  8
文字
 62
     0
100
AcDbTrace
 10
74.72125003018851
 20
63.31350299721905
 30
0.0
 11
74.72125003018851
 21
62.48016966388573
 31
0.0
 12
72.22125003018851
 22
62.89683633055239
 32
0.0
 13
72.22125003018851
 23
62.89683633055239
 33
0.0
  0
SOLID
  5
19CA
330
19C4
100
AcDbEntity
  8
文字
 62
     0
100
AcDbTrace
 10
107.7212500301885
 20
63.31350299721905
 30
0.0
 11
107.7212500301885
 21
62.48016966388573
 31
0.0
 12
110.2212500301885
 22
62.89683633055239
 32
0.0
 13
110.2212500301885
 23
62.89683633055239
 33
0.0
  0
MTEXT
  5
19CB
330
19C4
100
AcDbEntity
  8
文字
 62
     0
100
AcDbMText
 10
91.22125003018851
 20
64.77183633055239
 30
0.0
 40
2.5
 41
0.0
 46
0.0
 71
     5
 72
     1
  1
%%c38
 73
     1
 44
1.0
  0
POINT
  5
19CC
330
19C4
100
AcDbEntity
  8
Defpoints
 62
     0
100
AcDbPoint
 10
72.22125003018851
 20
82.34882055485836
 30
0.0
  0
POINT
  5
19CD
330
19C4
100
AcDbEntity
  8
Defpoints
 62
     0
100
AcDbPoint
 10
110.2212500301885
 20
82.34882055485835
 30
0.0
  0
POINT
  5
19CE
330
19C4
100
AcDbEntity
  8
Defpoints
 62
     0
100
AcDbPoint
 10
110.2212500301885
 20
62.89683633055239
 30
0.0
  0
ENDBLK
  5
19CF
330
19C4
100
AcDbEntity
  8
0
100
AcDbBlockEnd
  0
BLOCK
  5
19D1
330
19D0
100
AcDbEntity
  8
0
100
AcDbBlockBegin
  2
*D9
 70
     1
 10
0.0
 20
0.0
 30
0.0
  3
*D9
  1
*D18
  0
LINE
  5
19D2
330
19D0
100
AcDbEntity
  8
文字
 62
     0
370
    -2
100
AcDbLine
 10
110.8462500301885
 20
82.34882055485835
 30
0.0
 11
126.0779593090463
 21
82.34882055485835
 31
0.0
  0
LINE
  5
19D3
330
19D0
100
AcDbEntity
  8
文字
 62
     0
370
    -2
100
AcDbLine
 10
96.86248092256537
 20
94.93228662189009
 30
0.0
 11
126.0779593090463
 21
94.93228662189009
 31
0.0
  0
LINE
  5
19D4
330
19D0
100
AcDbEntity
  8
文字
 62
     0
370
    -2
100
AcDbLine
 10
124.8279593090463
 20
84.84882055485835
 30
0.0
 11
124.8279593090463
 21
92.43228662189009
 31
0.0
  0
SOLID
  5
19D5
330
19D0
100
AcDbEntity
  8
文字
 62
     0
100
AcDbTrace
 10
124.4112926423796
 20
84.84882055485835
 30
0.0
 11
125.2446259757129
 21
84.84882055485835
 31
0.0
 12
124.8279593090463
 22
82.34882055485835
 32
0.0
 13
124.8279593090463
 23
82.34882055485835
 33
0.0
  0
SOLID
  5
19D6
330
19D0
100
AcDbEntity
  8
文字
 62
     0
100
AcDbTrace
 10
124.4112926423796
 20
92.43228662189009
 30
0.0
 11
125.2446259757129
 21
92.43228662189009
 31
0.0
 12
124.8279593090463
 22
94.93228662189009
 32
0.0
 13
124.8279593090463
 23
94.93228662189009
 33
0.0
  0
MTEXT
  5
19D7
330
19D0
100
AcDbEntity
  8
文字
 62
     0
100
AcDbMText
 10
122.9529593090462
 20
88.64055358837423
 30
0.0
 40
2.5
 41
0.0
 46
0.0
 71
     5
 72
     1
  1
13
 11
6.123031769111886E-17
 21
1.0
 31
0.0
 73
     1
 44
1.0
  0
POINT
  5
19D8
330
19D0
100
AcDbEntity
  8
Defpoints
 62
     0
100
AcDbPoint
 10
110.2212500301885
 20
82.34882055485835
 30
0.0
  0
POINT
  5
19D9
330
19D0
100
AcDbEntity
  8
Defpoints
 62
     0
100
AcDbPoint
 10
96.23748092256537
 20
94.93228662189009
 30
0.0
  0
POINT
  5
19DA
330
19D0
100
AcDbEntity
  8
Defpoints
 62
     0
100
AcDbPoint
 10
124.8279593090463
 20
94.93228662189009
 30
0.0
  0
ENDBLK
  5
19DB
330
19D0
100
AcDbEntity
  8
0
100
AcDbBlockEnd
  0
BLOCK
  5
19DD
330
19DC
100
AcDbEntity
  8
0
100
AcDbBlockBegin
  2
*D10
 70
     1
 10
0.0
 20
0.0
 30
0.0
  3
*D10
  1
*D19
  0
LINE
  5
19DE
330
19DC
100
AcDbEntity
  8
文字
 62
     0
370
    -2
100
AcDbLine
 10
96.86248092256537
 20
94.93228662189009
 30
0.0
 11
126.0779593090463
 21
94.93228662189009
 31
0.0
  0
LINE
  5
19DF
330
19DC
100
AcDbEntity
  8
文字
 62
     0
370
    -2
100
AcDbLine
 10
99.37863313321532
 20
100.4320527207158
 30
0.0
 11
126.0779593090463
 21
100.4320527207158
 31
0.0
  0
LINE
  5
19E0
330
19DC
100
AcDbEntity
  8
文字
 62
     0
370
    -2
100
AcDbLine
 10
124.8279593090463
 20
92.43228662189009
 30
0.0
 11
124.8279593090463
 21
89.93228662189009
 31
0.0
  0
LINE
  5
19E1
330
19DC
100
AcDbEntity
  8
文字
 62
     0
370
    -2
100
AcDbLine
 10
124.8279593090463
 20
102.9320527207158
 30
0.0
 11
124.8279593090463
 21
105.4320527207158
 31
0.0
  0
LINE
  5
19E2
330
19DC
100
AcDbEntity
  8
文字
 62
     0
370
    -2
100
AcDbLine
 10
124.8279593090463
 20
97.68216967130294
 30
0.0
 11
130.7654593090463
 21
99.46341967130294
 31
0.0
  0
LINE
  5
19E3
330
19DC
100
AcDbEntity
  8
文字
 62
     0
370
    -2
100
AcDbLine
 10
130.7654593090463
 20
99.46341967130294
 30
0.0
 11
130.7654593090463
 21
105.7134196713029
 31
0.0
  0
MTEXT
  5
19E4
330
19DC
100
AcDbEntity
  8
文字
 62
     0
100
AcDbMText
 10
128.8904593090463
 20
102.588419671303
 30
0.0
 40
2.5
 41
0.0
 46
0.0
 71
     5
 72
     1
  1
5.5
 11
6.123031769111886E-17
 21
1.0
 31
0.0
 73
     1
 44
1.0
  0
LINE
  5
19E5
330
19DC
100
AcDbEntity
  8
文字
 62
     0
370
    -2
100
AcDbLine
 10
124.8279593090463
 20
94.93228662189009
 30
0.0
 11
124.8279593090463
 21
100.4320527207158
 31
0.0
  0
LINE
  5
19E6
330
19DC
100
AcDbEntity
  8
文字
 62
     0
370
    -2
100
AcDbLine
 10
124.8279593090463
 20
94.93228662189009
 30
0.0
 11
124.8279593090463
 21
100.4320527207158
 31
0.0
  0
SOLID
  5
19E7
330
19DC
100
AcDbEntity
  8
文字
 62
     0
100
AcDbTrace
 10
124.4112926423796
 20
92.43228662189009
 30
0.0
 11
125.2446259757129
 21
92.43228662189009
 31
0.0
 12
124.8279593090463
 22
94.93228662189009
 32
0.0
 13
124.8279593090463
 23
94.93228662189009
 33
0.0
  0
SOLID
  5
19E8
330
19DC
100
AcDbEntity
  8
文字
 62
     0
100
AcDbTrace
 10
124.4112926423796
 20
102.9320527207158
 30
0.0
 11
125.2446259757129
 21
102.9320527207158
 31
0.0
 12
124.8279593090463
 22
100.4320527207158
 32
0.0
 13
124.8279593090463
 23
100.4320527207158
 33
0.0
  0
POINT
  5
19E9
330
19DC
100
AcDbEntity
  8
Defpoints
 62
     0
100
AcDbPoint
 10
96.23748092256537
 20
94.93228662189009
 30
0.0
  0
POINT
  5
19EA
330
19DC
100
AcDbEntity
  8
Defpoints
 62
     0
100
AcDbPoint
 10
98.75363313321532
 20
100.4320527207158
 30
0.0
  0
POINT
  5
19EB
330
19DC
100
AcDbEntity
  8
Defpoints
 62
     0
100
AcDbPoint
 10
124.8279593090463
 20
100.4320527207158
 30
0.0
  0
ENDBLK
  5
19EC
330
19DC
100
AcDbEntity
  8
0
100
AcDbBlockEnd
  0
BLOCK
  5
19EE
330
19ED
100
AcDbEntity
  8
0
100
AcDbBlockBegin
  2
*D11
 70
     1
 10
0.0
 20
0.0
 30
0.0
  3
*D11
  1
*D20
  0
LINE
  5
19EF
330
19ED
100
AcDbEntity
  8
文字
 62
     0
370
    -2
100
AcDbLine
 10
99.37863313321532
 20
100.4320527207158
 30
0.0
 11
126.0779593090463
 21
100.4320527207158
 31
0.0
  0
LINE
  5
19F0
330
19ED
100
AcDbEntity
  8
文字
 62
     0
370
    -2
100
AcDbLine
 10
94.84625003018851
 20
135.4320527207158
 30
0.0
 11
126.0779593090463
 21
135.4320527207158
 31
0.0
  0
LINE
  5
19F1
330
19ED
100
AcDbEntity
  8
文字
 62
     0
370
    -2
100
AcDbLine
 10
124.8279593090463
 20
102.9320527207158
 30
0.0
 11
124.8279593090463
 21
132.9320527207158
 31
0.0
  0
SOLID
  5
19F2
330
19ED
100
AcDbEntity
  8
文字
 62
     0
100
AcDbTrace
 10
124.4112926423796
 20
102.9320527207158
 30
0.0
 11
125.2446259757129
 21
102.9320527207158
 31
0.0
 12
124.8279593090463
 22
100.4320527207158
 32
0.0
 13
124.8279593090463
 23
100.4320527207158
 33
0.0
  0
SOLID
  5
19F3
330
19ED
100
AcDbEntity
  8
文字
 62
     0
100
AcDbTrace
 10
124.4112926423796
 20
132.9320527207158
 30
0.0
 11
125.2446259757129
 21
132.9320527207158
 31
0.0
 12
124.8279593090463
 22
135.4320527207158
 32
0.0
 13
124.8279593090463
 23
135.4320527207158
 33
0.0
  0
MTEXT
  5
19F4
330
19ED
100
AcDbEntity
  8
文字
 62
     0
100
AcDbMText
 10
122.9529593090463
 20
117.9320527207158
 30
0.0
 40
2.5
 41
0.0
 46
0.0
 71
     5
 72
     1
  1
35
 11
6.123031769111886E-17
 21
1.0
 31
0.0
 73
     1
 44
1.0
  0
POINT
  5
19F5
330
19ED
100
AcDbEntity
  8
Defpoints
 62
     0
100
AcDbPoint
 10
98.75363313321532
 20
100.4320527207158
 30
0.0
  0
POINT
  5
19F6
330
19ED
100
AcDbEntity
  8
Defpoints
 62
     0
100
AcDbPoint
 10
94.22125003018851
 20
135.4320527207158
 30
0.0
  0
POINT
  5
19F7
330
19ED
100
AcDbEntity
  8
Defpoints
 62
     0
100
AcDbPoint
 10
124.8279593090463
 20
135.4320527207158
 30
0.0
  0
ENDBLK
  5
19F8
330
19ED
100
AcDbEntity
  8
0
100
AcDbBlockEnd
  0
BLOCK
  5
19FA
330
19F9
100
AcDbEntity
  8
0
100
AcDbBlockBegin
  2
*D12
 70
     1
 10
0.0
 20
0.0
 30
0.0
  3
*D12
  1
*D21
  0
LINE
  5
19FB
330
19F9
100
AcDbEntity
  8
文字
 62
     0
370
    -2
100
AcDbLine
 10
110.8462500301885
 20
82.34882055485835
 30
0.0
 11
141.6100264422735
 21
82.34882055485835
 31
0.0
  0
LINE
  5
19FC
330
19F9
100
AcDbEntity
  8
文字
 62
     0
370
    -2
100
AcDbLine
 10
94.84625003018851
 20
135.4320527207158
 30
0.0
 11
141.6100264422735
 21
135.4320527207158
 31
0.0
  0
LINE
  5
19FD
330
19F9
100
AcDbEntity
  8
文字
 62
     0
370
    -2
100
AcDbLine
 10
140.3600264422735
 20
84.84882055485835
 30
0.0
 11
140.3600264422735
 21
132.9320527207158
 31
0.0
  0
SOLID
  5
19FE
330
19F9
100
AcDbEntity
  8
文字
 62
     0
100
AcDbTrace
 10
139.9433597756068
 20
84.84882055485835
 30
0.0
 11
140.7766931089401
 21
84.84882055485835
 31
0.0
 12
140.3600264422735
 22
82.34882055485835
 32
0.0
 13
140.3600264422735
 23
82.34882055485835
 33
0.0
  0
SOLID
  5
19FF
330
19F9
100
AcDbEntity
  8
文字
 62
     0
100
AcDbTrace
 10
139.9433597756068
 20
132.9320527207158
 30
0.0
 11
140.7766931089401
 21
132.9320527207158
 31
0.0
 12
140.3600264422735
 22
135.4320527207158
 32
0.0
 13
140.3600264422735
 23
135.4320527207158
 33
0.0
  0
MTEXT
  5
1A00
330
19F9
100
AcDbEntity
  8
文字
 62
     0
100
AcDbMText
 10
138.4850264422734
 20
108.8904366377871
 30
0.0
 40
2.5
 41
0.0
 46
0.0
 71
     5
 72
     1
  1
53.5
 11
6.123031769111886E-17
 21
1.0
 31
0.0
 73
     1
 44
1.0
  0
POINT
  5
1A01
330
19F9
100
AcDbEntity
  8
Defpoints
 62
     0
100
AcDbPoint
 10
110.2212500301885
 20
82.34882055485835
 30
0.0
  0
POINT
  5
1A02
330
19F9
100
AcDbEntity
  8
Defpoints
 62
     0
100
AcDbPoint
 10
94.22125003018851
 20
135.4320527207158
 30
0.0
  0
POINT
  5
1A03
330
19F9
100
AcDbEntity
  8
Defpoints
 62
     0
100
AcDbPoint
 10
140.3600264422735
 20
135.4320527207158
 30
0.0
  0
ENDBLK
  5
1A04
330
19F9
100
AcDbEntity
  8
0
100
AcDbBlockEnd
  0
BLOCK
  5
1A4C
330
1A05
100
AcDbEntity
  8
0
 62
     0
100
AcDbBlockBegin
  2
A$C76A36C9E
 70
     0
 10
0.0
 20
0.0
 30
0.0
  3
A$C76A36C9E
  1
A$C76A36C9E
  0
LWPOLYLINE
  5
1A06
330
1A05
100
AcDbEntity
  8
実線
370
    50
100
AcDbPolyline
 90
        6
 70
     0
 43
0.0
 10
-136.9787502058973
 20
95.18495711771044
 10
-136.9787502058973
 20
115.6320525348278
 10
-137.9787502058973
 20
116.6320525348278
 10
-143.9787502058973
 20
116.6320525348278
 10
-144.9787502058973
 20
115.6320525348278
 10
-144.9787502058973
 20
95.18495711771044
  0
LINE
  5
1A07
330
1A05
100
AcDbEntity
  8
実線
370
    20
100
AcDbLine
 10
-137.9787502058973
 20
88.68519101888472
 30
0.0
 11
-137.9787502058973
 21
81.6320525348278
 31
0.0
  0
LINE
  5
1A08
330
1A05
100
AcDbEntity
  8
実線
370
    20
100
AcDbLine
 10
-143.9787502058973
 20
88.68519101888475
 30
0.0
 11
-143.9787502058973
 21
81.6320525348278
 31
0.0
  0
LWPOLYLINE
  5
1A09
330
1A05
100
AcDbEntity
  8
実線
370
    50
100
AcDbPolyline
 90
        4
 70
     0
 43
0.0
 10
-133.4463671028705
 20
89.68495711771044
 10
-133.4463671028705
 20
95.18495711771044
 10
-148.4463671028705
 20
95.18495711771044
 10
-148.4463671028705
 20
89.68495711771044
  0
LINE
  5
1A0A
330
1A05
100
AcDbEntity
  8
実線
370
    50
100
AcDbLine
 10
-144.3456442458684
 20
95.18495711771044
 30
0.0
 11
-144.3456442458684
 21
89.68495711771044
 31
0.0
  0
LINE
  5
1A0B
330
1A05
100
AcDbEntity
  8
実線
370
    50
100
AcDbLine
 10
-137.4873226877818
 20
95.18495711771044
 30
0.0
 11
-137.4873226877818
 21
89.68495711771044
 31
0.0
  0
ARC
  5
1A0C
330
1A05
100
AcDbEntity
  8
実線
370
    50
100
AcDbCircle
 10
-146.3960056743694
 20
91.28535523740777
 30
0.0
 40
2.601010597636193
100
AcDbArc
 50
217.973618634994
 51
322.0263813650058
  0
ARC
  5
1A0D
330
1A05
100
AcDbEntity
  8
実線
370
    50
100
AcDbCircle
 10
-140.916483466825
 20
95.06408242612318
 30
0.0
 40
6.379195304435764
100
AcDbArc
 50
237.4827287485465
 51
302.5172712514534
  0
ARC
  5
1A0E
330
1A05
100
AcDbEntity
  8
実線
370
    50
100
AcDbCircle
 10
-135.4668448953261
 20
91.22496313739819
 30
0.0
 40
2.540462369428222
100
AcDbArc
 50
217.3146110078773
 51
322.6853889921216
  0
LINE
  5
1A0F
330
1A05
100
AcDbEntity
  8
実線
370
    50
100
AcDbLine
 10
-140.9787502058973
 20
88.68519101888472
 30
0.0
 11
-145.9949810982741
 21
88.68519101888472
 31
0.0
  0
LINE
  5
1A10
330
1A05
100
AcDbEntity
  8
実線
370
    50
100
AcDbLine
 10
-140.9787502058976
 20
88.68519101888472
 30
0.0
 11
-135.9625193135205
 21
88.68519101888472
 31
0.0
  0
DIMENSION
  5
1A11
102
{ACAD_REACTORS
330
1A13
102
}
102
{ACAD_XDICTIONARY
360
1A12
102
}
330
1A05
100
AcDbEntity
  8
文字
100
AcDbDimension
280
     0
  2
*D12
 10
-91.83997379381236
 20
116.6320525348278
 30
0.0
 11
-93.71497379381239
 21
90.09043645189911
 31
0.0
 12
-232.2000002360858
 22
-18.80000018588799
 32
0.0
 70
    32
  1
53.5
 71
     5
 42
53.08323216585745
 73
     0
 74
     0
 75
     0
  3
ISO-25
100
AcDbAlignedDimension
 13
-121.9787502058973
 23
63.54882036897036
 33
0.0
 14
-137.9787502058973
 24
116.6320525348278
 34
0.0
 50
90.0
100
AcDbRotatedDimension
  0
LINE
  5
1A14
330
1A05
100
AcDbEntity
  8
中心線
100
AcDbLine
 10
-25.97857598945512
 20
97.20974302401129
 30
0.0
 11
-25.97857598945512
 21
73.28463913907507
 31
0.0
  0
LINE
  5
1A15
330
1A05
100
AcDbEntity
  8
中心線
100
AcDbLine
 10
-25.97857598945512
 20
97.20974302401129
 30
0.0
 11
-25.97857598945512
 21
122.905154338709
 31
0.0
  0
DIMENSION
  5
1A16
102
{ACAD_REACTORS
330
1A18
102
}
102
{ACAD_XDICTIONARY
360
1A17
102
}
330
1A05
100
AcDbEntity
  8
文字
100
AcDbDimension
280
     0
  2
*D11
 10
-107.3720409270395
 20
116.6320525348278
 30
0.0
 11
-109.2470409270396
 21
99.13205253482784
 31
0.0
 12
-232.2000002360858
 22
-18.80000018588799
 32
0.0
 70
    32
 71
     5
 42
35.0
 73
     0
 74
     0
 75
     0
  3
ISO-25
100
AcDbAlignedDimension
 13
-133.4463671028705
 23
81.6320525348278
 33
0.0
 14
-137.9787502058973
 24
116.6320525348278
 34
0.0
 50
90.0
100
AcDbRotatedDimension
1001
ACAD
1000
DSTYLE
1002
{
1070
   279
1070
     1
1002
}
  0
DIMENSION
  5
1A19
102
{ACAD_REACTORS
330
1A1B
102
}
102
{ACAD_XDICTIONARY
360
1A1A
102
}
330
1A05
100
AcDbEntity
  8
文字
100
AcDbDimension
280
     0
  2
*D10
 10
-107.3720409270395
 20
81.6320525348278
 30
0.0
 11
-103.3095409270396
 21
81.28841948541498
 31
0.0
 12
-232.2000002360858
 22
-18.80000018588799
 32
0.0
 70
    32
 71
     5
 42
5.499766098825717
 73
     0
 74
     0
 75
     0
  3
ISO-25
100
AcDbAlignedDimension
 13
-135.9625193135205
 23
76.13228643600209
 33
0.0
 14
-133.4463671028705
 24
81.6320525348278
 34
0.0
 50
90.0
100
AcDbRotatedDimension
1001
ACAD
1000
DSTYLE
1002
{
1070
   279
1070
     1
1002
}
  0
DIMENSION
  5
1A1C
102
{ACAD_REACTORS
330
1A1E
102
}
102
{ACAD_XDICTIONARY
360
1A1D
102
}
330
1A05
100
AcDbEntity
  8
文字
100
AcDbDimension
280
     0
  2
*D9
 10
-107.3720409270396
 20
76.13228643600209
 30
0.0
 11
-109.2470409270396
 21
69.84055340248625
 31
0.0
 12
-232.2000002360858
 22
-18.80000018588799
 32
0.0
 70
    32
  1
13
 71
     5
 42
12.58346606703174
 73
     0
 74
     0
 75
     0
  3
ISO-25
100
AcDbAlignedDimension
 13
-121.9787502058973
 23
63.54882036897036
 33
0.0
 14
-135.9625193135205
 24
76.13228643600209
 34
0.0
 50
90.0
100
AcDbRotatedDimension
  0
DIMENSION
  5
1A1F
330
1A05
100
AcDbEntity
  8
文字
100
AcDbDimension
280
     0
  2
*D8
 10
-121.9787502058973
 20
44.0968361446644
 30
0.0
 11
-140.9787502058973
 21
45.9718361446644
 31
0.0
 12
-232.2000002360858
 22
-18.80000018588799
 32
0.0
 70
    32
  1
%%c<>
 71
     5
 42
38.0
 73
     0
 74
     0
 75
     0
  3
ISO-25
100
AcDbAlignedDimension
 13
-159.9787502058973
 23
63.54882036897038
 33
0.0
 14
-121.9787502058973
 24
63.54882036897036
 34
0.0
100
AcDbRotatedDimension
  0
DIMENSION
  5
1A20
102
{ACAD_REACTORS
330
1A22
102
}
102
{ACAD_XDICTIONARY
360
1A21
102
}
330
1A05
100
AcDbEntity
  8
文字
100
AcDbDimension
280
     0
  2
*D7
 10
-136.9787502058973
 20
127.851572035212
 30
0.0
 11
-140.9787502058973
 21
129.726572035212
 31
0.0
 12
-232.2000002360858
 22
-18.80000018588799
 32
0.0
 70
    32
  1
{\fArial|b0|i0|c0|p32;M}<>
 71
     5
 42
8.000000000000014
 73
     0
 74
     0
 75
     0
  3
ISO-25
100
AcDbAlignedDimension
 13
-144.9787502058973
 23
115.6320525348278
 33
0.0
 14
-136.9787502058973
 24
115.6320525348278
 34
0.0
100
AcDbRotatedDimension
  0
LINE
  5
1A23
102
{ACAD_REACTORS
330
1A18
330
1A13
102
}
330
1A05
100
AcDbEntity
  8
実線
370
    20
100
AcDbLine
 10
-137.9787502058973
 20
116.6320525348278
 30
0.0
 11
-137.9787502058973
 21
95.18495711771044
 31
0.0
  0
LINE
  5
1A24
330
1A05
100
AcDbEntity
  8
実線
370
    20
100
AcDbLine
 10
-143.9787502058973
 20
116.6320525348278
 30
0.0
 11
-143.9787502058973
 21
95.18495711771044
 31
0.0
  0
LINE
  5
1A25
102
{ACAD_REACTORS
330
1A22
102
}
330
1A05
100
AcDbEntity
  8
実線
370
    20
100
AcDbLine
 10
-144.9787502058973
 20
115.6320525348278
 30
0.0
 11
-136.9787502058973
 21
115.6320525348278
 31
0.0
  0
LWPOLYLINE
  5
1A26
330
1A05
100
AcDbEntity
  8
実線
370
    50
100
AcDbPolyline
 90
        4
 70
     0
 43
0.0
 10
-144.9787502058973
 20
88.68519101888472
 10
-144.9787502058973
 20
81.6320525348278
 10
-136.9787502058973
 20
81.6320525348278
 10
-136.9787502058973
 20
88.68519101888472
  0
DIMENSION
  5
1A27
102
{ACAD_REACTORS
330
1A29
102
}
102
{ACAD_XDICTIONARY
360
1A28
102
}
330
1A05
100
AcDbEntity
  8
文字
100
AcDbDimension
280
     0
  2
*D6
 10
-19.48338546107183
 20
64.96985013205477
 30
0.0
 11
-25.79585274975142
 21
64.96985013205477
 31
0.0
 12
-232.2000002360858
 22
-18.80000018588799
 32
0.0
 70
   128
  1
13
 71
     5
 42
12.99038105676658
 73
     0
 74
     0
 75
     0
  3
ISO-25
100
AcDbAlignedDimension
 13
-32.47376651783841
 23
97.20974302401126
 33
0.0
 14
-19.48338546107183
 24
97.20974302401129
 34
0.0
100
AcDbRotatedDimension
  0
DIMENSION
  5
1A2A
102
{ACAD_REACTORS
330
1A2C
102
}
102
{ACAD_XDICTIONARY
360
1A2B
102
}
330
1A05
100
AcDbEntity
  8
文字
100
AcDbDimension
280
     0
  2
*D5
 10
-174.9740745621517
 20
63.54882036897038
 30
0.0
 11
-176.8490745621517
 21
55.84048703563706
 31
0.0
 12
-232.2000002360858
 22
-18.80000018588799
 32
0.0
 70
    32
  1
1.5
 71
     5
 42
1.599999999999994
 73
     0
 74
     0
 75
     0
  3
ISO-25
100
AcDbAlignedDimension
 13
-159.9787502058973
 23
65.14882036897038
 33
0.0
 14
-159.9787502058973
 24
63.54882036897038
 34
0.0
 50
90.0
100
AcDbRotatedDimension
  0
CIRCLE
  5
1A2D
330
1A05
100
AcDbEntity
  8
実線
370
    20
100
AcDbCircle
 10
-25.97857598945512
 20
97.20974302401129
 30
0.0
 40
3.4
  0
CIRCLE
  5
1A2E
330
1A05
100
AcDbEntity
  8
実線
370
    50
100
AcDbCircle
 10
-25.97857598945512
 20
97.20974302401129
 30
0.0
 40
4.0
  0
LWPOLYLINE
  5
1A2F
102
{ACAD_REACTORS
330
1A29
102
}
330
1A05
100
AcDbEntity
  8
実線
370
    50
100
AcDbPolyline
 90
        6
 70
     1
 43
0.0
 10
-19.48338546107183
 20
100.9597430240113
 10
-25.97857598945512
 20
104.7097430240113
 10
-32.47376651783841
 20
100.9597430240113
 10
-32.47376651783841
 20
93.45974302401126
 10
-25.97857598945512
 20
89.70974302401126
 10
-19.48338546107183
 20
93.45974302401126
  0
DIMENSION
  5
1A30
102
{ACAD_REACTORS
330
1A32
102
}
102
{ACAD_XDICTIONARY
360
1A31
102
}
330
1A05
100
AcDbEntity
  8
文字
100
AcDbDimension
280
     0
  2
*D4
 10
-11.97857598945512
 20
57.36396220779807
 30
0.0
 11
-25.97857598945512
 21
59.23896220779807
 31
0.0
 12
-232.2000002360858
 22
-18.80000018588799
 32
0.0
 70
    32
  1
%%c<>
 71
     5
 42
28.0
 73
     0
 74
     0
 75
     0
  3
ISO-25
100
AcDbAlignedDimension
 13
-39.97857598945512
 23
97.20974302401129
 33
0.0
 14
-11.97857598945512
 24
97.20974302401129
 34
0.0
100
AcDbRotatedDimension
  0
ARC
  5
1A33
330
1A05
100
AcDbEntity
  8
実線
370
    50
100
AcDbCircle
 10
-140.9787502058973
 20
62.86352625132333
 30
0.0
 40
14.18529411764706
100
AcDbArc
 50
110.7090084471018
 51
164.6470298493059
  0
LINE
  5
1A34
102
{ACAD_REACTORS
330
1A1E
330
1A1B
102
}
330
1A05
100
AcDbEntity
  8
実線
370
    50
100
AcDbLine
 10
-140.9787502058976
 20
76.13228643600209
 30
0.0
 11
-135.9625193135205
 21
76.13228643600209
 31
0.0
  0
LINE
  5
1A35
330
1A05
100
AcDbEntity
  8
実線
370
    50
100
AcDbLine
 10
-140.9787502058973
 20
76.13228643600209
 30
0.0
 11
-145.9949810982741
 21
76.13228643600209
 31
0.0
  0
ARC
  5
1A36
330
1A05
100
AcDbEntity
  8
実線
370
    50
100
AcDbCircle
 10
-135.4668448953261
 20
78.67205855451556
 30
0.0
 40
2.540462369428222
100
AcDbArc
 50
217.3146110078773
 51
322.6853889921216
  0
ARC
  5
1A37
330
1A05
100
AcDbEntity
  8
実線
370
    50
100
AcDbCircle
 10
-140.916483466825
 20
82.51117784324055
 30
0.0
 40
6.379195304435764
100
AcDbArc
 50
237.4827287485465
 51
302.5172712514534
  0
ARC
  5
1A38
330
1A05
100
AcDbEntity
  8
実線
370
    50
100
AcDbCircle
 10
-146.3960056743694
 20
78.73245065452514
 30
0.0
 40
2.601010597636193
100
AcDbArc
 50
217.973618634994
 51
322.0263813650058
  0
LINE
  5
1A39
330
1A05
100
AcDbEntity
  8
実線
370
    50
100
AcDbLine
 10
-137.4873226877818
 20
81.6320525348278
 30
0.0
 11
-137.4873226877818
 21
77.1320525348278
 31
0.0
  0
LINE
  5
1A3A
330
1A05
100
AcDbEntity
  8
実線
370
    50
100
AcDbLine
 10
-144.3456442458684
 20
81.6320525348278
 30
0.0
 11
-144.3456442458684
 21
77.1320525348278
 31
0.0
  0
LWPOLYLINE
  5
1A3B
102
{ACAD_REACTORS
330
1A1B
330
1A18
102
}
330
1A05
100
AcDbEntity
  8
実線
370
    50
100
AcDbPolyline
 90
        4
 70
     0
 43
0.0
 10
-133.4463671028705
 20
77.1320525348278
 10
-133.4463671028705
 20
81.6320525348278
 10
-148.4463671028705
 20
81.6320525348278
 10
-148.4463671028705
 20
77.1320525348278
  0
LINE
  5
1A3C
102
{ACAD_REACTORS
330
1A29
102
}
330
1A05
100
AcDbEntity
  8
中心線
100
AcDbLine
 10
-56.39333659375262
 20
97.20974302401129
 30
0.0
 11
-16.39090544331049
 21
97.20974302401129
 31
0.0
  0
LINE
  5
1A3D
330
1A05
100
AcDbEntity
  8
実線
370
    50
100
AcDbLine
 10
-156.4653650853308
 20
65.14882036897038
 30
0.0
 11
-125.371059793796
 21
65.14882036897035
 31
0.0
  0
LINE
  5
1A3E
330
1A05
100
AcDbEntity
  8
中心線
100
AcDbLine
 10
-16.39090544331049
 20
97.20974302401129
 30
0.0
 11
4.251392774196745
 21
97.20974302401129
 31
0.0
  0
CIRCLE
  5
1A3F
330
1A05
100
AcDbEntity
  8
実線
370
    50
100
AcDbCircle
 10
-25.97857598945512
 20
97.20974302401129
 30
0.0
 40
19.0
  0
CIRCLE
  5
1A40
102
{ACAD_REACTORS
330
1A32
102
}
330
1A05
100
AcDbEntity
  8
実線
370
    50
100
AcDbCircle
 10
-25.97857598945512
 20
97.20974302401129
 30
0.0
 40
14.0
  0
ARC
  5
1A41
330
1A05
100
AcDbEntity
  8
実線
370
    50
100
AcDbCircle
 10
-125.371059793796
 20
67.14882036897038
 30
0.0
 40
2.0
100
AcDbArc
 50
195.3529701506943
 51
270.0
  0
LINE
  5
1A42
330
1A05
100
AcDbEntity
  8
実線
370
    50
100
AcDbLine
 10
-125.371059793796
 20
65.14882036897035
 30
0.0
 11
-121.9787502058973
 21
65.14882036897035
 31
0.0
  0
ARC
  5
1A43
330
1A05
100
AcDbEntity
  8
実線
370
    50
100
AcDbCircle
 10
-156.5864406179986
 20
67.14882036897038
 30
0.0
 40
2.0
100
AcDbArc
 50
270.0
 51
344.6470298493056
  0
ARC
  5
1A44
102
{ACAD_REACTORS
330
1A1E
330
1A1B
102
}
330
1A05
100
AcDbEntity
  8
実線
370
    50
100
AcDbCircle
 10
-140.9787502058973
 20
62.86352625132333
 30
0.0
 40
14.18529411764706
100
AcDbArc
 50
15.35297015069416
 51
69.29099155289825
  0
LINE
  5
1A45
330
1A05
100
AcDbEntity
  8
実線
370
    50
100
AcDbLine
 10
-156.4653650853308
 20
65.14882036897038
 30
0.0
 11
-156.5864406179986
 21
65.14882036897038
 31
0.0
  0
LINE
  5
1A46
102
{ACAD_REACTORS
330
1A2C
102
}
330
1A05
100
AcDbEntity
  8
実線
370
    50
100
AcDbLine
 10
-159.9787502058973
 20
65.14882036897038
 30
0.0
 11
-156.4653650853308
 21
65.14882036897038
 31
0.0
  0
LINE
  5
1A47
330
1A05
100
AcDbEntity
  8
中心線
100
AcDbLine
 10
-140.9787502058973
 20
52.63205253482781
 30
0.0
 11
-140.9787502058973
 21
125.3376695381868
 31
0.0
  0
LINE
  5
1A48
102
{ACAD_REACTORS
330
1A1E
330
1A13
102
}
330
1A05
100
AcDbEntity
  8
実線
370
    50
100
AcDbLine
 10
-121.9787502058973
 20
65.14882036897035
 30
0.0
 11
-121.9787502058973
 21
63.54882036897036
 31
0.0
  0
LINE
  5
1A49
102
{ACAD_REACTORS
330
1A2C
102
}
330
1A05
100
AcDbEntity
  8
実線
370
    50
100
AcDbLine
 10
-159.9787502058973
 20
63.54882036897038
 30
0.0
 11
-159.9787502058973
 21
65.14882036897038
 31
0.0
  0
LINE
  5
1A4A
330
1A05
100
AcDbEntity
  8
実線
370
    50
100
AcDbLine
 10
-121.9787502058973
 20
63.54882036897036
 30
0.0
 11
-159.9787502058973
 21
63.54882036897038
 31
0.0
  0
TEXT
  5
1A4B
330
1A05
100
AcDbEntity
  8
文字
100
AcDbText
 10
2.672502397611936
 20
1.442331116837359
 30
0.0
 40
3.0
  1
ＳＵＳ304Ｊ3
100
AcDbText
  0
ENDBLK
  5
1A4D
330
1A05
100
AcDbEntity
  8
0
 62
     0
100
AcDbBlockEnd
  0
BLOCK
  5
1AA9
330
1AA8
100
AcDbEntity
  8
0
370
    30
100
AcDbBlockBegin
  2
*D14
 70
     1
 10
0.0
 20
0.0
 30
0.0
  3
*D14
  1
*D23
  0
LINE
  5
1AAA
330
1AA8
100
AcDbEntity
  8
文字
 62
     0
370
    -2
100
AcDbLine
 10
64.4883025909753
 20
66.02446679583329
 30
0.0
 11
64.4883025909753
 21
46.01500613681003
 31
0.0
  0
LINE
  5
1AAB
330
1AA8
100
AcDbEntity
  8
文字
 62
     0
370
    -2
100
AcDbLine
 10
124.4883025909753
 20
66.02446679583328
 30
0.0
 11
124.4883025909753
 21
46.01500613681003
 31
0.0
  0
LINE
  5
1AAC
330
1AA8
100
AcDbEntity
  8
文字
 62
     0
370
    -2
100
AcDbLine
 10
66.9883025909753
 20
47.26500613681003
 30
0.0
 11
121.9883025909753
 21
47.26500613681003
 31
0.0
  0
SOLID
  5
1AAD
330
1AA8
100
AcDbEntity
  8
文字
 62
     0
100
AcDbTrace
 10
66.9883025909753
 20
47.68167280347669
 30
0.0
 11
66.9883025909753
 21
46.84833947014337
 31
0.0
 12
64.4883025909753
 22
47.26500613681003
 32
0.0
 13
64.4883025909753
 23
47.26500613681003
 33
0.0
  0
SOLID
  5
1AAE
330
1AA8
100
AcDbEntity
  8
文字
 62
     0
100
AcDbTrace
 10
121.9883025909753
 20
47.68167280347669
 30
0.0
 11
121.9883025909753
 21
46.84833947014337
 31
0.0
 12
124.4883025909753
 22
47.26500613681003
 32
0.0
 13
124.4883025909753
 23
47.26500613681003
 33
0.0
  0
MTEXT
  5
1AAF
330
1AA8
100
AcDbEntity
  8
文字
 62
     0
100
AcDbMText
 10
94.4883025909753
 20
49.14000613681003
 30
0.0
 40
2.5
 41
0.0
 46
0.0
 71
     5
 72
     1
  1
%%c60
 73
     1
 44
1.0
  0
POINT
  5
1AB0
330
1AA8
100
AcDbEntity
  8
Defpoints
 62
     0
100
AcDbPoint
 10
64.4883025909753
 20
66.64946679583329
 30
0.0
  0
POINT
  5
1AB1
330
1AA8
100
AcDbEntity
  8
Defpoints
 62
     0
100
AcDbPoint
 10
124.4883025909753
 20
66.64946679583328
 30
0.0
  0
POINT
  5
1AB2
330
1AA8
100
AcDbEntity
  8
Defpoints
 62
     0
100
AcDbPoint
 10
124.4883025909753
 20
47.26500613681003
 30
0.0
  0
ENDBLK
  5
1AB3
330
1AA8
100
AcDbEntity
  8
0
370
    30
100
AcDbBlockEnd
  0
BLOCK
  5
1AB5
330
1AB4
100
AcDbEntity
  8
0
370
    30
100
AcDbBlockBegin
  2
*D15
 70
     1
 10
0.0
 20
0.0
 30
0.0
  3
*D15
  1
*D24
  0
LINE
  5
1AB6
330
1AB4
100
AcDbEntity
  8
文字
 62
     0
370
    -2
100
AcDbLine
 10
103.5633025909753
 20
86.17778419700053
 30
0.0
 11
139.3522667143918
 21
86.17778419700053
 31
0.0
  0
LINE
  5
1AB7
330
1AB4
100
AcDbEntity
  8
文字
 62
     0
370
    -2
100
AcDbLine
 10
125.1133025909753
 20
66.02446679583328
 30
0.0
 11
139.3522667143918
 21
66.02446679583328
 31
0.0
  0
LINE
  5
1AB8
330
1AB4
100
AcDbEntity
  8
文字
 62
     0
370
    -2
100
AcDbLine
 10
138.1022667143918
 20
83.67778419700053
 30
0.0
 11
138.1022667143918
 21
68.52446679583328
 31
0.0
  0
SOLID
  5
1AB9
330
1AB4
100
AcDbEntity
  8
文字
 62
     0
370
    30
100
AcDbTrace
 10
137.6856000477252
 20
83.67778419700053
 30
0.0
 11
138.5189333810585
 21
83.67778419700053
 31
0.0
 12
138.1022667143918
 22
86.17778419700053
 32
0.0
 13
138.1022667143918
 23
86.17778419700053
 33
0.0
  0
SOLID
  5
1ABA
330
1AB4
100
AcDbEntity
  8
文字
 62
     0
370
    30
100
AcDbTrace
 10
137.6856000477252
 20
68.52446679583328
 30
0.0
 11
138.5189333810585
 21
68.52446679583328
 31
0.0
 12
138.1022667143918
 22
66.02446679583328
 32
0.0
 13
138.1022667143918
 23
66.02446679583328
 33
0.0
  0
MTEXT
  5
1ABB
330
1AB4
100
AcDbEntity
  8
文字
 62
     0
100
AcDbMText
 10
136.2272667143918
 20
76.10112549641691
 30
0.0
 40
2.5
 41
0.0
 46
0.0
 71
     5
 72
     1
  1
19
 11
6.123031769111886E-17
 21
1.0
 31
0.0
 73
     1
 44
1.0
  0
POINT
  5
1ABC
330
1AB4
100
AcDbEntity
  8
Defpoints
 62
     0
370
    30
100
AcDbPoint
 10
102.9383025909753
 20
86.17778419700053
 30
0.0
  0
POINT
  5
1ABD
330
1AB4
100
AcDbEntity
  8
Defpoints
 62
     0
370
    30
100
AcDbPoint
 10
124.4883025909753
 20
66.02446679583328
 30
0.0
  0
POINT
  5
1ABE
330
1AB4
100
AcDbEntity
  8
Defpoints
 62
     0
370
    30
100
AcDbPoint
 10
138.1022667143918
 20
66.02446679583328
 30
0.0
  0
ENDBLK
  5
1ABF
330
1AB4
100
AcDbEntity
  8
0
370
    30
100
AcDbBlockEnd
  0
BLOCK
  5
1AC1
330
1AC0
100
AcDbEntity
  8
0
370
    30
100
AcDbBlockBegin
  2
*D16
 70
     1
 10
0.0
 20
0.0
 30
0.0
  3
*D16
  1
*D25
  0
LINE
  5
1AC2
330
1AC0
100
AcDbEntity
  8
文字
 62
     0
370
    -2
100
AcDbLine
 10
106.0633025909753
 20
86.17778419700053
 30
0.0
 11
139.3179534981718
 21
86.17778419700053
 31
0.0
  0
LINE
  5
1AC3
330
1AC0
100
AcDbEntity
  8
文字
 62
     0
370
    -2
100
AcDbLine
 10
106.0633025909753
 20
94.21331810293327
 30
0.0
 11
139.3179534981718
 21
94.21331810293327
 31
0.0
  0
LINE
  5
1AC4
330
1AC0
100
AcDbEntity
  8
文字
 62
     0
370
    -2
100
AcDbLine
 10
138.0679534981718
 20
88.67778419700053
 30
0.0
 11
138.0679534981718
 21
91.71331810293327
 31
0.0
  0
SOLID
  5
1AC5
330
1AC0
100
AcDbEntity
  8
文字
 62
     0
370
    30
100
AcDbTrace
 10
137.6512868315052
 20
88.67778419700053
 30
0.0
 11
138.4846201648385
 21
88.67778419700053
 31
0.0
 12
138.0679534981718
 22
86.17778419700053
 32
0.0
 13
138.0679534981718
 23
86.17778419700053
 33
0.0
  0
SOLID
  5
1AC6
330
1AC0
100
AcDbEntity
  8
文字
 62
     0
370
    30
100
AcDbTrace
 10
137.6512868315052
 20
91.71331810293327
 30
0.0
 11
138.4846201648385
 21
91.71331810293327
 31
0.0
 12
138.0679534981718
 22
94.21331810293327
 32
0.0
 13
138.0679534981718
 23
94.21331810293327
 33
0.0
  0
MTEXT
  5
1AC7
330
1AC0
100
AcDbEntity
  8
文字
 62
     0
100
AcDbMText
 10
136.1929534981718
 20
90.19555114996692
 30
0.0
 40
2.5
 41
0.0
 46
0.0
 71
     5
 72
     1
  1
8
 11
6.123031769111886E-17
 21
1.0
 31
0.0
 73
     1
 44
1.0
  0
POINT
  5
1AC8
330
1AC0
100
AcDbEntity
  8
Defpoints
 62
     0
370
    30
100
AcDbPoint
 10
105.4383025909753
 20
86.17778419700053
 30
0.0
  0
POINT
  5
1AC9
330
1AC0
100
AcDbEntity
  8
Defpoints
 62
     0
370
    30
100
AcDbPoint
 10
105.4383025909753
 20
94.21331810293327
 30
0.0
  0
POINT
  5
1ACA
330
1AC0
100
AcDbEntity
  8
Defpoints
 62
     0
370
    30
100
AcDbPoint
 10
138.0679534981718
 20
94.21331810293327
 30
0.0
  0
ENDBLK
  5
1ACB
330
1AC0
100
AcDbEntity
  8
0
370
    30
100
AcDbBlockEnd
  0
BLOCK
  5
1ACD
330
1ACC
100
AcDbEntity
  8
0
370
    30
100
AcDbBlockBegin
  2
*D17
 70
     1
 10
0.0
 20
0.0
 30
0.0
  3
*D17
  1
*D26
  0
LINE
  5
1ACE
330
1ACC
100
AcDbEntity
  8
文字
 62
     0
370
    -2
100
AcDbLine
 10
188.1028069713284
 20
113.1979665591597
 30
0.0
 11
188.1028069713284
 21
61.77700724119347
 31
0.0
  0
LINE
  5
1ACF
330
1ACC
100
AcDbEntity
  8
文字
 62
     0
370
    -2
100
AcDbLine
 10
234.1028069713284
 20
113.1979665591597
 30
0.0
 11
234.1028069713284
 21
61.77700724119347
 31
0.0
  0
LINE
  5
1AD0
330
1ACC
100
AcDbEntity
  8
文字
 62
     0
370
    -2
100
AcDbLine
 10
190.6028069713284
 20
63.02700724119347
 30
0.0
 11
231.6028069713284
 21
63.02700724119347
 31
0.0
  0
SOLID
  5
1AD1
330
1ACC
100
AcDbEntity
  8
文字
 62
     0
100
AcDbTrace
 10
190.6028069713284
 20
63.44367390786014
 30
0.0
 11
190.6028069713284
 21
62.61034057452681
 31
0.0
 12
188.1028069713284
 22
63.02700724119347
 32
0.0
 13
188.1028069713284
 23
63.02700724119347
 33
0.0
  0
SOLID
  5
1AD2
330
1ACC
100
AcDbEntity
  8
文字
 62
     0
100
AcDbTrace
 10
231.6028069713284
 20
63.44367390786014
 30
0.0
 11
231.6028069713284
 21
62.61034057452681
 31
0.0
 12
234.1028069713284
 22
63.02700724119347
 32
0.0
 13
234.1028069713284
 23
63.02700724119347
 33
0.0
  0
MTEXT
  5
1AD3
330
1ACC
100
AcDbEntity
  8
文字
 62
     0
100
AcDbMText
 10
211.1028069713284
 20
64.90200724119347
 30
0.0
 40
2.5
 41
0.0
 46
0.0
 71
     5
 72
     1
  1
%%c46
 73
     1
 44
1.0
  0
POINT
  5
1AD4
330
1ACC
100
AcDbEntity
  8
Defpoints
 62
     0
100
AcDbPoint
 10
188.1028069713284
 20
113.8229665591597
 30
0.0
  0
POINT
  5
1AD5
330
1ACC
100
AcDbEntity
  8
Defpoints
 62
     0
100
AcDbPoint
 10
234.1028069713284
 20
113.8229665591597
 30
0.0
  0
POINT
  5
1AD6
330
1ACC
100
AcDbEntity
  8
Defpoints
 62
     0
100
AcDbPoint
 10
234.1028069713284
 20
63.02700724119347
 30
0.0
  0
ENDBLK
  5
1AD7
330
1ACC
100
AcDbEntity
  8
0
370
    30
100
AcDbBlockEnd
  0
BLOCK
  5
1AD9
330
1AD8
100
AcDbEntity
  8
0
370
    30
100
AcDbBlockBegin
  2
*D18
 70
     1
 10
0.0
 20
0.0
 30
0.0
  3
*D18
  1
*D27
  0
LINE
  5
1ADA
330
1AD8
100
AcDbEntity
  8
文字
 62
     0
370
    -2
100
AcDbLine
 10
63.86330259097529
 20
66.64946679583329
 30
0.0
 11
46.85625347364544
 21
66.64946679583329
 31
0.0
  0
LINE
  5
1ADB
330
1AD8
100
AcDbEntity
  8
文字
 62
     0
370
    -2
100
AcDbLine
 10
63.86330259097529
 20
68.64946679583329
 30
0.0
 11
46.85625347364544
 21
68.64946679583329
 31
0.0
  0
LINE
  5
1ADC
330
1AD8
100
AcDbEntity
  8
文字
 62
     0
370
    -2
100
AcDbLine
 10
48.10625347364544
 20
64.14946679583329
 30
0.0
 11
48.10625347364544
 21
61.64946679583329
 31
0.0
  0
LINE
  5
1ADD
330
1AD8
100
AcDbEntity
  8
文字
 62
     0
370
    -2
100
AcDbLine
 10
48.10625347364544
 20
71.14946679583329
 30
0.0
 11
48.10625347364544
 21
76.56613346249996
 31
0.0
  0
LINE
  5
1ADE
330
1AD8
100
AcDbEntity
  8
文字
 62
     0
370
    -2
100
AcDbLine
 10
48.10625347364544
 20
66.64946679583329
 30
0.0
 11
48.10625347364544
 21
68.64946679583329
 31
0.0
  0
SOLID
  5
1ADF
330
1AD8
100
AcDbEntity
  8
文字
 62
     0
370
    30
100
AcDbTrace
 10
47.68958680697877
 20
64.14946679583329
 30
0.0
 11
48.5229201403121
 21
64.14946679583329
 31
0.0
 12
48.10625347364544
 22
66.64946679583329
 32
0.0
 13
48.10625347364544
 23
66.64946679583329
 33
0.0
  0
SOLID
  5
1AE0
330
1AD8
100
AcDbEntity
  8
文字
 62
     0
370
    30
100
AcDbTrace
 10
47.68958680697877
 20
71.14946679583329
 30
0.0
 11
48.5229201403121
 21
71.14946679583329
 31
0.0
 12
48.10625347364544
 22
68.64946679583329
 32
0.0
 13
48.10625347364544
 23
68.64946679583329
 33
0.0
  0
MTEXT
  5
1AE1
330
1AD8
100
AcDbEntity
  8
文字
 62
     0
100
AcDbMText
 10
46.23125347364543
 20
75.10780012916663
 30
0.0
 40
2.5
 41
0.0
 46
0.0
 71
     5
 72
     1
  1
2
 11
6.123031769111886E-17
 21
1.0
 31
0.0
 73
     1
 44
1.0
  0
POINT
  5
1AE2
330
1AD8
100
AcDbEntity
  8
Defpoints
 62
     0
370
    30
100
AcDbPoint
 10
64.4883025909753
 20
66.64946679583329
 30
0.0
  0
POINT
  5
1AE3
330
1AD8
100
AcDbEntity
  8
Defpoints
 62
     0
370
    30
100
AcDbPoint
 10
64.4883025909753
 20
68.64946679583329
 30
0.0
  0
POINT
  5
1AE4
330
1AD8
100
AcDbEntity
  8
Defpoints
 62
     0
370
    30
100
AcDbPoint
 10
48.10625347364544
 20
68.64946679583329
 30
0.0
  0
ENDBLK
  5
1AE5
330
1AD8
100
AcDbEntity
  8
0
370
    30
100
AcDbBlockEnd
  0
BLOCK
  5
1AE7
330
1AE6
100
AcDbEntity
  8
0
100
AcDbBlockBegin
  2
*D19
 70
     1
 10
0.0
 20
0.0
 30
0.0
  3
*D19
  1
*D28
  0
LINE
  5
1AE8
330
1AE6
100
AcDbEntity
  8
文字
 62
     0
370
    -2
100
AcDbLine
 10
201.6198287998888
 20
107.7229665591597
 30
0.0
 11
201.6198287998888
 21
69.90949830411887
 31
0.0
  0
LINE
  5
1AE9
330
1AE6
100
AcDbEntity
  8
文字
 62
     0
370
    -2
100
AcDbLine
 10
220.585785142768
 20
107.7229665591597
 30
0.0
 11
220.585785142768
 21
69.90949830411887
 31
0.0
  0
LINE
  5
1AEA
330
1AE6
100
AcDbEntity
  8
文字
 62
     0
370
    -2
100
AcDbLine
 10
204.1198287998888
 20
71.15949830411887
 30
0.0
 11
218.085785142768
 21
71.15949830411887
 31
0.0
  0
SOLID
  5
1AEB
330
1AE6
100
AcDbEntity
  8
文字
 62
     0
100
AcDbTrace
 10
204.1198287998888
 20
71.57616497078554
 30
0.0
 11
204.1198287998888
 21
70.7428316374522
 31
0.0
 12
201.6198287998888
 22
71.15949830411887
 32
0.0
 13
201.6198287998888
 23
71.15949830411887
 33
0.0
  0
SOLID
  5
1AEC
330
1AE6
100
AcDbEntity
  8
文字
 62
     0
100
AcDbTrace
 10
218.085785142768
 20
71.57616497078554
 30
0.0
 11
218.085785142768
 21
70.7428316374522
 31
0.0
 12
220.585785142768
 22
71.15949830411887
 32
0.0
 13
220.585785142768
 23
71.15949830411887
 33
0.0
  0
MTEXT
  5
1AED
330
1AE6
100
AcDbEntity
  8
文字
 62
     0
100
AcDbMText
 10
211.1028069713284
 20
73.03449830411887
 30
0.0
 40
2.5
 41
0.0
 46
0.0
 71
     5
 72
     1
  1
19
 73
     1
 44
1.0
  0
POINT
  5
1AEE
330
1AE6
100
AcDbEntity
  8
Defpoints
 62
     0
100
AcDbPoint
 10
201.6198287998888
 20
108.3479665591597
 30
0.0
  0
POINT
  5
1AEF
330
1AE6
100
AcDbEntity
  8
Defpoints
 62
     0
100
AcDbPoint
 10
220.585785142768
 20
108.3479665591597
 30
0.0
  0
POINT
  5
1AF0
330
1AE6
100
AcDbEntity
  8
Defpoints
 62
     0
100
AcDbPoint
 10
220.585785142768
 20
71.15949830411887
 30
0.0
  0
ENDBLK
  5
1AF1
330
1AE6
100
AcDbEntity
  8
0
100
AcDbBlockEnd
  0
BLOCK
  5
1AF3
330
1AF2
100
AcDbEntity
  8
0
100
AcDbBlockBegin
  2
*D20
 70
     1
 10
0.0
 20
0.0
 30
0.0
  3
*D20
  1
*D29
  0
LINE
  5
1AF4
330
1AF2
100
AcDbEntity
  8
文字
 62
     0
370
    -2
100
AcDbLine
 10
88.48830259097527
 20
142.2133181029333
 30
0.0
 11
88.48830259097527
 21
155.4106552626019
 31
0.0
  0
LINE
  5
1AF5
330
1AF2
100
AcDbEntity
  8
文字
 62
     0
370
    -2
100
AcDbLine
 10
100.4883025909753
 20
142.2133181029333
 30
0.0
 11
100.4883025909753
 21
155.4106552626019
 31
0.0
  0
LINE
  5
1AF6
330
1AF2
100
AcDbEntity
  8
文字
 62
     0
370
    -2
100
AcDbLine
 10
90.98830259097527
 20
154.1606552626019
 30
0.0
 11
97.98830259097527
 21
154.1606552626019
 31
0.0
  0
SOLID
  5
1AF7
330
1AF2
100
AcDbEntity
  8
文字
 62
     0
100
AcDbTrace
 10
90.98830259097527
 20
154.5773219292686
 30
0.0
 11
90.98830259097527
 21
153.7439885959353
 31
0.0
 12
88.48830259097527
 22
154.1606552626019
 32
0.0
 13
88.48830259097527
 23
154.1606552626019
 33
0.0
  0
SOLID
  5
1AF8
330
1AF2
100
AcDbEntity
  8
文字
 62
     0
100
AcDbTrace
 10
97.98830259097527
 20
154.5773219292686
 30
0.0
 11
97.98830259097527
 21
153.7439885959353
 31
0.0
 12
100.4883025909753
 22
154.1606552626019
 32
0.0
 13
100.4883025909753
 23
154.1606552626019
 33
0.0
  0
MTEXT
  5
1AF9
330
1AF2
100
AcDbEntity
  8
文字
 62
     0
100
AcDbMText
 10
94.48830259097527
 20
156.0356552626019
 30
0.0
 40
2.5
 41
0.0
 46
0.0
 71
     5
 72
     1
  1
{\fArial|b0|i0|c0|p32;M}12
 73
     1
 44
1.0
  0
POINT
  5
1AFA
330
1AF2
100
AcDbEntity
  8
Defpoints
 62
     0
100
AcDbPoint
 10
88.48830259097527
 20
141.5883181029333
 30
0.0
  0
POINT
  5
1AFB
330
1AF2
100
AcDbEntity
  8
Defpoints
 62
     0
100
AcDbPoint
 10
100.4883025909753
 20
141.5883181029333
 30
0.0
  0
POINT
  5
1AFC
330
1AF2
100
AcDbEntity
  8
Defpoints
 62
     0
100
AcDbPoint
 10
100.4883025909753
 20
154.1606552626019
 30
0.0
  0
ENDBLK
  5
1AFD
330
1AF2
100
AcDbEntity
  8
0
100
AcDbBlockEnd
  0
BLOCK
  5
1AFF
330
1AFE
100
AcDbEntity
  8
0
100
AcDbBlockBegin
  2
*D21
 70
     1
 10
0.0
 20
0.0
 30
0.0
  3
*D21
  1
*D30
  0
LINE
  5
1B00
330
1AFE
100
AcDbEntity
  8
文字
 62
     0
370
    -2
100
AcDbLine
 10
101.1133025909753
 20
144.2133181029333
 30
0.0
 11
139.3179534981718
 21
144.2133181029333
 31
0.0
  0
LINE
  5
1B01
330
1AFE
100
AcDbEntity
  8
文字
 62
     0
370
    -2
100
AcDbLine
 10
106.0633025909753
 20
94.21331810293327
 30
0.0
 11
139.3179534981718
 21
94.21331810293327
 31
0.0
  0
LINE
  5
1B02
330
1AFE
100
AcDbEntity
  8
文字
 62
     0
370
    -2
100
AcDbLine
 10
138.0679534981718
 20
141.7133181029333
 30
0.0
 11
138.0679534981718
 21
96.71331810293327
 31
0.0
  0
SOLID
  5
1B03
330
1AFE
100
AcDbEntity
  8
文字
 62
     0
100
AcDbTrace
 10
137.6512868315052
 20
141.7133181029333
 30
0.0
 11
138.4846201648385
 21
141.7133181029333
 31
0.0
 12
138.0679534981718
 22
144.2133181029333
 32
0.0
 13
138.0679534981718
 23
144.2133181029333
 33
0.0
  0
SOLID
  5
1B04
330
1AFE
100
AcDbEntity
  8
文字
 62
     0
100
AcDbTrace
 10
137.6512868315052
 20
96.71331810293327
 30
0.0
 11
138.4846201648385
 21
96.71331810293327
 31
0.0
 12
138.0679534981718
 22
94.21331810293327
 32
0.0
 13
138.0679534981718
 23
94.21331810293327
 33
0.0
  0
MTEXT
  5
1B05
330
1AFE
100
AcDbEntity
  8
文字
 62
     0
100
AcDbMText
 10
136.1929534981718
 20
119.2133181029333
 30
0.0
 40
2.5
 41
0.0
 46
0.0
 71
     5
 72
     1
  1
50
 11
6.123031769111886E-17
 21
1.0
 31
0.0
 73
     1
 44
1.0
  0
POINT
  5
1B06
330
1AFE
100
AcDbEntity
  8
Defpoints
 62
     0
100
AcDbPoint
 10
100.4883025909753
 20
144.2133181029333
 30
0.0
  0
POINT
  5
1B07
330
1AFE
100
AcDbEntity
  8
Defpoints
 62
     0
100
AcDbPoint
 10
105.4383025909753
 20
94.21331810293327
 30
0.0
  0
POINT
  5
1B08
330
1AFE
100
AcDbEntity
  8
Defpoints
 62
     0
100
AcDbPoint
 10
138.0679534981718
 20
94.21331810293327
 30
0.0
  0
ENDBLK
  5
1B09
330
1AFE
100
AcDbEntity
  8
0
100
AcDbBlockEnd
  0
BLOCK
  5
1B43
330
1B0A
100
AcDbEntity
  8
0
 62
     1
100
AcDbBlockBegin
  2
A$C518B1B4A
 70
     0
 10
0.0
 20
0.0
 30
0.0
  3
A$C518B1B4A
  1
A$C518B1B4A
  0
DIMENSION
  5
1B0B
102
{ACAD_REACTORS
330
1B0D
102
}
102
{ACAD_XDICTIONARY
360
1B0C
102
}
330
1B0A
100
AcDbEntity
  8
文字
100
AcDbDimension
280
     0
  2
*D21
 10
-73.03485347315655
 20
-19.60964845622647
 30
0.0
 11
-74.90985347315657
 21
5.390351543773548
 31
0.0
 12
-211.1028069713284
 22
-113.8229665591597
 32
0.0
 70
    32
 71
     5
 42
50.0
 73
     0
 74
     0
 75
     0
  3
ISO-25
100
AcDbAlignedDimension
 13
-110.6145043803531
 23
30.39035154377353
 33
0.0
 14
-105.6645043803531
 24
-19.60964845622647
 34
0.0
 50
90.0
100
AcDbRotatedDimension
  0
LINE
  5
1B0E
330
1B0A
100
AcDbEntity
  8
実線
370
    20
100
AcDbLine
 10
-112.6145043803531
 20
30.39035154377353
 30
0.0
 11
-112.6145043803531
 21
-19.60964845622647
 31
0.0
  0
LINE
  5
1B0F
330
1B0A
100
AcDbEntity
  8
実線
370
    20
100
AcDbLine
 10
-120.6145043803531
 20
30.39035154377353
 30
0.0
 11
-120.6145043803531
 21
-19.60964845622647
 31
0.0
  0
LINE
  5
1B10
330
1B0A
100
AcDbEntity
  8
実線
370
    20
100
AcDbLine
 10
-122.6145043803531
 20
28.39035154377353
 30
0.0
 11
-110.6145043803531
 21
28.39035154377353
 31
0.0
  0
LWPOLYLINE
  5
1B11
330
1B0A
100
AcDbEntity
  8
実線
100
AcDbPolyline
 90
        6
 70
     1
 43
0.0
 10
-122.6145043803531
 20
-19.60964845622647
 10
-110.6145043803531
 20
-19.60964845622647
 10
-110.6145043803531
 20
28.39035154377353
 10
-112.6145043803531
 20
30.39035154377353
 10
-120.6145043803531
 20
30.39035154377353
 10
-122.6145043803531
 20
28.39035154377353
  0
LINE
  5
1B12
330
1B0A
100
AcDbEntity
  8
中心線
100
AcDbLine
 10
0.0
 20
0.0
 30
0.0
 11
44.45988741376516
 21
0.0
 31
0.0
  0
LINE
  5
1B13
330
1B0A
100
AcDbEntity
  8
中心線
100
AcDbLine
 10
0.0
 20
0.0
 30
0.0
 11
-42.52630118444506
 21
0.0
 31
0.0
  0
DIMENSION
  5
1B14
330
1B0A
100
AcDbEntity
  8
文字
100
AcDbDimension
280
     0
  2
*D20
 10
-110.6145043803531
 20
40.33768870344221
 30
0.0
 11
-116.6145043803531
 21
42.21268870344221
 31
0.0
 12
-211.1028069713284
 22
-113.8229665591597
 32
0.0
 70
    32
  1
{\fArial|b0|i0|c0|p32;M}<>
 71
     5
 42
12.0
 73
     0
 74
     0
 75
     0
  3
ISO-25
100
AcDbAlignedDimension
 13
-122.6145043803531
 23
27.76535154377353
 33
0.0
 14
-110.6145043803531
 24
27.76535154377353
 34
0.0
100
AcDbRotatedDimension
  0
DIMENSION
  5
1B15
102
{ACAD_REACTORS
330
1B17
102
}
102
{ACAD_XDICTIONARY
360
1B16
102
}
330
1B0A
100
AcDbEntity
  8
文字
100
AcDbDimension
280
     0
  2
*D19
 10
9.482978171439612
 20
-42.66346825504087
 30
0.0
 11
0.0
 21
-40.78846825504087
 31
0.0
 12
-211.1028069713284
 22
-113.8229665591597
 32
0.0
 70
    32
  1
19
 71
     5
 42
18.9659563428792
 73
     0
 74
     0
 75
     0
  3
ISO-25
100
AcDbAlignedDimension
 13
-9.482978171439584
 23
-5.474999999999994
 33
0.0
 14
9.482978171439612
 24
-5.474999999999994
 34
0.0
100
AcDbRotatedDimension
  0
LINE
  5
1B18
330
1B0A
100
AcDbEntity
  8
中心線
100
AcDbLine
 10
0.0
 20
0.0
 30
0.0
 11
0.0
 21
-36.41035681156728
 31
0.0
  0
LINE
  5
1B19
330
1B0A
100
AcDbEntity
  8
中心線
100
AcDbLine
 10
0.0
 20
0.0
 30
0.0
 11
0.0
 21
42.76732667452831
 31
0.0
  0
LINE
  5
1B1A
330
1B0A
100
AcDbEntity
  8
中心線
100
AcDbLine
 10
-116.6145043803531
 20
-54.09738755106875
 30
0.0
 11
-116.6145043803531
 21
35.04188265915826
 31
0.0
  0
DIMENSION
  5
1B1B
102
{ACAD_REACTORS
330
1B1D
102
}
102
{ACAD_XDICTIONARY
360
1B1C
102
}
330
1B0A
100
AcDbEntity
  8
文字
100
AcDbDimension
280
     0
  2
*D18
 10
-162.996553497683
 20
-45.17349976332645
 30
0.0
 11
-164.871553497683
 21
-38.7151664299931
 31
0.0
 12
-211.1028069713284
 22
-113.8229665591597
 32
0.0
 70
    32
 71
     5
 42
2.0
 73
     0
 74
     0
 75
     0
  3
ISO-25
100
AcDbAlignedDimension
 13
-146.6145043803531
 23
-47.17349976332645
 33
0.0
 14
-146.6145043803531
 24
-45.17349976332645
 34
0.0
 50
90.0
100
AcDbRotatedDimension
  0
DIMENSION
  5
1B1E
102
{ACAD_REACTORS
330
1B20
102
}
102
{ACAD_XDICTIONARY
360
1B1F
102
}
330
1B0A
100
AcDbEntity
  8
文字
100
AcDbDimension
280
     0
  2
*D17
 10
23.0
 20
-50.79595931796626
 30
0.0
 11
0.0
 21
-48.92095931796626
 31
0.0
 12
-211.1028069713284
 22
-113.8229665591597
 32
0.0
 70
    32
  1
%%c<>
 71
     5
 42
46.0
 73
     0
 74
     0
 75
     0
  3
ISO-25
100
AcDbAlignedDimension
 13
-23.0
 23
0.0
 33
0.0
 14
23.0
 24
0.0
 34
0.0
100
AcDbRotatedDimension
  0
DIMENSION
  5
1B21
330
1B0A
100
AcDbEntity
  8
文字
100
AcDbDimension
280
     0
  2
*D16
 10
-73.03485347315655
 20
-19.60964845622647
 30
0.0
 11
-74.90985347315657
 21
-23.62741540919282
 31
0.0
 12
-211.1028069713284
 22
-113.8229665591597
 32
0.0
 70
    32
  1
8
 71
     5
 42
8.035533905932738
 73
     0
 74
     0
 75
     0
  3
ISO-25
100
AcDbAlignedDimension
 13
-105.6645043803531
 23
-27.6451823621592
 33
0.0
 14
-105.6645043803531
 24
-19.60964845622647
 34
0.0
 50
90.0
100
AcDbRotatedDimension
  0
DIMENSION
  5
1B22
102
{ACAD_REACTORS
330
1B24
102
}
102
{ACAD_XDICTIONARY
360
1B23
102
}
330
1B0A
100
AcDbEntity
  8
文字
100
AcDbDimension
280
     0
  2
*D15
 10
-73.00054025693657
 20
-47.79849976332646
 30
0.0
 11
-74.8755402569366
 21
-37.72184106274283
 31
0.0
 12
-211.1028069713284
 22
-113.8229665591597
 32
0.0
 70
    32
  1
19
 71
     5
 42
20.15331740116726
 73
     0
 74
     0
 75
     0
  3
ISO-25
100
AcDbAlignedDimension
 13
-108.1645043803531
 23
-27.6451823621592
 33
0.0
 14
-86.6145043803531
 24
-47.79849976332646
 34
0.0
 50
90.0
100
AcDbRotatedDimension
  0
DIMENSION
  5
1B25
102
{ACAD_REACTORS
330
1B27
102
}
102
{ACAD_XDICTIONARY
360
1B26
102
}
330
1B0A
100
AcDbEntity
  8
文字
100
AcDbDimension
280
     0
  2
*D14
 10
-86.6145043803531
 20
-66.55796042234971
 30
0.0
 11
-116.6145043803531
 21
-64.68296042234971
 31
0.0
 12
-211.1028069713284
 22
-113.8229665591597
 32
0.0
 70
    32
  1
%%c<>
 71
     5
 42
60.0
 73
     0
 74
     0
 75
     0
  3
ISO-25
100
AcDbAlignedDimension
 13
-146.6145043803531
 23
-47.17349976332645
 33
0.0
 14
-86.6145043803531
 24
-47.17349976332646
 34
0.0
100
AcDbRotatedDimension
  0
ARC
  5
1B28
330
1B0A
100
AcDbEntity
  8
実線
100
AcDbCircle
 10
-116.6145043803531
 20
-6.885517455278304
 30
0.0
 40
20.60203494178584
100
AcDbArc
 50
253.2134882526869
 51
286.7865117473133
  0
LINE
  5
1B29
330
1B0A
100
AcDbEntity
  8
実線
100
AcDbLine
 10
-124.0810731213618
 20
-27.4875301457851
 30
0.0
 11
-109.2084944623676
 21
-27.4875301457851
 31
0.0
  0
CIRCLE
  5
1B2A
330
1B0A
100
AcDbEntity
  8
実線
370
    20
100
AcDbCircle
 10
0.0
 20
0.0
 30
0.0
 40
5.15
  0
CIRCLE
  5
1B2B
330
1B0A
100
AcDbEntity
  8
実線
100
AcDbCircle
 10
0.0
 20
0.0
 30
0.0
 40
6.0
  0
LWPOLYLINE
  5
1B2C
102
{ACAD_REACTORS
330
1B17
102
}
330
1B0A
100
AcDbEntity
  8
実線
100
AcDbPolyline
 90
        6
 70
     1
 43
0.0
 10
-9.482978171439584
 20
-5.474999999999994
 10
0.0
 20
-10.94999999999999
 10
9.482978171439612
 20
-5.474999999999994
 10
9.48297817143964
 20
5.474999999999994
 10
0.0000000000000284
 20
10.94999999999999
 10
-9.482978171439584
 20
5.475000000000023
  0
LINE
  5
1B2D
330
1B0A
100
AcDbEntity
  8
実線
100
AcDbLine
 10
-127.5645043803531
 20
-25.60964845622647
 30
0.0
 11
-127.5645043803531
 21
-26.60964845622647
 31
0.0
  0
LINE
  5
1B2E
330
1B0A
100
AcDbEntity
  8
実線
100
AcDbLine
 10
-105.6645043803531
 20
-25.60964845622647
 30
0.0
 11
-105.6645043803531
 21
-26.60964845622647
 31
0.0
  0
LINE
  5
1B2F
330
1B0A
100
AcDbEntity
  8
実線
100
AcDbLine
 10
-105.6645043803531
 20
-26.60964845622647
 30
0.0
 11
-105.6645043803531
 21
-25.60964845622647
 31
0.0
  0
ARC
  5
1B30
102
{ACAD_REACTORS
330
1B24
102
}
330
1B0A
100
AcDbEntity
  8
実線
100
AcDbCircle
 10
-108.1645043803531
 20
-24.10964845622644
 30
0.0
 40
3.535533905932768
100
AcDbArc
 50
225.0
 51
315.0
  0
ARC
  5
1B31
330
1B0A
100
AcDbEntity
  8
実線
100
AcDbCircle
 10
-125.0645043803531
 20
-24.03971975646913
 30
0.0
 40
3.58532195511595
100
AcDbArc
 50
225.7902212344514
 51
314.2097787655485
  0
LINE
  5
1B32
330
1B0A
100
AcDbEntity
  8
実線
100
AcDbLine
 10
-122.5645043803531
 20
-19.60964845622647
 30
0.0
 11
-122.5645043803531
 21
-26.60964845622647
 31
0.0
  0
LINE
  5
1B33
330
1B0A
100
AcDbEntity
  8
実線
100
AcDbLine
 10
-110.6645043803531
 20
-19.60964845622647
 30
0.0
 11
-110.6645043803531
 21
-26.60964845622648
 31
0.0
  0
LWPOLYLINE
  5
1B34
102
{ACAD_REACTORS
330
1B0D
102
}
330
1B0A
100
AcDbEntity
  8
実線
100
AcDbPolyline
 90
        4
 70
     0
 43
0.0
 10
-105.6645043803531
 20
-25.60964845622647
 10
-105.6645043803531
 20
-19.60964845622647
 10
-127.5645043803531
 20
-19.60964845622647
 10
-127.5645043803531
 20
-25.60964845622647
  0
CIRCLE
  5
1B35
330
1B0A
100
AcDbEntity
  8
実線
100
AcDbCircle
 10
0.0
 20
0.0
 30
0.0
 40
30.0
  0
CIRCLE
  5
1B36
102
{ACAD_REACTORS
330
1B20
102
}
330
1B0A
100
AcDbEntity
  8
実線
100
AcDbCircle
 10
0.0
 20
0.0
 30
0.0
 40
23.0
  0
LINE
  5
1B37
330
1B0A
100
AcDbEntity
  8
実線
100
AcDbLine
 10
-142.2741484844553
 20
-45.17349976332645
 30
0.0
 11
-90.9548602762509
 21
-45.17349976332646
 31
0.0
  0
LINE
  5
1B38
330
1B0A
100
AcDbEntity
  8
実線
100
AcDbLine
 10
-112.6145043803531
 20
-27.17349976332646
 30
0.0
 11
-112.6538633828662
 21
-27.17349976332646
 31
0.0
  0
LINE
  5
1B39
330
1B0A
100
AcDbEntity
  8
実線
100
AcDbLine
 10
-90.9548602762509
 20
-45.17349976332646
 30
0.0
 11
-86.6145043803531
 21
-45.17349976332646
 31
0.0
  0
ARC
  5
1B3A
330
1B0A
100
AcDbEntity
  8
実線
100
AcDbCircle
 10
-90.9548602762509
 20
-42.17349976332645
 30
0.0
 40
3.0
100
AcDbArc
 50
190.4756333660877
 51
270.0
  0
ARC
  5
1B3B
330
1B0A
100
AcDbEntity
  8
実線
100
AcDbCircle
 10
-112.5881713031187
 20
-46.17348151513463
 30
0.0
 40
19.0
100
AcDbArc
 50
10.47563336608763
 51
79.99041238858658
  0
ARC
  5
1B3C
330
1B0A
100
AcDbEntity
  8
実線
100
AcDbCircle
 10
-142.2741484844553
 20
-42.17349976332645
 30
0.0
 40
3.0
100
AcDbArc
 50
270.0
 51
349.5243666339124
  0
ARC
  5
1B3D
330
1B0A
100
AcDbEntity
  8
実線
100
AcDbCircle
 10
-120.6408374575875
 20
-46.17348151513463
 30
0.0
 40
19.0
100
AcDbArc
 50
100.4318012170099
 51
169.5243666339124
  0
LINE
  5
1B3E
330
1B0A
100
AcDbEntity
  8
実線
100
AcDbLine
 10
-120.5751453778401
 20
-27.17349976332645
 30
0.0
 11
-120.6145043803531
 21
-27.17349976332645
 31
0.0
  0
LINE
  5
1B3F
102
{ACAD_REACTORS
330
1B27
330
1B1D
102
}
330
1B0A
100
AcDbEntity
  8
実線
100
AcDbLine
 10
-146.6145043803531
 20
-47.17349976332645
 30
0.0
 11
-146.6145043803531
 21
-45.17349976332645
 31
0.0
  0
LINE
  5
1B40
330
1B0A
100
AcDbEntity
  8
実線
100
AcDbLine
 10
-146.6145043803531
 20
-45.17349976332645
 30
0.0
 11
-142.2741484844553
 21
-45.17349976332645
 31
0.0
  0
LINE
  5
1B41
102
{ACAD_REACTORS
330
1B27
102
}
330
1B0A
100
AcDbEntity
  8
実線
100
AcDbLine
 10
-86.6145043803531
 20
-47.17349976332646
 30
0.0
 11
-86.6145043803531
 21
-45.17349976332646
 31
0.0
  0
LINE
  5
1B42
330
1B0A
100
AcDbEntity
  8
実線
100
AcDbLine
 10
-146.6145043803531
 20
-47.17349976332645
 30
0.0
 11
-86.6145043803531
 21
-47.17349976332646
 31
0.0
  0
ENDBLK
  5
1B44
330
1B0A
100
AcDbEntity
  8
0
 62
     1
100
AcDbBlockEnd
  0
BLOCK
  5
1EA4
330
1E9A
100
AcDbEntity
  8
0
100
AcDbBlockBegin
  2
*D23
 70
     1
 10
0.0
 20
0.0
 30
0.0
  3
*D23
  1
*D49
  0
LINE
  5
1E9B
330
1E9A
100
AcDbEntity
  8
文字
 62
     0
370
    -2
100
AcDbLine
 10
94.54710647917396
 20
65.0231969884232
 30
0.0
 11
93.92210647917396
 21
65.0231969884232
 31
0.0
  0
LINE
  5
1E9C
330
1E9A
100
AcDbEntity
  8
文字
 62
     0
370
    -2
100
AcDbLine
 10
87.24773498349036
 20
43.17142254938518
 30
0.0
 11
96.42210647917396
 21
43.17142254938518
 31
0.0
  0
LINE
  5
1E9D
330
1E9A
100
AcDbEntity
  8
文字
 62
     0
370
    -2
100
AcDbLine
 10
95.17210647917396
 20
62.52319698842319
 30
0.0
 11
95.17210647917396
 21
45.67142254938518
 31
0.0
  0
SOLID
  5
1E9E
330
1E9A
100
AcDbEntity
  8
文字
 62
     0
100
AcDbTrace
 10
94.75543981250729
 20
62.52319698842319
 30
0.0
 11
95.58877314584063
 21
62.52319698842319
 31
0.0
 12
95.17210647917396
 22
65.0231969884232
 32
0.0
 13
95.17210647917396
 23
65.0231969884232
 33
0.0
  0
SOLID
  5
1E9F
330
1E9A
100
AcDbEntity
  8
文字
 62
     0
100
AcDbTrace
 10
94.75543981250729
 20
45.67142254938518
 30
0.0
 11
95.58877314584063
 21
45.67142254938518
 31
0.0
 12
95.17210647917396
 22
43.17142254938518
 32
0.0
 13
95.17210647917396
 23
43.17142254938518
 33
0.0
  0
MTEXT
  5
1EA0
330
1E9A
100
AcDbEntity
  8
文字
 62
     0
100
AcDbMText
 10
93.29710647917395
 20
54.0973097689042
 30
0.0
 40
2.5
 41
0.0
 46
0.0
 71
     5
 72
     1
  1
22
 11
6.123031769111886E-17
 21
1.0
 31
0.0
 73
     1
 44
1.0
  0
POINT
  5
1EA1
330
1E9A
100
AcDbEntity
  8
Defpoints
 62
     0
100
AcDbPoint
 10
95.17210647917396
 20
65.0231969884232
 30
0.0
  0
POINT
  5
1EA2
330
1E9A
100
AcDbEntity
  8
Defpoints
 62
     0
100
AcDbPoint
 10
86.62273498349036
 20
43.17142254938518
 30
0.0
  0
POINT
  5
1EA3
330
1E9A
100
AcDbEntity
  8
Defpoints
 62
     0
100
AcDbPoint
 10
95.17210647917396
 20
43.17142254938518
 30
0.0
  0
ENDBLK
  5
1EA5
330
1E9A
100
AcDbEntity
  8
0
100
AcDbBlockEnd
  0
BLOCK
  5
1EB0
330
1EA6
100
AcDbEntity
  8
0
100
AcDbBlockBegin
  2
*D24
 70
     1
 10
0.0
 20
0.0
 30
0.0
  3
*D24
  1
*D50
  0
LINE
  5
1F9D
330
1EA6
100
AcDbEntity
  8
文字
 62
     0
370
    -2
100
AcDbLine
 10
63.16745557197741
 20
73.17142254938518
 30
0.0
 11
96.42210647917396
 21
73.17142254938517
 31
0.0
  0
LINE
  5
1F9E
330
1EA6
100
AcDbEntity
  8
文字
 62
     0
370
    -2
100
AcDbLine
 10
60.66874938343155
 20
65.17142254938518
 30
0.0
 11
96.42210647917396
 21
65.17142254938517
 31
0.0
  0
LINE
  5
1F9F
330
1EA6
100
AcDbEntity
  8
文字
 62
     0
370
    -2
100
AcDbLine
 10
95.17210647917396
 20
70.67142254938518
 30
0.0
 11
95.17210647917396
 21
67.67142254938518
 31
0.0
  0
SOLID
  5
1FA0
330
1EA6
100
AcDbEntity
  8
文字
 62
     0
100
AcDbTrace
 10
94.75543981250729
 20
70.67142254938518
 30
0.0
 11
95.58877314584063
 21
70.67142254938518
 31
0.0
 12
95.17210647917396
 22
73.17142254938518
 32
0.0
 13
95.17210647917396
 23
73.17142254938518
 33
0.0
  0
SOLID
  5
1FA1
330
1EA6
100
AcDbEntity
  8
文字
 62
     0
100
AcDbTrace
 10
94.75543981250729
 20
67.67142254938518
 30
0.0
 11
95.58877314584063
 21
67.67142254938518
 31
0.0
 12
95.17210647917396
 22
65.17142254938518
 32
0.0
 13
95.17210647917396
 23
65.17142254938518
 33
0.0
  0
MTEXT
  5
1FA2
330
1EA6
100
AcDbEntity
  8
文字
 62
     0
100
AcDbMText
 10
93.29710647917395
 20
69.1714225493852
 30
0.0
 40
2.5
 41
0.0
 46
0.0
 71
     5
 72
     1
  1
8
 11
6.123031769111886E-17
 21
1.0
 31
0.0
 73
     1
 44
1.0
  0
POINT
  5
1FA3
330
1EA6
100
AcDbEntity
  8
Defpoints
 62
     0
100
AcDbPoint
 10
62.54245557197741
 20
73.17142254938518
 30
0.0
  0
POINT
  5
1FA4
330
1EA6
100
AcDbEntity
  8
Defpoints
 62
     0
100
AcDbPoint
 10
60.04374938343155
 20
65.17142254938518
 30
0.0
  0
POINT
  5
1FA5
330
1EA6
100
AcDbEntity
  8
Defpoints
 62
     0
100
AcDbPoint
 10
95.17210647917396
 20
65.17142254938518
 30
0.0
  0
ENDBLK
  5
1EB1
330
1EA6
100
AcDbEntity
  8
0
100
AcDbBlockEnd
  0
BLOCK
  5
1EBC
330
1EB2
100
AcDbEntity
  8
0
100
AcDbBlockBegin
  2
*D25
 70
     1
 10
0.0
 20
0.0
 30
0.0
  3
*D25
  1
*D51
  0
LINE
  5
1FBF
330
1EB2
100
AcDbEntity
  8
文字
 62
     0
370
    -2
100
AcDbLine
 10
158.7239817808909
 20
101.5589526951703
 30
0.0
 11
158.7239817808909
 21
57.57115468177437
 31
0.0
  0
LINE
  5
1FC0
330
1EB2
100
AcDbEntity
  8
文字
 62
     0
370
    -2
100
AcDbLine
 10
177.6899381237701
 20
101.5589526951703
 30
0.0
 11
177.6899381237701
 21
57.57115468177437
 31
0.0
  0
LINE
  5
1FC1
330
1EB2
100
AcDbEntity
  8
文字
 62
     0
370
    -2
100
AcDbLine
 10
161.2239817808909
 20
58.82115468177437
 30
0.0
 11
175.1899381237701
 21
58.82115468177437
 31
0.0
  0
SOLID
  5
1FC2
330
1EB2
100
AcDbEntity
  8
文字
 62
     0
100
AcDbTrace
 10
161.2239817808909
 20
59.23782134844104
 30
0.0
 11
161.2239817808909
 21
58.40448801510771
 31
0.0
 12
158.7239817808909
 22
58.82115468177437
 32
0.0
 13
158.7239817808909
 23
58.82115468177437
 33
0.0
  0
SOLID
  5
1FC3
330
1EB2
100
AcDbEntity
  8
文字
 62
     0
100
AcDbTrace
 10
175.1899381237701
 20
59.23782134844104
 30
0.0
 11
175.1899381237701
 21
58.40448801510771
 31
0.0
 12
177.6899381237701
 22
58.82115468177437
 32
0.0
 13
177.6899381237701
 23
58.82115468177437
 33
0.0
  0
MTEXT
  5
1FC4
330
1EB2
100
AcDbEntity
  8
文字
 62
     0
100
AcDbMText
 10
168.2069599523305
 20
60.69615468177437
 30
0.0
 40
2.5
 41
0.0
 46
0.0
 71
     5
 72
     1
  1
19
 73
     1
 44
1.0
  0
POINT
  5
1FC5
330
1EB2
100
AcDbEntity
  8
Defpoints
 62
     0
100
AcDbPoint
 10
158.7239817808909
 20
102.1839526951703
 30
0.0
  0
POINT
  5
1FC6
330
1EB2
100
AcDbEntity
  8
Defpoints
 62
     0
100
AcDbPoint
 10
177.6899381237701
 20
102.1839526951703
 30
0.0
  0
POINT
  5
1FC7
330
1EB2
100
AcDbEntity
  8
Defpoints
 62
     0
100
AcDbPoint
 10
177.6899381237701
 20
58.82115468177437
 30
0.0
  0
ENDBLK
  5
1EBD
330
1EB2
100
AcDbEntity
  8
0
100
AcDbBlockEnd
  0
BLOCK
  5
1EC8
330
1EBE
100
AcDbEntity
  8
0
100
AcDbBlockBegin
  2
*D26
 70
     1
 10
0.0
 20
0.0
 30
0.0
  3
*D26
  1
*D52
  0
LINE
  5
2021
330
1EBE
100
AcDbEntity
  8
文字
 62
     0
370
    -2
100
AcDbLine
 10
56.21745557197741
 20
173.1714225493852
 30
0.0
 11
96.42210647917399
 21
173.1714225493851
 31
0.0
  0
LINE
  5
2022
330
1EBE
100
AcDbEntity
  8
文字
 62
     0
370
    -2
100
AcDbLine
 10
63.16745557197741
 20
73.17142254938518
 30
0.0
 11
96.42210647917396
 21
73.17142254938517
 31
0.0
  0
LINE
  5
2023
330
1EBE
100
AcDbEntity
  8
文字
 62
     0
370
    -2
100
AcDbLine
 10
95.17210647917399
 20
170.6714225493851
 30
0.0
 11
95.17210647917396
 21
75.67142254938518
 31
0.0
  0
SOLID
  5
2024
330
1EBE
100
AcDbEntity
  8
文字
 62
     0
100
AcDbTrace
 10
94.75543981250732
 20
170.6714225493851
 30
0.0
 11
95.58877314584066
 21
170.6714225493851
 31
0.0
 12
95.17210647917399
 22
173.1714225493851
 32
0.0
 13
95.17210647917399
 23
173.1714225493851
 33
0.0
  0
SOLID
  5
2025
330
1EBE
100
AcDbEntity
  8
文字
 62
     0
100
AcDbTrace
 10
94.75543981250729
 20
75.67142254938518
 30
0.0
 11
95.58877314584063
 21
75.67142254938518
 31
0.0
 12
95.17210647917396
 22
73.17142254938518
 32
0.0
 13
95.17210647917396
 23
73.17142254938518
 33
0.0
  0
MTEXT
  5
2026
330
1EBE
100
AcDbEntity
  8
文字
 62
     0
100
AcDbMText
 10
93.29710647917396
 20
123.1714225493852
 30
0.0
 40
2.5
 41
0.0
 46
0.0
 71
     5
 72
     1
  1
150
 11
6.123031769111886E-17
 21
1.0
 31
0.0
 73
     1
 44
1.0
  0
POINT
  5
2027
330
1EBE
100
AcDbEntity
  8
Defpoints
 62
     0
100
AcDbPoint
 10
55.59245557197741
 20
173.1714225493852
 30
0.0
  0
POINT
  5
2028
330
1EBE
100
AcDbEntity
  8
Defpoints
 62
     0
100
AcDbPoint
 10
62.54245557197741
 20
73.17142254938518
 30
0.0
  0
POINT
  5
2029
330
1EBE
100
AcDbEntity
  8
Defpoints
 62
     0
100
AcDbPoint
 10
95.17210647917396
 20
73.17142254938518
 30
0.0
  0
ENDBLK
  5
1EC9
330
1EBE
100
AcDbEntity
  8
0
100
AcDbBlockEnd
  0
BLOCK
  5
1ED4
330
1ECA
100
AcDbEntity
  8
0
100
AcDbBlockBegin
  2
*D27
 70
     1
 10
0.0
 20
0.0
 30
0.0
  3
*D27
  1
*D53
  0
LINE
  5
1FDE
330
1ECA
100
AcDbEntity
  8
文字
 62
     0
370
    -2
100
AcDbLine
 10
45.59245557197741
 20
171.7964225493852
 30
0.0
 11
45.59245557197741
 21
184.8716413986125
 31
0.0
  0
LINE
  5
1FDF
330
1ECA
100
AcDbEntity
  8
文字
 62
     0
370
    -2
100
AcDbLine
 10
57.59245557197741
 20
171.7964225493852
 30
0.0
 11
57.59245557197741
 21
184.8716413986125
 31
0.0
  0
LINE
  5
1FE0
330
1ECA
100
AcDbEntity
  8
文字
 62
     0
370
    -2
100
AcDbLine
 10
48.09245557197741
 20
183.6216413986125
 30
0.0
 11
55.09245557197741
 21
183.6216413986125
 31
0.0
  0
SOLID
  5
1FE1
330
1ECA
100
AcDbEntity
  8
文字
 62
     0
100
AcDbTrace
 10
48.09245557197741
 20
184.0383080652792
 30
0.0
 11
48.09245557197741
 21
183.2049747319458
 31
0.0
 12
45.59245557197741
 22
183.6216413986125
 32
0.0
 13
45.59245557197741
 23
183.6216413986125
 33
0.0
  0
SOLID
  5
1FE2
330
1ECA
100
AcDbEntity
  8
文字
 62
     0
100
AcDbTrace
 10
55.09245557197741
 20
184.0383080652792
 30
0.0
 11
55.09245557197741
 21
183.2049747319458
 31
0.0
 12
57.59245557197741
 22
183.6216413986125
 32
0.0
 13
57.59245557197741
 23
183.6216413986125
 33
0.0
  0
MTEXT
  5
1FE3
330
1ECA
100
AcDbEntity
  8
文字
 62
     0
100
AcDbMText
 10
51.59245557197741
 20
185.4966413986125
 30
0.0
 40
2.5
 41
0.0
 46
0.0
 71
     5
 72
     1
  1
M12
 73
     1
 44
1.0
  0
POINT
  5
1FE4
330
1ECA
100
AcDbEntity
  8
Defpoints
 62
     0
100
AcDbPoint
 10
45.59245557197741
 20
171.1714225493852
 30
0.0
  0
POINT
  5
1FE5
330
1ECA
100
AcDbEntity
  8
Defpoints
 62
     0
100
AcDbPoint
 10
57.59245557197741
 20
171.1714225493852
 30
0.0
  0
POINT
  5
1FE6
330
1ECA
100
AcDbEntity
  8
Defpoints
 62
     0
100
AcDbPoint
 10
57.59245557197741
 20
183.6216413986125
 30
0.0
  0
ENDBLK
  5
1ED5
330
1ECA
100
AcDbEntity
  8
0
100
AcDbBlockEnd
  0
BLOCK
  5
1EE0
330
1ED6
100
AcDbEntity
  8
0
100
AcDbBlockBegin
  2
*D28
 70
     1
 10
0.0
 20
0.0
 30
0.0
  3
*D28
  1
*D54
  0
LINE
  5
1ED7
330
1ED6
100
AcDbEntity
  8
文字
 62
     0
370
    -2
100
AcDbLine
 10
16.62273498349036
 20
42.54642254938518
 30
0.0
 11
16.62273498349036
 21
19.36075982760281
 31
0.0
  0
LINE
  5
1ED8
330
1ED6
100
AcDbEntity
  8
文字
 62
     0
370
    -2
100
AcDbLine
 10
86.62273498349036
 20
42.54642254938518
 30
0.0
 11
86.62273498349036
 21
19.36075982760281
 31
0.0
  0
LINE
  5
1ED9
330
1ED6
100
AcDbEntity
  8
文字
 62
     0
370
    -2
100
AcDbLine
 10
19.12273498349036
 20
20.61075982760281
 30
0.0
 11
84.12273498349036
 21
20.61075982760281
 31
0.0
  0
SOLID
  5
1EDA
330
1ED6
100
AcDbEntity
  8
文字
 62
     0
100
AcDbTrace
 10
19.12273498349036
 20
21.02742649426947
 30
0.0
 11
19.12273498349036
 21
20.19409316093614
 31
0.0
 12
16.62273498349036
 22
20.61075982760281
 32
0.0
 13
16.62273498349036
 23
20.61075982760281
 33
0.0
  0
SOLID
  5
1EDB
330
1ED6
100
AcDbEntity
  8
文字
 62
     0
100
AcDbTrace
 10
84.12273498349036
 20
21.02742649426947
 30
0.0
 11
84.12273498349036
 21
20.19409316093614
 31
0.0
 12
86.62273498349036
 22
20.61075982760281
 32
0.0
 13
86.62273498349036
 23
20.61075982760281
 33
0.0
  0
MTEXT
  5
1EDC
330
1ED6
100
AcDbEntity
  8
文字
 62
     0
100
AcDbMText
 10
51.62273498349036
 20
22.48575982760281
 30
0.0
 40
2.5
 41
0.0
 46
0.0
 71
     5
 72
     1
  1
%%c70
 73
     1
 44
1.0
  0
POINT
  5
1EDD
330
1ED6
100
AcDbEntity
  8
Defpoints
 62
     0
100
AcDbPoint
 10
16.62273498349036
 20
43.17142254938518
 30
0.0
  0
POINT
  5
1EDE
330
1ED6
100
AcDbEntity
  8
Defpoints
 62
     0
100
AcDbPoint
 10
86.62273498349036
 20
43.17142254938518
 30
0.0
  0
POINT
  5
1EDF
330
1ED6
100
AcDbEntity
  8
Defpoints
 62
     0
100
AcDbPoint
 10
86.62273498349036
 20
20.61075982760281
 30
0.0
  0
ENDBLK
  5
1EE1
330
1ED6
100
AcDbEntity
  8
0
100
AcDbBlockEnd
  0
BLOCK
  5
1EEC
330
1EE2
100
AcDbEntity
  8
0
100
AcDbBlockBegin
  2
*D29
 70
     1
 10
0.0
 20
0.0
 30
0.0
  3
*D29
  1
*D55
  0
LINE
  5
1EE3
330
1EE2
100
AcDbEntity
  8
文字
 62
     0
370
    -2
100
AcDbLine
 10
15.99773498349036
 20
50.17142254938519
 30
0.0
 11
1.268860228737026
 21
50.17142254938519
 31
0.0
  0
LINE
  5
1EE4
330
1EE2
100
AcDbEntity
  8
文字
 62
     0
370
    -2
100
AcDbLine
 10
15.99773498349036
 20
43.17142254938519
 30
0.0
 11
1.268860228737025
 21
43.17142254938519
 31
0.0
  0
LINE
  5
1EE5
330
1EE2
100
AcDbEntity
  8
文字
 62
     0
370
    -2
100
AcDbLine
 10
2.518860228737027
 20
47.67142254938519
 30
0.0
 11
2.518860228737026
 21
45.67142254938519
 31
0.0
  0
SOLID
  5
1EE6
330
1EE2
100
AcDbEntity
  8
文字
 62
     0
100
AcDbTrace
 10
2.10219356207036
 20
47.67142254938519
 30
0.0
 11
2.935526895403693
 21
47.67142254938519
 31
0.0
 12
2.518860228737027
 22
50.17142254938519
 32
0.0
 13
2.518860228737027
 23
50.17142254938519
 33
0.0
  0
SOLID
  5
1EE7
330
1EE2
100
AcDbEntity
  8
文字
 62
     0
100
AcDbTrace
 10
2.10219356207036
 20
45.67142254938519
 30
0.0
 11
2.935526895403693
 21
45.67142254938519
 31
0.0
 12
2.518860228737026
 22
43.17142254938519
 32
0.0
 13
2.518860228737026
 23
43.17142254938519
 33
0.0
  0
MTEXT
  5
1EE8
330
1EE2
100
AcDbEntity
  8
文字
 62
     0
100
AcDbMText
 10
0.643860228737019
 20
46.67142254938519
 30
0.0
 40
2.5
 41
0.0
 46
0.0
 71
     5
 72
     1
  1
7
 11
6.123031769111886E-17
 21
1.0
 31
0.0
 73
     1
 44
1.0
  0
POINT
  5
1EE9
330
1EE2
100
AcDbEntity
  8
Defpoints
 62
     0
100
AcDbPoint
 10
16.62273498349036
 20
50.17142254938518
 30
0.0
  0
POINT
  5
1EEA
330
1EE2
100
AcDbEntity
  8
Defpoints
 62
     0
100
AcDbPoint
 10
16.62273498349036
 20
43.17142254938518
 30
0.0
  0
POINT
  5
1EEB
330
1EE2
100
AcDbEntity
  8
Defpoints
 62
     0
100
AcDbPoint
 10
2.518860228737026
 20
43.17142254938519
 30
0.0
  0
ENDBLK
  5
1EED
330
1EE2
100
AcDbEntity
  8
0
100
AcDbBlockEnd
  0
BLOCK
  5
1F57
330
1F4D
100
AcDbEntity
  8
0
100
AcDbBlockBegin
  2
*D30
 70
     1
 10
0.0
 20
0.0
 30
0.0
  3
*D30
  1
*D57
  0
LINE
  5
202A
330
1F4D
100
AcDbEntity
  8
文字
 62
     0
370
    -2
100
AcDbLine
 10
87.24773498349036
 20
43.17142254938518
 30
0.0
 11
103.3614159785438
 21
43.17142254938518
 31
0.0
  0
LINE
  5
202B
330
1F4D
100
AcDbEntity
  8
文字
 62
     0
370
    -2
100
AcDbLine
 10
56.21745557197741
 20
173.1714225493852
 30
0.0
 11
103.3614159785439
 21
173.1714225493851
 31
0.0
  0
LINE
  5
202C
330
1F4D
100
AcDbEntity
  8
文字
 62
     0
370
    -2
100
AcDbLine
 10
102.1114159785438
 20
45.67142254938518
 30
0.0
 11
102.1114159785439
 21
170.6714225493851
 31
0.0
  0
SOLID
  5
202D
330
1F4D
100
AcDbEntity
  8
文字
 62
     0
100
AcDbTrace
 10
101.6947493118772
 20
45.67142254938518
 30
0.0
 11
102.5280826452105
 21
45.67142254938518
 31
0.0
 12
102.1114159785438
 22
43.17142254938518
 32
0.0
 13
102.1114159785438
 23
43.17142254938518
 33
0.0
  0
SOLID
  5
202E
330
1F4D
100
AcDbEntity
  8
文字
 62
     0
100
AcDbTrace
 10
101.6947493118772
 20
170.6714225493851
 30
0.0
 11
102.5280826452105
 21
170.6714225493851
 31
0.0
 12
102.1114159785439
 22
173.1714225493851
 32
0.0
 13
102.1114159785439
 23
173.1714225493851
 33
0.0
  0
MTEXT
  5
202F
330
1F4D
100
AcDbEntity
  8
文字
 62
     0
100
AcDbMText
 10
100.2364159785438
 20
108.1714225493852
 30
0.0
 40
2.5
 41
0.0
 46
0.0
 71
     5
 72
     1
  1
180
 11
6.123031769111886E-17
 21
1.0
 31
0.0
 73
     1
 44
1.0
  0
POINT
  5
2030
330
1F4D
100
AcDbEntity
  8
Defpoints
 62
     0
100
AcDbPoint
 10
86.62273498349036
 20
43.17142254938518
 30
0.0
  0
POINT
  5
2031
330
1F4D
100
AcDbEntity
  8
Defpoints
 62
     0
100
AcDbPoint
 10
55.59245557197741
 20
173.1714225493852
 30
0.0
  0
POINT
  5
2032
330
1F4D
100
AcDbEntity
  8
Defpoints
 62
     0
100
AcDbPoint
 10
102.1114159785439
 20
173.1714225493851
 30
0.0
  0
ENDBLK
  5
1F58
330
1F4D
100
AcDbEntity
  8
0
100
AcDbBlockEnd
  0
BLOCK
  5
1F7E
330
1F74
100
AcDbEntity
  8
0
100
AcDbBlockBegin
  2
*D31
 70
     1
 10
0.0
 20
0.0
 30
0.0
  3
*D31
  1
*D58
  0
LINE
  5
1FB6
330
1F74
100
AcDbEntity
  8
文字
 62
     0
370
    -2
100
AcDbLine
 10
145.2069599523305
 20
107.0339526951703
 30
0.0
 11
145.2069599523305
 21
51.99924644553522
 31
0.0
  0
LINE
  5
1FB7
330
1F74
100
AcDbEntity
  8
文字
 62
     0
370
    -2
100
AcDbLine
 10
191.2069599523305
 20
107.0339526951703
 30
0.0
 11
191.2069599523305
 21
51.99924644553522
 31
0.0
  0
LINE
  5
1FB8
330
1F74
100
AcDbEntity
  8
文字
 62
     0
370
    -2
100
AcDbLine
 10
147.7069599523305
 20
53.24924644553522
 30
0.0
 11
188.7069599523305
 21
53.24924644553522
 31
0.0
  0
SOLID
  5
1FB9
330
1F74
100
AcDbEntity
  8
文字
 62
     0
100
AcDbTrace
 10
147.7069599523305
 20
53.66591311220188
 30
0.0
 11
147.7069599523305
 21
52.83257977886856
 31
0.0
 12
145.2069599523305
 22
53.24924644553522
 32
0.0
 13
145.2069599523305
 23
53.24924644553522
 33
0.0
  0
SOLID
  5
1FBA
330
1F74
100
AcDbEntity
  8
文字
 62
     0
100
AcDbTrace
 10
188.7069599523305
 20
52.83257977886856
 30
0.0
 11
188.7069599523305
 21
53.66591311220188
 31
0.0
 12
191.2069599523305
 22
53.24924644553522
 32
0.0
 13
191.2069599523305
 23
53.24924644553522
 33
0.0
  0
MTEXT
  5
1FBB
330
1F74
100
AcDbEntity
  8
文字
 62
     0
100
AcDbMText
 10
168.2069599523305
 20
55.12424644553522
 30
0.0
 40
2.5
 41
0.0
 46
0.0
 71
     5
 72
     1
  1
%%c46
 73
     1
 44
1.0
  0
POINT
  5
1FBC
330
1F74
100
AcDbEntity
  8
Defpoints
 62
     0
100
AcDbPoint
 10
145.2069599523305
 20
107.6589526951703
 30
0.0
  0
POINT
  5
1FBD
330
1F74
100
AcDbEntity
  8
Defpoints
 62
     0
100
AcDbPoint
 10
191.2069599523305
 20
107.6589526951703
 30
0.0
  0
POINT
  5
1FBE
330
1F74
100
AcDbEntity
  8
Defpoints
 62
     0
100
AcDbPoint
 10
191.2069599523305
 20
53.24924644553522
 30
0.0
  0
ENDBLK
  5
1F7F
330
1F74
100
AcDbEntity
  8
0
100
AcDbBlockEnd
  0
BLOCK
  5
20F9
330
20F8
100
AcDbEntity
  8
0
100
AcDbBlockBegin
  2
*D33
 70
     1
 10
0.0
 20
0.0
 30
0.0
  3
*D33
  1
*D49
  0
LINE
  5
20FA
330
20F8
100
AcDbEntity
  8
文字
 62
     0
370
    -2
100
AcDbLine
 10
95.15324625043694
 20
46.66243716082039
 30
0.0
 11
94.52824625043694
 21
46.66243716082039
 31
0.0
  0
LINE
  5
20FB
330
20F8
100
AcDbEntity
  8
文字
 62
     0
370
    -2
100
AcDbLine
 10
87.70387475475333
 20
23.66066272178237
 30
0.0
 11
97.02824625043694
 21
23.66066272178237
 31
0.0
  0
LINE
  5
20FC
330
20F8
100
AcDbEntity
  8
文字
 62
     0
370
    -2
100
AcDbLine
 10
95.77824625043694
 20
44.16243716082039
 30
0.0
 11
95.77824625043694
 21
26.16066272178237
 31
0.0
  0
SOLID
  5
20FD
330
20F8
100
AcDbEntity
  8
文字
 62
     0
100
AcDbTrace
 10
96.19491291710361
 20
44.16243716082039
 30
0.0
 11
95.36157958377026
 21
44.16243716082039
 31
0.0
 12
95.77824625043694
 22
46.66243716082039
 32
0.0
 13
95.77824625043694
 23
46.66243716082039
 33
0.0
  0
SOLID
  5
20FE
330
20F8
100
AcDbEntity
  8
文字
 62
     0
100
AcDbTrace
 10
95.36157958377026
 20
26.16066272178237
 30
0.0
 11
96.19491291710361
 21
26.16066272178237
 31
0.0
 12
95.77824625043694
 22
23.66066272178237
 32
0.0
 13
95.77824625043694
 23
23.66066272178237
 33
0.0
  0
MTEXT
  5
20FF
330
20F8
100
AcDbEntity
  8
文字
 62
     0
100
AcDbMText
 10
93.90324625043694
 20
35.16154994130138
 30
0.0
 40
2.5
 41
0.0
 46
0.0
 71
     5
 72
     1
  1
23
 11
0.0
 21
1.0
 31
0.0
 73
     1
 44
1.0
  0
POINT
  5
2100
330
20F8
100
AcDbEntity
  8
Defpoints
 62
     0
100
AcDbPoint
 10
95.77824625043694
 20
46.66243716082039
 30
0.0
  0
POINT
  5
2101
330
20F8
100
AcDbEntity
  8
Defpoints
 62
     0
100
AcDbPoint
 10
87.07887475475333
 20
23.66066272178237
 30
0.0
  0
POINT
  5
2102
330
20F8
100
AcDbEntity
  8
Defpoints
 62
     0
100
AcDbPoint
 10
95.77824625043694
 20
23.66066272178237
 30
0.0
  0
ENDBLK
  5
2103
330
20F8
100
AcDbEntity
  8
0
100
AcDbBlockEnd
  0
BLOCK
  5
2109
330
2108
100
AcDbEntity
  8
0
100
AcDbBlockBegin
  2
*D34
 70
     1
 10
0.0
 20
0.0
 30
0.0
  3
*D34
  1
*D54
  0
LINE
  5
210A
330
2108
100
AcDbEntity
  8
文字
 62
     0
370
    -2
100
AcDbLine
 10
17.22887475475333
 20
23.18566272178237
 30
0.0
 11
17.22887475475333
 21
0.0
 31
0.0
  0
LINE
  5
210B
330
2108
100
AcDbEntity
  8
文字
 62
     0
370
    -2
100
AcDbLine
 10
87.22887475475333
 20
23.18566272178237
 30
0.0
 11
87.22887475475333
 21
0.0
 31
0.0
  0
LINE
  5
210C
330
2108
100
AcDbEntity
  8
文字
 62
     0
370
    -2
100
AcDbLine
 10
19.72887475475333
 20
1.25
 30
0.0
 11
84.72887475475333
 21
1.25
 31
0.0
  0
SOLID
  5
210D
330
2108
100
AcDbEntity
  8
文字
 62
     0
100
AcDbTrace
 10
19.72887475475333
 20
1.666666666666667
 30
0.0
 11
19.72887475475333
 21
0.8333333333333333
 31
0.0
 12
17.22887475475333
 22
1.25
 32
0.0
 13
17.22887475475333
 23
1.25
 33
0.0
  0
SOLID
  5
210E
330
2108
100
AcDbEntity
  8
文字
 62
     0
100
AcDbTrace
 10
84.72887475475333
 20
0.8333333333333333
 30
0.0
 11
84.72887475475333
 21
1.666666666666667
 31
0.0
 12
87.22887475475333
 22
1.25
 32
0.0
 13
87.22887475475333
 23
1.25
 33
0.0
  0
MTEXT
  5
210F
330
2108
100
AcDbEntity
  8
文字
 62
     0
100
AcDbMText
 10
52.22887475475333
 20
3.125
 30
0.0
 40
2.5
 41
0.0
 46
0.0
 71
     5
 72
     1
  1
%%c70
 73
     1
 44
1.0
  0
POINT
  5
2110
330
2108
100
AcDbEntity
  8
Defpoints
 62
     0
100
AcDbPoint
 10
17.22887475475333
 20
23.81066272178237
 30
0.0
  0
POINT
  5
2111
330
2108
100
AcDbEntity
  8
Defpoints
 62
     0
100
AcDbPoint
 10
87.22887475475333
 20
23.81066272178237
 30
0.0
  0
POINT
  5
2112
330
2108
100
AcDbEntity
  8
Defpoints
 62
     0
100
AcDbPoint
 10
87.22887475475333
 20
1.25
 30
0.0
  0
ENDBLK
  5
2113
330
2108
100
AcDbEntity
  8
0
100
AcDbBlockEnd
  0
BLOCK
  5
211A
330
2119
100
AcDbEntity
  8
0
100
AcDbBlockBegin
  2
*D35
 70
     1
 10
0.0
 20
0.0
 30
0.0
  3
*D35
  1
*D55
  0
LINE
  5
211B
330
2119
100
AcDbEntity
  8
文字
 62
     0
370
    -2
100
AcDbLine
 10
16.60387475475333
 20
30.81066272178237
 30
0.0
 11
1.875
 21
30.81066272178237
 31
0.0
  0
LINE
  5
211C
330
2119
100
AcDbEntity
  8
文字
 62
     0
370
    -2
100
AcDbLine
 10
16.60387475475333
 20
23.81066272178237
 30
0.0
 11
1.875
 21
23.81066272178237
 31
0.0
  0
LINE
  5
211D
330
2119
100
AcDbEntity
  8
文字
 62
     0
370
    -2
100
AcDbLine
 10
3.125
 20
28.31066272178237
 30
0.0
 11
3.125
 21
26.31066272178237
 31
0.0
  0
SOLID
  5
211E
330
2119
100
AcDbEntity
  8
文字
 62
     0
100
AcDbTrace
 10
3.541666666666667
 20
28.31066272178237
 30
0.0
 11
2.708333333333334
 21
28.31066272178237
 31
0.0
 12
3.125
 22
30.81066272178237
 32
0.0
 13
3.125
 23
30.81066272178237
 33
0.0
  0
SOLID
  5
211F
330
2119
100
AcDbEntity
  8
文字
 62
     0
100
AcDbTrace
 10
2.708333333333333
 20
26.31066272178237
 30
0.0
 11
3.541666666666667
 21
26.31066272178237
 31
0.0
 12
3.125
 22
23.81066272178237
 32
0.0
 13
3.125
 23
23.81066272178237
 33
0.0
  0
MTEXT
  5
2120
330
2119
100
AcDbEntity
  8
文字
 62
     0
100
AcDbMText
 10
1.25
 20
27.31066272178237
 30
0.0
 40
2.5
 41
0.0
 46
0.0
 71
     5
 72
     1
  1
7
 11
6.344131569286608E-17
 21
1.0
 31
0.0
 73
     1
 44
1.0
  0
POINT
  5
2121
330
2119
100
AcDbEntity
  8
Defpoints
 62
     0
100
AcDbPoint
 10
17.22887475475333
 20
30.81066272178237
 30
0.0
  0
POINT
  5
2122
330
2119
100
AcDbEntity
  8
Defpoints
 62
     0
100
AcDbPoint
 10
17.22887475475333
 20
23.81066272178237
 30
0.0
  0
POINT
  5
2123
330
2119
100
AcDbEntity
  8
Defpoints
 62
     0
100
AcDbPoint
 10
3.125
 20
23.81066272178237
 30
0.0
  0
ENDBLK
  5
2124
330
2119
100
AcDbEntity
  8
0
100
AcDbBlockEnd
  0
BLOCK
  5
2136
330
2135
100
AcDbEntity
  8
0
100
AcDbBlockBegin
  2
*D36
 70
     1
 10
0.0
 20
0.0
 30
0.0
  3
*D36
  1
*D36
  0
LINE
  5
2138
330
2135
100
AcDbEntity
  8
文字
 62
     0
370
    -2
100
AcDbLine
 10
94.69899183847195
 20
65.25347972023434
 30
0.0
 11
94.07399183847195
 21
65.25347972023434
 31
0.0
  0
LINE
  5
2139
330
2135
100
AcDbEntity
  8
文字
 62
     0
370
    -2
100
AcDbLine
 10
87.24962034278835
 20
42.25170528119632
 30
0.0
 11
96.57399183847195
 21
42.25170528119632
 31
0.0
  0
LINE
  5
213A
330
2135
100
AcDbEntity
  8
文字
 62
     0
370
    -2
100
AcDbLine
 10
95.32399183847195
 20
62.75347972023434
 30
0.0
 11
95.32399183847195
 21
44.75170528119632
 31
0.0
  0
SOLID
  5
213B
330
2135
100
AcDbEntity
  8
文字
 62
     0
100
AcDbTrace
 10
95.74065850513863
 20
62.75347972023434
 30
0.0
 11
94.90732517180528
 21
62.75347972023434
 31
0.0
 12
95.32399183847195
 22
65.25347972023434
 32
0.0
 13
95.32399183847195
 23
65.25347972023434
 33
0.0
  0
SOLID
  5
213C
330
2135
100
AcDbEntity
  8
文字
 62
     0
100
AcDbTrace
 10
94.90732517180528
 20
44.75170528119632
 30
0.0
 11
95.74065850513863
 21
44.75170528119632
 31
0.0
 12
95.32399183847195
 22
42.25170528119632
 32
0.0
 13
95.32399183847195
 23
42.25170528119632
 33
0.0
  0
MTEXT
  5
213D
330
2135
100
AcDbEntity
  8
文字
 62
     0
100
AcDbMText
 10
93.44899183847195
 20
53.75259250071533
 30
0.0
 40
2.5
 41
0.0
 46
0.0
 71
     5
 72
     1
  1
23
 11
0.0
 21
1.0
 31
0.0
 73
     1
 44
1.0
  0
POINT
  5
213E
330
2135
100
AcDbEntity
  8
Defpoints
 62
     0
100
AcDbPoint
 10
95.32399183847195
 20
65.25347972023434
 30
0.0
  0
POINT
  5
213F
330
2135
100
AcDbEntity
  8
Defpoints
 62
     0
100
AcDbPoint
 10
86.62462034278835
 20
42.25170528119632
 30
0.0
  0
POINT
  5
2140
330
2135
100
AcDbEntity
  8
Defpoints
 62
     0
100
AcDbPoint
 10
95.32399183847195
 20
42.25170528119632
 30
0.0
  0
ENDBLK
  5
2137
330
2135
100
AcDbEntity
  8
0
100
AcDbBlockEnd
  0
BLOCK
  5
2142
330
2141
100
AcDbEntity
  8
0
100
AcDbBlockBegin
  2
*D37
 70
     1
 10
0.0
 20
0.0
 30
0.0
  3
*D37
  1
*D37
  0
LINE
  5
2144
330
2141
100
AcDbEntity
  8
文字
 62
     0
370
    -2
100
AcDbLine
 10
16.77462034278835
 20
41.77670528119631
 30
0.0
 11
16.77462034278835
 21
18.59104255941395
 31
0.0
  0
LINE
  5
2145
330
2141
100
AcDbEntity
  8
文字
 62
     0
370
    -2
100
AcDbLine
 10
86.77462034278835
 20
41.77670528119631
 30
0.0
 11
86.77462034278835
 21
18.59104255941395
 31
0.0
  0
LINE
  5
2146
330
2141
100
AcDbEntity
  8
文字
 62
     0
370
    -2
100
AcDbLine
 10
19.27462034278835
 20
19.84104255941395
 30
0.0
 11
84.27462034278835
 21
19.84104255941395
 31
0.0
  0
SOLID
  5
2147
330
2141
100
AcDbEntity
  8
文字
 62
     0
100
AcDbTrace
 10
19.27462034278835
 20
20.25770922608062
 30
0.0
 11
19.27462034278835
 21
19.42437589274728
 31
0.0
 12
16.77462034278835
 22
19.84104255941395
 32
0.0
 13
16.77462034278835
 23
19.84104255941395
 33
0.0
  0
SOLID
  5
2148
330
2141
100
AcDbEntity
  8
文字
 62
     0
100
AcDbTrace
 10
84.27462034278835
 20
19.42437589274728
 30
0.0
 11
84.27462034278835
 21
20.25770922608062
 31
0.0
 12
86.77462034278835
 22
19.84104255941395
 32
0.0
 13
86.77462034278835
 23
19.84104255941395
 33
0.0
  0
MTEXT
  5
2149
330
2141
100
AcDbEntity
  8
文字
 62
     0
100
AcDbMText
 10
51.77462034278835
 20
21.71604255941395
 30
0.0
 40
2.5
 41
0.0
 46
0.0
 71
     5
 72
     1
  1
%%c70
 73
     1
 44
1.0
  0
POINT
  5
214A
330
2141
100
AcDbEntity
  8
Defpoints
 62
     0
100
AcDbPoint
 10
16.77462034278835
 20
42.40170528119631
 30
0.0
  0
POINT
  5
214B
330
2141
100
AcDbEntity
  8
Defpoints
 62
     0
100
AcDbPoint
 10
86.77462034278835
 20
42.40170528119631
 30
0.0
  0
POINT
  5
214C
330
2141
100
AcDbEntity
  8
Defpoints
 62
     0
100
AcDbPoint
 10
86.77462034278835
 20
19.84104255941395
 30
0.0
  0
ENDBLK
  5
2143
330
2141
100
AcDbEntity
  8
0
100
AcDbBlockEnd
  0
BLOCK
  5
214E
330
214D
100
AcDbEntity
  8
0
100
AcDbBlockBegin
  2
*D38
 70
     1
 10
0.0
 20
0.0
 30
0.0
  3
*D38
  1
*D38
  0
LINE
  5
2150
330
214D
100
AcDbEntity
  8
文字
 62
     0
370
    -2
100
AcDbLine
 10
16.14962034278835
 20
49.40170528119631
 30
0.0
 11
1.420745588035019
 21
49.40170528119631
 31
0.0
  0
LINE
  5
2151
330
214D
100
AcDbEntity
  8
文字
 62
     0
370
    -2
100
AcDbLine
 10
16.14962034278835
 20
42.40170528119631
 30
0.0
 11
1.420745588035018
 21
42.40170528119631
 31
0.0
  0
LINE
  5
2152
330
214D
100
AcDbEntity
  8
文字
 62
     0
370
    -2
100
AcDbLine
 10
2.670745588035019
 20
46.90170528119631
 30
0.0
 11
2.670745588035018
 21
44.90170528119631
 31
0.0
  0
SOLID
  5
2153
330
214D
100
AcDbEntity
  8
文字
 62
     0
100
AcDbTrace
 10
3.087412254701685
 20
46.90170528119631
 30
0.0
 11
2.254078921368352
 21
46.90170528119631
 31
0.0
 12
2.670745588035019
 22
49.40170528119631
 32
0.0
 13
2.670745588035019
 23
49.40170528119631
 33
0.0
  0
SOLID
  5
2154
330
214D
100
AcDbEntity
  8
文字
 62
     0
100
AcDbTrace
 10
2.254078921368352
 20
44.90170528119631
 30
0.0
 11
3.087412254701685
 21
44.90170528119631
 31
0.0
 12
2.670745588035018
 22
42.40170528119631
 32
0.0
 13
2.670745588035018
 23
42.40170528119631
 33
0.0
  0
MTEXT
  5
2155
330
214D
100
AcDbEntity
  8
文字
 62
     0
100
AcDbMText
 10
0.7957455880350182
 20
45.90170528119631
 30
0.0
 40
2.5
 41
0.0
 46
0.0
 71
     5
 72
     1
  1
7
 11
6.344131569286608E-17
 21
1.0
 31
0.0
 73
     1
 44
1.0
  0
POINT
  5
2156
330
214D
100
AcDbEntity
  8
Defpoints
 62
     0
100
AcDbPoint
 10
16.77462034278835
 20
49.40170528119631
 30
0.0
  0
POINT
  5
2157
330
214D
100
AcDbEntity
  8
Defpoints
 62
     0
100
AcDbPoint
 10
16.77462034278835
 20
42.40170528119631
 30
0.0
  0
POINT
  5
2158
330
214D
100
AcDbEntity
  8
Defpoints
 62
     0
100
AcDbPoint
 10
2.670745588035018
 20
42.40170528119631
 30
0.0
  0
ENDBLK
  5
214F
330
214D
100
AcDbEntity
  8
0
100
AcDbBlockEnd
  0
ENDSEC
  0
SECTION
  2
ENTITIES
  0
MTEXT
  5
B75
330
21
100
AcDbEntity
  8
中心線
100
AcDbMText
 10
112.831139206696
 20
180.2175614817369
 30
0.0
 40
2.5
 41
0.0
 46
0.0
 71
     7
 72
     1
  1

 73
     1
 44
1.0
  0
CIRCLE
  5
1E68
330
21
100
AcDbEntity
  8
実線
100
AcDbCircle
 10
168.2069599523305
 20
107.6589526951703
 30
0.0
 40
35.0
  0
DIMENSION
  5
1E6C
330
21
100
AcDbEntity
  8
文字
100
AcDbDimension
280
     0
  2
*D24
 10
95.17210647917396
 20
65.17142254938518
 30
0.0
 11
93.29710647917395
 21
69.1714225493852
 31
0.0
 70
    32
  1
8
 71
     5
 42
8.0
 73
     0
 74
     0
 75
     0
  3
ISO-25
100
AcDbAlignedDimension
 13
62.54245557197741
 23
73.17142254938518
 33
0.0
 14
60.04374938343155
 24
65.17142254938518
 34
0.0
 50
90.0
100
AcDbRotatedDimension
  0
CIRCLE
  5
1E73
102
{ACAD_REACTORS
330
1F8A
102
}
330
21
100
AcDbEntity
  8
実線
100
AcDbCircle
 10
168.2069599523305
 20
107.6589526951703
 30
0.0
 40
23.0
  0
LWPOLYLINE
  5
1E74
102
{ACAD_REACTORS
330
1E8D
102
}
330
21
100
AcDbEntity
  8
実線
100
AcDbPolyline
 90
        4
 70
     0
 43
0.0
 10
62.54245557197741
 20
67.04930423894382
 10
62.54245557197741
 20
73.17142254938518
 10
40.64245557197742
 20
73.17142254938518
 10
40.64245557197742
 20
67.04930423894382
  0
LINE
  5
1E75
330
21
100
AcDbEntity
  8
実線
100
AcDbLine
 10
57.54245557197741
 20
73.17142254938518
 30
0.0
 11
57.54245557197741
 21
66.0493042389438
 31
0.0
  0
LINE
  5
1E76
330
21
100
AcDbEntity
  8
実線
100
AcDbLine
 10
45.64245557197742
 20
73.17142254938518
 30
0.0
 11
45.64245557197742
 21
66.04930423894382
 31
0.0
  0
ARC
  5
1E77
330
21
100
AcDbEntity
  8
実線
100
AcDbCircle
 10
43.14245557197742
 20
69.17006634733328
 30
0.0
 40
3.998644287400344
100
AcDbArc
 50
231.3022578192482
 51
308.6977421807517
  0
ARC
  5
1E78
330
21
100
AcDbEntity
  8
実線
100
AcDbCircle
 10
60.04245557197743
 20
69.17006762332683
 30
0.0
 40
3.998645283256046
100
AcDbArc
 50
231.3022692502803
 51
308.697730749719
  0
LINE
  5
1E79
330
21
100
AcDbEntity
  8
実線
100
AcDbLine
 10
62.54245557197743
 20
66.04930423894382
 30
0.0
 11
62.54245557197741
 21
67.04930423894382
 31
0.0
  0
LINE
  5
1E7A
330
21
100
AcDbEntity
  8
実線
100
AcDbLine
 10
62.54245557197741
 20
67.04930423894382
 30
0.0
 11
62.54245557197743
 21
66.04930423894382
 31
0.0
  0
LINE
  5
1E7B
330
21
100
AcDbEntity
  8
実線
100
AcDbLine
 10
40.64245557197742
 20
67.04930423894382
 30
0.0
 11
40.64245557197742
 21
66.04930423894382
 31
0.0
  0
LWPOLYLINE
  5
1E7C
102
{ACAD_REACTORS
330
1E86
102
}
330
21
100
AcDbEntity
  8
実線
100
AcDbPolyline
 90
        6
 70
     1
 43
0.0
 10
158.7239817808909
 20
102.1839526951703
 10
168.2069599523305
 20
96.7089526951703
 10
177.6899381237701
 20
102.1839526951703
 10
177.6899381237702
 20
113.1339526951703
 10
168.2069599523305
 20
118.6089526951703
 10
158.7239817808909
 20
113.1339526951703
  0
CIRCLE
  5
1E7D
330
21
100
AcDbEntity
  8
実線
100
AcDbCircle
 10
168.2069599523305
 20
107.6589526951703
 30
0.0
 40
6.0
  0
CIRCLE
  5
1E7E
330
21
100
AcDbEntity
  8
実線
370
    20
100
AcDbCircle
 10
168.2069599523305
 20
107.6589526951703
 30
0.0
 40
5.15
  0
LINE
  5
1E7F
330
21
100
AcDbEntity
  8
実線
100
AcDbLine
 10
44.12588683096877
 20
65.17142254938518
 30
0.0
 11
58.99846548996297
 21
65.17142254938518
 31
0.0
  0
ARC
  5
1E80
330
21
100
AcDbEntity
  8
実線
100
AcDbCircle
 10
51.59245557197744
 20
85.77343523989198
 30
0.0
 40
20.60203494178584
100
AcDbArc
 50
253.2134882526869
 51
286.7865117473116
  0
LINE
  5
1E81
330
21
100
AcDbEntity
  8
中心線
100
AcDbLine
 10
51.5924555719774
 20
29.98792541117177
 30
0.0
 11
51.59245557197742
 21
178.4660203716865
 31
0.0
  0
LINE
  5
1E82
330
21
100
AcDbEntity
  8
中心線
100
AcDbLine
 10
168.2069599523305
 20
107.6589526951703
 30
0.0
 11
168.2069599523305
 21
150.4262793696986
 31
0.0
  0
LINE
  5
1E83
330
21
100
AcDbEntity
  8
中心線
100
AcDbLine
 10
168.2069599523305
 20
107.6589526951703
 30
0.0
 11
168.2069599523305
 21
71.248595883603
 31
0.0
  0
DIMENSION
  5
1E84
102
{ACAD_REACTORS
330
1E86
102
}
102
{ACAD_XDICTIONARY
360
1E85
102
}
330
21
100
AcDbEntity
  8
文字
100
AcDbDimension
280
     0
  2
*D25
 10
177.6899381237701
 20
58.82115468177437
 30
0.0
 11
168.2069599523305
 21
60.69615468177437
 31
0.0
 70
    32
  1
19
 71
     5
 42
18.9659563428792
 73
     0
 74
     0
 75
     0
  3
ISO-25
100
AcDbAlignedDimension
 13
158.7239817808909
 23
102.1839526951703
 33
0.0
 14
177.6899381237701
 24
102.1839526951703
 34
0.0
100
AcDbRotatedDimension
  0
LWPOLYLINE
  5
1E87
330
21
100
AcDbEntity
  8
実線
100
AcDbPolyline
 90
        4
 70
     0
 43
0.0
 10
45.59245557197741
 20
82.3959551456316
 10
45.59245557197741
 20
73.17142254938518
 10
57.59245557197741
 20
73.17142254938518
 10
57.59245557197741
 20
82.39595514563162
  0
LINE
  5
1E88
102
{ACAD_REACTORS
330
1E90
102
}
330
21
100
AcDbEntity
  8
実線
370
    20
100
AcDbLine
 10
45.59245557197741
 20
171.1714225493852
 30
0.0
 11
57.59245557197741
 21
171.1714225493852
 31
0.0
  0
LINE
  5
1E89
330
21
100
AcDbEntity
  8
実線
370
    15
100
AcDbLine
 10
47.59245557197741
 20
173.1714225493852
 30
0.0
 11
47.59245557197742
 21
126.4863092044878
 31
0.0
  0
LINE
  5
1E8A
102
{ACAD_REACTORS
330
1E8D
102
}
330
21
100
AcDbEntity
  8
実線
370
    15
100
AcDbLine
 10
55.59245557197741
 20
173.1714225493852
 30
0.0
 11
55.59245557197742
 21
131.1956659622419
 31
0.0
  0
DIMENSION
  5
1E8B
102
{ACAD_REACTORS
330
1E8D
102
}
102
{ACAD_XDICTIONARY
360
1E8C
102
}
330
21
100
AcDbEntity
  8
文字
100
AcDbDimension
280
     0
  2
*D26
 10
95.17210647917396
 20
73.17142254938518
 30
0.0
 11
93.29710647917396
 21
123.1714225493852
 31
0.0
 70
    32
  1
150
 71
     5
 42
99.99999999999997
 73
     0
 74
     0
 75
     0
  3
ISO-25
100
AcDbAlignedDimension
 13
55.59245557197741
 23
173.1714225493852
 33
0.0
 14
62.54245557197741
 24
73.17142254938518
 34
0.0
 50
90.0
100
AcDbRotatedDimension
  0
DIMENSION
  5
1E8E
102
{ACAD_REACTORS
330
1E90
102
}
102
{ACAD_XDICTIONARY
360
1E8F
102
}
330
21
100
AcDbEntity
  8
文字
100
AcDbDimension
280
     0
  2
*D27
 10
57.59245557197741
 20
183.6216413986125
 30
0.0
 11
51.59245557197741
 21
185.4966413986125
 31
0.0
 70
    32
  1
M<>
 71
     5
 42
12.0
 73
     0
 74
     0
 75
     0
  3
ISO-25
100
AcDbAlignedDimension
 13
45.59245557197741
 23
171.1714225493852
 33
0.0
 14
57.59245557197741
 24
171.1714225493852
 34
0.0
100
AcDbRotatedDimension
  0
LINE
  5
1E91
102
{ACAD_REACTORS
330
1F8A
102
}
330
21
100
AcDbEntity
  8
中心線
100
AcDbLine
 10
168.2069599523305
 20
107.6589526951703
 30
0.0
 11
125.6806587678855
 21
107.6589526951703
 31
0.0
  0
LINE
  5
1E92
102
{ACAD_REACTORS
330
1F8A
102
}
330
21
100
AcDbEntity
  8
中心線
100
AcDbLine
 10
168.2069599523305
 20
107.6589526951703
 30
0.0
 11
212.6668473660957
 21
107.6589526951703
 31
0.0
  0
LINE
  5
1F6E
330
21
100
AcDbEntity
  8
実線
370
    15
100
AcDbLine
 10
47.5924555719774
 20
82.39595514563163
 30
0.0
 11
47.5924555719774
 21
73.17142254938518
 31
0.0
  0
LINE
  5
1F6F
330
21
100
AcDbEntity
  8
実線
370
    15
100
AcDbLine
 10
55.5924555719774
 20
82.39595514563163
 30
0.0
 11
55.5924555719774
 21
73.17142254938518
 31
0.0
  0
LWPOLYLINE
  5
1F71
330
21
100
AcDbEntity
  8
実線
100
AcDbPolyline
 90
        2
 70
     0
 43
0.0
 10
57.59245557197741
 20
82.39595514563162
 10
57.59245557197742
 20
129.8631429860996
  0
DIMENSION
  5
1F73
102
{ACAD_REACTORS
330
1F8A
102
}
102
{ACAD_XDICTIONARY
360
1F80
102
}
330
21
100
AcDbEntity
  8
文字
100
AcDbDimension
280
     0
  2
*D31
 10
191.2069599523305
 20
53.24924644553522
 30
0.0
 11
168.2069599523305
 21
55.12424644553522
 31
0.0
 70
    32
  1
%%c<>
 71
     5
 42
46.0
 73
     0
 74
     0
 75
     0
  3
ISO-25
100
AcDbAlignedDimension
 13
145.2069599523305
 23
107.6589526951703
 33
0.0
 14
191.2069599523305
 24
107.6589526951703
 34
0.0
100
AcDbRotatedDimension
  0
LINE
  5
1FFC
330
21
100
AcDbEntity
  8
文字
100
AcDbLine
 10
61.63010780418053
 20
134.7498482548288
 30
0.0
 11
41.71481720820044
 21
123.0263222109768
 31
0.0
  0
LINE
  5
1FFD
330
21
100
AcDbEntity
  8
文字
100
AcDbLine
 10
61.63010780418053
 20
132.2399860892479
 30
0.0
 11
41.71481720820044
 21
120.516460045396
 31
0.0
  0
LWPOLYLINE
  5
1FFE
330
21
100
AcDbEntity
  8
実線
100
AcDbPolyline
 90
        2
 70
     0
 43
0.0
 10
45.59245557197742
 20
122.7991078494684
 10
45.59245557197741
 20
82.3959551456316
  0
LWPOLYLINE
  5
1FFF
330
21
100
AcDbEntity
  8
実線
100
AcDbPolyline
 90
        6
 70
     0
 43
0.0
 10
57.59245557197742
 20
132.3730051516805
 10
57.59245557197741
 20
171.1714225493852
 10
55.59245557197741
 20
173.1714225493852
 10
47.59245557197741
 20
173.1714225493852
 10
45.59245557197741
 20
171.1714225493852
 10
45.59245557197742
 20
125.3089700150493
  0
LINE
  5
2000
330
21
100
AcDbEntity
  8
実線
370
    15
100
AcDbLine
 10
47.59245557197742
 20
123.976447038907
 30
0.0
 11
47.5924555719774
 21
82.39595514563163
 31
0.0
  0
LINE
  5
2001
330
21
100
AcDbEntity
  8
実線
370
    15
100
AcDbLine
 10
55.59245557197742
 20
128.6858037966611
 30
0.0
 11
55.5924555719774
 21
82.39595514563163
 31
0.0
  0
MTEXT
  5
20CA
330
21
100
AcDbEntity
  8
文字・寸法線
 62
     0
100
AcDbMText
 10
47.20333103295582
 20
199.3905434215117
 30
0.0
 40
6.0
 41
0.0
 46
6.0
 71
     9
 72
     1
  1
{\fＭＳ ゴシック|b0|i0|c0|p0;S-A2 M12X150}
 73
     1
 44
1.0
1001
ACAD
1000
ACAD_MTEXT_DEFINED_HEIGHT_BEGIN
1070
    46
1040
6.0
1000
ACAD_MTEXT_DEFINED_HEIGHT_END
  0
DIMENSION
  5
2129
102
{ACAD_XDICTIONARY
360
212A
102
}
330
21
100
AcDbEntity
  8
文字
100
AcDbDimension
280
     0
  2
*D36
 10
95.32399183847195
 20
42.25170528119632
 30
0.0
 11
93.44899183847195
 21
53.75259250071533
 31
0.0
 70
    32
 71
     5
 42
23.00177443903802
 73
     0
 74
     0
 75
     0
  3
ISO-25
100
AcDbAlignedDimension
 13
95.32399183847195
 23
65.25347972023434
 33
0.0
 14
86.62462034278835
 24
42.25170528119632
 34
0.0
 50
90.0
100
AcDbRotatedDimension
  0
ARC
  5
212B
330
21
100
AcDbEntity
  8
実線
100
AcDbCircle
 10
55.97193270709381
 20
47.10718200519139
 30
0.0
 40
18.58000450215047
100
AcDbArc
 50
7.093807545326944
 51
80.39179439527963
  0
DIMENSION
  5
212C
102
{ACAD_REACTORS
330
212E
102
}
102
{ACAD_XDICTIONARY
360
212D
102
}
330
21
100
AcDbEntity
  8
文字
100
AcDbDimension
280
     0
  2
*D37
 10
86.77462034278835
 20
19.84104255941395
 30
0.0
 11
51.77462034278835
 21
21.71604255941395
 31
0.0
 70
    32
  1
%%c<>
 71
     5
 42
70.0
 73
     0
 74
     0
 75
     0
  3
ISO-25
100
AcDbAlignedDimension
 13
16.77462034278835
 23
42.40170528119631
 33
0.0
 14
86.77462034278835
 24
42.40170528119631
 34
0.0
100
AcDbRotatedDimension
  0
LWPOLYLINE
  5
212F
102
{ACAD_REACTORS
330
2133
330
212E
102
}
330
21
100
AcDbEntity
  8
実線
100
AcDbPolyline
 90
        4
 70
     1
 43
0.0
 10
16.77462034278835
 20
42.40170528119631
 10
86.77462034278835
 20
42.40170528119631
 10
86.77462034278835
 20
49.40170528119631
 10
16.77462034278835
 20
49.40170528119631
  0
ARC
  5
2130
330
21
100
AcDbEntity
  8
実線
100
AcDbCircle
 10
47.51247817671833
 20
47.11011368976529
 30
0.0
 40
18.57540432309607
100
AcDbArc
 50
100.0285685747383
 51
172.9135391164099
  0
DIMENSION
  5
2131
102
{ACAD_REACTORS
330
2133
102
}
102
{ACAD_XDICTIONARY
360
2132
102
}
330
21
100
AcDbEntity
  8
文字
100
AcDbDimension
280
     0
  2
*D38
 10
2.670745588035018
 20
42.40170528119631
 30
0.0
 11
0.7957455880350182
 21
45.90170528119631
 31
0.0
 70
    32
 71
     5
 42
7.0
 73
     0
 74
     0
 75
     0
  3
ISO-25
100
AcDbAlignedDimension
 13
16.77462034278835
 23
49.40170528119631
 33
0.0
 14
16.77462034278835
 24
42.40170528119631
 34
0.0
 50
90.0
100
AcDbRotatedDimension
  0
VIEWPORT
  5
2093
330
208F
100
AcDbEntity
 67
     1
  8
0
100
AcDbViewport
 10
203.7291666666666
 20
142.1694444444444
 30
0.0
 40
488.9499999999999
 41
341.2066666666665
 68
     1
 69
     1
 12
203.7291666666666
 22
142.1694444444444
 13
0.0
 23
0.0
 14
0.5
 24
0.5
 15
0.0
 25
0.0
 16
0.0
 26
0.0
 36
1.0
 17
0.0
 27
0.0
 37
0.0
 42
50.0
 43
0.0
 44
0.0
 45
341.2066666666665
 50
0.0
 51
0.0
 72
   100
 90
   557152
  1

281
     0
 71
     1
 74
     0
110
0.0
120
0.0
130
0.0
111
1.0
121
0.0
131
0.0
112
0.0
122
1.0
132
0.0
 79
     0
146
0.0
170
     0
 61
     5
348
2051
292
     1
282
     1
141
0.0
142
0.0
 63
   256
361
2095
  0
VIEWPORT
  5
2094
330
208F
100
AcDbEntity
 67
     1
  8
0
100
AcDbViewport
 10
203.7291666666666
 20
142.1694444444444
 30
0.0
 40
325.9666666666666
 41
227.471111111111
 68
     2
 69
     2
 12
106.0303537974164
 22
103.0537006131077
 13
0.0
 23
0.0
 14
0.5
 24
0.5
 15
0.0
 25
0.0
 16
0.0
 26
0.0
 36
1.0
 17
0.0
 27
0.0
 37
0.0
 42
50.0
 43
0.0
 44
0.0
 45
170.7335992024299
 50
0.0
 51
0.0
 72
   100
 90
   557152
  1

281
     0
 71
     1
 74
     0
110
0.0
120
0.0
130
0.0
111
1.0
121
0.0
131
0.0
112
0.0
122
1.0
132
0.0
 79
     0
146
0.0
170
     0
 61
     5
348
2051
292
     1
282
     1
141
0.0
142
0.0
 63
   256
  0
ENDSEC
  0
SECTION
  2
OBJECTS
  0
DICTIONARY
  5
C
330
0
100
AcDbDictionary
281
     1
  3
ACAD_COLOR
350
1C
  3
ACAD_DETAILVIEWSTYLE
350
209E
  3
ACAD_GROUP
350
D
  3
ACAD_IMAGE_VARS
350
208E
  3
ACAD_LAYOUT
350
1A
  3
ACAD_MATERIAL
350
1B
  3
ACAD_MLEADERSTYLE
350
209C
  3
ACAD_MLINESTYLE
350
17
  3
ACAD_PLOTSETTINGS
350
19
  3
ACAD_PLOTSTYLENAME
350
E
  3
ACAD_SCALELIST
350
2065
  3
ACAD_SECTIONVIEWSTYLE
350
209F
  3
ACAD_TABLESTYLE
350
208A
  3
ACAD_VISUALSTYLE
350
204C
  3
AcadDim
350
1271
  3
ACDB_RECOMPOSE_DATA
350
215B
  3
AcDbVariableDictionary
350
13CA
  3
APPDATA
350
208C
  0
SUN
  5
2096
330
2040
100
AcDbSun
 90
        1
290
     0
 63
     7
421
 16777215
 40
1.0
291
     1
 91
  2455826
 92
 54000000
292
     0
 70
     2
 71
   256
280
     1
  0
DICTIONARY
  5
1A12
330
1A11
100
AcDbDictionary
280
     1
281
     1
  3
ACAD_DIMASSOC
360
1A13
  0
DICTIONARY
  5
1A17
330
1A16
100
AcDbDictionary
280
     1
281
     1
  3
ACAD_DIMASSOC
360
1A18
  0
DICTIONARY
  5
1A1A
330
1A19
100
AcDbDictionary
280
     1
281
     1
  3
ACAD_DIMASSOC
360
1A1B
  0
DICTIONARY
  5
1A1D
330
1A1C
100
AcDbDictionary
280
     1
281
     1
  3
ACAD_DIMASSOC
360
1A1E
  0
DICTIONARY
  5
1A21
330
1A20
100
AcDbDictionary
280
     1
281
     1
  3
ACAD_DIMASSOC
360
1A22
  0
DICTIONARY
  5
1A28
330
1A27
100
AcDbDictionary
280
     1
281
     1
  3
ACAD_DIMASSOC
360
1A29
  0
DICTIONARY
  5
1A2B
330
1A2A
100
AcDbDictionary
280
     1
281
     1
  3
ACAD_DIMASSOC
360
1A2C
  0
DICTIONARY
  5
1A31
330
1A30
100
AcDbDictionary
280
     1
281
     1
  3
ACAD_DIMASSOC
360
1A32
  0
DICTIONARY
  5
1B0C
330
1B0B
100
AcDbDictionary
280
     1
281
     1
  3
ACAD_DIMASSOC
360
1B0D
  0
DICTIONARY
  5
1B16
330
1B15
100
AcDbDictionary
280
     1
281
     1
  3
ACAD_DIMASSOC
360
1B17
  0
DICTIONARY
  5
1B1C
330
1B1B
100
AcDbDictionary
280
     1
281
     1
  3
ACAD_DIMASSOC
360
1B1D
  0
DICTIONARY
  5
1B1F
330
1B1E
100
AcDbDictionary
280
     1
281
     1
  3
ACAD_DIMASSOC
360
1B20
  0
DICTIONARY
  5
1B23
330
1B22
100
AcDbDictionary
280
     1
281
     1
  3
ACAD_DIMASSOC
360
1B24
  0
DICTIONARY
  5
1B26
330
1B25
100
AcDbDictionary
280
     1
281
     1
  3
ACAD_DIMASSOC
360
1B27
  0
DICTIONARY
  5
1E85
330
1E84
100
AcDbDictionary
280
     1
281
     1
  3
ACAD_DIMASSOC
360
1E86
  0
DICTIONARY
  5
1E8C
330
1E8B
100
AcDbDictionary
280
     1
281
     1
  3
ACAD_DIMASSOC
360
1E8D
  0
DICTIONARY
  5
1E8F
330
1E8E
100
AcDbDictionary
280
     1
281
     1
  3
ACAD_DIMASSOC
360
1E90
  0
DICTIONARY
  5
1F80
330
1F73
100
AcDbDictionary
280
     1
281
     1
  3
ACAD_DIMASSOC
360
1F8A
  0
DICTIONARY
  5
212A
330
2129
100
AcDbDictionary
280
     1
281
     1
  0
DICTIONARY
  5
212D
330
212C
100
AcDbDictionary
280
     1
281
     1
  3
ACAD_DIMASSOC
360
212E
  0
DICTIONARY
  5
2132
330
2131
100
AcDbDictionary
280
     1
281
     1
  3
ACAD_DIMASSOC
360
2133
  0
SUN
  5
2095
330
2093
100
AcDbSun
 90
        1
290
     0
 63
     7
421
 16777215
 40
1.0
291
     1
 91
  2455826
 92
 54000000
292
     0
 70
     2
 71
   256
280
     1
  0
DICTIONARY
  5
1C
102
{ACAD_REACTORS
330
C
102
}
330
C
100
AcDbDictionary
281
     1
  0
DICTIONARY
  5
209E
102
{ACAD_REACTORS
330
C
102
}
330
C
100
AcDbDictionary
281
     1
  0
DICTIONARY
  5
D
102
{ACAD_REACTORS
330
C
102
}
330
C
100
AcDbDictionary
281
     1
  0
RASTERVARIABLES
  5
208E
102
{ACAD_REACTORS
330
C
102
}
330
C
100
AcDbRasterVariables
 90
        0
 70
     1
 71
     1
 72
     1
  0
DICTIONARY
  5
1A
102
{ACAD_REACTORS
330
C
102
}
330
C
100
AcDbDictionary
281
     1
  3
Model
350
24
  3
Sheet1
350
2090
  0
DICTIONARY
  5
1B
102
{ACAD_REACTORS
330
C
102
}
330
C
100
AcDbDictionary
281
     1
  3
ByBlock
350
2088
  3
ByLayer
350
2087
  3
Global
350
2089
  0
DICTIONARY
  5
209C
102
{ACAD_REACTORS
330
C
102
}
330
C
100
AcDbDictionary
281
     1
  0
DICTIONARY
  5
17
102
{ACAD_REACTORS
330
C
102
}
330
C
100
AcDbDictionary
281
     1
  3
Standard
350
18
  0
DICTIONARY
  5
19
102
{ACAD_REACTORS
330
C
102
}
330
C
100
AcDbDictionary
281
     1
  0
ACDBDICTIONARYWDFLT
  5
E
102
{ACAD_REACTORS
330
C
102
}
330
C
100
AcDbDictionary
281
     1
  3
Normal
350
F
100
AcDbDictionaryWithDefault
340
F
  0
DICTIONARY
  5
2065
102
{ACAD_REACTORS
330
C
102
}
330
C
100
AcDbDictionary
281
     1
  3
A0
350
2066
  3
A1
350
2067
  3
A2
350
2068
  3
A3
350
2069
  3
A4
350
206A
  3
A5
350
206B
  3
A6
350
206C
  3
A7
350
206D
  3
A8
350
206E
  3
A9
350
206F
  3
B0
350
2070
  3
B1
350
2071
  3
B2
350
2072
  3
B3
350
2073
  3
B4
350
2074
  3
B5
350
2075
  3
B6
350
2076
  3
B7
350
2077
  3
B8
350
2078
  3
B9
350
2079
  3
C0
350
207A
  3
C1
350
207B
  3
C2
350
207C
  3
C3
350
207D
  3
C4
350
207E
  3
C5
350
207F
  3
C6
350
2080
  3
C7
350
2081
  3
C8
350
2082
  3
C9
350
2083
  3
D0
350
2084
  3
D1
350
2085
  3
D2
350
2086
  0
DICTIONARY
  5
209F
102
{ACAD_REACTORS
330
C
102
}
330
C
100
AcDbDictionary
281
     1
  0
DICTIONARY
  5
208A
102
{ACAD_REACTORS
330
C
102
}
330
C
100
AcDbDictionary
281
     1
  3
Standard
350
208B
  0
DICTIONARY
  5
204C
102
{ACAD_REACTORS
330
C
102
}
330
C
100
AcDbDictionary
281
     1
  3
2dWireframe
350
2051
  3
Basic
350
2054
  3
Brighten
350
2058
  3
ColorChange
350
205C
  3
Conceptual
350
2056
  3
Dim
350
2057
  3
EdgeColorOff
350
205F
  3
Facepattern
350
205B
  3
Flat
350
204D
  3
FlatWithEdges
350
204E
  3
Gouraud
350
204F
  3
GouraudWithEdges
350
2050
  3
Hidden
350
2053
  3
JitterOff
350
205D
  3
Linepattern
350
205A
  3
OverhangOff
350
205E
  3
Realistic
350
2055
  3
Shaded
350
2064
  3
Shaded with edges
350
2063
  3
Shades of Gray
350
2060
  3
Sketchy
350
2061
  3
Thicken
350
2059
  3
Wireframe
350
2052
  3
X-Ray
350
2062
  0
XRECORD
  5
1271
102
{ACAD_REACTORS
330
C
102
}
330
C
100
AcDbXrecord
280
     1
 90
   990106
  3

 60
     0
 61
     0
 62
     4
 63
     4
 64
     1
 65
     0
 66
     0
 67
     3
 68
     1
 69
     0
 70
     0
 71
     0
 72
     0
 40
0.0
170
     2
340
0
  0
XRECORD
  5
215B
102
{ACAD_REACTORS
330
C
102
}
330
C
100
AcDbXrecord
280
     1
 90
        1
330
208B
  0
DICTIONARY
  5
13CA
102
{ACAD_REACTORS
330
C
102
}
330
C
100
AcDbDictionary
281
     1
  3
CANNOSCALE
350
2097
  3
CTABLESTYLE
350
209B
  3
DIMASSOC
350
13CC
  3
HIDETEXT
350
13CB
  3
MSLTSCALE
350
209D
  3
PROJECTNAME
350
13CD
  0
DICTIONARY
  5
208C
102
{ACAD_REACTORS
330
C
102
}
330
C
100
AcDbDictionary
281
     1
  0
DIMASSOC
  5
1A13
102
{ACAD_REACTORS
330
1A12
102
}
330
1A12
100
AcDbDimAssoc
330
1A11
 90
        3
 70
     0
 71
     0
  1
AcDbOsnapPointRef
 72
     1
331
1A48
 73
     2
 91
        0
 40
1.0
 10
0.0
 20
0.0
 30
2.000000000000000E+50
 75
     0
  1
AcDbOsnapPointRef
 72
    13
331
1A23
 73
     2
 91
        0
 40
0.0
 10
0.0
 20
0.0
 30
2.000000000000000E+50
 75
     0
  0
DIMASSOC
  5
1A18
102
{ACAD_REACTORS
330
1A17
102
}
330
1A17
100
AcDbDimAssoc
330
1A16
 90
        3
 70
     0
 71
     0
  1
AcDbOsnapPointRef
 72
     1
331
1A3B
 73
     2
 91
        1
 40
1.0
 10
0.0
 20
0.0
 30
2.000000000000000E+50
 75
     0
  1
AcDbOsnapPointRef
 72
    13
331
1A23
 73
     2
 91
        0
 40
0.0
 10
0.0
 20
0.0
 30
2.000000000000000E+50
 75
     0
  0
DIMASSOC
  5
1A1B
102
{ACAD_REACTORS
330
1A1A
102
}
330
1A1A
100
AcDbDimAssoc
330
1A19
 90
        3
 70
     0
 71
     0
  1
AcDbOsnapPointRef
 72
     6
331
1A34
 73
     2
 91
        0
 40
1.0
 10
0.0
 20
0.0
 30
0.0
332
1A44
 74
     2
 92
        0
 75
     0
  1
AcDbOsnapPointRef
 72
     1
331
1A3B
 73
     2
 91
        1
 40
1.0
 10
0.0
 20
0.0
 30
2.000000000000000E+50
 75
     0
  0
DIMASSOC
  5
1A1E
102
{ACAD_REACTORS
330
1A1D
102
}
330
1A1D
100
AcDbDimAssoc
330
1A1C
 90
        3
 70
     0
 71
     0
  1
AcDbOsnapPointRef
 72
     1
331
1A48
 73
     2
 91
        0
 40
1.0
 10
0.0
 20
0.0
 30
2.000000000000000E+50
 75
     0
  1
AcDbOsnapPointRef
 72
     6
331
1A34
 73
     2
 91
        0
 40
1.0
 10
0.0
 20
0.0
 30
0.0
332
1A44
 74
     2
 92
        0
 75
     0
  0
DIMASSOC
  5
1A22
102
{ACAD_REACTORS
330
1A21
102
}
330
1A21
100
AcDbDimAssoc
330
1A20
 90
        3
 70
     0
 71
     0
  1
AcDbOsnapPointRef
 72
    13
331
1A25
 73
     2
 91
        0
 40
0.0
 10
0.0
 20
0.0
 30
2.000000000000000E+50
 75
     0
  1
AcDbOsnapPointRef
 72
     1
331
1A25
 73
     2
 91
        0
 40
1.0
 10
0.0
 20
0.0
 30
2.000000000000000E+50
 75
     0
  0
DIMASSOC
  5
1A29
102
{ACAD_REACTORS
330
1A28
102
}
330
1A28
100
AcDbDimAssoc
330
1A27
 90
        3
 70
     0
 71
     0
  1
AcDbOsnapPointRef
 72
     2
331
1A2F
 73
     2
 91
        3
 40
0.5
 10
0.0
 20
0.0
 30
0.0
 75
     0
  1
AcDbOsnapPointRef
 72
     6
331
1A2F
 73
     2
 91
        6
 40
0.5000000000000038
 10
0.0
 20
0.0
 30
0.0
332
1A3C
 74
     2
 92
        0
 75
     0
  0
DIMASSOC
  5
1A2C
102
{ACAD_REACTORS
330
1A2B
102
}
330
1A2B
100
AcDbDimAssoc
330
1A2A
 90
        3
 70
     0
 71
     0
  1
AcDbOsnapPointRef
 72
    13
331
1A46
 73
     2
 91
        0
 40
0.0
 10
0.0
 20
0.0
 30
2.000000000000000E+50
 75
     0
  1
AcDbOsnapPointRef
 72
    13
331
1A49
 73
     2
 91
        0
 40
0.0
 10
0.0
 20
0.0
 30
2.000000000000000E+50
 75
     0
  0
DIMASSOC
  5
1A32
102
{ACAD_REACTORS
330
1A31
102
}
330
1A31
100
AcDbDimAssoc
330
1A30
 90
        3
 70
     0
 71
     0
  1
AcDbOsnapPointRef
 72
     5
331
1A40
 73
     2
 91
        0
 40
3.141592653589793
 10
0.0
 20
0.0
 30
0.0
 75
     0
  1
AcDbOsnapPointRef
 72
     5
331
1A40
 73
     2
 91
        0
 40
0.0
 10
0.0
 20
0.0
 30
0.0
 75
     0
  0
DIMASSOC
  5
1B0D
102
{ACAD_REACTORS
330
1B0C
102
}
330
1B0C
100
AcDbDimAssoc
330
1B0B
 90
        2
 70
     0
 71
     0
  1
AcDbOsnapPointRef
 72
     1
331
1B34
 73
     2
 91
        1
 40
1.0
 10
0.0
 20
0.0
 30
2.000000000000000E+50
 75
     0
  0
DIMASSOC
  5
1B17
102
{ACAD_REACTORS
330
1B16
102
}
330
1B16
100
AcDbDimAssoc
330
1B15
 90
        3
 70
     0
 71
     0
  1
AcDbOsnapPointRef
 72
    13
331
1B2C
 73
     2
 91
        1
 40
0.0
 10
0.0
 20
0.0
 30
2.000000000000000E+50
 75
     0
  1
AcDbOsnapPointRef
 72
     1
331
1B2C
 73
     2
 91
        2
 40
1.0
 10
0.0
 20
0.0
 30
2.000000000000000E+50
 75
     0
  0
DIMASSOC
  5
1B1D
102
{ACAD_REACTORS
330
1B1C
102
}
330
1B1C
100
AcDbDimAssoc
330
1B1B
 90
        3
 70
     0
 71
     0
  1
AcDbOsnapPointRef
 72
    13
331
1B3F
 73
     2
 91
        0
 40
0.0
 10
0.0
 20
0.0
 30
2.000000000000000E+50
 75
     0
  1
AcDbOsnapPointRef
 72
     1
331
1B3F
 73
     2
 91
        0
 40
1.0
 10
0.0
 20
0.0
 30
2.000000000000000E+50
 75
     0
  0
DIMASSOC
  5
1B20
102
{ACAD_REACTORS
330
1B1F
102
}
330
1B1F
100
AcDbDimAssoc
330
1B1E
 90
        3
 70
     0
 71
     0
  1
AcDbOsnapPointRef
 72
     5
331
1B36
 73
     2
 91
        0
 40
3.141592653589793
 10
0.0
 20
0.0
 30
0.0
 75
     0
  1
AcDbOsnapPointRef
 72
     5
331
1B36
 73
     2
 91
        0
 40
0.0
 10
0.0
 20
0.0
 30
0.0
 75
     0
  0
DIMASSOC
  5
1B24
102
{ACAD_REACTORS
330
1B23
102
}
330
1B23
100
AcDbDimAssoc
330
1B22
 90
        1
 70
     0
 71
     0
  1
AcDbOsnapPointRef
 72
     2
331
1B30
 73
     2
 91
        0
 40
4.71238898038469
 10
0.0
 20
0.0
 30
0.0
 75
     0
  0
DIMASSOC
  5
1B27
102
{ACAD_REACTORS
330
1B26
102
}
330
1B26
100
AcDbDimAssoc
330
1B25
 90
        3
 70
     0
 71
     0
  1
AcDbOsnapPointRef
 72
    13
331
1B3F
 73
     2
 91
        0
 40
0.0
 10
0.0
 20
0.0
 30
2.000000000000000E+50
 75
     0
  1
AcDbOsnapPointRef
 72
    13
331
1B41
 73
     2
 91
        0
 40
0.0
 10
0.0
 20
0.0
 30
2.000000000000000E+50
 75
     0
  0
DIMASSOC
  5
1E86
102
{ACAD_REACTORS
330
1E85
102
}
330
1E85
100
AcDbDimAssoc
330
1E84
 90
        3
 70
     0
 71
     0
  1
AcDbOsnapPointRef
 72
    13
331
1E7C
 73
     2
 91
        1
 40
0.0
 10
0.0
 20
0.0
 30
2.000000000000000E+50
 75
     0
  1
AcDbOsnapPointRef
 72
     1
331
1E7C
 73
     2
 91
        2
 40
1.0
 10
0.0
 20
0.0
 30
2.000000000000000E+50
 75
     0
  0
DIMASSOC
  5
1E8D
102
{ACAD_REACTORS
330
1E8C
102
}
330
1E8C
100
AcDbDimAssoc
330
1E8B
 90
        3
 70
     0
 71
     0
  1
AcDbOsnapPointRef
 72
    13
331
1E8A
 73
     2
 91
        0
 40
0.0
 10
0.0
 20
0.0
 30
2.000000000000000E+50
 75
     0
  1
AcDbOsnapPointRef
 72
     1
331
1E74
 73
     2
 91
        1
 40
1.0
 10
0.0
 20
0.0
 30
2.000000000000000E+50
 75
     0
  0
DIMASSOC
  5
1E90
102
{ACAD_REACTORS
330
1E8F
102
}
330
1E8F
100
AcDbDimAssoc
330
1E8E
 90
        3
 70
     0
 71
     0
  1
AcDbOsnapPointRef
 72
    13
331
1E88
 73
     2
 91
        0
 40
0.0
 10
0.0
 20
0.0
 30
2.000000000000000E+50
 75
     0
  1
AcDbOsnapPointRef
 72
     1
331
1E88
 73
     2
 91
        0
 40
1.0
 10
0.0
 20
0.0
 30
2.000000000000000E+50
 75
     0
  0
DIMASSOC
  5
1F8A
102
{ACAD_REACTORS
330
1F80
102
}
330
1F80
100
AcDbDimAssoc
330
1F73
 90
        3
 70
     0
 71
     0
  1
AcDbOsnapPointRef
 72
     6
331
1E91
 73
     2
 91
        0
 40
0.5408417699024518
 10
0.0
 20
0.0
 30
0.0
332
1E73
 74
     2
 92
        0
 75
     0
  1
AcDbOsnapPointRef
 72
     6
331
1E92
 73
     2
 91
        0
 40
0.5173202483836926
 10
0.0
 20
0.0
 30
0.0
332
1E73
 74
     2
 92
        0
 75
     0
  0
DIMASSOC
  5
212E
102
{ACAD_REACTORS
330
212D
102
}
330
212D
100
AcDbDimAssoc
330
212C
 90
        3
 70
     0
 71
     0
  1
AcDbOsnapPointRef
 72
    13
331
212F
 73
     2
 91
        1
 40
0.0
 10
0.0
 20
0.0
 30
2.000000000000000E+50
 75
     0
  1
AcDbOsnapPointRef
 72
     1
331
212F
 73
     2
 91
        1
 40
1.0
 10
0.0
 20
0.0
 30
2.000000000000000E+50
 75
     0
  0
DIMASSOC
  5
2133
102
{ACAD_REACTORS
330
2132
102
}
330
2132
100
AcDbDimAssoc
330
2131
 90
        3
 70
     0
 71
     0
  1
AcDbOsnapPointRef
 72
     1
331
212F
 73
     2
 91
        3
 40
1.0
 10
0.0
 20
0.0
 30
2.000000000000000E+50
 75
     0
  1
AcDbOsnapPointRef
 72
    13
331
212F
 73
     2
 91
        1
 40
0.0
 10
0.0
 20
0.0
 30
2.000000000000000E+50
 75
     0
  0
LAYOUT
  5
24
102
{ACAD_REACTORS
330
1A
102
}
330
1A
100
AcDbPlotSettings
  1

  2
\\SF05\Brother HL-1440 series
  4
A4
  6

 40
6.72041654586792
 41
5.027085304260254
 42
6.889755249023438
 43
5.027069091796875
 44
209.9733276367188
 45
296.9259948730469
 46
-6.82
 47
-5.06
 48
0.0
 49
0.0
140
297.0000000000001
141
210.0
142
1.0
143
1.0
 70
 11956
 72
     1
 73
     1
 74
     4
  7

 75
    16
 76
     0
 77
     2
 78
   300
147
1.0
148
0.0
149
0.0
100
AcDbLayout
  1
Model
 70
     1
 71
     0
 10
0.0
 20
0.0
 11
12.0
 21
9.0
 12
0.0
 22
0.0
 32
0.0
 14
-0.4542544119649818
 24
18.59104255941395
 34
0.0
 15
212.6668473660957
 25
205.3905434215117
 35
0.0
146
0.0
 13
0.0
 23
0.0
 33
0.0
 16
1.0
 26
0.0
 36
0.0
 17
0.0
 27
1.0
 37
0.0
 76
     0
330
21
331
2040
  0
LAYOUT
  5
2090
102
{ACAD_REACTORS
330
1A
102
}
330
1A
100
AcDbPlotSettings
  1

  2
none_device
  4
iso-a3
  6

 40
6.35
 41
6.35
 42
6.35
 43
6.35
 44
297.0388888888888
 45
420.1583333333333
 46
0.0
 47
0.0
 48
0.0
 49
0.0
140
0.0
141
0.0
142
1.0
143
1.0
 70
   688
 72
     1
 73
     1
 74
     5
  7

 75
    16
 76
     0
 77
     2
 78
   300
147
1.0
148
0.0
149
0.0
100
AcDbLayout
  1
Sheet1
 70
     1
 71
     1
 10
0.0
 20
0.0
 11
0.0
 21
0.0
 12
0.0
 22
0.0
 32
0.0
 14
0.0
 24
0.0
 34
0.0
 15
0.0
 25
0.0
 35
0.0
146
0.0
 13
0.0
 23
0.0
 33
0.0
 16
1.0
 26
0.0
 36
0.0
 17
0.0
 27
1.0
 37
0.0
 76
     0
330
208F
331
2093
  0
MATERIAL
  5
2088
102
{ACAD_REACTORS
330
1B
102
}
330
1B
100
AcDbMaterial
  1
ByBlock
 72
     1
 94
      127
  0
MATERIAL
  5
2087
102
{ACAD_REACTORS
330
1B
102
}
330
1B
100
AcDbMaterial
  1
ByLayer
 72
     1
 94
      127
  0
MATERIAL
  5
2089
102
{ACAD_REACTORS
330
1B
102
}
330
1B
100
AcDbMaterial
  1
Global
 72
     1
 94
      127
  0
MLINESTYLE
  5
18
102
{ACAD_REACTORS
330
17
102
}
330
17
100
AcDbMlineStyle
  2
STANDARD
 70
     0
  3

 62
   256
 51
90.0
 52
90.0
 71
     2
 49
0.5
 62
   256
  6
BYLAYER
 49
-0.5
 62
   256
  6
BYLAYER
  0
ACDBPLACEHOLDER
  5
F
102
{ACAD_REACTORS
330
E
102
}
330
E
  0
SCALE
  5
2066
102
{ACAD_REACTORS
330
2065
102
}
330
2065
100
AcDbScale
 70
     0
300
1:1
140
1.0
141
1.0
290
     1
  0
SCALE
  5
2067
102
{ACAD_REACTORS
330
2065
102
}
330
2065
100
AcDbScale
 70
     0
300
1:2
140
1.0
141
2.0
290
     0
  0
SCALE
  5
2068
102
{ACAD_REACTORS
330
2065
102
}
330
2065
100
AcDbScale
 70
     0
300
1:4
140
1.0
141
4.0
290
     0
  0
SCALE
  5
2069
102
{ACAD_REACTORS
330
2065
102
}
330
2065
100
AcDbScale
 70
     0
300
1:5
140
1.0
141
5.0
290
     0
  0
SCALE
  5
206A
102
{ACAD_REACTORS
330
2065
102
}
330
2065
100
AcDbScale
 70
     0
300
1:8
140
1.0
141
8.0
290
     0
  0
SCALE
  5
206B
102
{ACAD_REACTORS
330
2065
102
}
330
2065
100
AcDbScale
 70
     0
300
1:10
140
1.0
141
10.0
290
     0
  0
SCALE
  5
206C
102
{ACAD_REACTORS
330
2065
102
}
330
2065
100
AcDbScale
 70
     0
300
1:16
140
1.0
141
16.0
290
     0
  0
SCALE
  5
206D
102
{ACAD_REACTORS
330
2065
102
}
330
2065
100
AcDbScale
 70
     0
300
1:20
140
1.0
141
20.0
290
     0
  0
SCALE
  5
206E
102
{ACAD_REACTORS
330
2065
102
}
330
2065
100
AcDbScale
 70
     0
300
1:30
140
1.0
141
30.0
290
     0
  0
SCALE
  5
206F
102
{ACAD_REACTORS
330
2065
102
}
330
2065
100
AcDbScale
 70
     0
300
1:40
140
1.0
141
40.0
290
     0
  0
SCALE
  5
2070
102
{ACAD_REACTORS
330
2065
102
}
330
2065
100
AcDbScale
 70
     0
300
1:50
140
1.0
141
50.0
290
     0
  0
SCALE
  5
2071
102
{ACAD_REACTORS
330
2065
102
}
330
2065
100
AcDbScale
 70
     0
300
1:100
140
1.0
141
100.0
290
     0
  0
SCALE
  5
2072
102
{ACAD_REACTORS
330
2065
102
}
330
2065
100
AcDbScale
 70
     0
300
2:1
140
2.0
141
1.0
290
     0
  0
SCALE
  5
2073
102
{ACAD_REACTORS
330
2065
102
}
330
2065
100
AcDbScale
 70
     0
300
4:1
140
4.0
141
1.0
290
     0
  0
SCALE
  5
2074
102
{ACAD_REACTORS
330
2065
102
}
330
2065
100
AcDbScale
 70
     0
300
8:1
140
8.0
141
1.0
290
     0
  0
SCALE
  5
2075
102
{ACAD_REACTORS
330
2065
102
}
330
2065
100
AcDbScale
 70
     0
300
10:1
140
10.0
141
1.0
290
     0
  0
SCALE
  5
2076
102
{ACAD_REACTORS
330
2065
102
}
330
2065
100
AcDbScale
 70
     0
300
100:1
140
100.0
141
1.0
290
     0
  0
SCALE
  5
2077
102
{ACAD_REACTORS
330
2065
102
}
330
2065
100
AcDbScale
 70
     0
300
1/128" = 1'-0"
140
0.0078125
141
12.0
290
     0
  0
SCALE
  5
2078
102
{ACAD_REACTORS
330
2065
102
}
330
2065
100
AcDbScale
 70
     0
300
1/64" = 1'-0"
140
0.015625
141
12.0
290
     0
  0
SCALE
  5
2079
102
{ACAD_REACTORS
330
2065
102
}
330
2065
100
AcDbScale
 70
     0
300
1/32" = 1'-0"
140
0.03125
141
12.0
290
     0
  0
SCALE
  5
207A
102
{ACAD_REACTORS
330
2065
102
}
330
2065
100
AcDbScale
 70
     0
300
1/16" = 1'-0"
140
0.0625
141
12.0
290
     0
  0
SCALE
  5
207B
102
{ACAD_REACTORS
330
2065
102
}
330
2065
100
AcDbScale
 70
     0
300
3/32" = 1'-0"
140
0.09375
141
12.0
290
     0
  0
SCALE
  5
207C
102
{ACAD_REACTORS
330
2065
102
}
330
2065
100
AcDbScale
 70
     0
300
1/8" = 1'-0"
140
0.125
141
12.0
290
     0
  0
SCALE
  5
207D
102
{ACAD_REACTORS
330
2065
102
}
330
2065
100
AcDbScale
 70
     0
300
3/16" = 1'-0"
140
0.1875
141
12.0
290
     0
  0
SCALE
  5
207E
102
{ACAD_REACTORS
330
2065
102
}
330
2065
100
AcDbScale
 70
     0
300
1/4" = 1'-0"
140
0.25
141
12.0
290
     0
  0
SCALE
  5
207F
102
{ACAD_REACTORS
330
2065
102
}
330
2065
100
AcDbScale
 70
     0
300
3/8" = 1'-0"
140
0.375
141
12.0
290
     0
  0
SCALE
  5
2080
102
{ACAD_REACTORS
330
2065
102
}
330
2065
100
AcDbScale
 70
     0
300
1/2" = 1'-0"
140
0.5
141
12.0
290
     0
  0
SCALE
  5
2081
102
{ACAD_REACTORS
330
2065
102
}
330
2065
100
AcDbScale
 70
     0
300
3/4" = 1'-0"
140
0.75
141
12.0
290
     0
  0
SCALE
  5
2082
102
{ACAD_REACTORS
330
2065
102
}
330
2065
100
AcDbScale
 70
     0
300
1" = 1'-0"
140
1.0
141
12.0
290
     0
  0
SCALE
  5
2083
102
{ACAD_REACTORS
330
2065
102
}
330
2065
100
AcDbScale
 70
     0
300
1-1/2" = 1'-0"
140
1.5
141
12.0
290
     0
  0
SCALE
  5
2084
102
{ACAD_REACTORS
330
2065
102
}
330
2065
100
AcDbScale
 70
     0
300
3" = 1'-0"
140
3.0
141
12.0
290
     0
  0
SCALE
  5
2085
102
{ACAD_REACTORS
330
2065
102
}
330
2065
100
AcDbScale
 70
     0
300
6" = 1'-0"
140
6.0
141
12.0
290
     0
  0
SCALE
  5
2086
102
{ACAD_REACTORS
330
2065
102
}
330
2065
100
AcDbScale
 70
     0
300
1'-0" = 1'-0"
140
12.0
141
12.0
290
     0
  0
TABLESTYLE
  5
208B
102
{ACAD_REACTORS
330
208A
102
}
102
{ACAD_XDICTIONARY
360
2159
102
}
330
208A
100
AcDbTableStyle
  3
Standard
 70
     0
 71
     0
 40
0.06
 41
0.06
280
     0
281
     0
  7
Standard
140
4.5
170
     2
 62
     0
 63
   257
283
     0
 90
        4
 91
        0
  1

274
    -2
284
     1
 64
     0
275
    -2
285
     1
 65
     0
276
    -2
286
     1
 66
     0
277
    -2
287
     1
 67
     0
278
    -2
288
     1
 68
     0
279
    -2
289
     1
 69
     0
  7
Standard
140
6.0
170
     5
 62
     0
 63
   257
283
     0
 90
        4
 91
        0
  1

274
    -2
284
     1
 64
     0
275
    -2
285
     1
 65
     0
276
    -2
286
     1
 66
     0
277
    -2
287
     1
 67
     0
278
    -2
288
     1
 68
     0
279
    -2
289
     1
 69
     0
  7
Standard
140
4.5
170
     5
 62
     0
 63
   257
283
     0
 90
        4
 91
        0
  1

274
    -2
284
     1
 64
     0
275
    -2
285
     1
 65
     0
276
    -2
286
     1
 66
     0
277
    -2
287
     1
 67
     0
278
    -2
288
     1
 68
     0
279
    -2
289
     1
 69
     0
  0
VISUALSTYLE
  5
2051
102
{ACAD_REACTORS
330
204C
102
}
330
204C
100
AcDbVisualStyle
  2
2dWireframe
 70
     4
177
     3
291
     0
 70
    58
 90
        0
176
     1
 90
        2
176
     1
 90
        0
176
     1
 90
        0
176
     1
 40
0.6
176
     1
 40
30.0
176
     1
 62
     7
420
 16777215
176
     1
 90
        1
176
     1
 90
        4
176
     1
 62
     7
176
     1
 62
   257
176
     1
 90
        1
176
     1
 90
        1
176
     1
 40
1.0
176
     1
 90
        0
176
     1
 62
   257
176
     1
 40
1.0
176
     1
 90
        1
176
     1
 90
        6
176
     1
 90
        2
176
     1
 62
     7
176
     1
 90
        5
176
     1
 90
        0
176
     1
 90
        0
176
     1
290
     0
176
     1
 90
        1
176
     1
 40
0.0
176
     1
 90
        0
176
     1
290
     1
176
     1
290
     1
176
     1
290
     0
176
     1
290
     0
176
     1
290
     0
176
     1
290
     0
176
     1
290
     0
176
     1
290
     0
176
     1
290
     0
176
     1
 90
       50
176
     1
 40
0.0
176
     1
 40
1.0
176
     1
 90
        0
176
     1
 62
    18
420
        0
176
     1
 90
       50
176
     1
 90
        3
176
     1
 62
     5
420
      255
176
     1
290
     0
176
     1
 90
       50
176
     1
 90
       50
176
     1
 90
       50
176
     1
290
     0
176
     1
 90
       50
176
     1
 62
   256
176
     0
 40
1.0
176
     0
 90
        2
176
     1
  1
strokes_ogs.tif
176
     1
290
     0
176
     1
 40
1.0
176
     1
 40
1.0
176
     1
  0
VISUALSTYLE
  5
2054
102
{ACAD_REACTORS
330
204C
102
}
330
204C
100
AcDbVisualStyle
  2
Basic
 70
     7
177
     3
291
     1
 70
    58
 90
        1
176
     1
 90
        0
176
     1
 90
        1
176
     1
 90
        0
176
     1
 40
0.6
176
     1
 40
30.0
176
     1
 62
     7
420
 16777215
176
     1
 90
        0
176
     1
 90
        4
176
     1
 62
     7
176
     1
 62
   257
176
     1
 90
        1
176
     1
 90
        1
176
     1
 40
1.0
176
     1
 90
        8
176
     1
 62
     7
176
     1
 40
1.0
176
     1
 90
        1
176
     1
 90
        6
176
     1
 90
        2
176
     1
 62
     7
176
     1
 90
        5
176
     1
 90
        0
176
     1
 90
        0
176
     1
290
     0
176
     1
 90
        1
176
     1
 40
0.0
176
     1
 90
        0
176
     1
290
     0
176
     1
290
     1
176
     1
290
     1
176
     1
290
     0
176
     1
290
     0
176
     1
290
     0
176
     1
290
     0
176
     1
290
     0
176
     1
290
     0
176
     1
 90
       50
176
     1
 40
0.0
176
     1
 40
1.0
176
     1
 90
        0
176
     1
 62
    18
420
        0
176
     1
 90
       50
176
     1
 90
        3
176
     1
 62
     5
420
      255
176
     1
290
     0
176
     1
 90
       50
176
     1
 90
       50
176
     1
 90
       50
176
     1
290
     0
176
     1
 90
       50
176
     1
 62
   256
176
     0
 40
1.0
176
     0
 90
        2
176
     1
  1
strokes_ogs.tif
176
     1
290
     0
176
     1
 40
1.0
176
     1
 40
1.0
176
     1
  0
VISUALSTYLE
  5
2058
102
{ACAD_REACTORS
330
204C
102
}
330
204C
100
AcDbVisualStyle
  2
Brighten
 70
    12
177
     3
291
     1
 70
    58
 90
        2
176
     1
 90
        2
176
     1
 90
        0
176
     1
 90
        0
176
     1
 40
0.6
176
     1
 40
30.0
176
     1
 62
     7
420
 16777215
176
     1
 90
        1
176
     1
 90
        4
176
     1
 62
     7
176
     1
 62
   257
176
     1
 90
        1
176
     1
 90
        1
176
     1
 40
1.0
176
     1
 90
        8
176
     1
 62
     7
176
     1
 40
1.0
176
     1
 90
        1
176
     1
 90
        6
176
     1
 90
        2
176
     1
 62
     7
176
     1
 90
        5
176
     1
 90
        0
176
     1
 90
        0
176
     1
290
     0
176
     1
 90
        1
176
     1
 40
50.0
176
     1
 90
        0
176
     1
290
     0
176
     1
290
     1
176
     1
290
     1
176
     1
290
     0
176
     1
290
     0
176
     1
290
     0
176
     1
290
     0
176
     1
290
     0
176
     1
290
     0
176
     1
 90
       50
176
     1
 40
0.0
176
     1
 40
1.0
176
     1
 90
        0
176
     1
 62
    18
420
        0
176
     1
 90
       50
176
     1
 90
        3
176
     1
 62
     5
420
      255
176
     1
290
     0
176
     1
 90
       50
176
     1
 90
       50
176
     1
 90
       50
176
     1
290
     0
176
     1
 90
       50
176
     1
 62
   256
176
     0
 40
1.0
176
     0
 90
        2
176
     1
  1
strokes_ogs.tif
176
     1
290
     0
176
     1
 40
1.0
176
     1
 40
1.0
176
     1
  0
VISUALSTYLE
  5
205C
102
{ACAD_REACTORS
330
204C
102
}
330
204C
100
AcDbVisualStyle
  2
ColorChange
 70
    16
177
     3
291
     1
 70
    58
 90
        2
176
     1
 90
        2
176
     1
 90
        3
176
     1
 90
        0
176
     1
 40
0.6
176
     1
 40
30.0
176
     1
 62
     8
420
  8421504
176
     1
 90
        1
176
     1
 90
        4
176
     1
 62
     7
176
     1
 62
   257
176
     1
 90
        1
176
     1
 90
        1
176
     1
 40
1.0
176
     1
 90
        8
176
     1
 62
     8
420
  8421504
176
     1
 40
1.0
176
     1
 90
        1
176
     1
 90
        6
176
     1
 90
        2
176
     1
 62
     7
176
     1
 90
        5
176
     1
 90
        0
176
     1
 90
        0
176
     1
290
     0
176
     1
 90
        1
176
     1
 40
0.0
176
     1
 90
        0
176
     1
290
     0
176
     1
290
     1
176
     1
290
     1
176
     1
290
     0
176
     1
290
     0
176
     1
290
     0
176
     1
290
     0
176
     1
290
     0
176
     1
290
     0
176
     1
 90
       50
176
     1
 40
0.0
176
     1
 40
1.0
176
     1
 90
        0
176
     1
 62
    18
420
        0
176
     1
 90
       50
176
     1
 90
        3
176
     1
 62
     5
420
      255
176
     1
290
     0
176
     1
 90
       50
176
     1
 90
       50
176
     1
 90
       50
176
     1
290
     0
176
     1
 90
       50
176
     1
 62
   256
176
     0
 40
1.0
176
     0
 90
        2
176
     1
  1
strokes_ogs.tif
176
     1
290
     0
176
     1
 40
1.0
176
     1
 40
1.0
176
     1
  0
VISUALSTYLE
  5
2056
102
{ACAD_REACTORS
330
204C
102
}
330
204C
100
AcDbVisualStyle
  2
Conceptual
 70
     9
177
     3
291
     0
 70
    58
 90
        3
176
     1
 90
        2
176
     1
 90
        0
176
     1
 90
        0
176
     1
 40
0.6
176
     1
 40
30.0
176
     1
 62
     7
420
 16777215
176
     1
 90
        2
176
     1
 90
        2
176
     1
 62
     7
176
     1
 62
   257
176
     1
 90
        1
176
     1
 90
        1
176
     1
 40
179.0
176
     1
 90
        8
176
     1
 62
     7
176
     1
 40
1.0
176
     1
 90
        1
176
     1
 90
        6
176
     1
 90
        2
176
     1
 62
     7
176
     1
 90
        3
176
     1
 90
        0
176
     1
 90
        0
176
     1
290
     0
176
     1
 90
        1
176
     1
 40
0.0
176
     1
 90
        0
176
     1
290
     0
176
     1
290
     1
176
     1
290
     1
176
     1
290
     0
176
     1
290
     0
176
     1
290
     0
176
     1
290
     0
176
     1
290
     0
176
     1
290
     0
176
     1
 90
       50
176
     1
 40
0.0
176
     1
 40
1.0
176
     1
 90
        0
176
     1
 62
    18
420
        0
176
     1
 90
       50
176
     1
 90
        3
176
     1
 62
     5
420
      255
176
     1
290
     0
176
     1
 90
       50
176
     1
 90
       50
176
     1
 90
       50
176
     1
290
     0
176
     1
 90
       50
176
     1
 62
   256
176
     0
 40
1.0
176
     0
 90
        2
176
     1
  1
strokes_ogs.tif
176
     1
290
     0
176
     1
 40
1.0
176
     1
 40
1.0
176
     1
  0
VISUALSTYLE
  5
2057
102
{ACAD_REACTORS
330
204C
102
}
330
204C
100
AcDbVisualStyle
  2
Dim
 70
    11
177
     3
291
     1
 70
    58
 90
        2
176
     1
 90
        2
176
     1
 90
        0
176
     1
 90
        0
176
     1
 40
0.6
176
     1
 40
30.0
176
     1
 62
     7
420
 16777215
176
     1
 90
        1
176
     1
 90
        4
176
     1
 62
     7
176
     1
 62
   257
176
     1
 90
        1
176
     1
 90
        1
176
     1
 40
1.0
176
     1
 90
        8
176
     1
 62
     7
176
     1
 40
1.0
176
     1
 90
        1
176
     1
 90
        6
176
     1
 90
        2
176
     1
 62
     7
176
     1
 90
        5
176
     1
 90
        0
176
     1
 90
        0
176
     1
290
     0
176
     1
 90
        1
176
     1
 40
-50.0
176
     1
 90
        0
176
     1
290
     0
176
     1
290
     1
176
     1
290
     1
176
     1
290
     0
176
     1
290
     0
176
     1
290
     0
176
     1
290
     0
176
     1
290
     0
176
     1
290
     0
176
     1
 90
       50
176
     1
 40
0.0
176
     1
 40
1.0
176
     1
 90
        0
176
     1
 62
    18
420
        0
176
     1
 90
       50
176
     1
 90
        3
176
     1
 62
     5
420
      255
176
     1
290
     0
176
     1
 90
       50
176
     1
 90
       50
176
     1
 90
       50
176
     1
290
     0
176
     1
 90
       50
176
     1
 62
   256
176
     0
 40
1.0
176
     0
 90
        2
176
     1
  1
strokes_ogs.tif
176
     1
290
     0
176
     1
 40
1.0
176
     1
 40
1.0
176
     1
  0
VISUALSTYLE
  5
205F
102
{ACAD_REACTORS
330
204C
102
}
330
204C
100
AcDbVisualStyle
  2
EdgeColorOff
 70
    22
177
     3
291
     1
 70
    58
 90
        2
176
     0
 90
        2
176
     0
 90
        0
176
     0
 90
        0
176
     0
 40
0.6
176
     0
 40
30.0
176
     0
 62
     7
420
 16777215
176
     0
 90
        1
176
     0
 90
        4
176
     0
 62
     7
176
     0
 62
   257
176
     0
 90
        1
176
     0
 90
        1
176
     0
 40
1.0
176
     0
 90
        8
176
     2
 62
     7
176
     0
 40
1.0
176
     0
 90
        1
176
     0
 90
        6
176
     0
 90
        2
176
     0
 62
     7
176
     0
 90
        5
176
     0
 90
        0
176
     0
 90
        0
176
     0
290
     0
176
     0
 90
        1
176
     0
 40
0.0
176
     0
 90
        0
176
     0
290
     0
176
     0
290
     1
176
     0
290
     1
176
     0
290
     0
176
     0
290
     0
176
     0
290
     0
176
     0
290
     0
176
     0
290
     0
176
     0
290
     0
176
     0
 90
       50
176
     0
 40
0.0
176
     0
 40
1.0
176
     0
 90
        0
176
     0
 62
    18
420
        0
176
     0
 90
       50
176
     0
 90
        3
176
     0
 62
     5
420
      255
176
     0
290
     0
176
     0
 90
       50
176
     0
 90
       50
176
     0
 90
       50
176
     0
290
     0
176
     0
 90
       50
176
     0
 62
   256
176
     0
 40
1.0
176
     0
 90
        2
176
     0
  1
strokes_ogs.tif
176
     0
290
     0
176
     0
 40
1.0
176
     0
 40
1.0
176
     0
  0
VISUALSTYLE
  5
205B
102
{ACAD_REACTORS
330
204C
102
}
330
204C
100
AcDbVisualStyle
  2
Facepattern
 70
    15
177
     3
291
     1
 70
    58
 90
        2
176
     1
 90
        2
176
     1
 90
        0
176
     1
 90
        0
176
     1
 40
0.6
176
     1
 40
30.0
176
     1
 62
     7
420
 16777215
176
     1
 90
        1
176
     1
 90
        4
176
     1
 62
     7
176
     1
 62
   257
176
     1
 90
        1
176
     1
 90
        1
176
     1
 40
1.0
176
     1
 90
        8
176
     1
 62
     7
176
     1
 40
1.0
176
     1
 90
        1
176
     1
 90
        6
176
     1
 90
        2
176
     1
 62
     7
176
     1
 90
        5
176
     1
 90
        0
176
     1
 90
        0
176
     1
290
     0
176
     1
 90
        1
176
     1
 40
0.0
176
     1
 90
        0
176
     1
290
     0
176
     1
290
     1
176
     1
290
     1
176
     1
290
     0
176
     1
290
     0
176
     1
290
     0
176
     1
290
     0
176
     1
290
     0
176
     1
290
     0
176
     1
 90
       50
176
     1
 40
0.0
176
     1
 40
1.0
176
     1
 90
        0
176
     1
 62
    18
420
        0
176
     1
 90
       50
176
     1
 90
        3
176
     1
 62
     5
420
      255
176
     1
290
     0
176
     1
 90
       50
176
     1
 90
       50
176
     1
 90
       50
176
     1
290
     0
176
     1
 90
       50
176
     1
 62
   256
176
     0
 40
1.0
176
     0
 90
        2
176
     1
  1
strokes_ogs.tif
176
     1
290
     0
176
     1
 40
1.0
176
     1
 40
1.0
176
     1
  0
VISUALSTYLE
  5
204D
102
{ACAD_REACTORS
330
204C
102
}
330
204C
100
AcDbVisualStyle
  2
Flat
 70
     0
177
     3
291
     1
 70
    58
 90
        2
176
     1
 90
        1
176
     1
 90
        1
176
     1
 90
        2
176
     1
 40
0.6
176
     1
 40
30.0
176
     1
 62
     7
420
 16777215
176
     1
 90
        0
176
     1
 90
        0
176
     1
 62
     7
176
     1
 62
   257
176
     1
 90
        1
176
     1
 90
        1
176
     1
 40
1.0
176
     1
 90
        8
176
     1
 62
     7
176
     1
 40
1.0
176
     1
 90
        1
176
     1
 90
        6
176
     1
 90
        2
176
     1
 62
     7
176
     1
 90
        5
176
     1
 90
        0
176
     1
 90
        0
176
     1
290
     0
176
     1
 90
       13
176
     1
 40
0.0
176
     1
 90
        0
176
     1
290
     0
176
     1
290
     1
176
     1
290
     1
176
     1
290
     0
176
     1
290
     0
176
     1
290
     0
176
     1
290
     0
176
     1
290
     0
176
     1
290
     0
176
     1
 90
       50
176
     1
 40
0.0
176
     1
 40
1.0
176
     1
 90
        0
176
     1
 62
    18
420
        0
176
     1
 90
       50
176
     1
 90
        3
176
     1
 62
     5
420
      255
176
     1
290
     0
176
     1
 90
       50
176
     1
 90
       50
176
     1
 90
       50
176
     1
290
     0
176
     1
 90
       50
176
     1
 62
   256
176
     0
 40
1.0
176
     0
 90
        2
176
     1
  1
strokes_ogs.tif
176
     1
290
     0
176
     1
 40
1.0
176
     1
 40
1.0
176
     1
  0
VISUALSTYLE
  5
204E
102
{ACAD_REACTORS
330
204C
102
}
330
204C
100
AcDbVisualStyle
  2
FlatWithEdges
 70
     1
177
     3
291
     1
 70
    58
 90
        2
176
     1
 90
        1
176
     1
 90
        1
176
     1
 90
        2
176
     1
 40
0.6
176
     1
 40
30.0
176
     1
 62
     7
420
 16777215
176
     1
 90
        1
176
     1
 90
        0
176
     1
 62
     7
176
     1
 62
   257
176
     1
 90
        1
176
     1
 90
        1
176
     1
 40
1.0
176
     1
 90
        0
176
     1
 62
   257
176
     1
 40
1.0
176
     1
 90
        1
176
     1
 90
        6
176
     1
 90
        2
176
     1
 62
     7
176
     1
 90
        5
176
     1
 90
        0
176
     1
 90
        0
176
     1
290
     0
176
     1
 90
       13
176
     1
 40
0.0
176
     1
 90
        0
176
     1
290
     0
176
     1
290
     1
176
     1
290
     1
176
     1
290
     0
176
     1
290
     0
176
     1
290
     0
176
     1
290
     0
176
     1
290
     0
176
     1
290
     0
176
     1
 90
       50
176
     1
 40
0.0
176
     1
 40
1.0
176
     1
 90
        0
176
     1
 62
    18
420
        0
176
     1
 90
       50
176
     1
 90
        3
176
     1
 62
     5
420
      255
176
     1
290
     0
176
     1
 90
       50
176
     1
 90
       50
176
     1
 90
       50
176
     1
290
     0
176
     1
 90
       50
176
     1
 62
   256
176
     0
 40
1.0
176
     0
 90
        2
176
     1
  1
strokes_ogs.tif
176
     1
290
     0
176
     1
 40
1.0
176
     1
 40
1.0
176
     1
  0
VISUALSTYLE
  5
204F
102
{ACAD_REACTORS
330
204C
102
}
330
204C
100
AcDbVisualStyle
  2
Gouraud
 70
     2
177
     3
291
     1
 70
    58
 90
        2
176
     1
 90
        2
176
     1
 90
        1
176
     1
 90
        2
176
     1
 40
0.6
176
     1
 40
30.0
176
     1
 62
     7
420
 16777215
176
     1
 90
        0
176
     1
 90
        0
176
     1
 62
     7
176
     1
 62
   257
176
     1
 90
        1
176
     1
 90
        1
176
     1
 40
1.0
176
     1
 90
        0
176
     1
 62
     7
176
     1
 40
1.0
176
     1
 90
        1
176
     1
 90
        6
176
     1
 90
        2
176
     1
 62
     7
176
     1
 90
        5
176
     1
 90
        0
176
     1
 90
        0
176
     1
290
     0
176
     1
 90
       13
176
     1
 40
0.0
176
     1
 90
        0
176
     1
290
     0
176
     1
290
     1
176
     1
290
     1
176
     1
290
     0
176
     1
290
     0
176
     1
290
     0
176
     1
290
     0
176
     1
290
     0
176
     1
290
     0
176
     1
 90
       50
176
     1
 40
0.0
176
     1
 40
1.0
176
     1
 90
        0
176
     1
 62
    18
420
        0
176
     1
 90
       50
176
     1
 90
        3
176
     1
 62
     5
420
      255
176
     1
290
     0
176
     1
 90
       50
176
     1
 90
       50
176
     1
 90
       50
176
     1
290
     0
176
     1
 90
       50
176
     1
 62
   256
176
     0
 40
1.0
176
     0
 90
        2
176
     1
  1
strokes_ogs.tif
176
     1
290
     0
176
     1
 40
1.0
176
     1
 40
1.0
176
     1
  0
VISUALSTYLE
  5
2050
102
{ACAD_REACTORS
330
204C
102
}
330
204C
100
AcDbVisualStyle
  2
GouraudWithEdges
 70
     3
177
     3
291
     1
 70
    58
 90
        2
176
     1
 90
        2
176
     1
 90
        1
176
     1
 90
        2
176
     1
 40
0.6
176
     1
 40
30.0
176
     1
 62
     7
420
 16777215
176
     1
 90
        1
176
     1
 90
        0
176
     1
 62
     7
176
     1
 62
   257
176
     1
 90
        1
176
     1
 90
        1
176
     1
 40
1.0
176
     1
 90
        0
176
     1
 62
   257
176
     1
 40
1.0
176
     1
 90
        1
176
     1
 90
        6
176
     1
 90
        2
176
     1
 62
     7
176
     1
 90
        5
176
     1
 90
        0
176
     1
 90
        0
176
     1
290
     0
176
     1
 90
       13
176
     1
 40
0.0
176
     1
 90
        0
176
     1
290
     0
176
     1
290
     1
176
     1
290
     1
176
     1
290
     0
176
     1
290
     0
176
     1
290
     0
176
     1
290
     0
176
     1
290
     0
176
     1
290
     0
176
     1
 90
       50
176
     1
 40
0.0
176
     1
 40
1.0
176
     1
 90
        0
176
     1
 62
    18
420
        0
176
     1
 90
       50
176
     1
 90
        3
176
     1
 62
     5
420
      255
176
     1
290
     0
176
     1
 90
       50
176
     1
 90
       50
176
     1
 90
       50
176
     1
290
     0
176
     1
 90
       50
176
     1
 62
   256
176
     0
 40
1.0
176
     0
 90
        2
176
     1
  1
strokes_ogs.tif
176
     1
290
     0
176
     1
 40
1.0
176
     1
 40
1.0
176
     1
  0
VISUALSTYLE
  5
2053
102
{ACAD_REACTORS
330
204C
102
}
330
204C
100
AcDbVisualStyle
  2
Hidden
 70
     6
177
     3
291
     0
 70
    58
 90
        1
176
     1
 90
        2
176
     1
 90
        2
176
     1
 90
        0
176
     1
 40
0.6
176
     1
 40
30.0
176
     1
 62
     7
420
 16777215
176
     1
 90
        2
176
     1
 90
        2
176
     1
 62
     7
176
     1
 62
   257
176
     1
 90
        2
176
     1
 90
        1
176
     1
 40
40.0
176
     1
 90
        0
176
     1
 62
   257
176
     1
 40
1.0
176
     1
 90
        1
176
     1
 90
        6
176
     1
 90
        2
176
     1
 62
     7
176
     1
 90
        3
176
     1
 90
        0
176
     1
 90
        0
176
     1
290
     0
176
     1
 90
        1
176
     1
 40
0.0
176
     1
 90
        0
176
     1
290
     0
176
     1
290
     1
176
     1
290
     1
176
     1
290
     0
176
     1
290
     0
176
     1
290
     0
176
     1
290
     0
176
     1
290
     0
176
     1
290
     0
176
     1
 90
       50
176
     1
 40
0.0
176
     1
 40
1.0
176
     1
 90
        0
176
     1
 62
    18
420
        0
176
     1
 90
       50
176
     1
 90
        3
176
     1
 62
     5
420
      255
176
     1
290
     0
176
     1
 90
       50
176
     1
 90
       50
176
     1
 90
       50
176
     1
290
     0
176
     1
 90
       50
176
     1
 62
   256
176
     0
 40
1.0
176
     0
 90
        2
176
     1
  1
strokes_ogs.tif
176
     1
290
     0
176
     1
 40
1.0
176
     1
 40
1.0
176
     1
  0
VISUALSTYLE
  5
205D
102
{ACAD_REACTORS
330
204C
102
}
330
204C
100
AcDbVisualStyle
  2
JitterOff
 70
    20
177
     3
291
     1
 70
    58
 90
        2
176
     0
 90
        2
176
     0
 90
        0
176
     0
 90
        0
176
     0
 40
0.6
176
     0
 40
30.0
176
     0
 62
     7
420
 16777215
176
     0
 90
        1
176
     0
 90
        4
176
     0
 62
     7
176
     0
 62
   257
176
     0
 90
        1
176
     0
 90
        1
176
     0
 40
1.0
176
     0
 90
       10
176
     2
 62
     7
176
     0
 40
1.0
176
     0
 90
        1
176
     0
 90
        6
176
     0
 90
        2
176
     0
 62
     7
176
     0
 90
        5
176
     0
 90
        0
176
     0
 90
        0
176
     0
290
     0
176
     0
 90
        1
176
     0
 40
0.0
176
     0
 90
        0
176
     0
290
     0
176
     0
290
     1
176
     0
290
     1
176
     0
290
     0
176
     0
290
     0
176
     0
290
     0
176
     0
290
     0
176
     0
290
     0
176
     0
290
     0
176
     0
 90
       50
176
     0
 40
0.0
176
     0
 40
1.0
176
     0
 90
        0
176
     0
 62
    18
420
        0
176
     0
 90
       50
176
     0
 90
        3
176
     0
 62
     5
420
      255
176
     0
290
     0
176
     0
 90
       50
176
     0
 90
       50
176
     0
 90
       50
176
     0
290
     0
176
     0
 90
       50
176
     0
 62
   256
176
     0
 40
1.0
176
     0
 90
        2
176
     0
  1
strokes_ogs.tif
176
     0
290
     0
176
     0
 40
1.0
176
     0
 40
1.0
176
     0
  0
VISUALSTYLE
  5
205A
102
{ACAD_REACTORS
330
204C
102
}
330
204C
100
AcDbVisualStyle
  2
Linepattern
 70
    14
177
     3
291
     1
 70
    58
 90
        2
176
     1
 90
        2
176
     1
 90
        0
176
     1
 90
        0
176
     1
 40
0.6
176
     1
 40
30.0
176
     1
 62
     7
420
 16777215
176
     1
 90
        1
176
     1
 90
        4
176
     1
 62
     7
176
     1
 62
   257
176
     1
 90
        7
176
     1
 90
        7
176
     1
 40
1.0
176
     1
 90
        8
176
     1
 62
     7
176
     1
 40
1.0
176
     1
 90
        1
176
     1
 90
        6
176
     1
 90
        2
176
     1
 62
     7
176
     1
 90
        5
176
     1
 90
        0
176
     1
 90
        0
176
     1
290
     0
176
     1
 90
        1
176
     1
 40
0.0
176
     1
 90
        0
176
     1
290
     0
176
     1
290
     1
176
     1
290
     1
176
     1
290
     0
176
     1
290
     0
176
     1
290
     0
176
     1
290
     0
176
     1
290
     0
176
     1
290
     0
176
     1
 90
       50
176
     1
 40
0.0
176
     1
 40
1.0
176
     1
 90
        0
176
     1
 62
    18
420
        0
176
     1
 90
       50
176
     1
 90
        3
176
     1
 62
     5
420
      255
176
     1
290
     0
176
     1
 90
       50
176
     1
 90
       50
176
     1
 90
       50
176
     1
290
     0
176
     1
 90
       50
176
     1
 62
   256
176
     0
 40
1.0
176
     0
 90
        2
176
     1
  1
strokes_ogs.tif
176
     1
290
     0
176
     1
 40
1.0
176
     1
 40
1.0
176
     1
  0
VISUALSTYLE
  5
205E
102
{ACAD_REACTORS
330
204C
102
}
330
204C
100
AcDbVisualStyle
  2
OverhangOff
 70
    21
177
     3
291
     1
 70
    58
 90
        2
176
     0
 90
        2
176
     0
 90
        0
176
     0
 90
        0
176
     0
 40
0.6
176
     0
 40
30.0
176
     0
 62
     7
420
 16777215
176
     0
 90
        1
176
     0
 90
        4
176
     0
 62
     7
176
     0
 62
   257
176
     0
 90
        1
176
     0
 90
        1
176
     0
 40
1.0
176
     0
 90
        9
176
     2
 62
     7
176
     0
 40
1.0
176
     0
 90
        1
176
     0
 90
        6
176
     0
 90
        2
176
     0
 62
     7
176
     0
 90
        5
176
     0
 90
        0
176
     0
 90
        0
176
     0
290
     0
176
     0
 90
        1
176
     0
 40
0.0
176
     0
 90
        0
176
     0
290
     0
176
     0
290
     1
176
     0
290
     1
176
     0
290
     0
176
     0
290
     0
176
     0
290
     0
176
     0
290
     0
176
     0
290
     0
176
     0
290
     0
176
     0
 90
       50
176
     0
 40
0.0
176
     0
 40
1.0
176
     0
 90
        0
176
     0
 62
    18
420
        0
176
     0
 90
       50
176
     0
 90
        3
176
     0
 62
     5
420
      255
176
     0
290
     0
176
     0
 90
       50
176
     0
 90
       50
176
     0
 90
       50
176
     0
290
     0
176
     0
 90
       50
176
     0
 62
   256
176
     0
 40
1.0
176
     0
 90
        2
176
     0
  1
strokes_ogs.tif
176
     0
290
     0
176
     0
 40
1.0
176
     0
 40
1.0
176
     0
  0
VISUALSTYLE
  5
2055
102
{ACAD_REACTORS
330
204C
102
}
330
204C
100
AcDbVisualStyle
  2
Realistic
 70
     8
177
     3
291
     0
 70
    58
 90
        2
176
     1
 90
        3
176
     1
 90
        0
176
     1
 90
        2
176
     1
 40
0.6
176
     1
 40
30.0
176
     1
 62
     7
420
 16777215
176
     1
 90
        0
176
     1
 90
        0
176
     1
 62
     7
176
     1
 62
   257
176
     1
 90
        1
176
     1
 90
        1
176
     1
 40
1.0
176
     1
 90
        8
176
     1
 62
   257
176
     1
 40
1.0
176
     1
 90
        1
176
     1
 90
        6
176
     1
 90
        2
176
     1
 62
     7
176
     1
 90
        3
176
     1
 90
        0
176
     1
 90
        0
176
     1
290
     0
176
     1
 90
       13
176
     1
 40
0.0
176
     1
 90
        0
176
     1
290
     0
176
     1
290
     1
176
     1
290
     1
176
     1
290
     0
176
     1
290
     0
176
     1
290
     0
176
     1
290
     0
176
     1
290
     0
176
     1
290
     0
176
     1
 90
       50
176
     1
 40
0.0
176
     1
 40
1.0
176
     1
 90
        0
176
     1
 62
    18
420
        0
176
     1
 90
       50
176
     1
 90
        3
176
     1
 62
     5
420
      255
176
     1
290
     0
176
     1
 90
       50
176
     1
 90
       50
176
     1
 90
       50
176
     1
290
     0
176
     1
 90
       50
176
     1
 62
   256
176
     0
 40
1.0
176
     0
 90
        2
176
     1
  1
strokes_ogs.tif
176
     1
290
     0
176
     1
 40
1.0
176
     1
 40
1.0
176
     1
  0
VISUALSTYLE
  5
2064
102
{ACAD_REACTORS
330
204C
102
}
330
204C
100
AcDbVisualStyle
  2
Shaded
 70
    27
177
     3
291
     0
 70
    58
 90
        2
176
     1
 90
        2
176
     1
 90
        1
176
     1
 90
        2
176
     1
 40
0.6
176
     1
 40
30.0
176
     1
 62
     7
420
 16777215
176
     1
 90
        0
176
     1
 90
        4
176
     1
 62
     7
176
     1
 62
   257
176
     1
 90
        1
176
     1
 90
        1
176
     1
 40
1.0
176
     1
 90
        8
176
     1
 62
   257
176
     1
 40
1.0
176
     1
 90
        1
176
     1
 90
        6
176
     1
 90
        2
176
     1
 62
     8
420
  7895160
176
     1
 90
        3
176
     1
 90
        0
176
     1
 90
        0
176
     1
290
     0
176
     1
 90
        5
176
     1
 40
0.0
176
     1
 90
        0
176
     1
290
     0
176
     1
290
     1
176
     1
290
     1
176
     1
290
     0
176
     1
290
     0
176
     1
290
     0
176
     1
290
     0
176
     1
290
     0
176
     1
290
     0
176
     1
 90
       50
176
     1
 40
0.0
176
     1
 40
1.0
176
     1
 90
        0
176
     1
 62
    18
420
        0
176
     1
 90
       50
176
     1
 90
        3
176
     1
 62
     5
420
      255
176
     1
290
     0
176
     1
 90
       50
176
     1
 90
       50
176
     1
 90
       50
176
     1
290
     0
176
     1
 90
       50
176
     1
 62
   256
176
     0
 40
1.0
176
     0
 90
        2
176
     1
  1
strokes_ogs.tif
176
     1
290
     0
176
     1
 40
1.0
176
     1
 40
1.0
176
     1
  0
VISUALSTYLE
  5
2063
102
{ACAD_REACTORS
330
204C
102
}
330
204C
100
AcDbVisualStyle
  2
Shaded with edges
 70
    26
177
     3
291
     0
 70
    58
 90
        2
176
     1
 90
        2
176
     1
 90
        1
176
     1
 90
        2
176
     1
 40
0.6
176
     1
 40
30.0
176
     1
 62
     7
420
 16777215
176
     1
 90
        1
176
     1
 90
       10
176
     1
 62
     7
176
     1
 62
   257
176
     1
 90
        2
176
     1
 90
        1
176
     1
 40
1.0
176
     1
 90
        8
176
     1
 62
   257
176
     1
 40
1.0
176
     1
 90
        1
176
     1
 90
        6
176
     1
 90
        2
176
     1
 62
     7
176
     1
 90
        3
176
     1
 90
        0
176
     1
 90
        0
176
     1
290
     0
176
     1
 90
        5
176
     1
 40
0.0
176
     1
 90
        0
176
     1
290
     0
176
     1
290
     1
176
     1
290
     1
176
     1
290
     0
176
     1
290
     0
176
     1
290
     0
176
     1
290
     0
176
     1
290
     0
176
     1
290
     0
176
     1
 90
       50
176
     1
 40
0.0
176
     1
 40
1.0
176
     1
 90
        0
176
     1
 62
    18
420
        0
176
     1
 90
       50
176
     1
 90
        3
176
     1
 62
     5
420
      255
176
     1
290
     0
176
     1
 90
       50
176
     1
 90
       50
176
     1
 90
       50
176
     1
290
     0
176
     1
 90
       50
176
     1
 62
   256
176
     0
 40
1.0
176
     0
 90
        2
176
     1
  1
strokes_ogs.tif
176
     1
290
     0
176
     1
 40
1.0
176
     1
 40
1.0
176
     1
  0
VISUALSTYLE
  5
2060
102
{ACAD_REACTORS
330
204C
102
}
330
204C
100
AcDbVisualStyle
  2
Shades of Gray
 70
    23
177
     3
291
     0
 70
    58
 90
        2
176
     1
 90
        2
176
     1
 90
        3
176
     1
 90
        0
176
     1
 40
0.6
176
     1
 40
30.0
176
     1
 62
     7
420
 16777215
176
     1
 90
        2
176
     1
 90
        2
176
     1
 62
     7
176
     1
 62
     7
176
     1
 90
        1
176
     1
 90
        1
176
     1
 40
40.0
176
     1
 90
        8
176
     1
 62
     7
176
     1
 40
1.0
176
     1
 90
        1
176
     1
 90
        6
176
     1
 90
        2
176
     1
 62
     7
176
     1
 90
        3
176
     1
 90
        0
176
     1
 90
        0
176
     1
290
     0
176
     1
 90
        1
176
     1
 40
0.0
176
     1
 90
        0
176
     1
290
     0
176
     1
290
     1
176
     1
290
     1
176
     1
290
     0
176
     1
290
     0
176
     1
290
     0
176
     1
290
     0
176
     1
290
     0
176
     1
290
     0
176
     1
 90
       50
176
     1
 40
0.0
176
     1
 40
1.0
176
     1
 90
        0
176
     1
 62
    18
420
        0
176
     1
 90
       50
176
     1
 90
        3
176
     1
 62
     5
420
      255
176
     1
290
     0
176
     1
 90
       50
176
     1
 90
       50
176
     1
 90
       50
176
     1
290
     0
176
     1
 90
       50
176
     1
 62
   256
176
     0
 40
1.0
176
     0
 90
        2
176
     1
  1
strokes_ogs.tif
176
     1
290
     0
176
     1
 40
1.0
176
     1
 40
1.0
176
     1
  0
VISUALSTYLE
  5
2061
102
{ACAD_REACTORS
330
204C
102
}
330
204C
100
AcDbVisualStyle
  2
Sketchy
 70
    24
177
     3
291
     0
 70
    58
 90
        1
176
     1
 90
        2
176
     1
 90
        2
176
     1
 90
        0
176
     1
 40
0.6
176
     1
 40
30.0
176
     1
 62
     7
420
 16777215
176
     1
 90
        2
176
     1
 90
        2
176
     1
 62
     7
176
     1
 62
     7
176
     1
 90
        1
176
     1
 90
        1
176
     1
 40
40.0
176
     1
 90
       11
176
     1
 62
     7
176
     1
 40
1.0
176
     1
 90
        1
176
     1
 90
        6
176
     1
 90
        2
176
     1
 62
     7
176
     1
 90
        6
176
     1
 90
        0
176
     1
 90
        0
176
     1
290
     0
176
     1
 90
        1
176
     1
 40
0.0
176
     1
 90
        0
176
     1
290
     0
176
     1
290
     1
176
     1
290
     1
176
     1
290
     0
176
     1
290
     0
176
     1
290
     0
176
     1
290
     0
176
     1
290
     0
176
     1
290
     0
176
     1
 90
       50
176
     1
 40
0.0
176
     1
 40
1.0
176
     1
 90
        0
176
     1
 62
    18
420
        0
176
     1
 90
       50
176
     1
 90
        3
176
     1
 62
     5
420
      255
176
     1
290
     0
176
     1
 90
       50
176
     1
 90
       50
176
     1
 90
       50
176
     1
290
     0
176
     1
 90
       50
176
     1
 62
   256
176
     0
 40
1.0
176
     0
 90
        2
176
     1
  1
strokes_ogs.tif
176
     1
290
     0
176
     1
 40
1.0
176
     1
 40
1.0
176
     1
  0
VISUALSTYLE
  5
2059
102
{ACAD_REACTORS
330
204C
102
}
330
204C
100
AcDbVisualStyle
  2
Thicken
 70
    13
177
     3
291
     1
 70
    58
 90
        2
176
     1
 90
        2
176
     1
 90
        0
176
     1
 90
        0
176
     1
 40
0.6
176
     1
 40
30.0
176
     1
 62
     7
420
 16777215
176
     1
 90
        1
176
     1
 90
        4
176
     1
 62
     7
176
     1
 62
   257
176
     1
 90
        1
176
     1
 90
        1
176
     1
 40
1.0
176
     1
 90
       12
176
     1
 62
     7
176
     1
 40
1.0
176
     1
 90
        1
176
     1
 90
        6
176
     1
 90
        2
176
     1
 62
     7
176
     1
 90
        5
176
     1
 90
        0
176
     1
 90
        0
176
     1
290
     0
176
     1
 90
        1
176
     1
 40
0.0
176
     1
 90
        0
176
     1
290
     0
176
     1
290
     1
176
     1
290
     1
176
     1
290
     0
176
     1
290
     0
176
     1
290
     0
176
     1
290
     0
176
     1
290
     0
176
     1
290
     0
176
     1
 90
       50
176
     1
 40
0.0
176
     1
 40
1.0
176
     1
 90
        0
176
     1
 62
    18
420
        0
176
     1
 90
       50
176
     1
 90
        3
176
     1
 62
     5
420
      255
176
     1
290
     0
176
     1
 90
       50
176
     1
 90
       50
176
     1
 90
       50
176
     1
290
     0
176
     1
 90
       50
176
     1
 62
   256
176
     0
 40
1.0
176
     0
 90
        2
176
     1
  1
strokes_ogs.tif
176
     1
290
     0
176
     1
 40
1.0
176
     1
 40
1.0
176
     1
  0
VISUALSTYLE
  5
2052
102
{ACAD_REACTORS
330
204C
102
}
330
204C
100
AcDbVisualStyle
  2
Wireframe
 70
     5
177
     3
291
     0
 70
    58
 90
        0
176
     1
 90
        2
176
     1
 90
        0
176
     1
 90
        0
176
     1
 40
0.6
176
     1
 40
30.0
176
     1
 62
     7
420
 16777215
176
     1
 90
        1
176
     1
 90
        4
176
     1
 62
     7
176
     1
 62
   257
176
     1
 90
        1
176
     1
 90
        1
176
     1
 40
1.0
176
     1
 90
        0
176
     1
 62
   257
176
     1
 40
1.0
176
     1
 90
        1
176
     1
 90
        6
176
     1
 90
        2
176
     1
 62
     7
176
     1
 90
        3
176
     1
 90
        0
176
     1
 90
        0
176
     1
290
     0
176
     1
 90
        1
176
     1
 40
0.0
176
     1
 90
        0
176
     1
290
     0
176
     1
290
     1
176
     1
290
     1
176
     1
290
     0
176
     1
290
     0
176
     1
290
     0
176
     1
290
     0
176
     1
290
     0
176
     1
290
     0
176
     1
 90
       50
176
     1
 40
0.0
176
     1
 40
1.0
176
     1
 90
        0
176
     1
 62
    18
420
        0
176
     1
 90
       50
176
     1
 90
        3
176
     1
 62
     5
420
      255
176
     1
290
     0
176
     1
 90
       50
176
     1
 90
       50
176
     1
 90
       50
176
     1
290
     0
176
     1
 90
       50
176
     1
 62
   256
176
     0
 40
1.0
176
     0
 90
        2
176
     1
  1
strokes_ogs.tif
176
     1
290
     0
176
     1
 40
1.0
176
     1
 40
1.0
176
     1
  0
VISUALSTYLE
  5
2062
102
{ACAD_REACTORS
330
204C
102
}
330
204C
100
AcDbVisualStyle
  2
X-Ray
 70
    25
177
     3
291
     0
 70
    58
 90
        2
176
     1
 90
        2
176
     1
 90
        1
176
     1
 90
        1
176
     1
 40
0.5
176
     1
 40
30.0
176
     1
 62
     7
420
 16777215
176
     1
 90
        1
176
     1
 90
        0
176
     1
 62
     7
176
     1
 62
   257
176
     1
 90
        1
176
     1
 90
        1
176
     1
 40
1.0
176
     1
 90
        8
176
     1
 62
     7
176
     1
 40
1.0
176
     1
 90
        1
176
     1
 90
        6
176
     1
 90
        2
176
     1
 62
     7
176
     1
 90
        3
176
     1
 90
        0
176
     1
 90
        0
176
     1
290
     0
176
     1
 90
       13
176
     1
 40
0.0
176
     1
 90
        0
176
     1
290
     0
176
     1
290
     1
176
     1
290
     1
176
     1
290
     0
176
     1
290
     0
176
     1
290
     0
176
     1
290
     0
176
     1
290
     0
176
     1
290
     0
176
     1
 90
       50
176
     1
 40
0.0
176
     1
 40
1.0
176
     1
 90
        0
176
     1
 62
    18
420
        0
176
     1
 90
       50
176
     1
 90
        3
176
     1
 62
     5
420
      255
176
     1
290
     0
176
     1
 90
       50
176
     1
 90
       50
176
     1
 90
       50
176
     1
290
     0
176
     1
 90
       50
176
     1
 62
   256
176
     0
 40
1.0
176
     0
 90
        2
176
     1
  1
strokes_ogs.tif
176
     1
290
     0
176
     1
 40
1.0
176
     1
 40
1.0
176
     1
  0
DICTIONARYVAR
  5
2097
102
{ACAD_REACTORS
330
13CA
102
}
330
13CA
100
DictionaryVariables
280
     0
  1
1:1
  0
DICTIONARYVAR
  5
209B
102
{ACAD_REACTORS
330
13CA
102
}
330
13CA
100
DictionaryVariables
280
     0
  1
Standard
  0
DICTIONARYVAR
  5
13CC
102
{ACAD_REACTORS
330
13CA
102
}
330
13CA
100
DictionaryVariables
280
     0
  1
2
  0
DICTIONARYVAR
  5
13CB
102
{ACAD_REACTORS
330
13CA
102
}
330
13CA
100
DictionaryVariables
280
     0
  1
1
  0
DICTIONARYVAR
  5
209D
102
{ACAD_REACTORS
330
13CA
102
}
330
13CA
100
DictionaryVariables
280
     0
  1
0
  0
DICTIONARYVAR
  5
13CD
102
{ACAD_REACTORS
330
13CA
102
}
330
13CA
100
DictionaryVariables
280
     0
  1

  0
DICTIONARY
  5
2159
330
208B
100
AcDbDictionary
280
     1
281
     1
  3
ACAD_ROUNDTRIP_2008_TABLESTYLE_CELLSTYLEMAP
360
215A
  0
CELLSTYLEMAP
  5
215A
102
{ACAD_REACTORS
330
2159
102
}
330
2159
100
AcDbCellStyleMap
 90
        3
300
CELLSTYLE
  1
TABLEFORMAT_BEGIN
 90
        5
170
     1
 91
        0
 92
        0
 62
   257
 93
        1
300
CONTENTFORMAT
  1
CONTENTFORMAT_BEGIN
 90
        0
 91
        0
 92
        4
 93
        0
300

 40
0.0
140
1.0
 94
        5
 62
     0
340
11
144
6.0
309
CONTENTFORMAT_END
171
     1
301
MARGIN
  1
CELLMARGIN_BEGIN
 40
1.5
 40
1.5
 40
1.5
 40
1.5
 40
1.5
 40
1.5
309
CELLMARGIN_END
 94
        6
 95
        1
302
GRIDFORMAT
  1
GRIDFORMAT_BEGIN
 90
        0
 91
        1
 62
     0
 92
       -2
340
14
 93
        0
 40
0.045
309
GRIDFORMAT_END
 95
        2
302
GRIDFORMAT
  1
GRIDFORMAT_BEGIN
 90
        0
 91
        1
 62
     0
 92
       -2
340
14
 93
        0
 40
0.045
309
GRIDFORMAT_END
 95
        4
302
GRIDFORMAT
  1
GRIDFORMAT_BEGIN
 90
        0
 91
        1
 62
     0
 92
       -2
340
14
 93
        0
 40
0.045
309
GRIDFORMAT_END
 95
        8
302
GRIDFORMAT
  1
GRIDFORMAT_BEGIN
 90
        0
 91
        1
 62
     0
 92
       -2
340
14
 93
        0
 40
0.045
309
GRIDFORMAT_END
 95
       16
302
GRIDFORMAT
  1
GRIDFORMAT_BEGIN
 90
        0
 91
        1
 62
     0
 92
       -2
340
14
 93
        0
 40
0.045
309
GRIDFORMAT_END
 95
       32
302
GRIDFORMAT
  1
GRIDFORMAT_BEGIN
 90
        0
 91
        1
 62
     0
 92
       -2
340
14
 93
        0
 40
0.045
309
GRIDFORMAT_END
309
TABLEFORMAT_END
  1
CELLSTYLE_BEGIN
 90
        1
 91
        1
300
_TITLE
309
CELLSTYLE_END
300
CELLSTYLE
  1
TABLEFORMAT_BEGIN
 90
        5
170
     1
 91
        0
 92
        0
 62
   257
 93
        1
300
CONTENTFORMAT
  1
CONTENTFORMAT_BEGIN
 90
        0
 91
        0
 92
        4
 93
        0
300

 40
0.0
140
1.0
 94
        5
 62
     0
340
11
144
4.5
309
CONTENTFORMAT_END
171
     1
301
MARGIN
  1
CELLMARGIN_BEGIN
 40
1.5
 40
1.5
 40
1.5
 40
1.5
 40
1.5
 40
1.5
309
CELLMARGIN_END
 94
        6
 95
        1
302
GRIDFORMAT
  1
GRIDFORMAT_BEGIN
 90
        0
 91
        1
 62
     0
 92
       -2
340
14
 93
        0
 40
0.045
309
GRIDFORMAT_END
 95
        2
302
GRIDFORMAT
  1
GRIDFORMAT_BEGIN
 90
        0
 91
        1
 62
     0
 92
       -2
340
14
 93
        0
 40
0.045
309
GRIDFORMAT_END
 95
        4
302
GRIDFORMAT
  1
GRIDFORMAT_BEGIN
 90
        0
 91
        1
 62
     0
 92
       -2
340
14
 93
        0
 40
0.045
309
GRIDFORMAT_END
 95
        8
302
GRIDFORMAT
  1
GRIDFORMAT_BEGIN
 90
        0
 91
        1
 62
     0
 92
       -2
340
14
 93
        0
 40
0.045
309
GRIDFORMAT_END
 95
       16
302
GRIDFORMAT
  1
GRIDFORMAT_BEGIN
 90
        0
 91
        1
 62
     0
 92
       -2
340
14
 93
        0
 40
0.045
309
GRIDFORMAT_END
 95
       32
302
GRIDFORMAT
  1
GRIDFORMAT_BEGIN
 90
        0
 91
        1
 62
     0
 92
       -2
340
14
 93
        0
 40
0.045
309
GRIDFORMAT_END
309
TABLEFORMAT_END
  1
CELLSTYLE_BEGIN
 90
        2
 91
        1
300
_HEADER
309
CELLSTYLE_END
300
CELLSTYLE
  1
TABLEFORMAT_BEGIN
 90
        5
170
     1
 91
        0
 92
        0
 62
   257
 93
        1
300
CONTENTFORMAT
  1
CONTENTFORMAT_BEGIN
 90
        0
 91
        0
 92
        4
 93
        0
300

 40
0.0
140
1.0
 94
        2
 62
     0
340
11
144
4.5
309
CONTENTFORMAT_END
171
     1
301
MARGIN
  1
CELLMARGIN_BEGIN
 40
1.5
 40
1.5
 40
1.5
 40
1.5
 40
1.5
 40
1.5
309
CELLMARGIN_END
 94
        6
 95
        1
302
GRIDFORMAT
  1
GRIDFORMAT_BEGIN
 90
        0
 91
        1
 62
     0
 92
       -2
340
14
 93
        0
 40
0.045
309
GRIDFORMAT_END
 95
        2
302
GRIDFORMAT
  1
GRIDFORMAT_BEGIN
 90
        0
 91
        1
 62
     0
 92
       -2
340
14
 93
        0
 40
0.045
309
GRIDFORMAT_END
 95
        4
302
GRIDFORMAT
  1
GRIDFORMAT_BEGIN
 90
        0
 91
        1
 62
     0
 92
       -2
340
14
 93
        0
 40
0.045
309
GRIDFORMAT_END
 95
        8
302
GRIDFORMAT
  1
GRIDFORMAT_BEGIN
 90
        0
 91
        1
 62
     0
 92
       -2
340
14
 93
        0
 40
0.045
309
GRIDFORMAT_END
 95
       16
302
GRIDFORMAT
  1
GRIDFORMAT_BEGIN
 90
        0
 91
        1
 62
     0
 92
       -2
340
14
 93
        0
 40
0.045
309
GRIDFORMAT_END
 95
       32
302
GRIDFORMAT
  1
GRIDFORMAT_BEGIN
 90
        0
 91
        1
 62
     0
 92
       -2
340
14
 93
        0
 40
0.045
309
GRIDFORMAT_END
309
TABLEFORMAT_END
  1
CELLSTYLE_BEGIN
 90
        3
 91
        2
300
_DATA
309
CELLSTYLE_END
  0
ENDSEC
  0
EOF
