  0
SECTION
  2
HEADER
  9
$ACADVER
  1
AC1027
  9
$ACADMAINTVER
 70
     8
  9
$DWGCODEPAGE
  3
ANSI_932
  9
$REQUIREDVERSIONS
160
                 0
  9
$LASTSAVEDBY
  1
Yasu
  9
$INSBASE
 10
0.0
 20
0.0
 30
0.0
  9
$EXTMIN
 10
-1.050156703377034
 20
8.852736846404007
 30
0.0
  9
$EXTMAX
 10
201.0540424567871
 20
196.46117020276
 30
0.0
  9
$LIMMIN
 10
0.0
 20
0.0
  9
$LIMMAX
 10
420.0
 20
297.0
  9
$ORTHOMODE
 70
     1
  9
$REGENMODE
 70
     1
  9
$FILLMODE
 70
     1
  9
$QTEXTMODE
 70
     0
  9
$MIRRTEXT
 70
     0
  9
$LTSCALE
 40
0.2
  9
$ATTMODE
 70
     1
  9
$TEXTSIZE
 40
3.0
  9
$TRACEWID
 40
1.0
  9
$TEXTSTYLE
  7
STANDARD
  9
$CLAYER
  8
文字
  9
$CELTYPE
  6
BYLAYER
  9
$CECOLOR
 62
   256
  9
$CELTSCALE
 40
1.0
  9
$DISPSILH
 70
     0
  9
$DIMSCALE
 40
1.0
  9
$DIMASZ
 40
2.5
  9
$DIMEXO
 40
0.625
  9
$DIMDLI
 40
3.75
  9
$DIMRND
 40
0.0
  9
$DIMDLE
 40
0.0
  9
$DIMEXE
 40
1.25
  9
$DIMTP
 40
0.0
  9
$DIMTM
 40
0.0
  9
$DIMTXT
 40
2.5
  9
$DIMCEN
 40
2.5
  9
$DIMTSZ
 40
0.0
  9
$DIMTOL
 70
     0
  9
$DIMLIM
 70
     0
  9
$DIMTIH
 70
     0
  9
$DIMTOH
 70
     0
  9
$DIMSE1
 70
     0
  9
$DIMSE2
 70
     0
  9
$DIMTAD
 70
     0
  9
$DIMZIN
 70
     8
  9
$DIMBLK
  1

  9
$DIMASO
 70
     1
  9
$DIMSHO
 70
     1
  9
$DIMPOST
  1

  9
$DIMAPOST
  1

  9
$DIMALT
 70
     0
  9
$DIMALTD
 70
     3
  9
$DIMALTF
 40
0.03937007874016
  9
$DIMLFAC
 40
1.0
  9
$DIMTOFL
 70
     1
  9
$DIMTVP
 40
0.0
  9
$DIMTIX
 70
     0
  9
$DIMSOXD
 70
     0
  9
$DIMSAH
 70
     0
  9
$DIMBLK1
  1

  9
$DIMBLK2
  1

  9
$DIMSTYLE
  2
ISO-25
  9
$DIMCLRD
 70
     0
  9
$DIMCLRE
 70
     0
  9
$DIMCLRT
 70
     0
  9
$DIMTFAC
 40
1.0
  9
$DIMGAP
 40
0.625
  9
$DIMJUST
 70
     4
  9
$DIMSD1
 70
     0
  9
$DIMSD2
 70
     0
  9
$DIMTOLJ
 70
     0
  9
$DIMTZIN
 70
     8
  9
$DIMALTZ
 70
     0
  9
$DIMALTTZ
 70
     0
  9
$DIMUPT
 70
     0
  9
$DIMDEC
 70
     2
  9
$DIMTDEC
 70
     2
  9
$DIMALTU
 70
     2
  9
$DIMALTTD
 70
     3
  9
$DIMTXSTY
  7
STANDARD
  9
$DIMAUNIT
 70
     0
  9
$DIMADEC
 70
     0
  9
$DIMALTRND
 40
0.0
  9
$DIMAZIN
 70
     0
  9
$DIMDSEP
 70
    46
  9
$DIMATFIT
 70
     3
  9
$DIMFRAC
 70
     0
  9
$DIMLDRBLK
  1

  9
$DIMLUNIT
 70
     2
  9
$DIMLWD
 70
    -2
  9
$DIMLWE
 70
    -2
  9
$DIMTMOVE
 70
     2
  9
$DIMFXL
 40
1.0
  9
$DIMFXLON
 70
     0
  9
$DIMJOGANG
 40
0.7853981633974483
  9
$DIMTFILL
 70
     0
  9
$DIMTFILLCLR
 70
     0
  9
$DIMARCSYM
 70
     0
  9
$DIMLTYPE
  6

  9
$DIMLTEX1
  6

  9
$DIMLTEX2
  6

  9
$DIMTXTDIRECTION
 70
     0
  9
$LUNITS
 70
     2
  9
$LUPREC
 70
     4
  9
$SKETCHINC
 40
1.0
  9
$FILLETRAD
 40
2.0
  9
$AUNITS
 70
     0
  9
$AUPREC
 70
     0
  9
$MENU
  1
.
  9
$ELEVATION
 40
0.0
  9
$PELEVATION
 40
0.0
  9
$THICKNESS
 40
0.0
  9
$LIMCHECK
 70
     0
  9
$CHAMFERA
 40
0.0
  9
$CHAMFERB
 40
0.0
  9
$CHAMFERC
 40
0.0
  9
$CHAMFERD
 40
0.0
  9
$SKPOLY
 70
     0
  9
$TDCREATE
 40
2452936.788310313
  9
$TDUCREATE
 40
2452936.413310313
  9
$TDUPDATE
 40
2456738.892016956
  9
$TDUUPDATE
 40
2456738.517016956
  9
$TDINDWG
 40
0.9487661343
  9
$TDUSRTIMER
 40
2456738.516277025
  9
$USRTIMER
 70
     1
  9
$ANGBASE
 50
0.0
  9
$ANGDIR
 70
     0
  9
$PDMODE
 70
     0
  9
$PDSIZE
 40
0.0
  9
$PLINEWID
 40
0.0
  9
$SPLFRAME
 70
     0
  9
$SPLINETYPE
 70
     6
  9
$SPLINESEGS
 70
     8
  9
$HANDSEED
  5
23A3
  9
$SURFTAB1
 70
     6
  9
$SURFTAB2
 70
     6
  9
$SURFTYPE
 70
     6
  9
$SURFU
 70
     6
  9
$SURFV
 70
     6
  9
$UCSBASE
  2

  9
$UCSNAME
  2

  9
$UCSORG
 10
0.0
 20
0.0
 30
0.0
  9
$UCSXDIR
 10
1.0
 20
0.0
 30
0.0
  9
$UCSYDIR
 10
0.0
 20
1.0
 30
0.0
  9
$UCSORTHOREF
  2

  9
$UCSORTHOVIEW
 70
     0
  9
$UCSORGTOP
 10
0.0
 20
0.0
 30
0.0
  9
$UCSORGBOTTOM
 10
0.0
 20
0.0
 30
0.0
  9
$UCSORGLEFT
 10
0.0
 20
0.0
 30
0.0
  9
$UCSORGRIGHT
 10
0.0
 20
0.0
 30
0.0
  9
$UCSORGFRONT
 10
0.0
 20
0.0
 30
0.0
  9
$UCSORGBACK
 10
0.0
 20
0.0
 30
0.0
  9
$PUCSBASE
  2

  9
$PUCSNAME
  2

  9
$PUCSORG
 10
0.0
 20
0.0
 30
0.0
  9
$PUCSXDIR
 10
1.0
 20
0.0
 30
0.0
  9
$PUCSYDIR
 10
0.0
 20
1.0
 30
0.0
  9
$PUCSORTHOREF
  2

  9
$PUCSORTHOVIEW
 70
     0
  9
$PUCSORGTOP
 10
0.0
 20
0.0
 30
0.0
  9
$PUCSORGBOTTOM
 10
0.0
 20
0.0
 30
0.0
  9
$PUCSORGLEFT
 10
0.0
 20
0.0
 30
0.0
  9
$PUCSORGRIGHT
 10
0.0
 20
0.0
 30
0.0
  9
$PUCSORGFRONT
 10
0.0
 20
0.0
 30
0.0
  9
$PUCSORGBACK
 10
0.0
 20
0.0
 30
0.0
  9
$USERI1
 70
     0
  9
$USERI2
 70
     0
  9
$USERI3
 70
     0
  9
$USERI4
 70
     0
  9
$USERI5
 70
     0
  9
$USERR1
 40
0.0
  9
$USERR2
 40
0.0
  9
$USERR3
 40
0.0
  9
$USERR4
 40
0.0
  9
$USERR5
 40
0.0
  9
$WORLDVIEW
 70
     1
  9
$SHADEDGE
 70
     3
  9
$SHADEDIF
 70
    70
  9
$TILEMODE
 70
     1
  9
$MAXACTVP
 70
    64
  9
$PINSBASE
 10
0.0
 20
0.0
 30
0.0
  9
$PLIMCHECK
 70
     0
  9
$PEXTMIN
 10
0.0
 20
0.0
 30
0.0
  9
$PEXTMAX
 10
0.0
 20
0.0
 30
0.0
  9
$PLIMMIN
 10
0.0
 20
0.0
  9
$PLIMMAX
 10
0.0
 20
0.0
  9
$UNITMODE
 70
     0
  9
$VISRETAIN
 70
     1
  9
$PLINEGEN
 70
     0
  9
$PSLTSCALE
 70
     1
  9
$TREEDEPTH
 70
  3020
  9
$CMLSTYLE
  2
STANDARD
  9
$CMLJUST
 70
     0
  9
$CMLSCALE
 40
20.0
  9
$PROXYGRAPHICS
 70
     1
  9
$MEASUREMENT
 70
     1
  9
$CELWEIGHT
370
    -1
  9
$ENDCAPS
280
     0
  9
$JOINSTYLE
280
     0
  9
$LWDISPLAY
290
     0
  9
$INSUNITS
 70
     0
  9
$HYPERLINKBASE
  1

  9
$STYLESHEET
  1

  9
$XEDIT
290
     1
  9
$CEPSNTYPE
380
     0
  9
$PSTYLEMODE
290
     1
  9
$FINGERPRINTGUID
  2
{27DEDE28-3626-4440-ACE6-22FD0FFCFC10}
  9
$VERSIONGUID
  2
{FAEB1C32-E019-11D5-929B-00C0DF256EC4}
  9
$EXTNAMES
290
     1
  9
$PSVPSCALE
 40
0.0
  9
$OLESTARTUP
290
     0
  9
$SORTENTS
280
   127
  9
$INDEXCTL
280
     0
  9
$HIDETEXT
280
     1
  9
$XCLIPFRAME
280
     2
  9
$HALOGAP
280
     0
  9
$OBSCOLOR
 70
   257
  9
$OBSLTYPE
280
     0
  9
$INTERSECTIONDISPLAY
280
     0
  9
$INTERSECTIONCOLOR
 70
   257
  9
$DIMASSOC
280
     2
  9
$PROJECTNAME
  1

  9
$CAMERADISPLAY
290
     0
  9
$LENSLENGTH
 40
50.0
  9
$CAMERAHEIGHT
 40
0.0
  9
$STEPSPERSEC
 40
2.0
  9
$STEPSIZE
 40
6.0
  9
$3DDWFPREC
 40
2.0
  9
$PSOLWIDTH
 40
0.25
  9
$PSOLHEIGHT
 40
4.0
  9
$LOFTANG1
 40
1.570796326794897
  9
$LOFTANG2
 40
1.570796326794897
  9
$LOFTMAG1
 40
0.0
  9
$LOFTMAG2
 40
0.0
  9
$LOFTPARAM
 70
     7
  9
$LOFTNORMALS
280
     1
  9
$LATITUDE
 40
37.795
  9
$LONGITUDE
 40
-122.394
  9
$NORTHDIRECTION
 40
0.0
  9
$TIMEZONE
 70
 -8000
  9
$LIGHTGLYPHDISPLAY
280
     1
  9
$TILEMODELIGHTSYNCH
280
     1
  9
$SOLIDHIST
280
     1
  9
$SHOWHIST
280
     1
  9
$DWFFRAME
280
     2
  9
$DGNFRAME
280
     2
  9
$REALWORLDSCALE
290
     1
  9
$INTERFERECOLOR
 62
   256
  9
$CSHADOW
280
     0
  9
$SHADOWPLANELOCATION
 40
0.0
  0
ENDSEC
  0
SECTION
  2
CLASSES
  0
CLASS
  1
ACDBDICTIONARYWDFLT
  2
AcDbDictionaryWithDefault
  3
ObjectDBX Classes
 90
        0
 91
        9
280
     0
281
     0
  0
CLASS
  1
DIMASSOC
  2
AcDbDimAssoc
  3
"AcDbDimAssoc|Product Desc:     AcDim ARX App For Dimension|Company:          Autodesk, Inc.|WEB Address:      www.autodesk.com"
 90
        0
 91
        6
280
     0
281
     0
  0
CLASS
  1
DICTIONARYVAR
  2
AcDbDictionaryVar
  3
ObjectDBX Classes
 90
        0
 91
        6
280
     0
281
     0
  0
CLASS
  1
ACDBPLACEHOLDER
  2
AcDbPlaceHolder
  3
ObjectDBX Classes
 90
        0
 91
        1
280
     0
281
     0
  0
CLASS
  1
LAYOUT
  2
AcDbLayout
  3
ObjectDBX Classes
 90
        0
 91
        1
280
     0
281
     0
  0
CLASS
  1
VISUALSTYLE
  2
AcDbVisualStyle
  3
ObjectDBX Classes
 90
     4095
 91
        9
280
     0
281
     0
  0
CLASS
  1
SCALE
  2
AcDbScale
  3
ObjectDBX Classes
 90
     1153
 91
        9
280
     0
281
     0
  0
CLASS
  1
MATERIAL
  2
AcDbMaterial
  3
ObjectDBX Classes
 90
     1153
 91
        9
280
     0
281
     0
  0
CLASS
  1
TABLESTYLE
  2
AcDbTableStyle
  3
ObjectDBX Classes
 90
     4095
 91
        9
280
     0
281
     0
  0
CLASS
  1
SUN
  2
AcDbSun
  3
SCENEOE
 90
     1153
 91
        9
280
     0
281
     0
  0
CLASS
  1
RASTERVARIABLES
  2
AcDbRasterVariables
  3
ISM
 90
        0
 91
        9
280
     0
281
     0
  0
CLASS
  1
CELLSTYLEMAP
  2
AcDbCellStyleMap
  3
ObjectDBX Classes
 90
     1152
 91
        5
280
     0
281
     0
  0
CLASS
  1
XRECORD
  2
AcDbXrecord
  3
ObjectDBX Classes
 90
        0
 91
        1
280
     0
281
     0
  0
CLASS
  1
LWPOLYLINE
  2
AcDbPolyline
  3
ObjectDBX Classes
 90
        0
 91
        1
280
     0
281
     1
  0
CLASS
  1
HATCH
  2
AcDbHatch
  3
ObjectDBX Classes
 90
        0
 91
        1
280
     0
281
     1
  0
ENDSEC
  0
SECTION
  2
TABLES
  0
TABLE
  2
VPORT
  5
8
330
0
100
AcDbSymbolTable
 70
     1
  0
VPORT
  5
1D37
330
8
100
AcDbSymbolTableRecord
100
AcDbViewportTableRecord
  2
*ACTIVE
 70
     0
 10
0.0
 20
0.0
 11
1.0
 21
1.0
 12
100.001942876705
 22
102.656953524582
 13
0.0
 23
0.0
 14
10.0
 24
10.0
 15
10.0
 25
10.0
 16
0.0
 26
0.0
 36
1.0
 17
0.0
 27
0.0
 37
0.0
 40
191.3606020234831
 41
1.762376237623762
 42
50.0
 43
0.0
 44
0.0
 50
0.0
 51
0.0
 71
    16
 72
  1000
 73
     1
 74
     3
 75
     0
 76
     0
 77
     0
 78
     0
281
     0
 65
     1
110
0.0
120
0.0
130
0.0
111
1.0
121
0.0
131
0.0
112
0.0
122
1.0
132
0.0
 79
     0
146
0.0
348
1FEA
 60
     3
 61
     5
292
     1
282
     1
141
0.0
142
0.0
 63
   256
361
2004
  0
ENDTAB
  0
TABLE
  2
LTYPE
  5
5
330
0
100
AcDbSymbolTable
 70
     6
  0
LTYPE
  5
14
330
5
100
AcDbSymbolTableRecord
100
AcDbLinetypeTableRecord
  2
BYBLOCK
 70
     0
  3

 72
    65
 73
     0
 40
0.0
  0
LTYPE
  5
15
330
5
100
AcDbSymbolTableRecord
100
AcDbLinetypeTableRecord
  2
BYLAYER
 70
     0
  3

 72
    65
 73
     0
 40
0.0
  0
LTYPE
  5
16
330
5
100
AcDbSymbolTableRecord
100
AcDbLinetypeTableRecord
  2
CONTINUOUS
 70
     0
  3
Solid line
 72
    65
 73
     0
 40
0.0
  0
LTYPE
  5
35
330
5
100
AcDbSymbolTableRecord
100
AcDbLinetypeTableRecord
  2
ACAD_ISO08W100
 70
     0
  3
ISO long-dash short-dash ____ __ ____ __ ____ _
 72
    65
 73
     4
 40
36.0
 49
24.0
 74
     0
 49
-3.0
 74
     0
 49
6.0
 74
     0
 49
-3.0
 74
     0
  0
LTYPE
  5
127
330
5
100
AcDbSymbolTableRecord
100
AcDbLinetypeTableRecord
  2
HIDDENX2
 70
     0
  3
Hidden (2x) ____ ____ ____ ____ ____ ____ ____
 72
    65
 73
     2
 40
19.05
 49
12.7
 74
     0
 49
-6.35
 74
     0
  0
LTYPE
  5
5EC
330
5
100
AcDbSymbolTableRecord
100
AcDbLinetypeTableRecord
  2
CENTER
 70
     0
  3
Center ____ _ ____ _ ____ _ ____ _ ____ _ ____
 72
    65
 73
     4
 40
50.8
 49
31.75
 74
     0
 49
-6.35
 74
     0
 49
6.35
 74
     0
 49
-6.35
 74
     0
  0
LTYPE
  5
5ED
330
5
100
AcDbSymbolTableRecord
100
AcDbLinetypeTableRecord
  2
ACAD_ISO02W100
 70
     0
  3
ISO dash __ __ __ __ __ __ __ __ __ __ __ __ __
 72
    65
 73
     2
 40
15.0
 49
12.0
 74
     0
 49
-3.0
 74
     0
  0
LTYPE
  5
605
330
5
100
AcDbSymbolTableRecord
100
AcDbLinetypeTableRecord
  2
DASHED
 70
     0
  3
Dashed __ __ __ __ __ __ __ __ __ __ __ __ __ _
 72
    65
 73
     2
 40
19.05
 49
12.7
 74
     0
 49
-6.35
 74
     0
  0
ENDTAB
  0
TABLE
  2
LAYER
  5
2
330
0
100
AcDbSymbolTable
 70
     9
  0
LAYER
  5
10
330
2
100
AcDbSymbolTableRecord
100
AcDbLayerTableRecord
  2
0
 70
     0
 62
     7
  6
CONTINUOUS
370
    -3
390
201B
347
2001
348
0
  0
LAYER
  5
2E
330
2
100
AcDbSymbolTableRecord
100
AcDbLayerTableRecord
  2
枠
 70
     0
 62
     1
  6
CONTINUOUS
370
    -3
390
201B
347
2001
348
0
  0
LAYER
  5
2F
330
2
100
AcDbSymbolTableRecord
100
AcDbLayerTableRecord
  2
文字
 70
     0
 62
     7
  6
CONTINUOUS
370
    -3
390
201B
347
2001
348
0
  0
LAYER
  5
36
330
2
100
AcDbSymbolTableRecord
100
AcDbLayerTableRecord
  2
中心線
 70
     0
 62
     7
  6
CENTER
370
    -3
390
201B
347
2001
348
0
  0
LAYER
  5
52
330
2
100
AcDbSymbolTableRecord
100
AcDbLayerTableRecord
  2
隠れ線
 70
     0
 62
     2
  6
CONTINUOUS
370
    -3
390
201B
347
2001
348
0
  0
LAYER
  5
128
330
2
100
AcDbSymbolTableRecord
100
AcDbLayerTableRecord
  2
実線
 70
     0
 62
     7
  6
CONTINUOUS
370
    -3
390
201B
347
2001
348
0
  0
LAYER
  5
129
330
2
100
AcDbSymbolTableRecord
100
AcDbLayerTableRecord
  2
破線
 70
     0
 62
     7
  6
DASHED
370
    -3
390
201B
347
2001
348
0
  0
LAYER
  5
677
330
2
100
AcDbSymbolTableRecord
100
AcDbLayerTableRecord
  2
DEFPOINTS
 70
     0
 62
     7
  6
CONTINUOUS
290
     0
370
    -3
390
201B
347
2001
348
0
  0
LAYER
  5
1DE5
330
2
100
AcDbSymbolTableRecord
100
AcDbLayerTableRecord
  2
文字・寸法線
 70
     0
 62
     7
  6
CONTINUOUS
370
    -3
390
201B
347
2001
348
0
  0
ENDTAB
  0
TABLE
  2
STYLE
  5
3
330
0
100
AcDbSymbolTable
 70
     2
  0
STYLE
  5
11
330
3
100
AcDbSymbolTableRecord
100
AcDbTextStyleTableRecord
  2
STANDARD
 70
     0
 40
0.0
 41
1.0
 50
0.0
 71
     0
 42
3.0
  3
txt.shx
  4
bigfont.shx
  0
STYLE
  5
34
330
3
100
AcDbSymbolTableRecord
100
AcDbTextStyleTableRecord
  2

 70
     1
 40
0.0
 41
1.0
 50
0.0
 71
     0
 42
2.5
  3
ltypeshp.shx
  4

  0
ENDTAB
  0
TABLE
  2
VIEW
  5
6
330
0
100
AcDbSymbolTable
 70
     0
  0
ENDTAB
  0
TABLE
  2
UCS
  5
7
330
0
100
AcDbSymbolTable
 70
     0
  0
ENDTAB
  0
TABLE
  2
APPID
  5
9
330
0
100
AcDbSymbolTable
 70
     4
  0
APPID
  5
12
330
9
100
AcDbSymbolTableRecord
100
AcDbRegAppTableRecord
  2
ACAD
 70
     0
  0
APPID
  5
1282
330
9
100
AcDbSymbolTableRecord
100
AcDbRegAppTableRecord
  2
ACAD_DIMASSOC_CALC_DIMLFAC
 70
     0
  0
APPID
  5
1283
330
9
100
AcDbSymbolTableRecord
100
AcDbRegAppTableRecord
  2
ACAD_DIMASSOC_DIMLFAC
 70
     0
  0
APPID
  5
1284
330
9
100
AcDbSymbolTableRecord
100
AcDbRegAppTableRecord
  2
ACAD_DIMASSOC_OVERRIDDEN_D
 70
     0
  0
ENDTAB
  0
TABLE
  2
DIMSTYLE
  5
A
330
0
100
AcDbSymbolTable
 70
     2
100
AcDbDimStyleTable
  0
DIMSTYLE
105
29
102
{ACAD_REACTORS
330
1B5D
330
214E
330
2151
330
2221
330
22A1
330
22CF
330
2320
330
2362
102
}
330
A
100
AcDbSymbolTableRecord
100
AcDbDimStyleTableRecord
  2
ISO-25
 70
     0
 41
2.5
 42
0.625
 43
3.75
 44
1.25
 73
     0
 74
     0
 78
     8
140
2.5
141
2.5
143
0.03937007874016
147
0.625
171
     3
172
     1
178
     0
271
     2
272
     2
274
     3
280
     4
283
     0
284
     8
340
11
  0
DIMSTYLE
105
1DE9
102
{ACAD_REACTORS
330
2234
330
22B4
330
22D6
330
233A
330
2349
330
2370
330
2371
102
}
330
A
100
AcDbSymbolTableRecord
100
AcDbDimStyleTableRecord
  2
STANDARD
 70
     0
178
     0
340
11
  0
ENDTAB
  0
TABLE
  2
BLOCK_RECORD
  5
1
330
0
100
AcDbSymbolTable
 70
    62
  0
BLOCK_RECORD
  5
21
330
1
100
AcDbSymbolTableRecord
100
AcDbBlockTableRecord
  2
*MODEL_SPACE
340
1FE3
 70
     0
280
     1
281
     0
  0
BLOCK_RECORD
  5
1D87
330
1
100
AcDbSymbolTableRecord
100
AcDbBlockTableRecord
  2
*PAPER_SPACE
340
1FE4
 70
     0
280
     1
281
     0
  0
BLOCK_RECORD
  5
1581
330
1
100
AcDbSymbolTableRecord
100
AcDbBlockTableRecord
  2
_DOT
340
0
 70
     0
280
     1
281
     0
  0
BLOCK_RECORD
  5
1591
330
1
100
AcDbSymbolTableRecord
100
AcDbBlockTableRecord
  2
_NONE
340
0
 70
     0
280
     1
281
     0
  0
BLOCK_RECORD
  5
15A6
330
1
100
AcDbSymbolTableRecord
100
AcDbBlockTableRecord
  2
_DATUMFILLED
340
0
 70
     0
280
     1
281
     0
  0
BLOCK_RECORD
  5
16CF
330
1
100
AcDbSymbolTableRecord
100
AcDbBlockTableRecord
  2
_DOTSMALL
340
0
 70
     0
280
     1
281
     0
  0
BLOCK_RECORD
  5
1992
330
1
100
AcDbSymbolTableRecord
100
AcDbBlockTableRecord
  2
*D4
340
0
 70
     0
280
     1
281
     0
  0
BLOCK_RECORD
  5
199E
330
1
100
AcDbSymbolTableRecord
100
AcDbBlockTableRecord
  2
*D5
340
0
 70
     0
280
     1
281
     0
  0
BLOCK_RECORD
  5
19AC
330
1
100
AcDbSymbolTableRecord
100
AcDbBlockTableRecord
  2
*D6
340
0
 70
     0
280
     1
281
     0
  0
BLOCK_RECORD
  5
19B8
330
1
100
AcDbSymbolTableRecord
100
AcDbBlockTableRecord
  2
*D7
340
0
 70
     0
280
     1
281
     0
  0
BLOCK_RECORD
  5
19C4
330
1
100
AcDbSymbolTableRecord
100
AcDbBlockTableRecord
  2
*D8
340
0
 70
     0
280
     1
281
     0
  0
BLOCK_RECORD
  5
19D0
330
1
100
AcDbSymbolTableRecord
100
AcDbBlockTableRecord
  2
*D9
340
0
 70
     0
280
     1
281
     0
  0
BLOCK_RECORD
  5
19DC
330
1
100
AcDbSymbolTableRecord
100
AcDbBlockTableRecord
  2
*D10
340
0
 70
     0
280
     1
281
     0
  0
BLOCK_RECORD
  5
19ED
330
1
100
AcDbSymbolTableRecord
100
AcDbBlockTableRecord
  2
*D11
340
0
 70
     0
280
     1
281
     0
  0
BLOCK_RECORD
  5
19F9
330
1
100
AcDbSymbolTableRecord
100
AcDbBlockTableRecord
  2
*D12
340
0
 70
     0
280
     1
281
     0
  0
BLOCK_RECORD
  5
1A05
330
1
100
AcDbSymbolTableRecord
100
AcDbBlockTableRecord
  2
A$C76A36C9E
340
0
 70
     0
280
     1
281
     0
  0
BLOCK_RECORD
  5
1AA8
330
1
100
AcDbSymbolTableRecord
100
AcDbBlockTableRecord
  2
*D14
340
0
 70
     0
280
     1
281
     0
  0
BLOCK_RECORD
  5
1AB4
330
1
100
AcDbSymbolTableRecord
100
AcDbBlockTableRecord
  2
*D15
340
0
 70
     0
280
     1
281
     0
  0
BLOCK_RECORD
  5
1AC0
330
1
100
AcDbSymbolTableRecord
100
AcDbBlockTableRecord
  2
*D16
340
0
 70
     0
280
     1
281
     0
  0
BLOCK_RECORD
  5
1ACC
330
1
100
AcDbSymbolTableRecord
100
AcDbBlockTableRecord
  2
*D17
340
0
 70
     0
280
     1
281
     0
  0
BLOCK_RECORD
  5
1AD8
330
1
100
AcDbSymbolTableRecord
100
AcDbBlockTableRecord
  2
*D18
340
0
 70
     0
280
     1
281
     0
  0
BLOCK_RECORD
  5
1AE6
330
1
100
AcDbSymbolTableRecord
100
AcDbBlockTableRecord
  2
*D19
340
0
 70
     0
280
     1
281
     0
  0
BLOCK_RECORD
  5
1AF2
330
1
100
AcDbSymbolTableRecord
100
AcDbBlockTableRecord
  2
*D20
340
0
 70
     0
280
     1
281
     0
  0
BLOCK_RECORD
  5
1AFE
330
1
100
AcDbSymbolTableRecord
100
AcDbBlockTableRecord
  2
*D21
340
0
 70
     0
280
     1
281
     0
  0
BLOCK_RECORD
  5
1B0A
330
1
100
AcDbSymbolTableRecord
100
AcDbBlockTableRecord
  2
A$C518B1B4A
340
0
 70
     0
280
     1
281
     0
  0
BLOCK_RECORD
  5
1B7F
330
1
100
AcDbSymbolTableRecord
100
AcDbBlockTableRecord
  2
*D23
340
0
 70
     0
280
     1
281
     0
  0
BLOCK_RECORD
  5
1B8B
330
1
100
AcDbSymbolTableRecord
100
AcDbBlockTableRecord
  2
*D24
340
0
 70
     0
280
     1
281
     0
  0
BLOCK_RECORD
  5
1B97
330
1
100
AcDbSymbolTableRecord
100
AcDbBlockTableRecord
  2
*D25
340
0
 70
     0
280
     1
281
     0
  0
BLOCK_RECORD
  5
1BAC
330
1
100
AcDbSymbolTableRecord
100
AcDbBlockTableRecord
  2
*D26
340
0
 70
     0
280
     1
281
     0
  0
BLOCK_RECORD
  5
1BDB
330
1
100
AcDbSymbolTableRecord
100
AcDbBlockTableRecord
  2
*D27
340
0
 70
     0
280
     1
281
     0
  0
BLOCK_RECORD
  5
1E20
330
1
100
AcDbSymbolTableRecord
100
AcDbBlockTableRecord
  2
*D28
340
0
 70
     0
280
     1
281
     0
  0
BLOCK_RECORD
  5
1F46
330
1
100
AcDbSymbolTableRecord
100
AcDbBlockTableRecord
  2
*D29
340
0
 70
     0
280
     1
281
     0
  0
BLOCK_RECORD
  5
1F8E
330
1
100
AcDbSymbolTableRecord
100
AcDbBlockTableRecord
  2
*D30
340
0
 70
     0
280
     1
281
     0
  0
BLOCK_RECORD
  5
20A5
330
1
100
AcDbSymbolTableRecord
100
AcDbBlockTableRecord
  2
*D31
340
0
 70
     0
280
     1
281
     0
  0
BLOCK_RECORD
  5
20B5
330
1
100
AcDbSymbolTableRecord
100
AcDbBlockTableRecord
  2
*D32
340
0
 70
     0
280
     1
281
     0
  0
BLOCK_RECORD
  5
20CA
330
1
100
AcDbSymbolTableRecord
100
AcDbBlockTableRecord
  2
*D33
340
0
 70
     0
280
     1
281
     0
  0
BLOCK_RECORD
  5
20E9
330
1
100
AcDbSymbolTableRecord
100
AcDbBlockTableRecord
  2
*D34
340
0
 70
     0
280
     1
281
     0
  0
BLOCK_RECORD
  5
20F5
330
1
100
AcDbSymbolTableRecord
100
AcDbBlockTableRecord
  2
*D35
340
0
 70
     0
280
     1
281
     0
  0
BLOCK_RECORD
  5
2101
330
1
100
AcDbSymbolTableRecord
100
AcDbBlockTableRecord
  2
*D36
340
0
 70
     0
280
     1
281
     0
  0
BLOCK_RECORD
  5
2132
330
1
100
AcDbSymbolTableRecord
100
AcDbBlockTableRecord
  2
*D37
340
0
 70
     0
280
     1
281
     0
  0
BLOCK_RECORD
  5
213F
330
1
100
AcDbSymbolTableRecord
100
AcDbBlockTableRecord
  2
*D38
340
0
 70
     0
280
     1
281
     0
  0
BLOCK_RECORD
  5
2152
330
1
100
AcDbSymbolTableRecord
100
AcDbBlockTableRecord
  2
*D39
340
0
 70
     0
280
     1
281
     0
  0
BLOCK_RECORD
  5
215E
330
1
100
AcDbSymbolTableRecord
100
AcDbBlockTableRecord
  2
*D40
340
0
 70
     0
280
     1
281
     0
  0
BLOCK_RECORD
  5
21AA
330
1
100
AcDbSymbolTableRecord
100
AcDbBlockTableRecord
  2
*D41
340
0
 70
     0
280
     1
281
     0
  0
BLOCK_RECORD
  5
21B9
330
1
100
AcDbSymbolTableRecord
100
AcDbBlockTableRecord
  2
*D42
340
0
 70
     0
280
     1
281
     0
  0
BLOCK_RECORD
  5
21DB
330
1
100
AcDbSymbolTableRecord
100
AcDbBlockTableRecord
  2
*D43
340
0
 70
     0
280
     1
281
     0
  0
BLOCK_RECORD
  5
21E9
330
1
100
AcDbSymbolTableRecord
100
AcDbBlockTableRecord
  2
*D44
340
0
 70
     0
280
     1
281
     0
  0
BLOCK_RECORD
  5
2222
330
1
100
AcDbSymbolTableRecord
100
AcDbBlockTableRecord
  2
*D46
340
0
 70
     0
280
     1
281
     0
  0
BLOCK_RECORD
  5
2235
330
1
100
AcDbSymbolTableRecord
100
AcDbBlockTableRecord
  2
*D47
340
0
 70
     0
280
     1
281
     0
  0
BLOCK_RECORD
  5
2260
330
1
100
AcDbSymbolTableRecord
100
AcDbBlockTableRecord
  2
*D48
340
0
 70
     0
280
     1
281
     0
  0
BLOCK_RECORD
  5
226C
330
1
100
AcDbSymbolTableRecord
100
AcDbBlockTableRecord
  2
*D49
340
0
 70
     0
280
     1
281
     0
  0
BLOCK_RECORD
  5
22A2
330
1
100
AcDbSymbolTableRecord
100
AcDbBlockTableRecord
  2
*D51
340
0
 70
     0
280
     1
281
     0
  0
BLOCK_RECORD
  5
22B5
330
1
100
AcDbSymbolTableRecord
100
AcDbBlockTableRecord
  2
*D52
340
0
 70
     0
280
     1
281
     0
  0
BLOCK_RECORD
  5
22E0
330
1
100
AcDbSymbolTableRecord
100
AcDbBlockTableRecord
  2
*D53
340
0
 70
     0
280
     1
281
     0
  0
BLOCK_RECORD
  5
22EC
330
1
100
AcDbSymbolTableRecord
100
AcDbBlockTableRecord
  2
*D54
340
0
 70
     0
280
     1
281
     0
  0
BLOCK_RECORD
  5
2321
330
1
100
AcDbSymbolTableRecord
100
AcDbBlockTableRecord
  2
*D56
340
0
 70
     0
280
     1
281
     0
  0
BLOCK_RECORD
  5
233B
330
1
100
AcDbSymbolTableRecord
100
AcDbBlockTableRecord
  2
*D57
340
0
 70
     0
280
     1
281
     0
  0
BLOCK_RECORD
  5
234A
330
1
100
AcDbSymbolTableRecord
100
AcDbBlockTableRecord
  2
*D58
340
0
 70
     0
280
     1
281
     0
  0
BLOCK_RECORD
  5
237A
330
1
100
AcDbSymbolTableRecord
100
AcDbBlockTableRecord
  2
*D59
340
0
 70
     0
280
     1
281
     0
  0
BLOCK_RECORD
  5
2386
330
1
100
AcDbSymbolTableRecord
100
AcDbBlockTableRecord
  2
*D60
340
0
 70
     0
280
     1
281
     0
  0
BLOCK_RECORD
  5
2394
330
1
100
AcDbSymbolTableRecord
100
AcDbBlockTableRecord
  2
*D61
340
0
 70
     0
280
     1
281
     0
  0
ENDTAB
  0
ENDSEC
  0
SECTION
  2
BLOCKS
  0
BLOCK
  5
22
330
21
100
AcDbEntity
  8
0
100
AcDbBlockBegin
  2
*MODEL_SPACE
 70
     0
 10
0.0
 20
0.0
 30
0.0
  3
*MODEL_SPACE
  1
*MODEL_SPACE
  0
ENDBLK
  5
23
330
21
100
AcDbEntity
  8
0
100
AcDbBlockEnd
  0
BLOCK
  5
1D89
330
1D87
100
AcDbEntity
 67
     1
  8
0
100
AcDbBlockBegin
  2
*PAPER_SPACE
 70
     0
 10
0.0
 20
0.0
 30
0.0
  3
*PAPER_SPACE
  1
*PAPER_SPACE
  0
ENDBLK
  5
1D8A
330
1D87
100
AcDbEntity
 67
     1
  8
0
100
AcDbBlockEnd
  0
BLOCK
  5
1584
330
1581
100
AcDbEntity
  8
0
 62
     0
100
AcDbBlockBegin
  2
_DOT
 70
     0
 10
0.0
 20
0.0
 30
0.0
  3
_DOT
  1
_Dot
  0
LWPOLYLINE
  5
1582
330
1581
100
AcDbEntity
  8
0
  6
ByBlock
 62
     0
100
AcDbPolyline
 90
        2
 70
     1
 43
0.5
 10
-0.25
 20
0.0
 42
1.0
 10
0.25
 20
0.0
 42
1.0
  0
LINE
  5
1583
330
1581
100
AcDbEntity
  8
0
  6
ByBlock
 62
     0
100
AcDbLine
 10
-0.5
 20
0.0
 30
0.0
 11
-1.0
 21
0.0
 31
0.0
  0
ENDBLK
  5
1585
330
1581
100
AcDbEntity
  8
0
 62
     0
100
AcDbBlockEnd
  0
BLOCK
  5
1592
330
1591
100
AcDbEntity
  8
0
 62
     0
100
AcDbBlockBegin
  2
_NONE
 70
     0
 10
0.0
 20
0.0
 30
0.0
  3
_NONE
  1
_None
  0
ENDBLK
  5
1593
330
1591
100
AcDbEntity
  8
0
 62
     0
100
AcDbBlockEnd
  0
BLOCK
  5
15A8
330
15A6
100
AcDbEntity
  8
0
 62
     0
100
AcDbBlockBegin
  2
_DATUMFILLED
 70
     0
 10
0.0
 20
0.0
 30
0.0
  3
_DATUMFILLED
  1
_DatumFilled
  0
SOLID
  5
15A7
330
15A6
100
AcDbEntity
  8
0
  6
ByBlock
 62
     0
100
AcDbTrace
 10
0.0
 20
0.57735027
 30
0.0
 11
-1.0
 21
0.0
 31
0.0
 12
0.0
 22
-0.57735027
 32
0.0
 13
0.0
 23
-0.57735027
 33
0.0
  0
ENDBLK
  5
15A9
330
15A6
100
AcDbEntity
  8
0
 62
     0
100
AcDbBlockEnd
  0
BLOCK
  5
16D1
330
16CF
100
AcDbEntity
  8
0
 62
     0
100
AcDbBlockBegin
  2
_DOTSMALL
 70
     0
 10
0.0
 20
0.0
 30
0.0
  3
_DOTSMALL
  1
_DotSmall
  0
LWPOLYLINE
  5
16D0
330
16CF
100
AcDbEntity
  8
0
  6
ByBlock
 62
     0
100
AcDbPolyline
 90
        2
 70
     1
 43
0.5
 10
-0.0625
 20
0.0
 42
1.0
 10
0.0625
 20
0.0
 42
1.0
  0
ENDBLK
  5
16D2
330
16CF
100
AcDbEntity
  8
0
 62
     0
100
AcDbBlockEnd
  0
BLOCK
  5
1993
330
1992
100
AcDbEntity
  8
0
100
AcDbBlockBegin
  2
*D4
 70
     1
 10
0.0
 20
0.0
 30
0.0
  3
*D4
  1
*D4
  0
LINE
  5
1994
330
1992
100
AcDbEntity
  8
文字
 62
     0
100
AcDbLine
 10
192.2214242466307
 20
115.3847432098993
 30
0.0
 11
192.2214242466307
 21
74.91396239368606
 31
0.0
  0
LINE
  5
1995
330
1992
100
AcDbEntity
  8
文字
 62
     0
100
AcDbLine
 10
220.2214242466307
 20
115.3847432098993
 30
0.0
 11
220.2214242466307
 21
74.91396239368606
 31
0.0
  0
LINE
  5
1996
330
1992
100
AcDbEntity
  8
文字
 62
     0
100
AcDbLine
 10
194.7214242466307
 20
76.16396239368606
 30
0.0
 11
217.7214242466307
 21
76.16396239368606
 31
0.0
  0
SOLID
  5
1997
330
1992
100
AcDbEntity
  8
文字
 62
     0
100
AcDbTrace
 10
194.7214242466307
 20
76.58062906035273
 30
0.0
 11
194.7214242466307
 21
75.74729572701939
 31
0.0
 12
192.2214242466307
 22
76.16396239368606
 32
0.0
 13
192.2214242466307
 23
76.16396239368606
 33
0.0
  0
SOLID
  5
1998
330
1992
100
AcDbEntity
  8
文字
 62
     0
100
AcDbTrace
 10
217.7214242466307
 20
76.58062906035273
 30
0.0
 11
217.7214242466307
 21
75.74729572701939
 31
0.0
 12
220.2214242466307
 22
76.16396239368606
 32
0.0
 13
220.2214242466307
 23
76.16396239368606
 33
0.0
  0
MTEXT
  5
1999
330
1992
100
AcDbEntity
  8
文字
 62
     0
100
AcDbMText
 10
206.2214242466307
 20
78.03896239368606
 30
0.0
 40
2.5
 41
0.0
 46
0.0
 71
     5
 72
     1
  1
%%c28
 73
     1
 44
1.0
  0
POINT
  5
199A
330
1992
100
AcDbEntity
  8
DEFPOINTS
 62
     0
100
AcDbPoint
 10
192.2214242466307
 20
116.0097432098993
 30
0.0
  0
POINT
  5
199B
330
1992
100
AcDbEntity
  8
DEFPOINTS
 62
     0
100
AcDbPoint
 10
220.2214242466307
 20
116.0097432098993
 30
0.0
  0
POINT
  5
199C
330
1992
100
AcDbEntity
  8
DEFPOINTS
 62
     0
100
AcDbPoint
 10
220.2214242466307
 20
76.16396239368606
 30
0.0
  0
ENDBLK
  5
199D
330
1992
100
AcDbEntity
  8
0
100
AcDbBlockEnd
  0
BLOCK
  5
199F
330
199E
100
AcDbEntity
  8
0
100
AcDbBlockBegin
  2
*D5
 70
     1
 10
0.0
 20
0.0
 30
0.0
  3
*D5
  1
*D5
  0
LINE
  5
19A0
330
199E
100
AcDbEntity
  8
文字
 62
     0
100
AcDbLine
 10
71.59625003018851
 20
83.94882055485836
 30
0.0
 11
55.97592567393417
 21
83.94882055485836
 31
0.0
  0
LINE
  5
19A1
330
199E
100
AcDbEntity
  8
文字
 62
     0
100
AcDbLine
 10
71.59625003018851
 20
82.34882055485836
 30
0.0
 11
55.97592567393417
 21
82.34882055485836
 31
0.0
  0
LINE
  5
19A2
330
199E
100
AcDbEntity
  8
文字
 62
     0
100
AcDbLine
 10
57.22592567393417
 20
86.44882055485836
 30
0.0
 11
57.22592567393417
 21
88.94882055485836
 31
0.0
  0
LINE
  5
19A3
330
199E
100
AcDbEntity
  8
文字
 62
     0
100
AcDbLine
 10
57.22592567393416
 20
79.84882055485836
 30
0.0
 11
57.22592567393416
 21
71.93215388819169
 31
0.0
  0
LINE
  5
19A4
330
199E
100
AcDbEntity
  8
文字
 62
     0
100
AcDbLine
 10
57.22592567393417
 20
83.94882055485836
 30
0.0
 11
57.22592567393417
 21
82.34882055485836
 31
0.0
  0
SOLID
  5
19A5
330
199E
100
AcDbEntity
  8
文字
 62
     0
100
AcDbTrace
 10
56.80925900726751
 20
86.44882055485836
 30
0.0
 11
57.64259234060084
 21
86.44882055485836
 31
0.0
 12
57.22592567393417
 22
83.94882055485836
 32
0.0
 13
57.22592567393417
 23
83.94882055485836
 33
0.0
  0
SOLID
  5
19A6
330
199E
100
AcDbEntity
  8
文字
 62
     0
100
AcDbTrace
 10
56.8092590072675
 20
79.84882055485836
 30
0.0
 11
57.64259234060083
 21
79.84882055485836
 31
0.0
 12
57.22592567393417
 22
82.34882055485836
 32
0.0
 13
57.22592567393417
 23
82.34882055485836
 33
0.0
  0
MTEXT
  5
19A7
330
199E
100
AcDbEntity
  8
文字
 62
     0
100
AcDbMText
 10
55.35092567393416
 20
74.64048722152505
 30
0.0
 40
2.5
 41
0.0
 46
0.0
 71
     5
 72
     1
  1
1.5
 11
6.123031769111886E-17
 21
1.0
 31
0.0
 73
     1
 44
1.0
  0
POINT
  5
19A8
330
199E
100
AcDbEntity
  8
DEFPOINTS
 62
     0
100
AcDbPoint
 10
72.22125003018851
 20
83.94882055485836
 30
0.0
  0
POINT
  5
19A9
330
199E
100
AcDbEntity
  8
DEFPOINTS
 62
     0
100
AcDbPoint
 10
72.22125003018851
 20
82.34882055485836
 30
0.0
  0
POINT
  5
19AA
330
199E
100
AcDbEntity
  8
DEFPOINTS
 62
     0
100
AcDbPoint
 10
57.22592567393417
 20
82.34882055485836
 30
0.0
  0
ENDBLK
  5
19AB
330
199E
100
AcDbEntity
  8
0
100
AcDbBlockEnd
  0
BLOCK
  5
19AD
330
19AC
100
AcDbEntity
  8
0
100
AcDbBlockBegin
  2
*D6
 70
     1
 10
0.0
 20
0.0
 30
0.0
  3
*D6
  1
*D6
  0
LINE
  5
19AE
330
19AC
100
AcDbEntity
  8
文字
 62
     0
100
AcDbLine
 10
199.7262337182474
 20
115.3847432098993
 30
0.0
 11
199.7262337182474
 21
82.51985031794277
 31
0.0
  0
LINE
  5
19AF
330
19AC
100
AcDbEntity
  8
文字
 62
     0
100
AcDbLine
 10
212.716614775014
 20
115.3847432098993
 30
0.0
 11
212.716614775014
 21
82.51985031794277
 31
0.0
  0
LINE
  5
19B0
330
19AC
100
AcDbEntity
  8
文字
 62
     0
100
AcDbLine
 10
202.2262337182474
 20
83.76985031794277
 30
0.0
 11
210.216614775014
 21
83.76985031794277
 31
0.0
  0
SOLID
  5
19B1
330
19AC
100
AcDbEntity
  8
文字
 62
     0
100
AcDbTrace
 10
202.2262337182474
 20
84.18651698460944
 30
0.0
 11
202.2262337182474
 21
83.3531836512761
 31
0.0
 12
199.7262337182474
 22
83.76985031794277
 32
0.0
 13
199.7262337182474
 23
83.76985031794277
 33
0.0
  0
SOLID
  5
19B2
330
19AC
100
AcDbEntity
  8
文字
 62
     0
100
AcDbTrace
 10
210.216614775014
 20
84.18651698460944
 30
0.0
 11
210.216614775014
 21
83.3531836512761
 31
0.0
 12
212.716614775014
 22
83.76985031794277
 32
0.0
 13
212.716614775014
 23
83.76985031794277
 33
0.0
  0
MTEXT
  5
19B3
330
19AC
100
AcDbEntity
  8
文字
 62
     0
100
AcDbMText
 10
206.4041474863344
 20
85.64485031794277
 30
0.0
 40
2.5
 41
0.0
 46
0.0
 71
     5
 72
     1
  1
13
 73
     1
 44
1.0
  0
POINT
  5
19B4
330
19AC
100
AcDbEntity
  8
DEFPOINTS
 62
     0
100
AcDbPoint
 10
199.7262337182474
 20
116.0097432098993
 30
0.0
  0
POINT
  5
19B5
330
19AC
100
AcDbEntity
  8
DEFPOINTS
 62
     0
100
AcDbPoint
 10
212.716614775014
 20
116.0097432098993
 30
0.0
  0
POINT
  5
19B6
330
19AC
100
AcDbEntity
  8
DEFPOINTS
 62
     0
100
AcDbPoint
 10
212.716614775014
 20
83.76985031794277
 30
0.0
  0
ENDBLK
  5
19B7
330
19AC
100
AcDbEntity
  8
0
100
AcDbBlockEnd
  0
BLOCK
  5
19B9
330
19B8
100
AcDbEntity
  8
0
100
AcDbBlockBegin
  2
*D7
 70
     1
 10
0.0
 20
0.0
 30
0.0
  3
*D7
  1
*D7
  0
LINE
  5
19BA
330
19B8
100
AcDbEntity
  8
文字
 62
     0
100
AcDbLine
 10
87.2212500301885
 20
135.0570527207158
 30
0.0
 11
87.2212500301885
 21
147.9015722211
 31
0.0
  0
LINE
  5
19BB
330
19B8
100
AcDbEntity
  8
文字
 62
     0
100
AcDbLine
 10
95.22125003018851
 20
135.0570527207158
 30
0.0
 11
95.22125003018851
 21
147.9015722211
 31
0.0
  0
LINE
  5
19BC
330
19B8
100
AcDbEntity
  8
文字
 62
     0
100
AcDbLine
 10
89.7212500301885
 20
146.6515722211
 30
0.0
 11
92.72125003018851
 21
146.6515722211
 31
0.0
  0
SOLID
  5
19BD
330
19B8
100
AcDbEntity
  8
文字
 62
     0
100
AcDbTrace
 10
89.7212500301885
 20
147.0682388877666
 30
0.0
 11
89.7212500301885
 21
146.2349055544333
 31
0.0
 12
87.2212500301885
 22
146.6515722211
 32
0.0
 13
87.2212500301885
 23
146.6515722211
 33
0.0
  0
SOLID
  5
19BE
330
19B8
100
AcDbEntity
  8
文字
 62
     0
100
AcDbTrace
 10
92.72125003018851
 20
147.0682388877666
 30
0.0
 11
92.72125003018851
 21
146.2349055544333
 31
0.0
 12
95.22125003018851
 22
146.6515722211
 32
0.0
 13
95.22125003018851
 23
146.6515722211
 33
0.0
  0
MTEXT
  5
19BF
330
19B8
100
AcDbEntity
  8
文字
 62
     0
100
AcDbMText
 10
91.22125003018851
 20
148.5265722211
 30
0.0
 40
2.5
 41
0.0
 46
0.0
 71
     5
 72
     1
  1
{\fArial|b0|i0|c0|p32;M}8
 73
     1
 44
1.0
  0
POINT
  5
19C0
330
19B8
100
AcDbEntity
  8
DEFPOINTS
 62
     0
100
AcDbPoint
 10
87.2212500301885
 20
134.4320527207158
 30
0.0
  0
POINT
  5
19C1
330
19B8
100
AcDbEntity
  8
DEFPOINTS
 62
     0
100
AcDbPoint
 10
95.22125003018851
 20
134.4320527207158
 30
0.0
  0
POINT
  5
19C2
330
19B8
100
AcDbEntity
  8
DEFPOINTS
 62
     0
100
AcDbPoint
 10
95.22125003018851
 20
146.6515722211
 30
0.0
  0
ENDBLK
  5
19C3
330
19B8
100
AcDbEntity
  8
0
100
AcDbBlockEnd
  0
BLOCK
  5
19C5
330
19C4
100
AcDbEntity
  8
0
100
AcDbBlockBegin
  2
*D8
 70
     1
 10
0.0
 20
0.0
 30
0.0
  3
*D8
  1
*D8
  0
LINE
  5
19C6
330
19C4
100
AcDbEntity
  8
文字
 62
     0
100
AcDbLine
 10
72.22125003018851
 20
81.72382055485836
 30
0.0
 11
72.22125003018851
 21
61.64683633055239
 31
0.0
  0
LINE
  5
19C7
330
19C4
100
AcDbEntity
  8
文字
 62
     0
100
AcDbLine
 10
110.2212500301885
 20
81.72382055485835
 30
0.0
 11
110.2212500301885
 21
61.64683633055239
 31
0.0
  0
LINE
  5
19C8
330
19C4
100
AcDbEntity
  8
文字
 62
     0
100
AcDbLine
 10
74.72125003018851
 20
62.89683633055239
 30
0.0
 11
107.7212500301885
 21
62.89683633055239
 31
0.0
  0
SOLID
  5
19C9
330
19C4
100
AcDbEntity
  8
文字
 62
     0
100
AcDbTrace
 10
74.72125003018851
 20
63.31350299721905
 30
0.0
 11
74.72125003018851
 21
62.48016966388573
 31
0.0
 12
72.22125003018851
 22
62.89683633055239
 32
0.0
 13
72.22125003018851
 23
62.89683633055239
 33
0.0
  0
SOLID
  5
19CA
330
19C4
100
AcDbEntity
  8
文字
 62
     0
100
AcDbTrace
 10
107.7212500301885
 20
63.31350299721905
 30
0.0
 11
107.7212500301885
 21
62.48016966388573
 31
0.0
 12
110.2212500301885
 22
62.89683633055239
 32
0.0
 13
110.2212500301885
 23
62.89683633055239
 33
0.0
  0
MTEXT
  5
19CB
330
19C4
100
AcDbEntity
  8
文字
 62
     0
100
AcDbMText
 10
91.22125003018851
 20
64.77183633055239
 30
0.0
 40
2.5
 41
0.0
 46
0.0
 71
     5
 72
     1
  1
%%c38
 73
     1
 44
1.0
  0
POINT
  5
19CC
330
19C4
100
AcDbEntity
  8
DEFPOINTS
 62
     0
100
AcDbPoint
 10
72.22125003018851
 20
82.34882055485836
 30
0.0
  0
POINT
  5
19CD
330
19C4
100
AcDbEntity
  8
DEFPOINTS
 62
     0
100
AcDbPoint
 10
110.2212500301885
 20
82.34882055485835
 30
0.0
  0
POINT
  5
19CE
330
19C4
100
AcDbEntity
  8
DEFPOINTS
 62
     0
100
AcDbPoint
 10
110.2212500301885
 20
62.89683633055239
 30
0.0
  0
ENDBLK
  5
19CF
330
19C4
100
AcDbEntity
  8
0
100
AcDbBlockEnd
  0
BLOCK
  5
19D1
330
19D0
100
AcDbEntity
  8
0
100
AcDbBlockBegin
  2
*D9
 70
     1
 10
0.0
 20
0.0
 30
0.0
  3
*D9
  1
*D9
  0
LINE
  5
19D2
330
19D0
100
AcDbEntity
  8
文字
 62
     0
100
AcDbLine
 10
110.8462500301885
 20
82.34882055485835
 30
0.0
 11
126.0779593090463
 21
82.34882055485835
 31
0.0
  0
LINE
  5
19D3
330
19D0
100
AcDbEntity
  8
文字
 62
     0
100
AcDbLine
 10
96.86248092256537
 20
94.93228662189009
 30
0.0
 11
126.0779593090463
 21
94.93228662189009
 31
0.0
  0
LINE
  5
19D4
330
19D0
100
AcDbEntity
  8
文字
 62
     0
100
AcDbLine
 10
124.8279593090463
 20
84.84882055485835
 30
0.0
 11
124.8279593090463
 21
92.43228662189009
 31
0.0
  0
SOLID
  5
19D5
330
19D0
100
AcDbEntity
  8
文字
 62
     0
100
AcDbTrace
 10
124.4112926423796
 20
84.84882055485835
 30
0.0
 11
125.2446259757129
 21
84.84882055485835
 31
0.0
 12
124.8279593090463
 22
82.34882055485835
 32
0.0
 13
124.8279593090463
 23
82.34882055485835
 33
0.0
  0
SOLID
  5
19D6
330
19D0
100
AcDbEntity
  8
文字
 62
     0
100
AcDbTrace
 10
124.4112926423796
 20
92.43228662189009
 30
0.0
 11
125.2446259757129
 21
92.43228662189009
 31
0.0
 12
124.8279593090463
 22
94.93228662189009
 32
0.0
 13
124.8279593090463
 23
94.93228662189009
 33
0.0
  0
MTEXT
  5
19D7
330
19D0
100
AcDbEntity
  8
文字
 62
     0
100
AcDbMText
 10
122.9529593090462
 20
88.64055358837423
 30
0.0
 40
2.5
 41
0.0
 46
0.0
 71
     5
 72
     1
  1
13
 11
6.123031769111886E-17
 21
1.0
 31
0.0
 73
     1
 44
1.0
  0
POINT
  5
19D8
330
19D0
100
AcDbEntity
  8
DEFPOINTS
 62
     0
100
AcDbPoint
 10
110.2212500301885
 20
82.34882055485835
 30
0.0
  0
POINT
  5
19D9
330
19D0
100
AcDbEntity
  8
DEFPOINTS
 62
     0
100
AcDbPoint
 10
96.23748092256537
 20
94.93228662189009
 30
0.0
  0
POINT
  5
19DA
330
19D0
100
AcDbEntity
  8
DEFPOINTS
 62
     0
100
AcDbPoint
 10
124.8279593090463
 20
94.93228662189009
 30
0.0
  0
ENDBLK
  5
19DB
330
19D0
100
AcDbEntity
  8
0
100
AcDbBlockEnd
  0
BLOCK
  5
19DD
330
19DC
100
AcDbEntity
  8
0
100
AcDbBlockBegin
  2
*D10
 70
     1
 10
0.0
 20
0.0
 30
0.0
  3
*D10
  1
*D10
  0
LINE
  5
19DE
330
19DC
100
AcDbEntity
  8
文字
 62
     0
100
AcDbLine
 10
96.86248092256537
 20
94.93228662189009
 30
0.0
 11
126.0779593090463
 21
94.93228662189009
 31
0.0
  0
LINE
  5
19DF
330
19DC
100
AcDbEntity
  8
文字
 62
     0
100
AcDbLine
 10
99.37863313321532
 20
100.4320527207158
 30
0.0
 11
126.0779593090463
 21
100.4320527207158
 31
0.0
  0
LINE
  5
19E0
330
19DC
100
AcDbEntity
  8
文字
 62
     0
100
AcDbLine
 10
124.8279593090463
 20
92.43228662189009
 30
0.0
 11
124.8279593090463
 21
89.93228662189009
 31
0.0
  0
LINE
  5
19E1
330
19DC
100
AcDbEntity
  8
文字
 62
     0
100
AcDbLine
 10
124.8279593090463
 20
102.9320527207158
 30
0.0
 11
124.8279593090463
 21
105.4320527207158
 31
0.0
  0
LINE
  5
19E2
330
19DC
100
AcDbEntity
  8
文字
 62
     0
100
AcDbLine
 10
124.8279593090463
 20
97.68216967130294
 30
0.0
 11
130.7654593090463
 21
99.46341967130294
 31
0.0
  0
LINE
  5
19E3
330
19DC
100
AcDbEntity
  8
文字
 62
     0
100
AcDbLine
 10
130.7654593090463
 20
99.46341967130294
 30
0.0
 11
130.7654593090463
 21
105.7134196713029
 31
0.0
  0
MTEXT
  5
19E4
330
19DC
100
AcDbEntity
  8
文字
 62
     0
100
AcDbMText
 10
128.8904593090463
 20
102.588419671303
 30
0.0
 40
2.5
 41
0.0
 46
0.0
 71
     5
 72
     1
  1
5.5
 11
6.123031769111886E-17
 21
1.0
 31
0.0
 73
     1
 44
1.0
  0
LINE
  5
19E5
330
19DC
100
AcDbEntity
  8
文字
 62
     0
100
AcDbLine
 10
124.8279593090463
 20
94.93228662189009
 30
0.0
 11
124.8279593090463
 21
100.4320527207158
 31
0.0
  0
LINE
  5
19E6
330
19DC
100
AcDbEntity
  8
文字
 62
     0
100
AcDbLine
 10
124.8279593090463
 20
94.93228662189009
 30
0.0
 11
124.8279593090463
 21
100.4320527207158
 31
0.0
  0
SOLID
  5
19E7
330
19DC
100
AcDbEntity
  8
文字
 62
     0
100
AcDbTrace
 10
124.4112926423796
 20
92.43228662189009
 30
0.0
 11
125.2446259757129
 21
92.43228662189009
 31
0.0
 12
124.8279593090463
 22
94.93228662189009
 32
0.0
 13
124.8279593090463
 23
94.93228662189009
 33
0.0
  0
SOLID
  5
19E8
330
19DC
100
AcDbEntity
  8
文字
 62
     0
100
AcDbTrace
 10
124.4112926423796
 20
102.9320527207158
 30
0.0
 11
125.2446259757129
 21
102.9320527207158
 31
0.0
 12
124.8279593090463
 22
100.4320527207158
 32
0.0
 13
124.8279593090463
 23
100.4320527207158
 33
0.0
  0
POINT
  5
19E9
330
19DC
100
AcDbEntity
  8
DEFPOINTS
 62
     0
100
AcDbPoint
 10
96.23748092256537
 20
94.93228662189009
 30
0.0
  0
POINT
  5
19EA
330
19DC
100
AcDbEntity
  8
DEFPOINTS
 62
     0
100
AcDbPoint
 10
98.75363313321532
 20
100.4320527207158
 30
0.0
  0
POINT
  5
19EB
330
19DC
100
AcDbEntity
  8
DEFPOINTS
 62
     0
100
AcDbPoint
 10
124.8279593090463
 20
100.4320527207158
 30
0.0
  0
ENDBLK
  5
19EC
330
19DC
100
AcDbEntity
  8
0
100
AcDbBlockEnd
  0
BLOCK
  5
19EE
330
19ED
100
AcDbEntity
  8
0
100
AcDbBlockBegin
  2
*D11
 70
     1
 10
0.0
 20
0.0
 30
0.0
  3
*D11
  1
*D11
  0
LINE
  5
19EF
330
19ED
100
AcDbEntity
  8
文字
 62
     0
100
AcDbLine
 10
99.37863313321532
 20
100.4320527207158
 30
0.0
 11
126.0779593090463
 21
100.4320527207158
 31
0.0
  0
LINE
  5
19F0
330
19ED
100
AcDbEntity
  8
文字
 62
     0
100
AcDbLine
 10
94.84625003018851
 20
135.4320527207158
 30
0.0
 11
126.0779593090463
 21
135.4320527207158
 31
0.0
  0
LINE
  5
19F1
330
19ED
100
AcDbEntity
  8
文字
 62
     0
100
AcDbLine
 10
124.8279593090463
 20
102.9320527207158
 30
0.0
 11
124.8279593090463
 21
132.9320527207158
 31
0.0
  0
SOLID
  5
19F2
330
19ED
100
AcDbEntity
  8
文字
 62
     0
100
AcDbTrace
 10
124.4112926423796
 20
102.9320527207158
 30
0.0
 11
125.2446259757129
 21
102.9320527207158
 31
0.0
 12
124.8279593090463
 22
100.4320527207158
 32
0.0
 13
124.8279593090463
 23
100.4320527207158
 33
0.0
  0
SOLID
  5
19F3
330
19ED
100
AcDbEntity
  8
文字
 62
     0
100
AcDbTrace
 10
124.4112926423796
 20
132.9320527207158
 30
0.0
 11
125.2446259757129
 21
132.9320527207158
 31
0.0
 12
124.8279593090463
 22
135.4320527207158
 32
0.0
 13
124.8279593090463
 23
135.4320527207158
 33
0.0
  0
MTEXT
  5
19F4
330
19ED
100
AcDbEntity
  8
文字
 62
     0
100
AcDbMText
 10
122.9529593090463
 20
117.9320527207158
 30
0.0
 40
2.5
 41
0.0
 46
0.0
 71
     5
 72
     1
  1
35
 11
6.123031769111886E-17
 21
1.0
 31
0.0
 73
     1
 44
1.0
  0
POINT
  5
19F5
330
19ED
100
AcDbEntity
  8
DEFPOINTS
 62
     0
100
AcDbPoint
 10
98.75363313321532
 20
100.4320527207158
 30
0.0
  0
POINT
  5
19F6
330
19ED
100
AcDbEntity
  8
DEFPOINTS
 62
     0
100
AcDbPoint
 10
94.22125003018851
 20
135.4320527207158
 30
0.0
  0
POINT
  5
19F7
330
19ED
100
AcDbEntity
  8
DEFPOINTS
 62
     0
100
AcDbPoint
 10
124.8279593090463
 20
135.4320527207158
 30
0.0
  0
ENDBLK
  5
19F8
330
19ED
100
AcDbEntity
  8
0
100
AcDbBlockEnd
  0
BLOCK
  5
19FA
330
19F9
100
AcDbEntity
  8
0
100
AcDbBlockBegin
  2
*D12
 70
     1
 10
0.0
 20
0.0
 30
0.0
  3
*D12
  1
*D12
  0
LINE
  5
19FB
330
19F9
100
AcDbEntity
  8
文字
 62
     0
100
AcDbLine
 10
110.8462500301885
 20
82.34882055485835
 30
0.0
 11
141.6100264422735
 21
82.34882055485835
 31
0.0
  0
LINE
  5
19FC
330
19F9
100
AcDbEntity
  8
文字
 62
     0
100
AcDbLine
 10
94.84625003018851
 20
135.4320527207158
 30
0.0
 11
141.6100264422735
 21
135.4320527207158
 31
0.0
  0
LINE
  5
19FD
330
19F9
100
AcDbEntity
  8
文字
 62
     0
100
AcDbLine
 10
140.3600264422735
 20
84.84882055485835
 30
0.0
 11
140.3600264422735
 21
132.9320527207158
 31
0.0
  0
SOLID
  5
19FE
330
19F9
100
AcDbEntity
  8
文字
 62
     0
100
AcDbTrace
 10
139.9433597756068
 20
84.84882055485835
 30
0.0
 11
140.7766931089401
 21
84.84882055485835
 31
0.0
 12
140.3600264422735
 22
82.34882055485835
 32
0.0
 13
140.3600264422735
 23
82.34882055485835
 33
0.0
  0
SOLID
  5
19FF
330
19F9
100
AcDbEntity
  8
文字
 62
     0
100
AcDbTrace
 10
139.9433597756068
 20
132.9320527207158
 30
0.0
 11
140.7766931089401
 21
132.9320527207158
 31
0.0
 12
140.3600264422735
 22
135.4320527207158
 32
0.0
 13
140.3600264422735
 23
135.4320527207158
 33
0.0
  0
MTEXT
  5
1A00
330
19F9
100
AcDbEntity
  8
文字
 62
     0
100
AcDbMText
 10
138.4850264422734
 20
108.8904366377871
 30
0.0
 40
2.5
 41
0.0
 46
0.0
 71
     5
 72
     1
  1
53.5
 11
6.123031769111886E-17
 21
1.0
 31
0.0
 73
     1
 44
1.0
  0
POINT
  5
1A01
330
19F9
100
AcDbEntity
  8
DEFPOINTS
 62
     0
100
AcDbPoint
 10
110.2212500301885
 20
82.34882055485835
 30
0.0
  0
POINT
  5
1A02
330
19F9
100
AcDbEntity
  8
DEFPOINTS
 62
     0
100
AcDbPoint
 10
94.22125003018851
 20
135.4320527207158
 30
0.0
  0
POINT
  5
1A03
330
19F9
100
AcDbEntity
  8
DEFPOINTS
 62
     0
100
AcDbPoint
 10
140.3600264422735
 20
135.4320527207158
 30
0.0
  0
ENDBLK
  5
1A04
330
19F9
100
AcDbEntity
  8
0
100
AcDbBlockEnd
  0
BLOCK
  5
1A4C
330
1A05
100
AcDbEntity
  8
0
 62
     0
100
AcDbBlockBegin
  2
A$C76A36C9E
 70
     0
 10
0.0
 20
0.0
 30
0.0
  3
A$C76A36C9E
  1
A$C76A36C9E
  0
LWPOLYLINE
  5
1A06
330
1A05
100
AcDbEntity
  8
実線
100
AcDbPolyline
 90
        6
 70
     0
 43
0.0
 10
-136.9787502058973
 20
95.18495711771044
 10
-136.9787502058973
 20
115.6320525348278
 10
-137.9787502058973
 20
116.6320525348278
 10
-143.9787502058973
 20
116.6320525348278
 10
-144.9787502058973
 20
115.6320525348278
 10
-144.9787502058973
 20
95.18495711771044
  0
LINE
  5
1A07
330
1A05
100
AcDbEntity
  8
実線
100
AcDbLine
 10
-137.9787502058973
 20
88.68519101888472
 30
0.0
 11
-137.9787502058973
 21
81.6320525348278
 31
0.0
  0
LINE
  5
1A08
330
1A05
100
AcDbEntity
  8
実線
100
AcDbLine
 10
-143.9787502058973
 20
88.68519101888475
 30
0.0
 11
-143.9787502058973
 21
81.6320525348278
 31
0.0
  0
LWPOLYLINE
  5
1A09
330
1A05
100
AcDbEntity
  8
実線
100
AcDbPolyline
 90
        4
 70
     0
 43
0.0
 10
-133.4463671028705
 20
89.68495711771044
 10
-133.4463671028705
 20
95.18495711771044
 10
-148.4463671028705
 20
95.18495711771044
 10
-148.4463671028705
 20
89.68495711771044
  0
LINE
  5
1A0A
330
1A05
100
AcDbEntity
  8
実線
100
AcDbLine
 10
-144.3456442458684
 20
95.18495711771044
 30
0.0
 11
-144.3456442458684
 21
89.68495711771044
 31
0.0
  0
LINE
  5
1A0B
330
1A05
100
AcDbEntity
  8
実線
100
AcDbLine
 10
-137.4873226877818
 20
95.18495711771044
 30
0.0
 11
-137.4873226877818
 21
89.68495711771044
 31
0.0
  0
ARC
  5
1A0C
330
1A05
100
AcDbEntity
  8
実線
100
AcDbCircle
 10
-146.3960056743694
 20
91.28535523740777
 30
0.0
 40
2.601010597636193
100
AcDbArc
 50
217.973618634994
 51
322.0263813650058
  0
ARC
  5
1A0D
330
1A05
100
AcDbEntity
  8
実線
100
AcDbCircle
 10
-140.916483466825
 20
95.06408242612318
 30
0.0
 40
6.379195304435764
100
AcDbArc
 50
237.4827287485465
 51
302.5172712514534
  0
ARC
  5
1A0E
330
1A05
100
AcDbEntity
  8
実線
100
AcDbCircle
 10
-135.4668448953261
 20
91.22496313739819
 30
0.0
 40
2.540462369428222
100
AcDbArc
 50
217.3146110078773
 51
322.6853889921216
  0
LINE
  5
1A0F
330
1A05
100
AcDbEntity
  8
実線
100
AcDbLine
 10
-140.9787502058973
 20
88.68519101888472
 30
0.0
 11
-145.9949810982741
 21
88.68519101888472
 31
0.0
  0
LINE
  5
1A10
330
1A05
100
AcDbEntity
  8
実線
100
AcDbLine
 10
-140.9787502058976
 20
88.68519101888472
 30
0.0
 11
-135.9625193135205
 21
88.68519101888472
 31
0.0
  0
DIMENSION
  5
1A11
330
1A05
100
AcDbEntity
  8
文字
100
AcDbDimension
280
     0
  2
*D12
 10
-91.83997379381236
 20
116.6320525348278
 30
0.0
 11
-93.71497379381239
 21
90.09043645189911
 31
0.0
 12
-232.2000002360858
 22
-18.80000018588799
 32
0.0
 70
    32
  1
53.5
 71
     5
 42
-1.0
 73
     0
 74
     0
 75
     0
  3
ISO-25
100
AcDbAlignedDimension
 13
-121.9787502058973
 23
63.54882036897036
 33
0.0
 14
-137.9787502058973
 24
116.6320525348278
 34
0.0
 50
90.0
100
AcDbRotatedDimension
  0
LINE
  5
1A14
330
1A05
100
AcDbEntity
  8
中心線
100
AcDbLine
 10
-25.97857598945512
 20
97.20974302401129
 30
0.0
 11
-25.97857598945512
 21
73.28463913907507
 31
0.0
  0
LINE
  5
1A15
330
1A05
100
AcDbEntity
  8
中心線
100
AcDbLine
 10
-25.97857598945512
 20
97.20974302401129
 30
0.0
 11
-25.97857598945512
 21
122.905154338709
 31
0.0
  0
DIMENSION
  5
1A16
330
1A05
100
AcDbEntity
  8
文字
100
AcDbDimension
280
     0
  2
*D11
 10
-107.3720409270395
 20
116.6320525348278
 30
0.0
 11
-109.2470409270396
 21
99.13205253482784
 31
0.0
 12
-232.2000002360858
 22
-18.80000018588799
 32
0.0
 70
    32
 71
     5
 42
-1.0
 73
     0
 74
     0
 75
     0
  3
ISO-25
100
AcDbAlignedDimension
 13
-133.4463671028705
 23
81.6320525348278
 33
0.0
 14
-137.9787502058973
 24
116.6320525348278
 34
0.0
 50
90.0
100
AcDbRotatedDimension
1001
ACAD
1000
DSTYLE
1002
{
1070
   279
1070
     1
1002
}
  0
DIMENSION
  5
1A19
330
1A05
100
AcDbEntity
  8
文字
100
AcDbDimension
280
     0
  2
*D10
 10
-107.3720409270395
 20
81.6320525348278
 30
0.0
 11
-103.3095409270396
 21
81.28841948541498
 31
0.0
 12
-232.2000002360858
 22
-18.80000018588799
 32
0.0
 70
    32
 71
     5
 42
-1.0
 73
     0
 74
     0
 75
     0
  3
ISO-25
100
AcDbAlignedDimension
 13
-135.9625193135205
 23
76.13228643600209
 33
0.0
 14
-133.4463671028705
 24
81.6320525348278
 34
0.0
 50
90.0
100
AcDbRotatedDimension
1001
ACAD
1000
DSTYLE
1002
{
1070
   279
1070
     1
1002
}
  0
DIMENSION
  5
1A1C
330
1A05
100
AcDbEntity
  8
文字
100
AcDbDimension
280
     0
  2
*D9
 10
-107.3720409270396
 20
76.13228643600209
 30
0.0
 11
-109.2470409270396
 21
69.84055340248625
 31
0.0
 12
-232.2000002360858
 22
-18.80000018588799
 32
0.0
 70
    32
  1
13
 71
     5
 42
-1.0
 73
     0
 74
     0
 75
     0
  3
ISO-25
100
AcDbAlignedDimension
 13
-121.9787502058973
 23
63.54882036897036
 33
0.0
 14
-135.9625193135205
 24
76.13228643600209
 34
0.0
 50
90.0
100
AcDbRotatedDimension
  0
DIMENSION
  5
1A1F
330
1A05
100
AcDbEntity
  8
文字
100
AcDbDimension
280
     0
  2
*D8
 10
-121.9787502058973
 20
44.0968361446644
 30
0.0
 11
-140.9787502058973
 21
45.9718361446644
 31
0.0
 12
-232.2000002360858
 22
-18.80000018588799
 32
0.0
 70
    32
  1
%%c<>
 71
     5
 42
-1.0
 73
     0
 74
     0
 75
     0
  3
ISO-25
100
AcDbAlignedDimension
 13
-159.9787502058973
 23
63.54882036897038
 33
0.0
 14
-121.9787502058973
 24
63.54882036897036
 34
0.0
100
AcDbRotatedDimension
  0
DIMENSION
  5
1A20
330
1A05
100
AcDbEntity
  8
文字
100
AcDbDimension
280
     0
  2
*D7
 10
-136.9787502058973
 20
127.851572035212
 30
0.0
 11
-140.9787502058973
 21
129.726572035212
 31
0.0
 12
-232.2000002360858
 22
-18.80000018588799
 32
0.0
 70
    32
  1
{\fArial|b0|i0|c0|p32;M}<>
 71
     5
 42
-1.0
 73
     0
 74
     0
 75
     0
  3
ISO-25
100
AcDbAlignedDimension
 13
-144.9787502058973
 23
115.6320525348278
 33
0.0
 14
-136.9787502058973
 24
115.6320525348278
 34
0.0
100
AcDbRotatedDimension
  0
LINE
  5
1A23
330
1A05
100
AcDbEntity
  8
実線
100
AcDbLine
 10
-137.9787502058973
 20
116.6320525348278
 30
0.0
 11
-137.9787502058973
 21
95.18495711771044
 31
0.0
  0
LINE
  5
1A24
330
1A05
100
AcDbEntity
  8
実線
100
AcDbLine
 10
-143.9787502058973
 20
116.6320525348278
 30
0.0
 11
-143.9787502058973
 21
95.18495711771044
 31
0.0
  0
LINE
  5
1A25
330
1A05
100
AcDbEntity
  8
実線
100
AcDbLine
 10
-144.9787502058973
 20
115.6320525348278
 30
0.0
 11
-136.9787502058973
 21
115.6320525348278
 31
0.0
  0
LWPOLYLINE
  5
1A26
330
1A05
100
AcDbEntity
  8
実線
100
AcDbPolyline
 90
        4
 70
     0
 43
0.0
 10
-144.9787502058973
 20
88.68519101888472
 10
-144.9787502058973
 20
81.6320525348278
 10
-136.9787502058973
 20
81.6320525348278
 10
-136.9787502058973
 20
88.68519101888472
  0
DIMENSION
  5
1A27
330
1A05
100
AcDbEntity
  8
文字
100
AcDbDimension
280
     0
  2
*D6
 10
-19.48338546107183
 20
64.96985013205477
 30
0.0
 11
-25.79585274975142
 21
64.96985013205477
 31
0.0
 12
-232.2000002360858
 22
-18.80000018588799
 32
0.0
 70
   128
  1
13
 71
     5
 42
-1.0
 73
     0
 74
     0
 75
     0
  3
ISO-25
100
AcDbAlignedDimension
 13
-32.47376651783841
 23
97.20974302401126
 33
0.0
 14
-19.48338546107183
 24
97.20974302401129
 34
0.0
100
AcDbRotatedDimension
  0
DIMENSION
  5
1A2A
330
1A05
100
AcDbEntity
  8
文字
100
AcDbDimension
280
     0
  2
*D5
 10
-174.9740745621517
 20
63.54882036897038
 30
0.0
 11
-176.8490745621517
 21
55.84048703563706
 31
0.0
 12
-232.2000002360858
 22
-18.80000018588799
 32
0.0
 70
    32
  1
1.5
 71
     5
 42
-1.0
 73
     0
 74
     0
 75
     0
  3
ISO-25
100
AcDbAlignedDimension
 13
-159.9787502058973
 23
65.14882036897038
 33
0.0
 14
-159.9787502058973
 24
63.54882036897038
 34
0.0
 50
90.0
100
AcDbRotatedDimension
  0
CIRCLE
  5
1A2D
330
1A05
100
AcDbEntity
  8
実線
100
AcDbCircle
 10
-25.97857598945512
 20
97.20974302401129
 30
0.0
 40
3.4
  0
CIRCLE
  5
1A2E
330
1A05
100
AcDbEntity
  8
実線
100
AcDbCircle
 10
-25.97857598945512
 20
97.20974302401129
 30
0.0
 40
4.0
  0
LWPOLYLINE
  5
1A2F
330
1A05
100
AcDbEntity
  8
実線
100
AcDbPolyline
 90
        6
 70
     1
 43
0.0
 10
-19.48338546107183
 20
100.9597430240113
 10
-25.97857598945512
 20
104.7097430240113
 10
-32.47376651783841
 20
100.9597430240113
 10
-32.47376651783841
 20
93.45974302401126
 10
-25.97857598945512
 20
89.70974302401126
 10
-19.48338546107183
 20
93.45974302401126
  0
DIMENSION
  5
1A30
330
1A05
100
AcDbEntity
  8
文字
100
AcDbDimension
280
     0
  2
*D4
 10
-11.97857598945512
 20
57.36396220779807
 30
0.0
 11
-25.97857598945512
 21
59.23896220779807
 31
0.0
 12
-232.2000002360858
 22
-18.80000018588799
 32
0.0
 70
    32
  1
%%c<>
 71
     5
 42
-1.0
 73
     0
 74
     0
 75
     0
  3
ISO-25
100
AcDbAlignedDimension
 13
-39.97857598945512
 23
97.20974302401129
 33
0.0
 14
-11.97857598945512
 24
97.20974302401129
 34
0.0
100
AcDbRotatedDimension
  0
ARC
  5
1A33
330
1A05
100
AcDbEntity
  8
実線
100
AcDbCircle
 10
-140.9787502058973
 20
62.86352625132333
 30
0.0
 40
14.18529411764706
100
AcDbArc
 50
110.7090084471018
 51
164.6470298493059
  0
LINE
  5
1A34
330
1A05
100
AcDbEntity
  8
実線
100
AcDbLine
 10
-140.9787502058976
 20
76.13228643600209
 30
0.0
 11
-135.9625193135205
 21
76.13228643600209
 31
0.0
  0
LINE
  5
1A35
330
1A05
100
AcDbEntity
  8
実線
100
AcDbLine
 10
-140.9787502058973
 20
76.13228643600209
 30
0.0
 11
-145.9949810982741
 21
76.13228643600209
 31
0.0
  0
ARC
  5
1A36
330
1A05
100
AcDbEntity
  8
実線
100
AcDbCircle
 10
-135.4668448953261
 20
78.67205855451556
 30
0.0
 40
2.540462369428222
100
AcDbArc
 50
217.3146110078773
 51
322.6853889921216
  0
ARC
  5
1A37
330
1A05
100
AcDbEntity
  8
実線
100
AcDbCircle
 10
-140.916483466825
 20
82.51117784324055
 30
0.0
 40
6.379195304435764
100
AcDbArc
 50
237.4827287485465
 51
302.5172712514534
  0
ARC
  5
1A38
330
1A05
100
AcDbEntity
  8
実線
100
AcDbCircle
 10
-146.3960056743694
 20
78.73245065452514
 30
0.0
 40
2.601010597636193
100
AcDbArc
 50
217.973618634994
 51
322.0263813650058
  0
LINE
  5
1A39
330
1A05
100
AcDbEntity
  8
実線
100
AcDbLine
 10
-137.4873226877818
 20
81.6320525348278
 30
0.0
 11
-137.4873226877818
 21
77.1320525348278
 31
0.0
  0
LINE
  5
1A3A
330
1A05
100
AcDbEntity
  8
実線
100
AcDbLine
 10
-144.3456442458684
 20
81.6320525348278
 30
0.0
 11
-144.3456442458684
 21
77.1320525348278
 31
0.0
  0
LWPOLYLINE
  5
1A3B
330
1A05
100
AcDbEntity
  8
実線
100
AcDbPolyline
 90
        4
 70
     0
 43
0.0
 10
-133.4463671028705
 20
77.1320525348278
 10
-133.4463671028705
 20
81.6320525348278
 10
-148.4463671028705
 20
81.6320525348278
 10
-148.4463671028705
 20
77.1320525348278
  0
LINE
  5
1A3C
330
1A05
100
AcDbEntity
  8
中心線
100
AcDbLine
 10
-56.39333659375262
 20
97.20974302401129
 30
0.0
 11
-16.39090544331049
 21
97.20974302401129
 31
0.0
  0
LINE
  5
1A3D
330
1A05
100
AcDbEntity
  8
実線
100
AcDbLine
 10
-156.4653650853308
 20
65.14882036897038
 30
0.0
 11
-125.371059793796
 21
65.14882036897035
 31
0.0
  0
LINE
  5
1A3E
330
1A05
100
AcDbEntity
  8
中心線
100
AcDbLine
 10
-16.39090544331049
 20
97.20974302401129
 30
0.0
 11
4.251392774196745
 21
97.20974302401129
 31
0.0
  0
CIRCLE
  5
1A3F
330
1A05
100
AcDbEntity
  8
実線
100
AcDbCircle
 10
-25.97857598945512
 20
97.20974302401129
 30
0.0
 40
19.0
  0
CIRCLE
  5
1A40
330
1A05
100
AcDbEntity
  8
実線
100
AcDbCircle
 10
-25.97857598945512
 20
97.20974302401129
 30
0.0
 40
14.0
  0
ARC
  5
1A41
330
1A05
100
AcDbEntity
  8
実線
100
AcDbCircle
 10
-125.371059793796
 20
67.14882036897038
 30
0.0
 40
2.0
100
AcDbArc
 50
195.3529701506943
 51
270.0
  0
LINE
  5
1A42
330
1A05
100
AcDbEntity
  8
実線
100
AcDbLine
 10
-125.371059793796
 20
65.14882036897035
 30
0.0
 11
-121.9787502058973
 21
65.14882036897035
 31
0.0
  0
ARC
  5
1A43
330
1A05
100
AcDbEntity
  8
実線
100
AcDbCircle
 10
-156.5864406179986
 20
67.14882036897038
 30
0.0
 40
2.0
100
AcDbArc
 50
270.0
 51
344.6470298493056
  0
ARC
  5
1A44
330
1A05
100
AcDbEntity
  8
実線
100
AcDbCircle
 10
-140.9787502058973
 20
62.86352625132333
 30
0.0
 40
14.18529411764706
100
AcDbArc
 50
15.35297015069416
 51
69.29099155289825
  0
LINE
  5
1A45
330
1A05
100
AcDbEntity
  8
実線
100
AcDbLine
 10
-156.4653650853308
 20
65.14882036897038
 30
0.0
 11
-156.5864406179986
 21
65.14882036897038
 31
0.0
  0
LINE
  5
1A46
330
1A05
100
AcDbEntity
  8
実線
100
AcDbLine
 10
-159.9787502058973
 20
65.14882036897038
 30
0.0
 11
-156.4653650853308
 21
65.14882036897038
 31
0.0
  0
LINE
  5
1A47
330
1A05
100
AcDbEntity
  8
中心線
100
AcDbLine
 10
-140.9787502058973
 20
52.63205253482781
 30
0.0
 11
-140.9787502058973
 21
125.3376695381868
 31
0.0
  0
LINE
  5
1A48
330
1A05
100
AcDbEntity
  8
実線
100
AcDbLine
 10
-121.9787502058973
 20
65.14882036897035
 30
0.0
 11
-121.9787502058973
 21
63.54882036897036
 31
0.0
  0
LINE
  5
1A49
330
1A05
100
AcDbEntity
  8
実線
100
AcDbLine
 10
-159.9787502058973
 20
63.54882036897038
 30
0.0
 11
-159.9787502058973
 21
65.14882036897038
 31
0.0
  0
LINE
  5
1A4A
330
1A05
100
AcDbEntity
  8
実線
100
AcDbLine
 10
-121.9787502058973
 20
63.54882036897036
 30
0.0
 11
-159.9787502058973
 21
63.54882036897038
 31
0.0
  0
TEXT
  5
1A4B
330
1A05
100
AcDbEntity
  8
文字
100
AcDbText
 10
2.672502397611936
 20
1.442331116837359
 30
0.0
 40
3.0
  1
ＳＵＳ304Ｊ3
100
AcDbText
  0
ENDBLK
  5
1A4D
330
1A05
100
AcDbEntity
  8
0
 62
     0
100
AcDbBlockEnd
  0
BLOCK
  5
1AA9
330
1AA8
100
AcDbEntity
  8
0
100
AcDbBlockBegin
  2
*D14
 70
     1
 10
0.0
 20
0.0
 30
0.0
  3
*D14
  1
*D14
  0
LINE
  5
1AAA
330
1AA8
100
AcDbEntity
  8
文字
 62
     0
100
AcDbLine
 10
64.4883025909753
 20
66.02446679583329
 30
0.0
 11
64.4883025909753
 21
46.01500613681003
 31
0.0
  0
LINE
  5
1AAB
330
1AA8
100
AcDbEntity
  8
文字
 62
     0
100
AcDbLine
 10
124.4883025909753
 20
66.02446679583328
 30
0.0
 11
124.4883025909753
 21
46.01500613681003
 31
0.0
  0
LINE
  5
1AAC
330
1AA8
100
AcDbEntity
  8
文字
 62
     0
100
AcDbLine
 10
66.9883025909753
 20
47.26500613681003
 30
0.0
 11
121.9883025909753
 21
47.26500613681003
 31
0.0
  0
SOLID
  5
1AAD
330
1AA8
100
AcDbEntity
  8
文字
 62
     0
100
AcDbTrace
 10
66.9883025909753
 20
47.68167280347669
 30
0.0
 11
66.9883025909753
 21
46.84833947014337
 31
0.0
 12
64.4883025909753
 22
47.26500613681003
 32
0.0
 13
64.4883025909753
 23
47.26500613681003
 33
0.0
  0
SOLID
  5
1AAE
330
1AA8
100
AcDbEntity
  8
文字
 62
     0
100
AcDbTrace
 10
121.9883025909753
 20
47.68167280347669
 30
0.0
 11
121.9883025909753
 21
46.84833947014337
 31
0.0
 12
124.4883025909753
 22
47.26500613681003
 32
0.0
 13
124.4883025909753
 23
47.26500613681003
 33
0.0
  0
MTEXT
  5
1AAF
330
1AA8
100
AcDbEntity
  8
文字
 62
     0
100
AcDbMText
 10
94.4883025909753
 20
49.14000613681003
 30
0.0
 40
2.5
 41
0.0
 46
0.0
 71
     5
 72
     1
  1
%%c60
 73
     1
 44
1.0
  0
POINT
  5
1AB0
330
1AA8
100
AcDbEntity
  8
DEFPOINTS
 62
     0
100
AcDbPoint
 10
64.4883025909753
 20
66.64946679583329
 30
0.0
  0
POINT
  5
1AB1
330
1AA8
100
AcDbEntity
  8
DEFPOINTS
 62
     0
100
AcDbPoint
 10
124.4883025909753
 20
66.64946679583328
 30
0.0
  0
POINT
  5
1AB2
330
1AA8
100
AcDbEntity
  8
DEFPOINTS
 62
     0
100
AcDbPoint
 10
124.4883025909753
 20
47.26500613681003
 30
0.0
  0
ENDBLK
  5
1AB3
330
1AA8
100
AcDbEntity
  8
0
100
AcDbBlockEnd
  0
BLOCK
  5
1AB5
330
1AB4
100
AcDbEntity
  8
0
100
AcDbBlockBegin
  2
*D15
 70
     1
 10
0.0
 20
0.0
 30
0.0
  3
*D15
  1
*D15
  0
LINE
  5
1AB6
330
1AB4
100
AcDbEntity
  8
文字
 62
     0
100
AcDbLine
 10
103.5633025909753
 20
86.17778419700053
 30
0.0
 11
139.3522667143918
 21
86.17778419700053
 31
0.0
  0
LINE
  5
1AB7
330
1AB4
100
AcDbEntity
  8
文字
 62
     0
100
AcDbLine
 10
125.1133025909753
 20
66.02446679583328
 30
0.0
 11
139.3522667143918
 21
66.02446679583328
 31
0.0
  0
LINE
  5
1AB8
330
1AB4
100
AcDbEntity
  8
文字
 62
     0
100
AcDbLine
 10
138.1022667143918
 20
83.67778419700053
 30
0.0
 11
138.1022667143918
 21
68.52446679583328
 31
0.0
  0
SOLID
  5
1AB9
330
1AB4
100
AcDbEntity
  8
文字
 62
     0
100
AcDbTrace
 10
137.6856000477252
 20
83.67778419700053
 30
0.0
 11
138.5189333810585
 21
83.67778419700053
 31
0.0
 12
138.1022667143918
 22
86.17778419700053
 32
0.0
 13
138.1022667143918
 23
86.17778419700053
 33
0.0
  0
SOLID
  5
1ABA
330
1AB4
100
AcDbEntity
  8
文字
 62
     0
100
AcDbTrace
 10
137.6856000477252
 20
68.52446679583328
 30
0.0
 11
138.5189333810585
 21
68.52446679583328
 31
0.0
 12
138.1022667143918
 22
66.02446679583328
 32
0.0
 13
138.1022667143918
 23
66.02446679583328
 33
0.0
  0
MTEXT
  5
1ABB
330
1AB4
100
AcDbEntity
  8
文字
 62
     0
100
AcDbMText
 10
136.2272667143918
 20
76.10112549641691
 30
0.0
 40
2.5
 41
0.0
 46
0.0
 71
     5
 72
     1
  1
19
 11
6.123031769111886E-17
 21
1.0
 31
0.0
 73
     1
 44
1.0
  0
POINT
  5
1ABC
330
1AB4
100
AcDbEntity
  8
DEFPOINTS
 62
     0
100
AcDbPoint
 10
102.9383025909753
 20
86.17778419700053
 30
0.0
  0
POINT
  5
1ABD
330
1AB4
100
AcDbEntity
  8
DEFPOINTS
 62
     0
100
AcDbPoint
 10
124.4883025909753
 20
66.02446679583328
 30
0.0
  0
POINT
  5
1ABE
330
1AB4
100
AcDbEntity
  8
DEFPOINTS
 62
     0
100
AcDbPoint
 10
138.1022667143918
 20
66.02446679583328
 30
0.0
  0
ENDBLK
  5
1ABF
330
1AB4
100
AcDbEntity
  8
0
100
AcDbBlockEnd
  0
BLOCK
  5
1AC1
330
1AC0
100
AcDbEntity
  8
0
100
AcDbBlockBegin
  2
*D16
 70
     1
 10
0.0
 20
0.0
 30
0.0
  3
*D16
  1
*D16
  0
LINE
  5
1AC2
330
1AC0
100
AcDbEntity
  8
文字
 62
     0
100
AcDbLine
 10
106.0633025909753
 20
86.17778419700053
 30
0.0
 11
139.3179534981718
 21
86.17778419700053
 31
0.0
  0
LINE
  5
1AC3
330
1AC0
100
AcDbEntity
  8
文字
 62
     0
100
AcDbLine
 10
106.0633025909753
 20
94.21331810293327
 30
0.0
 11
139.3179534981718
 21
94.21331810293327
 31
0.0
  0
LINE
  5
1AC4
330
1AC0
100
AcDbEntity
  8
文字
 62
     0
100
AcDbLine
 10
138.0679534981718
 20
88.67778419700053
 30
0.0
 11
138.0679534981718
 21
91.71331810293327
 31
0.0
  0
SOLID
  5
1AC5
330
1AC0
100
AcDbEntity
  8
文字
 62
     0
100
AcDbTrace
 10
137.6512868315052
 20
88.67778419700053
 30
0.0
 11
138.4846201648385
 21
88.67778419700053
 31
0.0
 12
138.0679534981718
 22
86.17778419700053
 32
0.0
 13
138.0679534981718
 23
86.17778419700053
 33
0.0
  0
SOLID
  5
1AC6
330
1AC0
100
AcDbEntity
  8
文字
 62
     0
100
AcDbTrace
 10
137.6512868315052
 20
91.71331810293327
 30
0.0
 11
138.4846201648385
 21
91.71331810293327
 31
0.0
 12
138.0679534981718
 22
94.21331810293327
 32
0.0
 13
138.0679534981718
 23
94.21331810293327
 33
0.0
  0
MTEXT
  5
1AC7
330
1AC0
100
AcDbEntity
  8
文字
 62
     0
100
AcDbMText
 10
136.1929534981718
 20
90.19555114996692
 30
0.0
 40
2.5
 41
0.0
 46
0.0
 71
     5
 72
     1
  1
8
 11
6.123031769111886E-17
 21
1.0
 31
0.0
 73
     1
 44
1.0
  0
POINT
  5
1AC8
330
1AC0
100
AcDbEntity
  8
DEFPOINTS
 62
     0
100
AcDbPoint
 10
105.4383025909753
 20
86.17778419700053
 30
0.0
  0
POINT
  5
1AC9
330
1AC0
100
AcDbEntity
  8
DEFPOINTS
 62
     0
100
AcDbPoint
 10
105.4383025909753
 20
94.21331810293327
 30
0.0
  0
POINT
  5
1ACA
330
1AC0
100
AcDbEntity
  8
DEFPOINTS
 62
     0
100
AcDbPoint
 10
138.0679534981718
 20
94.21331810293327
 30
0.0
  0
ENDBLK
  5
1ACB
330
1AC0
100
AcDbEntity
  8
0
100
AcDbBlockEnd
  0
BLOCK
  5
1ACD
330
1ACC
100
AcDbEntity
  8
0
100
AcDbBlockBegin
  2
*D17
 70
     1
 10
0.0
 20
0.0
 30
0.0
  3
*D17
  1
*D17
  0
LINE
  5
1ACE
330
1ACC
100
AcDbEntity
  8
文字
 62
     0
100
AcDbLine
 10
188.1028069713284
 20
113.1979665591597
 30
0.0
 11
188.1028069713284
 21
61.77700724119347
 31
0.0
  0
LINE
  5
1ACF
330
1ACC
100
AcDbEntity
  8
文字
 62
     0
100
AcDbLine
 10
234.1028069713284
 20
113.1979665591597
 30
0.0
 11
234.1028069713284
 21
61.77700724119347
 31
0.0
  0
LINE
  5
1AD0
330
1ACC
100
AcDbEntity
  8
文字
 62
     0
100
AcDbLine
 10
190.6028069713284
 20
63.02700724119347
 30
0.0
 11
231.6028069713284
 21
63.02700724119347
 31
0.0
  0
SOLID
  5
1AD1
330
1ACC
100
AcDbEntity
  8
文字
 62
     0
100
AcDbTrace
 10
190.6028069713284
 20
63.44367390786014
 30
0.0
 11
190.6028069713284
 21
62.61034057452681
 31
0.0
 12
188.1028069713284
 22
63.02700724119347
 32
0.0
 13
188.1028069713284
 23
63.02700724119347
 33
0.0
  0
SOLID
  5
1AD2
330
1ACC
100
AcDbEntity
  8
文字
 62
     0
100
AcDbTrace
 10
231.6028069713284
 20
63.44367390786014
 30
0.0
 11
231.6028069713284
 21
62.61034057452681
 31
0.0
 12
234.1028069713284
 22
63.02700724119347
 32
0.0
 13
234.1028069713284
 23
63.02700724119347
 33
0.0
  0
MTEXT
  5
1AD3
330
1ACC
100
AcDbEntity
  8
文字
 62
     0
100
AcDbMText
 10
211.1028069713284
 20
64.90200724119347
 30
0.0
 40
2.5
 41
0.0
 46
0.0
 71
     5
 72
     1
  1
%%c46
 73
     1
 44
1.0
  0
POINT
  5
1AD4
330
1ACC
100
AcDbEntity
  8
DEFPOINTS
 62
     0
100
AcDbPoint
 10
188.1028069713284
 20
113.8229665591597
 30
0.0
  0
POINT
  5
1AD5
330
1ACC
100
AcDbEntity
  8
DEFPOINTS
 62
     0
100
AcDbPoint
 10
234.1028069713284
 20
113.8229665591597
 30
0.0
  0
POINT
  5
1AD6
330
1ACC
100
AcDbEntity
  8
DEFPOINTS
 62
     0
100
AcDbPoint
 10
234.1028069713284
 20
63.02700724119347
 30
0.0
  0
ENDBLK
  5
1AD7
330
1ACC
100
AcDbEntity
  8
0
100
AcDbBlockEnd
  0
BLOCK
  5
1AD9
330
1AD8
100
AcDbEntity
  8
0
100
AcDbBlockBegin
  2
*D18
 70
     1
 10
0.0
 20
0.0
 30
0.0
  3
*D18
  1
*D18
  0
LINE
  5
1ADA
330
1AD8
100
AcDbEntity
  8
文字
 62
     0
100
AcDbLine
 10
63.86330259097529
 20
66.64946679583329
 30
0.0
 11
46.85625347364544
 21
66.64946679583329
 31
0.0
  0
LINE
  5
1ADB
330
1AD8
100
AcDbEntity
  8
文字
 62
     0
100
AcDbLine
 10
63.86330259097529
 20
68.64946679583329
 30
0.0
 11
46.85625347364544
 21
68.64946679583329
 31
0.0
  0
LINE
  5
1ADC
330
1AD8
100
AcDbEntity
  8
文字
 62
     0
100
AcDbLine
 10
48.10625347364544
 20
64.14946679583329
 30
0.0
 11
48.10625347364544
 21
61.64946679583329
 31
0.0
  0
LINE
  5
1ADD
330
1AD8
100
AcDbEntity
  8
文字
 62
     0
100
AcDbLine
 10
48.10625347364544
 20
71.14946679583329
 30
0.0
 11
48.10625347364544
 21
76.56613346249996
 31
0.0
  0
LINE
  5
1ADE
330
1AD8
100
AcDbEntity
  8
文字
 62
     0
100
AcDbLine
 10
48.10625347364544
 20
66.64946679583329
 30
0.0
 11
48.10625347364544
 21
68.64946679583329
 31
0.0
  0
SOLID
  5
1ADF
330
1AD8
100
AcDbEntity
  8
文字
 62
     0
100
AcDbTrace
 10
47.68958680697877
 20
64.14946679583329
 30
0.0
 11
48.5229201403121
 21
64.14946679583329
 31
0.0
 12
48.10625347364544
 22
66.64946679583329
 32
0.0
 13
48.10625347364544
 23
66.64946679583329
 33
0.0
  0
SOLID
  5
1AE0
330
1AD8
100
AcDbEntity
  8
文字
 62
     0
100
AcDbTrace
 10
47.68958680697877
 20
71.14946679583329
 30
0.0
 11
48.5229201403121
 21
71.14946679583329
 31
0.0
 12
48.10625347364544
 22
68.64946679583329
 32
0.0
 13
48.10625347364544
 23
68.64946679583329
 33
0.0
  0
MTEXT
  5
1AE1
330
1AD8
100
AcDbEntity
  8
文字
 62
     0
100
AcDbMText
 10
46.23125347364543
 20
75.10780012916663
 30
0.0
 40
2.5
 41
0.0
 46
0.0
 71
     5
 72
     1
  1
2
 11
6.123031769111886E-17
 21
1.0
 31
0.0
 73
     1
 44
1.0
  0
POINT
  5
1AE2
330
1AD8
100
AcDbEntity
  8
DEFPOINTS
 62
     0
100
AcDbPoint
 10
64.4883025909753
 20
66.64946679583329
 30
0.0
  0
POINT
  5
1AE3
330
1AD8
100
AcDbEntity
  8
DEFPOINTS
 62
     0
100
AcDbPoint
 10
64.4883025909753
 20
68.64946679583329
 30
0.0
  0
POINT
  5
1AE4
330
1AD8
100
AcDbEntity
  8
DEFPOINTS
 62
     0
100
AcDbPoint
 10
48.10625347364544
 20
68.64946679583329
 30
0.0
  0
ENDBLK
  5
1AE5
330
1AD8
100
AcDbEntity
  8
0
100
AcDbBlockEnd
  0
BLOCK
  5
1AE7
330
1AE6
100
AcDbEntity
  8
0
100
AcDbBlockBegin
  2
*D19
 70
     1
 10
0.0
 20
0.0
 30
0.0
  3
*D19
  1
*D19
  0
LINE
  5
1AE8
330
1AE6
100
AcDbEntity
  8
文字
 62
     0
100
AcDbLine
 10
201.6198287998888
 20
107.7229665591597
 30
0.0
 11
201.6198287998888
 21
69.90949830411887
 31
0.0
  0
LINE
  5
1AE9
330
1AE6
100
AcDbEntity
  8
文字
 62
     0
100
AcDbLine
 10
220.585785142768
 20
107.7229665591597
 30
0.0
 11
220.585785142768
 21
69.90949830411887
 31
0.0
  0
LINE
  5
1AEA
330
1AE6
100
AcDbEntity
  8
文字
 62
     0
100
AcDbLine
 10
204.1198287998888
 20
71.15949830411887
 30
0.0
 11
218.085785142768
 21
71.15949830411887
 31
0.0
  0
SOLID
  5
1AEB
330
1AE6
100
AcDbEntity
  8
文字
 62
     0
100
AcDbTrace
 10
204.1198287998888
 20
71.57616497078554
 30
0.0
 11
204.1198287998888
 21
70.7428316374522
 31
0.0
 12
201.6198287998888
 22
71.15949830411887
 32
0.0
 13
201.6198287998888
 23
71.15949830411887
 33
0.0
  0
SOLID
  5
1AEC
330
1AE6
100
AcDbEntity
  8
文字
 62
     0
100
AcDbTrace
 10
218.085785142768
 20
71.57616497078554
 30
0.0
 11
218.085785142768
 21
70.7428316374522
 31
0.0
 12
220.585785142768
 22
71.15949830411887
 32
0.0
 13
220.585785142768
 23
71.15949830411887
 33
0.0
  0
MTEXT
  5
1AED
330
1AE6
100
AcDbEntity
  8
文字
 62
     0
100
AcDbMText
 10
211.1028069713284
 20
73.03449830411887
 30
0.0
 40
2.5
 41
0.0
 46
0.0
 71
     5
 72
     1
  1
19
 73
     1
 44
1.0
  0
POINT
  5
1AEE
330
1AE6
100
AcDbEntity
  8
DEFPOINTS
 62
     0
100
AcDbPoint
 10
201.6198287998888
 20
108.3479665591597
 30
0.0
  0
POINT
  5
1AEF
330
1AE6
100
AcDbEntity
  8
DEFPOINTS
 62
     0
100
AcDbPoint
 10
220.585785142768
 20
108.3479665591597
 30
0.0
  0
POINT
  5
1AF0
330
1AE6
100
AcDbEntity
  8
DEFPOINTS
 62
     0
100
AcDbPoint
 10
220.585785142768
 20
71.15949830411887
 30
0.0
  0
ENDBLK
  5
1AF1
330
1AE6
100
AcDbEntity
  8
0
100
AcDbBlockEnd
  0
BLOCK
  5
1AF3
330
1AF2
100
AcDbEntity
  8
0
100
AcDbBlockBegin
  2
*D20
 70
     1
 10
0.0
 20
0.0
 30
0.0
  3
*D20
  1
*D20
  0
LINE
  5
1AF4
330
1AF2
100
AcDbEntity
  8
文字
 62
     0
100
AcDbLine
 10
88.48830259097527
 20
142.2133181029333
 30
0.0
 11
88.48830259097527
 21
155.4106552626019
 31
0.0
  0
LINE
  5
1AF5
330
1AF2
100
AcDbEntity
  8
文字
 62
     0
100
AcDbLine
 10
100.4883025909753
 20
142.2133181029333
 30
0.0
 11
100.4883025909753
 21
155.4106552626019
 31
0.0
  0
LINE
  5
1AF6
330
1AF2
100
AcDbEntity
  8
文字
 62
     0
100
AcDbLine
 10
90.98830259097527
 20
154.1606552626019
 30
0.0
 11
97.98830259097527
 21
154.1606552626019
 31
0.0
  0
SOLID
  5
1AF7
330
1AF2
100
AcDbEntity
  8
文字
 62
     0
100
AcDbTrace
 10
90.98830259097527
 20
154.5773219292686
 30
0.0
 11
90.98830259097527
 21
153.7439885959353
 31
0.0
 12
88.48830259097527
 22
154.1606552626019
 32
0.0
 13
88.48830259097527
 23
154.1606552626019
 33
0.0
  0
SOLID
  5
1AF8
330
1AF2
100
AcDbEntity
  8
文字
 62
     0
100
AcDbTrace
 10
97.98830259097527
 20
154.5773219292686
 30
0.0
 11
97.98830259097527
 21
153.7439885959353
 31
0.0
 12
100.4883025909753
 22
154.1606552626019
 32
0.0
 13
100.4883025909753
 23
154.1606552626019
 33
0.0
  0
MTEXT
  5
1AF9
330
1AF2
100
AcDbEntity
  8
文字
 62
     0
100
AcDbMText
 10
94.48830259097527
 20
156.0356552626019
 30
0.0
 40
2.5
 41
0.0
 46
0.0
 71
     5
 72
     1
  1
{\fArial|b0|i0|c0|p32;M}12
 73
     1
 44
1.0
  0
POINT
  5
1AFA
330
1AF2
100
AcDbEntity
  8
DEFPOINTS
 62
     0
100
AcDbPoint
 10
88.48830259097527
 20
141.5883181029333
 30
0.0
  0
POINT
  5
1AFB
330
1AF2
100
AcDbEntity
  8
DEFPOINTS
 62
     0
100
AcDbPoint
 10
100.4883025909753
 20
141.5883181029333
 30
0.0
  0
POINT
  5
1AFC
330
1AF2
100
AcDbEntity
  8
DEFPOINTS
 62
     0
100
AcDbPoint
 10
100.4883025909753
 20
154.1606552626019
 30
0.0
  0
ENDBLK
  5
1AFD
330
1AF2
100
AcDbEntity
  8
0
100
AcDbBlockEnd
  0
BLOCK
  5
1AFF
330
1AFE
100
AcDbEntity
  8
0
100
AcDbBlockBegin
  2
*D21
 70
     1
 10
0.0
 20
0.0
 30
0.0
  3
*D21
  1
*D21
  0
LINE
  5
1B00
330
1AFE
100
AcDbEntity
  8
文字
 62
     0
100
AcDbLine
 10
101.1133025909753
 20
144.2133181029333
 30
0.0
 11
139.3179534981718
 21
144.2133181029333
 31
0.0
  0
LINE
  5
1B01
330
1AFE
100
AcDbEntity
  8
文字
 62
     0
100
AcDbLine
 10
106.0633025909753
 20
94.21331810293327
 30
0.0
 11
139.3179534981718
 21
94.21331810293327
 31
0.0
  0
LINE
  5
1B02
330
1AFE
100
AcDbEntity
  8
文字
 62
     0
100
AcDbLine
 10
138.0679534981718
 20
141.7133181029333
 30
0.0
 11
138.0679534981718
 21
96.71331810293327
 31
0.0
  0
SOLID
  5
1B03
330
1AFE
100
AcDbEntity
  8
文字
 62
     0
100
AcDbTrace
 10
137.6512868315052
 20
141.7133181029333
 30
0.0
 11
138.4846201648385
 21
141.7133181029333
 31
0.0
 12
138.0679534981718
 22
144.2133181029333
 32
0.0
 13
138.0679534981718
 23
144.2133181029333
 33
0.0
  0
SOLID
  5
1B04
330
1AFE
100
AcDbEntity
  8
文字
 62
     0
100
AcDbTrace
 10
137.6512868315052
 20
96.71331810293327
 30
0.0
 11
138.4846201648385
 21
96.71331810293327
 31
0.0
 12
138.0679534981718
 22
94.21331810293327
 32
0.0
 13
138.0679534981718
 23
94.21331810293327
 33
0.0
  0
MTEXT
  5
1B05
330
1AFE
100
AcDbEntity
  8
文字
 62
     0
100
AcDbMText
 10
136.1929534981718
 20
119.2133181029333
 30
0.0
 40
2.5
 41
0.0
 46
0.0
 71
     5
 72
     1
  1
50
 11
6.123031769111886E-17
 21
1.0
 31
0.0
 73
     1
 44
1.0
  0
POINT
  5
1B06
330
1AFE
100
AcDbEntity
  8
DEFPOINTS
 62
     0
100
AcDbPoint
 10
100.4883025909753
 20
144.2133181029333
 30
0.0
  0
POINT
  5
1B07
330
1AFE
100
AcDbEntity
  8
DEFPOINTS
 62
     0
100
AcDbPoint
 10
105.4383025909753
 20
94.21331810293327
 30
0.0
  0
POINT
  5
1B08
330
1AFE
100
AcDbEntity
  8
DEFPOINTS
 62
     0
100
AcDbPoint
 10
138.0679534981718
 20
94.21331810293327
 30
0.0
  0
ENDBLK
  5
1B09
330
1AFE
100
AcDbEntity
  8
0
100
AcDbBlockEnd
  0
BLOCK
  5
1B43
330
1B0A
100
AcDbEntity
  8
0
 62
     1
100
AcDbBlockBegin
  2
A$C518B1B4A
 70
     0
 10
0.0
 20
0.0
 30
0.0
  3
A$C518B1B4A
  1
A$C518B1B4A
  0
DIMENSION
  5
1B0B
330
1B0A
100
AcDbEntity
  8
文字
100
AcDbDimension
280
     0
  2
*D21
 10
-73.03485347315655
 20
-19.60964845622647
 30
0.0
 11
-74.90985347315657
 21
5.390351543773548
 31
0.0
 12
-211.1028069713284
 22
-113.8229665591597
 32
0.0
 70
    32
 71
     5
 42
-1.0
 73
     0
 74
     0
 75
     0
  3
ISO-25
100
AcDbAlignedDimension
 13
-110.6145043803531
 23
30.39035154377353
 33
0.0
 14
-105.6645043803531
 24
-19.60964845622647
 34
0.0
 50
90.0
100
AcDbRotatedDimension
  0
LINE
  5
1B0E
330
1B0A
100
AcDbEntity
  8
実線
100
AcDbLine
 10
-112.6145043803531
 20
30.39035154377353
 30
0.0
 11
-112.6145043803531
 21
-19.60964845622647
 31
0.0
  0
LINE
  5
1B0F
330
1B0A
100
AcDbEntity
  8
実線
100
AcDbLine
 10
-120.6145043803531
 20
30.39035154377353
 30
0.0
 11
-120.6145043803531
 21
-19.60964845622647
 31
0.0
  0
LINE
  5
1B10
330
1B0A
100
AcDbEntity
  8
実線
100
AcDbLine
 10
-122.6145043803531
 20
28.39035154377353
 30
0.0
 11
-110.6145043803531
 21
28.39035154377353
 31
0.0
  0
LWPOLYLINE
  5
1B11
330
1B0A
100
AcDbEntity
  8
実線
100
AcDbPolyline
 90
        6
 70
     1
 43
0.0
 10
-122.6145043803531
 20
-19.60964845622647
 10
-110.6145043803531
 20
-19.60964845622647
 10
-110.6145043803531
 20
28.39035154377353
 10
-112.6145043803531
 20
30.39035154377353
 10
-120.6145043803531
 20
30.39035154377353
 10
-122.6145043803531
 20
28.39035154377353
  0
LINE
  5
1B12
330
1B0A
100
AcDbEntity
  8
中心線
100
AcDbLine
 10
0.0
 20
0.0
 30
0.0
 11
44.45988741376516
 21
0.0
 31
0.0
  0
LINE
  5
1B13
330
1B0A
100
AcDbEntity
  8
中心線
100
AcDbLine
 10
0.0
 20
0.0
 30
0.0
 11
-42.52630118444506
 21
0.0
 31
0.0
  0
DIMENSION
  5
1B14
330
1B0A
100
AcDbEntity
  8
文字
100
AcDbDimension
280
     0
  2
*D20
 10
-110.6145043803531
 20
40.33768870344221
 30
0.0
 11
-116.6145043803531
 21
42.21268870344221
 31
0.0
 12
-211.1028069713284
 22
-113.8229665591597
 32
0.0
 70
    32
  1
{\fArial|b0|i0|c0|p32;M}<>
 71
     5
 42
-1.0
 73
     0
 74
     0
 75
     0
  3
ISO-25
100
AcDbAlignedDimension
 13
-122.6145043803531
 23
27.76535154377353
 33
0.0
 14
-110.6145043803531
 24
27.76535154377353
 34
0.0
100
AcDbRotatedDimension
  0
DIMENSION
  5
1B15
330
1B0A
100
AcDbEntity
  8
文字
100
AcDbDimension
280
     0
  2
*D19
 10
9.482978171439612
 20
-42.66346825504087
 30
0.0
 11
0.0
 21
-40.78846825504087
 31
0.0
 12
-211.1028069713284
 22
-113.8229665591597
 32
0.0
 70
    32
  1
19
 71
     5
 42
-1.0
 73
     0
 74
     0
 75
     0
  3
ISO-25
100
AcDbAlignedDimension
 13
-9.482978171439584
 23
-5.474999999999994
 33
0.0
 14
9.482978171439612
 24
-5.474999999999994
 34
0.0
100
AcDbRotatedDimension
  0
LINE
  5
1B18
330
1B0A
100
AcDbEntity
  8
中心線
100
AcDbLine
 10
0.0
 20
0.0
 30
0.0
 11
0.0
 21
-36.41035681156728
 31
0.0
  0
LINE
  5
1B19
330
1B0A
100
AcDbEntity
  8
中心線
100
AcDbLine
 10
0.0
 20
0.0
 30
0.0
 11
0.0
 21
42.76732667452831
 31
0.0
  0
LINE
  5
1B1A
330
1B0A
100
AcDbEntity
  8
中心線
100
AcDbLine
 10
-116.6145043803531
 20
-54.09738755106875
 30
0.0
 11
-116.6145043803531
 21
35.04188265915826
 31
0.0
  0
DIMENSION
  5
1B1B
330
1B0A
100
AcDbEntity
  8
文字
100
AcDbDimension
280
     0
  2
*D18
 10
-162.996553497683
 20
-45.17349976332645
 30
0.0
 11
-164.871553497683
 21
-38.7151664299931
 31
0.0
 12
-211.1028069713284
 22
-113.8229665591597
 32
0.0
 70
    32
 71
     5
 42
-1.0
 73
     0
 74
     0
 75
     0
  3
ISO-25
100
AcDbAlignedDimension
 13
-146.6145043803531
 23
-47.17349976332645
 33
0.0
 14
-146.6145043803531
 24
-45.17349976332645
 34
0.0
 50
90.0
100
AcDbRotatedDimension
  0
DIMENSION
  5
1B1E
330
1B0A
100
AcDbEntity
  8
文字
100
AcDbDimension
280
     0
  2
*D17
 10
23.0
 20
-50.79595931796626
 30
0.0
 11
0.0
 21
-48.92095931796626
 31
0.0
 12
-211.1028069713284
 22
-113.8229665591597
 32
0.0
 70
    32
  1
%%c<>
 71
     5
 42
-1.0
 73
     0
 74
     0
 75
     0
  3
ISO-25
100
AcDbAlignedDimension
 13
-23.0
 23
0.0
 33
0.0
 14
23.0
 24
0.0
 34
0.0
100
AcDbRotatedDimension
  0
DIMENSION
  5
1B21
330
1B0A
100
AcDbEntity
  8
文字
100
AcDbDimension
280
     0
  2
*D16
 10
-73.03485347315655
 20
-19.60964845622647
 30
0.0
 11
-74.90985347315657
 21
-23.62741540919282
 31
0.0
 12
-211.1028069713284
 22
-113.8229665591597
 32
0.0
 70
    32
  1
8
 71
     5
 42
-1.0
 73
     0
 74
     0
 75
     0
  3
ISO-25
100
AcDbAlignedDimension
 13
-105.6645043803531
 23
-27.6451823621592
 33
0.0
 14
-105.6645043803531
 24
-19.60964845622647
 34
0.0
 50
90.0
100
AcDbRotatedDimension
  0
DIMENSION
  5
1B22
330
1B0A
100
AcDbEntity
  8
文字
100
AcDbDimension
280
     0
  2
*D15
 10
-73.00054025693657
 20
-47.79849976332646
 30
0.0
 11
-74.8755402569366
 21
-37.72184106274283
 31
0.0
 12
-211.1028069713284
 22
-113.8229665591597
 32
0.0
 70
    32
  1
19
 71
     5
 42
-1.0
 73
     0
 74
     0
 75
     0
  3
ISO-25
100
AcDbAlignedDimension
 13
-108.1645043803531
 23
-27.6451823621592
 33
0.0
 14
-86.6145043803531
 24
-47.79849976332646
 34
0.0
 50
90.0
100
AcDbRotatedDimension
  0
DIMENSION
  5
1B25
330
1B0A
100
AcDbEntity
  8
文字
100
AcDbDimension
280
     0
  2
*D14
 10
-86.6145043803531
 20
-66.55796042234971
 30
0.0
 11
-116.6145043803531
 21
-64.68296042234971
 31
0.0
 12
-211.1028069713284
 22
-113.8229665591597
 32
0.0
 70
    32
  1
%%c<>
 71
     5
 42
-1.0
 73
     0
 74
     0
 75
     0
  3
ISO-25
100
AcDbAlignedDimension
 13
-146.6145043803531
 23
-47.17349976332645
 33
0.0
 14
-86.6145043803531
 24
-47.17349976332646
 34
0.0
100
AcDbRotatedDimension
  0
ARC
  5
1B28
330
1B0A
100
AcDbEntity
  8
実線
100
AcDbCircle
 10
-116.6145043803531
 20
-6.885517455278304
 30
0.0
 40
20.60203494178584
100
AcDbArc
 50
253.2134882526869
 51
286.7865117473133
  0
LINE
  5
1B29
330
1B0A
100
AcDbEntity
  8
実線
100
AcDbLine
 10
-124.0810731213618
 20
-27.4875301457851
 30
0.0
 11
-109.2084944623676
 21
-27.4875301457851
 31
0.0
  0
CIRCLE
  5
1B2A
330
1B0A
100
AcDbEntity
  8
実線
100
AcDbCircle
 10
0.0
 20
0.0
 30
0.0
 40
5.15
  0
CIRCLE
  5
1B2B
330
1B0A
100
AcDbEntity
  8
実線
100
AcDbCircle
 10
0.0
 20
0.0
 30
0.0
 40
6.0
  0
LWPOLYLINE
  5
1B2C
330
1B0A
100
AcDbEntity
  8
実線
100
AcDbPolyline
 90
        6
 70
     1
 43
0.0
 10
-9.482978171439584
 20
-5.474999999999994
 10
0.0
 20
-10.94999999999999
 10
9.482978171439612
 20
-5.474999999999994
 10
9.48297817143964
 20
5.474999999999994
 10
0.0000000000000284
 20
10.94999999999999
 10
-9.482978171439584
 20
5.475000000000023
  0
LINE
  5
1B2D
330
1B0A
100
AcDbEntity
  8
実線
100
AcDbLine
 10
-127.5645043803531
 20
-25.60964845622647
 30
0.0
 11
-127.5645043803531
 21
-26.60964845622647
 31
0.0
  0
LINE
  5
1B2E
330
1B0A
100
AcDbEntity
  8
実線
100
AcDbLine
 10
-105.6645043803531
 20
-25.60964845622647
 30
0.0
 11
-105.6645043803531
 21
-26.60964845622647
 31
0.0
  0
LINE
  5
1B2F
330
1B0A
100
AcDbEntity
  8
実線
100
AcDbLine
 10
-105.6645043803531
 20
-26.60964845622647
 30
0.0
 11
-105.6645043803531
 21
-25.60964845622647
 31
0.0
  0
ARC
  5
1B30
330
1B0A
100
AcDbEntity
  8
実線
100
AcDbCircle
 10
-108.1645043803531
 20
-24.10964845622644
 30
0.0
 40
3.535533905932768
100
AcDbArc
 50
225.0
 51
315.0
  0
ARC
  5
1B31
330
1B0A
100
AcDbEntity
  8
実線
100
AcDbCircle
 10
-125.0645043803531
 20
-24.03971975646913
 30
0.0
 40
3.58532195511595
100
AcDbArc
 50
225.7902212344514
 51
314.2097787655485
  0
LINE
  5
1B32
330
1B0A
100
AcDbEntity
  8
実線
100
AcDbLine
 10
-122.5645043803531
 20
-19.60964845622647
 30
0.0
 11
-122.5645043803531
 21
-26.60964845622647
 31
0.0
  0
LINE
  5
1B33
330
1B0A
100
AcDbEntity
  8
実線
100
AcDbLine
 10
-110.6645043803531
 20
-19.60964845622647
 30
0.0
 11
-110.6645043803531
 21
-26.60964845622648
 31
0.0
  0
LWPOLYLINE
  5
1B34
330
1B0A
100
AcDbEntity
  8
実線
100
AcDbPolyline
 90
        4
 70
     0
 43
0.0
 10
-105.6645043803531
 20
-25.60964845622647
 10
-105.6645043803531
 20
-19.60964845622647
 10
-127.5645043803531
 20
-19.60964845622647
 10
-127.5645043803531
 20
-25.60964845622647
  0
CIRCLE
  5
1B35
330
1B0A
100
AcDbEntity
  8
実線
100
AcDbCircle
 10
0.0
 20
0.0
 30
0.0
 40
30.0
  0
CIRCLE
  5
1B36
330
1B0A
100
AcDbEntity
  8
実線
100
AcDbCircle
 10
0.0
 20
0.0
 30
0.0
 40
23.0
  0
LINE
  5
1B37
330
1B0A
100
AcDbEntity
  8
実線
100
AcDbLine
 10
-142.2741484844553
 20
-45.17349976332645
 30
0.0
 11
-90.9548602762509
 21
-45.17349976332646
 31
0.0
  0
LINE
  5
1B38
330
1B0A
100
AcDbEntity
  8
実線
100
AcDbLine
 10
-112.6145043803531
 20
-27.17349976332646
 30
0.0
 11
-112.6538633828662
 21
-27.17349976332646
 31
0.0
  0
LINE
  5
1B39
330
1B0A
100
AcDbEntity
  8
実線
100
AcDbLine
 10
-90.9548602762509
 20
-45.17349976332646
 30
0.0
 11
-86.6145043803531
 21
-45.17349976332646
 31
0.0
  0
ARC
  5
1B3A
330
1B0A
100
AcDbEntity
  8
実線
100
AcDbCircle
 10
-90.9548602762509
 20
-42.17349976332645
 30
0.0
 40
3.0
100
AcDbArc
 50
190.4756333660877
 51
270.0
  0
ARC
  5
1B3B
330
1B0A
100
AcDbEntity
  8
実線
100
AcDbCircle
 10
-112.5881713031187
 20
-46.17348151513463
 30
0.0
 40
19.0
100
AcDbArc
 50
10.47563336608763
 51
79.99041238858658
  0
ARC
  5
1B3C
330
1B0A
100
AcDbEntity
  8
実線
100
AcDbCircle
 10
-142.2741484844553
 20
-42.17349976332645
 30
0.0
 40
3.0
100
AcDbArc
 50
270.0
 51
349.5243666339124
  0
ARC
  5
1B3D
330
1B0A
100
AcDbEntity
  8
実線
100
AcDbCircle
 10
-120.6408374575875
 20
-46.17348151513463
 30
0.0
 40
19.0
100
AcDbArc
 50
100.4318012170099
 51
169.5243666339124
  0
LINE
  5
1B3E
330
1B0A
100
AcDbEntity
  8
実線
100
AcDbLine
 10
-120.5751453778401
 20
-27.17349976332645
 30
0.0
 11
-120.6145043803531
 21
-27.17349976332645
 31
0.0
  0
LINE
  5
1B3F
330
1B0A
100
AcDbEntity
  8
実線
100
AcDbLine
 10
-146.6145043803531
 20
-47.17349976332645
 30
0.0
 11
-146.6145043803531
 21
-45.17349976332645
 31
0.0
  0
LINE
  5
1B40
330
1B0A
100
AcDbEntity
  8
実線
100
AcDbLine
 10
-146.6145043803531
 20
-45.17349976332645
 30
0.0
 11
-142.2741484844553
 21
-45.17349976332645
 31
0.0
  0
LINE
  5
1B41
330
1B0A
100
AcDbEntity
  8
実線
100
AcDbLine
 10
-86.6145043803531
 20
-47.17349976332646
 30
0.0
 11
-86.6145043803531
 21
-45.17349976332646
 31
0.0
  0
LINE
  5
1B42
330
1B0A
100
AcDbEntity
  8
実線
100
AcDbLine
 10
-146.6145043803531
 20
-47.17349976332645
 30
0.0
 11
-86.6145043803531
 21
-47.17349976332646
 31
0.0
  0
ENDBLK
  5
1B44
330
1B0A
100
AcDbEntity
  8
0
 62
     1
100
AcDbBlockEnd
  0
BLOCK
  5
1B89
330
1B7F
100
AcDbEntity
  8
0
100
AcDbBlockBegin
  2
*D23
 70
     1
 10
0.0
 20
0.0
 30
0.0
  3
*D23
  1
*D23
  0
LINE
  5
1C5A
330
1B7F
100
AcDbEntity
  8
文字
 62
     0
100
AcDbLine
 10
50.20810817110232
 20
102.8092142822128
 30
0.0
 11
50.20810817110232
 21
116.5704027489815
 31
0.0
  0
LINE
  5
1C5B
330
1B7F
100
AcDbEntity
  8
文字
 62
     0
100
AcDbLine
 10
62.20810817110232
 20
102.8092142822128
 30
0.0
 11
62.20810817110232
 21
116.5704027489815
 31
0.0
  0
LINE
  5
1C5C
330
1B7F
100
AcDbEntity
  8
文字
 62
     0
100
AcDbLine
 10
52.70810817110232
 20
115.3204027489815
 30
0.0
 11
59.70810817110232
 21
115.3204027489815
 31
0.0
  0
SOLID
  5
1C5D
330
1B7F
100
AcDbEntity
  8
文字
 62
     0
100
AcDbTrace
 10
52.70810817110232
 20
115.7370694156482
 30
0.0
 11
52.70810817110232
 21
114.9037360823148
 31
0.0
 12
50.20810817110232
 22
115.3204027489815
 32
0.0
 13
50.20810817110232
 23
115.3204027489815
 33
0.0
  0
SOLID
  5
1C5E
330
1B7F
100
AcDbEntity
  8
文字
 62
     0
100
AcDbTrace
 10
59.70810817110232
 20
114.9037360823148
 30
0.0
 11
59.70810817110232
 21
115.7370694156482
 31
0.0
 12
62.20810817110232
 22
115.3204027489815
 32
0.0
 13
62.20810817110232
 23
115.3204027489815
 33
0.0
  0
MTEXT
  5
1C5F
330
1B7F
100
AcDbEntity
  8
文字
 62
     0
100
AcDbMText
 10
56.20810817110232
 20
117.4454027489815
 30
0.0
 40
3.0
 41
0.0
 46
0.0
 71
     5
 72
     1
  1
M12
 73
     1
 44
1.0
  0
POINT
  5
1C60
330
1B7F
100
AcDbEntity
  8
DEFPOINTS
 62
     0
100
AcDbPoint
 10
50.20810817110232
 20
102.1842142822128
 30
0.0
  0
POINT
  5
1C61
330
1B7F
100
AcDbEntity
  8
DEFPOINTS
 62
     0
100
AcDbPoint
 10
62.20810817110232
 20
102.1842142822128
 30
0.0
  0
POINT
  5
1C62
330
1B7F
100
AcDbEntity
  8
DEFPOINTS
 62
     0
100
AcDbPoint
 10
62.20810817110232
 20
115.3204027489815
 30
0.0
  0
ENDBLK
  5
1B8A
330
1B7F
100
AcDbEntity
  8
0
100
AcDbBlockEnd
  0
BLOCK
  5
1B95
330
1B8B
100
AcDbEntity
  8
0
100
AcDbBlockBegin
  2
*D24
 70
     1
 10
0.0
 20
0.0
 30
0.0
  3
*D24
  1
*D24
  0
LINE
  5
1C48
330
1B8B
100
AcDbEntity
  8
文字
 62
     0
100
AcDbLine
 10
67.41386327922032
 20
46.80921428221284
 30
0.0
 11
101.0377590782989
 21
46.80921428221284
 31
0.0
  0
LINE
  5
1C49
330
1B8B
100
AcDbEntity
  8
文字
 62
     0
100
AcDbLine
 10
67.75282875958942
 20
54.80921428221284
 30
0.0
 11
101.0377590782989
 21
54.80921428221284
 31
0.0
  0
LINE
  5
1C4A
330
1B8B
100
AcDbEntity
  8
文字
 62
     0
100
AcDbLine
 10
99.7877590782989
 20
49.30921428221284
 30
0.0
 11
99.7877590782989
 21
52.30921428221284
 31
0.0
  0
SOLID
  5
1C4B
330
1B8B
100
AcDbEntity
  8
文字
 62
     0
100
AcDbTrace
 10
99.37109241163223
 20
49.30921428221284
 30
0.0
 11
100.2044257449656
 21
49.30921428221284
 31
0.0
 12
99.7877590782989
 22
46.80921428221284
 32
0.0
 13
99.7877590782989
 23
46.80921428221284
 33
0.0
  0
SOLID
  5
1C4C
330
1B8B
100
AcDbEntity
  8
文字
 62
     0
100
AcDbTrace
 10
100.2044257449656
 20
52.30921428221284
 30
0.0
 11
99.37109241163223
 21
52.30921428221284
 31
0.0
 12
99.7877590782989
 22
54.80921428221284
 32
0.0
 13
99.7877590782989
 23
54.80921428221284
 33
0.0
  0
MTEXT
  5
1C4D
330
1B8B
100
AcDbEntity
  8
文字
 62
     0
100
AcDbMText
 10
97.6627590782989
 20
50.80921428221284
 30
0.0
 40
3.0
 41
0.0
 46
0.0
 71
     5
 72
     1
  1
8
 11
0.0
 21
1.0
 31
0.0
 73
     1
 44
1.0
  0
POINT
  5
1C4E
330
1B8B
100
AcDbEntity
  8
DEFPOINTS
 62
     0
100
AcDbPoint
 10
66.78886327922032
 20
46.80921428221284
 30
0.0
  0
POINT
  5
1C4F
330
1B8B
100
AcDbEntity
  8
DEFPOINTS
 62
     0
100
AcDbPoint
 10
67.12782875958942
 20
54.80921428221284
 30
0.0
  0
POINT
  5
1C50
330
1B8B
100
AcDbEntity
  8
DEFPOINTS
 62
     0
100
AcDbPoint
 10
99.7877590782989
 20
54.80921428221284
 30
0.0
  0
ENDBLK
  5
1B96
330
1B8B
100
AcDbEntity
  8
0
100
AcDbBlockEnd
  0
BLOCK
  5
1BA1
330
1B97
100
AcDbEntity
  8
0
100
AcDbBlockBegin
  2
*D25
 70
     1
 10
0.0
 20
0.0
 30
0.0
  3
*D25
  1
*D25
  0
LINE
  5
1C63
330
1B97
100
AcDbEntity
  8
文字
 62
     0
100
AcDbLine
 10
62.83310817110232
 20
104.8092142822128
 30
0.0
 11
101.0377590782989
 21
104.8092142822128
 31
0.0
  0
LINE
  5
1C64
330
1B97
100
AcDbEntity
  8
文字
 62
     0
100
AcDbLine
 10
67.75282875958939
 20
54.80921428221284
 30
0.0
 11
101.0377590782989
 21
54.80921428221284
 31
0.0
  0
LINE
  5
1C65
330
1B97
100
AcDbEntity
  8
文字
 62
     0
100
AcDbLine
 10
99.7877590782989
 20
102.3092142822128
 30
0.0
 11
99.7877590782989
 21
57.30921428221284
 31
0.0
  0
SOLID
  5
1C66
330
1B97
100
AcDbEntity
  8
文字
 62
     0
100
AcDbTrace
 10
100.2044257449656
 20
102.3092142822128
 30
0.0
 11
99.37109241163223
 21
102.3092142822128
 31
0.0
 12
99.7877590782989
 22
104.8092142822128
 32
0.0
 13
99.7877590782989
 23
104.8092142822128
 33
0.0
  0
SOLID
  5
1C67
330
1B97
100
AcDbEntity
  8
文字
 62
     0
100
AcDbTrace
 10
99.37109241163223
 20
57.30921428221284
 30
0.0
 11
100.2044257449656
 21
57.30921428221284
 31
0.0
 12
99.7877590782989
 22
54.80921428221284
 32
0.0
 13
99.7877590782989
 23
54.80921428221284
 33
0.0
  0
MTEXT
  5
1C68
330
1B97
100
AcDbEntity
  8
文字
 62
     0
100
AcDbMText
 10
97.6627590782989
 20
79.80921428221282
 30
0.0
 40
3.0
 41
0.0
 46
0.0
 71
     5
 72
     1
  1
50
 11
0.0
 21
1.0
 31
0.0
 73
     1
 44
1.0
  0
POINT
  5
1C69
330
1B97
100
AcDbEntity
  8
DEFPOINTS
 62
     0
100
AcDbPoint
 10
62.20810817110232
 20
104.8092142822128
 30
0.0
  0
POINT
  5
1C6A
330
1B97
100
AcDbEntity
  8
DEFPOINTS
 62
     0
100
AcDbPoint
 10
67.12782875958939
 20
54.80921428221284
 30
0.0
  0
POINT
  5
1C6B
330
1B97
100
AcDbEntity
  8
DEFPOINTS
 62
     0
100
AcDbPoint
 10
99.7877590782989
 20
54.80921428221284
 30
0.0
  0
ENDBLK
  5
1BA2
330
1B97
100
AcDbEntity
  8
0
100
AcDbBlockEnd
  0
BLOCK
  5
1BB6
330
1BAC
100
AcDbEntity
  8
0
100
AcDbBlockBegin
  2
*D26
 70
     1
 10
0.0
 20
0.0
 30
0.0
  3
*D26
  1
*D26
  0
LINE
  5
1BAD
330
1BAC
100
AcDbEntity
  8
文字
 62
     0
100
AcDbLine
 10
163.3396343800159
 20
68.8827140455393
 30
0.0
 11
163.3396343800159
 21
31.06924579049843
 31
0.0
  0
LINE
  5
1BAE
330
1BAC
100
AcDbEntity
  8
文字
 62
     0
100
AcDbLine
 10
182.3055907228951
 20
68.8827140455393
 30
0.0
 11
182.3055907228951
 21
31.06924579049843
 31
0.0
  0
LINE
  5
1BAF
330
1BAC
100
AcDbEntity
  8
文字
 62
     0
100
AcDbLine
 10
165.8396343800159
 20
32.31924579049843
 30
0.0
 11
179.8055907228951
 21
32.31924579049843
 31
0.0
  0
SOLID
  5
1BB0
330
1BAC
100
AcDbEntity
  8
文字
 62
     0
100
AcDbTrace
 10
165.8396343800159
 20
32.73591245716509
 30
0.0
 11
165.8396343800159
 21
31.90257912383176
 31
0.0
 12
163.3396343800159
 22
32.31924579049843
 32
0.0
 13
163.3396343800159
 23
32.31924579049843
 33
0.0
  0
SOLID
  5
1BB1
330
1BAC
100
AcDbEntity
  8
文字
 62
     0
100
AcDbTrace
 10
179.8055907228951
 20
31.90257912383176
 30
0.0
 11
179.8055907228951
 21
32.73591245716509
 31
0.0
 12
182.3055907228951
 22
32.31924579049843
 32
0.0
 13
182.3055907228951
 23
32.31924579049843
 33
0.0
  0
MTEXT
  5
1BB2
330
1BAC
100
AcDbEntity
  8
文字
 62
     0
100
AcDbMText
 10
172.8226125514555
 20
34.44424579049843
 30
0.0
 40
3.0
 41
0.0
 46
0.0
 71
     5
 72
     1
  1
19
 73
     1
 44
1.0
  0
POINT
  5
1BB3
330
1BAC
100
AcDbEntity
  8
DEFPOINTS
 62
     0
100
AcDbPoint
 10
163.3396343800159
 20
69.5077140455393
 30
0.0
  0
POINT
  5
1BB4
330
1BAC
100
AcDbEntity
  8
DEFPOINTS
 62
     0
100
AcDbPoint
 10
182.3055907228951
 20
69.5077140455393
 30
0.0
  0
POINT
  5
1BB5
330
1BAC
100
AcDbEntity
  8
DEFPOINTS
 62
     0
100
AcDbPoint
 10
182.3055907228951
 20
32.31924579049843
 30
0.0
  0
ENDBLK
  5
1BB7
330
1BAC
100
AcDbEntity
  8
0
100
AcDbBlockEnd
  0
BLOCK
  5
1BE5
330
1BDB
100
AcDbEntity
  8
0
100
AcDbBlockBegin
  2
*D27
 70
     1
 10
0.0
 20
0.0
 30
0.0
  3
*D27
  1
*D29
  0
LINE
  5
1D2A
330
1BDB
100
AcDbEntity
  8
文字
 62
     0
100
AcDbLine
 10
67.42011370499269
 20
46.80921428221284
 30
0.0
 11
101.0720722945189
 21
46.80921428221284
 31
0.0
  0
LINE
  5
1D2B
330
1BDB
100
AcDbEntity
  8
文字
 62
     0
100
AcDbLine
 10
88.33310817110235
 20
25.80921428221284
 30
0.0
 11
101.0720722945189
 21
25.80921428221284
 31
0.0
  0
LINE
  5
1D2C
330
1BDB
100
AcDbEntity
  8
文字
 62
     0
100
AcDbLine
 10
99.82207229451888
 20
44.30921428221284
 30
0.0
 11
99.82207229451888
 21
28.30921428221284
 31
0.0
  0
SOLID
  5
1D2D
330
1BDB
100
AcDbEntity
  8
文字
 62
     0
100
AcDbTrace
 10
100.2387389611855
 20
44.30921428221284
 30
0.0
 11
99.4054056278522
 21
44.30921428221284
 31
0.0
 12
99.82207229451888
 22
46.80921428221284
 32
0.0
 13
99.82207229451888
 23
46.80921428221284
 33
0.0
  0
SOLID
  5
1D2E
330
1BDB
100
AcDbEntity
  8
文字
 62
     0
100
AcDbTrace
 10
99.4054056278522
 20
28.30921428221284
 30
0.0
 11
100.2387389611855
 21
28.30921428221284
 31
0.0
 12
99.82207229451888
 22
25.80921428221284
 32
0.0
 13
99.82207229451888
 23
25.80921428221284
 33
0.0
  0
MTEXT
  5
1D2F
330
1BDB
100
AcDbEntity
  8
文字
 62
     0
100
AcDbMText
 10
97.69707229451888
 20
36.30921428221284
 30
0.0
 40
3.0
 41
0.0
 46
0.0
 71
     5
 72
     1
  1
21
 11
0.0
 21
1.0
 31
0.0
 73
     1
 44
1.0
  0
POINT
  5
1D30
330
1BDB
100
AcDbEntity
  8
DEFPOINTS
 62
     0
100
AcDbPoint
 10
66.79511370499269
 20
46.80921428221284
 30
0.0
  0
POINT
  5
1D31
330
1BDB
100
AcDbEntity
  8
DEFPOINTS
 62
     0
100
AcDbPoint
 10
87.70810817110235
 20
25.80921428221284
 30
0.0
  0
POINT
  5
1D32
330
1BDB
100
AcDbEntity
  8
DEFPOINTS
 62
     0
100
AcDbPoint
 10
99.82207229451888
 20
25.80921428221284
 30
0.0
  0
ENDBLK
  5
1BE6
330
1BDB
100
AcDbEntity
  8
0
100
AcDbBlockEnd
  0
BLOCK
  5
1E21
330
1E20
100
AcDbEntity
  8
0
100
AcDbBlockBegin
  2
*D28
 70
     1
 10
0.0
 20
0.0
 30
0.0
  3
*D28
  1
*D33
  0
LINE
  5
1E23
330
1E20
100
AcDbEntity
  8
文字・寸法線
 62
     0
370
    -2
100
AcDbLine
 10
149.8226125514554
 20
73.9827140455393
 30
0.0
 11
149.8226125514554
 21
10.35593645874556
 31
0.0
  0
LINE
  5
1E24
330
1E20
100
AcDbEntity
  8
文字・寸法線
 62
     0
370
    -2
100
AcDbLine
 10
195.8226125514554
 20
73.9827140455393
 30
0.0
 11
195.8226125514554
 21
10.35593645874556
 31
0.0
  0
LINE
  5
1E25
330
1E20
100
AcDbEntity
  8
文字・寸法線
 62
     0
370
    -2
100
AcDbLine
 10
151.8226125514554
 20
11.35593645874556
 30
0.0
 11
193.8226125514554
 21
11.35593645874556
 31
0.0
  0
SOLID
  5
1E26
330
1E20
100
AcDbEntity
  8
文字・寸法線
 62
     0
100
AcDbTrace
 10
151.8226125514554
 20
11.68926979207889
 30
0.0
 11
151.8226125514554
 21
11.02260312541223
 31
0.0
 12
149.8226125514554
 22
11.35593645874556
 32
0.0
 13
149.8226125514554
 23
11.35593645874556
 33
0.0
  0
SOLID
  5
1E27
330
1E20
100
AcDbEntity
  8
文字・寸法線
 62
     0
100
AcDbTrace
 10
193.8226125514554
 20
11.02260312541223
 30
0.0
 11
193.8226125514554
 21
11.68926979207889
 31
0.0
 12
195.8226125514554
 22
11.35593645874556
 32
0.0
 13
195.8226125514554
 23
11.35593645874556
 33
0.0
  0
MTEXT
  5
1E28
330
1E20
100
AcDbEntity
  8
文字・寸法線
 62
     0
100
AcDbMText
 10
172.8226125514554
 20
12.94593645874556
 30
0.0
 40
3.0
 41
0.0
 46
0.0
 71
     5
 72
     1
  1
\A1;%%c46.0
 73
     1
 44
1.0
  0
POINT
  5
1E29
330
1E20
100
AcDbEntity
  8
DEFPOINTS
 62
     0
100
AcDbPoint
 10
149.8226125514554
 20
74.9827140455393
 30
0.0
  0
POINT
  5
1E2A
330
1E20
100
AcDbEntity
  8
DEFPOINTS
 62
     0
100
AcDbPoint
 10
195.8226125514554
 20
74.9827140455393
 30
0.0
  0
POINT
  5
1E2B
330
1E20
100
AcDbEntity
  8
DEFPOINTS
 62
     0
100
AcDbPoint
 10
195.8226125514554
 20
11.35593645874556
 30
0.0
  0
ENDBLK
  5
1E22
330
1E20
100
AcDbEntity
  8
0
100
AcDbBlockEnd
  0
BLOCK
  5
1F47
330
1F46
100
AcDbEntity
  8
0
100
AcDbBlockBegin
  2
*D29
 70
     1
 10
0.0
 20
0.0
 30
0.0
  3
*D29
  1
*D36
  0
LINE
  5
1F49
330
1F46
100
AcDbEntity
  8
文字・寸法線
 62
     0
370
    -2
100
AcDbLine
 10
22.37185738046876
 20
32.82444866562494
 30
0.0
 11
8.53934320047486
 21
32.82444866562494
 31
0.0
  0
LINE
  5
1F4A
330
1F46
100
AcDbEntity
  8
文字・寸法線
 62
     0
370
    -2
100
AcDbLine
 10
22.37185738046876
 20
25.66490635978011
 30
0.0
 11
8.53934320047486
 21
25.66490635978011
 31
0.0
  0
LINE
  5
1F4B
330
1F46
100
AcDbEntity
  8
文字・寸法線
 62
     0
370
    -2
100
AcDbLine
 10
8.71934320047486
 20
23.66490635978011
 30
0.0
 11
2.62934320047486
 21
23.66490635978011
 31
0.0
  0
LINE
  5
1F4C
330
1F46
100
AcDbEntity
  8
文字・寸法線
 62
     0
370
    -2
100
AcDbLine
 10
8.71934320047486
 20
30.82444866562494
 30
0.0
 11
8.71934320047486
 21
27.66490635978011
 31
0.0
  0
LINE
  5
1F4D
330
1F46
100
AcDbEntity
  8
文字・寸法線
 62
     0
370
    -2
100
AcDbLine
 10
8.71934320047486
 20
25.66490635978011
 30
0.0
 11
8.71934320047486
 21
23.66490635978011
 31
0.0
  0
SOLID
  5
1F4E
330
1F46
100
AcDbEntity
  8
文字・寸法線
 62
     0
100
AcDbTrace
 10
9.052676533808194
 20
30.82444866562494
 30
0.0
 11
8.386009867141526
 21
30.82444866562494
 31
0.0
 12
8.71934320047486
 22
32.82444866562494
 32
0.0
 13
8.71934320047486
 23
32.82444866562494
 33
0.0
  0
SOLID
  5
1F4F
330
1F46
100
AcDbEntity
  8
文字・寸法線
 62
     0
100
AcDbTrace
 10
8.386009867141526
 20
27.66490635978011
 30
0.0
 11
9.052676533808194
 21
27.66490635978011
 31
0.0
 12
8.71934320047486
 22
25.66490635978011
 32
0.0
 13
8.71934320047486
 23
25.66490635978011
 33
0.0
  0
MTEXT
  5
1F50
330
1F46
100
AcDbEntity
  8
文字・寸法線
 62
     0
100
AcDbMText
 10
5.62934320047486
 20
25.25490635978011
 30
0.0
 40
3.0
 41
0.0
 46
0.0
 71
     5
 72
     1
  1
\A1;7.2
 73
     1
 44
1.0
  0
POINT
  5
1F51
330
1F46
100
AcDbEntity
  8
DEFPOINTS
 62
     0
100
AcDbPoint
 10
22.43435738046876
 20
32.82444866562494
 30
0.0
  0
POINT
  5
1FBD
330
1F46
100
AcDbEntity
  8
DEFPOINTS
 62
     0
100
AcDbPoint
 10
22.43435738046876
 20
25.66490635978011
 30
0.0
  0
POINT
  5
1FBE
330
1F46
100
AcDbEntity
  8
DEFPOINTS
 62
     0
100
AcDbPoint
 10
8.71934320047486
 20
25.66490635978011
 30
0.0
  0
ENDBLK
  5
1F48
330
1F46
100
AcDbEntity
  8
0
100
AcDbBlockEnd
  0
BLOCK
  5
1F8F
330
1F8E
100
AcDbEntity
  8
0
100
AcDbBlockBegin
  2
*D30
 70
     1
 10
0.0
 20
0.0
 30
0.0
  3
*D30
  1
*D39
  0
LINE
  5
1F91
330
1F8E
100
AcDbEntity
  8
文字・寸法線
 62
     0
370
    -2
100
AcDbLine
 10
22.48364357562509
 20
26.78688299833209
 30
0.0
 11
22.48364357562509
 21
10.76342765136519
 31
0.0
  0
LINE
  5
1F92
330
1F8E
100
AcDbEntity
  8
文字・寸法線
 62
     0
370
    -2
100
AcDbLine
 10
90.03114515689225
 20
26.78688299833209
 30
0.0
 11
90.03114515689225
 21
10.76342765136519
 31
0.0
  0
LINE
  5
1F93
330
1F8E
100
AcDbEntity
  8
文字・寸法線
 62
     0
370
    -2
100
AcDbLine
 10
24.48364357562509
 20
11.76342765136519
 30
0.0
 11
88.03114515689225
 21
11.76342765136519
 31
0.0
  0
SOLID
  5
1F94
330
1F8E
100
AcDbEntity
  8
文字・寸法線
 62
     0
100
AcDbTrace
 10
24.48364357562509
 20
12.09676098469852
 30
0.0
 11
24.48364357562509
 21
11.43009431803186
 31
0.0
 12
22.48364357562509
 22
11.76342765136519
 32
0.0
 13
22.48364357562509
 23
11.76342765136519
 33
0.0
  0
SOLID
  5
1F95
330
1F8E
100
AcDbEntity
  8
文字・寸法線
 62
     0
100
AcDbTrace
 10
88.03114515689225
 20
11.43009431803186
 30
0.0
 11
88.03114515689225
 21
12.09676098469852
 31
0.0
 12
90.03114515689225
 22
11.76342765136519
 32
0.0
 13
90.03114515689225
 23
11.76342765136519
 33
0.0
  0
MTEXT
  5
1F96
330
1F8E
100
AcDbEntity
  8
文字・寸法線
 62
     0
100
AcDbMText
 10
56.25739436625867
 20
13.35342765136519
 30
0.0
 40
3.0
 41
0.0
 46
0.0
 71
     5
 72
     1
  1
\A1;%%c67.5
 73
     1
 44
1.0
  0
POINT
  5
1F97
330
1F8E
100
AcDbEntity
  8
DEFPOINTS
 62
     0
100
AcDbPoint
 10
22.48364357562509
 20
27.78688299833209
 30
0.0
  0
POINT
  5
1F98
330
1F8E
100
AcDbEntity
  8
DEFPOINTS
 62
     0
100
AcDbPoint
 10
90.03114515689225
 20
27.78688299833209
 30
0.0
  0
POINT
  5
1F99
330
1F8E
100
AcDbEntity
  8
DEFPOINTS
 62
     0
100
AcDbPoint
 10
90.03114515689225
 20
11.76342765136519
 30
0.0
  0
ENDBLK
  5
1F90
330
1F8E
100
AcDbEntity
  8
0
100
AcDbBlockEnd
  0
BLOCK
  5
20A6
330
20A5
100
AcDbEntity
  8
0
100
AcDbBlockBegin
  2
*D31
 70
     1
 10
0.0
 20
0.0
 30
0.0
  3
*D31
  1
*D25
  0
LINE
  5
20A7
330
20A5
100
AcDbEntity
  8
文字
 62
     0
370
    -2
100
AcDbLine
 10
12.625
 20
133.9238877877422
 30
0.0
 11
50.82965090719659
 21
133.9238877877422
 31
0.0
  0
LINE
  5
20A8
330
20A5
100
AcDbEntity
  8
文字
 62
     0
370
    -2
100
AcDbLine
 10
17.54472058848707
 20
33.92388778774229
 30
0.0
 11
50.82965090719659
 21
33.92388778774229
 31
0.0
  0
LINE
  5
20A9
330
20A5
100
AcDbEntity
  8
文字
 62
     0
370
    -2
100
AcDbLine
 10
49.57965090719659
 20
131.4238877877422
 30
0.0
 11
49.57965090719659
 21
36.42388778774229
 31
0.0
  0
SOLID
  5
20AA
330
20A5
100
AcDbEntity
  8
文字
 62
     0
100
AcDbTrace
 10
49.99631757386326
 20
131.4238877877422
 30
0.0
 11
49.16298424052993
 21
131.4238877877422
 31
0.0
 12
49.57965090719659
 22
133.9238877877422
 32
0.0
 13
49.57965090719659
 23
133.9238877877422
 33
0.0
  0
SOLID
  5
20AB
330
20A5
100
AcDbEntity
  8
文字
 62
     0
100
AcDbTrace
 10
49.16298424052992
 20
36.42388778774229
 30
0.0
 11
49.99631757386325
 21
36.42388778774229
 31
0.0
 12
49.57965090719659
 22
33.92388778774229
 32
0.0
 13
49.57965090719659
 23
33.92388778774229
 33
0.0
  0
MTEXT
  5
20AC
330
20A5
100
AcDbEntity
  8
文字
 62
     0
100
AcDbMText
 10
53.95465090719659
 20
33.92388778774229
 30
0.0
 40
2.5
 41
0.0
 46
0.0
 71
     5
 72
     1
  1
100
 73
     1
 44
1.0
  0
POINT
  5
20AD
330
20A5
100
AcDbEntity
  8
DEFPOINTS
 62
     0
100
AcDbPoint
 10
12.0
 20
133.9238877877422
 30
0.0
  0
POINT
  5
20AE
330
20A5
100
AcDbEntity
  8
DEFPOINTS
 62
     0
100
AcDbPoint
 10
16.91972058848707
 20
33.92388778774229
 30
0.0
  0
POINT
  5
20AF
330
20A5
100
AcDbEntity
  8
DEFPOINTS
 62
     0
100
AcDbPoint
 10
49.57965090719659
 20
33.92388778774229
 30
0.0
  0
ENDBLK
  5
20B0
330
20A5
100
AcDbEntity
  8
0
100
AcDbBlockEnd
  0
BLOCK
  5
20B6
330
20B5
100
AcDbEntity
  8
0
100
AcDbBlockBegin
  2
*D32
 70
     1
 10
0.0
 20
0.0
 30
0.0
  3
*D32
  1
*D23
  0
LINE
  5
20B7
330
20B5
100
AcDbEntity
  8
文字
 62
     0
370
    -2
100
AcDbLine
 10
0.0
 20
131.9238877877422
 30
0.0
 11
0.0
 21
145.685076254511
 31
0.0
  0
LINE
  5
20B8
330
20B5
100
AcDbEntity
  8
文字
 62
     0
370
    -2
100
AcDbLine
 10
12.0
 20
131.9238877877422
 30
0.0
 11
12.0
 21
145.685076254511
 31
0.0
  0
LINE
  5
20B9
330
20B5
100
AcDbEntity
  8
文字
 62
     0
370
    -2
100
AcDbLine
 10
2.5
 20
144.435076254511
 30
0.0
 11
9.5
 21
144.435076254511
 31
0.0
  0
SOLID
  5
20BA
330
20B5
100
AcDbEntity
  8
文字
 62
     0
100
AcDbTrace
 10
2.5
 20
144.8517429211776
 30
0.0
 11
2.5
 21
144.0184095878443
 31
0.0
 12
0.0
 22
144.435076254511
 32
0.0
 13
0.0
 23
144.435076254511
 33
0.0
  0
SOLID
  5
20BB
330
20B5
100
AcDbEntity
  8
文字
 62
     0
100
AcDbTrace
 10
9.5
 20
144.0184095878443
 30
0.0
 11
9.5
 21
144.8517429211776
 31
0.0
 12
12.0
 22
144.435076254511
 32
0.0
 13
12.0
 23
144.435076254511
 33
0.0
  0
MTEXT
  5
20BC
330
20B5
100
AcDbEntity
  8
文字
 62
     0
100
AcDbMText
 10
12.0
 20
149.2267429211776
 30
0.0
 40
2.5
 41
0.0
 46
0.0
 71
     5
 72
     1
  1
M12
 11
0.0
 21
1.0
 31
0.0
 73
     1
 44
1.0
  0
POINT
  5
20BD
330
20B5
100
AcDbEntity
  8
DEFPOINTS
 62
     0
100
AcDbPoint
 10
0.0
 20
131.2988877877422
 30
0.0
  0
POINT
  5
20BE
330
20B5
100
AcDbEntity
  8
DEFPOINTS
 62
     0
100
AcDbPoint
 10
12.0
 20
131.2988877877422
 30
0.0
  0
POINT
  5
20BF
330
20B5
100
AcDbEntity
  8
DEFPOINTS
 62
     0
100
AcDbPoint
 10
12.0
 20
144.435076254511
 30
0.0
  0
ENDBLK
  5
20C0
330
20B5
100
AcDbEntity
  8
0
100
AcDbBlockEnd
  0
BLOCK
  5
20CB
330
20CA
100
AcDbEntity
  8
0
100
AcDbBlockBegin
  2
*D33
 70
     1
 10
0.0
 20
0.0
 30
0.0
  3
*D33
  1
*D31
  0
LINE
  5
20CC
330
20CA
100
AcDbEntity
  8
文字
 62
     0
370
    -2
100
AcDbLine
 10
38.12500000000004
 20
4.923887787742289
 30
0.0
 11
57.03803200400998
 21
4.923887787742303
 31
0.0
  0
LINE
  5
20CD
330
20CA
100
AcDbEntity
  8
文字
 62
     0
370
    -2
100
AcDbLine
 10
10.62500000000004
 20
133.9238877877422
 30
0.0
 11
57.03803200400998
 21
133.9238877877422
 31
0.0
  0
LINE
  5
20CE
330
20CA
100
AcDbEntity
  8
文字
 62
     0
370
    -2
100
AcDbLine
 10
55.78803200400998
 20
7.423887787742302
 30
0.0
 11
55.78803200400998
 21
131.4238877877422
 31
0.0
  0
SOLID
  5
20CF
330
20CA
100
AcDbEntity
  8
文字
 62
     0
100
AcDbTrace
 10
55.37136533734331
 20
7.423887787742302
 30
0.0
 11
56.20469867067664
 21
7.423887787742302
 31
0.0
 12
55.78803200400998
 22
4.923887787742302
 32
0.0
 13
55.78803200400998
 23
4.923887787742302
 33
0.0
  0
SOLID
  5
20D0
330
20CA
100
AcDbEntity
  8
文字
 62
     0
100
AcDbTrace
 10
56.20469867067665
 20
131.4238877877422
 30
0.0
 11
55.37136533734332
 21
131.4238877877422
 31
0.0
 12
55.78803200400998
 22
133.9238877877422
 32
0.0
 13
55.78803200400998
 23
133.9238877877422
 33
0.0
  0
MTEXT
  5
20D1
330
20CA
100
AcDbEntity
  8
文字
 62
     0
100
AcDbMText
 10
60.57969867067665
 20
133.9238877877422
 30
0.0
 40
2.5
 41
0.0
 46
0.0
 71
     5
 72
     1
  1
129
 73
     1
 44
1.0
  0
POINT
  5
20D2
330
20CA
100
AcDbEntity
  8
DEFPOINTS
 62
     0
100
AcDbPoint
 10
37.50000000000004
 20
4.923887787742288
 30
0.0
  0
POINT
  5
20D3
330
20CA
100
AcDbEntity
  8
DEFPOINTS
 62
     0
100
AcDbPoint
 10
10.00000000000004
 20
133.9238877877422
 30
0.0
  0
POINT
  5
20D4
330
20CA
100
AcDbEntity
  8
DEFPOINTS
 62
     0
100
AcDbPoint
 10
55.78803200400998
 20
133.9238877877422
 30
0.0
  0
ENDBLK
  5
20D5
330
20CA
100
AcDbEntity
  8
0
100
AcDbBlockEnd
  0
BLOCK
  5
20EA
330
20E9
100
AcDbEntity
  8
0
100
AcDbBlockBegin
  2
*D34
 70
     1
 10
0.0
 20
0.0
 30
0.0
  3
*D34
  1
*D35
  0
LINE
  5
20EC
330
20E9
100
AcDbEntity
  8
文字
 62
     0
370
    -2
100
AcDbLine
 10
62.76776957135954
 20
154.6939576603152
 30
0.0
 11
100.9724204785561
 21
154.6939576603152
 31
0.0
  0
LINE
  5
20ED
330
20E9
100
AcDbEntity
  8
文字
 62
     0
370
    -2
100
AcDbLine
 10
67.68749015984662
 20
54.69395766031521
 30
0.0
 11
100.9724204785561
 21
54.69395766031521
 31
0.0
  0
LINE
  5
20EE
330
20E9
100
AcDbEntity
  8
文字
 62
     0
370
    -2
100
AcDbLine
 10
99.72242047855613
 20
152.1939576603152
 30
0.0
 11
99.72242047855613
 21
57.19395766031521
 31
0.0
  0
SOLID
  5
20EF
330
20E9
100
AcDbEntity
  8
文字
 62
     0
100
AcDbTrace
 10
100.1390871452228
 20
152.1939576603152
 30
0.0
 11
99.30575381188946
 21
152.1939576603152
 31
0.0
 12
99.72242047855613
 22
154.6939576603152
 32
0.0
 13
99.72242047855613
 23
154.6939576603152
 33
0.0
  0
SOLID
  5
20F0
330
20E9
100
AcDbEntity
  8
文字
 62
     0
100
AcDbTrace
 10
99.30575381188946
 20
57.19395766031521
 30
0.0
 11
100.1390871452228
 21
57.19395766031521
 31
0.0
 12
99.72242047855613
 22
54.69395766031521
 32
0.0
 13
99.72242047855613
 23
54.69395766031521
 33
0.0
  0
MTEXT
  5
20F1
330
20E9
100
AcDbEntity
  8
文字
 62
     0
100
AcDbMText
 10
104.0974204785561
 20
54.69395766031521
 30
0.0
 40
2.5
 41
0.0
 46
0.0
 71
     5
 72
     1
  1
100
 73
     1
 44
1.0
  0
POINT
  5
20F2
330
20E9
100
AcDbEntity
  8
DEFPOINTS
 62
     0
100
AcDbPoint
 10
62.14276957135954
 20
154.6939576603152
 30
0.0
  0
POINT
  5
20F3
330
20E9
100
AcDbEntity
  8
DEFPOINTS
 62
     0
100
AcDbPoint
 10
67.06249015984662
 20
54.69395766031521
 30
0.0
  0
POINT
  5
20F4
330
20E9
100
AcDbEntity
  8
DEFPOINTS
 62
     0
100
AcDbPoint
 10
99.72242047855613
 20
54.69395766031521
 30
0.0
  0
ENDBLK
  5
20EB
330
20E9
100
AcDbEntity
  8
0
100
AcDbBlockEnd
  0
BLOCK
  5
20F6
330
20F5
100
AcDbEntity
  8
0
100
AcDbBlockBegin
  2
*D35
 70
     1
 10
0.0
 20
0.0
 30
0.0
  3
*D35
  1
*D36
  0
LINE
  5
20F8
330
20F5
100
AcDbEntity
  8
文字
 62
     0
370
    -2
100
AcDbLine
 10
50.14276957135954
 20
152.6939576603152
 30
0.0
 11
50.14276957135954
 21
166.4551461270839
 31
0.0
  0
LINE
  5
20F9
330
20F5
100
AcDbEntity
  8
文字
 62
     0
370
    -2
100
AcDbLine
 10
62.14276957135954
 20
152.6939576603152
 30
0.0
 11
62.14276957135954
 21
166.4551461270839
 31
0.0
  0
LINE
  5
20FA
330
20F5
100
AcDbEntity
  8
文字
 62
     0
370
    -2
100
AcDbLine
 10
52.64276957135954
 20
165.2051461270839
 30
0.0
 11
59.64276957135954
 21
165.2051461270839
 31
0.0
  0
SOLID
  5
20FB
330
20F5
100
AcDbEntity
  8
文字
 62
     0
100
AcDbTrace
 10
52.64276957135954
 20
165.6218127937505
 30
0.0
 11
52.64276957135954
 21
164.7884794604172
 31
0.0
 12
50.14276957135954
 22
165.2051461270839
 32
0.0
 13
50.14276957135954
 23
165.2051461270839
 33
0.0
  0
SOLID
  5
20FC
330
20F5
100
AcDbEntity
  8
文字
 62
     0
100
AcDbTrace
 10
59.64276957135954
 20
164.7884794604172
 30
0.0
 11
59.64276957135954
 21
165.6218127937505
 31
0.0
 12
62.14276957135954
 22
165.2051461270839
 32
0.0
 13
62.14276957135954
 23
165.2051461270839
 33
0.0
  0
MTEXT
  5
20FD
330
20F5
100
AcDbEntity
  8
文字
 62
     0
100
AcDbMText
 10
62.14276957135954
 20
169.9968127937505
 30
0.0
 40
2.5
 41
0.0
 46
0.0
 71
     5
 72
     1
  1
M12
 11
0.0
 21
1.0
 31
0.0
 73
     1
 44
1.0
  0
POINT
  5
20FE
330
20F5
100
AcDbEntity
  8
DEFPOINTS
 62
     0
100
AcDbPoint
 10
50.14276957135954
 20
152.0689576603152
 30
0.0
  0
POINT
  5
20FF
330
20F5
100
AcDbEntity
  8
DEFPOINTS
 62
     0
100
AcDbPoint
 10
62.14276957135954
 20
152.0689576603152
 30
0.0
  0
POINT
  5
2100
330
20F5
100
AcDbEntity
  8
DEFPOINTS
 62
     0
100
AcDbPoint
 10
62.14276957135954
 20
165.2051461270839
 30
0.0
  0
ENDBLK
  5
20F7
330
20F5
100
AcDbEntity
  8
0
100
AcDbBlockEnd
  0
BLOCK
  5
2102
330
2101
100
AcDbEntity
  8
0
100
AcDbBlockBegin
  2
*D36
 70
     1
 10
0.0
 20
0.0
 30
0.0
  3
*D36
  1
*D37
  0
LINE
  5
2104
330
2101
100
AcDbEntity
  8
文字
 62
     0
370
    -2
100
AcDbLine
 10
88.26776957135957
 20
25.69395766031521
 30
0.0
 11
107.1808015753695
 21
25.69395766031522
 31
0.0
  0
LINE
  5
2105
330
2101
100
AcDbEntity
  8
文字
 62
     0
370
    -2
100
AcDbLine
 10
60.76776957135957
 20
154.6939576603152
 30
0.0
 11
107.1808015753695
 21
154.6939576603152
 31
0.0
  0
LINE
  5
2106
330
2101
100
AcDbEntity
  8
文字
 62
     0
370
    -2
100
AcDbLine
 10
105.9308015753695
 20
28.19395766031522
 30
0.0
 11
105.9308015753695
 21
152.1939576603152
 31
0.0
  0
SOLID
  5
2107
330
2101
100
AcDbEntity
  8
文字
 62
     0
100
AcDbTrace
 10
105.5141349087028
 20
28.19395766031522
 30
0.0
 11
106.3474682420362
 21
28.19395766031522
 31
0.0
 12
105.9308015753695
 22
25.69395766031522
 32
0.0
 13
105.9308015753695
 23
25.69395766031522
 33
0.0
  0
SOLID
  5
2108
330
2101
100
AcDbEntity
  8
文字
 62
     0
100
AcDbTrace
 10
106.3474682420362
 20
152.1939576603152
 30
0.0
 11
105.5141349087028
 21
152.1939576603152
 31
0.0
 12
105.9308015753695
 22
154.6939576603152
 32
0.0
 13
105.9308015753695
 23
154.6939576603152
 33
0.0
  0
MTEXT
  5
2109
330
2101
100
AcDbEntity
  8
文字
 62
     0
100
AcDbMText
 10
110.7224682420362
 20
154.6939576603152
 30
0.0
 40
2.5
 41
0.0
 46
0.0
 71
     5
 72
     1
  1
129
 73
     1
 44
1.0
  0
POINT
  5
210A
330
2101
100
AcDbEntity
  8
DEFPOINTS
 62
     0
100
AcDbPoint
 10
87.64276957135957
 20
25.69395766031521
 30
0.0
  0
POINT
  5
210B
330
2101
100
AcDbEntity
  8
DEFPOINTS
 62
     0
100
AcDbPoint
 10
60.14276957135957
 20
154.6939576603152
 30
0.0
  0
POINT
  5
210C
330
2101
100
AcDbEntity
  8
DEFPOINTS
 62
     0
100
AcDbPoint
 10
105.9308015753695
 20
154.6939576603152
 30
0.0
  0
ENDBLK
  5
2103
330
2101
100
AcDbEntity
  8
0
100
AcDbBlockEnd
  0
BLOCK
  5
2133
330
2132
100
AcDbEntity
  8
0
100
AcDbBlockBegin
  2
*D37
 70
     1
 10
0.0
 20
0.0
 30
0.0
  3
*D37
  1
*D25
  0
LINE
  5
2134
330
2132
100
AcDbEntity
  8
文字
 62
     0
370
    -2
100
AcDbLine
 10
12.625
 20
99.99999999999994
 30
0.0
 11
50.82965090719659
 21
99.99999999999994
 31
0.0
  0
LINE
  5
2135
330
2132
100
AcDbEntity
  8
文字
 62
     0
370
    -2
100
AcDbLine
 10
17.54472058848707
 20
0.0
 30
0.0
 11
50.82965090719659
 21
-0.0000000000000021
 31
0.0
  0
LINE
  5
2136
330
2132
100
AcDbEntity
  8
文字
 62
     0
370
    -2
100
AcDbLine
 10
49.57965090719659
 20
97.49999999999994
 30
0.0
 11
49.57965090719659
 21
2.499999999999998
 31
0.0
  0
SOLID
  5
2137
330
2132
100
AcDbEntity
  8
文字
 62
     0
100
AcDbTrace
 10
49.99631757386326
 20
97.49999999999994
 30
0.0
 11
49.16298424052993
 21
97.49999999999994
 31
0.0
 12
49.57965090719659
 22
99.99999999999994
 32
0.0
 13
49.57965090719659
 23
99.99999999999994
 33
0.0
  0
SOLID
  5
2138
330
2132
100
AcDbEntity
  8
文字
 62
     0
100
AcDbTrace
 10
49.16298424052992
 20
2.499999999999998
 30
0.0
 11
49.99631757386325
 21
2.499999999999998
 31
0.0
 12
49.57965090719659
 22
-0.000000000000002
 32
0.0
 13
49.57965090719659
 23
-0.000000000000002
 33
0.0
  0
MTEXT
  5
2139
330
2132
100
AcDbEntity
  8
文字
 62
     0
100
AcDbMText
 10
53.95465090719659
 20
-0.0000000000000023
 30
0.0
 40
2.5
 41
0.0
 46
0.0
 71
     5
 72
     1
  1
100
 73
     1
 44
1.0
  0
POINT
  5
213A
330
2132
100
AcDbEntity
  8
DEFPOINTS
 62
     0
100
AcDbPoint
 10
12.0
 20
99.99999999999994
 30
0.0
  0
POINT
  5
213B
330
2132
100
AcDbEntity
  8
DEFPOINTS
 62
     0
100
AcDbPoint
 10
16.91972058848707
 20
0.0
 30
0.0
  0
POINT
  5
213C
330
2132
100
AcDbEntity
  8
DEFPOINTS
 62
     0
100
AcDbPoint
 10
49.57965090719659
 20
-0.000000000000002
 30
0.0
  0
ENDBLK
  5
213D
330
2132
100
AcDbEntity
  8
0
100
AcDbBlockEnd
  0
BLOCK
  5
2140
330
213F
100
AcDbEntity
  8
0
100
AcDbBlockBegin
  2
*D38
 70
     1
 10
0.0
 20
0.0
 30
0.0
  3
*D38
  1
*D23
  0
LINE
  5
2141
330
213F
100
AcDbEntity
  8
文字
 62
     0
370
    -2
100
AcDbLine
 10
0.0
 20
97.99999999999994
 30
0.0
 11
0.0
 21
111.7611884667687
 31
0.0
  0
LINE
  5
2142
330
213F
100
AcDbEntity
  8
文字
 62
     0
370
    -2
100
AcDbLine
 10
12.0
 20
97.99999999999994
 30
0.0
 11
12.0
 21
111.7611884667687
 31
0.0
  0
LINE
  5
2143
330
213F
100
AcDbEntity
  8
文字
 62
     0
370
    -2
100
AcDbLine
 10
2.5
 20
110.5111884667687
 30
0.0
 11
9.5
 21
110.5111884667687
 31
0.0
  0
SOLID
  5
2144
330
213F
100
AcDbEntity
  8
文字
 62
     0
100
AcDbTrace
 10
2.5
 20
110.9278551334353
 30
0.0
 11
2.5
 21
110.094521800102
 31
0.0
 12
0.0
 22
110.5111884667687
 32
0.0
 13
0.0
 23
110.5111884667687
 33
0.0
  0
SOLID
  5
2145
330
213F
100
AcDbEntity
  8
文字
 62
     0
100
AcDbTrace
 10
9.5
 20
110.094521800102
 30
0.0
 11
9.5
 21
110.9278551334353
 31
0.0
 12
12.0
 22
110.5111884667687
 32
0.0
 13
12.0
 23
110.5111884667687
 33
0.0
  0
MTEXT
  5
2146
330
213F
100
AcDbEntity
  8
文字
 62
     0
100
AcDbMText
 10
12.0
 20
115.3028551334353
 30
0.0
 40
2.5
 41
0.0
 46
0.0
 71
     5
 72
     1
  1
M12
 11
0.0
 21
1.0
 31
0.0
 73
     1
 44
1.0
  0
POINT
  5
2147
330
213F
100
AcDbEntity
  8
DEFPOINTS
 62
     0
100
AcDbPoint
 10
0.0
 20
97.37499999999994
 30
0.0
  0
POINT
  5
2148
330
213F
100
AcDbEntity
  8
DEFPOINTS
 62
     0
100
AcDbPoint
 10
12.0
 20
97.37499999999994
 30
0.0
  0
POINT
  5
2149
330
213F
100
AcDbEntity
  8
DEFPOINTS
 62
     0
100
AcDbPoint
 10
12.0
 20
110.5111884667687
 30
0.0
  0
ENDBLK
  5
214A
330
213F
100
AcDbEntity
  8
0
100
AcDbBlockEnd
  0
BLOCK
  5
2153
330
2152
100
AcDbEntity
  8
0
100
AcDbBlockBegin
  2
*D39
 70
     1
 10
0.0
 20
0.0
 30
0.0
  3
*D39
  1
*D41
  0
LINE
  5
2155
330
2152
100
AcDbEntity
  8
文字
 62
     0
370
    -2
100
AcDbLine
 10
62.8528287595894
 20
154.8092142822128
 30
0.0
 11
101.057479666786
 21
154.8092142822128
 31
0.0
  0
LINE
  5
2156
330
2152
100
AcDbEntity
  8
文字
 62
     0
370
    -2
100
AcDbLine
 10
67.77254934807647
 20
54.80921428221284
 30
0.0
 11
101.057479666786
 21
54.80921428221284
 31
0.0
  0
LINE
  5
2157
330
2152
100
AcDbEntity
  8
文字
 62
     0
370
    -2
100
AcDbLine
 10
99.80747966678598
 20
152.3092142822128
 30
0.0
 11
99.80747966678598
 21
57.30921428221284
 31
0.0
  0
SOLID
  5
2158
330
2152
100
AcDbEntity
  8
文字
 62
     0
100
AcDbTrace
 10
100.2241463334527
 20
152.3092142822128
 30
0.0
 11
99.39081300011931
 21
152.3092142822128
 31
0.0
 12
99.80747966678598
 22
154.8092142822128
 32
0.0
 13
99.80747966678598
 23
154.8092142822128
 33
0.0
  0
SOLID
  5
2159
330
2152
100
AcDbEntity
  8
文字
 62
     0
100
AcDbTrace
 10
99.39081300011931
 20
57.30921428221284
 30
0.0
 11
100.2241463334527
 21
57.30921428221284
 31
0.0
 12
99.80747966678598
 22
54.80921428221284
 32
0.0
 13
99.80747966678598
 23
54.80921428221284
 33
0.0
  0
MTEXT
  5
215A
330
2152
100
AcDbEntity
  8
文字
 62
     0
100
AcDbMText
 10
97.93247966678598
 20
104.8092142822128
 30
0.0
 40
2.5
 41
0.0
 46
0.0
 71
     5
 72
     1
  1
100
 11
0.0
 21
1.0
 31
0.0
 73
     1
 44
1.0
  0
POINT
  5
215B
330
2152
100
AcDbEntity
  8
DEFPOINTS
 62
     0
100
AcDbPoint
 10
62.2278287595894
 20
154.8092142822128
 30
0.0
  0
POINT
  5
215C
330
2152
100
AcDbEntity
  8
DEFPOINTS
 62
     0
100
AcDbPoint
 10
67.14754934807647
 20
54.80921428221284
 30
0.0
  0
POINT
  5
215D
330
2152
100
AcDbEntity
  8
DEFPOINTS
 62
     0
100
AcDbPoint
 10
99.80747966678598
 20
54.80921428221284
 30
0.0
  0
ENDBLK
  5
2154
330
2152
100
AcDbEntity
  8
0
100
AcDbBlockEnd
  0
BLOCK
  5
215F
330
215E
100
AcDbEntity
  8
0
100
AcDbBlockBegin
  2
*D40
 70
     1
 10
0.0
 20
0.0
 30
0.0
  3
*D40
  1
*D42
  0
LINE
  5
2161
330
215E
100
AcDbEntity
  8
文字
 62
     0
370
    -2
100
AcDbLine
 10
50.2278287595894
 20
152.8092142822128
 30
0.0
 11
50.2278287595894
 21
166.5704027489815
 31
0.0
  0
LINE
  5
2162
330
215E
100
AcDbEntity
  8
文字
 62
     0
370
    -2
100
AcDbLine
 10
62.2278287595894
 20
152.8092142822128
 30
0.0
 11
62.2278287595894
 21
166.5704027489815
 31
0.0
  0
LINE
  5
2163
330
215E
100
AcDbEntity
  8
文字
 62
     0
370
    -2
100
AcDbLine
 10
52.7278287595894
 20
165.3204027489815
 30
0.0
 11
59.7278287595894
 21
165.3204027489815
 31
0.0
  0
SOLID
  5
2164
330
215E
100
AcDbEntity
  8
文字
 62
     0
100
AcDbTrace
 10
52.7278287595894
 20
165.7370694156482
 30
0.0
 11
52.7278287595894
 21
164.9037360823149
 31
0.0
 12
50.2278287595894
 22
165.3204027489815
 32
0.0
 13
50.2278287595894
 23
165.3204027489815
 33
0.0
  0
SOLID
  5
2165
330
215E
100
AcDbEntity
  8
文字
 62
     0
100
AcDbTrace
 10
59.7278287595894
 20
164.9037360823149
 30
0.0
 11
59.7278287595894
 21
165.7370694156482
 31
0.0
 12
62.2278287595894
 22
165.3204027489815
 32
0.0
 13
62.2278287595894
 23
165.3204027489815
 33
0.0
  0
MTEXT
  5
2166
330
215E
100
AcDbEntity
  8
文字
 62
     0
100
AcDbMText
 10
56.2278287595894
 20
167.1954027489815
 30
0.0
 40
2.5
 41
0.0
 46
0.0
 71
     5
 72
     1
  1
M12
 73
     1
 44
1.0
  0
POINT
  5
2167
330
215E
100
AcDbEntity
  8
DEFPOINTS
 62
     0
100
AcDbPoint
 10
50.2278287595894
 20
152.1842142822128
 30
0.0
  0
POINT
  5
2168
330
215E
100
AcDbEntity
  8
DEFPOINTS
 62
     0
100
AcDbPoint
 10
62.2278287595894
 20
152.1842142822128
 30
0.0
  0
POINT
  5
2169
330
215E
100
AcDbEntity
  8
DEFPOINTS
 62
     0
100
AcDbPoint
 10
62.2278287595894
 20
165.3204027489815
 30
0.0
  0
ENDBLK
  5
2160
330
215E
100
AcDbEntity
  8
0
100
AcDbBlockEnd
  0
BLOCK
  5
21AB
330
21AA
100
AcDbEntity
  8
0
100
AcDbBlockBegin
  2
*D41
 70
     1
 10
0.0
 20
0.0
 30
0.0
  3
*D41
  1
*D36
  0
LINE
  5
21AC
330
21AA
100
AcDbEntity
  8
文字・寸法線
 62
     0
370
    -2
100
AcDbLine
 10
19.7425141799939
 20
22.06102101425975
 30
0.0
 11
5.91
 21
22.06102101425975
 31
0.0
  0
LINE
  5
21AD
330
21AA
100
AcDbEntity
  8
文字・寸法線
 62
     0
370
    -2
100
AcDbLine
 10
19.7425141799939
 20
14.90147870841492
 30
0.0
 11
5.91
 21
14.90147870841492
 31
0.0
  0
LINE
  5
21AE
330
21AA
100
AcDbEntity
  8
文字・寸法線
 62
     0
370
    -2
100
AcDbLine
 10
6.09
 20
12.90147870841492
 30
0.0
 11
0.0
 21
12.90147870841492
 31
0.0
  0
LINE
  5
21AF
330
21AA
100
AcDbEntity
  8
文字・寸法線
 62
     0
370
    -2
100
AcDbLine
 10
6.09
 20
20.06102101425975
 30
0.0
 11
6.09
 21
16.90147870841492
 31
0.0
  0
LINE
  5
21B0
330
21AA
100
AcDbEntity
  8
文字・寸法線
 62
     0
370
    -2
100
AcDbLine
 10
6.09
 20
14.90147870841492
 30
0.0
 11
6.09
 21
12.90147870841492
 31
0.0
  0
SOLID
  5
21B1
330
21AA
100
AcDbEntity
  8
文字・寸法線
 62
     0
100
AcDbTrace
 10
6.423333333333333
 20
20.06102101425975
 30
0.0
 11
5.756666666666667
 21
20.06102101425975
 31
0.0
 12
6.09
 22
22.06102101425975
 32
0.0
 13
6.09
 23
22.06102101425975
 33
0.0
  0
SOLID
  5
21B2
330
21AA
100
AcDbEntity
  8
文字・寸法線
 62
     0
100
AcDbTrace
 10
5.756666666666667
 20
16.90147870841492
 30
0.0
 11
6.423333333333333
 21
16.90147870841492
 31
0.0
 12
6.09
 22
14.90147870841492
 32
0.0
 13
6.09
 23
14.90147870841492
 33
0.0
  0
MTEXT
  5
21B3
330
21AA
100
AcDbEntity
  8
文字・寸法線
 62
     0
100
AcDbMText
 10
3.0
 20
14.49147870841492
 30
0.0
 40
3.0
 41
0.0
 46
0.0
 71
     5
 72
     1
  1
\A1;7.2
 73
     1
 44
1.0
  0
POINT
  5
21B4
330
21AA
100
AcDbEntity
  8
DEFPOINTS
 62
     0
100
AcDbPoint
 10
19.8050141799939
 20
22.06102101425975
 30
0.0
  0
POINT
  5
21B5
330
21AA
100
AcDbEntity
  8
DEFPOINTS
 62
     0
100
AcDbPoint
 10
19.8050141799939
 20
14.90147870841492
 30
0.0
  0
POINT
  5
21B6
330
21AA
100
AcDbEntity
  8
DEFPOINTS
 62
     0
100
AcDbPoint
 10
6.09
 20
14.90147870841492
 30
0.0
  0
ENDBLK
  5
21B7
330
21AA
100
AcDbEntity
  8
0
100
AcDbBlockEnd
  0
BLOCK
  5
21BA
330
21B9
100
AcDbEntity
  8
0
100
AcDbBlockBegin
  2
*D42
 70
     1
 10
0.0
 20
0.0
 30
0.0
  3
*D42
  1
*D39
  0
LINE
  5
21BB
330
21B9
100
AcDbEntity
  8
文字・寸法線
 62
     0
370
    -2
100
AcDbLine
 10
19.85430037515023
 20
16.0234553469669
 30
0.0
 11
19.85430037515023
 21
0.0
 31
0.0
  0
LINE
  5
21BC
330
21B9
100
AcDbEntity
  8
文字・寸法線
 62
     0
370
    -2
100
AcDbLine
 10
87.40180195641739
 20
16.0234553469669
 30
0.0
 11
87.40180195641739
 21
0.0
 31
0.0
  0
LINE
  5
21BD
330
21B9
100
AcDbEntity
  8
文字・寸法線
 62
     0
370
    -2
100
AcDbLine
 10
21.85430037515023
 20
1.0
 30
0.0
 11
85.40180195641739
 21
1.0
 31
0.0
  0
SOLID
  5
21BE
330
21B9
100
AcDbEntity
  8
文字・寸法線
 62
     0
100
AcDbTrace
 10
21.85430037515023
 20
1.333333333333333
 30
0.0
 11
21.85430037515023
 21
0.6666666666666667
 31
0.0
 12
19.85430037515023
 22
1.0
 32
0.0
 13
19.85430037515023
 23
1.0
 33
0.0
  0
SOLID
  5
21BF
330
21B9
100
AcDbEntity
  8
文字・寸法線
 62
     0
100
AcDbTrace
 10
85.40180195641739
 20
0.6666666666666667
 30
0.0
 11
85.40180195641739
 21
1.333333333333333
 31
0.0
 12
87.40180195641739
 22
1.0
 32
0.0
 13
87.40180195641739
 23
1.0
 33
0.0
  0
MTEXT
  5
21C0
330
21B9
100
AcDbEntity
  8
文字・寸法線
 62
     0
100
AcDbMText
 10
53.62805116578382
 20
2.59
 30
0.0
 40
3.0
 41
0.0
 46
0.0
 71
     5
 72
     1
  1
\A1;%%c67.5
 73
     1
 44
1.0
  0
POINT
  5
21C1
330
21B9
100
AcDbEntity
  8
DEFPOINTS
 62
     0
100
AcDbPoint
 10
19.85430037515023
 20
17.0234553469669
 30
0.0
  0
POINT
  5
21C2
330
21B9
100
AcDbEntity
  8
DEFPOINTS
 62
     0
100
AcDbPoint
 10
87.40180195641739
 20
17.0234553469669
 30
0.0
  0
POINT
  5
21C3
330
21B9
100
AcDbEntity
  8
DEFPOINTS
 62
     0
100
AcDbPoint
 10
87.40180195641739
 20
1.0
 30
0.0
  0
ENDBLK
  5
21C4
330
21B9
100
AcDbEntity
  8
0
100
AcDbBlockEnd
  0
BLOCK
  5
21DC
330
21DB
100
AcDbEntity
  8
0
100
AcDbBlockBegin
  2
*D43
 70
     1
 10
0.0
 20
0.0
 30
0.0
  3
*D43
  1
*D44
  0
LINE
  5
21DE
330
21DB
100
AcDbEntity
  8
文字・寸法線
 62
     0
370
    -2
100
AcDbLine
 10
22.27308652370323
 20
32.84435827674189
 30
0.0
 11
8.44057234370933
 21
32.84435827674189
 31
0.0
  0
LINE
  5
21DF
330
21DB
100
AcDbEntity
  8
文字・寸法線
 62
     0
370
    -2
100
AcDbLine
 10
22.27308652370323
 20
25.68481597089706
 30
0.0
 11
8.44057234370933
 21
25.68481597089706
 31
0.0
  0
LINE
  5
21E0
330
21DB
100
AcDbEntity
  8
文字・寸法線
 62
     0
370
    -2
100
AcDbLine
 10
8.62057234370933
 20
23.68481597089706
 30
0.0
 11
2.530572343709331
 21
23.68481597089706
 31
0.0
  0
LINE
  5
21E1
330
21DB
100
AcDbEntity
  8
文字・寸法線
 62
     0
370
    -2
100
AcDbLine
 10
8.62057234370933
 20
30.84435827674189
 30
0.0
 11
8.62057234370933
 21
27.68481597089706
 31
0.0
  0
LINE
  5
21E2
330
21DB
100
AcDbEntity
  8
文字・寸法線
 62
     0
370
    -2
100
AcDbLine
 10
8.62057234370933
 20
25.68481597089706
 30
0.0
 11
8.62057234370933
 21
23.68481597089706
 31
0.0
  0
SOLID
  5
21E3
330
21DB
100
AcDbEntity
  8
文字・寸法線
 62
     0
100
AcDbTrace
 10
8.953905677042664
 20
30.84435827674189
 30
0.0
 11
8.287239010375997
 21
30.84435827674189
 31
0.0
 12
8.62057234370933
 22
32.84435827674189
 32
0.0
 13
8.62057234370933
 23
32.84435827674189
 33
0.0
  0
SOLID
  5
21E4
330
21DB
100
AcDbEntity
  8
文字・寸法線
 62
     0
100
AcDbTrace
 10
8.287239010375997
 20
27.68481597089706
 30
0.0
 11
8.953905677042664
 21
27.68481597089706
 31
0.0
 12
8.62057234370933
 22
25.68481597089706
 32
0.0
 13
8.62057234370933
 23
25.68481597089706
 33
0.0
  0
MTEXT
  5
21E5
330
21DB
100
AcDbEntity
  8
文字・寸法線
 62
     0
100
AcDbMText
 10
5.530572343709331
 20
25.27481597089706
 30
0.0
 40
3.0
 41
0.0
 46
0.0
 71
     5
 72
     1
  1
\A1;7.2
 73
     1
 44
1.0
  0
POINT
  5
21E6
330
21DB
100
AcDbEntity
  8
DEFPOINTS
 62
     0
100
AcDbPoint
 10
22.33558652370323
 20
32.84435827674189
 30
0.0
  0
POINT
  5
21E7
330
21DB
100
AcDbEntity
  8
DEFPOINTS
 62
     0
100
AcDbPoint
 10
22.33558652370323
 20
25.68481597089706
 30
0.0
  0
POINT
  5
21E8
330
21DB
100
AcDbEntity
  8
DEFPOINTS
 62
     0
100
AcDbPoint
 10
8.62057234370933
 20
25.68481597089706
 30
0.0
  0
ENDBLK
  5
21DD
330
21DB
100
AcDbEntity
  8
0
100
AcDbBlockEnd
  0
BLOCK
  5
21EA
330
21E9
100
AcDbEntity
  8
0
100
AcDbBlockBegin
  2
*D44
 70
     1
 10
0.0
 20
0.0
 30
0.0
  3
*D44
  1
*D45
  0
LINE
  5
21EC
330
21E9
100
AcDbEntity
  8
文字・寸法線
 62
     0
370
    -2
100
AcDbLine
 10
22.38487271885956
 20
26.80679260944904
 30
0.0
 11
22.38487271885955
 21
10.78333726248214
 31
0.0
  0
LINE
  5
21ED
330
21E9
100
AcDbEntity
  8
文字・寸法線
 62
     0
370
    -2
100
AcDbLine
 10
89.93237430012672
 20
26.80679260944904
 30
0.0
 11
89.93237430012672
 21
10.78333726248214
 31
0.0
  0
LINE
  5
21EE
330
21E9
100
AcDbEntity
  8
文字・寸法線
 62
     0
370
    -2
100
AcDbLine
 10
24.38487271885955
 20
11.78333726248214
 30
0.0
 11
87.93237430012672
 21
11.78333726248214
 31
0.0
  0
SOLID
  5
21EF
330
21E9
100
AcDbEntity
  8
文字・寸法線
 62
     0
100
AcDbTrace
 10
24.38487271885955
 20
12.11667059581548
 30
0.0
 11
24.38487271885955
 21
11.45000392914881
 31
0.0
 12
22.38487271885955
 22
11.78333726248214
 32
0.0
 13
22.38487271885955
 23
11.78333726248214
 33
0.0
  0
SOLID
  5
21F0
330
21E9
100
AcDbEntity
  8
文字・寸法線
 62
     0
100
AcDbTrace
 10
87.93237430012672
 20
11.45000392914881
 30
0.0
 11
87.93237430012672
 21
12.11667059581548
 31
0.0
 12
89.93237430012672
 22
11.78333726248214
 32
0.0
 13
89.93237430012672
 23
11.78333726248214
 33
0.0
  0
MTEXT
  5
21F1
330
21E9
100
AcDbEntity
  8
文字・寸法線
 62
     0
100
AcDbMText
 10
56.15862350949315
 20
13.37333726248214
 30
0.0
 40
3.0
 41
0.0
 46
0.0
 71
     5
 72
     1
  1
\A1;%%c67.5
 73
     1
 44
1.0
  0
POINT
  5
21F2
330
21E9
100
AcDbEntity
  8
DEFPOINTS
 62
     0
100
AcDbPoint
 10
22.38487271885956
 20
27.80679260944904
 30
0.0
  0
POINT
  5
21F3
330
21E9
100
AcDbEntity
  8
DEFPOINTS
 62
     0
100
AcDbPoint
 10
89.93237430012672
 20
27.80679260944904
 30
0.0
  0
POINT
  5
21F4
330
21E9
100
AcDbEntity
  8
DEFPOINTS
 62
     0
100
AcDbPoint
 10
89.93237430012672
 20
11.78333726248214
 30
0.0
  0
ENDBLK
  5
21EB
330
21E9
100
AcDbEntity
  8
0
100
AcDbBlockEnd
  0
BLOCK
  5
2223
330
2222
100
AcDbEntity
  8
0
100
AcDbBlockBegin
  2
*D46
 70
     1
 10
0.0
 20
0.0
 30
0.0
  3
*D46
  1
*D26
  0
LINE
  5
2224
330
2222
100
AcDbEntity
  8
文字
 62
     0
370
    -2
100
AcDbLine
 10
33.04332301300551
 20
58.52677758679374
 30
0.0
 11
33.04332301300551
 21
20.71330933175287
 31
0.0
  0
LINE
  5
2225
330
2222
100
AcDbEntity
  8
文字
 62
     0
370
    -2
100
AcDbLine
 10
52.0092793558847
 20
58.52677758679374
 30
0.0
 11
52.0092793558847
 21
20.71330933175287
 31
0.0
  0
LINE
  5
2226
330
2222
100
AcDbEntity
  8
文字
 62
     0
370
    -2
100
AcDbLine
 10
35.54332301300551
 20
21.96330933175287
 30
0.0
 11
49.5092793558847
 21
21.96330933175287
 31
0.0
  0
SOLID
  5
2227
330
2222
100
AcDbEntity
  8
文字
 62
     0
100
AcDbTrace
 10
35.54332301300551
 20
22.37997599841954
 30
0.0
 11
35.54332301300551
 21
21.5466426650862
 31
0.0
 12
33.04332301300551
 22
21.96330933175287
 32
0.0
 13
33.04332301300551
 23
21.96330933175287
 33
0.0
  0
SOLID
  5
2228
330
2222
100
AcDbEntity
  8
文字
 62
     0
100
AcDbTrace
 10
49.5092793558847
 20
21.5466426650862
 30
0.0
 11
49.5092793558847
 21
22.37997599841954
 31
0.0
 12
52.0092793558847
 22
21.96330933175287
 32
0.0
 13
52.0092793558847
 23
21.96330933175287
 33
0.0
  0
MTEXT
  5
2229
330
2222
100
AcDbEntity
  8
文字
 62
     0
100
AcDbMText
 10
42.5263011844451
 20
24.08830933175287
 30
0.0
 40
3.0
 41
0.0
 46
0.0
 71
     5
 72
     1
  1
19
 73
     1
 44
1.0
  0
POINT
  5
222A
330
2222
100
AcDbEntity
  8
DEFPOINTS
 62
     0
100
AcDbPoint
 10
33.04332301300551
 20
59.15177758679374
 30
0.0
  0
POINT
  5
222B
330
2222
100
AcDbEntity
  8
DEFPOINTS
 62
     0
100
AcDbPoint
 10
52.0092793558847
 20
59.15177758679374
 30
0.0
  0
POINT
  5
222C
330
2222
100
AcDbEntity
  8
DEFPOINTS
 62
     0
100
AcDbPoint
 10
52.0092793558847
 20
21.96330933175287
 30
0.0
  0
ENDBLK
  5
222D
330
2222
100
AcDbEntity
  8
0
100
AcDbBlockEnd
  0
BLOCK
  5
2236
330
2235
100
AcDbEntity
  8
0
100
AcDbBlockBegin
  2
*D47
 70
     1
 10
0.0
 20
0.0
 30
0.0
  3
*D47
  1
*D33
  0
LINE
  5
2237
330
2235
100
AcDbEntity
  8
文字・寸法線
 62
     0
370
    -2
100
AcDbLine
 10
19.526301184445
 20
63.62677758679374
 30
0.0
 11
19.526301184445
 21
0.0
 31
0.0
  0
LINE
  5
2238
330
2235
100
AcDbEntity
  8
文字・寸法線
 62
     0
370
    -2
100
AcDbLine
 10
65.526301184445
 20
63.62677758679374
 30
0.0
 11
65.526301184445
 21
0.0
 31
0.0
  0
LINE
  5
2239
330
2235
100
AcDbEntity
  8
文字・寸法線
 62
     0
370
    -2
100
AcDbLine
 10
21.526301184445
 20
1.0
 30
0.0
 11
63.526301184445
 21
1.0
 31
0.0
  0
SOLID
  5
223A
330
2235
100
AcDbEntity
  8
文字・寸法線
 62
     0
100
AcDbTrace
 10
21.526301184445
 20
1.333333333333333
 30
0.0
 11
21.526301184445
 21
0.6666666666666667
 31
0.0
 12
19.526301184445
 22
1.0
 32
0.0
 13
19.526301184445
 23
1.0
 33
0.0
  0
SOLID
  5
223B
330
2235
100
AcDbEntity
  8
文字・寸法線
 62
     0
100
AcDbTrace
 10
63.526301184445
 20
0.6666666666666667
 30
0.0
 11
63.526301184445
 21
1.333333333333333
 31
0.0
 12
65.526301184445
 22
1.0
 32
0.0
 13
65.526301184445
 23
1.0
 33
0.0
  0
MTEXT
  5
223C
330
2235
100
AcDbEntity
  8
文字・寸法線
 62
     0
100
AcDbMText
 10
42.526301184445
 20
2.590000000000001
 30
0.0
 40
3.0
 41
0.0
 46
0.0
 71
     5
 72
     1
  1
\A1;%%c46.0
 73
     1
 44
1.0
  0
POINT
  5
223D
330
2235
100
AcDbEntity
  8
DEFPOINTS
 62
     0
100
AcDbPoint
 10
19.526301184445
 20
64.62677758679374
 30
0.0
  0
POINT
  5
223E
330
2235
100
AcDbEntity
  8
DEFPOINTS
 62
     0
100
AcDbPoint
 10
65.526301184445
 20
64.62677758679374
 30
0.0
  0
POINT
  5
223F
330
2235
100
AcDbEntity
  8
DEFPOINTS
 62
     0
100
AcDbPoint
 10
65.526301184445
 20
1.0
 30
0.0
  0
ENDBLK
  5
2240
330
2235
100
AcDbEntity
  8
0
100
AcDbBlockEnd
  0
BLOCK
  5
2261
330
2260
100
AcDbEntity
  8
0
100
AcDbBlockBegin
  2
*D48
 70
     1
 10
0.0
 20
0.0
 30
0.0
  3
*D48
  1
*D48
  0
LINE
  5
2263
330
2260
100
AcDbEntity
  8
文字
 62
     0
370
    -2
100
AcDbLine
 10
249.5427604738573
 20
68.90114030630603
 30
0.0
 11
249.5427604738573
 21
31.08767205126516
 31
0.0
  0
LINE
  5
2264
330
2260
100
AcDbEntity
  8
文字
 62
     0
370
    -2
100
AcDbLine
 10
268.5087168167365
 20
68.90114030630603
 30
0.0
 11
268.5087168167365
 21
31.08767205126516
 31
0.0
  0
LINE
  5
2265
330
2260
100
AcDbEntity
  8
文字
 62
     0
370
    -2
100
AcDbLine
 10
252.0427604738573
 20
32.33767205126516
 30
0.0
 11
266.0087168167365
 21
32.33767205126516
 31
0.0
  0
SOLID
  5
2266
330
2260
100
AcDbEntity
  8
文字
 62
     0
100
AcDbTrace
 10
252.0427604738573
 20
32.75433871793182
 30
0.0
 11
252.0427604738573
 21
31.92100538459849
 31
0.0
 12
249.5427604738573
 22
32.33767205126516
 32
0.0
 13
249.5427604738573
 23
32.33767205126516
 33
0.0
  0
SOLID
  5
2267
330
2260
100
AcDbEntity
  8
文字
 62
     0
100
AcDbTrace
 10
266.0087168167365
 20
31.92100538459849
 30
0.0
 11
266.0087168167365
 21
32.75433871793182
 31
0.0
 12
268.5087168167365
 22
32.33767205126516
 32
0.0
 13
268.5087168167365
 23
32.33767205126516
 33
0.0
  0
MTEXT
  5
2268
330
2260
100
AcDbEntity
  8
文字
 62
     0
100
AcDbMText
 10
259.0257386452969
 20
34.46267205126516
 30
0.0
 40
3.0
 41
0.0
 46
0.0
 71
     5
 72
     1
  1
19
 73
     1
 44
1.0
  0
POINT
  5
2269
330
2260
100
AcDbEntity
  8
DEFPOINTS
 62
     0
100
AcDbPoint
 10
249.5427604738573
 20
69.52614030630603
 30
0.0
  0
POINT
  5
226A
330
2260
100
AcDbEntity
  8
DEFPOINTS
 62
     0
100
AcDbPoint
 10
268.5087168167365
 20
69.52614030630603
 30
0.0
  0
POINT
  5
226B
330
2260
100
AcDbEntity
  8
DEFPOINTS
 62
     0
100
AcDbPoint
 10
268.5087168167365
 20
32.33767205126516
 30
0.0
  0
ENDBLK
  5
2262
330
2260
100
AcDbEntity
  8
0
100
AcDbBlockEnd
  0
BLOCK
  5
226D
330
226C
100
AcDbEntity
  8
0
100
AcDbBlockBegin
  2
*D49
 70
     1
 10
0.0
 20
0.0
 30
0.0
  3
*D49
  1
*D49
  0
LINE
  5
226F
330
226C
100
AcDbEntity
  8
文字・寸法線
 62
     0
370
    -2
100
AcDbLine
 10
236.0257386452968
 20
74.00114030630603
 30
0.0
 11
236.0257386452968
 21
10.37436271951229
 31
0.0
  0
LINE
  5
2270
330
226C
100
AcDbEntity
  8
文字・寸法線
 62
     0
370
    -2
100
AcDbLine
 10
282.0257386452968
 20
74.00114030630603
 30
0.0
 11
282.0257386452968
 21
10.37436271951229
 31
0.0
  0
LINE
  5
2271
330
226C
100
AcDbEntity
  8
文字・寸法線
 62
     0
370
    -2
100
AcDbLine
 10
238.0257386452968
 20
11.37436271951229
 30
0.0
 11
280.0257386452968
 21
11.37436271951229
 31
0.0
  0
SOLID
  5
2272
330
226C
100
AcDbEntity
  8
文字・寸法線
 62
     0
100
AcDbTrace
 10
238.0257386452968
 20
11.70769605284563
 30
0.0
 11
238.0257386452968
 21
11.04102938617896
 31
0.0
 12
236.0257386452968
 22
11.37436271951229
 32
0.0
 13
236.0257386452968
 23
11.37436271951229
 33
0.0
  0
SOLID
  5
2273
330
226C
100
AcDbEntity
  8
文字・寸法線
 62
     0
100
AcDbTrace
 10
280.0257386452968
 20
11.04102938617896
 30
0.0
 11
280.0257386452968
 21
11.70769605284563
 31
0.0
 12
282.0257386452968
 22
11.37436271951229
 32
0.0
 13
282.0257386452968
 23
11.37436271951229
 33
0.0
  0
MTEXT
  5
2274
330
226C
100
AcDbEntity
  8
文字・寸法線
 62
     0
100
AcDbMText
 10
259.0257386452968
 20
12.96436271951229
 30
0.0
 40
3.0
 41
0.0
 46
0.0
 71
     5
 72
     1
  1
\A1;%%c46.0
 73
     1
 44
1.0
  0
POINT
  5
2275
330
226C
100
AcDbEntity
  8
DEFPOINTS
 62
     0
100
AcDbPoint
 10
236.0257386452968
 20
75.00114030630603
 30
0.0
  0
POINT
  5
2276
330
226C
100
AcDbEntity
  8
DEFPOINTS
 62
     0
100
AcDbPoint
 10
282.0257386452968
 20
75.00114030630603
 30
0.0
  0
POINT
  5
2277
330
226C
100
AcDbEntity
  8
DEFPOINTS
 62
     0
100
AcDbPoint
 10
282.0257386452968
 20
11.37436271951229
 30
0.0
  0
ENDBLK
  5
226E
330
226C
100
AcDbEntity
  8
0
100
AcDbBlockEnd
  0
BLOCK
  5
22A3
330
22A2
100
AcDbEntity
  8
0
100
AcDbBlockBegin
  2
*D51
 70
     1
 10
0.0
 20
0.0
 30
0.0
  3
*D51
  1
*D26
  0
LINE
  5
22A4
330
22A2
100
AcDbEntity
  8
文字
 62
     0
370
    -2
100
AcDbLine
 10
33.04332301300551
 20
58.52677758679374
 30
0.0
 11
33.04332301300551
 21
20.71330933175287
 31
0.0
  0
LINE
  5
22A5
330
22A2
100
AcDbEntity
  8
文字
 62
     0
370
    -2
100
AcDbLine
 10
52.0092793558847
 20
58.52677758679374
 30
0.0
 11
52.0092793558847
 21
20.71330933175287
 31
0.0
  0
LINE
  5
22A6
330
22A2
100
AcDbEntity
  8
文字
 62
     0
370
    -2
100
AcDbLine
 10
35.54332301300551
 20
21.96330933175287
 30
0.0
 11
49.5092793558847
 21
21.96330933175287
 31
0.0
  0
SOLID
  5
22A7
330
22A2
100
AcDbEntity
  8
文字
 62
     0
100
AcDbTrace
 10
35.54332301300551
 20
22.37997599841954
 30
0.0
 11
35.54332301300551
 21
21.5466426650862
 31
0.0
 12
33.04332301300551
 22
21.96330933175287
 32
0.0
 13
33.04332301300551
 23
21.96330933175287
 33
0.0
  0
SOLID
  5
22A8
330
22A2
100
AcDbEntity
  8
文字
 62
     0
100
AcDbTrace
 10
49.5092793558847
 20
21.5466426650862
 30
0.0
 11
49.5092793558847
 21
22.37997599841954
 31
0.0
 12
52.0092793558847
 22
21.96330933175287
 32
0.0
 13
52.0092793558847
 23
21.96330933175287
 33
0.0
  0
MTEXT
  5
22A9
330
22A2
100
AcDbEntity
  8
文字
 62
     0
100
AcDbMText
 10
42.5263011844451
 20
24.08830933175287
 30
0.0
 40
3.0
 41
0.0
 46
0.0
 71
     5
 72
     1
  1
19
 73
     1
 44
1.0
  0
POINT
  5
22AA
330
22A2
100
AcDbEntity
  8
DEFPOINTS
 62
     0
100
AcDbPoint
 10
33.04332301300551
 20
59.15177758679374
 30
0.0
  0
POINT
  5
22AB
330
22A2
100
AcDbEntity
  8
DEFPOINTS
 62
     0
100
AcDbPoint
 10
52.0092793558847
 20
59.15177758679374
 30
0.0
  0
POINT
  5
22AC
330
22A2
100
AcDbEntity
  8
DEFPOINTS
 62
     0
100
AcDbPoint
 10
52.0092793558847
 20
21.96330933175287
 30
0.0
  0
ENDBLK
  5
22AD
330
22A2
100
AcDbEntity
  8
0
100
AcDbBlockEnd
  0
BLOCK
  5
22B6
330
22B5
100
AcDbEntity
  8
0
100
AcDbBlockBegin
  2
*D52
 70
     1
 10
0.0
 20
0.0
 30
0.0
  3
*D52
  1
*D33
  0
LINE
  5
22B7
330
22B5
100
AcDbEntity
  8
文字・寸法線
 62
     0
370
    -2
100
AcDbLine
 10
19.526301184445
 20
63.62677758679374
 30
0.0
 11
19.526301184445
 21
0.0
 31
0.0
  0
LINE
  5
22B8
330
22B5
100
AcDbEntity
  8
文字・寸法線
 62
     0
370
    -2
100
AcDbLine
 10
65.526301184445
 20
63.62677758679374
 30
0.0
 11
65.526301184445
 21
0.0
 31
0.0
  0
LINE
  5
22B9
330
22B5
100
AcDbEntity
  8
文字・寸法線
 62
     0
370
    -2
100
AcDbLine
 10
21.526301184445
 20
1.0
 30
0.0
 11
63.526301184445
 21
1.0
 31
0.0
  0
SOLID
  5
22BA
330
22B5
100
AcDbEntity
  8
文字・寸法線
 62
     0
100
AcDbTrace
 10
21.526301184445
 20
1.333333333333333
 30
0.0
 11
21.526301184445
 21
0.6666666666666667
 31
0.0
 12
19.526301184445
 22
1.0
 32
0.0
 13
19.526301184445
 23
1.0
 33
0.0
  0
SOLID
  5
22BB
330
22B5
100
AcDbEntity
  8
文字・寸法線
 62
     0
100
AcDbTrace
 10
63.526301184445
 20
0.6666666666666667
 30
0.0
 11
63.526301184445
 21
1.333333333333333
 31
0.0
 12
65.526301184445
 22
1.0
 32
0.0
 13
65.526301184445
 23
1.0
 33
0.0
  0
MTEXT
  5
22BC
330
22B5
100
AcDbEntity
  8
文字・寸法線
 62
     0
100
AcDbMText
 10
42.526301184445
 20
2.590000000000001
 30
0.0
 40
3.0
 41
0.0
 46
0.0
 71
     5
 72
     1
  1
\A1;%%c46.0
 73
     1
 44
1.0
  0
POINT
  5
22BD
330
22B5
100
AcDbEntity
  8
DEFPOINTS
 62
     0
100
AcDbPoint
 10
19.526301184445
 20
64.62677758679374
 30
0.0
  0
POINT
  5
22BE
330
22B5
100
AcDbEntity
  8
DEFPOINTS
 62
     0
100
AcDbPoint
 10
65.526301184445
 20
64.62677758679374
 30
0.0
  0
POINT
  5
22BF
330
22B5
100
AcDbEntity
  8
DEFPOINTS
 62
     0
100
AcDbPoint
 10
65.526301184445
 20
1.0
 30
0.0
  0
ENDBLK
  5
22C0
330
22B5
100
AcDbEntity
  8
0
100
AcDbBlockEnd
  0
BLOCK
  5
22E1
330
22E0
100
AcDbEntity
  8
0
100
AcDbBlockBegin
  2
*D53
 70
     1
 10
0.0
 20
0.0
 30
0.0
  3
*D53
  1
*D53
  0
LINE
  5
22E3
330
22E0
100
AcDbEntity
  8
文字
 62
     0
370
    -2
100
AcDbLine
 10
147.1111768715824
 20
69.84087960540947
 30
0.0
 11
147.1111768715824
 21
32.0274113503686
 31
0.0
  0
LINE
  5
22E4
330
22E0
100
AcDbEntity
  8
文字
 62
     0
370
    -2
100
AcDbLine
 10
166.0771332144616
 20
69.84087960540947
 30
0.0
 11
166.0771332144616
 21
32.0274113503686
 31
0.0
  0
LINE
  5
22E5
330
22E0
100
AcDbEntity
  8
文字
 62
     0
370
    -2
100
AcDbLine
 10
149.6111768715824
 20
33.2774113503686
 30
0.0
 11
163.5771332144616
 21
33.2774113503686
 31
0.0
  0
SOLID
  5
22E6
330
22E0
100
AcDbEntity
  8
文字
 62
     0
100
AcDbTrace
 10
149.6111768715824
 20
33.69407801703526
 30
0.0
 11
149.6111768715824
 21
32.86074468370193
 31
0.0
 12
147.1111768715824
 22
33.2774113503686
 32
0.0
 13
147.1111768715824
 23
33.2774113503686
 33
0.0
  0
SOLID
  5
22E7
330
22E0
100
AcDbEntity
  8
文字
 62
     0
100
AcDbTrace
 10
163.5771332144616
 20
32.86074468370193
 30
0.0
 11
163.5771332144616
 21
33.69407801703526
 31
0.0
 12
166.0771332144616
 22
33.2774113503686
 32
0.0
 13
166.0771332144616
 23
33.2774113503686
 33
0.0
  0
MTEXT
  5
22E8
330
22E0
100
AcDbEntity
  8
文字
 62
     0
100
AcDbMText
 10
156.594155043022
 20
35.4024113503686
 30
0.0
 40
3.0
 41
0.0
 46
0.0
 71
     5
 72
     1
  1
19
 73
     1
 44
1.0
  0
POINT
  5
22E9
330
22E0
100
AcDbEntity
  8
DEFPOINTS
 62
     0
100
AcDbPoint
 10
147.1111768715824
 20
70.46587960540947
 30
0.0
  0
POINT
  5
22EA
330
22E0
100
AcDbEntity
  8
DEFPOINTS
 62
     0
100
AcDbPoint
 10
166.0771332144616
 20
70.46587960540947
 30
0.0
  0
POINT
  5
22EB
330
22E0
100
AcDbEntity
  8
DEFPOINTS
 62
     0
100
AcDbPoint
 10
166.0771332144616
 20
33.2774113503686
 30
0.0
  0
ENDBLK
  5
22E2
330
22E0
100
AcDbEntity
  8
0
100
AcDbBlockEnd
  0
BLOCK
  5
22ED
330
22EC
100
AcDbEntity
  8
0
100
AcDbBlockBegin
  2
*D54
 70
     1
 10
0.0
 20
0.0
 30
0.0
  3
*D54
  1
*D54
  0
LINE
  5
22EF
330
22EC
100
AcDbEntity
  8
文字・寸法線
 62
     0
370
    -2
100
AcDbLine
 10
133.5941550430219
 20
74.94087960540946
 30
0.0
 11
133.5941550430219
 21
11.31410201861573
 31
0.0
  0
LINE
  5
22F0
330
22EC
100
AcDbEntity
  8
文字・寸法線
 62
     0
370
    -2
100
AcDbLine
 10
179.5941550430219
 20
74.94087960540946
 30
0.0
 11
179.5941550430219
 21
11.31410201861573
 31
0.0
  0
LINE
  5
22F1
330
22EC
100
AcDbEntity
  8
文字・寸法線
 62
     0
370
    -2
100
AcDbLine
 10
135.5941550430219
 20
12.31410201861573
 30
0.0
 11
177.5941550430219
 21
12.31410201861573
 31
0.0
  0
SOLID
  5
22F2
330
22EC
100
AcDbEntity
  8
文字・寸法線
 62
     0
100
AcDbTrace
 10
135.5941550430219
 20
12.64743535194906
 30
0.0
 11
135.5941550430219
 21
11.98076868528239
 31
0.0
 12
133.5941550430219
 22
12.31410201861573
 32
0.0
 13
133.5941550430219
 23
12.31410201861573
 33
0.0
  0
SOLID
  5
22F3
330
22EC
100
AcDbEntity
  8
文字・寸法線
 62
     0
100
AcDbTrace
 10
177.5941550430219
 20
11.98076868528239
 30
0.0
 11
177.5941550430219
 21
12.64743535194906
 31
0.0
 12
179.5941550430219
 22
12.31410201861573
 32
0.0
 13
179.5941550430219
 23
12.31410201861573
 33
0.0
  0
MTEXT
  5
22F4
330
22EC
100
AcDbEntity
  8
文字・寸法線
 62
     0
100
AcDbMText
 10
156.5941550430219
 20
13.90410201861573
 30
0.0
 40
3.0
 41
0.0
 46
0.0
 71
     5
 72
     1
  1
\A1;%%c46.0
 73
     1
 44
1.0
  0
POINT
  5
22F5
330
22EC
100
AcDbEntity
  8
DEFPOINTS
 62
     0
100
AcDbPoint
 10
133.5941550430219
 20
75.94087960540946
 30
0.0
  0
POINT
  5
22F6
330
22EC
100
AcDbEntity
  8
DEFPOINTS
 62
     0
100
AcDbPoint
 10
179.5941550430219
 20
75.94087960540946
 30
0.0
  0
POINT
  5
22F7
330
22EC
100
AcDbEntity
  8
DEFPOINTS
 62
     0
100
AcDbPoint
 10
179.5941550430219
 20
12.31410201861573
 30
0.0
  0
ENDBLK
  5
22EE
330
22EC
100
AcDbEntity
  8
0
100
AcDbBlockEnd
  0
BLOCK
  5
2322
330
2321
100
AcDbEntity
  8
0
100
AcDbBlockBegin
  2
*D56
 70
     1
 10
0.0
 20
0.0
 30
0.0
  3
*D56
  1
*D29
  0
LINE
  5
2323
330
2321
100
AcDbEntity
  8
文字
 62
     0
370
    -2
100
AcDbLine
 10
64.79077050451782
 20
37.95099231111084
 30
0.0
 11
98.44272909404401
 21
37.95099231111084
 31
0.0
  0
LINE
  5
2324
330
2321
100
AcDbEntity
  8
文字
 62
     0
370
    -2
100
AcDbLine
 10
85.70376497062749
 20
14.95099231111084
 30
0.0
 11
98.44272909404401
 21
14.95099231111084
 31
0.0
  0
LINE
  5
2325
330
2321
100
AcDbEntity
  8
文字
 62
     0
370
    -2
100
AcDbLine
 10
97.19272909404401
 20
35.45099231111084
 30
0.0
 11
97.19272909404401
 21
17.45099231111084
 31
0.0
  0
SOLID
  5
2326
330
2321
100
AcDbEntity
  8
文字
 62
     0
100
AcDbTrace
 10
97.60939576071068
 20
35.45099231111084
 30
0.0
 11
96.77606242737734
 21
35.45099231111084
 31
0.0
 12
97.19272909404401
 22
37.95099231111084
 32
0.0
 13
97.19272909404401
 23
37.95099231111084
 33
0.0
  0
SOLID
  5
2327
330
2321
100
AcDbEntity
  8
文字
 62
     0
100
AcDbTrace
 10
96.77606242737734
 20
17.45099231111084
 30
0.0
 11
97.60939576071068
 21
17.45099231111084
 31
0.0
 12
97.19272909404401
 22
14.95099231111084
 32
0.0
 13
97.19272909404401
 23
14.95099231111084
 33
0.0
  0
MTEXT
  5
2328
330
2321
100
AcDbEntity
  8
文字
 62
     0
100
AcDbMText
 10
95.06772909404401
 20
26.45099231111084
 30
0.0
 40
3.0
 41
0.0
 46
0.0
 71
     5
 72
     1
  1
23
 11
0.0
 21
1.0
 31
0.0
 73
     1
 44
1.0
  0
POINT
  5
2329
330
2321
100
AcDbEntity
  8
DEFPOINTS
 62
     0
100
AcDbPoint
 10
64.16577050451782
 20
37.95099231111084
 30
0.0
  0
POINT
  5
232A
330
2321
100
AcDbEntity
  8
DEFPOINTS
 62
     0
100
AcDbPoint
 10
85.07876497062749
 20
14.95099231111084
 30
0.0
  0
POINT
  5
232B
330
2321
100
AcDbEntity
  8
DEFPOINTS
 62
     0
100
AcDbPoint
 10
97.19272909404401
 20
14.95099231111084
 30
0.0
  0
ENDBLK
  5
232C
330
2321
100
AcDbEntity
  8
0
100
AcDbBlockEnd
  0
BLOCK
  5
233C
330
233B
100
AcDbEntity
  8
0
100
AcDbBlockBegin
  2
*D57
 70
     1
 10
0.0
 20
0.0
 30
0.0
  3
*D57
  1
*D36
  0
LINE
  5
233D
330
233B
100
AcDbEntity
  8
文字・寸法線
 62
     0
370
    -2
100
AcDbLine
 10
19.7425141799939
 20
22.06102101425975
 30
0.0
 11
5.91
 21
22.06102101425975
 31
0.0
  0
LINE
  5
233E
330
233B
100
AcDbEntity
  8
文字・寸法線
 62
     0
370
    -2
100
AcDbLine
 10
19.7425141799939
 20
14.90147870841492
 30
0.0
 11
5.91
 21
14.90147870841492
 31
0.0
  0
LINE
  5
233F
330
233B
100
AcDbEntity
  8
文字・寸法線
 62
     0
370
    -2
100
AcDbLine
 10
6.09
 20
12.90147870841492
 30
0.0
 11
0.0
 21
12.90147870841492
 31
0.0
  0
LINE
  5
2340
330
233B
100
AcDbEntity
  8
文字・寸法線
 62
     0
370
    -2
100
AcDbLine
 10
6.09
 20
20.06102101425975
 30
0.0
 11
6.09
 21
16.90147870841492
 31
0.0
  0
LINE
  5
2341
330
233B
100
AcDbEntity
  8
文字・寸法線
 62
     0
370
    -2
100
AcDbLine
 10
6.09
 20
14.90147870841492
 30
0.0
 11
6.09
 21
12.90147870841492
 31
0.0
  0
SOLID
  5
2342
330
233B
100
AcDbEntity
  8
文字・寸法線
 62
     0
100
AcDbTrace
 10
6.423333333333333
 20
20.06102101425975
 30
0.0
 11
5.756666666666667
 21
20.06102101425975
 31
0.0
 12
6.09
 22
22.06102101425975
 32
0.0
 13
6.09
 23
22.06102101425975
 33
0.0
  0
SOLID
  5
2343
330
233B
100
AcDbEntity
  8
文字・寸法線
 62
     0
100
AcDbTrace
 10
5.756666666666667
 20
16.90147870841492
 30
0.0
 11
6.423333333333333
 21
16.90147870841492
 31
0.0
 12
6.09
 22
14.90147870841492
 32
0.0
 13
6.09
 23
14.90147870841492
 33
0.0
  0
MTEXT
  5
2344
330
233B
100
AcDbEntity
  8
文字・寸法線
 62
     0
100
AcDbMText
 10
3.0
 20
14.49147870841492
 30
0.0
 40
3.0
 41
0.0
 46
0.0
 71
     5
 72
     1
  1
\A1;7.2
 73
     1
 44
1.0
  0
POINT
  5
2345
330
233B
100
AcDbEntity
  8
DEFPOINTS
 62
     0
100
AcDbPoint
 10
19.8050141799939
 20
22.06102101425975
 30
0.0
  0
POINT
  5
2346
330
233B
100
AcDbEntity
  8
DEFPOINTS
 62
     0
100
AcDbPoint
 10
19.8050141799939
 20
14.90147870841492
 30
0.0
  0
POINT
  5
2347
330
233B
100
AcDbEntity
  8
DEFPOINTS
 62
     0
100
AcDbPoint
 10
6.09
 20
14.90147870841492
 30
0.0
  0
ENDBLK
  5
2348
330
233B
100
AcDbEntity
  8
0
100
AcDbBlockEnd
  0
BLOCK
  5
234B
330
234A
100
AcDbEntity
  8
0
100
AcDbBlockBegin
  2
*D58
 70
     1
 10
0.0
 20
0.0
 30
0.0
  3
*D58
  1
*D39
  0
LINE
  5
234C
330
234A
100
AcDbEntity
  8
文字・寸法線
 62
     0
370
    -2
100
AcDbLine
 10
19.85430037515023
 20
16.0234553469669
 30
0.0
 11
19.85430037515023
 21
0.0
 31
0.0
  0
LINE
  5
234D
330
234A
100
AcDbEntity
  8
文字・寸法線
 62
     0
370
    -2
100
AcDbLine
 10
87.40180195641739
 20
16.0234553469669
 30
0.0
 11
87.40180195641739
 21
0.0
 31
0.0
  0
LINE
  5
234E
330
234A
100
AcDbEntity
  8
文字・寸法線
 62
     0
370
    -2
100
AcDbLine
 10
21.85430037515023
 20
1.0
 30
0.0
 11
85.40180195641739
 21
1.0
 31
0.0
  0
SOLID
  5
234F
330
234A
100
AcDbEntity
  8
文字・寸法線
 62
     0
100
AcDbTrace
 10
21.85430037515023
 20
1.333333333333333
 30
0.0
 11
21.85430037515023
 21
0.6666666666666667
 31
0.0
 12
19.85430037515023
 22
1.0
 32
0.0
 13
19.85430037515023
 23
1.0
 33
0.0
  0
SOLID
  5
2350
330
234A
100
AcDbEntity
  8
文字・寸法線
 62
     0
100
AcDbTrace
 10
85.40180195641739
 20
0.6666666666666667
 30
0.0
 11
85.40180195641739
 21
1.333333333333333
 31
0.0
 12
87.40180195641739
 22
1.0
 32
0.0
 13
87.40180195641739
 23
1.0
 33
0.0
  0
MTEXT
  5
2351
330
234A
100
AcDbEntity
  8
文字・寸法線
 62
     0
100
AcDbMText
 10
53.62805116578382
 20
2.59
 30
0.0
 40
3.0
 41
0.0
 46
0.0
 71
     5
 72
     1
  1
\A1;%%c67.5
 73
     1
 44
1.0
  0
POINT
  5
2352
330
234A
100
AcDbEntity
  8
DEFPOINTS
 62
     0
100
AcDbPoint
 10
19.85430037515023
 20
17.0234553469669
 30
0.0
  0
POINT
  5
2353
330
234A
100
AcDbEntity
  8
DEFPOINTS
 62
     0
100
AcDbPoint
 10
87.40180195641739
 20
17.0234553469669
 30
0.0
  0
POINT
  5
2354
330
234A
100
AcDbEntity
  8
DEFPOINTS
 62
     0
100
AcDbPoint
 10
87.40180195641739
 20
1.0
 30
0.0
  0
ENDBLK
  5
2355
330
234A
100
AcDbEntity
  8
0
100
AcDbBlockEnd
  0
BLOCK
  5
237B
330
237A
100
AcDbEntity
  8
0
100
AcDbBlockBegin
  2
*D59
 70
     1
 10
0.0
 20
0.0
 30
0.0
  3
*D59
  1
*D59
  0
LINE
  5
237D
330
237A
100
AcDbEntity
  8
文字
 62
     0
370
    -2
100
AcDbLine
 10
67.34540017428424
 20
46.80372915751485
 30
0.0
 11
100.9973587638104
 21
46.80372915751485
 31
0.0
  0
LINE
  5
237E
330
237A
100
AcDbEntity
  8
文字
 62
     0
370
    -2
100
AcDbLine
 10
88.2583946403939
 20
23.80372915751485
 30
0.0
 11
100.9973587638104
 21
23.80372915751485
 31
0.0
  0
LINE
  5
237F
330
237A
100
AcDbEntity
  8
文字
 62
     0
370
    -2
100
AcDbLine
 10
99.74735876381042
 20
44.30372915751485
 30
0.0
 11
99.74735876381042
 21
26.30372915751485
 31
0.0
  0
SOLID
  5
2380
330
237A
100
AcDbEntity
  8
文字
 62
     0
100
AcDbTrace
 10
100.1640254304771
 20
44.30372915751485
 30
0.0
 11
99.33069209714375
 21
44.30372915751485
 31
0.0
 12
99.74735876381042
 22
46.80372915751485
 32
0.0
 13
99.74735876381042
 23
46.80372915751485
 33
0.0
  0
SOLID
  5
2381
330
237A
100
AcDbEntity
  8
文字
 62
     0
100
AcDbTrace
 10
99.33069209714375
 20
26.30372915751485
 30
0.0
 11
100.1640254304771
 21
26.30372915751485
 31
0.0
 12
99.74735876381042
 22
23.80372915751485
 32
0.0
 13
99.74735876381042
 23
23.80372915751485
 33
0.0
  0
MTEXT
  5
2382
330
237A
100
AcDbEntity
  8
文字
 62
     0
100
AcDbMText
 10
97.62235876381042
 20
35.30372915751485
 30
0.0
 40
3.0
 41
0.0
 46
0.0
 71
     5
 72
     1
  1
23
 11
0.0
 21
1.0
 31
0.0
 73
     1
 44
1.0
  0
POINT
  5
2383
330
237A
100
AcDbEntity
  8
DEFPOINTS
 62
     0
100
AcDbPoint
 10
66.72040017428424
 20
46.80372915751485
 30
0.0
  0
POINT
  5
2384
330
237A
100
AcDbEntity
  8
DEFPOINTS
 62
     0
100
AcDbPoint
 10
87.6333946403939
 20
23.80372915751485
 30
0.0
  0
POINT
  5
2385
330
237A
100
AcDbEntity
  8
DEFPOINTS
 62
     0
100
AcDbPoint
 10
99.74735876381042
 20
23.80372915751485
 30
0.0
  0
ENDBLK
  5
237C
330
237A
100
AcDbEntity
  8
0
100
AcDbBlockEnd
  0
BLOCK
  5
2387
330
2386
100
AcDbEntity
  8
0
100
AcDbBlockBegin
  2
*D60
 70
     1
 10
0.0
 20
0.0
 30
0.0
  3
*D60
  1
*D60
  0
LINE
  5
2389
330
2386
100
AcDbEntity
  8
文字・寸法線
 62
     0
370
    -2
100
AcDbLine
 10
22.29714384976031
 20
30.91375786066376
 30
0.0
 11
8.464629669766413
 21
30.91375786066376
 31
0.0
  0
LINE
  5
238A
330
2386
100
AcDbEntity
  8
文字・寸法線
 62
     0
370
    -2
100
AcDbLine
 10
22.29714384976031
 20
23.75421555481893
 30
0.0
 11
8.464629669766413
 21
23.75421555481893
 31
0.0
  0
LINE
  5
238B
330
2386
100
AcDbEntity
  8
文字・寸法線
 62
     0
370
    -2
100
AcDbLine
 10
8.644629669766413
 20
21.75421555481893
 30
0.0
 11
2.554629669766413
 21
21.75421555481893
 31
0.0
  0
LINE
  5
238C
330
2386
100
AcDbEntity
  8
文字・寸法線
 62
     0
370
    -2
100
AcDbLine
 10
8.644629669766413
 20
28.91375786066376
 30
0.0
 11
8.644629669766413
 21
25.75421555481893
 31
0.0
  0
LINE
  5
238D
330
2386
100
AcDbEntity
  8
文字・寸法線
 62
     0
370
    -2
100
AcDbLine
 10
8.644629669766413
 20
23.75421555481893
 30
0.0
 11
8.644629669766413
 21
21.75421555481893
 31
0.0
  0
SOLID
  5
238E
330
2386
100
AcDbEntity
  8
文字・寸法線
 62
     0
100
AcDbTrace
 10
8.977963003099747
 20
28.91375786066376
 30
0.0
 11
8.31129633643308
 21
28.91375786066376
 31
0.0
 12
8.644629669766413
 22
30.91375786066376
 32
0.0
 13
8.644629669766413
 23
30.91375786066376
 33
0.0
  0
SOLID
  5
238F
330
2386
100
AcDbEntity
  8
文字・寸法線
 62
     0
100
AcDbTrace
 10
8.31129633643308
 20
25.75421555481893
 30
0.0
 11
8.977963003099747
 21
25.75421555481893
 31
0.0
 12
8.644629669766413
 22
23.75421555481893
 32
0.0
 13
8.644629669766413
 23
23.75421555481893
 33
0.0
  0
MTEXT
  5
2390
330
2386
100
AcDbEntity
  8
文字・寸法線
 62
     0
100
AcDbMText
 10
5.554629669766413
 20
23.34421555481893
 30
0.0
 40
3.0
 41
0.0
 46
0.0
 71
     5
 72
     1
  1
\A1;7.2
 73
     1
 44
1.0
  0
POINT
  5
2391
330
2386
100
AcDbEntity
  8
DEFPOINTS
 62
     0
100
AcDbPoint
 10
22.35964384976031
 20
30.91375786066376
 30
0.0
  0
POINT
  5
2392
330
2386
100
AcDbEntity
  8
DEFPOINTS
 62
     0
100
AcDbPoint
 10
22.35964384976031
 20
23.75421555481893
 30
0.0
  0
POINT
  5
2393
330
2386
100
AcDbEntity
  8
DEFPOINTS
 62
     0
100
AcDbPoint
 10
8.644629669766413
 20
23.75421555481893
 30
0.0
  0
ENDBLK
  5
2388
330
2386
100
AcDbEntity
  8
0
100
AcDbBlockEnd
  0
BLOCK
  5
2395
330
2394
100
AcDbEntity
  8
0
100
AcDbBlockBegin
  2
*D61
 70
     1
 10
0.0
 20
0.0
 30
0.0
  3
*D61
  1
*D61
  0
LINE
  5
2397
330
2394
100
AcDbEntity
  8
文字・寸法線
 62
     0
370
    -2
100
AcDbLine
 10
22.40893004491664
 20
24.8761921933709
 30
0.0
 11
22.40893004491664
 21
8.852736846404007
 31
0.0
  0
LINE
  5
2398
330
2394
100
AcDbEntity
  8
文字・寸法線
 62
     0
370
    -2
100
AcDbLine
 10
89.9564316261838
 20
24.8761921933709
 30
0.0
 11
89.9564316261838
 21
8.852736846404007
 31
0.0
  0
LINE
  5
2399
330
2394
100
AcDbEntity
  8
文字・寸法線
 62
     0
370
    -2
100
AcDbLine
 10
24.40893004491664
 20
9.852736846404007
 30
0.0
 11
87.9564316261838
 21
9.852736846404007
 31
0.0
  0
SOLID
  5
239A
330
2394
100
AcDbEntity
  8
文字・寸法線
 62
     0
100
AcDbTrace
 10
24.40893004491664
 20
10.18607017973734
 30
0.0
 11
24.40893004491664
 21
9.519403513070673
 31
0.0
 12
22.40893004491664
 22
9.852736846404007
 32
0.0
 13
22.40893004491664
 23
9.852736846404007
 33
0.0
  0
SOLID
  5
239B
330
2394
100
AcDbEntity
  8
文字・寸法線
 62
     0
100
AcDbTrace
 10
87.9564316261838
 20
9.519403513070673
 30
0.0
 11
87.9564316261838
 21
10.18607017973734
 31
0.0
 12
89.9564316261838
 22
9.852736846404007
 32
0.0
 13
89.9564316261838
 23
9.852736846404007
 33
0.0
  0
MTEXT
  5
239C
330
2394
100
AcDbEntity
  8
文字・寸法線
 62
     0
100
AcDbMText
 10
56.18268083555023
 20
11.44273684640401
 30
0.0
 40
3.0
 41
0.0
 46
0.0
 71
     5
 72
     1
  1
\A1;%%c67.5
 73
     1
 44
1.0
  0
POINT
  5
239D
330
2394
100
AcDbEntity
  8
DEFPOINTS
 62
     0
100
AcDbPoint
 10
22.40893004491664
 20
25.8761921933709
 30
0.0
  0
POINT
  5
239E
330
2394
100
AcDbEntity
  8
DEFPOINTS
 62
     0
100
AcDbPoint
 10
89.9564316261838
 20
25.8761921933709
 30
0.0
  0
POINT
  5
239F
330
2394
100
AcDbEntity
  8
DEFPOINTS
 62
     0
100
AcDbPoint
 10
89.9564316261838
 20
9.852736846404007
 30
0.0
  0
ENDBLK
  5
2396
330
2394
100
AcDbEntity
  8
0
100
AcDbBlockEnd
  0
ENDSEC
  0
SECTION
  2
ENTITIES
  0
MTEXT
  5
B75
330
21
100
AcDbEntity
  8
中心線
100
AcDbMText
 10
112.831139206696
 20
180.2175614817369
 30
0.0
 40
2.5
 41
0.0
 46
0.0
 71
     7
 72
     1
  1

 73
     1
 44
1.0
  0
DIMENSION
  5
1B5D
330
21
100
AcDbEntity
  8
文字
100
AcDbDimension
280
     0
  2
*D24
 10
99.7877590782989
 20
54.80921428221284
 30
0.0
 11
97.6627590782989
 21
50.80921428221284
 31
0.0
 70
    32
  1
8
 71
     5
 42
-1.0
 73
     0
 74
     0
 75
     0
  3
ISO-25
100
AcDbAlignedDimension
 13
66.78886327922032
 23
46.80921428221284
 33
0.0
 14
67.12782875958942
 24
54.80921428221284
 34
0.0
 50
90.0
100
AcDbRotatedDimension
1001
ACAD
1000
DSTYLE
1002
{
1070
   140
1040
3.0
1070
    77
1070
     1
1070
   280
1070
     0
1002
}
  0
ARC
  5
1B64
330
21
100
AcDbEntity
  8
実線
100
AcDbCircle
 10
56.17782875958942
 20
67.41122697271965
 30
0.0
 40
20.60203494178584
100
AcDbArc
 50
253.2134882526869
 51
286.7865117473133
  0
LINE
  5
1B65
330
21
100
AcDbEntity
  8
実線
100
AcDbLine
 10
48.71126001858075
 20
46.80921428221284
 30
0.0
 11
63.58383867757495
 21
46.80921428221284
 31
0.0
  0
LINE
  5
1B69
330
21
100
AcDbEntity
  8
実線
100
AcDbLine
 10
45.2278287595894
 20
48.68709597177148
 30
0.0
 11
45.2278287595894
 21
47.68709597177148
 31
0.0
  0
LINE
  5
1B6A
330
21
100
AcDbEntity
  8
実線
100
AcDbLine
 10
67.12782875958939
 20
48.68709597177148
 30
0.0
 11
67.1278287595894
 21
47.68709597177148
 31
0.0
  0
LINE
  5
1B6B
330
21
100
AcDbEntity
  8
実線
100
AcDbLine
 10
67.1278287595894
 20
47.68709597177148
 30
0.0
 11
67.12782875958939
 21
48.68709597177148
 31
0.0
  0
ARC
  5
1B6C
330
21
100
AcDbEntity
  8
実線
100
AcDbCircle
 10
64.62782875958939
 20
50.80760150717479
 30
0.0
 40
3.998444046936609
100
AcDbArc
 50
231.2999591855179
 51
308.7000408144821
  0
ARC
  5
1B6D
330
21
100
AcDbEntity
  8
実線
100
AcDbCircle
 10
47.72782875958941
 20
50.80785884565257
 30
0.0
 40
3.998644884832185
100
AcDbArc
 50
231.3022646769323
 51
308.6977353230674
  0
LINE
  5
1B6E
330
21
100
AcDbEntity
  8
実線
100
AcDbLine
 10
50.2278287595894
 20
54.80921428221284
 30
0.0
 11
50.2278287595894
 21
47.68709597177148
 31
0.0
  0
LINE
  5
1B6F
330
21
100
AcDbEntity
  8
実線
100
AcDbLine
 10
62.12782875958939
 20
54.80921428221284
 30
0.0
 11
62.12782875958939
 21
47.68709597177146
 31
0.0
  0
LWPOLYLINE
  5
1B70
330
21
100
AcDbEntity
  8
実線
100
AcDbPolyline
 90
        4
 70
     0
 43
0.0
 10
67.12782875958939
 20
48.68709597177148
 10
67.12782875958939
 20
54.80921428221284
 10
45.2278287595894
 20
54.80921428221284
 10
45.2278287595894
 20
48.68709597177148
  0
MTEXT
  5
2071
330
21
100
AcDbEntity
  8
文字・寸法線
 62
     0
100
AcDbMText
 10
49.03784329662297
 20
190.46117020276
 30
0.0
 40
6.0
 41
0.0
 46
6.0
 71
     9
 72
     1
  1
{\fＭＳ ゴシック|b0|i0|c0|p0;S-A33 M12X100}
 73
     1
 44
1.0
1001
ACAD
1000
ACAD_MTEXT_DEFINED_HEIGHT_BEGIN
1070
    46
1040
6.0
1000
ACAD_MTEXT_DEFINED_HEIGHT_END
  0
LINE
  5
20DC
330
21
100
AcDbEntity
  8
実線
370
    15
100
AcDbLine
 10
60.14276957135957
 20
154.6939576603152
 30
0.0
 11
60.14276957135957
 21
63.38213589115743
 31
0.0
  0
LINE
  5
20DD
330
21
100
AcDbEntity
  8
実線
370
    15
100
AcDbLine
 10
52.14276957135954
 20
154.6939576603152
 30
0.0
 11
52.14276957135954
 21
63.38213589115743
 31
0.0
  0
LINE
  5
20DE
330
21
100
AcDbEntity
  8
実線
370
    20
100
AcDbLine
 10
50.14276957135954
 20
152.6939576603152
 30
0.0
 11
62.14276957135954
 21
152.6939576603152
 31
0.0
  0
LINE
  5
20E0
330
21
100
AcDbEntity
  8
中心線
100
AcDbLine
 10
56.14276957135956
 20
20.77006987257292
 30
0.0
 11
56.14276957135959
 21
159.9093400828
 31
0.0
  0
LWPOLYLINE
  5
20E1
330
21
100
AcDbEntity
  8
実線
100
AcDbPolyline
 90
        2
 70
     0
 43
0.0
 10
62.14276957135956
 20
54.69395766031521
 10
62.14276957135956
 20
63.38213589115743
  0
LWPOLYLINE
  5
20E2
330
21
100
AcDbEntity
  8
実線
100
AcDbPolyline
 90
        6
 70
     0
 43
0.0
 10
62.14276957135956
 20
63.38213589115743
 10
62.14276957135957
 20
152.6939576603152
 10
60.14276957135957
 20
154.6939576603152
 10
52.14276957135954
 20
154.6939576603152
 10
50.14276957135954
 20
152.6939576603152
 10
50.14276957135956
 20
63.38213589115743
  0
LWPOLYLINE
  5
20E3
330
21
100
AcDbEntity
  8
実線
100
AcDbPolyline
 90
        2
 70
     0
 43
0.0
 10
50.14276957135956
 20
63.38213589115743
 10
50.14276957135956
 20
54.69395766031521
  0
LINE
  5
20E4
330
21
100
AcDbEntity
  8
実線
370
    15
100
AcDbLine
 10
60.14276957135957
 20
63.38213589115743
 30
0.0
 11
60.14276957135957
 21
54.69395766031522
 31
0.0
  0
LINE
  5
20E5
330
21
100
AcDbEntity
  8
実線
370
    15
100
AcDbLine
 10
52.14276957135954
 20
63.38213589115743
 30
0.0
 11
52.14276957135954
 21
54.69395766031522
 31
0.0
  0
DIMENSION
  5
214E
102
{ACAD_XDICTIONARY
360
214F
102
}
330
21
100
AcDbEntity
  8
文字
100
AcDbDimension
280
     0
  2
*D39
 10
99.80747966678598
 20
54.80921428221284
 30
0.0
 11
97.93247966678598
 21
104.8092142822128
 31
0.0
 70
    32
 71
     5
 42
99.99999999999994
 73
     0
 74
     0
 75
     0
  3
ISO-25
100
AcDbAlignedDimension
 13
62.2278287595894
 23
154.8092142822128
 33
0.0
 14
67.14754934807647
 24
54.80921428221284
 34
0.0
 50
90.0
100
AcDbRotatedDimension
1001
ACAD
1000
DSTYLE
1002
{
1070
    77
1070
     1
1070
   280
1070
     0
1002
}
  0
DIMENSION
  5
2151
330
21
100
AcDbEntity
  8
文字
100
AcDbDimension
280
     0
  2
*D40
 10
62.2278287595894
 20
165.3204027489815
 30
0.0
 11
56.2278287595894
 21
167.1954027489815
 31
0.0
 70
    32
  1
M<>
 71
     5
 42
12.0
 73
     0
 74
     0
 75
     0
  3
ISO-25
100
AcDbAlignedDimension
 13
50.2278287595894
 23
152.1842142822128
 33
0.0
 14
62.2278287595894
 24
152.1842142822128
 34
0.0
100
AcDbRotatedDimension
1001
ACAD
1000
DSTYLE
1002
{
1070
    77
1070
     1
1070
   280
1070
     0
1002
}
  0
LINE
  5
22CD
330
21
100
AcDbEntity
  8
中心線
100
AcDbLine
 10
156.5941550430219
 20
75.94087960540946
 30
0.0
 11
201.0540424567871
 21
75.94087960540946
 31
0.0
  0
LINE
  5
22CE
330
21
100
AcDbEntity
  8
中心線
100
AcDbLine
 10
156.5941550430219
 20
75.94087960540946
 30
0.0
 11
114.0678538585769
 21
75.94087960540946
 31
0.0
  0
DIMENSION
  5
22CF
330
21
100
AcDbEntity
  8
文字
100
AcDbDimension
280
     0
  2
*D53
 10
166.0771332144616
 20
33.2774113503686
 30
0.0
 11
156.594155043022
 21
35.4024113503686
 31
0.0
 70
    32
  1
19
 71
     5
 42
18.9659563428792
 73
     0
 74
     0
 75
     0
  3
ISO-25
100
AcDbAlignedDimension
 13
147.1111768715824
 23
70.46587960540947
 33
0.0
 14
166.0771332144616
 24
70.46587960540947
 34
0.0
100
AcDbRotatedDimension
1001
ACAD
1000
DSTYLE
1002
{
1070
   280
1070
     0
1070
    77
1070
     1
1070
   140
1040
3.0
1002
}
  0
LINE
  5
22D0
330
21
100
AcDbEntity
  8
中心線
100
AcDbLine
 10
156.5941550430219
 20
75.94087960540946
 30
0.0
 11
156.5941550430219
 21
39.53052279384218
 31
0.0
  0
LINE
  5
22D1
330
21
100
AcDbEntity
  8
中心線
100
AcDbLine
 10
156.5941550430219
 20
75.94087960540946
 30
0.0
 11
156.5941550430219
 21
118.7082062799378
 31
0.0
  0
CIRCLE
  5
22D2
330
21
100
AcDbEntity
  8
実線
100
AcDbCircle
 10
156.5941550430219
 20
75.94087960540946
 30
0.0
 40
5.15
  0
CIRCLE
  5
22D3
330
21
100
AcDbEntity
  8
実線
100
AcDbCircle
 10
156.5941550430219
 20
75.94087960540946
 30
0.0
 40
6.0
  0
LWPOLYLINE
  5
22D4
330
21
100
AcDbEntity
  8
実線
100
AcDbPolyline
 90
        6
 70
     1
 43
0.0
 10
147.1111768715824
 20
70.46587960540947
 10
156.5941550430219
 20
64.99087960540948
 10
166.0771332144616
 20
70.46587960540947
 10
166.0771332144616
 20
81.41587960540946
 10
156.594155043022
 20
86.89087960540945
 10
147.1111768715824
 20
81.41587960540949
  0
CIRCLE
  5
22D5
330
21
100
AcDbEntity
  8
実線
100
AcDbCircle
 10
156.5941550430219
 20
75.94087960540946
 30
0.0
 40
23.0
  0
DIMENSION
  5
22D6
330
21
100
AcDbEntity
  8
文字・寸法線
 62
     0
100
AcDbDimension
280
     0
  2
*D54
 10
179.5941550430219
 20
12.31410201861573
 30
0.0
 11
156.5941550430219
 21
13.90410201861573
 31
0.0
 70
    32
  1
%%c<>
 71
     5
 42
46.0
 73
     0
 74
     0
 75
     0
  3
STANDARD
100
AcDbAlignedDimension
 13
133.5941550430219
 23
75.94087960540946
 33
0.0
 14
179.5941550430219
 24
75.94087960540946
 34
0.0
100
AcDbRotatedDimension
1001
ACAD
1000
DSTYLE
1002
{
1070
   280
1070
     0
1070
    77
1070
     1
1070
    41
1040
2.0
1070
    44
1040
1.0
1070
    42
1040
1.0
1070
   271
1070
     1
1070
   140
1040
3.0
1002
}
  0
CIRCLE
  5
22D7
330
21
100
AcDbEntity
  8
文字・寸法線
 62
     0
 48
0.5
100
AcDbCircle
 10
156.4275293862675
 20
75.67955394489124
 30
0.0
 40
33.77375079063361
  0
ARC
  5
22D8
330
21
100
AcDbEntity
  8
実線
 48
0.5
370
    25
100
AcDbCircle
 10
156.3304898347581
 20
75.81396460564955
 30
0.0
 40
30.75
100
AcDbArc
 50
192.6025117169466
 51
257.3974882830431
  0
ARC
  5
22D9
330
21
100
AcDbEntity
  8
実線
 48
0.5
370
    25
100
AcDbCircle
 10
125.5804898347581
 20
75.81396460564955
 30
0.0
 40
6.75
100
AcDbArc
 50
276.3012558584704
 51
83.69874414152967
  0
ARC
  5
22DA
330
21
100
AcDbEntity
  8
実線
 48
0.5
370
    25
100
AcDbCircle
 10
156.3304898347585
 20
75.81396460564915
 30
0.0
 40
30.75000000000045
100
AcDbArc
 50
102.6025117169466
 51
167.3974882830534
  0
ARC
  5
22DB
330
21
100
AcDbEntity
  8
実線
 48
0.5
370
    25
100
AcDbCircle
 10
156.3304898347581
 20
106.5639646056495
 30
0.0
 40
6.75
100
AcDbArc
 50
186.3012558584837
 51
353.6987441415163
  0
ARC
  5
22DC
330
21
100
AcDbEntity
  8
実線
 48
0.5
370
    25
100
AcDbCircle
 10
156.3304898347576
 20
75.81396460564915
 30
0.0
 40
30.75000000000045
100
AcDbArc
 50
12.60251171694661
 51
77.39748828305336
  0
ARC
  5
22DD
330
21
100
AcDbEntity
  8
実線
 48
0.5
370
    25
100
AcDbCircle
 10
187.0804898347581
 20
75.81396460564955
 30
0.0
 40
6.75
100
AcDbArc
 50
96.30125585847034
 51
263.6987441415296
  0
ARC
  5
22DE
330
21
100
AcDbEntity
  8
実線
 48
0.5
370
    25
100
AcDbCircle
 10
156.3304898347581
 20
75.81396460564955
 30
0.0
 40
30.75
100
AcDbArc
 50
282.6025117169568
 51
347.3974882830534
  0
ARC
  5
22DF
330
21
100
AcDbEntity
  8
実線
 48
0.5
370
    25
100
AcDbCircle
 10
156.3304898347581
 20
45.06396460564959
 30
0.0
 40
6.75
100
AcDbArc
 50
6.301255858483869
 51
173.6987441415162
  0
DIMENSION
  5
2362
330
21
100
AcDbEntity
  8
文字
100
AcDbDimension
280
     0
  2
*D59
 10
99.74735876381042
 20
23.80372915751485
 30
0.0
 11
97.62235876381042
 21
35.30372915751485
 31
0.0
 70
    32
  1
<>
 71
     5
 42
23.0
 73
     0
 74
     0
 75
     0
  3
ISO-25
100
AcDbAlignedDimension
 13
66.72040017428424
 23
46.80372915751485
 33
0.0
 14
87.6333946403939
 24
23.80372915751485
 34
0.0
 50
90.0
100
AcDbRotatedDimension
1001
ACAD
1000
DSTYLE
1002
{
1070
   140
1040
3.0
1070
   280
1070
     0
1070
    77
1070
     1
1002
}
  0
LINE
  5
2363
330
21
100
AcDbEntity
  8
文字・寸法線
 62
     0
100
AcDbLine
 10
80.95506690820896
 20
23.81257328408831
 30
0.0
 11
82.98963020884945
 21
23.81257328408831
 31
0.0
  0
LINE
  5
2364
330
21
100
AcDbEntity
  8
文字・寸法線
 62
     0
100
AcDbLine
 10
84.61728084936196
 20
23.81257328408831
 30
0.0
 11
89.90714543102744
 21
23.81257328408831
 31
0.0
  0
LINE
  5
2365
330
21
100
AcDbEntity
  8
文字・寸法線
 62
     0
100
AcDbLine
 10
32.93937301309133
 20
23.81257328408831
 30
0.0
 11
79.32741626769645
 21
23.81257328408831
 31
0.0
  0
LINE
  5
2366
330
21
100
AcDbEntity
  8
文字・寸法線
 62
     0
100
AcDbLine
 10
29.27715907193826
 20
23.81257328408831
 30
0.0
 11
31.31172237257885
 21
23.81257328408831
 31
0.0
  0
ARC
  5
2367
330
21
100
AcDbEntity
  8
文字・寸法線
 62
     0
 48
0.5
100
AcDbCircle
 10
32.12554769283506
 20
23.81257328408831
 30
0.0
 40
0.8138253202562314
100
AcDbArc
 50
180.0
 51
0.0
  0
ARC
  5
2368
330
21
100
AcDbEntity
  8
文字・寸法線
 62
     0
 48
0.5
100
AcDbCircle
 10
28.46333375168206
 20
23.81257328408831
 30
0.0
 40
0.8138253202562314
100
AcDbArc
 50
180.0
 51
0.0
  0
ARC
  5
2369
330
21
100
AcDbEntity
  8
文字・寸法線
 62
     0
 48
0.5
100
AcDbCircle
 10
83.80345552910565
 20
23.81257328408831
 30
0.0
 40
0.8138253202562314
100
AcDbArc
 50
180.0
 51
0.0
  0
ARC
  5
236A
330
21
100
AcDbEntity
  8
文字・寸法線
 62
     0
 48
0.5
100
AcDbCircle
 10
80.14124158795285
 20
23.81257328408831
 30
0.0
 40
0.8138253202562314
100
AcDbArc
 50
180.0
 51
0.0
  0
LINE
  5
236B
330
21
100
AcDbEntity
  8
文字・寸法線
 62
     0
100
AcDbLine
 10
22.35964384976034
 20
23.81257328408831
 30
0.0
 11
27.64950843142586
 21
23.81257328408831
 31
0.0
  0
LINE
  5
236C
330
21
100
AcDbEntity
  8
文字・寸法線
 62
     0
 48
0.5
100
AcDbLine
 10
56.13339464039389
 20
21.20501262776835
 30
0.0
 11
56.13339464039389
 21
34.007214739722
 31
0.0
  0
LINE
  5
236D
330
21
100
AcDbEntity
  8
文字・寸法線
 62
     0
100
AcDbLine
 10
89.90714543102739
 20
30.91375786066376
 30
0.0
 11
22.35964384976031
 21
30.91375786066376
 31
0.0
  0
LINE
  5
236E
330
21
100
AcDbEntity
  8
文字・寸法線
 62
     0
100
AcDbLine
 10
22.35964384976034
 20
23.81257328408831
 30
0.0
 11
22.35964384976031
 21
30.91375786066376
 31
0.0
  0
LINE
  5
236F
330
21
100
AcDbEntity
  8
文字・寸法線
 62
     0
100
AcDbLine
 10
89.90714543102744
 20
23.81257328408831
 30
0.0
 11
89.90714543102739
 21
30.91375786066376
 31
0.0
  0
DIMENSION
  5
2370
330
21
100
AcDbEntity
  8
文字・寸法線
 62
     0
100
AcDbDimension
280
     0
  2
*D60
 10
8.644629669766413
 20
23.75421555481893
 30
0.0
 11
5.554629669766413
 21
23.34421555481893
 31
0.0
 70
    32
 71
     5
 42
7.15954230584483
 73
     0
 74
     0
 75
     0
  3
STANDARD
100
AcDbAlignedDimension
 13
22.35964384976031
 23
30.91375786066376
 33
0.0
 14
22.35964384976031
 24
23.75421555481893
 34
0.0
 50
90.0
100
AcDbRotatedDimension
1001
ACAD
1000
DSTYLE
1002
{
1070
     7
1000

1070
     6
1000

1070
     5
1000

1070
    41
1040
2.0
1070
   173
1070
     1
1070
   280
1070
     0
1070
   290
1070
     0
1070
    77
1070
     1
1070
   271
1070
     1
1070
   140
1040
3.0
1002
}
  0
DIMENSION
  5
2371
330
21
100
AcDbEntity
  8
文字・寸法線
 62
     0
100
AcDbDimension
280
     0
  2
*D61
 10
89.9564316261838
 20
9.852736846404007
 30
0.0
 11
56.18268083555023
 21
9.852736846404007
 31
0.0
 70
   160
  1
%%c<>
 71
     5
 42
67.54750158126716
 73
     0
 74
     0
 75
     0
  3
STANDARD
100
AcDbAlignedDimension
 13
22.40893004491664
 23
25.8761921933709
 33
0.0
 14
89.9564316261838
 24
25.8761921933709
 34
0.0
100
AcDbRotatedDimension
1001
ACAD
1000
DSTYLE
1002
{
1070
   280
1070
     4
1070
    77
1070
     1
1070
    41
1040
2.0
1070
    44
1040
1.0
1070
    42
1040
1.0
1070
   271
1070
     1
1070
   140
1040
3.0
1002
}
  0
ARC
  5
2372
330
21
100
AcDbEntity
  8
実線
100
AcDbCircle
 10
51.02271516292762
 20
29.52407153440066
 30
0.0
 40
17.51343622955946
100
AcDbArc
 50
97.69357013942727
 51
175.4488111758112
  0
ARC
  5
2373
330
21
100
AcDbEntity
  8
実線
100
AcDbCircle
 10
61.25950931041757
 20
29.45547197344535
 30
0.0
 40
17.5891183150202
100
AcDbArc
 50
4.755761167622913
 51
82.76899701605309
  0
LINE
  5
2374
330
21
100
AcDbEntity
  8
文字
100
AcDbLine
 10
27.64950843142583
 20
23.81257328408831
 30
0.0
 11
29.27715907193826
 21
23.81257328408831
 31
0.0
  0
LINE
  5
2375
330
21
100
AcDbEntity
  8
文字
100
AcDbLine
 10
29.27715907193826
 20
23.81257328408831
 30
0.0
 11
31.31172237257885
 21
23.81257328408831
 31
0.0
  0
LINE
  5
2376
330
21
100
AcDbEntity
  8
文字
100
AcDbLine
 10
31.31172237257885
 20
23.81257328408831
 30
0.0
 11
32.93937301309133
 21
23.81257328408831
 31
0.0
  0
LINE
  5
2377
330
21
100
AcDbEntity
  8
文字
100
AcDbLine
 10
79.32741626769645
 20
23.81257328408831
 30
0.0
 11
80.95506690820896
 21
23.81257328408831
 31
0.0
  0
LINE
  5
2378
330
21
100
AcDbEntity
  8
文字
100
AcDbLine
 10
80.95506690820896
 20
23.81257328408831
 30
0.0
 11
82.98963020884942
 21
23.81257328408831
 31
0.0
  0
LINE
  5
2379
330
21
100
AcDbEntity
  8
文字
100
AcDbLine
 10
82.98963020884942
 20
23.81257328408831
 30
0.0
 11
84.61728084936196
 21
23.81257328408831
 31
0.0
  0
VIEWPORT
  5
1D8B
330
1D87
100
AcDbEntity
 67
     1
  8
0
100
AcDbViewport
 10
203.7291666666666
 20
142.1694444444444
 30
0.0
 40
488.9499999999999
 41
341.2066666666665
 68
     1
 69
     1
 12
203.7291666666666
 22
142.1694444444444
 13
0.0
 23
0.0
 14
0.5
 24
0.5
 15
0.0
 25
0.0
 16
0.0
 26
0.0
 36
1.0
 17
0.0
 27
0.0
 37
0.0
 42
50.0
 43
0.0
 44
0.0
 45
341.2066666666665
 50
0.0
 51
0.0
 72
   100
 90
   557152
  1

281
     0
 71
     1
 74
     0
110
0.0
120
0.0
130
0.0
111
1.0
121
0.0
131
0.0
112
0.0
122
1.0
132
0.0
 79
     0
146
0.0
170
     0
 61
     5
348
1FEA
292
     1
282
     1
141
0.0
142
0.0
 63
   256
  0
VIEWPORT
  5
1D8C
330
1D87
100
AcDbEntity
 67
     1
  8
0
100
AcDbViewport
 10
203.7291666666666
 20
142.1694444444444
 30
0.0
 40
325.9666666666666
 41
227.471111111111
 68
     2
 69
     2
 12
113.8617520992674
 22
61.81007818608555
 13
0.0
 23
0.0
 14
0.5
 24
0.5
 15
0.0
 25
0.0
 16
0.0
 26
0.0
 36
1.0
 17
0.0
 27
0.0
 37
0.0
 42
50.0
 43
0.0
 44
0.0
 45
147.2281649100562
 50
0.0
 51
0.0
 72
   100
 90
   557152
  1

281
     0
 71
     1
 74
     0
110
0.0
120
0.0
130
0.0
111
1.0
121
0.0
131
0.0
112
0.0
122
1.0
132
0.0
 79
     0
146
0.0
170
     0
 61
     5
348
1FEA
292
     1
282
     1
141
0.0
142
0.0
 63
   256
  0
ENDSEC
  0
SECTION
  2
OBJECTS
  0
DICTIONARY
  5
C
330
0
100
AcDbDictionary
281
     1
  3
ACAD_COLOR
350
2022
  3
ACAD_DETAILVIEWSTYLE
350
1D96
  3
ACAD_GROUP
350
D
  3
ACAD_IMAGE_VARS
350
1D86
  3
ACAD_LAYOUT
350
1FE2
  3
ACAD_MATERIAL
350
1FFE
  3
ACAD_MLEADERSTYLE
350
200A
  3
ACAD_MLINESTYLE
350
17
  3
ACAD_PLOTSETTINGS
350
2019
  3
ACAD_PLOTSTYLENAME
350
201A
  3
ACAD_SCALELIST
350
1FC0
  3
ACAD_SECTIONVIEWSTYLE
350
1D97
  3
ACAD_TABLESTYLE
350
2002
  3
ACAD_VISUALSTYLE
350
1FE5
  3
ACADDIM
350
1271
  3
ACDB_RECOMPOSE_DATA
350
23A2
  3
ACDBVARIABLEDICTIONARY
350
13CA
  3
APPDATA
350
1D84
  0
SUN
  5
2004
330
1D37
100
AcDbSun
 90
        1
290
     0
 63
     7
421
 16777215
 40
1.0
291
     1
 91
  2455826
 92
 54000000
292
     0
 70
     2
 71
   256
280
     1
  0
DICTIONARY
  5
214F
330
214E
100
AcDbDictionary
280
     1
281
     1
  0
DICTIONARY
  5
2022
102
{ACAD_REACTORS
330
C
102
}
330
C
100
AcDbDictionary
281
     1
  0
DICTIONARY
  5
1D96
102
{ACAD_REACTORS
330
C
102
}
330
C
100
AcDbDictionary
281
     1
  0
DICTIONARY
  5
D
102
{ACAD_REACTORS
330
C
102
}
330
C
100
AcDbDictionary
281
     1
  0
RASTERVARIABLES
  5
1D86
102
{ACAD_REACTORS
330
C
102
}
330
C
100
AcDbRasterVariables
 90
        0
 70
     1
 71
     1
 72
     1
  0
DICTIONARY
  5
1FE2
102
{ACAD_REACTORS
330
C
102
}
330
C
100
AcDbDictionary
281
     1
  3
Model
350
1FE3
  3
シート 1
350
1FE4
  0
DICTIONARY
  5
1FFE
102
{ACAD_REACTORS
330
C
102
}
330
C
100
AcDbDictionary
281
     1
  3
ByBlock
350
2000
  3
ByLayer
350
1FFF
  3
Global
350
2001
  0
DICTIONARY
  5
200A
102
{ACAD_REACTORS
330
C
102
}
330
C
100
AcDbDictionary
281
     1
  0
DICTIONARY
  5
17
102
{ACAD_REACTORS
330
C
102
}
330
C
100
AcDbDictionary
281
     1
  3
STANDARD
350
18
  0
DICTIONARY
  5
2019
102
{ACAD_REACTORS
330
C
102
}
330
C
100
AcDbDictionary
281
     1
  0
ACDBDICTIONARYWDFLT
  5
201A
102
{ACAD_REACTORS
330
C
102
}
330
C
100
AcDbDictionary
281
     1
  3
Normal
350
201B
100
AcDbDictionaryWithDefault
340
201B
  0
DICTIONARY
  5
1FC0
102
{ACAD_REACTORS
330
C
102
}
330
C
100
AcDbDictionary
281
     1
  3
A0
350
1FC1
  3
A1
350
1FC2
  3
A2
350
1FC3
  3
A3
350
1FC4
  3
A4
350
1FC5
  3
A5
350
1FC6
  3
A6
350
1FC7
  3
A7
350
1FC8
  3
A8
350
1FC9
  3
A9
350
1FCA
  3
B0
350
1FCB
  3
B1
350
1FCC
  3
B2
350
1FCD
  3
B3
350
1FCE
  3
B4
350
1FCF
  3
B5
350
1FD0
  3
B6
350
1FD1
  3
B7
350
1FD2
  3
B8
350
1FD3
  3
B9
350
1FD4
  3
C0
350
1FD5
  3
C1
350
1FD6
  3
C2
350
1FD7
  3
C3
350
1FD8
  3
C4
350
1FD9
  3
C5
350
1FDA
  3
C6
350
1FDB
  3
C7
350
1FDC
  3
C8
350
1FDD
  3
C9
350
1FDE
  3
D0
350
1FDF
  3
D1
350
1FE0
  3
D2
350
1FE1
  0
DICTIONARY
  5
1D97
102
{ACAD_REACTORS
330
C
102
}
330
C
100
AcDbDictionary
281
     1
  0
DICTIONARY
  5
2002
102
{ACAD_REACTORS
330
C
102
}
330
C
100
AcDbDictionary
281
     1
  3
Standard
350
2003
  0
DICTIONARY
  5
1FE5
102
{ACAD_REACTORS
330
C
102
}
330
C
100
AcDbDictionary
281
     1
  3
2dWireframe
350
1FEA
  3
Basic
350
1FED
  3
Brighten
350
1FF1
  3
ColorChange
350
1FF5
  3
Conceptual
350
1FEF
  3
Dim
350
1FF0
  3
EdgeColorOff
350
1FF8
  3
Facepattern
350
1FF4
  3
Flat
350
1FE6
  3
FlatWithEdges
350
1FE7
  3
Gouraud
350
1FE8
  3
GouraudWithEdges
350
1FE9
  3
Hidden
350
1FEC
  3
JitterOff
350
1FF6
  3
Linepattern
350
1FF3
  3
OverhangOff
350
1FF7
  3
Realistic
350
1FEE
  3
Shaded
350
1FFD
  3
Shaded with edges
350
1FFC
  3
Shades of Gray
350
1FF9
  3
Sketchy
350
1FFA
  3
Thicken
350
1FF2
  3
Wireframe
350
1FEB
  3
X-Ray
350
1FFB
  0
XRECORD
  5
1271
102
{ACAD_REACTORS
330
C
102
}
330
C
100
AcDbXrecord
280
     1
 90
   990106
  3

 60
     0
 61
     0
 62
     4
 63
     4
 64
     1
 65
     0
 66
     0
 67
     3
 68
     1
 69
     0
 70
     0
 71
     0
 72
     0
 40
0.0
170
     2
340
0
  0
XRECORD
  5
23A2
102
{ACAD_REACTORS
330
C
102
}
330
C
100
AcDbXrecord
280
     1
 90
        1
330
2003
  0
DICTIONARY
  5
13CA
102
{ACAD_REACTORS
330
C
102
}
330
C
100
AcDbDictionary
281
     1
  3
CANNOSCALE
350
2005
  3
CTABLESTYLE
350
2009
  3
DIMASSOC
350
13CC
  3
HIDETEXT
350
13CB
  3
MSLTSCALE
350
200B
  3
PROJECTNAME
350
13CD
  0
DICTIONARY
  5
1D84
102
{ACAD_REACTORS
330
C
102
}
330
C
100
AcDbDictionary
281
     1
  0
LAYOUT
  5
1FE3
102
{ACAD_REACTORS
330
1FE2
102
}
330
1FE2
100
AcDbPlotSettings
  1

  2
none_device
  4
Letter_(8.50_x_11.00_Inches)
  6

 40
6.35
 41
6.35
 42
6.35
 43
6.35
 44
215.9
 45
279.4
 46
0.0
 47
0.0
 48
0.0
 49
0.0
140
0.0
141
0.0
142
1.0
143
41.21664507546419
 70
  1712
 72
     0
 73
     0
 74
     0
  7

 75
     0
 76
     0
 77
     2
 78
   300
147
0.0242620426327539
148
181.2652976423056
149
1688.690857488993
100
AcDbLayout
  1
Model
 70
     1
 71
     0
 10
0.0
 20
0.0
 11
420.0
 21
297.0
 12
0.0
 22
0.0
 32
0.0
 14
-1.050156703377034
 24
8.852736846404007
 34
0.0
 15
201.0540424567871
 25
196.46117020276
 35
0.0
146
0.0
 13
0.0
 23
0.0
 33
0.0
 16
1.0
 26
0.0
 36
0.0
 17
0.0
 27
1.0
 37
0.0
 76
     0
330
21
331
1D37
  0
LAYOUT
  5
1FE4
102
{ACAD_REACTORS
330
1FE2
102
}
330
1FE2
100
AcDbPlotSettings
  1

  2
none_device
  4

  6

 40
0.0
 41
0.0
 42
0.0
 43
0.0
 44
0.0
 45
0.0
 46
0.0
 47
0.0
 48
0.0
 49
0.0
140
0.0
141
0.0
142
1.0
143
1.0
 70
   688
 72
     1
 73
     0
 74
     5
  7

 75
    16
 76
     0
 77
     2
 78
   300
147
1.0
148
0.0
149
0.0
100
AcDbLayout
  1
シート 1
 70
     1
 71
     1
 10
0.0
 20
0.0
 11
0.0
 21
0.0
 12
0.0
 22
0.0
 32
0.0
 14
0.0
 24
0.0
 34
0.0
 15
0.0
 25
0.0
 35
0.0
146
0.0
 13
0.0
 23
0.0
 33
0.0
 16
1.0
 26
0.0
 36
0.0
 17
0.0
 27
1.0
 37
0.0
 76
     0
330
1D87
331
1D8B
  0
MATERIAL
  5
2000
102
{ACAD_REACTORS
330
1FFE
102
}
330
1FFE
100
AcDbMaterial
  1
ByBlock
 72
     1
 94
      127
  0
MATERIAL
  5
1FFF
102
{ACAD_REACTORS
330
1FFE
102
}
330
1FFE
100
AcDbMaterial
  1
ByLayer
 72
     1
 94
      127
  0
MATERIAL
  5
2001
102
{ACAD_REACTORS
330
1FFE
102
}
330
1FFE
100
AcDbMaterial
  1
Global
 72
     1
 94
      127
  0
MLINESTYLE
  5
18
102
{ACAD_REACTORS
330
17
102
}
330
17
100
AcDbMlineStyle
  2
STANDARD
 70
     0
  3

 62
   256
 51
90.0
 52
90.0
 71
     2
 49
0.5
 62
   256
  6
BYLAYER
 49
-0.5
 62
   256
  6
BYLAYER
  0
ACDBPLACEHOLDER
  5
201B
102
{ACAD_REACTORS
330
201A
102
}
330
201A
  0
SCALE
  5
1FC1
102
{ACAD_REACTORS
330
1FC0
102
}
330
1FC0
100
AcDbScale
 70
     0
300
1:1
140
1.0
141
1.0
290
     1
  0
SCALE
  5
1FC2
102
{ACAD_REACTORS
330
1FC0
102
}
330
1FC0
100
AcDbScale
 70
     0
300
1:2
140
1.0
141
2.0
290
     0
  0
SCALE
  5
1FC3
102
{ACAD_REACTORS
330
1FC0
102
}
330
1FC0
100
AcDbScale
 70
     0
300
1:4
140
1.0
141
4.0
290
     0
  0
SCALE
  5
1FC4
102
{ACAD_REACTORS
330
1FC0
102
}
330
1FC0
100
AcDbScale
 70
     0
300
1:5
140
1.0
141
5.0
290
     0
  0
SCALE
  5
1FC5
102
{ACAD_REACTORS
330
1FC0
102
}
330
1FC0
100
AcDbScale
 70
     0
300
1:8
140
1.0
141
8.0
290
     0
  0
SCALE
  5
1FC6
102
{ACAD_REACTORS
330
1FC0
102
}
330
1FC0
100
AcDbScale
 70
     0
300
1:10
140
1.0
141
10.0
290
     0
  0
SCALE
  5
1FC7
102
{ACAD_REACTORS
330
1FC0
102
}
330
1FC0
100
AcDbScale
 70
     0
300
1:16
140
1.0
141
16.0
290
     0
  0
SCALE
  5
1FC8
102
{ACAD_REACTORS
330
1FC0
102
}
330
1FC0
100
AcDbScale
 70
     0
300
1:20
140
1.0
141
20.0
290
     0
  0
SCALE
  5
1FC9
102
{ACAD_REACTORS
330
1FC0
102
}
330
1FC0
100
AcDbScale
 70
     0
300
1:30
140
1.0
141
30.0
290
     0
  0
SCALE
  5
1FCA
102
{ACAD_REACTORS
330
1FC0
102
}
330
1FC0
100
AcDbScale
 70
     0
300
1:40
140
1.0
141
40.0
290
     0
  0
SCALE
  5
1FCB
102
{ACAD_REACTORS
330
1FC0
102
}
330
1FC0
100
AcDbScale
 70
     0
300
1:50
140
1.0
141
50.0
290
     0
  0
SCALE
  5
1FCC
102
{ACAD_REACTORS
330
1FC0
102
}
330
1FC0
100
AcDbScale
 70
     0
300
1:100
140
1.0
141
100.0
290
     0
  0
SCALE
  5
1FCD
102
{ACAD_REACTORS
330
1FC0
102
}
330
1FC0
100
AcDbScale
 70
     0
300
2:1
140
2.0
141
1.0
290
     0
  0
SCALE
  5
1FCE
102
{ACAD_REACTORS
330
1FC0
102
}
330
1FC0
100
AcDbScale
 70
     0
300
4:1
140
4.0
141
1.0
290
     0
  0
SCALE
  5
1FCF
102
{ACAD_REACTORS
330
1FC0
102
}
330
1FC0
100
AcDbScale
 70
     0
300
8:1
140
8.0
141
1.0
290
     0
  0
SCALE
  5
1FD0
102
{ACAD_REACTORS
330
1FC0
102
}
330
1FC0
100
AcDbScale
 70
     0
300
10:1
140
10.0
141
1.0
290
     0
  0
SCALE
  5
1FD1
102
{ACAD_REACTORS
330
1FC0
102
}
330
1FC0
100
AcDbScale
 70
     0
300
100:1
140
100.0
141
1.0
290
     0
  0
SCALE
  5
1FD2
102
{ACAD_REACTORS
330
1FC0
102
}
330
1FC0
100
AcDbScale
 70
     0
300
1/128" = 1'-0"
140
0.0078125
141
12.0
290
     0
  0
SCALE
  5
1FD3
102
{ACAD_REACTORS
330
1FC0
102
}
330
1FC0
100
AcDbScale
 70
     0
300
1/64" = 1'-0"
140
0.015625
141
12.0
290
     0
  0
SCALE
  5
1FD4
102
{ACAD_REACTORS
330
1FC0
102
}
330
1FC0
100
AcDbScale
 70
     0
300
1/32" = 1'-0"
140
0.03125
141
12.0
290
     0
  0
SCALE
  5
1FD5
102
{ACAD_REACTORS
330
1FC0
102
}
330
1FC0
100
AcDbScale
 70
     0
300
1/16" = 1'-0"
140
0.0625
141
12.0
290
     0
  0
SCALE
  5
1FD6
102
{ACAD_REACTORS
330
1FC0
102
}
330
1FC0
100
AcDbScale
 70
     0
300
3/32" = 1'-0"
140
0.09375
141
12.0
290
     0
  0
SCALE
  5
1FD7
102
{ACAD_REACTORS
330
1FC0
102
}
330
1FC0
100
AcDbScale
 70
     0
300
1/8" = 1'-0"
140
0.125
141
12.0
290
     0
  0
SCALE
  5
1FD8
102
{ACAD_REACTORS
330
1FC0
102
}
330
1FC0
100
AcDbScale
 70
     0
300
3/16" = 1'-0"
140
0.1875
141
12.0
290
     0
  0
SCALE
  5
1FD9
102
{ACAD_REACTORS
330
1FC0
102
}
330
1FC0
100
AcDbScale
 70
     0
300
1/4" = 1'-0"
140
0.25
141
12.0
290
     0
  0
SCALE
  5
1FDA
102
{ACAD_REACTORS
330
1FC0
102
}
330
1FC0
100
AcDbScale
 70
     0
300
3/8" = 1'-0"
140
0.375
141
12.0
290
     0
  0
SCALE
  5
1FDB
102
{ACAD_REACTORS
330
1FC0
102
}
330
1FC0
100
AcDbScale
 70
     0
300
1/2" = 1'-0"
140
0.5
141
12.0
290
     0
  0
SCALE
  5
1FDC
102
{ACAD_REACTORS
330
1FC0
102
}
330
1FC0
100
AcDbScale
 70
     0
300
3/4" = 1'-0"
140
0.75
141
12.0
290
     0
  0
SCALE
  5
1FDD
102
{ACAD_REACTORS
330
1FC0
102
}
330
1FC0
100
AcDbScale
 70
     0
300
1" = 1'-0"
140
1.0
141
12.0
290
     0
  0
SCALE
  5
1FDE
102
{ACAD_REACTORS
330
1FC0
102
}
330
1FC0
100
AcDbScale
 70
     0
300
1-1/2" = 1'-0"
140
1.5
141
12.0
290
     0
  0
SCALE
  5
1FDF
102
{ACAD_REACTORS
330
1FC0
102
}
330
1FC0
100
AcDbScale
 70
     0
300
3" = 1'-0"
140
3.0
141
12.0
290
     0
  0
SCALE
  5
1FE0
102
{ACAD_REACTORS
330
1FC0
102
}
330
1FC0
100
AcDbScale
 70
     0
300
6" = 1'-0"
140
6.0
141
12.0
290
     0
  0
SCALE
  5
1FE1
102
{ACAD_REACTORS
330
1FC0
102
}
330
1FC0
100
AcDbScale
 70
     0
300
1'-0" = 1'-0"
140
12.0
141
12.0
290
     0
  0
TABLESTYLE
  5
2003
102
{ACAD_REACTORS
330
2002
102
}
102
{ACAD_XDICTIONARY
360
23A0
102
}
330
2002
100
AcDbTableStyle
  3
Standard
 70
     0
 71
     0
 40
1.5
 41
1.5
280
     0
281
     0
  7
STANDARD
140
4.5
170
     2
 62
     0
 63
   257
283
     0
 90
        4
 91
        0
  1

274
    -2
284
     1
 64
     0
275
    -2
285
     1
 65
     0
276
    -2
286
     1
 66
     0
277
    -2
287
     1
 67
     0
278
    -2
288
     1
 68
     0
279
    -2
289
     1
 69
     0
  7
STANDARD
140
6.0
170
     5
 62
     0
 63
   257
283
     0
 90
        4
 91
        0
  1

274
    -2
284
     1
 64
     0
275
    -2
285
     1
 65
     0
276
    -2
286
     1
 66
     0
277
    -2
287
     1
 67
     0
278
    -2
288
     1
 68
     0
279
    -2
289
     1
 69
     0
  7
STANDARD
140
4.5
170
     5
 62
     0
 63
   257
283
     0
 90
        4
 91
        0
  1

274
    -2
284
     1
 64
     0
275
    -2
285
     1
 65
     0
276
    -2
286
     1
 66
     0
277
    -2
287
     1
 67
     0
278
    -2
288
     1
 68
     0
279
    -2
289
     1
 69
     0
  0
VISUALSTYLE
  5
1FEA
102
{ACAD_REACTORS
330
1FE5
102
}
330
1FE5
100
AcDbVisualStyle
  2
2dWireframe
 70
     4
177
     3
291
     0
 70
    58
 90
        0
176
     1
 90
        2
176
     1
 90
        0
176
     1
 90
        0
176
     1
 40
0.6
176
     1
 40
30.0
176
     1
 62
     7
420
 16777215
176
     1
 90
        1
176
     1
 90
        4
176
     1
 62
     7
176
     1
 62
   257
176
     1
 90
        1
176
     1
 90
        1
176
     1
 40
1.0
176
     1
 90
        0
176
     1
 62
   257
176
     1
 40
1.0
176
     1
 90
        1
176
     1
 90
        6
176
     1
 90
        2
176
     1
 62
     7
176
     1
 90
        5
176
     1
 90
        0
176
     1
 90
        0
176
     1
290
     0
176
     1
 90
        1
176
     1
 40
0.0
176
     1
 90
        0
176
     1
290
     1
176
     1
290
     1
176
     1
290
     0
176
     1
290
     0
176
     1
290
     0
176
     1
290
     0
176
     1
290
     0
176
     1
290
     0
176
     1
290
     0
176
     1
 90
       50
176
     1
 40
0.0
176
     1
 40
1.0
176
     1
 90
        0
176
     1
 62
    18
420
        0
176
     1
 90
       50
176
     1
 90
        3
176
     1
 62
     5
420
      255
176
     1
290
     0
176
     1
 90
       50
176
     1
 90
       50
176
     1
 90
       50
176
     1
290
     0
176
     1
 90
       50
176
     1
 62
   256
176
     0
 40
1.0
176
     0
 90
        2
176
     1
  1
strokes_ogs.tif
176
     1
290
     0
176
     1
 40
1.0
176
     1
 40
1.0
176
     1
  0
VISUALSTYLE
  5
1FED
102
{ACAD_REACTORS
330
1FE5
102
}
330
1FE5
100
AcDbVisualStyle
  2
Basic
 70
     7
177
     3
291
     1
 70
    58
 90
        1
176
     1
 90
        0
176
     1
 90
        1
176
     1
 90
        0
176
     1
 40
0.6
176
     1
 40
30.0
176
     1
 62
     7
420
 16777215
176
     1
 90
        0
176
     1
 90
        4
176
     1
 62
     7
176
     1
 62
   257
176
     1
 90
        1
176
     1
 90
        1
176
     1
 40
1.0
176
     1
 90
        8
176
     1
 62
     7
176
     1
 40
1.0
176
     1
 90
        1
176
     1
 90
        6
176
     1
 90
        2
176
     1
 62
     7
176
     1
 90
        5
176
     1
 90
        0
176
     1
 90
        0
176
     1
290
     0
176
     1
 90
        1
176
     1
 40
0.0
176
     1
 90
        0
176
     1
290
     0
176
     1
290
     1
176
     1
290
     1
176
     1
290
     0
176
     1
290
     0
176
     1
290
     0
176
     1
290
     0
176
     1
290
     0
176
     1
290
     0
176
     1
 90
       50
176
     1
 40
0.0
176
     1
 40
1.0
176
     1
 90
        0
176
     1
 62
    18
420
        0
176
     1
 90
       50
176
     1
 90
        3
176
     1
 62
     5
420
      255
176
     1
290
     0
176
     1
 90
       50
176
     1
 90
       50
176
     1
 90
       50
176
     1
290
     0
176
     1
 90
       50
176
     1
 62
   256
176
     0
 40
1.0
176
     0
 90
        2
176
     1
  1
strokes_ogs.tif
176
     1
290
     0
176
     1
 40
1.0
176
     1
 40
1.0
176
     1
  0
VISUALSTYLE
  5
1FF1
102
{ACAD_REACTORS
330
1FE5
102
}
330
1FE5
100
AcDbVisualStyle
  2
Brighten
 70
    12
177
     3
291
     1
 70
    58
 90
        2
176
     1
 90
        2
176
     1
 90
        0
176
     1
 90
        0
176
     1
 40
0.6
176
     1
 40
30.0
176
     1
 62
     7
420
 16777215
176
     1
 90
        1
176
     1
 90
        4
176
     1
 62
     7
176
     1
 62
   257
176
     1
 90
        1
176
     1
 90
        1
176
     1
 40
1.0
176
     1
 90
        8
176
     1
 62
     7
176
     1
 40
1.0
176
     1
 90
        1
176
     1
 90
        6
176
     1
 90
        2
176
     1
 62
     7
176
     1
 90
        5
176
     1
 90
        0
176
     1
 90
        0
176
     1
290
     0
176
     1
 90
        1
176
     1
 40
50.0
176
     1
 90
        0
176
     1
290
     0
176
     1
290
     1
176
     1
290
     1
176
     1
290
     0
176
     1
290
     0
176
     1
290
     0
176
     1
290
     0
176
     1
290
     0
176
     1
290
     0
176
     1
 90
       50
176
     1
 40
0.0
176
     1
 40
1.0
176
     1
 90
        0
176
     1
 62
    18
420
        0
176
     1
 90
       50
176
     1
 90
        3
176
     1
 62
     5
420
      255
176
     1
290
     0
176
     1
 90
       50
176
     1
 90
       50
176
     1
 90
       50
176
     1
290
     0
176
     1
 90
       50
176
     1
 62
   256
176
     0
 40
1.0
176
     0
 90
        2
176
     1
  1
strokes_ogs.tif
176
     1
290
     0
176
     1
 40
1.0
176
     1
 40
1.0
176
     1
  0
VISUALSTYLE
  5
1FF5
102
{ACAD_REACTORS
330
1FE5
102
}
330
1FE5
100
AcDbVisualStyle
  2
ColorChange
 70
    16
177
     3
291
     1
 70
    58
 90
        2
176
     1
 90
        2
176
     1
 90
        3
176
     1
 90
        0
176
     1
 40
0.6
176
     1
 40
30.0
176
     1
 62
     8
420
  8421504
176
     1
 90
        1
176
     1
 90
        4
176
     1
 62
     7
176
     1
 62
   257
176
     1
 90
        1
176
     1
 90
        1
176
     1
 40
1.0
176
     1
 90
        8
176
     1
 62
     8
420
  8421504
176
     1
 40
1.0
176
     1
 90
        1
176
     1
 90
        6
176
     1
 90
        2
176
     1
 62
     7
176
     1
 90
        5
176
     1
 90
        0
176
     1
 90
        0
176
     1
290
     0
176
     1
 90
        1
176
     1
 40
0.0
176
     1
 90
        0
176
     1
290
     0
176
     1
290
     1
176
     1
290
     1
176
     1
290
     0
176
     1
290
     0
176
     1
290
     0
176
     1
290
     0
176
     1
290
     0
176
     1
290
     0
176
     1
 90
       50
176
     1
 40
0.0
176
     1
 40
1.0
176
     1
 90
        0
176
     1
 62
    18
420
        0
176
     1
 90
       50
176
     1
 90
        3
176
     1
 62
     5
420
      255
176
     1
290
     0
176
     1
 90
       50
176
     1
 90
       50
176
     1
 90
       50
176
     1
290
     0
176
     1
 90
       50
176
     1
 62
   256
176
     0
 40
1.0
176
     0
 90
        2
176
     1
  1
strokes_ogs.tif
176
     1
290
     0
176
     1
 40
1.0
176
     1
 40
1.0
176
     1
  0
VISUALSTYLE
  5
1FEF
102
{ACAD_REACTORS
330
1FE5
102
}
330
1FE5
100
AcDbVisualStyle
  2
Conceptual
 70
     9
177
     3
291
     0
 70
    58
 90
        3
176
     1
 90
        2
176
     1
 90
        0
176
     1
 90
        0
176
     1
 40
0.6
176
     1
 40
30.0
176
     1
 62
     7
420
 16777215
176
     1
 90
        2
176
     1
 90
        2
176
     1
 62
     7
176
     1
 62
   257
176
     1
 90
        1
176
     1
 90
        1
176
     1
 40
179.0
176
     1
 90
        8
176
     1
 62
     7
176
     1
 40
1.0
176
     1
 90
        1
176
     1
 90
        6
176
     1
 90
        2
176
     1
 62
     7
176
     1
 90
        3
176
     1
 90
        0
176
     1
 90
        0
176
     1
290
     0
176
     1
 90
        1
176
     1
 40
0.0
176
     1
 90
        0
176
     1
290
     0
176
     1
290
     1
176
     1
290
     1
176
     1
290
     0
176
     1
290
     0
176
     1
290
     0
176
     1
290
     0
176
     1
290
     0
176
     1
290
     0
176
     1
 90
       50
176
     1
 40
0.0
176
     1
 40
1.0
176
     1
 90
        0
176
     1
 62
    18
420
        0
176
     1
 90
       50
176
     1
 90
        3
176
     1
 62
     5
420
      255
176
     1
290
     0
176
     1
 90
       50
176
     1
 90
       50
176
     1
 90
       50
176
     1
290
     0
176
     1
 90
       50
176
     1
 62
   256
176
     0
 40
1.0
176
     0
 90
        2
176
     1
  1
strokes_ogs.tif
176
     1
290
     0
176
     1
 40
1.0
176
     1
 40
1.0
176
     1
  0
VISUALSTYLE
  5
1FF0
102
{ACAD_REACTORS
330
1FE5
102
}
330
1FE5
100
AcDbVisualStyle
  2
Dim
 70
    11
177
     3
291
     1
 70
    58
 90
        2
176
     1
 90
        2
176
     1
 90
        0
176
     1
 90
        0
176
     1
 40
0.6
176
     1
 40
30.0
176
     1
 62
     7
420
 16777215
176
     1
 90
        1
176
     1
 90
        4
176
     1
 62
     7
176
     1
 62
   257
176
     1
 90
        1
176
     1
 90
        1
176
     1
 40
1.0
176
     1
 90
        8
176
     1
 62
     7
176
     1
 40
1.0
176
     1
 90
        1
176
     1
 90
        6
176
     1
 90
        2
176
     1
 62
     7
176
     1
 90
        5
176
     1
 90
        0
176
     1
 90
        0
176
     1
290
     0
176
     1
 90
        1
176
     1
 40
-50.0
176
     1
 90
        0
176
     1
290
     0
176
     1
290
     1
176
     1
290
     1
176
     1
290
     0
176
     1
290
     0
176
     1
290
     0
176
     1
290
     0
176
     1
290
     0
176
     1
290
     0
176
     1
 90
       50
176
     1
 40
0.0
176
     1
 40
1.0
176
     1
 90
        0
176
     1
 62
    18
420
        0
176
     1
 90
       50
176
     1
 90
        3
176
     1
 62
     5
420
      255
176
     1
290
     0
176
     1
 90
       50
176
     1
 90
       50
176
     1
 90
       50
176
     1
290
     0
176
     1
 90
       50
176
     1
 62
   256
176
     0
 40
1.0
176
     0
 90
        2
176
     1
  1
strokes_ogs.tif
176
     1
290
     0
176
     1
 40
1.0
176
     1
 40
1.0
176
     1
  0
VISUALSTYLE
  5
1FF8
102
{ACAD_REACTORS
330
1FE5
102
}
330
1FE5
100
AcDbVisualStyle
  2
EdgeColorOff
 70
    22
177
     3
291
     1
 70
    58
 90
        2
176
     0
 90
        2
176
     0
 90
        0
176
     0
 90
        0
176
     0
 40
0.6
176
     0
 40
30.0
176
     0
 62
     7
420
 16777215
176
     0
 90
        1
176
     0
 90
        4
176
     0
 62
     7
176
     0
 62
   257
176
     0
 90
        1
176
     0
 90
        1
176
     0
 40
1.0
176
     0
 90
        8
176
     2
 62
     7
176
     0
 40
1.0
176
     0
 90
        1
176
     0
 90
        6
176
     0
 90
        2
176
     0
 62
     7
176
     0
 90
        5
176
     0
 90
        0
176
     0
 90
        0
176
     0
290
     0
176
     0
 90
        1
176
     0
 40
0.0
176
     0
 90
        0
176
     0
290
     0
176
     0
290
     1
176
     0
290
     1
176
     0
290
     0
176
     0
290
     0
176
     0
290
     0
176
     0
290
     0
176
     0
290
     0
176
     0
290
     0
176
     0
 90
       50
176
     0
 40
0.0
176
     0
 40
1.0
176
     0
 90
        0
176
     0
 62
    18
420
        0
176
     0
 90
       50
176
     0
 90
        3
176
     0
 62
     5
420
      255
176
     0
290
     0
176
     0
 90
       50
176
     0
 90
       50
176
     0
 90
       50
176
     0
290
     0
176
     0
 90
       50
176
     0
 62
   256
176
     0
 40
1.0
176
     0
 90
        2
176
     0
  1
strokes_ogs.tif
176
     0
290
     0
176
     0
 40
1.0
176
     0
 40
1.0
176
     0
  0
VISUALSTYLE
  5
1FF4
102
{ACAD_REACTORS
330
1FE5
102
}
330
1FE5
100
AcDbVisualStyle
  2
Facepattern
 70
    15
177
     3
291
     1
 70
    58
 90
        2
176
     1
 90
        2
176
     1
 90
        0
176
     1
 90
        0
176
     1
 40
0.6
176
     1
 40
30.0
176
     1
 62
     7
420
 16777215
176
     1
 90
        1
176
     1
 90
        4
176
     1
 62
     7
176
     1
 62
   257
176
     1
 90
        1
176
     1
 90
        1
176
     1
 40
1.0
176
     1
 90
        8
176
     1
 62
     7
176
     1
 40
1.0
176
     1
 90
        1
176
     1
 90
        6
176
     1
 90
        2
176
     1
 62
     7
176
     1
 90
        5
176
     1
 90
        0
176
     1
 90
        0
176
     1
290
     0
176
     1
 90
        1
176
     1
 40
0.0
176
     1
 90
        0
176
     1
290
     0
176
     1
290
     1
176
     1
290
     1
176
     1
290
     0
176
     1
290
     0
176
     1
290
     0
176
     1
290
     0
176
     1
290
     0
176
     1
290
     0
176
     1
 90
       50
176
     1
 40
0.0
176
     1
 40
1.0
176
     1
 90
        0
176
     1
 62
    18
420
        0
176
     1
 90
       50
176
     1
 90
        3
176
     1
 62
     5
420
      255
176
     1
290
     0
176
     1
 90
       50
176
     1
 90
       50
176
     1
 90
       50
176
     1
290
     0
176
     1
 90
       50
176
     1
 62
   256
176
     0
 40
1.0
176
     0
 90
        2
176
     1
  1
strokes_ogs.tif
176
     1
290
     0
176
     1
 40
1.0
176
     1
 40
1.0
176
     1
  0
VISUALSTYLE
  5
1FE6
102
{ACAD_REACTORS
330
1FE5
102
}
330
1FE5
100
AcDbVisualStyle
  2
Flat
 70
     0
177
     3
291
     1
 70
    58
 90
        2
176
     1
 90
        1
176
     1
 90
        1
176
     1
 90
        2
176
     1
 40
0.6
176
     1
 40
30.0
176
     1
 62
     7
420
 16777215
176
     1
 90
        0
176
     1
 90
        0
176
     1
 62
     7
176
     1
 62
   257
176
     1
 90
        1
176
     1
 90
        1
176
     1
 40
1.0
176
     1
 90
        8
176
     1
 62
     7
176
     1
 40
1.0
176
     1
 90
        1
176
     1
 90
        6
176
     1
 90
        2
176
     1
 62
     7
176
     1
 90
        5
176
     1
 90
        0
176
     1
 90
        0
176
     1
290
     0
176
     1
 90
       13
176
     1
 40
0.0
176
     1
 90
        0
176
     1
290
     0
176
     1
290
     1
176
     1
290
     1
176
     1
290
     0
176
     1
290
     0
176
     1
290
     0
176
     1
290
     0
176
     1
290
     0
176
     1
290
     0
176
     1
 90
       50
176
     1
 40
0.0
176
     1
 40
1.0
176
     1
 90
        0
176
     1
 62
    18
420
        0
176
     1
 90
       50
176
     1
 90
        3
176
     1
 62
     5
420
      255
176
     1
290
     0
176
     1
 90
       50
176
     1
 90
       50
176
     1
 90
       50
176
     1
290
     0
176
     1
 90
       50
176
     1
 62
   256
176
     0
 40
1.0
176
     0
 90
        2
176
     1
  1
strokes_ogs.tif
176
     1
290
     0
176
     1
 40
1.0
176
     1
 40
1.0
176
     1
  0
VISUALSTYLE
  5
1FE7
102
{ACAD_REACTORS
330
1FE5
102
}
330
1FE5
100
AcDbVisualStyle
  2
FlatWithEdges
 70
     1
177
     3
291
     1
 70
    58
 90
        2
176
     1
 90
        1
176
     1
 90
        1
176
     1
 90
        2
176
     1
 40
0.6
176
     1
 40
30.0
176
     1
 62
     7
420
 16777215
176
     1
 90
        1
176
     1
 90
        0
176
     1
 62
     7
176
     1
 62
   257
176
     1
 90
        1
176
     1
 90
        1
176
     1
 40
1.0
176
     1
 90
        0
176
     1
 62
   257
176
     1
 40
1.0
176
     1
 90
        1
176
     1
 90
        6
176
     1
 90
        2
176
     1
 62
     7
176
     1
 90
        5
176
     1
 90
        0
176
     1
 90
        0
176
     1
290
     0
176
     1
 90
       13
176
     1
 40
0.0
176
     1
 90
        0
176
     1
290
     0
176
     1
290
     1
176
     1
290
     1
176
     1
290
     0
176
     1
290
     0
176
     1
290
     0
176
     1
290
     0
176
     1
290
     0
176
     1
290
     0
176
     1
 90
       50
176
     1
 40
0.0
176
     1
 40
1.0
176
     1
 90
        0
176
     1
 62
    18
420
        0
176
     1
 90
       50
176
     1
 90
        3
176
     1
 62
     5
420
      255
176
     1
290
     0
176
     1
 90
       50
176
     1
 90
       50
176
     1
 90
       50
176
     1
290
     0
176
     1
 90
       50
176
     1
 62
   256
176
     0
 40
1.0
176
     0
 90
        2
176
     1
  1
strokes_ogs.tif
176
     1
290
     0
176
     1
 40
1.0
176
     1
 40
1.0
176
     1
  0
VISUALSTYLE
  5
1FE8
102
{ACAD_REACTORS
330
1FE5
102
}
330
1FE5
100
AcDbVisualStyle
  2
Gouraud
 70
     2
177
     3
291
     1
 70
    58
 90
        2
176
     1
 90
        2
176
     1
 90
        1
176
     1
 90
        2
176
     1
 40
0.6
176
     1
 40
30.0
176
     1
 62
     7
420
 16777215
176
     1
 90
        0
176
     1
 90
        0
176
     1
 62
     7
176
     1
 62
   257
176
     1
 90
        1
176
     1
 90
        1
176
     1
 40
1.0
176
     1
 90
        0
176
     1
 62
     7
176
     1
 40
1.0
176
     1
 90
        1
176
     1
 90
        6
176
     1
 90
        2
176
     1
 62
     7
176
     1
 90
        5
176
     1
 90
        0
176
     1
 90
        0
176
     1
290
     0
176
     1
 90
       13
176
     1
 40
0.0
176
     1
 90
        0
176
     1
290
     0
176
     1
290
     1
176
     1
290
     1
176
     1
290
     0
176
     1
290
     0
176
     1
290
     0
176
     1
290
     0
176
     1
290
     0
176
     1
290
     0
176
     1
 90
       50
176
     1
 40
0.0
176
     1
 40
1.0
176
     1
 90
        0
176
     1
 62
    18
420
        0
176
     1
 90
       50
176
     1
 90
        3
176
     1
 62
     5
420
      255
176
     1
290
     0
176
     1
 90
       50
176
     1
 90
       50
176
     1
 90
       50
176
     1
290
     0
176
     1
 90
       50
176
     1
 62
   256
176
     0
 40
1.0
176
     0
 90
        2
176
     1
  1
strokes_ogs.tif
176
     1
290
     0
176
     1
 40
1.0
176
     1
 40
1.0
176
     1
  0
VISUALSTYLE
  5
1FE9
102
{ACAD_REACTORS
330
1FE5
102
}
330
1FE5
100
AcDbVisualStyle
  2
GouraudWithEdges
 70
     3
177
     3
291
     1
 70
    58
 90
        2
176
     1
 90
        2
176
     1
 90
        1
176
     1
 90
        2
176
     1
 40
0.6
176
     1
 40
30.0
176
     1
 62
     7
420
 16777215
176
     1
 90
        1
176
     1
 90
        0
176
     1
 62
     7
176
     1
 62
   257
176
     1
 90
        1
176
     1
 90
        1
176
     1
 40
1.0
176
     1
 90
        0
176
     1
 62
   257
176
     1
 40
1.0
176
     1
 90
        1
176
     1
 90
        6
176
     1
 90
        2
176
     1
 62
     7
176
     1
 90
        5
176
     1
 90
        0
176
     1
 90
        0
176
     1
290
     0
176
     1
 90
       13
176
     1
 40
0.0
176
     1
 90
        0
176
     1
290
     0
176
     1
290
     1
176
     1
290
     1
176
     1
290
     0
176
     1
290
     0
176
     1
290
     0
176
     1
290
     0
176
     1
290
     0
176
     1
290
     0
176
     1
 90
       50
176
     1
 40
0.0
176
     1
 40
1.0
176
     1
 90
        0
176
     1
 62
    18
420
        0
176
     1
 90
       50
176
     1
 90
        3
176
     1
 62
     5
420
      255
176
     1
290
     0
176
     1
 90
       50
176
     1
 90
       50
176
     1
 90
       50
176
     1
290
     0
176
     1
 90
       50
176
     1
 62
   256
176
     0
 40
1.0
176
     0
 90
        2
176
     1
  1
strokes_ogs.tif
176
     1
290
     0
176
     1
 40
1.0
176
     1
 40
1.0
176
     1
  0
VISUALSTYLE
  5
1FEC
102
{ACAD_REACTORS
330
1FE5
102
}
330
1FE5
100
AcDbVisualStyle
  2
Hidden
 70
     6
177
     3
291
     0
 70
    58
 90
        1
176
     1
 90
        2
176
     1
 90
        2
176
     1
 90
        0
176
     1
 40
0.6
176
     1
 40
30.0
176
     1
 62
     7
420
 16777215
176
     1
 90
        2
176
     1
 90
        2
176
     1
 62
     7
176
     1
 62
   257
176
     1
 90
        2
176
     1
 90
        1
176
     1
 40
40.0
176
     1
 90
        0
176
     1
 62
   257
176
     1
 40
1.0
176
     1
 90
        1
176
     1
 90
        6
176
     1
 90
        2
176
     1
 62
     7
176
     1
 90
        3
176
     1
 90
        0
176
     1
 90
        0
176
     1
290
     0
176
     1
 90
        1
176
     1
 40
0.0
176
     1
 90
        0
176
     1
290
     0
176
     1
290
     1
176
     1
290
     1
176
     1
290
     0
176
     1
290
     0
176
     1
290
     0
176
     1
290
     0
176
     1
290
     0
176
     1
290
     0
176
     1
 90
       50
176
     1
 40
0.0
176
     1
 40
1.0
176
     1
 90
        0
176
     1
 62
    18
420
        0
176
     1
 90
       50
176
     1
 90
        3
176
     1
 62
     5
420
      255
176
     1
290
     0
176
     1
 90
       50
176
     1
 90
       50
176
     1
 90
       50
176
     1
290
     0
176
     1
 90
       50
176
     1
 62
   256
176
     0
 40
1.0
176
     0
 90
        2
176
     1
  1
strokes_ogs.tif
176
     1
290
     0
176
     1
 40
1.0
176
     1
 40
1.0
176
     1
  0
VISUALSTYLE
  5
1FF6
102
{ACAD_REACTORS
330
1FE5
102
}
330
1FE5
100
AcDbVisualStyle
  2
JitterOff
 70
    20
177
     3
291
     1
 70
    58
 90
        2
176
     0
 90
        2
176
     0
 90
        0
176
     0
 90
        0
176
     0
 40
0.6
176
     0
 40
30.0
176
     0
 62
     7
420
 16777215
176
     0
 90
        1
176
     0
 90
        4
176
     0
 62
     7
176
     0
 62
   257
176
     0
 90
        1
176
     0
 90
        1
176
     0
 40
1.0
176
     0
 90
       10
176
     2
 62
     7
176
     0
 40
1.0
176
     0
 90
        1
176
     0
 90
        6
176
     0
 90
        2
176
     0
 62
     7
176
     0
 90
        5
176
     0
 90
        0
176
     0
 90
        0
176
     0
290
     0
176
     0
 90
        1
176
     0
 40
0.0
176
     0
 90
        0
176
     0
290
     0
176
     0
290
     1
176
     0
290
     1
176
     0
290
     0
176
     0
290
     0
176
     0
290
     0
176
     0
290
     0
176
     0
290
     0
176
     0
290
     0
176
     0
 90
       50
176
     0
 40
0.0
176
     0
 40
1.0
176
     0
 90
        0
176
     0
 62
    18
420
        0
176
     0
 90
       50
176
     0
 90
        3
176
     0
 62
     5
420
      255
176
     0
290
     0
176
     0
 90
       50
176
     0
 90
       50
176
     0
 90
       50
176
     0
290
     0
176
     0
 90
       50
176
     0
 62
   256
176
     0
 40
1.0
176
     0
 90
        2
176
     0
  1
strokes_ogs.tif
176
     0
290
     0
176
     0
 40
1.0
176
     0
 40
1.0
176
     0
  0
VISUALSTYLE
  5
1FF3
102
{ACAD_REACTORS
330
1FE5
102
}
330
1FE5
100
AcDbVisualStyle
  2
Linepattern
 70
    14
177
     3
291
     1
 70
    58
 90
        2
176
     1
 90
        2
176
     1
 90
        0
176
     1
 90
        0
176
     1
 40
0.6
176
     1
 40
30.0
176
     1
 62
     7
420
 16777215
176
     1
 90
        1
176
     1
 90
        4
176
     1
 62
     7
176
     1
 62
   257
176
     1
 90
        7
176
     1
 90
        7
176
     1
 40
1.0
176
     1
 90
        8
176
     1
 62
     7
176
     1
 40
1.0
176
     1
 90
        1
176
     1
 90
        6
176
     1
 90
        2
176
     1
 62
     7
176
     1
 90
        5
176
     1
 90
        0
176
     1
 90
        0
176
     1
290
     0
176
     1
 90
        1
176
     1
 40
0.0
176
     1
 90
        0
176
     1
290
     0
176
     1
290
     1
176
     1
290
     1
176
     1
290
     0
176
     1
290
     0
176
     1
290
     0
176
     1
290
     0
176
     1
290
     0
176
     1
290
     0
176
     1
 90
       50
176
     1
 40
0.0
176
     1
 40
1.0
176
     1
 90
        0
176
     1
 62
    18
420
        0
176
     1
 90
       50
176
     1
 90
        3
176
     1
 62
     5
420
      255
176
     1
290
     0
176
     1
 90
       50
176
     1
 90
       50
176
     1
 90
       50
176
     1
290
     0
176
     1
 90
       50
176
     1
 62
   256
176
     0
 40
1.0
176
     0
 90
        2
176
     1
  1
strokes_ogs.tif
176
     1
290
     0
176
     1
 40
1.0
176
     1
 40
1.0
176
     1
  0
VISUALSTYLE
  5
1FF7
102
{ACAD_REACTORS
330
1FE5
102
}
330
1FE5
100
AcDbVisualStyle
  2
OverhangOff
 70
    21
177
     3
291
     1
 70
    58
 90
        2
176
     0
 90
        2
176
     0
 90
        0
176
     0
 90
        0
176
     0
 40
0.6
176
     0
 40
30.0
176
     0
 62
     7
420
 16777215
176
     0
 90
        1
176
     0
 90
        4
176
     0
 62
     7
176
     0
 62
   257
176
     0
 90
        1
176
     0
 90
        1
176
     0
 40
1.0
176
     0
 90
        9
176
     2
 62
     7
176
     0
 40
1.0
176
     0
 90
        1
176
     0
 90
        6
176
     0
 90
        2
176
     0
 62
     7
176
     0
 90
        5
176
     0
 90
        0
176
     0
 90
        0
176
     0
290
     0
176
     0
 90
        1
176
     0
 40
0.0
176
     0
 90
        0
176
     0
290
     0
176
     0
290
     1
176
     0
290
     1
176
     0
290
     0
176
     0
290
     0
176
     0
290
     0
176
     0
290
     0
176
     0
290
     0
176
     0
290
     0
176
     0
 90
       50
176
     0
 40
0.0
176
     0
 40
1.0
176
     0
 90
        0
176
     0
 62
    18
420
        0
176
     0
 90
       50
176
     0
 90
        3
176
     0
 62
     5
420
      255
176
     0
290
     0
176
     0
 90
       50
176
     0
 90
       50
176
     0
 90
       50
176
     0
290
     0
176
     0
 90
       50
176
     0
 62
   256
176
     0
 40
1.0
176
     0
 90
        2
176
     0
  1
strokes_ogs.tif
176
     0
290
     0
176
     0
 40
1.0
176
     0
 40
1.0
176
     0
  0
VISUALSTYLE
  5
1FEE
102
{ACAD_REACTORS
330
1FE5
102
}
330
1FE5
100
AcDbVisualStyle
  2
Realistic
 70
     8
177
     3
291
     0
 70
    58
 90
        2
176
     1
 90
        3
176
     1
 90
        0
176
     1
 90
        2
176
     1
 40
0.6
176
     1
 40
30.0
176
     1
 62
     7
420
 16777215
176
     1
 90
        0
176
     1
 90
        0
176
     1
 62
     7
176
     1
 62
   257
176
     1
 90
        1
176
     1
 90
        1
176
     1
 40
1.0
176
     1
 90
        8
176
     1
 62
   257
176
     1
 40
1.0
176
     1
 90
        1
176
     1
 90
        6
176
     1
 90
        2
176
     1
 62
     7
176
     1
 90
        3
176
     1
 90
        0
176
     1
 90
        0
176
     1
290
     0
176
     1
 90
       13
176
     1
 40
0.0
176
     1
 90
        0
176
     1
290
     0
176
     1
290
     1
176
     1
290
     1
176
     1
290
     0
176
     1
290
     0
176
     1
290
     0
176
     1
290
     0
176
     1
290
     0
176
     1
290
     0
176
     1
 90
       50
176
     1
 40
0.0
176
     1
 40
1.0
176
     1
 90
        0
176
     1
 62
    18
420
        0
176
     1
 90
       50
176
     1
 90
        3
176
     1
 62
     5
420
      255
176
     1
290
     0
176
     1
 90
       50
176
     1
 90
       50
176
     1
 90
       50
176
     1
290
     0
176
     1
 90
       50
176
     1
 62
   256
176
     0
 40
1.0
176
     0
 90
        2
176
     1
  1
strokes_ogs.tif
176
     1
290
     0
176
     1
 40
1.0
176
     1
 40
1.0
176
     1
  0
VISUALSTYLE
  5
1FFD
102
{ACAD_REACTORS
330
1FE5
102
}
330
1FE5
100
AcDbVisualStyle
  2
Shaded
 70
    27
177
     3
291
     0
 70
    58
 90
        2
176
     1
 90
        2
176
     1
 90
        1
176
     1
 90
        2
176
     1
 40
0.6
176
     1
 40
30.0
176
     1
 62
     7
420
 16777215
176
     1
 90
        0
176
     1
 90
        4
176
     1
 62
     7
176
     1
 62
   257
176
     1
 90
        1
176
     1
 90
        1
176
     1
 40
1.0
176
     1
 90
        8
176
     1
 62
   257
176
     1
 40
1.0
176
     1
 90
        1
176
     1
 90
        6
176
     1
 90
        2
176
     1
 62
     8
420
  7895160
176
     1
 90
        3
176
     1
 90
        0
176
     1
 90
        0
176
     1
290
     0
176
     1
 90
        5
176
     1
 40
0.0
176
     1
 90
        0
176
     1
290
     0
176
     1
290
     1
176
     1
290
     1
176
     1
290
     0
176
     1
290
     0
176
     1
290
     0
176
     1
290
     0
176
     1
290
     0
176
     1
290
     0
176
     1
 90
       50
176
     1
 40
0.0
176
     1
 40
1.0
176
     1
 90
        0
176
     1
 62
    18
420
        0
176
     1
 90
       50
176
     1
 90
        3
176
     1
 62
     5
420
      255
176
     1
290
     0
176
     1
 90
       50
176
     1
 90
       50
176
     1
 90
       50
176
     1
290
     0
176
     1
 90
       50
176
     1
 62
   256
176
     0
 40
1.0
176
     0
 90
        2
176
     1
  1
strokes_ogs.tif
176
     1
290
     0
176
     1
 40
1.0
176
     1
 40
1.0
176
     1
  0
VISUALSTYLE
  5
1FFC
102
{ACAD_REACTORS
330
1FE5
102
}
330
1FE5
100
AcDbVisualStyle
  2
Shaded with edges
 70
    26
177
     3
291
     0
 70
    58
 90
        2
176
     1
 90
        2
176
     1
 90
        1
176
     1
 90
        2
176
     1
 40
0.6
176
     1
 40
30.0
176
     1
 62
     7
420
 16777215
176
     1
 90
        1
176
     1
 90
       10
176
     1
 62
     7
176
     1
 62
   257
176
     1
 90
        2
176
     1
 90
        1
176
     1
 40
1.0
176
     1
 90
        8
176
     1
 62
   257
176
     1
 40
1.0
176
     1
 90
        1
176
     1
 90
        6
176
     1
 90
        2
176
     1
 62
     7
176
     1
 90
        3
176
     1
 90
        0
176
     1
 90
        0
176
     1
290
     0
176
     1
 90
        5
176
     1
 40
0.0
176
     1
 90
        0
176
     1
290
     0
176
     1
290
     1
176
     1
290
     1
176
     1
290
     0
176
     1
290
     0
176
     1
290
     0
176
     1
290
     0
176
     1
290
     0
176
     1
290
     0
176
     1
 90
       50
176
     1
 40
0.0
176
     1
 40
1.0
176
     1
 90
        0
176
     1
 62
    18
420
        0
176
     1
 90
       50
176
     1
 90
        3
176
     1
 62
     5
420
      255
176
     1
290
     0
176
     1
 90
       50
176
     1
 90
       50
176
     1
 90
       50
176
     1
290
     0
176
     1
 90
       50
176
     1
 62
   256
176
     0
 40
1.0
176
     0
 90
        2
176
     1
  1
strokes_ogs.tif
176
     1
290
     0
176
     1
 40
1.0
176
     1
 40
1.0
176
     1
  0
VISUALSTYLE
  5
1FF9
102
{ACAD_REACTORS
330
1FE5
102
}
330
1FE5
100
AcDbVisualStyle
  2
Shades of Gray
 70
    23
177
     3
291
     0
 70
    58
 90
        2
176
     1
 90
        2
176
     1
 90
        3
176
     1
 90
        0
176
     1
 40
0.6
176
     1
 40
30.0
176
     1
 62
     7
420
 16777215
176
     1
 90
        2
176
     1
 90
        2
176
     1
 62
     7
176
     1
 62
     7
176
     1
 90
        1
176
     1
 90
        1
176
     1
 40
40.0
176
     1
 90
        8
176
     1
 62
     7
176
     1
 40
1.0
176
     1
 90
        1
176
     1
 90
        6
176
     1
 90
        2
176
     1
 62
     7
176
     1
 90
        3
176
     1
 90
        0
176
     1
 90
        0
176
     1
290
     0
176
     1
 90
        1
176
     1
 40
0.0
176
     1
 90
        0
176
     1
290
     0
176
     1
290
     1
176
     1
290
     1
176
     1
290
     0
176
     1
290
     0
176
     1
290
     0
176
     1
290
     0
176
     1
290
     0
176
     1
290
     0
176
     1
 90
       50
176
     1
 40
0.0
176
     1
 40
1.0
176
     1
 90
        0
176
     1
 62
    18
420
        0
176
     1
 90
       50
176
     1
 90
        3
176
     1
 62
     5
420
      255
176
     1
290
     0
176
     1
 90
       50
176
     1
 90
       50
176
     1
 90
       50
176
     1
290
     0
176
     1
 90
       50
176
     1
 62
   256
176
     0
 40
1.0
176
     0
 90
        2
176
     1
  1
strokes_ogs.tif
176
     1
290
     0
176
     1
 40
1.0
176
     1
 40
1.0
176
     1
  0
VISUALSTYLE
  5
1FFA
102
{ACAD_REACTORS
330
1FE5
102
}
330
1FE5
100
AcDbVisualStyle
  2
Sketchy
 70
    24
177
     3
291
     0
 70
    58
 90
        1
176
     1
 90
        2
176
     1
 90
        2
176
     1
 90
        0
176
     1
 40
0.6
176
     1
 40
30.0
176
     1
 62
     7
420
 16777215
176
     1
 90
        2
176
     1
 90
        2
176
     1
 62
     7
176
     1
 62
     7
176
     1
 90
        1
176
     1
 90
        1
176
     1
 40
40.0
176
     1
 90
       11
176
     1
 62
     7
176
     1
 40
1.0
176
     1
 90
        1
176
     1
 90
        6
176
     1
 90
        2
176
     1
 62
     7
176
     1
 90
        6
176
     1
 90
        0
176
     1
 90
        0
176
     1
290
     0
176
     1
 90
        1
176
     1
 40
0.0
176
     1
 90
        0
176
     1
290
     0
176
     1
290
     1
176
     1
290
     1
176
     1
290
     0
176
     1
290
     0
176
     1
290
     0
176
     1
290
     0
176
     1
290
     0
176
     1
290
     0
176
     1
 90
       50
176
     1
 40
0.0
176
     1
 40
1.0
176
     1
 90
        0
176
     1
 62
    18
420
        0
176
     1
 90
       50
176
     1
 90
        3
176
     1
 62
     5
420
      255
176
     1
290
     0
176
     1
 90
       50
176
     1
 90
       50
176
     1
 90
       50
176
     1
290
     0
176
     1
 90
       50
176
     1
 62
   256
176
     0
 40
1.0
176
     0
 90
        2
176
     1
  1
strokes_ogs.tif
176
     1
290
     0
176
     1
 40
1.0
176
     1
 40
1.0
176
     1
  0
VISUALSTYLE
  5
1FF2
102
{ACAD_REACTORS
330
1FE5
102
}
330
1FE5
100
AcDbVisualStyle
  2
Thicken
 70
    13
177
     3
291
     1
 70
    58
 90
        2
176
     1
 90
        2
176
     1
 90
        0
176
     1
 90
        0
176
     1
 40
0.6
176
     1
 40
30.0
176
     1
 62
     7
420
 16777215
176
     1
 90
        1
176
     1
 90
        4
176
     1
 62
     7
176
     1
 62
   257
176
     1
 90
        1
176
     1
 90
        1
176
     1
 40
1.0
176
     1
 90
       12
176
     1
 62
     7
176
     1
 40
1.0
176
     1
 90
        1
176
     1
 90
        6
176
     1
 90
        2
176
     1
 62
     7
176
     1
 90
        5
176
     1
 90
        0
176
     1
 90
        0
176
     1
290
     0
176
     1
 90
        1
176
     1
 40
0.0
176
     1
 90
        0
176
     1
290
     0
176
     1
290
     1
176
     1
290
     1
176
     1
290
     0
176
     1
290
     0
176
     1
290
     0
176
     1
290
     0
176
     1
290
     0
176
     1
290
     0
176
     1
 90
       50
176
     1
 40
0.0
176
     1
 40
1.0
176
     1
 90
        0
176
     1
 62
    18
420
        0
176
     1
 90
       50
176
     1
 90
        3
176
     1
 62
     5
420
      255
176
     1
290
     0
176
     1
 90
       50
176
     1
 90
       50
176
     1
 90
       50
176
     1
290
     0
176
     1
 90
       50
176
     1
 62
   256
176
     0
 40
1.0
176
     0
 90
        2
176
     1
  1
strokes_ogs.tif
176
     1
290
     0
176
     1
 40
1.0
176
     1
 40
1.0
176
     1
  0
VISUALSTYLE
  5
1FEB
102
{ACAD_REACTORS
330
1FE5
102
}
330
1FE5
100
AcDbVisualStyle
  2
Wireframe
 70
     5
177
     3
291
     0
 70
    58
 90
        0
176
     1
 90
        2
176
     1
 90
        0
176
     1
 90
        0
176
     1
 40
0.6
176
     1
 40
30.0
176
     1
 62
     7
420
 16777215
176
     1
 90
        1
176
     1
 90
        4
176
     1
 62
     7
176
     1
 62
   257
176
     1
 90
        1
176
     1
 90
        1
176
     1
 40
1.0
176
     1
 90
        0
176
     1
 62
   257
176
     1
 40
1.0
176
     1
 90
        1
176
     1
 90
        6
176
     1
 90
        2
176
     1
 62
     7
176
     1
 90
        3
176
     1
 90
        0
176
     1
 90
        0
176
     1
290
     0
176
     1
 90
        1
176
     1
 40
0.0
176
     1
 90
        0
176
     1
290
     0
176
     1
290
     1
176
     1
290
     1
176
     1
290
     0
176
     1
290
     0
176
     1
290
     0
176
     1
290
     0
176
     1
290
     0
176
     1
290
     0
176
     1
 90
       50
176
     1
 40
0.0
176
     1
 40
1.0
176
     1
 90
        0
176
     1
 62
    18
420
        0
176
     1
 90
       50
176
     1
 90
        3
176
     1
 62
     5
420
      255
176
     1
290
     0
176
     1
 90
       50
176
     1
 90
       50
176
     1
 90
       50
176
     1
290
     0
176
     1
 90
       50
176
     1
 62
   256
176
     0
 40
1.0
176
     0
 90
        2
176
     1
  1
strokes_ogs.tif
176
     1
290
     0
176
     1
 40
1.0
176
     1
 40
1.0
176
     1
  0
VISUALSTYLE
  5
1FFB
102
{ACAD_REACTORS
330
1FE5
102
}
330
1FE5
100
AcDbVisualStyle
  2
X-Ray
 70
    25
177
     3
291
     0
 70
    58
 90
        2
176
     1
 90
        2
176
     1
 90
        1
176
     1
 90
        1
176
     1
 40
0.5
176
     1
 40
30.0
176
     1
 62
     7
420
 16777215
176
     1
 90
        1
176
     1
 90
        0
176
     1
 62
     7
176
     1
 62
   257
176
     1
 90
        1
176
     1
 90
        1
176
     1
 40
1.0
176
     1
 90
        8
176
     1
 62
     7
176
     1
 40
1.0
176
     1
 90
        1
176
     1
 90
        6
176
     1
 90
        2
176
     1
 62
     7
176
     1
 90
        3
176
     1
 90
        0
176
     1
 90
        0
176
     1
290
     0
176
     1
 90
       13
176
     1
 40
0.0
176
     1
 90
        0
176
     1
290
     0
176
     1
290
     1
176
     1
290
     1
176
     1
290
     0
176
     1
290
     0
176
     1
290
     0
176
     1
290
     0
176
     1
290
     0
176
     1
290
     0
176
     1
 90
       50
176
     1
 40
0.0
176
     1
 40
1.0
176
     1
 90
        0
176
     1
 62
    18
420
        0
176
     1
 90
       50
176
     1
 90
        3
176
     1
 62
     5
420
      255
176
     1
290
     0
176
     1
 90
       50
176
     1
 90
       50
176
     1
 90
       50
176
     1
290
     0
176
     1
 90
       50
176
     1
 62
   256
176
     0
 40
1.0
176
     0
 90
        2
176
     1
  1
strokes_ogs.tif
176
     1
290
     0
176
     1
 40
1.0
176
     1
 40
1.0
176
     1
  0
DICTIONARYVAR
  5
2005
102
{ACAD_REACTORS
330
13CA
102
}
330
13CA
100
DictionaryVariables
280
     0
  1
1:1
  0
DICTIONARYVAR
  5
2009
102
{ACAD_REACTORS
330
13CA
102
}
330
13CA
100
DictionaryVariables
280
     0
  1
Standard
  0
DICTIONARYVAR
  5
13CC
102
{ACAD_REACTORS
330
13CA
102
}
330
13CA
100
DictionaryVariables
280
     0
  1
2
  0
DICTIONARYVAR
  5
13CB
102
{ACAD_REACTORS
330
13CA
102
}
330
13CA
100
DictionaryVariables
280
     0
  1
1
  0
DICTIONARYVAR
  5
200B
102
{ACAD_REACTORS
330
13CA
102
}
330
13CA
100
DictionaryVariables
280
     0
  1
0
  0
DICTIONARYVAR
  5
13CD
102
{ACAD_REACTORS
330
13CA
102
}
330
13CA
100
DictionaryVariables
280
     0
  1

  0
DICTIONARY
  5
23A0
330
2003
100
AcDbDictionary
280
     1
281
     1
  3
ACAD_ROUNDTRIP_2008_TABLESTYLE_CELLSTYLEMAP
360
23A1
  0
CELLSTYLEMAP
  5
23A1
102
{ACAD_REACTORS
330
23A0
102
}
330
23A0
100
AcDbCellStyleMap
 90
        3
300
CELLSTYLE
  1
TABLEFORMAT_BEGIN
 90
        5
170
     1
 91
        0
 92
        0
 62
   257
 93
        1
300
CONTENTFORMAT
  1
CONTENTFORMAT_BEGIN
 90
        0
 91
        0
 92
        4
 93
        0
300

 40
0.0
140
1.0
 94
        5
 62
     0
340
11
144
6.0
309
CONTENTFORMAT_END
171
     1
301
MARGIN
  1
CELLMARGIN_BEGIN
 40
1.5
 40
1.5
 40
1.5
 40
1.5
 40
1.5
 40
1.5
309
CELLMARGIN_END
 94
        6
 95
        1
302
GRIDFORMAT
  1
GRIDFORMAT_BEGIN
 90
        0
 91
        1
 62
     0
 92
       -2
340
14
 93
        0
 40
0.045
309
GRIDFORMAT_END
 95
        2
302
GRIDFORMAT
  1
GRIDFORMAT_BEGIN
 90
        0
 91
        1
 62
     0
 92
       -2
340
14
 93
        0
 40
0.045
309
GRIDFORMAT_END
 95
        4
302
GRIDFORMAT
  1
GRIDFORMAT_BEGIN
 90
        0
 91
        1
 62
     0
 92
       -2
340
14
 93
        0
 40
0.045
309
GRIDFORMAT_END
 95
        8
302
GRIDFORMAT
  1
GRIDFORMAT_BEGIN
 90
        0
 91
        1
 62
     0
 92
       -2
340
14
 93
        0
 40
0.045
309
GRIDFORMAT_END
 95
       16
302
GRIDFORMAT
  1
GRIDFORMAT_BEGIN
 90
        0
 91
        1
 62
     0
 92
       -2
340
14
 93
        0
 40
0.045
309
GRIDFORMAT_END
 95
       32
302
GRIDFORMAT
  1
GRIDFORMAT_BEGIN
 90
        0
 91
        1
 62
     0
 92
       -2
340
14
 93
        0
 40
0.045
309
GRIDFORMAT_END
309
TABLEFORMAT_END
  1
CELLSTYLE_BEGIN
 90
        1
 91
        1
300
_TITLE
309
CELLSTYLE_END
300
CELLSTYLE
  1
TABLEFORMAT_BEGIN
 90
        5
170
     1
 91
        0
 92
        0
 62
   257
 93
        1
300
CONTENTFORMAT
  1
CONTENTFORMAT_BEGIN
 90
        0
 91
        0
 92
        4
 93
        0
300

 40
0.0
140
1.0
 94
        5
 62
     0
340
11
144
4.5
309
CONTENTFORMAT_END
171
     1
301
MARGIN
  1
CELLMARGIN_BEGIN
 40
1.5
 40
1.5
 40
1.5
 40
1.5
 40
1.5
 40
1.5
309
CELLMARGIN_END
 94
        6
 95
        1
302
GRIDFORMAT
  1
GRIDFORMAT_BEGIN
 90
        0
 91
        1
 62
     0
 92
       -2
340
14
 93
        0
 40
0.045
309
GRIDFORMAT_END
 95
        2
302
GRIDFORMAT
  1
GRIDFORMAT_BEGIN
 90
        0
 91
        1
 62
     0
 92
       -2
340
14
 93
        0
 40
0.045
309
GRIDFORMAT_END
 95
        4
302
GRIDFORMAT
  1
GRIDFORMAT_BEGIN
 90
        0
 91
        1
 62
     0
 92
       -2
340
14
 93
        0
 40
0.045
309
GRIDFORMAT_END
 95
        8
302
GRIDFORMAT
  1
GRIDFORMAT_BEGIN
 90
        0
 91
        1
 62
     0
 92
       -2
340
14
 93
        0
 40
0.045
309
GRIDFORMAT_END
 95
       16
302
GRIDFORMAT
  1
GRIDFORMAT_BEGIN
 90
        0
 91
        1
 62
     0
 92
       -2
340
14
 93
        0
 40
0.045
309
GRIDFORMAT_END
 95
       32
302
GRIDFORMAT
  1
GRIDFORMAT_BEGIN
 90
        0
 91
        1
 62
     0
 92
       -2
340
14
 93
        0
 40
0.045
309
GRIDFORMAT_END
309
TABLEFORMAT_END
  1
CELLSTYLE_BEGIN
 90
        2
 91
        1
300
_HEADER
309
CELLSTYLE_END
300
CELLSTYLE
  1
TABLEFORMAT_BEGIN
 90
        5
170
     1
 91
        0
 92
        0
 62
   257
 93
        1
300
CONTENTFORMAT
  1
CONTENTFORMAT_BEGIN
 90
        0
 91
        0
 92
        4
 93
        0
300

 40
0.0
140
1.0
 94
        2
 62
     0
340
11
144
4.5
309
CONTENTFORMAT_END
171
     1
301
MARGIN
  1
CELLMARGIN_BEGIN
 40
1.5
 40
1.5
 40
1.5
 40
1.5
 40
1.5
 40
1.5
309
CELLMARGIN_END
 94
        6
 95
        1
302
GRIDFORMAT
  1
GRIDFORMAT_BEGIN
 90
        0
 91
        1
 62
     0
 92
       -2
340
14
 93
        0
 40
0.045
309
GRIDFORMAT_END
 95
        2
302
GRIDFORMAT
  1
GRIDFORMAT_BEGIN
 90
        0
 91
        1
 62
     0
 92
       -2
340
14
 93
        0
 40
0.045
309
GRIDFORMAT_END
 95
        4
302
GRIDFORMAT
  1
GRIDFORMAT_BEGIN
 90
        0
 91
        1
 62
     0
 92
       -2
340
14
 93
        0
 40
0.045
309
GRIDFORMAT_END
 95
        8
302
GRIDFORMAT
  1
GRIDFORMAT_BEGIN
 90
        0
 91
        1
 62
     0
 92
       -2
340
14
 93
        0
 40
0.045
309
GRIDFORMAT_END
 95
       16
302
GRIDFORMAT
  1
GRIDFORMAT_BEGIN
 90
        0
 91
        1
 62
     0
 92
       -2
340
14
 93
        0
 40
0.045
309
GRIDFORMAT_END
 95
       32
302
GRIDFORMAT
  1
GRIDFORMAT_BEGIN
 90
        0
 91
        1
 62
     0
 92
       -2
340
14
 93
        0
 40
0.045
309
GRIDFORMAT_END
309
TABLEFORMAT_END
  1
CELLSTYLE_BEGIN
 90
        3
 91
        2
300
_DATA
309
CELLSTYLE_END
  0
ENDSEC
  0
EOF
