  0
SECTION
  2
HEADER
  9
$ACADVER
  1
AC1027
  9
$ACADMAINTVER
 70
     8
  9
$DWGCODEPAGE
  3
ANSI_932
  9
$REQUIREDVERSIONS
160
                 0
  9
$LASTSAVEDBY
  1
akihiro
  9
$INSBASE
 10
0.0
 20
0.0
 30
0.0
  9
$EXTMIN
 10
36.51808089925021
 20
39.77883482749961
 30
0.0
  9
$EXTMAX
 10
273.220269140445
 20
231.737621220998
 30
0.0
  9
$LIMMIN
 10
0.0
 20
0.0
  9
$LIMMAX
 10
420.0
 20
297.0
  9
$ORTHOMODE
 70
     0
  9
$REGENMODE
 70
     1
  9
$FILLMODE
 70
     1
  9
$QTEXTMODE
 70
     0
  9
$MIRRTEXT
 70
     0
  9
$LTSCALE
 40
0.2
  9
$ATTMODE
 70
     1
  9
$TEXTSIZE
 40
3.0
  9
$TRACEWID
 40
1.0
  9
$TEXTSTYLE
  7
Standard
  9
$CLAYER
  8
文字
  9
$CELTYPE
  6
ByLayer
  9
$CECOLOR
 62
   256
  9
$CELTSCALE
 40
1.0
  9
$DISPSILH
 70
     0
  9
$DIMSCALE
 40
1.0
  9
$DIMASZ
 40
2.5
  9
$DIMEXO
 40
0.625
  9
$DIMDLI
 40
3.75
  9
$DIMRND
 40
0.0
  9
$DIMDLE
 40
0.0
  9
$DIMEXE
 40
1.25
  9
$DIMTP
 40
0.0
  9
$DIMTM
 40
0.0
  9
$DIMTXT
 40
2.5
  9
$DIMCEN
 40
2.5
  9
$DIMTSZ
 40
0.0
  9
$DIMTOL
 70
     0
  9
$DIMLIM
 70
     0
  9
$DIMTIH
 70
     0
  9
$DIMTOH
 70
     0
  9
$DIMSE1
 70
     0
  9
$DIMSE2
 70
     0
  9
$DIMTAD
 70
     1
  9
$DIMZIN
 70
     8
  9
$DIMBLK
  1

  9
$DIMASO
 70
     1
  9
$DIMSHO
 70
     1
  9
$DIMPOST
  1

  9
$DIMAPOST
  1

  9
$DIMALT
 70
     0
  9
$DIMALTD
 70
     3
  9
$DIMALTF
 40
0.03937007874016
  9
$DIMLFAC
 40
1.0
  9
$DIMTOFL
 70
     1
  9
$DIMTVP
 40
0.0
  9
$DIMTIX
 70
     0
  9
$DIMSOXD
 70
     0
  9
$DIMSAH
 70
     0
  9
$DIMBLK1
  1

  9
$DIMBLK2
  1

  9
$DIMSTYLE
  2
ISO-25
  9
$DIMCLRD
 70
     0
  9
$DIMCLRE
 70
     0
  9
$DIMCLRT
 70
     0
  9
$DIMTFAC
 40
1.0
  9
$DIMGAP
 40
0.625
  9
$DIMJUST
 70
     0
  9
$DIMSD1
 70
     0
  9
$DIMSD2
 70
     0
  9
$DIMTOLJ
 70
     0
  9
$DIMTZIN
 70
     8
  9
$DIMALTZ
 70
     0
  9
$DIMALTTZ
 70
     0
  9
$DIMUPT
 70
     0
  9
$DIMDEC
 70
     2
  9
$DIMTDEC
 70
     2
  9
$DIMALTU
 70
     2
  9
$DIMALTTD
 70
     3
  9
$DIMTXSTY
  7
Standard
  9
$DIMAUNIT
 70
     0
  9
$DIMADEC
 70
     0
  9
$DIMALTRND
 40
0.0
  9
$DIMAZIN
 70
     0
  9
$DIMDSEP
 70
    46
  9
$DIMATFIT
 70
     3
  9
$DIMFRAC
 70
     0
  9
$DIMLDRBLK
  1

  9
$DIMLUNIT
 70
     2
  9
$DIMLWD
 70
    -2
  9
$DIMLWE
 70
    -2
  9
$DIMTMOVE
 70
     0
  9
$DIMFXL
 40
1.0
  9
$DIMFXLON
 70
     0
  9
$DIMJOGANG
 40
0.7853981633974483
  9
$DIMTFILL
 70
     0
  9
$DIMTFILLCLR
 70
     0
  9
$DIMARCSYM
 70
     0
  9
$DIMLTYPE
  6

  9
$DIMLTEX1
  6

  9
$DIMLTEX2
  6

  9
$DIMTXTDIRECTION
 70
     0
  9
$LUNITS
 70
     2
  9
$LUPREC
 70
     4
  9
$SKETCHINC
 40
1.0
  9
$FILLETRAD
 40
2.0
  9
$AUNITS
 70
     0
  9
$AUPREC
 70
     0
  9
$MENU
  1
.
  9
$ELEVATION
 40
0.0
  9
$PELEVATION
 40
0.0
  9
$THICKNESS
 40
0.0
  9
$LIMCHECK
 70
     0
  9
$CHAMFERA
 40
0.0
  9
$CHAMFERB
 40
0.0
  9
$CHAMFERC
 40
0.0
  9
$CHAMFERD
 40
0.0
  9
$SKPOLY
 70
     0
  9
$TDCREATE
 40
2452936.788310359
  9
$TDUCREATE
 40
2452936.413310359
  9
$TDUPDATE
 40
2456720.764654132
  9
$TDUUPDATE
 40
2456720.389654132
  9
$TDINDWG
 40
0.9533240856
  9
$TDUSRTIMER
 40
2456720.389077106
  9
$USRTIMER
 70
     1
  9
$ANGBASE
 50
0.0
  9
$ANGDIR
 70
     0
  9
$PDMODE
 70
     0
  9
$PDSIZE
 40
0.0
  9
$PLINEWID
 40
0.0
  9
$SPLFRAME
 70
     0
  9
$SPLINETYPE
 70
     6
  9
$SPLINESEGS
 70
     8
  9
$HANDSEED
  5
1FEC
  9
$SURFTAB1
 70
     6
  9
$SURFTAB2
 70
     6
  9
$SURFTYPE
 70
     6
  9
$SURFU
 70
     6
  9
$SURFV
 70
     6
  9
$UCSBASE
  2

  9
$UCSNAME
  2

  9
$UCSORG
 10
0.0
 20
0.0
 30
0.0
  9
$UCSXDIR
 10
1.0
 20
0.0
 30
0.0
  9
$UCSYDIR
 10
0.0
 20
1.0
 30
0.0
  9
$UCSORTHOREF
  2

  9
$UCSORTHOVIEW
 70
     0
  9
$UCSORGTOP
 10
0.0
 20
0.0
 30
0.0
  9
$UCSORGBOTTOM
 10
0.0
 20
0.0
 30
0.0
  9
$UCSORGLEFT
 10
0.0
 20
0.0
 30
0.0
  9
$UCSORGRIGHT
 10
0.0
 20
0.0
 30
0.0
  9
$UCSORGFRONT
 10
0.0
 20
0.0
 30
0.0
  9
$UCSORGBACK
 10
0.0
 20
0.0
 30
0.0
  9
$PUCSBASE
  2

  9
$PUCSNAME
  2

  9
$PUCSORG
 10
0.0
 20
0.0
 30
0.0
  9
$PUCSXDIR
 10
1.0
 20
0.0
 30
0.0
  9
$PUCSYDIR
 10
0.0
 20
1.0
 30
0.0
  9
$PUCSORTHOREF
  2

  9
$PUCSORTHOVIEW
 70
     0
  9
$PUCSORGTOP
 10
0.0
 20
0.0
 30
0.0
  9
$PUCSORGBOTTOM
 10
0.0
 20
0.0
 30
0.0
  9
$PUCSORGLEFT
 10
0.0
 20
0.0
 30
0.0
  9
$PUCSORGRIGHT
 10
0.0
 20
0.0
 30
0.0
  9
$PUCSORGFRONT
 10
0.0
 20
0.0
 30
0.0
  9
$PUCSORGBACK
 10
0.0
 20
0.0
 30
0.0
  9
$USERI1
 70
     0
  9
$USERI2
 70
     0
  9
$USERI3
 70
     0
  9
$USERI4
 70
     0
  9
$USERI5
 70
     0
  9
$USERR1
 40
0.0
  9
$USERR2
 40
0.0
  9
$USERR3
 40
0.0
  9
$USERR4
 40
0.0
  9
$USERR5
 40
0.0
  9
$WORLDVIEW
 70
     1
  9
$SHADEDGE
 70
     3
  9
$SHADEDIF
 70
    70
  9
$TILEMODE
 70
     1
  9
$MAXACTVP
 70
    64
  9
$PINSBASE
 10
0.0
 20
0.0
 30
0.0
  9
$PLIMCHECK
 70
     0
  9
$PEXTMIN
 10
0.0
 20
0.0
 30
0.0
  9
$PEXTMAX
 10
0.0
 20
0.0
 30
0.0
  9
$PLIMMIN
 10
-6.35
 20
-6.35
  9
$PLIMMAX
 10
413.8083333333333
 20
290.6888888888888
  9
$UNITMODE
 70
     0
  9
$VISRETAIN
 70
     1
  9
$PLINEGEN
 70
     0
  9
$PSLTSCALE
 70
     1
  9
$TREEDEPTH
 70
  3020
  9
$CMLSTYLE
  2
Standard
  9
$CMLJUST
 70
     0
  9
$CMLSCALE
 40
20.0
  9
$PROXYGRAPHICS
 70
     1
  9
$MEASUREMENT
 70
     1
  9
$CELWEIGHT
370
    -1
  9
$ENDCAPS
280
     0
  9
$JOINSTYLE
280
     0
  9
$LWDISPLAY
290
     0
  9
$INSUNITS
 70
     4
  9
$HYPERLINKBASE
  1

  9
$STYLESHEET
  1

  9
$XEDIT
290
     1
  9
$CEPSNTYPE
380
     0
  9
$PSTYLEMODE
290
     1
  9
$FINGERPRINTGUID
  2
{86E58535-AB5B-4AFE-AB1B-6758AAB7EA7D}
  9
$VERSIONGUID
  2
{395F9DAF-7860-45C2-AF8D-680FA178C686}
  9
$EXTNAMES
290
     1
  9
$PSVPSCALE
 40
0.0
  9
$OLESTARTUP
290
     0
  9
$SORTENTS
280
   127
  9
$INDEXCTL
280
     0
  9
$HIDETEXT
280
     1
  9
$XCLIPFRAME
280
     2
  9
$HALOGAP
280
     0
  9
$OBSCOLOR
 70
   257
  9
$OBSLTYPE
280
     0
  9
$INTERSECTIONDISPLAY
280
     0
  9
$INTERSECTIONCOLOR
 70
   257
  9
$DIMASSOC
280
     2
  9
$PROJECTNAME
  1

  9
$CAMERADISPLAY
290
     0
  9
$LENSLENGTH
 40
50.0
  9
$CAMERAHEIGHT
 40
0.0
  9
$STEPSPERSEC
 40
2.0
  9
$STEPSIZE
 40
6.0
  9
$3DDWFPREC
 40
2.0
  9
$PSOLWIDTH
 40
0.25
  9
$PSOLHEIGHT
 40
4.0
  9
$LOFTANG1
 40
1.570796326794897
  9
$LOFTANG2
 40
1.570796326794897
  9
$LOFTMAG1
 40
0.0
  9
$LOFTMAG2
 40
0.0
  9
$LOFTPARAM
 70
     7
  9
$LOFTNORMALS
280
     1
  9
$LATITUDE
 40
37.795
  9
$LONGITUDE
 40
-122.394
  9
$NORTHDIRECTION
 40
0.0
  9
$TIMEZONE
 70
 -8000
  9
$LIGHTGLYPHDISPLAY
280
     1
  9
$TILEMODELIGHTSYNCH
280
     1
  9
$SOLIDHIST
280
     1
  9
$SHOWHIST
280
     1
  9
$DWFFRAME
280
     2
  9
$DGNFRAME
280
     2
  9
$REALWORLDSCALE
290
     1
  9
$INTERFERECOLOR
 62
   256
  9
$CSHADOW
280
     0
  9
$SHADOWPLANELOCATION
 40
0.0
  0
ENDSEC
  0
SECTION
  2
CLASSES
  0
CLASS
  1
ACDBDICTIONARYWDFLT
  2
AcDbDictionaryWithDefault
  3
ObjectDBX Classes
 90
        0
 91
       15
280
     0
281
     0
  0
CLASS
  1
DIMASSOC
  2
AcDbDimAssoc
  3
"AcDbDimAssoc|Product Desc:     AcDim ARX App For Dimension|Company:          Autodesk, Inc.|WEB Address:      www.autodesk.com"
 90
        0
 91
        9
280
     0
281
     0
  0
CLASS
  1
DICTIONARYVAR
  2
AcDbDictionaryVar
  3
ObjectDBX Classes
 90
        0
 91
        9
280
     0
281
     0
  0
CLASS
  1
ACDBPLACEHOLDER
  2
AcDbPlaceHolder
  3
ObjectDBX Classes
 90
        0
 91
        1
280
     0
281
     0
  0
CLASS
  1
LAYOUT
  2
AcDbLayout
  3
ObjectDBX Classes
 90
        0
 91
        1
280
     0
281
     0
  0
CLASS
  1
VISUALSTYLE
  2
AcDbVisualStyle
  3
ObjectDBX Classes
 90
     4095
 91
       15
280
     0
281
     0
  0
CLASS
  1
SCALE
  2
AcDbScale
  3
ObjectDBX Classes
 90
     1153
 91
       15
280
     0
281
     0
  0
CLASS
  1
MATERIAL
  2
AcDbMaterial
  3
ObjectDBX Classes
 90
     1153
 91
       15
280
     0
281
     0
  0
CLASS
  1
TABLESTYLE
  2
AcDbTableStyle
  3
ObjectDBX Classes
 90
     4095
 91
       15
280
     0
281
     0
  0
CLASS
  1
SUN
  2
AcDbSun
  3
SCENEOE
 90
     1153
 91
       15
280
     0
281
     0
  0
CLASS
  1
RASTERVARIABLES
  2
AcDbRasterVariables
  3
ISM
 90
        0
 91
       15
280
     0
281
     0
  0
CLASS
  1
CELLSTYLEMAP
  2
AcDbCellStyleMap
  3
ObjectDBX Classes
 90
     1152
 91
        9
280
     0
281
     0
  0
ENDSEC
  0
SECTION
  2
TABLES
  0
TABLE
  2
VPORT
  5
8
330
0
100
AcDbSymbolTable
 70
     1
  0
VPORT
  5
1F57
330
8
100
AcDbSymbolTableRecord
100
AcDbViewportTableRecord
  2
*Active
 70
     0
 10
0.0
 20
0.0
 11
1.0
 21
1.0
 12
154.8691750198476
 22
135.7582280242488
 13
0.0
 23
0.0
 14
10.0
 24
10.0
 15
10.0
 25
10.0
 16
0.0
 26
0.0
 36
1.0
 17
0.0
 27
0.0
 37
0.0
 40
195.7979621213683
 41
1.256410256410256
 42
50.0
 43
0.0
 44
0.0
 50
0.0
 51
0.0
 71
    16
 72
  1000
 73
     1
 74
     3
 75
     0
 76
     0
 77
     0
 78
     0
281
     0
 65
     1
110
0.0
120
0.0
130
0.0
111
1.0
121
0.0
131
0.0
112
0.0
122
1.0
132
0.0
 79
     0
146
0.0
348
1F69
 60
     3
 61
     5
292
     1
282
     1
141
0.0
142
0.0
 63
   256
361
1FAE
  0
ENDTAB
  0
TABLE
  2
LTYPE
  5
5
330
0
100
AcDbSymbolTable
 70
     6
  0
LTYPE
  5
14
330
5
100
AcDbSymbolTableRecord
100
AcDbLinetypeTableRecord
  2
ByBlock
 70
     0
  3

 72
    65
 73
     0
 40
0.0
  0
LTYPE
  5
15
330
5
100
AcDbSymbolTableRecord
100
AcDbLinetypeTableRecord
  2
ByLayer
 70
     0
  3

 72
    65
 73
     0
 40
0.0
  0
LTYPE
  5
16
330
5
100
AcDbSymbolTableRecord
100
AcDbLinetypeTableRecord
  2
Continuous
 70
     0
  3
Solid line
 72
    65
 73
     0
 40
0.0
  0
LTYPE
  5
35
330
5
100
AcDbSymbolTableRecord
100
AcDbLinetypeTableRecord
  2
ACAD_ISO08W100
 70
     0
  3
ISO long-dash short-dash ____ __ ____ __ ____ _
 72
    65
 73
     4
 40
36.0
 49
24.0
 74
     0
 49
-3.0
 74
     0
 49
6.0
 74
     0
 49
-3.0
 74
     0
  0
LTYPE
  5
127
330
5
100
AcDbSymbolTableRecord
100
AcDbLinetypeTableRecord
  2
HIDDENX2
 70
     0
  3
Hidden (2x) ____ ____ ____ ____ ____ ____ ____
 72
    65
 73
     2
 40
19.05
 49
12.7
 74
     0
 49
-6.35
 74
     0
  0
LTYPE
  5
5EC
330
5
100
AcDbSymbolTableRecord
100
AcDbLinetypeTableRecord
  2
CENTER
 70
     0
  3
Center ____ _ ____ _ ____ _ ____ _ ____ _ ____
 72
    65
 73
     4
 40
50.8
 49
31.75
 74
     0
 49
-6.35
 74
     0
 49
6.35
 74
     0
 49
-6.35
 74
     0
  0
LTYPE
  5
5ED
330
5
100
AcDbSymbolTableRecord
100
AcDbLinetypeTableRecord
  2
ACAD_ISO02W100
 70
     0
  3
ISO dash __ __ __ __ __ __ __ __ __ __ __ __ __
 72
    65
 73
     2
 40
15.0
 49
12.0
 74
     0
 49
-3.0
 74
     0
  0
LTYPE
  5
605
330
5
100
AcDbSymbolTableRecord
100
AcDbLinetypeTableRecord
  2
DASHED
 70
     0
  3
Dashed __ __ __ __ __ __ __ __ __ __ __ __ __ _
 72
    65
 73
     2
 40
19.05
 49
12.7
 74
     0
 49
-6.35
 74
     0
  0
ENDTAB
  0
TABLE
  2
LAYER
  5
2
330
0
100
AcDbSymbolTable
 70
     9
  0
LAYER
  5
10
330
2
100
AcDbSymbolTableRecord
100
AcDbLayerTableRecord
  2
0
 70
     0
 62
     7
  6
Continuous
370
    -3
390
F
347
1FA1
348
0
  0
LAYER
  5
2E
330
2
100
AcDbSymbolTableRecord
100
AcDbLayerTableRecord
  2
枠
 70
     0
 62
     1
  6
Continuous
370
    30
390
F
347
1FA1
348
0
  0
LAYER
  5
2F
330
2
100
AcDbSymbolTableRecord
100
AcDbLayerTableRecord
  2
文字
 70
     0
 62
     7
  6
Continuous
370
    18
390
F
347
1FA1
348
0
  0
LAYER
  5
36
330
2
100
AcDbSymbolTableRecord
100
AcDbLayerTableRecord
  2
中心線
 70
     0
 62
     7
  6
CENTER
370
    15
390
F
347
1FA1
348
0
  0
LAYER
  5
52
330
2
100
AcDbSymbolTableRecord
100
AcDbLayerTableRecord
  2
隠れ線
 70
     0
 62
     2
  6
Continuous
290
     0
370
    -3
390
F
347
1FA1
348
0
  0
LAYER
  5
128
330
2
100
AcDbSymbolTableRecord
100
AcDbLayerTableRecord
  2
実線
 70
     0
 62
     7
  6
Continuous
370
    20
390
F
347
1FA1
348
0
  0
LAYER
  5
129
330
2
100
AcDbSymbolTableRecord
100
AcDbLayerTableRecord
  2
破線
 70
     0
 62
     7
  6
DASHED
370
    15
390
F
347
1FA1
348
0
  0
LAYER
  5
677
330
2
100
AcDbSymbolTableRecord
100
AcDbLayerTableRecord
  2
Defpoints
 70
     0
 62
     7
  6
Continuous
290
     0
370
    -3
390
F
347
1FA1
348
0
  0
LAYER
  5
1FC1
330
2
100
AcDbSymbolTableRecord
100
AcDbLayerTableRecord
  2
文字・寸法線
 70
     0
 62
     7
  6
Continuous
370
    13
390
F
347
1FA1
348
0
  0
ENDTAB
  0
TABLE
  2
STYLE
  5
3
330
0
100
AcDbSymbolTable
 70
     2
  0
STYLE
  5
11
330
3
100
AcDbSymbolTableRecord
100
AcDbTextStyleTableRecord
  2
Standard
 70
     0
 40
0.0
 41
1.0
 50
0.0
 71
     0
 42
3.0
  3
txt.shx
  4
bigfont.shx
  0
STYLE
  5
34
330
3
100
AcDbSymbolTableRecord
100
AcDbTextStyleTableRecord
  2

 70
     1
 40
0.0
 41
1.0
 50
0.0
 71
     0
 42
2.5
  3
ltypeshp.shx
  4

  0
ENDTAB
  0
TABLE
  2
VIEW
  5
6
330
0
100
AcDbSymbolTable
 70
     0
  0
ENDTAB
  0
TABLE
  2
UCS
  5
7
330
0
100
AcDbSymbolTable
 70
     0
  0
ENDTAB
  0
TABLE
  2
APPID
  5
9
330
0
100
AcDbSymbolTable
 70
     4
  0
APPID
  5
12
330
9
100
AcDbSymbolTableRecord
100
AcDbRegAppTableRecord
  2
ACAD
 70
     0
  0
APPID
  5
1282
330
9
100
AcDbSymbolTableRecord
100
AcDbRegAppTableRecord
  2
ACAD_DIMASSOC_CALC_DIMLFAC
 70
     0
  0
APPID
  5
1283
330
9
100
AcDbSymbolTableRecord
100
AcDbRegAppTableRecord
  2
ACAD_DIMASSOC_DIMLFAC
 70
     0
  0
APPID
  5
1284
330
9
100
AcDbSymbolTableRecord
100
AcDbRegAppTableRecord
  2
ACAD_DIMASSOC_OVERRIDDEN_DIMLFAC
 70
     0
  0
ENDTAB
  0
TABLE
  2
DIMSTYLE
  5
A
330
0
100
AcDbSymbolTable
 70
     1
100
AcDbDimStyleTable
  0
DIMSTYLE
105
29
102
{ACAD_REACTORS
330
1DBC
330
1DC2
330
1DD0
330
1DD7
330
1DDE
330
1DE3
330
1DF5
330
1DFA
102
}
330
A
100
AcDbSymbolTableRecord
100
AcDbDimStyleTableRecord
  2
ISO-25
 70
     0
 41
2.5
 42
0.625
 43
3.75
 44
1.25
 73
     0
 74
     0
 77
     1
 78
     8
140
2.5
141
2.5
143
0.03937007874016
147
0.625
171
     3
172
     1
178
     0
271
     2
272
     2
274
     3
283
     0
284
     8
340
11
  0
ENDTAB
  0
TABLE
  2
BLOCK_RECORD
  5
1
330
0
100
AcDbSymbolTable
 70
    24
  0
BLOCK_RECORD
  5
21
330
1
100
AcDbSymbolTableRecord
100
AcDbBlockTableRecord
  2
*Model_Space
340
24
 70
     0
280
     1
281
     0
  0
BLOCK_RECORD
  5
1FA7
330
1
100
AcDbSymbolTableRecord
100
AcDbBlockTableRecord
  2
*Paper_Space
340
1FA8
 70
     0
280
     1
281
     0
  0
BLOCK_RECORD
  5
1581
330
1
100
AcDbSymbolTableRecord
100
AcDbBlockTableRecord
  2
_Dot
340
0
 70
     0
280
     1
281
     0
  0
BLOCK_RECORD
  5
1591
330
1
100
AcDbSymbolTableRecord
100
AcDbBlockTableRecord
  2
_None
340
0
 70
     0
280
     1
281
     0
  0
BLOCK_RECORD
  5
15A6
330
1
100
AcDbSymbolTableRecord
100
AcDbBlockTableRecord
  2
_DatumFilled
340
0
 70
     0
280
     1
281
     0
  0
BLOCK_RECORD
  5
16CF
330
1
100
AcDbSymbolTableRecord
100
AcDbBlockTableRecord
  2
_DotSmall
340
0
 70
     0
280
     1
281
     0
  0
BLOCK_RECORD
  5
1992
330
1
100
AcDbSymbolTableRecord
100
AcDbBlockTableRecord
  2
*D4
340
0
 70
     0
280
     1
281
     0
  0
BLOCK_RECORD
  5
199E
330
1
100
AcDbSymbolTableRecord
100
AcDbBlockTableRecord
  2
*D5
340
0
 70
     0
280
     1
281
     0
  0
BLOCK_RECORD
  5
19AC
330
1
100
AcDbSymbolTableRecord
100
AcDbBlockTableRecord
  2
*D6
340
0
 70
     0
280
     1
281
     0
  0
BLOCK_RECORD
  5
19B8
330
1
100
AcDbSymbolTableRecord
100
AcDbBlockTableRecord
  2
*D7
340
0
 70
     0
280
     1
281
     0
  0
BLOCK_RECORD
  5
19C4
330
1
100
AcDbSymbolTableRecord
100
AcDbBlockTableRecord
  2
*D8
340
0
 70
     0
280
     1
281
     0
  0
BLOCK_RECORD
  5
19D0
330
1
100
AcDbSymbolTableRecord
100
AcDbBlockTableRecord
  2
*D9
340
0
 70
     0
280
     1
281
     0
  0
BLOCK_RECORD
  5
19DC
330
1
100
AcDbSymbolTableRecord
100
AcDbBlockTableRecord
  2
*D10
340
0
 70
     0
280
     1
281
     0
  0
BLOCK_RECORD
  5
19ED
330
1
100
AcDbSymbolTableRecord
100
AcDbBlockTableRecord
  2
*D11
340
0
 70
     0
280
     1
281
     0
  0
BLOCK_RECORD
  5
19F9
330
1
100
AcDbSymbolTableRecord
100
AcDbBlockTableRecord
  2
*D12
340
0
 70
     0
280
     1
281
     0
  0
BLOCK_RECORD
  5
1A05
330
1
100
AcDbSymbolTableRecord
100
AcDbBlockTableRecord
  2
A$C76A36C9E
340
0
 70
     0
280
     1
281
     0
  0
BLOCK_RECORD
  5
1DFF
330
1
100
AcDbSymbolTableRecord
100
AcDbBlockTableRecord
  2
*D14
340
0
 70
     0
280
     1
281
     0
  0
BLOCK_RECORD
  5
1E0B
330
1
100
AcDbSymbolTableRecord
100
AcDbBlockTableRecord
  2
*D15
340
0
 70
     0
280
     1
281
     0
  0
BLOCK_RECORD
  5
1E17
330
1
100
AcDbSymbolTableRecord
100
AcDbBlockTableRecord
  2
*D16
340
0
 70
     0
280
     1
281
     0
  0
BLOCK_RECORD
  5
1E23
330
1
100
AcDbSymbolTableRecord
100
AcDbBlockTableRecord
  2
*D17
340
0
 70
     0
280
     1
281
     0
  0
BLOCK_RECORD
  5
1E2F
330
1
100
AcDbSymbolTableRecord
100
AcDbBlockTableRecord
  2
*D18
340
0
 70
     0
280
     1
281
     0
  0
BLOCK_RECORD
  5
1E3D
330
1
100
AcDbSymbolTableRecord
100
AcDbBlockTableRecord
  2
*D19
340
0
 70
     0
280
     1
281
     0
  0
BLOCK_RECORD
  5
1E49
330
1
100
AcDbSymbolTableRecord
100
AcDbBlockTableRecord
  2
*D20
340
0
 70
     0
280
     1
281
     0
  0
BLOCK_RECORD
  5
1E55
330
1
100
AcDbSymbolTableRecord
100
AcDbBlockTableRecord
  2
*D21
340
0
 70
     0
280
     1
281
     0
  0
BLOCK_RECORD
  5
1EAB
330
1
100
AcDbSymbolTableRecord
100
AcDbBlockTableRecord
  2
*D22
340
0
 70
     0
280
     1
281
     0
  0
ENDTAB
  0
ENDSEC
  0
SECTION
  2
BLOCKS
  0
BLOCK
  5
22
330
21
100
AcDbEntity
  8
0
100
AcDbBlockBegin
  2
*Model_Space
 70
     0
 10
0.0
 20
0.0
 30
0.0
  3
*Model_Space
  1
*Model_Space
  0
ENDBLK
  5
23
330
21
100
AcDbEntity
  8
0
100
AcDbBlockEnd
  0
BLOCK
  5
1FA9
330
1FA7
100
AcDbEntity
 67
     1
  8
0
100
AcDbBlockBegin
  2
*Paper_Space
 70
     0
 10
0.0
 20
0.0
 30
0.0
  3
*Paper_Space
  1
*Paper_Space
  0
ENDBLK
  5
1FAA
330
1FA7
100
AcDbEntity
 67
     1
  8
0
100
AcDbBlockEnd
  0
BLOCK
  5
1584
330
1581
100
AcDbEntity
  8
0
 62
     0
100
AcDbBlockBegin
  2
_Dot
 70
     0
 10
0.0
 20
0.0
 30
0.0
  3
_Dot
  1
_Dot
  0
LWPOLYLINE
  5
1582
330
1581
100
AcDbEntity
  8
0
  6
ByBlock
 62
     0
100
AcDbPolyline
 90
        2
 70
     1
 43
0.5
 10
-0.25
 20
0.0
 42
1.0
 10
0.25
 20
0.0
 42
1.0
  0
LINE
  5
1583
330
1581
100
AcDbEntity
  8
0
  6
ByBlock
 62
     0
370
    -2
100
AcDbLine
 10
-0.5
 20
0.0
 30
0.0
 11
-1.0
 21
0.0
 31
0.0
  0
ENDBLK
  5
1585
330
1581
100
AcDbEntity
  8
0
 62
     0
100
AcDbBlockEnd
  0
BLOCK
  5
1592
330
1591
100
AcDbEntity
  8
0
 62
     0
100
AcDbBlockBegin
  2
_None
 70
     0
 10
0.0
 20
0.0
 30
0.0
  3
_None
  1
_None
  0
ENDBLK
  5
1593
330
1591
100
AcDbEntity
  8
0
 62
     0
100
AcDbBlockEnd
  0
BLOCK
  5
15A8
330
15A6
100
AcDbEntity
  8
0
 62
     0
100
AcDbBlockBegin
  2
_DatumFilled
 70
     0
 10
0.0
 20
0.0
 30
0.0
  3
_DatumFilled
  1
_DatumFilled
  0
SOLID
  5
15A7
330
15A6
100
AcDbEntity
  8
0
  6
ByBlock
 62
     0
100
AcDbTrace
 10
0.0
 20
0.57735027
 30
0.0
 11
-1.0
 21
0.0
 31
0.0
 12
0.0
 22
-0.57735027
 32
0.0
 13
0.0
 23
-0.57735027
 33
0.0
  0
ENDBLK
  5
15A9
330
15A6
100
AcDbEntity
  8
0
 62
     0
100
AcDbBlockEnd
  0
BLOCK
  5
16D1
330
16CF
100
AcDbEntity
  8
0
 62
     0
100
AcDbBlockBegin
  2
_DotSmall
 70
     0
 10
0.0
 20
0.0
 30
0.0
  3
_DotSmall
  1
_DotSmall
  0
LWPOLYLINE
  5
16D0
330
16CF
100
AcDbEntity
  8
0
  6
ByBlock
 62
     0
100
AcDbPolyline
 90
        2
 70
     1
 43
0.5
 10
-0.0625
 20
0.0
 42
1.0
 10
0.0625
 20
0.0
 42
1.0
  0
ENDBLK
  5
16D2
330
16CF
100
AcDbEntity
  8
0
 62
     0
100
AcDbBlockEnd
  0
BLOCK
  5
1993
330
1992
100
AcDbEntity
  8
0
370
    30
100
AcDbBlockBegin
  2
*D4
 70
     1
 10
0.0
 20
0.0
 30
0.0
  3
*D4
  1
*D4
  0
LINE
  5
1994
330
1992
100
AcDbEntity
  8
文字
 62
     0
370
    -2
100
AcDbLine
 10
192.2214242466307
 20
115.3847432098993
 30
0.0
 11
192.2214242466307
 21
74.91396239368606
 31
0.0
  0
LINE
  5
1995
330
1992
100
AcDbEntity
  8
文字
 62
     0
370
    -2
100
AcDbLine
 10
220.2214242466307
 20
115.3847432098993
 30
0.0
 11
220.2214242466307
 21
74.91396239368606
 31
0.0
  0
LINE
  5
1996
330
1992
100
AcDbEntity
  8
文字
 62
     0
370
    -2
100
AcDbLine
 10
194.7214242466307
 20
76.16396239368606
 30
0.0
 11
217.7214242466307
 21
76.16396239368606
 31
0.0
  0
SOLID
  5
1997
330
1992
100
AcDbEntity
  8
文字
 62
     0
100
AcDbTrace
 10
194.7214242466307
 20
76.58062906035273
 30
0.0
 11
194.7214242466307
 21
75.74729572701939
 31
0.0
 12
192.2214242466307
 22
76.16396239368606
 32
0.0
 13
192.2214242466307
 23
76.16396239368606
 33
0.0
  0
SOLID
  5
1998
330
1992
100
AcDbEntity
  8
文字
 62
     0
100
AcDbTrace
 10
217.7214242466307
 20
76.58062906035273
 30
0.0
 11
217.7214242466307
 21
75.74729572701939
 31
0.0
 12
220.2214242466307
 22
76.16396239368606
 32
0.0
 13
220.2214242466307
 23
76.16396239368606
 33
0.0
  0
MTEXT
  5
1999
330
1992
100
AcDbEntity
  8
文字
 62
     0
100
AcDbMText
 10
206.2214242466307
 20
78.03896239368606
 30
0.0
 40
2.5
 41
0.0
 46
0.0
 71
     5
 72
     1
  1
%%c28
 73
     1
 44
1.0
  0
POINT
  5
199A
330
1992
100
AcDbEntity
  8
Defpoints
 62
     0
100
AcDbPoint
 10
192.2214242466307
 20
116.0097432098993
 30
0.0
  0
POINT
  5
199B
330
1992
100
AcDbEntity
  8
Defpoints
 62
     0
100
AcDbPoint
 10
220.2214242466307
 20
116.0097432098993
 30
0.0
  0
POINT
  5
199C
330
1992
100
AcDbEntity
  8
Defpoints
 62
     0
100
AcDbPoint
 10
220.2214242466307
 20
76.16396239368606
 30
0.0
  0
ENDBLK
  5
199D
330
1992
100
AcDbEntity
  8
0
370
    30
100
AcDbBlockEnd
  0
BLOCK
  5
199F
330
199E
100
AcDbEntity
  8
0
370
    30
100
AcDbBlockBegin
  2
*D5
 70
     1
 10
0.0
 20
0.0
 30
0.0
  3
*D5
  1
*D5
  0
LINE
  5
19A0
330
199E
100
AcDbEntity
  8
文字
 62
     0
370
    -2
100
AcDbLine
 10
71.59625003018851
 20
83.94882055485836
 30
0.0
 11
55.97592567393417
 21
83.94882055485836
 31
0.0
  0
LINE
  5
19A1
330
199E
100
AcDbEntity
  8
文字
 62
     0
370
    -2
100
AcDbLine
 10
71.59625003018851
 20
82.34882055485836
 30
0.0
 11
55.97592567393417
 21
82.34882055485836
 31
0.0
  0
LINE
  5
19A2
330
199E
100
AcDbEntity
  8
文字
 62
     0
370
    -2
100
AcDbLine
 10
57.22592567393417
 20
86.44882055485836
 30
0.0
 11
57.22592567393417
 21
88.94882055485836
 31
0.0
  0
LINE
  5
19A3
330
199E
100
AcDbEntity
  8
文字
 62
     0
370
    -2
100
AcDbLine
 10
57.22592567393416
 20
79.84882055485836
 30
0.0
 11
57.22592567393416
 21
71.93215388819169
 31
0.0
  0
LINE
  5
19A4
330
199E
100
AcDbEntity
  8
文字
 62
     0
370
    -2
100
AcDbLine
 10
57.22592567393417
 20
83.94882055485836
 30
0.0
 11
57.22592567393417
 21
82.34882055485836
 31
0.0
  0
SOLID
  5
19A5
330
199E
100
AcDbEntity
  8
文字
 62
     0
100
AcDbTrace
 10
56.80925900726751
 20
86.44882055485836
 30
0.0
 11
57.64259234060084
 21
86.44882055485836
 31
0.0
 12
57.22592567393417
 22
83.94882055485836
 32
0.0
 13
57.22592567393417
 23
83.94882055485836
 33
0.0
  0
SOLID
  5
19A6
330
199E
100
AcDbEntity
  8
文字
 62
     0
100
AcDbTrace
 10
56.8092590072675
 20
79.84882055485836
 30
0.0
 11
57.64259234060083
 21
79.84882055485836
 31
0.0
 12
57.22592567393417
 22
82.34882055485836
 32
0.0
 13
57.22592567393417
 23
82.34882055485836
 33
0.0
  0
MTEXT
  5
19A7
330
199E
100
AcDbEntity
  8
文字
 62
     0
100
AcDbMText
 10
55.35092567393416
 20
74.64048722152505
 30
0.0
 40
2.5
 41
0.0
 46
0.0
 71
     5
 72
     1
  1
1.5
 11
6.123031769111886E-17
 21
1.0
 31
0.0
 73
     1
 44
1.0
  0
POINT
  5
19A8
330
199E
100
AcDbEntity
  8
Defpoints
 62
     0
100
AcDbPoint
 10
72.22125003018851
 20
83.94882055485836
 30
0.0
  0
POINT
  5
19A9
330
199E
100
AcDbEntity
  8
Defpoints
 62
     0
100
AcDbPoint
 10
72.22125003018851
 20
82.34882055485836
 30
0.0
  0
POINT
  5
19AA
330
199E
100
AcDbEntity
  8
Defpoints
 62
     0
100
AcDbPoint
 10
57.22592567393417
 20
82.34882055485836
 30
0.0
  0
ENDBLK
  5
19AB
330
199E
100
AcDbEntity
  8
0
370
    30
100
AcDbBlockEnd
  0
BLOCK
  5
19AD
330
19AC
100
AcDbEntity
  8
0
370
    30
100
AcDbBlockBegin
  2
*D6
 70
     1
 10
0.0
 20
0.0
 30
0.0
  3
*D6
  1
*D6
  0
LINE
  5
19AE
330
19AC
100
AcDbEntity
  8
文字
 62
     0
370
    -2
100
AcDbLine
 10
199.7262337182474
 20
115.3847432098993
 30
0.0
 11
199.7262337182474
 21
82.51985031794277
 31
0.0
  0
LINE
  5
19AF
330
19AC
100
AcDbEntity
  8
文字
 62
     0
370
    -2
100
AcDbLine
 10
212.716614775014
 20
115.3847432098993
 30
0.0
 11
212.716614775014
 21
82.51985031794277
 31
0.0
  0
LINE
  5
19B0
330
19AC
100
AcDbEntity
  8
文字
 62
     0
370
    -2
100
AcDbLine
 10
202.2262337182474
 20
83.76985031794277
 30
0.0
 11
210.216614775014
 21
83.76985031794277
 31
0.0
  0
SOLID
  5
19B1
330
19AC
100
AcDbEntity
  8
文字
 62
     0
100
AcDbTrace
 10
202.2262337182474
 20
84.18651698460944
 30
0.0
 11
202.2262337182474
 21
83.3531836512761
 31
0.0
 12
199.7262337182474
 22
83.76985031794277
 32
0.0
 13
199.7262337182474
 23
83.76985031794277
 33
0.0
  0
SOLID
  5
19B2
330
19AC
100
AcDbEntity
  8
文字
 62
     0
100
AcDbTrace
 10
210.216614775014
 20
84.18651698460944
 30
0.0
 11
210.216614775014
 21
83.3531836512761
 31
0.0
 12
212.716614775014
 22
83.76985031794277
 32
0.0
 13
212.716614775014
 23
83.76985031794277
 33
0.0
  0
MTEXT
  5
19B3
330
19AC
100
AcDbEntity
  8
文字
 62
     0
100
AcDbMText
 10
206.4041474863344
 20
85.64485031794277
 30
0.0
 40
2.5
 41
0.0
 46
0.0
 71
     5
 72
     1
  1
13
 73
     1
 44
1.0
  0
POINT
  5
19B4
330
19AC
100
AcDbEntity
  8
Defpoints
 62
     0
100
AcDbPoint
 10
199.7262337182474
 20
116.0097432098993
 30
0.0
  0
POINT
  5
19B5
330
19AC
100
AcDbEntity
  8
Defpoints
 62
     0
100
AcDbPoint
 10
212.716614775014
 20
116.0097432098993
 30
0.0
  0
POINT
  5
19B6
330
19AC
100
AcDbEntity
  8
Defpoints
 62
     0
100
AcDbPoint
 10
212.716614775014
 20
83.76985031794277
 30
0.0
  0
ENDBLK
  5
19B7
330
19AC
100
AcDbEntity
  8
0
370
    30
100
AcDbBlockEnd
  0
BLOCK
  5
19B9
330
19B8
100
AcDbEntity
  8
0
100
AcDbBlockBegin
  2
*D7
 70
     1
 10
0.0
 20
0.0
 30
0.0
  3
*D7
  1
*D7
  0
LINE
  5
19BA
330
19B8
100
AcDbEntity
  8
文字
 62
     0
370
    -2
100
AcDbLine
 10
87.2212500301885
 20
135.0570527207158
 30
0.0
 11
87.2212500301885
 21
147.9015722211
 31
0.0
  0
LINE
  5
19BB
330
19B8
100
AcDbEntity
  8
文字
 62
     0
370
    -2
100
AcDbLine
 10
95.22125003018851
 20
135.0570527207158
 30
0.0
 11
95.22125003018851
 21
147.9015722211
 31
0.0
  0
LINE
  5
19BC
330
19B8
100
AcDbEntity
  8
文字
 62
     0
370
    -2
100
AcDbLine
 10
89.7212500301885
 20
146.6515722211
 30
0.0
 11
92.72125003018851
 21
146.6515722211
 31
0.0
  0
SOLID
  5
19BD
330
19B8
100
AcDbEntity
  8
文字
 62
     0
100
AcDbTrace
 10
89.7212500301885
 20
147.0682388877666
 30
0.0
 11
89.7212500301885
 21
146.2349055544333
 31
0.0
 12
87.2212500301885
 22
146.6515722211
 32
0.0
 13
87.2212500301885
 23
146.6515722211
 33
0.0
  0
SOLID
  5
19BE
330
19B8
100
AcDbEntity
  8
文字
 62
     0
100
AcDbTrace
 10
92.72125003018851
 20
147.0682388877666
 30
0.0
 11
92.72125003018851
 21
146.2349055544333
 31
0.0
 12
95.22125003018851
 22
146.6515722211
 32
0.0
 13
95.22125003018851
 23
146.6515722211
 33
0.0
  0
MTEXT
  5
19BF
330
19B8
100
AcDbEntity
  8
文字
 62
     0
100
AcDbMText
 10
91.22125003018851
 20
148.5265722211
 30
0.0
 40
2.5
 41
0.0
 46
0.0
 71
     5
 72
     1
  1
{\fArial|b0|i0|c0|p32;M}8
 73
     1
 44
1.0
  0
POINT
  5
19C0
330
19B8
100
AcDbEntity
  8
Defpoints
 62
     0
100
AcDbPoint
 10
87.2212500301885
 20
134.4320527207158
 30
0.0
  0
POINT
  5
19C1
330
19B8
100
AcDbEntity
  8
Defpoints
 62
     0
100
AcDbPoint
 10
95.22125003018851
 20
134.4320527207158
 30
0.0
  0
POINT
  5
19C2
330
19B8
100
AcDbEntity
  8
Defpoints
 62
     0
100
AcDbPoint
 10
95.22125003018851
 20
146.6515722211
 30
0.0
  0
ENDBLK
  5
19C3
330
19B8
100
AcDbEntity
  8
0
100
AcDbBlockEnd
  0
BLOCK
  5
19C5
330
19C4
100
AcDbEntity
  8
0
100
AcDbBlockBegin
  2
*D8
 70
     1
 10
0.0
 20
0.0
 30
0.0
  3
*D8
  1
*D8
  0
LINE
  5
19C6
330
19C4
100
AcDbEntity
  8
文字
 62
     0
370
    -2
100
AcDbLine
 10
72.22125003018851
 20
81.72382055485836
 30
0.0
 11
72.22125003018851
 21
61.64683633055239
 31
0.0
  0
LINE
  5
19C7
330
19C4
100
AcDbEntity
  8
文字
 62
     0
370
    -2
100
AcDbLine
 10
110.2212500301885
 20
81.72382055485835
 30
0.0
 11
110.2212500301885
 21
61.64683633055239
 31
0.0
  0
LINE
  5
19C8
330
19C4
100
AcDbEntity
  8
文字
 62
     0
370
    -2
100
AcDbLine
 10
74.72125003018851
 20
62.89683633055239
 30
0.0
 11
107.7212500301885
 21
62.89683633055239
 31
0.0
  0
SOLID
  5
19C9
330
19C4
100
AcDbEntity
  8
文字
 62
     0
100
AcDbTrace
 10
74.72125003018851
 20
63.31350299721905
 30
0.0
 11
74.72125003018851
 21
62.48016966388573
 31
0.0
 12
72.22125003018851
 22
62.89683633055239
 32
0.0
 13
72.22125003018851
 23
62.89683633055239
 33
0.0
  0
SOLID
  5
19CA
330
19C4
100
AcDbEntity
  8
文字
 62
     0
100
AcDbTrace
 10
107.7212500301885
 20
63.31350299721905
 30
0.0
 11
107.7212500301885
 21
62.48016966388573
 31
0.0
 12
110.2212500301885
 22
62.89683633055239
 32
0.0
 13
110.2212500301885
 23
62.89683633055239
 33
0.0
  0
MTEXT
  5
19CB
330
19C4
100
AcDbEntity
  8
文字
 62
     0
100
AcDbMText
 10
91.22125003018851
 20
64.77183633055239
 30
0.0
 40
2.5
 41
0.0
 46
0.0
 71
     5
 72
     1
  1
%%c38
 73
     1
 44
1.0
  0
POINT
  5
19CC
330
19C4
100
AcDbEntity
  8
Defpoints
 62
     0
100
AcDbPoint
 10
72.22125003018851
 20
82.34882055485836
 30
0.0
  0
POINT
  5
19CD
330
19C4
100
AcDbEntity
  8
Defpoints
 62
     0
100
AcDbPoint
 10
110.2212500301885
 20
82.34882055485835
 30
0.0
  0
POINT
  5
19CE
330
19C4
100
AcDbEntity
  8
Defpoints
 62
     0
100
AcDbPoint
 10
110.2212500301885
 20
62.89683633055239
 30
0.0
  0
ENDBLK
  5
19CF
330
19C4
100
AcDbEntity
  8
0
100
AcDbBlockEnd
  0
BLOCK
  5
19D1
330
19D0
100
AcDbEntity
  8
0
100
AcDbBlockBegin
  2
*D9
 70
     1
 10
0.0
 20
0.0
 30
0.0
  3
*D9
  1
*D9
  0
LINE
  5
19D2
330
19D0
100
AcDbEntity
  8
文字
 62
     0
370
    -2
100
AcDbLine
 10
110.8462500301885
 20
82.34882055485835
 30
0.0
 11
126.0779593090463
 21
82.34882055485835
 31
0.0
  0
LINE
  5
19D3
330
19D0
100
AcDbEntity
  8
文字
 62
     0
370
    -2
100
AcDbLine
 10
96.86248092256537
 20
94.93228662189009
 30
0.0
 11
126.0779593090463
 21
94.93228662189009
 31
0.0
  0
LINE
  5
19D4
330
19D0
100
AcDbEntity
  8
文字
 62
     0
370
    -2
100
AcDbLine
 10
124.8279593090463
 20
84.84882055485835
 30
0.0
 11
124.8279593090463
 21
92.43228662189009
 31
0.0
  0
SOLID
  5
19D5
330
19D0
100
AcDbEntity
  8
文字
 62
     0
100
AcDbTrace
 10
124.4112926423796
 20
84.84882055485835
 30
0.0
 11
125.2446259757129
 21
84.84882055485835
 31
0.0
 12
124.8279593090463
 22
82.34882055485835
 32
0.0
 13
124.8279593090463
 23
82.34882055485835
 33
0.0
  0
SOLID
  5
19D6
330
19D0
100
AcDbEntity
  8
文字
 62
     0
100
AcDbTrace
 10
124.4112926423796
 20
92.43228662189009
 30
0.0
 11
125.2446259757129
 21
92.43228662189009
 31
0.0
 12
124.8279593090463
 22
94.93228662189009
 32
0.0
 13
124.8279593090463
 23
94.93228662189009
 33
0.0
  0
MTEXT
  5
19D7
330
19D0
100
AcDbEntity
  8
文字
 62
     0
100
AcDbMText
 10
122.9529593090462
 20
88.64055358837423
 30
0.0
 40
2.5
 41
0.0
 46
0.0
 71
     5
 72
     1
  1
13
 11
6.123031769111886E-17
 21
1.0
 31
0.0
 73
     1
 44
1.0
  0
POINT
  5
19D8
330
19D0
100
AcDbEntity
  8
Defpoints
 62
     0
100
AcDbPoint
 10
110.2212500301885
 20
82.34882055485835
 30
0.0
  0
POINT
  5
19D9
330
19D0
100
AcDbEntity
  8
Defpoints
 62
     0
100
AcDbPoint
 10
96.23748092256537
 20
94.93228662189009
 30
0.0
  0
POINT
  5
19DA
330
19D0
100
AcDbEntity
  8
Defpoints
 62
     0
100
AcDbPoint
 10
124.8279593090463
 20
94.93228662189009
 30
0.0
  0
ENDBLK
  5
19DB
330
19D0
100
AcDbEntity
  8
0
100
AcDbBlockEnd
  0
BLOCK
  5
19DD
330
19DC
100
AcDbEntity
  8
0
100
AcDbBlockBegin
  2
*D10
 70
     1
 10
0.0
 20
0.0
 30
0.0
  3
*D10
  1
*D10
  0
LINE
  5
19DE
330
19DC
100
AcDbEntity
  8
文字
 62
     0
370
    -2
100
AcDbLine
 10
96.86248092256537
 20
94.93228662189009
 30
0.0
 11
126.0779593090463
 21
94.93228662189009
 31
0.0
  0
LINE
  5
19DF
330
19DC
100
AcDbEntity
  8
文字
 62
     0
370
    -2
100
AcDbLine
 10
99.37863313321532
 20
100.4320527207158
 30
0.0
 11
126.0779593090463
 21
100.4320527207158
 31
0.0
  0
LINE
  5
19E0
330
19DC
100
AcDbEntity
  8
文字
 62
     0
370
    -2
100
AcDbLine
 10
124.8279593090463
 20
92.43228662189009
 30
0.0
 11
124.8279593090463
 21
89.93228662189009
 31
0.0
  0
LINE
  5
19E1
330
19DC
100
AcDbEntity
  8
文字
 62
     0
370
    -2
100
AcDbLine
 10
124.8279593090463
 20
102.9320527207158
 30
0.0
 11
124.8279593090463
 21
105.4320527207158
 31
0.0
  0
LINE
  5
19E2
330
19DC
100
AcDbEntity
  8
文字
 62
     0
370
    -2
100
AcDbLine
 10
124.8279593090463
 20
97.68216967130294
 30
0.0
 11
130.7654593090463
 21
99.46341967130294
 31
0.0
  0
LINE
  5
19E3
330
19DC
100
AcDbEntity
  8
文字
 62
     0
370
    -2
100
AcDbLine
 10
130.7654593090463
 20
99.46341967130294
 30
0.0
 11
130.7654593090463
 21
105.7134196713029
 31
0.0
  0
MTEXT
  5
19E4
330
19DC
100
AcDbEntity
  8
文字
 62
     0
100
AcDbMText
 10
128.8904593090463
 20
102.588419671303
 30
0.0
 40
2.5
 41
0.0
 46
0.0
 71
     5
 72
     1
  1
5.5
 11
6.123031769111886E-17
 21
1.0
 31
0.0
 73
     1
 44
1.0
  0
LINE
  5
19E5
330
19DC
100
AcDbEntity
  8
文字
 62
     0
370
    -2
100
AcDbLine
 10
124.8279593090463
 20
94.93228662189009
 30
0.0
 11
124.8279593090463
 21
100.4320527207158
 31
0.0
  0
LINE
  5
19E6
330
19DC
100
AcDbEntity
  8
文字
 62
     0
370
    -2
100
AcDbLine
 10
124.8279593090463
 20
94.93228662189009
 30
0.0
 11
124.8279593090463
 21
100.4320527207158
 31
0.0
  0
SOLID
  5
19E7
330
19DC
100
AcDbEntity
  8
文字
 62
     0
100
AcDbTrace
 10
124.4112926423796
 20
92.43228662189009
 30
0.0
 11
125.2446259757129
 21
92.43228662189009
 31
0.0
 12
124.8279593090463
 22
94.93228662189009
 32
0.0
 13
124.8279593090463
 23
94.93228662189009
 33
0.0
  0
SOLID
  5
19E8
330
19DC
100
AcDbEntity
  8
文字
 62
     0
100
AcDbTrace
 10
124.4112926423796
 20
102.9320527207158
 30
0.0
 11
125.2446259757129
 21
102.9320527207158
 31
0.0
 12
124.8279593090463
 22
100.4320527207158
 32
0.0
 13
124.8279593090463
 23
100.4320527207158
 33
0.0
  0
POINT
  5
19E9
330
19DC
100
AcDbEntity
  8
Defpoints
 62
     0
100
AcDbPoint
 10
96.23748092256537
 20
94.93228662189009
 30
0.0
  0
POINT
  5
19EA
330
19DC
100
AcDbEntity
  8
Defpoints
 62
     0
100
AcDbPoint
 10
98.75363313321532
 20
100.4320527207158
 30
0.0
  0
POINT
  5
19EB
330
19DC
100
AcDbEntity
  8
Defpoints
 62
     0
100
AcDbPoint
 10
124.8279593090463
 20
100.4320527207158
 30
0.0
  0
ENDBLK
  5
19EC
330
19DC
100
AcDbEntity
  8
0
100
AcDbBlockEnd
  0
BLOCK
  5
19EE
330
19ED
100
AcDbEntity
  8
0
100
AcDbBlockBegin
  2
*D11
 70
     1
 10
0.0
 20
0.0
 30
0.0
  3
*D11
  1
*D11
  0
LINE
  5
19EF
330
19ED
100
AcDbEntity
  8
文字
 62
     0
370
    -2
100
AcDbLine
 10
99.37863313321532
 20
100.4320527207158
 30
0.0
 11
126.0779593090463
 21
100.4320527207158
 31
0.0
  0
LINE
  5
19F0
330
19ED
100
AcDbEntity
  8
文字
 62
     0
370
    -2
100
AcDbLine
 10
94.84625003018851
 20
135.4320527207158
 30
0.0
 11
126.0779593090463
 21
135.4320527207158
 31
0.0
  0
LINE
  5
19F1
330
19ED
100
AcDbEntity
  8
文字
 62
     0
370
    -2
100
AcDbLine
 10
124.8279593090463
 20
102.9320527207158
 30
0.0
 11
124.8279593090463
 21
132.9320527207158
 31
0.0
  0
SOLID
  5
19F2
330
19ED
100
AcDbEntity
  8
文字
 62
     0
100
AcDbTrace
 10
124.4112926423796
 20
102.9320527207158
 30
0.0
 11
125.2446259757129
 21
102.9320527207158
 31
0.0
 12
124.8279593090463
 22
100.4320527207158
 32
0.0
 13
124.8279593090463
 23
100.4320527207158
 33
0.0
  0
SOLID
  5
19F3
330
19ED
100
AcDbEntity
  8
文字
 62
     0
100
AcDbTrace
 10
124.4112926423796
 20
132.9320527207158
 30
0.0
 11
125.2446259757129
 21
132.9320527207158
 31
0.0
 12
124.8279593090463
 22
135.4320527207158
 32
0.0
 13
124.8279593090463
 23
135.4320527207158
 33
0.0
  0
MTEXT
  5
19F4
330
19ED
100
AcDbEntity
  8
文字
 62
     0
100
AcDbMText
 10
122.9529593090463
 20
117.9320527207158
 30
0.0
 40
2.5
 41
0.0
 46
0.0
 71
     5
 72
     1
  1
35
 11
6.123031769111886E-17
 21
1.0
 31
0.0
 73
     1
 44
1.0
  0
POINT
  5
19F5
330
19ED
100
AcDbEntity
  8
Defpoints
 62
     0
100
AcDbPoint
 10
98.75363313321532
 20
100.4320527207158
 30
0.0
  0
POINT
  5
19F6
330
19ED
100
AcDbEntity
  8
Defpoints
 62
     0
100
AcDbPoint
 10
94.22125003018851
 20
135.4320527207158
 30
0.0
  0
POINT
  5
19F7
330
19ED
100
AcDbEntity
  8
Defpoints
 62
     0
100
AcDbPoint
 10
124.8279593090463
 20
135.4320527207158
 30
0.0
  0
ENDBLK
  5
19F8
330
19ED
100
AcDbEntity
  8
0
100
AcDbBlockEnd
  0
BLOCK
  5
19FA
330
19F9
100
AcDbEntity
  8
0
100
AcDbBlockBegin
  2
*D12
 70
     1
 10
0.0
 20
0.0
 30
0.0
  3
*D12
  1
*D12
  0
LINE
  5
19FB
330
19F9
100
AcDbEntity
  8
文字
 62
     0
370
    -2
100
AcDbLine
 10
110.8462500301885
 20
82.34882055485835
 30
0.0
 11
141.6100264422735
 21
82.34882055485835
 31
0.0
  0
LINE
  5
19FC
330
19F9
100
AcDbEntity
  8
文字
 62
     0
370
    -2
100
AcDbLine
 10
94.84625003018851
 20
135.4320527207158
 30
0.0
 11
141.6100264422735
 21
135.4320527207158
 31
0.0
  0
LINE
  5
19FD
330
19F9
100
AcDbEntity
  8
文字
 62
     0
370
    -2
100
AcDbLine
 10
140.3600264422735
 20
84.84882055485835
 30
0.0
 11
140.3600264422735
 21
132.9320527207158
 31
0.0
  0
SOLID
  5
19FE
330
19F9
100
AcDbEntity
  8
文字
 62
     0
100
AcDbTrace
 10
139.9433597756068
 20
84.84882055485835
 30
0.0
 11
140.7766931089401
 21
84.84882055485835
 31
0.0
 12
140.3600264422735
 22
82.34882055485835
 32
0.0
 13
140.3600264422735
 23
82.34882055485835
 33
0.0
  0
SOLID
  5
19FF
330
19F9
100
AcDbEntity
  8
文字
 62
     0
100
AcDbTrace
 10
139.9433597756068
 20
132.9320527207158
 30
0.0
 11
140.7766931089401
 21
132.9320527207158
 31
0.0
 12
140.3600264422735
 22
135.4320527207158
 32
0.0
 13
140.3600264422735
 23
135.4320527207158
 33
0.0
  0
MTEXT
  5
1A00
330
19F9
100
AcDbEntity
  8
文字
 62
     0
100
AcDbMText
 10
138.4850264422734
 20
108.8904366377871
 30
0.0
 40
2.5
 41
0.0
 46
0.0
 71
     5
 72
     1
  1
53.5
 11
6.123031769111886E-17
 21
1.0
 31
0.0
 73
     1
 44
1.0
  0
POINT
  5
1A01
330
19F9
100
AcDbEntity
  8
Defpoints
 62
     0
100
AcDbPoint
 10
110.2212500301885
 20
82.34882055485835
 30
0.0
  0
POINT
  5
1A02
330
19F9
100
AcDbEntity
  8
Defpoints
 62
     0
100
AcDbPoint
 10
94.22125003018851
 20
135.4320527207158
 30
0.0
  0
POINT
  5
1A03
330
19F9
100
AcDbEntity
  8
Defpoints
 62
     0
100
AcDbPoint
 10
140.3600264422735
 20
135.4320527207158
 30
0.0
  0
ENDBLK
  5
1A04
330
19F9
100
AcDbEntity
  8
0
100
AcDbBlockEnd
  0
BLOCK
  5
1A4C
330
1A05
100
AcDbEntity
  8
0
 62
     0
100
AcDbBlockBegin
  2
A$C76A36C9E
 70
     0
 10
0.0
 20
0.0
 30
0.0
  3
A$C76A36C9E
  1
A$C76A36C9E
  0
LWPOLYLINE
  5
1A06
330
1A05
100
AcDbEntity
  8
実線
370
    50
100
AcDbPolyline
 90
        6
 70
     0
 43
0.0
 10
-136.9787502058973
 20
95.18495711771044
 10
-136.9787502058973
 20
115.6320525348278
 10
-137.9787502058973
 20
116.6320525348278
 10
-143.9787502058973
 20
116.6320525348278
 10
-144.9787502058973
 20
115.6320525348278
 10
-144.9787502058973
 20
95.18495711771044
  0
LINE
  5
1A07
330
1A05
100
AcDbEntity
  8
実線
370
    20
100
AcDbLine
 10
-137.9787502058973
 20
88.68519101888472
 30
0.0
 11
-137.9787502058973
 21
81.6320525348278
 31
0.0
  0
LINE
  5
1A08
330
1A05
100
AcDbEntity
  8
実線
370
    20
100
AcDbLine
 10
-143.9787502058973
 20
88.68519101888475
 30
0.0
 11
-143.9787502058973
 21
81.6320525348278
 31
0.0
  0
LWPOLYLINE
  5
1A09
330
1A05
100
AcDbEntity
  8
実線
370
    50
100
AcDbPolyline
 90
        4
 70
     0
 43
0.0
 10
-133.4463671028705
 20
89.68495711771044
 10
-133.4463671028705
 20
95.18495711771044
 10
-148.4463671028705
 20
95.18495711771044
 10
-148.4463671028705
 20
89.68495711771044
  0
LINE
  5
1A0A
330
1A05
100
AcDbEntity
  8
実線
370
    50
100
AcDbLine
 10
-144.3456442458684
 20
95.18495711771044
 30
0.0
 11
-144.3456442458684
 21
89.68495711771044
 31
0.0
  0
LINE
  5
1A0B
330
1A05
100
AcDbEntity
  8
実線
370
    50
100
AcDbLine
 10
-137.4873226877818
 20
95.18495711771044
 30
0.0
 11
-137.4873226877818
 21
89.68495711771044
 31
0.0
  0
ARC
  5
1A0C
330
1A05
100
AcDbEntity
  8
実線
370
    50
100
AcDbCircle
 10
-146.3960056743694
 20
91.28535523740777
 30
0.0
 40
2.601010597636193
100
AcDbArc
 50
217.973618634994
 51
322.0263813650058
  0
ARC
  5
1A0D
330
1A05
100
AcDbEntity
  8
実線
370
    50
100
AcDbCircle
 10
-140.916483466825
 20
95.06408242612318
 30
0.0
 40
6.379195304435764
100
AcDbArc
 50
237.4827287485465
 51
302.5172712514534
  0
ARC
  5
1A0E
330
1A05
100
AcDbEntity
  8
実線
370
    50
100
AcDbCircle
 10
-135.4668448953261
 20
91.22496313739819
 30
0.0
 40
2.540462369428222
100
AcDbArc
 50
217.3146110078773
 51
322.6853889921216
  0
LINE
  5
1A0F
330
1A05
100
AcDbEntity
  8
実線
370
    50
100
AcDbLine
 10
-140.9787502058973
 20
88.68519101888472
 30
0.0
 11
-145.9949810982741
 21
88.68519101888472
 31
0.0
  0
LINE
  5
1A10
330
1A05
100
AcDbEntity
  8
実線
370
    50
100
AcDbLine
 10
-140.9787502058976
 20
88.68519101888472
 30
0.0
 11
-135.9625193135205
 21
88.68519101888472
 31
0.0
  0
DIMENSION
  5
1A11
102
{ACAD_REACTORS
330
1A13
102
}
102
{ACAD_XDICTIONARY
360
1A12
102
}
330
1A05
100
AcDbEntity
  8
文字
100
AcDbDimension
280
     0
  2
*D12
 10
-91.83997379381236
 20
116.6320525348278
 30
0.0
 11
-93.71497379381239
 21
90.09043645189911
 31
0.0
 12
-232.2000002360858
 22
-18.80000018588799
 32
0.0
 70
    32
  1
53.5
 71
     5
 42
53.08323216585745
 73
     0
 74
     0
 75
     0
  3
ISO-25
100
AcDbAlignedDimension
 13
-121.9787502058973
 23
63.54882036897036
 33
0.0
 14
-137.9787502058973
 24
116.6320525348278
 34
0.0
 50
90.0
100
AcDbRotatedDimension
  0
LINE
  5
1A14
330
1A05
100
AcDbEntity
  8
中心線
100
AcDbLine
 10
-25.97857598945512
 20
97.20974302401129
 30
0.0
 11
-25.97857598945512
 21
73.28463913907507
 31
0.0
  0
LINE
  5
1A15
330
1A05
100
AcDbEntity
  8
中心線
100
AcDbLine
 10
-25.97857598945512
 20
97.20974302401129
 30
0.0
 11
-25.97857598945512
 21
122.905154338709
 31
0.0
  0
DIMENSION
  5
1A16
102
{ACAD_REACTORS
330
1A18
102
}
102
{ACAD_XDICTIONARY
360
1A17
102
}
330
1A05
100
AcDbEntity
  8
文字
100
AcDbDimension
280
     0
  2
*D11
 10
-107.3720409270395
 20
116.6320525348278
 30
0.0
 11
-109.2470409270396
 21
99.13205253482784
 31
0.0
 12
-232.2000002360858
 22
-18.80000018588799
 32
0.0
 70
    32
 71
     5
 42
35.0
 73
     0
 74
     0
 75
     0
  3
ISO-25
100
AcDbAlignedDimension
 13
-133.4463671028705
 23
81.6320525348278
 33
0.0
 14
-137.9787502058973
 24
116.6320525348278
 34
0.0
 50
90.0
100
AcDbRotatedDimension
1001
ACAD
1000
DSTYLE
1002
{
1070
   279
1070
     1
1002
}
  0
DIMENSION
  5
1A19
102
{ACAD_REACTORS
330
1A1B
102
}
102
{ACAD_XDICTIONARY
360
1A1A
102
}
330
1A05
100
AcDbEntity
  8
文字
100
AcDbDimension
280
     0
  2
*D10
 10
-107.3720409270395
 20
81.6320525348278
 30
0.0
 11
-103.3095409270396
 21
81.28841948541498
 31
0.0
 12
-232.2000002360858
 22
-18.80000018588799
 32
0.0
 70
    32
 71
     5
 42
5.499766098825717
 73
     0
 74
     0
 75
     0
  3
ISO-25
100
AcDbAlignedDimension
 13
-135.9625193135205
 23
76.13228643600209
 33
0.0
 14
-133.4463671028705
 24
81.6320525348278
 34
0.0
 50
90.0
100
AcDbRotatedDimension
1001
ACAD
1000
DSTYLE
1002
{
1070
   279
1070
     1
1002
}
  0
DIMENSION
  5
1A1C
102
{ACAD_REACTORS
330
1A1E
102
}
102
{ACAD_XDICTIONARY
360
1A1D
102
}
330
1A05
100
AcDbEntity
  8
文字
100
AcDbDimension
280
     0
  2
*D9
 10
-107.3720409270396
 20
76.13228643600209
 30
0.0
 11
-109.2470409270396
 21
69.84055340248625
 31
0.0
 12
-232.2000002360858
 22
-18.80000018588799
 32
0.0
 70
    32
  1
13
 71
     5
 42
12.58346606703174
 73
     0
 74
     0
 75
     0
  3
ISO-25
100
AcDbAlignedDimension
 13
-121.9787502058973
 23
63.54882036897036
 33
0.0
 14
-135.9625193135205
 24
76.13228643600209
 34
0.0
 50
90.0
100
AcDbRotatedDimension
  0
DIMENSION
  5
1A1F
330
1A05
100
AcDbEntity
  8
文字
100
AcDbDimension
280
     0
  2
*D8
 10
-121.9787502058973
 20
44.0968361446644
 30
0.0
 11
-140.9787502058973
 21
45.9718361446644
 31
0.0
 12
-232.2000002360858
 22
-18.80000018588799
 32
0.0
 70
    32
  1
%%c<>
 71
     5
 42
38.0
 73
     0
 74
     0
 75
     0
  3
ISO-25
100
AcDbAlignedDimension
 13
-159.9787502058973
 23
63.54882036897038
 33
0.0
 14
-121.9787502058973
 24
63.54882036897036
 34
0.0
100
AcDbRotatedDimension
  0
DIMENSION
  5
1A20
102
{ACAD_REACTORS
330
1A22
102
}
102
{ACAD_XDICTIONARY
360
1A21
102
}
330
1A05
100
AcDbEntity
  8
文字
100
AcDbDimension
280
     0
  2
*D7
 10
-136.9787502058973
 20
127.851572035212
 30
0.0
 11
-140.9787502058973
 21
129.726572035212
 31
0.0
 12
-232.2000002360858
 22
-18.80000018588799
 32
0.0
 70
    32
  1
{\fArial|b0|i0|c0|p32;M}<>
 71
     5
 42
8.000000000000014
 73
     0
 74
     0
 75
     0
  3
ISO-25
100
AcDbAlignedDimension
 13
-144.9787502058973
 23
115.6320525348278
 33
0.0
 14
-136.9787502058973
 24
115.6320525348278
 34
0.0
100
AcDbRotatedDimension
  0
LINE
  5
1A23
102
{ACAD_REACTORS
330
1A18
330
1A13
102
}
330
1A05
100
AcDbEntity
  8
実線
370
    20
100
AcDbLine
 10
-137.9787502058973
 20
116.6320525348278
 30
0.0
 11
-137.9787502058973
 21
95.18495711771044
 31
0.0
  0
LINE
  5
1A24
330
1A05
100
AcDbEntity
  8
実線
370
    20
100
AcDbLine
 10
-143.9787502058973
 20
116.6320525348278
 30
0.0
 11
-143.9787502058973
 21
95.18495711771044
 31
0.0
  0
LINE
  5
1A25
102
{ACAD_REACTORS
330
1A22
102
}
330
1A05
100
AcDbEntity
  8
実線
370
    20
100
AcDbLine
 10
-144.9787502058973
 20
115.6320525348278
 30
0.0
 11
-136.9787502058973
 21
115.6320525348278
 31
0.0
  0
LWPOLYLINE
  5
1A26
330
1A05
100
AcDbEntity
  8
実線
370
    50
100
AcDbPolyline
 90
        4
 70
     0
 43
0.0
 10
-144.9787502058973
 20
88.68519101888472
 10
-144.9787502058973
 20
81.6320525348278
 10
-136.9787502058973
 20
81.6320525348278
 10
-136.9787502058973
 20
88.68519101888472
  0
DIMENSION
  5
1A27
102
{ACAD_REACTORS
330
1A29
102
}
102
{ACAD_XDICTIONARY
360
1A28
102
}
330
1A05
100
AcDbEntity
  8
文字
100
AcDbDimension
280
     0
  2
*D6
 10
-19.48338546107183
 20
64.96985013205477
 30
0.0
 11
-25.79585274975142
 21
64.96985013205477
 31
0.0
 12
-232.2000002360858
 22
-18.80000018588799
 32
0.0
 70
   128
  1
13
 71
     5
 42
12.99038105676658
 73
     0
 74
     0
 75
     0
  3
ISO-25
100
AcDbAlignedDimension
 13
-32.47376651783841
 23
97.20974302401126
 33
0.0
 14
-19.48338546107183
 24
97.20974302401129
 34
0.0
100
AcDbRotatedDimension
  0
DIMENSION
  5
1A2A
102
{ACAD_REACTORS
330
1A2C
102
}
102
{ACAD_XDICTIONARY
360
1A2B
102
}
330
1A05
100
AcDbEntity
  8
文字
100
AcDbDimension
280
     0
  2
*D5
 10
-174.9740745621517
 20
63.54882036897038
 30
0.0
 11
-176.8490745621517
 21
55.84048703563706
 31
0.0
 12
-232.2000002360858
 22
-18.80000018588799
 32
0.0
 70
    32
  1
1.5
 71
     5
 42
1.599999999999994
 73
     0
 74
     0
 75
     0
  3
ISO-25
100
AcDbAlignedDimension
 13
-159.9787502058973
 23
65.14882036897038
 33
0.0
 14
-159.9787502058973
 24
63.54882036897038
 34
0.0
 50
90.0
100
AcDbRotatedDimension
  0
CIRCLE
  5
1A2D
330
1A05
100
AcDbEntity
  8
実線
370
    20
100
AcDbCircle
 10
-25.97857598945512
 20
97.20974302401129
 30
0.0
 40
3.4
  0
CIRCLE
  5
1A2E
330
1A05
100
AcDbEntity
  8
実線
370
    50
100
AcDbCircle
 10
-25.97857598945512
 20
97.20974302401129
 30
0.0
 40
4.0
  0
LWPOLYLINE
  5
1A2F
102
{ACAD_REACTORS
330
1A29
102
}
330
1A05
100
AcDbEntity
  8
実線
370
    50
100
AcDbPolyline
 90
        6
 70
     1
 43
0.0
 10
-19.48338546107183
 20
100.9597430240113
 10
-25.97857598945512
 20
104.7097430240113
 10
-32.47376651783841
 20
100.9597430240113
 10
-32.47376651783841
 20
93.45974302401126
 10
-25.97857598945512
 20
89.70974302401126
 10
-19.48338546107183
 20
93.45974302401126
  0
DIMENSION
  5
1A30
102
{ACAD_REACTORS
330
1A32
102
}
102
{ACAD_XDICTIONARY
360
1A31
102
}
330
1A05
100
AcDbEntity
  8
文字
100
AcDbDimension
280
     0
  2
*D4
 10
-11.97857598945512
 20
57.36396220779807
 30
0.0
 11
-25.97857598945512
 21
59.23896220779807
 31
0.0
 12
-232.2000002360858
 22
-18.80000018588799
 32
0.0
 70
    32
  1
%%c<>
 71
     5
 42
28.0
 73
     0
 74
     0
 75
     0
  3
ISO-25
100
AcDbAlignedDimension
 13
-39.97857598945512
 23
97.20974302401129
 33
0.0
 14
-11.97857598945512
 24
97.20974302401129
 34
0.0
100
AcDbRotatedDimension
  0
ARC
  5
1A33
330
1A05
100
AcDbEntity
  8
実線
370
    50
100
AcDbCircle
 10
-140.9787502058973
 20
62.86352625132333
 30
0.0
 40
14.18529411764706
100
AcDbArc
 50
110.7090084471018
 51
164.6470298493059
  0
LINE
  5
1A34
102
{ACAD_REACTORS
330
1A1E
330
1A1B
102
}
330
1A05
100
AcDbEntity
  8
実線
370
    50
100
AcDbLine
 10
-140.9787502058976
 20
76.13228643600209
 30
0.0
 11
-135.9625193135205
 21
76.13228643600209
 31
0.0
  0
LINE
  5
1A35
330
1A05
100
AcDbEntity
  8
実線
370
    50
100
AcDbLine
 10
-140.9787502058973
 20
76.13228643600209
 30
0.0
 11
-145.9949810982741
 21
76.13228643600209
 31
0.0
  0
ARC
  5
1A36
330
1A05
100
AcDbEntity
  8
実線
370
    50
100
AcDbCircle
 10
-135.4668448953261
 20
78.67205855451556
 30
0.0
 40
2.540462369428222
100
AcDbArc
 50
217.3146110078773
 51
322.6853889921216
  0
ARC
  5
1A37
330
1A05
100
AcDbEntity
  8
実線
370
    50
100
AcDbCircle
 10
-140.916483466825
 20
82.51117784324055
 30
0.0
 40
6.379195304435764
100
AcDbArc
 50
237.4827287485465
 51
302.5172712514534
  0
ARC
  5
1A38
330
1A05
100
AcDbEntity
  8
実線
370
    50
100
AcDbCircle
 10
-146.3960056743694
 20
78.73245065452514
 30
0.0
 40
2.601010597636193
100
AcDbArc
 50
217.973618634994
 51
322.0263813650058
  0
LINE
  5
1A39
330
1A05
100
AcDbEntity
  8
実線
370
    50
100
AcDbLine
 10
-137.4873226877818
 20
81.6320525348278
 30
0.0
 11
-137.4873226877818
 21
77.1320525348278
 31
0.0
  0
LINE
  5
1A3A
330
1A05
100
AcDbEntity
  8
実線
370
    50
100
AcDbLine
 10
-144.3456442458684
 20
81.6320525348278
 30
0.0
 11
-144.3456442458684
 21
77.1320525348278
 31
0.0
  0
LWPOLYLINE
  5
1A3B
102
{ACAD_REACTORS
330
1A1B
330
1A18
102
}
330
1A05
100
AcDbEntity
  8
実線
370
    50
100
AcDbPolyline
 90
        4
 70
     0
 43
0.0
 10
-133.4463671028705
 20
77.1320525348278
 10
-133.4463671028705
 20
81.6320525348278
 10
-148.4463671028705
 20
81.6320525348278
 10
-148.4463671028705
 20
77.1320525348278
  0
LINE
  5
1A3C
102
{ACAD_REACTORS
330
1A29
102
}
330
1A05
100
AcDbEntity
  8
中心線
100
AcDbLine
 10
-56.39333659375262
 20
97.20974302401129
 30
0.0
 11
-16.39090544331049
 21
97.20974302401129
 31
0.0
  0
LINE
  5
1A3D
330
1A05
100
AcDbEntity
  8
実線
370
    50
100
AcDbLine
 10
-156.4653650853308
 20
65.14882036897038
 30
0.0
 11
-125.371059793796
 21
65.14882036897035
 31
0.0
  0
LINE
  5
1A3E
330
1A05
100
AcDbEntity
  8
中心線
100
AcDbLine
 10
-16.39090544331049
 20
97.20974302401129
 30
0.0
 11
4.251392774196745
 21
97.20974302401129
 31
0.0
  0
CIRCLE
  5
1A3F
330
1A05
100
AcDbEntity
  8
実線
370
    50
100
AcDbCircle
 10
-25.97857598945512
 20
97.20974302401129
 30
0.0
 40
19.0
  0
CIRCLE
  5
1A40
102
{ACAD_REACTORS
330
1A32
102
}
330
1A05
100
AcDbEntity
  8
実線
370
    50
100
AcDbCircle
 10
-25.97857598945512
 20
97.20974302401129
 30
0.0
 40
14.0
  0
ARC
  5
1A41
330
1A05
100
AcDbEntity
  8
実線
370
    50
100
AcDbCircle
 10
-125.371059793796
 20
67.14882036897038
 30
0.0
 40
2.0
100
AcDbArc
 50
195.3529701506943
 51
270.0
  0
LINE
  5
1A42
330
1A05
100
AcDbEntity
  8
実線
370
    50
100
AcDbLine
 10
-125.371059793796
 20
65.14882036897035
 30
0.0
 11
-121.9787502058973
 21
65.14882036897035
 31
0.0
  0
ARC
  5
1A43
330
1A05
100
AcDbEntity
  8
実線
370
    50
100
AcDbCircle
 10
-156.5864406179986
 20
67.14882036897038
 30
0.0
 40
2.0
100
AcDbArc
 50
270.0
 51
344.6470298493056
  0
ARC
  5
1A44
102
{ACAD_REACTORS
330
1A1E
330
1A1B
102
}
330
1A05
100
AcDbEntity
  8
実線
370
    50
100
AcDbCircle
 10
-140.9787502058973
 20
62.86352625132333
 30
0.0
 40
14.18529411764706
100
AcDbArc
 50
15.35297015069416
 51
69.29099155289825
  0
LINE
  5
1A45
330
1A05
100
AcDbEntity
  8
実線
370
    50
100
AcDbLine
 10
-156.4653650853308
 20
65.14882036897038
 30
0.0
 11
-156.5864406179986
 21
65.14882036897038
 31
0.0
  0
LINE
  5
1A46
102
{ACAD_REACTORS
330
1A2C
102
}
330
1A05
100
AcDbEntity
  8
実線
370
    50
100
AcDbLine
 10
-159.9787502058973
 20
65.14882036897038
 30
0.0
 11
-156.4653650853308
 21
65.14882036897038
 31
0.0
  0
LINE
  5
1A47
330
1A05
100
AcDbEntity
  8
中心線
100
AcDbLine
 10
-140.9787502058973
 20
52.63205253482781
 30
0.0
 11
-140.9787502058973
 21
125.3376695381868
 31
0.0
  0
LINE
  5
1A48
102
{ACAD_REACTORS
330
1A1E
330
1A13
102
}
330
1A05
100
AcDbEntity
  8
実線
370
    50
100
AcDbLine
 10
-121.9787502058973
 20
65.14882036897035
 30
0.0
 11
-121.9787502058973
 21
63.54882036897036
 31
0.0
  0
LINE
  5
1A49
102
{ACAD_REACTORS
330
1A2C
102
}
330
1A05
100
AcDbEntity
  8
実線
370
    50
100
AcDbLine
 10
-159.9787502058973
 20
63.54882036897038
 30
0.0
 11
-159.9787502058973
 21
65.14882036897038
 31
0.0
  0
LINE
  5
1A4A
330
1A05
100
AcDbEntity
  8
実線
370
    50
100
AcDbLine
 10
-121.9787502058973
 20
63.54882036897036
 30
0.0
 11
-159.9787502058973
 21
63.54882036897038
 31
0.0
  0
TEXT
  5
1A4B
330
1A05
100
AcDbEntity
  8
文字
100
AcDbText
 10
2.672502397611936
 20
1.442331116837359
 30
0.0
 40
3.0
  1
ＳＵＳ304Ｊ3
100
AcDbText
  0
ENDBLK
  5
1A4D
330
1A05
100
AcDbEntity
  8
0
 62
     0
100
AcDbBlockEnd
  0
BLOCK
  5
1E09
330
1DFF
100
AcDbEntity
  8
0
100
AcDbBlockBegin
  2
*D14
 70
     1
 10
0.0
 20
0.0
 30
0.0
  3
*D14
  1
*D31
  0
LINE
  5
1E00
330
1DFF
100
AcDbEntity
  8
文字
 62
     0
370
    -2
100
AcDbLine
 10
210.7660224297174
 20
125.8322656860428
 30
0.0
 11
210.7660224297174
 21
85.84251228866368
 31
0.0
  0
LINE
  5
1E01
330
1DFF
100
AcDbEntity
  8
文字
 62
     0
370
    -2
100
AcDbLine
 10
240.730501400659
 20
125.8322656860427
 30
0.0
 11
240.730501400659
 21
85.84251228866368
 31
0.0
  0
LINE
  5
1E02
330
1DFF
100
AcDbEntity
  8
文字
 62
     0
370
    -2
100
AcDbLine
 10
213.2660224297174
 20
87.09251228866368
 30
0.0
 11
238.230501400659
 21
87.09251228866368
 31
0.0
  0
SOLID
  5
1E03
330
1DFF
100
AcDbEntity
  8
文字
 62
     0
100
AcDbTrace
 10
213.2660224297174
 20
87.50917895533036
 30
0.0
 11
213.2660224297174
 21
86.67584562199701
 31
0.0
 12
210.7660224297174
 22
87.09251228866368
 32
0.0
 13
210.7660224297174
 23
87.09251228866368
 33
0.0
  0
SOLID
  5
1E04
330
1DFF
100
AcDbEntity
  8
文字
 62
     0
100
AcDbTrace
 10
238.230501400659
 20
87.50917895533036
 30
0.0
 11
238.230501400659
 21
86.67584562199701
 31
0.0
 12
240.730501400659
 22
87.09251228866368
 32
0.0
 13
240.730501400659
 23
87.09251228866368
 33
0.0
  0
MTEXT
  5
1E05
330
1DFF
100
AcDbEntity
  8
文字
 62
     0
100
AcDbMText
 10
225.7482619151882
 20
88.96751228866368
 30
0.0
 40
2.5
 41
0.0
 46
0.0
 71
     5
 72
     1
  1
30
 73
     1
 44
1.0
  0
POINT
  5
1E06
330
1DFF
100
AcDbEntity
  8
Defpoints
 62
     0
100
AcDbPoint
 10
210.7660224297174
 20
126.4572656860428
 30
0.0
  0
POINT
  5
1E07
330
1DFF
100
AcDbEntity
  8
Defpoints
 62
     0
100
AcDbPoint
 10
240.730501400659
 20
126.4572656860427
 30
0.0
  0
POINT
  5
1E08
330
1DFF
100
AcDbEntity
  8
Defpoints
 62
     0
100
AcDbPoint
 10
240.730501400659
 20
87.09251228866368
 30
0.0
  0
ENDBLK
  5
1E0A
330
1DFF
100
AcDbEntity
  8
0
100
AcDbBlockEnd
  0
BLOCK
  5
1E15
330
1E0B
100
AcDbEntity
  8
0
100
AcDbBlockBegin
  2
*D15
 70
     1
 10
0.0
 20
0.0
 30
0.0
  3
*D15
  1
*D32
  0
LINE
  5
1F45
330
1E0B
100
AcDbEntity
  8
文字
 62
     0
370
    -2
100
AcDbLine
 10
100.4049579970069
 20
191.4901383648646
 30
0.0
 11
143.2530900247836
 21
191.4901383648646
 31
0.0
  0
LINE
  5
1F46
330
1E0B
100
AcDbEntity
  8
文字
 62
     0
370
    -2
100
AcDbLine
 10
110.329957997007
 20
91.49013836486459
 30
0.0
 11
143.2530900247836
 21
91.49013836486459
 31
0.0
  0
LINE
  5
1F47
330
1E0B
100
AcDbEntity
  8
文字
 62
     0
370
    -2
100
AcDbLine
 10
142.0030900247836
 20
188.9901383648646
 30
0.0
 11
142.0030900247836
 21
93.99013836486459
 31
0.0
  0
SOLID
  5
1F48
330
1E0B
100
AcDbEntity
  8
文字
 62
     0
100
AcDbTrace
 10
141.586423358117
 20
188.9901383648646
 30
0.0
 11
142.4197566914503
 21
188.9901383648646
 31
0.0
 12
142.0030900247836
 22
191.4901383648646
 32
0.0
 13
142.0030900247836
 23
191.4901383648646
 33
0.0
  0
SOLID
  5
1F49
330
1E0B
100
AcDbEntity
  8
文字
 62
     0
100
AcDbTrace
 10
141.586423358117
 20
93.99013836486459
 30
0.0
 11
142.4197566914503
 21
93.99013836486459
 31
0.0
 12
142.0030900247836
 22
91.49013836486459
 32
0.0
 13
142.0030900247836
 23
91.49013836486459
 33
0.0
  0
MTEXT
  5
1F4A
330
1E0B
100
AcDbEntity
  8
文字
 62
     0
100
AcDbMText
 10
140.1280900247836
 20
141.4901383648646
 30
0.0
 40
2.5
 41
0.0
 46
0.0
 71
     5
 72
     1
  1
250
 11
6.123031769111886E-17
 21
1.0
 31
0.0
 73
     1
 44
1.0
  0
POINT
  5
1F4B
330
1E0B
100
AcDbEntity
  8
Defpoints
 62
     0
100
AcDbPoint
 10
99.77995799700693
 20
191.4901383648646
 30
0.0
  0
POINT
  5
1F4C
330
1E0B
100
AcDbEntity
  8
Defpoints
 62
     0
100
AcDbPoint
 10
109.704957997007
 20
91.49013836486459
 30
0.0
  0
POINT
  5
1F4D
330
1E0B
100
AcDbEntity
  8
Defpoints
 62
     0
100
AcDbPoint
 10
142.0030900247836
 20
91.49013836486459
 30
0.0
  0
ENDBLK
  5
1E16
330
1E0B
100
AcDbEntity
  8
0
100
AcDbBlockEnd
  0
BLOCK
  5
1E21
330
1E17
100
AcDbEntity
  8
0
100
AcDbBlockBegin
  2
*D16
 70
     1
 10
0.0
 20
0.0
 30
0.0
  3
*D16
  1
*D33
  0
LINE
  5
1E18
330
1E17
100
AcDbEntity
  8
文字
 62
     0
370
    -2
100
AcDbLine
 10
109.704957997007
 20
91.4901383648646
 30
0.0
 11
143.2530900247836
 21
91.4901383648646
 31
0.0
  0
LINE
  5
1E19
330
1E17
100
AcDbEntity
  8
文字
 62
     0
370
    -2
100
AcDbLine
 10
109.704957997007
 20
78.4901383648646
 30
0.0
 11
143.2530900247836
 21
78.4901383648646
 31
0.0
  0
LINE
  5
1E1A
330
1E17
100
AcDbEntity
  8
文字
 62
     0
370
    -2
100
AcDbLine
 10
142.0030900247836
 20
88.9901383648646
 30
0.0
 11
142.0030900247836
 21
80.9901383648646
 31
0.0
  0
SOLID
  5
1E1B
330
1E17
100
AcDbEntity
  8
文字
 62
     0
100
AcDbTrace
 10
141.586423358117
 20
88.9901383648646
 30
0.0
 11
142.4197566914503
 21
88.9901383648646
 31
0.0
 12
142.0030900247836
 22
91.4901383648646
 32
0.0
 13
142.0030900247836
 23
91.4901383648646
 33
0.0
  0
SOLID
  5
1E1C
330
1E17
100
AcDbEntity
  8
文字
 62
     0
100
AcDbTrace
 10
141.586423358117
 20
80.9901383648646
 30
0.0
 11
142.4197566914503
 21
80.9901383648646
 31
0.0
 12
142.0030900247836
 22
78.4901383648646
 32
0.0
 13
142.0030900247836
 23
78.4901383648646
 33
0.0
  0
MTEXT
  5
1E1D
330
1E17
100
AcDbEntity
  8
文字
 62
     0
100
AcDbMText
 10
140.1280900247836
 20
84.99013836486462
 30
0.0
 40
2.5
 41
0.0
 46
0.0
 71
     5
 72
     1
  1
13
 11
6.123031769111886E-17
 21
1.0
 31
0.0
 73
     1
 44
1.0
  0
POINT
  5
1E1E
330
1E17
100
AcDbEntity
  8
Defpoints
 62
     0
100
AcDbPoint
 10
109.079957997007
 20
91.4901383648646
 30
0.0
  0
POINT
  5
1E1F
330
1E17
100
AcDbEntity
  8
Defpoints
 62
     0
100
AcDbPoint
 10
109.079957997007
 20
78.4901383648646
 30
0.0
  0
POINT
  5
1E20
330
1E17
100
AcDbEntity
  8
Defpoints
 62
     0
100
AcDbPoint
 10
142.0030900247836
 20
78.4901383648646
 30
0.0
  0
ENDBLK
  5
1E22
330
1E17
100
AcDbEntity
  8
0
100
AcDbBlockEnd
  0
BLOCK
  5
1E2D
330
1E23
100
AcDbEntity
  8
0
100
AcDbBlockBegin
  2
*D17
 70
     1
 10
0.0
 20
0.0
 30
0.0
  3
*D17
  1
*D34
  0
LINE
  5
1E61
330
1E23
100
AcDbEntity
  8
文字
 62
     0
370
    -2
100
AcDbLine
 10
81.77995799700693
 20
190.1151383648646
 30
0.0
 11
81.77995799700693
 21
206.2303898472055
 31
0.0
  0
LINE
  5
1E62
330
1E23
100
AcDbEntity
  8
文字
 62
     0
370
    -2
100
AcDbLine
 10
101.7799579970069
 20
190.1151383648646
 30
0.0
 11
101.7799579970069
 21
206.2303898472055
 31
0.0
  0
LINE
  5
1E63
330
1E23
100
AcDbEntity
  8
文字
 62
     0
370
    -2
100
AcDbLine
 10
84.27995799700693
 20
204.9803898472055
 30
0.0
 11
99.27995799700693
 21
204.9803898472055
 31
0.0
  0
SOLID
  5
1E64
330
1E23
100
AcDbEntity
  8
文字
 62
     0
100
AcDbTrace
 10
84.27995799700693
 20
205.3970565138721
 30
0.0
 11
84.27995799700693
 21
204.5637231805388
 31
0.0
 12
81.77995799700693
 22
204.9803898472055
 32
0.0
 13
81.77995799700693
 23
204.9803898472055
 33
0.0
  0
SOLID
  5
1E65
330
1E23
100
AcDbEntity
  8
文字
 62
     0
100
AcDbTrace
 10
99.27995799700693
 20
205.3970565138721
 30
0.0
 11
99.27995799700693
 21
204.5637231805388
 31
0.0
 12
101.7799579970069
 22
204.9803898472055
 32
0.0
 13
101.7799579970069
 23
204.9803898472055
 33
0.0
  0
MTEXT
  5
1E66
330
1E23
100
AcDbEntity
  8
文字
 62
     0
100
AcDbMText
 10
91.77995799700693
 20
206.8553898472055
 30
0.0
 40
2.5
 41
0.0
 46
0.0
 71
     5
 72
     1
  1
M20
 73
     1
 44
1.0
  0
POINT
  5
1E67
330
1E23
100
AcDbEntity
  8
Defpoints
 62
     0
100
AcDbPoint
 10
81.77995799700693
 20
189.4901383648646
 30
0.0
  0
POINT
  5
1E68
330
1E23
100
AcDbEntity
  8
Defpoints
 62
     0
100
AcDbPoint
 10
101.7799579970069
 20
189.4901383648646
 30
0.0
  0
POINT
  5
1E69
330
1E23
100
AcDbEntity
  8
Defpoints
 62
     0
100
AcDbPoint
 10
101.7799579970069
 20
204.9803898472055
 30
0.0
  0
ENDBLK
  5
1E2E
330
1E23
100
AcDbEntity
  8
0
100
AcDbBlockEnd
  0
BLOCK
  5
1E3B
330
1E2F
100
AcDbEntity
  8
0
100
AcDbBlockBegin
  2
*D18
 70
     1
 10
0.0
 20
0.0
 30
0.0
  3
*D18
  1
*D35
  0
LINE
  5
1E86
330
1E2F
100
AcDbEntity
  8
文字
 62
     0
370
    -2
100
AcDbLine
 10
53.65495799700697
 20
58.49013836486462
 30
0.0
 11
40.59892816975501
 21
58.49013836486463
 31
0.0
  0
LINE
  5
1E87
330
1E2F
100
AcDbEntity
  8
文字
 62
     0
370
    -2
100
AcDbLine
 10
53.65495799700697
 20
60.49013836486461
 30
0.0
 11
40.59892816975501
 21
60.49013836486462
 31
0.0
  0
LINE
  5
1E88
330
1E2F
100
AcDbEntity
  8
文字
 62
     0
370
    -2
100
AcDbLine
 10
41.84892816975501
 20
55.99013836486463
 30
0.0
 11
41.84892816975501
 21
53.49013836486463
 31
0.0
  0
LINE
  5
1E89
330
1E2F
100
AcDbEntity
  8
文字
 62
     0
370
    -2
100
AcDbLine
 10
41.84892816975501
 20
62.99013836486462
 30
0.0
 11
41.84892816975501
 21
65.49013836486462
 31
0.0
  0
MTEXT
  5
1E8A
330
1E2F
100
AcDbEntity
  8
文字
 62
     0
100
AcDbMText
 10
37.76808089925021
 20
59.1683319611941
 30
0.0
 40
2.5
 41
0.0
 46
0.0
 71
     5
 72
     1
  1
2
 11
6.123031769111886E-17
 21
1.0
 31
0.0
 73
     1
 44
1.0
  0
LINE
  5
1E8B
330
1E2F
100
AcDbEntity
  8
文字
 62
     0
370
    -2
100
AcDbLine
 10
41.84892816975501
 20
58.49013836486463
 30
0.0
 11
41.84892816975501
 21
60.49013836486462
 31
0.0
  0
SOLID
  5
1E8C
330
1E2F
100
AcDbEntity
  8
文字
 62
     0
100
AcDbTrace
 10
41.43226150308835
 20
55.99013836486463
 30
0.0
 11
42.26559483642168
 21
55.99013836486463
 31
0.0
 12
41.84892816975501
 22
58.49013836486463
 32
0.0
 13
41.84892816975501
 23
58.49013836486463
 33
0.0
  0
SOLID
  5
1E8D
330
1E2F
100
AcDbEntity
  8
文字
 62
     0
100
AcDbTrace
 10
41.43226150308835
 20
62.99013836486462
 30
0.0
 11
42.26559483642168
 21
62.99013836486462
 31
0.0
 12
41.84892816975501
 22
60.49013836486462
 32
0.0
 13
41.84892816975501
 23
60.49013836486462
 33
0.0
  0
POINT
  5
1E8E
330
1E2F
100
AcDbEntity
  8
Defpoints
 62
     0
100
AcDbPoint
 10
54.27995799700697
 20
58.49013836486462
 30
0.0
  0
POINT
  5
1E8F
330
1E2F
100
AcDbEntity
  8
Defpoints
 62
     0
100
AcDbPoint
 10
54.27995799700697
 20
60.49013836486461
 30
0.0
  0
POINT
  5
1E90
330
1E2F
100
AcDbEntity
  8
Defpoints
 62
     0
100
AcDbPoint
 10
41.84892816975501
 20
60.49013836486462
 30
0.0
  0
ENDBLK
  5
1E3C
330
1E2F
100
AcDbEntity
  8
0
100
AcDbBlockEnd
  0
BLOCK
  5
1E47
330
1E3D
100
AcDbEntity
  8
0
100
AcDbBlockBegin
  2
*D19
 70
     1
 10
0.0
 20
0.0
 30
0.0
  3
*D19
  1
*D36
  0
LINE
  5
1E3E
330
1E3D
100
AcDbEntity
  8
文字
 62
     0
370
    -2
100
AcDbLine
 10
101.9919404255614
 20
78.49013836486462
 30
0.0
 11
143.2530900247836
 21
78.49013836486462
 31
0.0
  0
LINE
  5
1E3F
330
1E3D
100
AcDbEntity
  8
文字
 62
     0
370
    -2
100
AcDbLine
 10
129.904957997007
 20
58.49013836486459
 30
0.0
 11
143.2530900247836
 21
58.49013836486459
 31
0.0
  0
LINE
  5
1E40
330
1E3D
100
AcDbEntity
  8
文字
 62
     0
370
    -2
100
AcDbLine
 10
142.0030900247836
 20
75.99013836486462
 30
0.0
 11
142.0030900247836
 21
60.99013836486459
 31
0.0
  0
SOLID
  5
1E41
330
1E3D
100
AcDbEntity
  8
文字
 62
     0
100
AcDbTrace
 10
141.586423358117
 20
75.99013836486462
 30
0.0
 11
142.4197566914503
 21
75.99013836486462
 31
0.0
 12
142.0030900247836
 22
78.49013836486462
 32
0.0
 13
142.0030900247836
 23
78.49013836486462
 33
0.0
  0
SOLID
  5
1E42
330
1E3D
100
AcDbEntity
  8
文字
 62
     0
100
AcDbTrace
 10
141.5864233581169
 20
60.99013836486459
 30
0.0
 11
142.4197566914503
 21
60.99013836486459
 31
0.0
 12
142.0030900247836
 22
58.49013836486459
 32
0.0
 13
142.0030900247836
 23
58.49013836486459
 33
0.0
  0
MTEXT
  5
1E43
330
1E3D
100
AcDbEntity
  8
文字
 62
     0
100
AcDbMText
 10
140.1280900247836
 20
68.49013836486462
 30
0.0
 40
2.5
 41
0.0
 46
0.0
 71
     5
 72
     1
  1
20
 11
6.123031769111886E-17
 21
1.0
 31
0.0
 73
     1
 44
1.0
  0
POINT
  5
1E44
330
1E3D
100
AcDbEntity
  8
Defpoints
 62
     0
100
AcDbPoint
 10
101.3669404255614
 20
78.49013836486462
 30
0.0
  0
POINT
  5
1E45
330
1E3D
100
AcDbEntity
  8
Defpoints
 62
     0
100
AcDbPoint
 10
129.279957997007
 20
58.49013836486459
 30
0.0
  0
POINT
  5
1E46
330
1E3D
100
AcDbEntity
  8
Defpoints
 62
     0
100
AcDbPoint
 10
142.0030900247836
 20
58.49013836486459
 30
0.0
  0
ENDBLK
  5
1E48
330
1E3D
100
AcDbEntity
  8
0
100
AcDbBlockEnd
  0
BLOCK
  5
1E53
330
1E49
100
AcDbEntity
  8
0
100
AcDbBlockBegin
  2
*D20
 70
     1
 10
0.0
 20
0.0
 30
0.0
  3
*D20
  1
*D37
  0
LINE
  5
1E4A
330
1E49
100
AcDbEntity
  8
文字
 62
     0
370
    -2
100
AcDbLine
 10
54.27995799700697
 20
57.86513836486461
 30
0.0
 11
54.27995799700697
 21
39.77883482749961
 31
0.0
  0
LINE
  5
1E4B
330
1E49
100
AcDbEntity
  8
文字
 62
     0
370
    -2
100
AcDbLine
 10
129.279957997007
 20
57.86513836486459
 30
0.0
 11
129.279957997007
 21
39.77883482749961
 31
0.0
  0
LINE
  5
1E4C
330
1E49
100
AcDbEntity
  8
文字
 62
     0
370
    -2
100
AcDbLine
 10
56.77995799700697
 20
41.02883482749961
 30
0.0
 11
126.779957997007
 21
41.02883482749961
 31
0.0
  0
SOLID
  5
1E4D
330
1E49
100
AcDbEntity
  8
文字
 62
     0
100
AcDbTrace
 10
56.77995799700697
 20
41.44550149416627
 30
0.0
 11
56.77995799700697
 21
40.61216816083294
 31
0.0
 12
54.27995799700697
 22
41.02883482749961
 32
0.0
 13
54.27995799700697
 23
41.02883482749961
 33
0.0
  0
SOLID
  5
1E4E
330
1E49
100
AcDbEntity
  8
文字
 62
     0
100
AcDbTrace
 10
126.779957997007
 20
41.44550149416627
 30
0.0
 11
126.779957997007
 21
40.61216816083294
 31
0.0
 12
129.279957997007
 22
41.02883482749961
 32
0.0
 13
129.279957997007
 23
41.02883482749961
 33
0.0
  0
MTEXT
  5
1E4F
330
1E49
100
AcDbEntity
  8
文字
 62
     0
100
AcDbMText
 10
91.77995799700699
 20
42.90383482749961
 30
0.0
 40
2.5
 41
0.0
 46
0.0
 71
     5
 72
     1
  1
%%c75
 73
     1
 44
1.0
  0
POINT
  5
1E50
330
1E49
100
AcDbEntity
  8
Defpoints
 62
     0
100
AcDbPoint
 10
54.27995799700697
 20
58.49013836486461
 30
0.0
  0
POINT
  5
1E51
330
1E49
100
AcDbEntity
  8
Defpoints
 62
     0
100
AcDbPoint
 10
129.279957997007
 20
58.49013836486459
 30
0.0
  0
POINT
  5
1E52
330
1E49
100
AcDbEntity
  8
Defpoints
 62
     0
100
AcDbPoint
 10
129.279957997007
 20
41.02883482749961
 30
0.0
  0
ENDBLK
  5
1E54
330
1E49
100
AcDbEntity
  8
0
100
AcDbBlockEnd
  0
BLOCK
  5
1E5F
330
1E55
100
AcDbEntity
  8
0
100
AcDbBlockBegin
  2
*D21
 70
     1
 10
0.0
 20
0.0
 30
0.0
  3
*D21
  1
*D38
  0
LINE
  5
1E56
330
1E55
100
AcDbEntity
  8
文字
 62
     0
370
    -2
100
AcDbLine
 10
199.7482619151882
 20
134.4822656860428
 30
0.0
 11
199.7482619151882
 21
77.84852658671544
 31
0.0
  0
LINE
  5
1E57
330
1E55
100
AcDbEntity
  8
文字
 62
     0
370
    -2
100
AcDbLine
 10
251.7482619151882
 20
134.4822656860428
 30
0.0
 11
251.7482619151882
 21
77.84852658671544
 31
0.0
  0
LINE
  5
1E58
330
1E55
100
AcDbEntity
  8
文字
 62
     0
370
    -2
100
AcDbLine
 10
202.2482619151882
 20
79.09852658671544
 30
0.0
 11
249.2482619151882
 21
79.09852658671544
 31
0.0
  0
SOLID
  5
1E59
330
1E55
100
AcDbEntity
  8
文字
 62
     0
100
AcDbTrace
 10
202.2482619151882
 20
79.51519325338211
 30
0.0
 11
202.2482619151882
 21
78.68185992004877
 31
0.0
 12
199.7482619151882
 22
79.09852658671544
 32
0.0
 13
199.7482619151882
 23
79.09852658671544
 33
0.0
  0
SOLID
  5
1E5A
330
1E55
100
AcDbEntity
  8
文字
 62
     0
100
AcDbTrace
 10
249.2482619151882
 20
79.51519325338211
 30
0.0
 11
249.2482619151882
 21
78.68185992004877
 31
0.0
 12
251.7482619151882
 22
79.09852658671544
 32
0.0
 13
251.7482619151882
 23
79.09852658671544
 33
0.0
  0
MTEXT
  5
1E5B
330
1E55
100
AcDbEntity
  8
文字
 62
     0
100
AcDbMText
 10
225.7482619151882
 20
80.97352658671544
 30
0.0
 40
2.5
 41
0.0
 46
0.0
 71
     5
 72
     1
  1
%%c52
 73
     1
 44
1.0
  0
POINT
  5
1E5C
330
1E55
100
AcDbEntity
  8
Defpoints
 62
     0
100
AcDbPoint
 10
199.7482619151882
 20
135.1072656860428
 30
0.0
  0
POINT
  5
1E5D
330
1E55
100
AcDbEntity
  8
Defpoints
 62
     0
100
AcDbPoint
 10
251.7482619151882
 20
135.1072656860428
 30
0.0
  0
POINT
  5
1E5E
330
1E55
100
AcDbEntity
  8
Defpoints
 62
     0
100
AcDbPoint
 10
251.7482619151882
 20
79.09852658671544
 30
0.0
  0
ENDBLK
  5
1E60
330
1E55
100
AcDbEntity
  8
0
100
AcDbBlockEnd
  0
BLOCK
  5
1EB5
330
1EAB
100
AcDbEntity
  8
0
100
AcDbBlockBegin
  2
*D22
 70
     1
 10
0.0
 20
0.0
 30
0.0
  3
*D22
  1
*D39
  0
LINE
  5
1F4E
330
1EAB
100
AcDbEntity
  8
文字
 62
     0
370
    -2
100
AcDbLine
 10
129.904957997007
 20
58.49013836486459
 30
0.0
 11
150.4965499043727
 21
58.49013836486458
 31
0.0
  0
LINE
  5
1F4F
330
1EAB
100
AcDbEntity
  8
文字
 62
     0
370
    -2
100
AcDbLine
 10
100.4049579970069
 20
191.4901383648646
 30
0.0
 11
150.4965499043727
 21
191.4901383648646
 31
0.0
  0
LINE
  5
1F50
330
1EAB
100
AcDbEntity
  8
文字
 62
     0
370
    -2
100
AcDbLine
 10
149.2465499043727
 20
60.99013836486458
 30
0.0
 11
149.2465499043727
 21
188.9901383648646
 31
0.0
  0
SOLID
  5
1F51
330
1EAB
100
AcDbEntity
  8
文字
 62
     0
100
AcDbTrace
 10
148.829883237706
 20
60.99013836486458
 30
0.0
 11
149.6632165710394
 21
60.99013836486458
 31
0.0
 12
149.2465499043727
 22
58.49013836486458
 32
0.0
 13
149.2465499043727
 23
58.49013836486458
 33
0.0
  0
SOLID
  5
1F52
330
1EAB
100
AcDbEntity
  8
文字
 62
     0
100
AcDbTrace
 10
148.8298832377061
 20
188.9901383648646
 30
0.0
 11
149.6632165710394
 21
188.9901383648646
 31
0.0
 12
149.2465499043727
 22
191.4901383648646
 32
0.0
 13
149.2465499043727
 23
191.4901383648646
 33
0.0
  0
MTEXT
  5
1F53
330
1EAB
100
AcDbEntity
  8
文字
 62
     0
100
AcDbMText
 10
147.3715499043727
 20
124.9901383648646
 30
0.0
 40
2.5
 41
0.0
 46
0.0
 71
     5
 72
     1
  1
283
 11
6.123031769111886E-17
 21
1.0
 31
0.0
 73
     1
 44
1.0
  0
POINT
  5
1F54
330
1EAB
100
AcDbEntity
  8
Defpoints
 62
     0
100
AcDbPoint
 10
129.279957997007
 20
58.49013836486459
 30
0.0
  0
POINT
  5
1F55
330
1EAB
100
AcDbEntity
  8
Defpoints
 62
     0
100
AcDbPoint
 10
99.77995799700693
 20
191.4901383648646
 30
0.0
  0
POINT
  5
1F56
330
1EAB
100
AcDbEntity
  8
Defpoints
 62
     0
100
AcDbPoint
 10
149.2465499043727
 20
191.4901383648646
 30
0.0
  0
ENDBLK
  5
1EB6
330
1EAB
100
AcDbEntity
  8
0
100
AcDbBlockEnd
  0
ENDSEC
  0
SECTION
  2
ENTITIES
  0
MTEXT
  5
B75
330
21
100
AcDbEntity
  8
中心線
100
AcDbMText
 10
112.831139206696
 20
180.2175614817369
 30
0.0
 40
2.5
 41
0.0
 46
0.0
 71
     7
 72
     1
  1

 73
     1
 44
1.0
  0
DIMENSION
  5
1DBC
102
{ACAD_REACTORS
330
1DBE
102
}
102
{ACAD_XDICTIONARY
360
1DBD
102
}
330
21
100
AcDbEntity
  8
文字
100
AcDbDimension
280
     0
  2
*D14
 10
240.730501400659
 20
87.09251228866368
 30
0.0
 11
225.7482619151882
 21
88.96751228866368
 31
0.0
 70
    32
  1
30
 71
     5
 42
29.96447897094157
 73
     0
 74
     0
 75
     0
  3
ISO-25
100
AcDbAlignedDimension
 13
210.7660224297174
 23
126.4572656860428
 33
0.0
 14
240.730501400659
 24
126.4572656860427
 34
0.0
100
AcDbRotatedDimension
  0
LWPOLYLINE
  5
1DBF
102
{ACAD_REACTORS
330
1DBE
102
}
330
21
100
AcDbEntity
  8
実線
100
AcDbPolyline
 90
        6
 70
     1
 43
0.0
 10
240.730501400659
 20
143.7572656860428
 10
225.7482619151882
 20
152.4072656860428
 10
210.7660224297174
 20
143.7572656860428
 10
210.7660224297174
 20
126.4572656860428
 10
225.7482619151882
 20
117.8072656860428
 10
240.730501400659
 20
126.4572656860427
  0
CIRCLE
  5
1DC0
330
21
100
AcDbEntity
  8
実線
370
    20
100
AcDbCircle
 10
225.7482619151882
 20
135.1072656860428
 30
0.0
 40
8.0
  0
CIRCLE
  5
1DC1
330
21
100
AcDbEntity
  8
実線
100
AcDbCircle
 10
225.7482619151882
 20
135.1072656860428
 30
0.0
 40
10.0
  0
DIMENSION
  5
1DC2
102
{ACAD_REACTORS
330
1DC4
102
}
102
{ACAD_XDICTIONARY
360
1DC3
102
}
330
21
100
AcDbEntity
  8
文字
100
AcDbDimension
280
     0
  2
*D15
 10
142.0030900247836
 20
91.49013836486459
 30
0.0
 11
140.1280900247836
 21
141.4901383648646
 31
0.0
 70
    32
  1
250
 71
     5
 42
100.0
 73
     0
 74
     0
 75
     0
  3
ISO-25
100
AcDbAlignedDimension
 13
99.77995799700693
 23
191.4901383648646
 33
0.0
 14
109.704957997007
 24
91.49013836486459
 34
0.0
 50
90.0
100
AcDbRotatedDimension
  0
LINE
  5
1DC5
330
21
100
AcDbEntity
  8
実線
370
    15
100
AcDbLine
 10
83.77995799700693
 20
140.9378084865951
 30
0.0
 11
83.77995799700693
 21
130.6617112401184
 31
0.0
  0
LINE
  5
1DC6
330
21
100
AcDbEntity
  8
実線
370
    20
100
AcDbLine
 10
99.77995799700693
 20
149.4901383648646
 30
0.0
 11
99.77995799700693
 21
146.6617112401184
 31
0.0
  0
LINE
  5
1DC7
330
21
100
AcDbEntity
  8
実線
100
AcDbLine
 10
101.7799579970069
 20
151.4901383648646
 30
0.0
 11
101.7799579970069
 21
148.6617112401184
 31
0.0
  0
LINE
  5
1DC8
330
21
100
AcDbEntity
  8
実線
100
AcDbLine
 10
81.77995799700693
 20
131.4901383648647
 30
0.0
 11
81.77995799700693
 21
128.6617112401185
 31
0.0
  0
LINE
  5
1DC9
330
21
100
AcDbEntity
  8
中心線
100
AcDbLine
 10
91.77995799700693
 20
53.43248306017171
 30
0.0
 11
91.77995799700693
 21
198.5850899101511
 31
0.0
  0
ARC
  5
1DCA
330
21
100
AcDbEntity
  8
実線
100
AcDbCircle
 10
91.77995799700705
 20
116.4013883648646
 30
0.0
 40
37.91124999999995
100
AcDbArc
 50
256.8109699355429
 51
283.1890300644553
  0
ARC
  5
1DCB
330
21
100
AcDbEntity
  8
実線
100
AcDbCircle
 10
104.754957997007
 20
88.34295086486463
 30
0.0
 40
9.852812500000026
100
AcDbArc
 50
243.9623951404291
 51
296.0376048595691
  0
LINE
  5
1DCC
330
21
100
AcDbEntity
  8
実線
100
AcDbLine
 10
100.429957997007
 20
91.4901383648646
 30
0.0
 11
100.429957997007
 21
79.4901383648646
 31
0.0
  0
LWPOLYLINE
  5
1DCD
102
{ACAD_REACTORS
330
1DD2
102
}
330
21
100
AcDbEntity
  8
実線
100
AcDbPolyline
 90
        4
 70
     0
 43
0.0
 10
109.079957997007
 20
79.4901383648646
 10
109.079957997007
 20
91.4901383648646
 10
74.47995799700698
 20
91.4901383648646
 10
74.47995799700698
 20
79.4901383648646
  0
ARC
  5
1DCE
330
21
100
AcDbEntity
  8
実線
100
AcDbCircle
 10
78.80495799700697
 20
88.34295086486459
 30
0.0
 40
9.852812499999981
100
AcDbArc
 50
243.9623951404291
 51
296.0376048595691
  0
LINE
  5
1DCF
330
21
100
AcDbEntity
  8
実線
100
AcDbLine
 10
83.12995799700695
 20
91.4901383648646
 30
0.0
 11
83.12995799700695
 21
79.4901383648646
 31
0.0
  0
DIMENSION
  5
1DD0
102
{ACAD_REACTORS
330
1DD2
102
}
102
{ACAD_XDICTIONARY
360
1DD1
102
}
330
21
100
AcDbEntity
  8
文字
100
AcDbDimension
280
     0
  2
*D16
 10
142.0030900247836
 20
78.4901383648646
 30
0.0
 11
140.1280900247836
 21
84.99013836486462
 31
0.0
 70
    32
 71
     5
 42
13.0
 73
     0
 74
     0
 75
     0
  3
ISO-25
100
AcDbAlignedDimension
 13
109.079957997007
 23
91.4901383648646
 33
0.0
 14
109.079957997007
 24
78.4901383648646
 34
0.0
 50
90.0
100
AcDbRotatedDimension
  0
LWPOLYLINE
  5
1DD3
102
{ACAD_REACTORS
330
1DC4
102
}
330
21
100
AcDbEntity
  8
実線
100
AcDbPolyline
 90
        6
 70
     0
 43
0.0
 10
101.7799579970069
 20
154.4713315092843
 10
101.7799579970069
 20
189.4901383648646
 10
99.77995799700693
 20
191.4901383648646
 10
83.77995799700693
 20
191.4901383648646
 10
81.77995799700693
 20
189.4901383648646
 10
81.77995799700693
 20
142.6315013322722
  0
LINE
  5
1DD4
102
{ACAD_REACTORS
330
1DD9
102
}
330
21
100
AcDbEntity
  8
実線
370
    20
100
AcDbLine
 10
81.77995799700693
 20
189.4901383648646
 30
0.0
 11
101.7799579970069
 21
189.4901383648646
 31
0.0
  0
LINE
  5
1DD5
330
21
100
AcDbEntity
  8
実線
370
    15
100
AcDbLine
 10
83.77995799700693
 20
191.4901383648646
 30
0.0
 11
83.77995799700693
 21
143.8154843499734
 31
0.0
  0
LINE
  5
1DD6
102
{ACAD_REACTORS
330
1EC1
102
}
330
21
100
AcDbEntity
  8
実線
370
    15
100
AcDbLine
 10
99.77995799700693
 20
191.4901383648646
 30
0.0
 11
99.77995799700692
 21
153.2873484915831
 31
0.0
  0
DIMENSION
  5
1DD7
102
{ACAD_REACTORS
330
1DD9
102
}
102
{ACAD_XDICTIONARY
360
1DD8
102
}
330
21
100
AcDbEntity
  8
文字
100
AcDbDimension
280
     0
  2
*D17
 10
101.7799579970069
 20
204.9803898472055
 30
0.0
 11
91.77995799700693
 21
206.8553898472055
 31
0.0
 70
    32
  1
M<>
 71
     5
 42
20.0
 73
     0
 74
     0
 75
     0
  3
ISO-25
100
AcDbAlignedDimension
 13
81.77995799700693
 23
189.4901383648646
 33
0.0
 14
101.7799579970069
 24
189.4901383648646
 34
0.0
100
AcDbRotatedDimension
  0
LINE
  5
1DDA
330
21
100
AcDbEntity
  8
実線
370
    15
100
AcDbLine
 10
99.7799579970069
 20
150.4096726282048
 30
0.0
 11
99.77995799700692
 21
103.3050066049059
 31
0.0
  0
LINE
  5
1DDB
330
21
100
AcDbEntity
  8
実線
370
    20
100
AcDbLine
 10
83.77995799700693
 20
130.6617112401184
 30
0.0
 11
83.77995799700693
 21
103.3050158473607
 31
0.0
  0
LWPOLYLINE
  5
1DDC
330
21
100
AcDbEntity
  8
実線
100
AcDbPolyline
 90
        2
 70
     0
 43
0.0
 10
81.77995799700693
 20
128.6617112401185
 10
81.77995799700693
 20
103.305027400543
  0
LINE
  5
1DDD
330
21
100
AcDbEntity
  8
実線
100
AcDbLine
 10
80.4399579970069
 20
78.49015146611596
 30
0.0
 11
103.1212787087226
 21
78.49012526208742
 31
0.0
  0
DIMENSION
  5
1DDE
102
{ACAD_REACTORS
330
1DE0
102
}
102
{ACAD_XDICTIONARY
360
1DDF
102
}
330
21
100
AcDbEntity
  8
文字
100
AcDbDimension
280
     0
  2
*D18
 10
41.84892816975501
 20
60.49013836486462
 30
0.0
 11
37.76808089925021
 21
59.1683319611941
 31
0.0
 70
   160
 71
     5
 42
1.999999999999993
 73
     0
 74
     0
 75
     0
  3
ISO-25
100
AcDbAlignedDimension
 13
54.27995799700697
 23
58.49013836486462
 33
0.0
 14
54.27995799700697
 24
60.49013836486461
 34
0.0
 50
90.0
100
AcDbRotatedDimension
1001
ACAD
1000
DSTYLE
1002
{
1070
   279
1070
     2
1002
}
  0
LINE
  5
1DE1
330
21
100
AcDbEntity
  8
中心線
100
AcDbLine
 10
225.7482619151882
 20
135.1072656860428
 30
0.0
 11
273.220269140445
 21
135.1072656860428
 31
0.0
  0
LINE
  5
1DE2
330
21
100
AcDbEntity
  8
中心線
100
AcDbLine
 10
225.7482619151882
 20
135.1072656860428
 30
0.0
 11
177.3774469120666
 21
135.1072656860428
 31
0.0
  0
DIMENSION
  5
1DE3
102
{ACAD_REACTORS
330
1DE5
102
}
102
{ACAD_XDICTIONARY
360
1DE4
102
}
330
21
100
AcDbEntity
  8
文字
100
AcDbDimension
280
     0
  2
*D19
 10
142.0030900247836
 20
58.49013836486459
 30
0.0
 11
140.1280900247836
 21
68.49013836486462
 31
0.0
 70
    32
 71
     5
 42
20.00000000000003
 73
     0
 74
     0
 75
     0
  3
ISO-25
100
AcDbAlignedDimension
 13
101.3669404255614
 23
78.49013836486462
 33
0.0
 14
129.279957997007
 24
58.49013836486459
 34
0.0
 50
90.0
100
AcDbRotatedDimension
  0
LINE
  5
1DE6
102
{ACAD_REACTORS
330
1DE5
102
}
330
21
100
AcDbEntity
  8
実線
100
AcDbLine
 10
82.19297556845252
 20
78.49013836486459
 30
0.0
 11
101.3669404255614
 21
78.49013836486462
 31
0.0
  0
LINE
  5
1DE7
330
21
100
AcDbEntity
  8
実線
100
AcDbLine
 10
63.62900279434588
 20
60.49013836486462
 30
0.0
 11
56.77995799700695
 21
60.49013836486462
 31
0.0
  0
ARC
  5
1DE8
330
21
100
AcDbEntity
  8
実線
100
AcDbCircle
 10
92.61649709196833
 20
52.50263754141481
 30
0.0
 40
28.0
100
AcDbArc
 50
111.8555975180225
 51
159.2411479077421
  0
ARC
  5
1DE9
330
21
100
AcDbEntity
  8
実線
100
AcDbCircle
 10
63.62900279434591
 20
63.49013836486461
 30
0.0
 40
3.0
100
AcDbArc
 50
269.9999999999992
 51
339.2411479077421
  0
LINE
  5
1DEA
102
{ACAD_REACTORS
330
1DE0
102
}
330
21
100
AcDbEntity
  8
実線
100
AcDbLine
 10
54.27995799700697
 20
58.49013836486462
 30
0.0
 11
54.27995799700697
 21
60.49013836486462
 31
0.0
  0
LINE
  5
1DEB
330
21
100
AcDbEntity
  8
実線
100
AcDbLine
 10
54.27995799700697
 20
60.49013836486462
 30
0.0
 11
56.77995799700695
 21
60.49013836486462
 31
0.0
  0
LINE
  5
1DEC
102
{ACAD_REACTORS
330
1DE0
102
}
330
21
100
AcDbEntity
  8
実線
100
AcDbLine
 10
54.27995799700697
 20
58.49013836486462
 30
0.0
 11
126.779957997007
 21
58.49013836486459
 31
0.0
  0
LINE
  5
1DED
330
21
100
AcDbEntity
  8
実線
100
AcDbLine
 10
126.779957997007
 20
60.49013836486459
 30
0.0
 11
126.779957997007
 21
60.49013836486459
 31
0.0
  0
ARC
  5
1DEE
330
21
100
AcDbEntity
  8
実線
100
AcDbCircle
 10
119.930913199668
 20
63.49013836486459
 30
0.0
 40
3.0
100
AcDbArc
 50
200.7588520922579
 51
270.0000000000007
  0
ARC
  5
1DEF
330
21
100
AcDbEntity
  8
実線
100
AcDbCircle
 10
90.94341890204562
 20
52.50263754141481
 30
0.0
 40
28.0
100
AcDbArc
 50
20.75885209225788
 51
68.14440248197752
  0
LINE
  5
1DF0
330
21
100
AcDbEntity
  8
実線
100
AcDbLine
 10
119.9309131996681
 20
60.49013836486459
 30
0.0
 11
126.779957997007
 21
60.49013836486459
 31
0.0
  0
LINE
  5
1DF1
330
21
100
AcDbEntity
  8
実線
100
AcDbLine
 10
63.62900279434591
 20
60.49013836486462
 30
0.0
 11
119.930913199668
 21
60.49013836486459
 31
0.0
  0
LINE
  5
1DF2
102
{ACAD_REACTORS
330
1DE5
102
}
330
21
100
AcDbEntity
  8
実線
100
AcDbLine
 10
129.279957997007
 20
58.49013836486459
 30
0.0
 11
129.279957997007
 21
60.49013836486459
 31
0.0
  0
LINE
  5
1DF3
102
{ACAD_REACTORS
330
1DF7
330
1EC1
102
}
330
21
100
AcDbEntity
  8
実線
100
AcDbLine
 10
126.779957997007
 20
58.49013836486459
 30
0.0
 11
129.279957997007
 21
58.49013836486459
 31
0.0
  0
LINE
  5
1DF4
330
21
100
AcDbEntity
  8
実線
100
AcDbLine
 10
129.279957997007
 20
60.49013836486459
 30
0.0
 11
126.779957997007
 21
60.49013836486459
 31
0.0
  0
DIMENSION
  5
1DF5
102
{ACAD_REACTORS
330
1DF7
102
}
102
{ACAD_XDICTIONARY
360
1DF6
102
}
330
21
100
AcDbEntity
  8
文字
100
AcDbDimension
280
     0
  2
*D20
 10
129.279957997007
 20
41.02883482749961
 30
0.0
 11
91.77995799700699
 21
42.90383482749961
 31
0.0
 70
    32
  1
%%c<>
 71
     5
 42
75.00000000000001
 73
     0
 74
     0
 75
     0
  3
ISO-25
100
AcDbAlignedDimension
 13
54.27995799700697
 23
58.49013836486461
 33
0.0
 14
129.279957997007
 24
58.49013836486459
 34
0.0
 50
180.0
100
AcDbRotatedDimension
  0
LINE
  5
1DF8
330
21
100
AcDbEntity
  8
中心線
100
AcDbLine
 10
225.7482619151882
 20
135.1072656860428
 30
0.0
 11
225.7482619151882
 21
93.28849947308977
 31
0.0
  0
LINE
  5
1DF9
330
21
100
AcDbEntity
  8
中心線
100
AcDbLine
 10
225.7482619151882
 20
135.1072656860428
 30
0.0
 11
225.7482619151882
 21
180.645091325793
 31
0.0
  0
DIMENSION
  5
1DFA
102
{ACAD_REACTORS
330
1DFC
102
}
102
{ACAD_XDICTIONARY
360
1DFB
102
}
330
21
100
AcDbEntity
  8
文字
100
AcDbDimension
280
     0
  2
*D21
 10
251.7482619151882
 20
79.09852658671544
 30
0.0
 11
225.7482619151882
 21
80.97352658671544
 31
0.0
 70
    32
  1
%%c<>
 71
     5
 42
52.0
 73
     0
 74
     0
 75
     0
  3
ISO-25
100
AcDbAlignedDimension
 13
199.7482619151882
 23
135.1072656860428
 33
0.0
 14
251.7482619151882
 24
135.1072656860428
 34
0.0
100
AcDbRotatedDimension
  0
CIRCLE
  5
1DFD
330
21
100
AcDbEntity
  8
実線
100
AcDbCircle
 10
225.7482619151882
 20
135.1072656860428
 30
0.0
 40
37.5
  0
CIRCLE
  5
1DFE
102
{ACAD_REACTORS
330
1DFC
102
}
330
21
100
AcDbEntity
  8
実線
100
AcDbCircle
 10
225.7482619151882
 20
135.1072656860428
 30
0.0
 40
26.0
  0
LWPOLYLINE
  5
1E77
330
21
100
AcDbEntity
  8
実線
100
AcDbPolyline
 90
        4
 70
     0
 43
0.0
 10
81.77995799700693
 20
103.305027400543
 10
81.77995799700693
 20
91.4901383648646
 10
101.7799579970069
 20
91.4901383648646
 10
101.7799579970069
 20
103.3050042942796
  0
LINE
  5
1E78
330
21
100
AcDbEntity
  8
実線
370
    15
100
AcDbLine
 10
83.77995799700693
 20
103.3050158473607
 30
0.0
 11
83.77995799700693
 21
91.4901383648646
 31
0.0
  0
LINE
  5
1E79
330
21
100
AcDbEntity
  8
実線
370
    15
100
AcDbLine
 10
99.77995799700692
 20
103.3050066049059
 30
0.0
 11
99.7799579970069
 21
91.4901383648646
 31
0.0
  0
LWPOLYLINE
  5
1E7A
330
21
100
AcDbEntity
  8
実線
100
AcDbPolyline
 90
        2
 70
     0
 43
0.0
 10
101.7799579970069
 20
103.3050042942796
 10
101.7799579970069
 20
151.593655645906
  0
LINE
  5
1E9E
330
21
100
AcDbEntity
  8
文字
100
AcDbLine
 10
104.6020831153817
 20
153.2643297528979
 30
0.0
 11
79.26344646744712
 21
138.2640720114699
 31
0.0
  0
LINE
  5
1E9F
330
21
100
AcDbEntity
  8
文字
100
AcDbLine
 10
104.6020831153817
 20
156.1420056162761
 30
0.0
 11
79.26344646744712
 21
141.1417478748482
 31
0.0
  0
LWPOLYLINE
  5
1EA0
102
{ACAD_REACTORS
330
1DC4
102
}
330
21
100
AcDbEntity
  8
実線
100
AcDbPolyline
 90
        2
 70
     0
 43
0.0
 10
81.77995799700693
 20
139.753825468894
 10
81.77995799700693
 20
131.4901383648647
  0
MTEXT
  5
1FE5
330
21
100
AcDbEntity
  8
文字・寸法線
 62
     0
100
AcDbMText
 10
88.60580268729154
 20
225.737621220998
 30
0.0
 40
6.0
 41
0.0
 46
6.0
 71
     9
 72
     1
  1
{\fＭＳ ゴシック|b0|i0|c0|p0;S-B M20X250}
 73
     1
 44
1.0
1001
ACAD
1000
ACAD_MTEXT_DEFINED_HEIGHT_BEGIN
1070
    46
1040
6.0
1000
ACAD_MTEXT_DEFINED_HEIGHT_END
  0
VIEWPORT
  5
1FAB
330
1FA7
100
AcDbEntity
 67
     1
  8
0
100
AcDbViewport
 10
203.7291666666666
 20
142.1694444444444
 30
0.0
 40
488.9499999999999
 41
341.2066666666665
 68
     1
 69
     1
 12
203.7291666666666
 22
142.1694444444444
 13
0.0
 23
0.0
 14
0.5
 24
0.5
 15
0.0
 25
0.0
 16
0.0
 26
0.0
 36
1.0
 17
0.0
 27
0.0
 37
0.0
 42
50.0
 43
0.0
 44
0.0
 45
341.2066666666665
 50
0.0
 51
0.0
 72
   100
 90
   557152
  1

281
     0
 71
     1
 74
     0
110
0.0
120
0.0
130
0.0
111
1.0
121
0.0
131
0.0
112
0.0
122
1.0
132
0.0
 79
     0
146
0.0
170
     0
 61
     5
348
1F69
292
     1
282
     1
141
0.0
142
0.0
 63
   256
361
1FAD
  0
VIEWPORT
  5
1FAC
330
1FA7
100
AcDbEntity
 67
     1
  8
0
100
AcDbViewport
 10
203.7291666666666
 20
142.1694444444444
 30
0.0
 40
325.9666666666666
 41
227.471111111111
 68
     2
 69
     2
 12
154.8691750198476
 22
123.9421123373525
 13
0.0
 23
0.0
 14
0.5
 24
0.5
 15
0.0
 25
0.0
 16
0.0
 26
0.0
 36
1.0
 17
0.0
 27
0.0
 37
0.0
 42
50.0
 43
0.0
 44
0.0
 45
171.6930861201
 50
0.0
 51
0.0
 72
   100
 90
   557152
  1

281
     0
 71
     1
 74
     0
110
0.0
120
0.0
130
0.0
111
1.0
121
0.0
131
0.0
112
0.0
122
1.0
132
0.0
 79
     0
146
0.0
170
     0
 61
     5
348
1F69
292
     1
282
     1
141
0.0
142
0.0
 63
   256
  0
ENDSEC
  0
SECTION
  2
OBJECTS
  0
DICTIONARY
  5
C
330
0
100
AcDbDictionary
281
     1
  3
ACAD_COLOR
350
1C
  3
ACAD_DETAILVIEWSTYLE
350
1FB6
  3
ACAD_GROUP
350
D
  3
ACAD_IMAGE_VARS
350
1FA6
  3
ACAD_LAYOUT
350
1A
  3
ACAD_MATERIAL
350
1B
  3
ACAD_MLEADERSTYLE
350
1FB4
  3
ACAD_MLINESTYLE
350
17
  3
ACAD_PLOTSETTINGS
350
19
  3
ACAD_PLOTSTYLENAME
350
E
  3
ACAD_SCALELIST
350
1F7D
  3
ACAD_SECTIONVIEWSTYLE
350
1FB7
  3
ACAD_TABLESTYLE
350
1FA2
  3
ACAD_VISUALSTYLE
350
1F64
  3
AcadDim
350
1271
  3
ACDB_RECOMPOSE_DATA
350
1FEB
  3
AcDbVariableDictionary
350
13CA
  3
APPDATA
350
1FA4
  0
SUN
  5
1FAE
330
1F57
100
AcDbSun
 90
        1
290
     0
 63
     7
421
 16777215
 40
1.0
291
     1
 91
  2455826
 92
 54000000
292
     0
 70
     2
 71
   256
280
     1
  0
DICTIONARY
  5
1A12
330
1A11
100
AcDbDictionary
280
     1
281
     1
  3
ACAD_DIMASSOC
360
1A13
  0
DICTIONARY
  5
1A17
330
1A16
100
AcDbDictionary
280
     1
281
     1
  3
ACAD_DIMASSOC
360
1A18
  0
DICTIONARY
  5
1A1A
330
1A19
100
AcDbDictionary
280
     1
281
     1
  3
ACAD_DIMASSOC
360
1A1B
  0
DICTIONARY
  5
1A1D
330
1A1C
100
AcDbDictionary
280
     1
281
     1
  3
ACAD_DIMASSOC
360
1A1E
  0
DICTIONARY
  5
1A21
330
1A20
100
AcDbDictionary
280
     1
281
     1
  3
ACAD_DIMASSOC
360
1A22
  0
DICTIONARY
  5
1A28
330
1A27
100
AcDbDictionary
280
     1
281
     1
  3
ACAD_DIMASSOC
360
1A29
  0
DICTIONARY
  5
1A2B
330
1A2A
100
AcDbDictionary
280
     1
281
     1
  3
ACAD_DIMASSOC
360
1A2C
  0
DICTIONARY
  5
1A31
330
1A30
100
AcDbDictionary
280
     1
281
     1
  3
ACAD_DIMASSOC
360
1A32
  0
DICTIONARY
  5
1DBD
330
1DBC
100
AcDbDictionary
280
     1
281
     1
  3
ACAD_DIMASSOC
360
1DBE
  0
DICTIONARY
  5
1DC3
330
1DC2
100
AcDbDictionary
280
     1
281
     1
  3
ACAD_DIMASSOC
360
1DC4
  0
DICTIONARY
  5
1DD1
330
1DD0
100
AcDbDictionary
280
     1
281
     1
  3
ACAD_DIMASSOC
360
1DD2
  0
DICTIONARY
  5
1DD8
330
1DD7
100
AcDbDictionary
280
     1
281
     1
  3
ACAD_DIMASSOC
360
1DD9
  0
DICTIONARY
  5
1DDF
330
1DDE
100
AcDbDictionary
280
     1
281
     1
  3
ACAD_DIMASSOC
360
1DE0
  0
DICTIONARY
  5
1DE4
330
1DE3
100
AcDbDictionary
280
     1
281
     1
  3
ACAD_DIMASSOC
360
1DE5
  0
DICTIONARY
  5
1DF6
330
1DF5
100
AcDbDictionary
280
     1
281
     1
  3
ACAD_DIMASSOC
360
1DF7
  0
DICTIONARY
  5
1DFB
330
1DFA
100
AcDbDictionary
280
     1
281
     1
  3
ACAD_DIMASSOC
360
1DFC
  0
SUN
  5
1FAD
330
1FAB
100
AcDbSun
 90
        1
290
     0
 63
     7
421
 16777215
 40
1.0
291
     1
 91
  2455826
 92
 54000000
292
     0
 70
     2
 71
   256
280
     1
  0
DICTIONARY
  5
1C
102
{ACAD_REACTORS
330
C
102
}
330
C
100
AcDbDictionary
281
     1
  0
DICTIONARY
  5
1FB6
102
{ACAD_REACTORS
330
C
102
}
330
C
100
AcDbDictionary
281
     1
  0
DICTIONARY
  5
D
102
{ACAD_REACTORS
330
C
102
}
330
C
100
AcDbDictionary
281
     1
  0
RASTERVARIABLES
  5
1FA6
102
{ACAD_REACTORS
330
C
102
}
330
C
100
AcDbRasterVariables
 90
        0
 70
     1
 71
     1
 72
     1
  0
DICTIONARY
  5
1A
102
{ACAD_REACTORS
330
C
102
}
330
C
100
AcDbDictionary
281
     1
  3
Model
350
24
  3
Sheet1
350
1FA8
  0
DICTIONARY
  5
1B
102
{ACAD_REACTORS
330
C
102
}
330
C
100
AcDbDictionary
281
     1
  3
ByBlock
350
1FA0
  3
ByLayer
350
1F9F
  3
Global
350
1FA1
  0
DICTIONARY
  5
1FB4
102
{ACAD_REACTORS
330
C
102
}
330
C
100
AcDbDictionary
281
     1
  0
DICTIONARY
  5
17
102
{ACAD_REACTORS
330
C
102
}
330
C
100
AcDbDictionary
281
     1
  3
Standard
350
18
  0
DICTIONARY
  5
19
102
{ACAD_REACTORS
330
C
102
}
330
C
100
AcDbDictionary
281
     1
  0
ACDBDICTIONARYWDFLT
  5
E
102
{ACAD_REACTORS
330
C
102
}
330
C
100
AcDbDictionary
281
     1
  3
Normal
350
F
100
AcDbDictionaryWithDefault
340
F
  0
DICTIONARY
  5
1F7D
102
{ACAD_REACTORS
330
C
102
}
330
C
100
AcDbDictionary
281
     1
  3
A0
350
1F7E
  3
A1
350
1F7F
  3
A2
350
1F80
  3
A3
350
1F81
  3
A4
350
1F82
  3
A5
350
1F83
  3
A6
350
1F84
  3
A7
350
1F85
  3
A8
350
1F86
  3
A9
350
1F87
  3
B0
350
1F88
  3
B1
350
1F89
  3
B2
350
1F8A
  3
B3
350
1F8B
  3
B4
350
1F8C
  3
B5
350
1F8D
  3
B6
350
1F8E
  3
B7
350
1F8F
  3
B8
350
1F90
  3
B9
350
1F91
  3
C0
350
1F92
  3
C1
350
1F93
  3
C2
350
1F94
  3
C3
350
1F95
  3
C4
350
1F96
  3
C5
350
1F97
  3
C6
350
1F98
  3
C7
350
1F99
  3
C8
350
1F9A
  3
C9
350
1F9B
  3
D0
350
1F9C
  3
D1
350
1F9D
  3
D2
350
1F9E
  0
DICTIONARY
  5
1FB7
102
{ACAD_REACTORS
330
C
102
}
330
C
100
AcDbDictionary
281
     1
  0
DICTIONARY
  5
1FA2
102
{ACAD_REACTORS
330
C
102
}
330
C
100
AcDbDictionary
281
     1
  3
Standard
350
1FA3
  0
DICTIONARY
  5
1F64
102
{ACAD_REACTORS
330
C
102
}
330
C
100
AcDbDictionary
281
     1
  3
2dWireframe
350
1F69
  3
Basic
350
1F6C
  3
Brighten
350
1F70
  3
ColorChange
350
1F74
  3
Conceptual
350
1F6E
  3
Dim
350
1F6F
  3
EdgeColorOff
350
1F77
  3
Facepattern
350
1F73
  3
Flat
350
1F65
  3
FlatWithEdges
350
1F66
  3
Gouraud
350
1F67
  3
GouraudWithEdges
350
1F68
  3
Hidden
350
1F6B
  3
JitterOff
350
1F75
  3
Linepattern
350
1F72
  3
OverhangOff
350
1F76
  3
Realistic
350
1F6D
  3
Shaded
350
1F7C
  3
Shaded with edges
350
1F7B
  3
Shades of Gray
350
1F78
  3
Sketchy
350
1F79
  3
Thicken
350
1F71
  3
Wireframe
350
1F6A
  3
X-Ray
350
1F7A
  0
XRECORD
  5
1271
102
{ACAD_REACTORS
330
C
102
}
330
C
100
AcDbXrecord
280
     1
 90
   990106
  3

 60
     0
 61
     0
 62
     4
 63
     4
 64
     1
 65
     0
 66
     0
 67
     3
 68
     1
 69
     0
 70
     0
 71
     0
 72
     0
 40
0.0
170
     2
340
0
  0
XRECORD
  5
1FEB
102
{ACAD_REACTORS
330
C
102
}
330
C
100
AcDbXrecord
280
     1
 90
        1
330
1FA3
  0
DICTIONARY
  5
13CA
102
{ACAD_REACTORS
330
C
102
}
330
C
100
AcDbDictionary
281
     1
  3
CANNOSCALE
350
1FAF
  3
CTABLESTYLE
350
1FB3
  3
DIMASSOC
350
13CC
  3
HIDETEXT
350
13CB
  3
MSLTSCALE
350
1FB5
  3
PROJECTNAME
350
13CD
  0
DICTIONARY
  5
1FA4
102
{ACAD_REACTORS
330
C
102
}
330
C
100
AcDbDictionary
281
     1
  0
DIMASSOC
  5
1A13
102
{ACAD_REACTORS
330
1A12
102
}
330
1A12
100
AcDbDimAssoc
330
1A11
 90
        3
 70
     0
 71
     0
  1
AcDbOsnapPointRef
 72
     1
331
1A48
 73
     2
 91
        0
 40
1.0
 10
0.0
 20
0.0
 30
2.000000000000000E+50
 75
     0
  1
AcDbOsnapPointRef
 72
    13
331
1A23
 73
     2
 91
        0
 40
0.0
 10
0.0
 20
0.0
 30
2.000000000000000E+50
 75
     0
  0
DIMASSOC
  5
1A18
102
{ACAD_REACTORS
330
1A17
102
}
330
1A17
100
AcDbDimAssoc
330
1A16
 90
        3
 70
     0
 71
     0
  1
AcDbOsnapPointRef
 72
     1
331
1A3B
 73
     2
 91
        1
 40
1.0
 10
0.0
 20
0.0
 30
2.000000000000000E+50
 75
     0
  1
AcDbOsnapPointRef
 72
    13
331
1A23
 73
     2
 91
        0
 40
0.0
 10
0.0
 20
0.0
 30
2.000000000000000E+50
 75
     0
  0
DIMASSOC
  5
1A1B
102
{ACAD_REACTORS
330
1A1A
102
}
330
1A1A
100
AcDbDimAssoc
330
1A19
 90
        3
 70
     0
 71
     0
  1
AcDbOsnapPointRef
 72
     6
331
1A34
 73
     2
 91
        0
 40
1.0
 10
0.0
 20
0.0
 30
0.0
332
1A44
 74
     2
 92
        0
 75
     0
  1
AcDbOsnapPointRef
 72
     1
331
1A3B
 73
     2
 91
        1
 40
1.0
 10
0.0
 20
0.0
 30
2.000000000000000E+50
 75
     0
  0
DIMASSOC
  5
1A1E
102
{ACAD_REACTORS
330
1A1D
102
}
330
1A1D
100
AcDbDimAssoc
330
1A1C
 90
        3
 70
     0
 71
     0
  1
AcDbOsnapPointRef
 72
     1
331
1A48
 73
     2
 91
        0
 40
1.0
 10
0.0
 20
0.0
 30
2.000000000000000E+50
 75
     0
  1
AcDbOsnapPointRef
 72
     6
331
1A34
 73
     2
 91
        0
 40
1.0
 10
0.0
 20
0.0
 30
0.0
332
1A44
 74
     2
 92
        0
 75
     0
  0
DIMASSOC
  5
1A22
102
{ACAD_REACTORS
330
1A21
102
}
330
1A21
100
AcDbDimAssoc
330
1A20
 90
        3
 70
     0
 71
     0
  1
AcDbOsnapPointRef
 72
    13
331
1A25
 73
     2
 91
        0
 40
0.0
 10
0.0
 20
0.0
 30
2.000000000000000E+50
 75
     0
  1
AcDbOsnapPointRef
 72
     1
331
1A25
 73
     2
 91
        0
 40
1.0
 10
0.0
 20
0.0
 30
2.000000000000000E+50
 75
     0
  0
DIMASSOC
  5
1A29
102
{ACAD_REACTORS
330
1A28
102
}
330
1A28
100
AcDbDimAssoc
330
1A27
 90
        3
 70
     0
 71
     0
  1
AcDbOsnapPointRef
 72
     2
331
1A2F
 73
     2
 91
        3
 40
0.5
 10
0.0
 20
0.0
 30
0.0
 75
     0
  1
AcDbOsnapPointRef
 72
     6
331
1A2F
 73
     2
 91
        6
 40
0.5000000000000038
 10
0.0
 20
0.0
 30
0.0
332
1A3C
 74
     2
 92
        0
 75
     0
  0
DIMASSOC
  5
1A2C
102
{ACAD_REACTORS
330
1A2B
102
}
330
1A2B
100
AcDbDimAssoc
330
1A2A
 90
        3
 70
     0
 71
     0
  1
AcDbOsnapPointRef
 72
    13
331
1A46
 73
     2
 91
        0
 40
0.0
 10
0.0
 20
0.0
 30
2.000000000000000E+50
 75
     0
  1
AcDbOsnapPointRef
 72
    13
331
1A49
 73
     2
 91
        0
 40
0.0
 10
0.0
 20
0.0
 30
2.000000000000000E+50
 75
     0
  0
DIMASSOC
  5
1A32
102
{ACAD_REACTORS
330
1A31
102
}
330
1A31
100
AcDbDimAssoc
330
1A30
 90
        3
 70
     0
 71
     0
  1
AcDbOsnapPointRef
 72
     5
331
1A40
 73
     2
 91
        0
 40
3.141592653589793
 10
0.0
 20
0.0
 30
0.0
 75
     0
  1
AcDbOsnapPointRef
 72
     5
331
1A40
 73
     2
 91
        0
 40
0.0
 10
0.0
 20
0.0
 30
0.0
 75
     0
  0
DIMASSOC
  5
1DBE
102
{ACAD_REACTORS
330
1DBD
102
}
330
1DBD
100
AcDbDimAssoc
330
1DBC
 90
        3
 70
     0
 71
     0
  1
AcDbOsnapPointRef
 72
     1
331
1DBF
 73
     2
 91
        3
 40
1.0
 10
0.0
 20
0.0
 30
2.000000000000000E+50
 75
     0
  1
AcDbOsnapPointRef
 72
     1
331
1DBF
 73
     2
 91
        5
 40
1.0
 10
0.0
 20
0.0
 30
2.000000000000000E+50
 75
     0
  0
DIMASSOC
  5
1DC4
102
{ACAD_REACTORS
330
1DC3
102
}
330
1DC3
100
AcDbDimAssoc
330
1DC2
 90
        1
 70
     0
 71
     0
  1
AcDbOsnapPointRef
 72
     1
331
1DD3
 73
     2
 91
        2
 40
0.9999999999999999
 10
0.0
 20
0.0
 30
2.000000000000000E+50
 75
     0
  0
DIMASSOC
  5
1DD2
102
{ACAD_REACTORS
330
1DD1
102
}
330
1DD1
100
AcDbDimAssoc
330
1DD0
 90
        1
 70
     0
 71
     0
  1
AcDbOsnapPointRef
 72
     1
331
1DCD
 73
     2
 91
        1
 40
1.0
 10
0.0
 20
0.0
 30
2.000000000000000E+50
 75
     0
  0
DIMASSOC
  5
1DD9
102
{ACAD_REACTORS
330
1DD8
102
}
330
1DD8
100
AcDbDimAssoc
330
1DD7
 90
        3
 70
     0
 71
     0
  1
AcDbOsnapPointRef
 72
    13
331
1DD4
 73
     2
 91
        0
 40
0.0
 10
0.0
 20
0.0
 30
2.000000000000000E+50
 75
     0
  1
AcDbOsnapPointRef
 72
     1
331
1DD4
 73
     2
 91
        0
 40
1.0
 10
0.0
 20
0.0
 30
2.000000000000000E+50
 75
     0
  0
DIMASSOC
  5
1DE0
102
{ACAD_REACTORS
330
1DDF
102
}
330
1DDF
100
AcDbDimAssoc
330
1DDE
 90
        3
 70
     0
 71
     0
  1
AcDbOsnapPointRef
 72
    13
331
1DEC
 73
     2
 91
        0
 40
0.0
 10
0.0
 20
0.0
 30
2.000000000000000E+50
 75
     0
  1
AcDbOsnapPointRef
 72
     1
331
1DEA
 73
     2
 91
        0
 40
1.0
 10
0.0
 20
0.0
 30
2.000000000000000E+50
 75
     0
  0
DIMASSOC
  5
1DE5
102
{ACAD_REACTORS
330
1DE4
102
}
330
1DE4
100
AcDbDimAssoc
330
1DE3
 90
        3
 70
     0
 71
     0
  1
AcDbOsnapPointRef
 72
     1
331
1DE6
 73
     2
 91
        0
 40
1.0
 10
0.0
 20
0.0
 30
2.000000000000000E+50
 75
     0
  1
AcDbOsnapPointRef
 72
    13
331
1DF2
 73
     2
 91
        0
 40
0.0
 10
0.0
 20
0.0
 30
2.000000000000000E+50
 75
     0
  0
DIMASSOC
  5
1DF7
102
{ACAD_REACTORS
330
1DF6
102
}
330
1DF6
100
AcDbDimAssoc
330
1DF5
 90
        2
 70
     0
 71
     0
  1
AcDbOsnapPointRef
 72
     1
331
1DF3
 73
     2
 91
        0
 40
1.0
 10
0.0
 20
0.0
 30
2.000000000000000E+50
 75
     0
  0
DIMASSOC
  5
1DFC
102
{ACAD_REACTORS
330
1DFB
102
}
330
1DFB
100
AcDbDimAssoc
330
1DFA
 90
        3
 70
     0
 71
     0
  1
AcDbOsnapPointRef
 72
     5
331
1DFE
 73
     2
 91
        0
 40
3.141592653589793
 10
0.0
 20
0.0
 30
0.0
 75
     0
  1
AcDbOsnapPointRef
 72
     5
331
1DFE
 73
     2
 91
        0
 40
0.0
 10
0.0
 20
0.0
 30
0.0
 75
     0
  0
LAYOUT
  5
24
102
{ACAD_REACTORS
330
1A
102
}
330
1A
100
AcDbPlotSettings
  1

  2
\\SF05\Brother HL-1440 series
  4
A4
  6

 40
6.72041654586792
 41
5.027085304260254
 42
6.889755249023438
 43
5.027069091796875
 44
209.9733276367188
 45
296.9259948730469
 46
-6.82
 47
-5.06
 48
0.0
 49
0.0
140
297.0000000000001
141
210.0
142
1.0
143
1.0
 70
 11956
 72
     1
 73
     1
 74
     4
  7

 75
    16
 76
     0
 77
     2
 78
   300
147
1.0
148
0.0
149
0.0
100
AcDbLayout
  1
Model
 70
     1
 71
     0
 10
0.0
 20
0.0
 11
12.0
 21
9.0
 12
0.0
 22
0.0
 32
0.0
 14
0.0
 24
0.0
 34
0.0
 15
273.220269140445
 25
231.737621220998
 35
0.0
146
0.0
 13
0.0
 23
0.0
 33
0.0
 16
1.0
 26
0.0
 36
0.0
 17
0.0
 27
1.0
 37
0.0
 76
     0
330
21
331
1F57
  0
LAYOUT
  5
1FA8
102
{ACAD_REACTORS
330
1A
102
}
330
1A
100
AcDbPlotSettings
  1

  2
none_device
  4
iso-a3
  6

 40
6.35
 41
6.35
 42
6.35
 43
6.35
 44
297.0388888888888
 45
420.1583333333333
 46
0.0
 47
0.0
 48
0.0
 49
0.0
140
0.0
141
0.0
142
1.0
143
1.0
 70
   688
 72
     1
 73
     1
 74
     5
  7

 75
    16
 76
     0
 77
     2
 78
   300
147
1.0
148
0.0
149
0.0
100
AcDbLayout
  1
Sheet1
 70
     1
 71
     1
 10
0.0
 20
0.0
 11
0.0
 21
0.0
 12
0.0
 22
0.0
 32
0.0
 14
0.0
 24
0.0
 34
0.0
 15
0.0
 25
0.0
 35
0.0
146
0.0
 13
0.0
 23
0.0
 33
0.0
 16
1.0
 26
0.0
 36
0.0
 17
0.0
 27
1.0
 37
0.0
 76
     0
330
1FA7
331
1FAB
  0
MATERIAL
  5
1FA0
102
{ACAD_REACTORS
330
1B
102
}
330
1B
100
AcDbMaterial
  1
ByBlock
 72
     1
 94
      127
  0
MATERIAL
  5
1F9F
102
{ACAD_REACTORS
330
1B
102
}
330
1B
100
AcDbMaterial
  1
ByLayer
 72
     1
 94
      127
  0
MATERIAL
  5
1FA1
102
{ACAD_REACTORS
330
1B
102
}
330
1B
100
AcDbMaterial
  1
Global
 72
     1
 94
      127
  0
MLINESTYLE
  5
18
102
{ACAD_REACTORS
330
17
102
}
330
17
100
AcDbMlineStyle
  2
STANDARD
 70
     0
  3

 62
   256
 51
90.0
 52
90.0
 71
     2
 49
0.5
 62
   256
  6
BYLAYER
 49
-0.5
 62
   256
  6
BYLAYER
  0
ACDBPLACEHOLDER
  5
F
102
{ACAD_REACTORS
330
E
102
}
330
E
  0
SCALE
  5
1F7E
102
{ACAD_REACTORS
330
1F7D
102
}
330
1F7D
100
AcDbScale
 70
     0
300
1:1
140
1.0
141
1.0
290
     1
  0
SCALE
  5
1F7F
102
{ACAD_REACTORS
330
1F7D
102
}
330
1F7D
100
AcDbScale
 70
     0
300
1:2
140
1.0
141
2.0
290
     0
  0
SCALE
  5
1F80
102
{ACAD_REACTORS
330
1F7D
102
}
330
1F7D
100
AcDbScale
 70
     0
300
1:4
140
1.0
141
4.0
290
     0
  0
SCALE
  5
1F81
102
{ACAD_REACTORS
330
1F7D
102
}
330
1F7D
100
AcDbScale
 70
     0
300
1:5
140
1.0
141
5.0
290
     0
  0
SCALE
  5
1F82
102
{ACAD_REACTORS
330
1F7D
102
}
330
1F7D
100
AcDbScale
 70
     0
300
1:8
140
1.0
141
8.0
290
     0
  0
SCALE
  5
1F83
102
{ACAD_REACTORS
330
1F7D
102
}
330
1F7D
100
AcDbScale
 70
     0
300
1:10
140
1.0
141
10.0
290
     0
  0
SCALE
  5
1F84
102
{ACAD_REACTORS
330
1F7D
102
}
330
1F7D
100
AcDbScale
 70
     0
300
1:16
140
1.0
141
16.0
290
     0
  0
SCALE
  5
1F85
102
{ACAD_REACTORS
330
1F7D
102
}
330
1F7D
100
AcDbScale
 70
     0
300
1:20
140
1.0
141
20.0
290
     0
  0
SCALE
  5
1F86
102
{ACAD_REACTORS
330
1F7D
102
}
330
1F7D
100
AcDbScale
 70
     0
300
1:30
140
1.0
141
30.0
290
     0
  0
SCALE
  5
1F87
102
{ACAD_REACTORS
330
1F7D
102
}
330
1F7D
100
AcDbScale
 70
     0
300
1:40
140
1.0
141
40.0
290
     0
  0
SCALE
  5
1F88
102
{ACAD_REACTORS
330
1F7D
102
}
330
1F7D
100
AcDbScale
 70
     0
300
1:50
140
1.0
141
50.0
290
     0
  0
SCALE
  5
1F89
102
{ACAD_REACTORS
330
1F7D
102
}
330
1F7D
100
AcDbScale
 70
     0
300
1:100
140
1.0
141
100.0
290
     0
  0
SCALE
  5
1F8A
102
{ACAD_REACTORS
330
1F7D
102
}
330
1F7D
100
AcDbScale
 70
     0
300
2:1
140
2.0
141
1.0
290
     0
  0
SCALE
  5
1F8B
102
{ACAD_REACTORS
330
1F7D
102
}
330
1F7D
100
AcDbScale
 70
     0
300
4:1
140
4.0
141
1.0
290
     0
  0
SCALE
  5
1F8C
102
{ACAD_REACTORS
330
1F7D
102
}
330
1F7D
100
AcDbScale
 70
     0
300
8:1
140
8.0
141
1.0
290
     0
  0
SCALE
  5
1F8D
102
{ACAD_REACTORS
330
1F7D
102
}
330
1F7D
100
AcDbScale
 70
     0
300
10:1
140
10.0
141
1.0
290
     0
  0
SCALE
  5
1F8E
102
{ACAD_REACTORS
330
1F7D
102
}
330
1F7D
100
AcDbScale
 70
     0
300
100:1
140
100.0
141
1.0
290
     0
  0
SCALE
  5
1F8F
102
{ACAD_REACTORS
330
1F7D
102
}
330
1F7D
100
AcDbScale
 70
     0
300
1/128" = 1'-0"
140
0.0078125
141
12.0
290
     0
  0
SCALE
  5
1F90
102
{ACAD_REACTORS
330
1F7D
102
}
330
1F7D
100
AcDbScale
 70
     0
300
1/64" = 1'-0"
140
0.015625
141
12.0
290
     0
  0
SCALE
  5
1F91
102
{ACAD_REACTORS
330
1F7D
102
}
330
1F7D
100
AcDbScale
 70
     0
300
1/32" = 1'-0"
140
0.03125
141
12.0
290
     0
  0
SCALE
  5
1F92
102
{ACAD_REACTORS
330
1F7D
102
}
330
1F7D
100
AcDbScale
 70
     0
300
1/16" = 1'-0"
140
0.0625
141
12.0
290
     0
  0
SCALE
  5
1F93
102
{ACAD_REACTORS
330
1F7D
102
}
330
1F7D
100
AcDbScale
 70
     0
300
3/32" = 1'-0"
140
0.09375
141
12.0
290
     0
  0
SCALE
  5
1F94
102
{ACAD_REACTORS
330
1F7D
102
}
330
1F7D
100
AcDbScale
 70
     0
300
1/8" = 1'-0"
140
0.125
141
12.0
290
     0
  0
SCALE
  5
1F95
102
{ACAD_REACTORS
330
1F7D
102
}
330
1F7D
100
AcDbScale
 70
     0
300
3/16" = 1'-0"
140
0.1875
141
12.0
290
     0
  0
SCALE
  5
1F96
102
{ACAD_REACTORS
330
1F7D
102
}
330
1F7D
100
AcDbScale
 70
     0
300
1/4" = 1'-0"
140
0.25
141
12.0
290
     0
  0
SCALE
  5
1F97
102
{ACAD_REACTORS
330
1F7D
102
}
330
1F7D
100
AcDbScale
 70
     0
300
3/8" = 1'-0"
140
0.375
141
12.0
290
     0
  0
SCALE
  5
1F98
102
{ACAD_REACTORS
330
1F7D
102
}
330
1F7D
100
AcDbScale
 70
     0
300
1/2" = 1'-0"
140
0.5
141
12.0
290
     0
  0
SCALE
  5
1F99
102
{ACAD_REACTORS
330
1F7D
102
}
330
1F7D
100
AcDbScale
 70
     0
300
3/4" = 1'-0"
140
0.75
141
12.0
290
     0
  0
SCALE
  5
1F9A
102
{ACAD_REACTORS
330
1F7D
102
}
330
1F7D
100
AcDbScale
 70
     0
300
1" = 1'-0"
140
1.0
141
12.0
290
     0
  0
SCALE
  5
1F9B
102
{ACAD_REACTORS
330
1F7D
102
}
330
1F7D
100
AcDbScale
 70
     0
300
1-1/2" = 1'-0"
140
1.5
141
12.0
290
     0
  0
SCALE
  5
1F9C
102
{ACAD_REACTORS
330
1F7D
102
}
330
1F7D
100
AcDbScale
 70
     0
300
3" = 1'-0"
140
3.0
141
12.0
290
     0
  0
SCALE
  5
1F9D
102
{ACAD_REACTORS
330
1F7D
102
}
330
1F7D
100
AcDbScale
 70
     0
300
6" = 1'-0"
140
6.0
141
12.0
290
     0
  0
SCALE
  5
1F9E
102
{ACAD_REACTORS
330
1F7D
102
}
330
1F7D
100
AcDbScale
 70
     0
300
1'-0" = 1'-0"
140
12.0
141
12.0
290
     0
  0
TABLESTYLE
  5
1FA3
102
{ACAD_REACTORS
330
1FA2
102
}
102
{ACAD_XDICTIONARY
360
1FE9
102
}
330
1FA2
100
AcDbTableStyle
  3
Standard
 70
     0
 71
     0
 40
0.06
 41
0.06
280
     0
281
     0
  7
Standard
140
4.5
170
     2
 62
     0
 63
   257
283
     0
 90
        4
 91
        0
  1

274
    -2
284
     1
 64
     0
275
    -2
285
     1
 65
     0
276
    -2
286
     1
 66
     0
277
    -2
287
     1
 67
     0
278
    -2
288
     1
 68
     0
279
    -2
289
     1
 69
     0
  7
Standard
140
6.0
170
     5
 62
     0
 63
   257
283
     0
 90
        4
 91
        0
  1

274
    -2
284
     1
 64
     0
275
    -2
285
     1
 65
     0
276
    -2
286
     1
 66
     0
277
    -2
287
     1
 67
     0
278
    -2
288
     1
 68
     0
279
    -2
289
     1
 69
     0
  7
Standard
140
4.5
170
     5
 62
     0
 63
   257
283
     0
 90
        4
 91
        0
  1

274
    -2
284
     1
 64
     0
275
    -2
285
     1
 65
     0
276
    -2
286
     1
 66
     0
277
    -2
287
     1
 67
     0
278
    -2
288
     1
 68
     0
279
    -2
289
     1
 69
     0
  0
VISUALSTYLE
  5
1F69
102
{ACAD_REACTORS
330
1F64
102
}
330
1F64
100
AcDbVisualStyle
  2
2dWireframe
 70
     4
177
     3
291
     0
 70
    58
 90
        0
176
     1
 90
        2
176
     1
 90
        0
176
     1
 90
        0
176
     1
 40
0.6
176
     1
 40
30.0
176
     1
 62
     7
420
 16777215
176
     1
 90
        1
176
     1
 90
        4
176
     1
 62
     7
176
     1
 62
   257
176
     1
 90
        1
176
     1
 90
        1
176
     1
 40
1.0
176
     1
 90
        0
176
     1
 62
   257
176
     1
 40
1.0
176
     1
 90
        1
176
     1
 90
        6
176
     1
 90
        2
176
     1
 62
     7
176
     1
 90
        5
176
     1
 90
        0
176
     1
 90
        0
176
     1
290
     0
176
     1
 90
        1
176
     1
 40
0.0
176
     1
 90
        0
176
     1
290
     1
176
     1
290
     1
176
     1
290
     0
176
     1
290
     0
176
     1
290
     0
176
     1
290
     0
176
     1
290
     0
176
     1
290
     0
176
     1
290
     0
176
     1
 90
       50
176
     1
 40
0.0
176
     1
 40
1.0
176
     1
 90
        0
176
     1
 62
    18
420
        0
176
     1
 90
       50
176
     1
 90
        3
176
     1
 62
     5
420
      255
176
     1
290
     0
176
     1
 90
       50
176
     1
 90
       50
176
     1
 90
       50
176
     1
290
     0
176
     1
 90
       50
176
     1
 62
   256
176
     0
 40
1.0
176
     0
 90
        2
176
     1
  1
strokes_ogs.tif
176
     1
290
     0
176
     1
 40
1.0
176
     1
 40
1.0
176
     1
  0
VISUALSTYLE
  5
1F6C
102
{ACAD_REACTORS
330
1F64
102
}
330
1F64
100
AcDbVisualStyle
  2
Basic
 70
     7
177
     3
291
     1
 70
    58
 90
        1
176
     1
 90
        0
176
     1
 90
        1
176
     1
 90
        0
176
     1
 40
0.6
176
     1
 40
30.0
176
     1
 62
     7
420
 16777215
176
     1
 90
        0
176
     1
 90
        4
176
     1
 62
     7
176
     1
 62
   257
176
     1
 90
        1
176
     1
 90
        1
176
     1
 40
1.0
176
     1
 90
        8
176
     1
 62
     7
176
     1
 40
1.0
176
     1
 90
        1
176
     1
 90
        6
176
     1
 90
        2
176
     1
 62
     7
176
     1
 90
        5
176
     1
 90
        0
176
     1
 90
        0
176
     1
290
     0
176
     1
 90
        1
176
     1
 40
0.0
176
     1
 90
        0
176
     1
290
     0
176
     1
290
     1
176
     1
290
     1
176
     1
290
     0
176
     1
290
     0
176
     1
290
     0
176
     1
290
     0
176
     1
290
     0
176
     1
290
     0
176
     1
 90
       50
176
     1
 40
0.0
176
     1
 40
1.0
176
     1
 90
        0
176
     1
 62
    18
420
        0
176
     1
 90
       50
176
     1
 90
        3
176
     1
 62
     5
420
      255
176
     1
290
     0
176
     1
 90
       50
176
     1
 90
       50
176
     1
 90
       50
176
     1
290
     0
176
     1
 90
       50
176
     1
 62
   256
176
     0
 40
1.0
176
     0
 90
        2
176
     1
  1
strokes_ogs.tif
176
     1
290
     0
176
     1
 40
1.0
176
     1
 40
1.0
176
     1
  0
VISUALSTYLE
  5
1F70
102
{ACAD_REACTORS
330
1F64
102
}
330
1F64
100
AcDbVisualStyle
  2
Brighten
 70
    12
177
     3
291
     1
 70
    58
 90
        2
176
     1
 90
        2
176
     1
 90
        0
176
     1
 90
        0
176
     1
 40
0.6
176
     1
 40
30.0
176
     1
 62
     7
420
 16777215
176
     1
 90
        1
176
     1
 90
        4
176
     1
 62
     7
176
     1
 62
   257
176
     1
 90
        1
176
     1
 90
        1
176
     1
 40
1.0
176
     1
 90
        8
176
     1
 62
     7
176
     1
 40
1.0
176
     1
 90
        1
176
     1
 90
        6
176
     1
 90
        2
176
     1
 62
     7
176
     1
 90
        5
176
     1
 90
        0
176
     1
 90
        0
176
     1
290
     0
176
     1
 90
        1
176
     1
 40
50.0
176
     1
 90
        0
176
     1
290
     0
176
     1
290
     1
176
     1
290
     1
176
     1
290
     0
176
     1
290
     0
176
     1
290
     0
176
     1
290
     0
176
     1
290
     0
176
     1
290
     0
176
     1
 90
       50
176
     1
 40
0.0
176
     1
 40
1.0
176
     1
 90
        0
176
     1
 62
    18
420
        0
176
     1
 90
       50
176
     1
 90
        3
176
     1
 62
     5
420
      255
176
     1
290
     0
176
     1
 90
       50
176
     1
 90
       50
176
     1
 90
       50
176
     1
290
     0
176
     1
 90
       50
176
     1
 62
   256
176
     0
 40
1.0
176
     0
 90
        2
176
     1
  1
strokes_ogs.tif
176
     1
290
     0
176
     1
 40
1.0
176
     1
 40
1.0
176
     1
  0
VISUALSTYLE
  5
1F74
102
{ACAD_REACTORS
330
1F64
102
}
330
1F64
100
AcDbVisualStyle
  2
ColorChange
 70
    16
177
     3
291
     1
 70
    58
 90
        2
176
     1
 90
        2
176
     1
 90
        3
176
     1
 90
        0
176
     1
 40
0.6
176
     1
 40
30.0
176
     1
 62
     8
420
  8421504
176
     1
 90
        1
176
     1
 90
        4
176
     1
 62
     7
176
     1
 62
   257
176
     1
 90
        1
176
     1
 90
        1
176
     1
 40
1.0
176
     1
 90
        8
176
     1
 62
     8
420
  8421504
176
     1
 40
1.0
176
     1
 90
        1
176
     1
 90
        6
176
     1
 90
        2
176
     1
 62
     7
176
     1
 90
        5
176
     1
 90
        0
176
     1
 90
        0
176
     1
290
     0
176
     1
 90
        1
176
     1
 40
0.0
176
     1
 90
        0
176
     1
290
     0
176
     1
290
     1
176
     1
290
     1
176
     1
290
     0
176
     1
290
     0
176
     1
290
     0
176
     1
290
     0
176
     1
290
     0
176
     1
290
     0
176
     1
 90
       50
176
     1
 40
0.0
176
     1
 40
1.0
176
     1
 90
        0
176
     1
 62
    18
420
        0
176
     1
 90
       50
176
     1
 90
        3
176
     1
 62
     5
420
      255
176
     1
290
     0
176
     1
 90
       50
176
     1
 90
       50
176
     1
 90
       50
176
     1
290
     0
176
     1
 90
       50
176
     1
 62
   256
176
     0
 40
1.0
176
     0
 90
        2
176
     1
  1
strokes_ogs.tif
176
     1
290
     0
176
     1
 40
1.0
176
     1
 40
1.0
176
     1
  0
VISUALSTYLE
  5
1F6E
102
{ACAD_REACTORS
330
1F64
102
}
330
1F64
100
AcDbVisualStyle
  2
Conceptual
 70
     9
177
     3
291
     0
 70
    58
 90
        3
176
     1
 90
        2
176
     1
 90
        0
176
     1
 90
        0
176
     1
 40
0.6
176
     1
 40
30.0
176
     1
 62
     7
420
 16777215
176
     1
 90
        2
176
     1
 90
        2
176
     1
 62
     7
176
     1
 62
   257
176
     1
 90
        1
176
     1
 90
        1
176
     1
 40
179.0
176
     1
 90
        8
176
     1
 62
     7
176
     1
 40
1.0
176
     1
 90
        1
176
     1
 90
        6
176
     1
 90
        2
176
     1
 62
     7
176
     1
 90
        3
176
     1
 90
        0
176
     1
 90
        0
176
     1
290
     0
176
     1
 90
        1
176
     1
 40
0.0
176
     1
 90
        0
176
     1
290
     0
176
     1
290
     1
176
     1
290
     1
176
     1
290
     0
176
     1
290
     0
176
     1
290
     0
176
     1
290
     0
176
     1
290
     0
176
     1
290
     0
176
     1
 90
       50
176
     1
 40
0.0
176
     1
 40
1.0
176
     1
 90
        0
176
     1
 62
    18
420
        0
176
     1
 90
       50
176
     1
 90
        3
176
     1
 62
     5
420
      255
176
     1
290
     0
176
     1
 90
       50
176
     1
 90
       50
176
     1
 90
       50
176
     1
290
     0
176
     1
 90
       50
176
     1
 62
   256
176
     0
 40
1.0
176
     0
 90
        2
176
     1
  1
strokes_ogs.tif
176
     1
290
     0
176
     1
 40
1.0
176
     1
 40
1.0
176
     1
  0
VISUALSTYLE
  5
1F6F
102
{ACAD_REACTORS
330
1F64
102
}
330
1F64
100
AcDbVisualStyle
  2
Dim
 70
    11
177
     3
291
     1
 70
    58
 90
        2
176
     1
 90
        2
176
     1
 90
        0
176
     1
 90
        0
176
     1
 40
0.6
176
     1
 40
30.0
176
     1
 62
     7
420
 16777215
176
     1
 90
        1
176
     1
 90
        4
176
     1
 62
     7
176
     1
 62
   257
176
     1
 90
        1
176
     1
 90
        1
176
     1
 40
1.0
176
     1
 90
        8
176
     1
 62
     7
176
     1
 40
1.0
176
     1
 90
        1
176
     1
 90
        6
176
     1
 90
        2
176
     1
 62
     7
176
     1
 90
        5
176
     1
 90
        0
176
     1
 90
        0
176
     1
290
     0
176
     1
 90
        1
176
     1
 40
-50.0
176
     1
 90
        0
176
     1
290
     0
176
     1
290
     1
176
     1
290
     1
176
     1
290
     0
176
     1
290
     0
176
     1
290
     0
176
     1
290
     0
176
     1
290
     0
176
     1
290
     0
176
     1
 90
       50
176
     1
 40
0.0
176
     1
 40
1.0
176
     1
 90
        0
176
     1
 62
    18
420
        0
176
     1
 90
       50
176
     1
 90
        3
176
     1
 62
     5
420
      255
176
     1
290
     0
176
     1
 90
       50
176
     1
 90
       50
176
     1
 90
       50
176
     1
290
     0
176
     1
 90
       50
176
     1
 62
   256
176
     0
 40
1.0
176
     0
 90
        2
176
     1
  1
strokes_ogs.tif
176
     1
290
     0
176
     1
 40
1.0
176
     1
 40
1.0
176
     1
  0
VISUALSTYLE
  5
1F77
102
{ACAD_REACTORS
330
1F64
102
}
330
1F64
100
AcDbVisualStyle
  2
EdgeColorOff
 70
    22
177
     3
291
     1
 70
    58
 90
        2
176
     0
 90
        2
176
     0
 90
        0
176
     0
 90
        0
176
     0
 40
0.6
176
     0
 40
30.0
176
     0
 62
     7
420
 16777215
176
     0
 90
        1
176
     0
 90
        4
176
     0
 62
     7
176
     0
 62
   257
176
     0
 90
        1
176
     0
 90
        1
176
     0
 40
1.0
176
     0
 90
        8
176
     2
 62
     7
176
     0
 40
1.0
176
     0
 90
        1
176
     0
 90
        6
176
     0
 90
        2
176
     0
 62
     7
176
     0
 90
        5
176
     0
 90
        0
176
     0
 90
        0
176
     0
290
     0
176
     0
 90
        1
176
     0
 40
0.0
176
     0
 90
        0
176
     0
290
     0
176
     0
290
     1
176
     0
290
     1
176
     0
290
     0
176
     0
290
     0
176
     0
290
     0
176
     0
290
     0
176
     0
290
     0
176
     0
290
     0
176
     0
 90
       50
176
     0
 40
0.0
176
     0
 40
1.0
176
     0
 90
        0
176
     0
 62
    18
420
        0
176
     0
 90
       50
176
     0
 90
        3
176
     0
 62
     5
420
      255
176
     0
290
     0
176
     0
 90
       50
176
     0
 90
       50
176
     0
 90
       50
176
     0
290
     0
176
     0
 90
       50
176
     0
 62
   256
176
     0
 40
1.0
176
     0
 90
        2
176
     0
  1
strokes_ogs.tif
176
     0
290
     0
176
     0
 40
1.0
176
     0
 40
1.0
176
     0
  0
VISUALSTYLE
  5
1F73
102
{ACAD_REACTORS
330
1F64
102
}
330
1F64
100
AcDbVisualStyle
  2
Facepattern
 70
    15
177
     3
291
     1
 70
    58
 90
        2
176
     1
 90
        2
176
     1
 90
        0
176
     1
 90
        0
176
     1
 40
0.6
176
     1
 40
30.0
176
     1
 62
     7
420
 16777215
176
     1
 90
        1
176
     1
 90
        4
176
     1
 62
     7
176
     1
 62
   257
176
     1
 90
        1
176
     1
 90
        1
176
     1
 40
1.0
176
     1
 90
        8
176
     1
 62
     7
176
     1
 40
1.0
176
     1
 90
        1
176
     1
 90
        6
176
     1
 90
        2
176
     1
 62
     7
176
     1
 90
        5
176
     1
 90
        0
176
     1
 90
        0
176
     1
290
     0
176
     1
 90
        1
176
     1
 40
0.0
176
     1
 90
        0
176
     1
290
     0
176
     1
290
     1
176
     1
290
     1
176
     1
290
     0
176
     1
290
     0
176
     1
290
     0
176
     1
290
     0
176
     1
290
     0
176
     1
290
     0
176
     1
 90
       50
176
     1
 40
0.0
176
     1
 40
1.0
176
     1
 90
        0
176
     1
 62
    18
420
        0
176
     1
 90
       50
176
     1
 90
        3
176
     1
 62
     5
420
      255
176
     1
290
     0
176
     1
 90
       50
176
     1
 90
       50
176
     1
 90
       50
176
     1
290
     0
176
     1
 90
       50
176
     1
 62
   256
176
     0
 40
1.0
176
     0
 90
        2
176
     1
  1
strokes_ogs.tif
176
     1
290
     0
176
     1
 40
1.0
176
     1
 40
1.0
176
     1
  0
VISUALSTYLE
  5
1F65
102
{ACAD_REACTORS
330
1F64
102
}
330
1F64
100
AcDbVisualStyle
  2
Flat
 70
     0
177
     3
291
     1
 70
    58
 90
        2
176
     1
 90
        1
176
     1
 90
        1
176
     1
 90
        2
176
     1
 40
0.6
176
     1
 40
30.0
176
     1
 62
     7
420
 16777215
176
     1
 90
        0
176
     1
 90
        0
176
     1
 62
     7
176
     1
 62
   257
176
     1
 90
        1
176
     1
 90
        1
176
     1
 40
1.0
176
     1
 90
        8
176
     1
 62
     7
176
     1
 40
1.0
176
     1
 90
        1
176
     1
 90
        6
176
     1
 90
        2
176
     1
 62
     7
176
     1
 90
        5
176
     1
 90
        0
176
     1
 90
        0
176
     1
290
     0
176
     1
 90
       13
176
     1
 40
0.0
176
     1
 90
        0
176
     1
290
     0
176
     1
290
     1
176
     1
290
     1
176
     1
290
     0
176
     1
290
     0
176
     1
290
     0
176
     1
290
     0
176
     1
290
     0
176
     1
290
     0
176
     1
 90
       50
176
     1
 40
0.0
176
     1
 40
1.0
176
     1
 90
        0
176
     1
 62
    18
420
        0
176
     1
 90
       50
176
     1
 90
        3
176
     1
 62
     5
420
      255
176
     1
290
     0
176
     1
 90
       50
176
     1
 90
       50
176
     1
 90
       50
176
     1
290
     0
176
     1
 90
       50
176
     1
 62
   256
176
     0
 40
1.0
176
     0
 90
        2
176
     1
  1
strokes_ogs.tif
176
     1
290
     0
176
     1
 40
1.0
176
     1
 40
1.0
176
     1
  0
VISUALSTYLE
  5
1F66
102
{ACAD_REACTORS
330
1F64
102
}
330
1F64
100
AcDbVisualStyle
  2
FlatWithEdges
 70
     1
177
     3
291
     1
 70
    58
 90
        2
176
     1
 90
        1
176
     1
 90
        1
176
     1
 90
        2
176
     1
 40
0.6
176
     1
 40
30.0
176
     1
 62
     7
420
 16777215
176
     1
 90
        1
176
     1
 90
        0
176
     1
 62
     7
176
     1
 62
   257
176
     1
 90
        1
176
     1
 90
        1
176
     1
 40
1.0
176
     1
 90
        0
176
     1
 62
   257
176
     1
 40
1.0
176
     1
 90
        1
176
     1
 90
        6
176
     1
 90
        2
176
     1
 62
     7
176
     1
 90
        5
176
     1
 90
        0
176
     1
 90
        0
176
     1
290
     0
176
     1
 90
       13
176
     1
 40
0.0
176
     1
 90
        0
176
     1
290
     0
176
     1
290
     1
176
     1
290
     1
176
     1
290
     0
176
     1
290
     0
176
     1
290
     0
176
     1
290
     0
176
     1
290
     0
176
     1
290
     0
176
     1
 90
       50
176
     1
 40
0.0
176
     1
 40
1.0
176
     1
 90
        0
176
     1
 62
    18
420
        0
176
     1
 90
       50
176
     1
 90
        3
176
     1
 62
     5
420
      255
176
     1
290
     0
176
     1
 90
       50
176
     1
 90
       50
176
     1
 90
       50
176
     1
290
     0
176
     1
 90
       50
176
     1
 62
   256
176
     0
 40
1.0
176
     0
 90
        2
176
     1
  1
strokes_ogs.tif
176
     1
290
     0
176
     1
 40
1.0
176
     1
 40
1.0
176
     1
  0
VISUALSTYLE
  5
1F67
102
{ACAD_REACTORS
330
1F64
102
}
330
1F64
100
AcDbVisualStyle
  2
Gouraud
 70
     2
177
     3
291
     1
 70
    58
 90
        2
176
     1
 90
        2
176
     1
 90
        1
176
     1
 90
        2
176
     1
 40
0.6
176
     1
 40
30.0
176
     1
 62
     7
420
 16777215
176
     1
 90
        0
176
     1
 90
        0
176
     1
 62
     7
176
     1
 62
   257
176
     1
 90
        1
176
     1
 90
        1
176
     1
 40
1.0
176
     1
 90
        0
176
     1
 62
     7
176
     1
 40
1.0
176
     1
 90
        1
176
     1
 90
        6
176
     1
 90
        2
176
     1
 62
     7
176
     1
 90
        5
176
     1
 90
        0
176
     1
 90
        0
176
     1
290
     0
176
     1
 90
       13
176
     1
 40
0.0
176
     1
 90
        0
176
     1
290
     0
176
     1
290
     1
176
     1
290
     1
176
     1
290
     0
176
     1
290
     0
176
     1
290
     0
176
     1
290
     0
176
     1
290
     0
176
     1
290
     0
176
     1
 90
       50
176
     1
 40
0.0
176
     1
 40
1.0
176
     1
 90
        0
176
     1
 62
    18
420
        0
176
     1
 90
       50
176
     1
 90
        3
176
     1
 62
     5
420
      255
176
     1
290
     0
176
     1
 90
       50
176
     1
 90
       50
176
     1
 90
       50
176
     1
290
     0
176
     1
 90
       50
176
     1
 62
   256
176
     0
 40
1.0
176
     0
 90
        2
176
     1
  1
strokes_ogs.tif
176
     1
290
     0
176
     1
 40
1.0
176
     1
 40
1.0
176
     1
  0
VISUALSTYLE
  5
1F68
102
{ACAD_REACTORS
330
1F64
102
}
330
1F64
100
AcDbVisualStyle
  2
GouraudWithEdges
 70
     3
177
     3
291
     1
 70
    58
 90
        2
176
     1
 90
        2
176
     1
 90
        1
176
     1
 90
        2
176
     1
 40
0.6
176
     1
 40
30.0
176
     1
 62
     7
420
 16777215
176
     1
 90
        1
176
     1
 90
        0
176
     1
 62
     7
176
     1
 62
   257
176
     1
 90
        1
176
     1
 90
        1
176
     1
 40
1.0
176
     1
 90
        0
176
     1
 62
   257
176
     1
 40
1.0
176
     1
 90
        1
176
     1
 90
        6
176
     1
 90
        2
176
     1
 62
     7
176
     1
 90
        5
176
     1
 90
        0
176
     1
 90
        0
176
     1
290
     0
176
     1
 90
       13
176
     1
 40
0.0
176
     1
 90
        0
176
     1
290
     0
176
     1
290
     1
176
     1
290
     1
176
     1
290
     0
176
     1
290
     0
176
     1
290
     0
176
     1
290
     0
176
     1
290
     0
176
     1
290
     0
176
     1
 90
       50
176
     1
 40
0.0
176
     1
 40
1.0
176
     1
 90
        0
176
     1
 62
    18
420
        0
176
     1
 90
       50
176
     1
 90
        3
176
     1
 62
     5
420
      255
176
     1
290
     0
176
     1
 90
       50
176
     1
 90
       50
176
     1
 90
       50
176
     1
290
     0
176
     1
 90
       50
176
     1
 62
   256
176
     0
 40
1.0
176
     0
 90
        2
176
     1
  1
strokes_ogs.tif
176
     1
290
     0
176
     1
 40
1.0
176
     1
 40
1.0
176
     1
  0
VISUALSTYLE
  5
1F6B
102
{ACAD_REACTORS
330
1F64
102
}
330
1F64
100
AcDbVisualStyle
  2
Hidden
 70
     6
177
     3
291
     0
 70
    58
 90
        1
176
     1
 90
        2
176
     1
 90
        2
176
     1
 90
        0
176
     1
 40
0.6
176
     1
 40
30.0
176
     1
 62
     7
420
 16777215
176
     1
 90
        2
176
     1
 90
        2
176
     1
 62
     7
176
     1
 62
   257
176
     1
 90
        2
176
     1
 90
        1
176
     1
 40
40.0
176
     1
 90
        0
176
     1
 62
   257
176
     1
 40
1.0
176
     1
 90
        1
176
     1
 90
        6
176
     1
 90
        2
176
     1
 62
     7
176
     1
 90
        3
176
     1
 90
        0
176
     1
 90
        0
176
     1
290
     0
176
     1
 90
        1
176
     1
 40
0.0
176
     1
 90
        0
176
     1
290
     0
176
     1
290
     1
176
     1
290
     1
176
     1
290
     0
176
     1
290
     0
176
     1
290
     0
176
     1
290
     0
176
     1
290
     0
176
     1
290
     0
176
     1
 90
       50
176
     1
 40
0.0
176
     1
 40
1.0
176
     1
 90
        0
176
     1
 62
    18
420
        0
176
     1
 90
       50
176
     1
 90
        3
176
     1
 62
     5
420
      255
176
     1
290
     0
176
     1
 90
       50
176
     1
 90
       50
176
     1
 90
       50
176
     1
290
     0
176
     1
 90
       50
176
     1
 62
   256
176
     0
 40
1.0
176
     0
 90
        2
176
     1
  1
strokes_ogs.tif
176
     1
290
     0
176
     1
 40
1.0
176
     1
 40
1.0
176
     1
  0
VISUALSTYLE
  5
1F75
102
{ACAD_REACTORS
330
1F64
102
}
330
1F64
100
AcDbVisualStyle
  2
JitterOff
 70
    20
177
     3
291
     1
 70
    58
 90
        2
176
     0
 90
        2
176
     0
 90
        0
176
     0
 90
        0
176
     0
 40
0.6
176
     0
 40
30.0
176
     0
 62
     7
420
 16777215
176
     0
 90
        1
176
     0
 90
        4
176
     0
 62
     7
176
     0
 62
   257
176
     0
 90
        1
176
     0
 90
        1
176
     0
 40
1.0
176
     0
 90
       10
176
     2
 62
     7
176
     0
 40
1.0
176
     0
 90
        1
176
     0
 90
        6
176
     0
 90
        2
176
     0
 62
     7
176
     0
 90
        5
176
     0
 90
        0
176
     0
 90
        0
176
     0
290
     0
176
     0
 90
        1
176
     0
 40
0.0
176
     0
 90
        0
176
     0
290
     0
176
     0
290
     1
176
     0
290
     1
176
     0
290
     0
176
     0
290
     0
176
     0
290
     0
176
     0
290
     0
176
     0
290
     0
176
     0
290
     0
176
     0
 90
       50
176
     0
 40
0.0
176
     0
 40
1.0
176
     0
 90
        0
176
     0
 62
    18
420
        0
176
     0
 90
       50
176
     0
 90
        3
176
     0
 62
     5
420
      255
176
     0
290
     0
176
     0
 90
       50
176
     0
 90
       50
176
     0
 90
       50
176
     0
290
     0
176
     0
 90
       50
176
     0
 62
   256
176
     0
 40
1.0
176
     0
 90
        2
176
     0
  1
strokes_ogs.tif
176
     0
290
     0
176
     0
 40
1.0
176
     0
 40
1.0
176
     0
  0
VISUALSTYLE
  5
1F72
102
{ACAD_REACTORS
330
1F64
102
}
330
1F64
100
AcDbVisualStyle
  2
Linepattern
 70
    14
177
     3
291
     1
 70
    58
 90
        2
176
     1
 90
        2
176
     1
 90
        0
176
     1
 90
        0
176
     1
 40
0.6
176
     1
 40
30.0
176
     1
 62
     7
420
 16777215
176
     1
 90
        1
176
     1
 90
        4
176
     1
 62
     7
176
     1
 62
   257
176
     1
 90
        7
176
     1
 90
        7
176
     1
 40
1.0
176
     1
 90
        8
176
     1
 62
     7
176
     1
 40
1.0
176
     1
 90
        1
176
     1
 90
        6
176
     1
 90
        2
176
     1
 62
     7
176
     1
 90
        5
176
     1
 90
        0
176
     1
 90
        0
176
     1
290
     0
176
     1
 90
        1
176
     1
 40
0.0
176
     1
 90
        0
176
     1
290
     0
176
     1
290
     1
176
     1
290
     1
176
     1
290
     0
176
     1
290
     0
176
     1
290
     0
176
     1
290
     0
176
     1
290
     0
176
     1
290
     0
176
     1
 90
       50
176
     1
 40
0.0
176
     1
 40
1.0
176
     1
 90
        0
176
     1
 62
    18
420
        0
176
     1
 90
       50
176
     1
 90
        3
176
     1
 62
     5
420
      255
176
     1
290
     0
176
     1
 90
       50
176
     1
 90
       50
176
     1
 90
       50
176
     1
290
     0
176
     1
 90
       50
176
     1
 62
   256
176
     0
 40
1.0
176
     0
 90
        2
176
     1
  1
strokes_ogs.tif
176
     1
290
     0
176
     1
 40
1.0
176
     1
 40
1.0
176
     1
  0
VISUALSTYLE
  5
1F76
102
{ACAD_REACTORS
330
1F64
102
}
330
1F64
100
AcDbVisualStyle
  2
OverhangOff
 70
    21
177
     3
291
     1
 70
    58
 90
        2
176
     0
 90
        2
176
     0
 90
        0
176
     0
 90
        0
176
     0
 40
0.6
176
     0
 40
30.0
176
     0
 62
     7
420
 16777215
176
     0
 90
        1
176
     0
 90
        4
176
     0
 62
     7
176
     0
 62
   257
176
     0
 90
        1
176
     0
 90
        1
176
     0
 40
1.0
176
     0
 90
        9
176
     2
 62
     7
176
     0
 40
1.0
176
     0
 90
        1
176
     0
 90
        6
176
     0
 90
        2
176
     0
 62
     7
176
     0
 90
        5
176
     0
 90
        0
176
     0
 90
        0
176
     0
290
     0
176
     0
 90
        1
176
     0
 40
0.0
176
     0
 90
        0
176
     0
290
     0
176
     0
290
     1
176
     0
290
     1
176
     0
290
     0
176
     0
290
     0
176
     0
290
     0
176
     0
290
     0
176
     0
290
     0
176
     0
290
     0
176
     0
 90
       50
176
     0
 40
0.0
176
     0
 40
1.0
176
     0
 90
        0
176
     0
 62
    18
420
        0
176
     0
 90
       50
176
     0
 90
        3
176
     0
 62
     5
420
      255
176
     0
290
     0
176
     0
 90
       50
176
     0
 90
       50
176
     0
 90
       50
176
     0
290
     0
176
     0
 90
       50
176
     0
 62
   256
176
     0
 40
1.0
176
     0
 90
        2
176
     0
  1
strokes_ogs.tif
176
     0
290
     0
176
     0
 40
1.0
176
     0
 40
1.0
176
     0
  0
VISUALSTYLE
  5
1F6D
102
{ACAD_REACTORS
330
1F64
102
}
330
1F64
100
AcDbVisualStyle
  2
Realistic
 70
     8
177
     3
291
     0
 70
    58
 90
        2
176
     1
 90
        3
176
     1
 90
        0
176
     1
 90
        2
176
     1
 40
0.6
176
     1
 40
30.0
176
     1
 62
     7
420
 16777215
176
     1
 90
        0
176
     1
 90
        0
176
     1
 62
     7
176
     1
 62
   257
176
     1
 90
        1
176
     1
 90
        1
176
     1
 40
1.0
176
     1
 90
        8
176
     1
 62
   257
176
     1
 40
1.0
176
     1
 90
        1
176
     1
 90
        6
176
     1
 90
        2
176
     1
 62
     7
176
     1
 90
        3
176
     1
 90
        0
176
     1
 90
        0
176
     1
290
     0
176
     1
 90
       13
176
     1
 40
0.0
176
     1
 90
        0
176
     1
290
     0
176
     1
290
     1
176
     1
290
     1
176
     1
290
     0
176
     1
290
     0
176
     1
290
     0
176
     1
290
     0
176
     1
290
     0
176
     1
290
     0
176
     1
 90
       50
176
     1
 40
0.0
176
     1
 40
1.0
176
     1
 90
        0
176
     1
 62
    18
420
        0
176
     1
 90
       50
176
     1
 90
        3
176
     1
 62
     5
420
      255
176
     1
290
     0
176
     1
 90
       50
176
     1
 90
       50
176
     1
 90
       50
176
     1
290
     0
176
     1
 90
       50
176
     1
 62
   256
176
     0
 40
1.0
176
     0
 90
        2
176
     1
  1
strokes_ogs.tif
176
     1
290
     0
176
     1
 40
1.0
176
     1
 40
1.0
176
     1
  0
VISUALSTYLE
  5
1F7C
102
{ACAD_REACTORS
330
1F64
102
}
330
1F64
100
AcDbVisualStyle
  2
Shaded
 70
    27
177
     3
291
     0
 70
    58
 90
        2
176
     1
 90
        2
176
     1
 90
        1
176
     1
 90
        2
176
     1
 40
0.6
176
     1
 40
30.0
176
     1
 62
     7
420
 16777215
176
     1
 90
        0
176
     1
 90
        4
176
     1
 62
     7
176
     1
 62
   257
176
     1
 90
        1
176
     1
 90
        1
176
     1
 40
1.0
176
     1
 90
        8
176
     1
 62
   257
176
     1
 40
1.0
176
     1
 90
        1
176
     1
 90
        6
176
     1
 90
        2
176
     1
 62
     8
420
  7895160
176
     1
 90
        3
176
     1
 90
        0
176
     1
 90
        0
176
     1
290
     0
176
     1
 90
        5
176
     1
 40
0.0
176
     1
 90
        0
176
     1
290
     0
176
     1
290
     1
176
     1
290
     1
176
     1
290
     0
176
     1
290
     0
176
     1
290
     0
176
     1
290
     0
176
     1
290
     0
176
     1
290
     0
176
     1
 90
       50
176
     1
 40
0.0
176
     1
 40
1.0
176
     1
 90
        0
176
     1
 62
    18
420
        0
176
     1
 90
       50
176
     1
 90
        3
176
     1
 62
     5
420
      255
176
     1
290
     0
176
     1
 90
       50
176
     1
 90
       50
176
     1
 90
       50
176
     1
290
     0
176
     1
 90
       50
176
     1
 62
   256
176
     0
 40
1.0
176
     0
 90
        2
176
     1
  1
strokes_ogs.tif
176
     1
290
     0
176
     1
 40
1.0
176
     1
 40
1.0
176
     1
  0
VISUALSTYLE
  5
1F7B
102
{ACAD_REACTORS
330
1F64
102
}
330
1F64
100
AcDbVisualStyle
  2
Shaded with edges
 70
    26
177
     3
291
     0
 70
    58
 90
        2
176
     1
 90
        2
176
     1
 90
        1
176
     1
 90
        2
176
     1
 40
0.6
176
     1
 40
30.0
176
     1
 62
     7
420
 16777215
176
     1
 90
        1
176
     1
 90
       10
176
     1
 62
     7
176
     1
 62
   257
176
     1
 90
        2
176
     1
 90
        1
176
     1
 40
1.0
176
     1
 90
        8
176
     1
 62
   257
176
     1
 40
1.0
176
     1
 90
        1
176
     1
 90
        6
176
     1
 90
        2
176
     1
 62
     7
176
     1
 90
        3
176
     1
 90
        0
176
     1
 90
        0
176
     1
290
     0
176
     1
 90
        5
176
     1
 40
0.0
176
     1
 90
        0
176
     1
290
     0
176
     1
290
     1
176
     1
290
     1
176
     1
290
     0
176
     1
290
     0
176
     1
290
     0
176
     1
290
     0
176
     1
290
     0
176
     1
290
     0
176
     1
 90
       50
176
     1
 40
0.0
176
     1
 40
1.0
176
     1
 90
        0
176
     1
 62
    18
420
        0
176
     1
 90
       50
176
     1
 90
        3
176
     1
 62
     5
420
      255
176
     1
290
     0
176
     1
 90
       50
176
     1
 90
       50
176
     1
 90
       50
176
     1
290
     0
176
     1
 90
       50
176
     1
 62
   256
176
     0
 40
1.0
176
     0
 90
        2
176
     1
  1
strokes_ogs.tif
176
     1
290
     0
176
     1
 40
1.0
176
     1
 40
1.0
176
     1
  0
VISUALSTYLE
  5
1F78
102
{ACAD_REACTORS
330
1F64
102
}
330
1F64
100
AcDbVisualStyle
  2
Shades of Gray
 70
    23
177
     3
291
     0
 70
    58
 90
        2
176
     1
 90
        2
176
     1
 90
        3
176
     1
 90
        0
176
     1
 40
0.6
176
     1
 40
30.0
176
     1
 62
     7
420
 16777215
176
     1
 90
        2
176
     1
 90
        2
176
     1
 62
     7
176
     1
 62
     7
176
     1
 90
        1
176
     1
 90
        1
176
     1
 40
40.0
176
     1
 90
        8
176
     1
 62
     7
176
     1
 40
1.0
176
     1
 90
        1
176
     1
 90
        6
176
     1
 90
        2
176
     1
 62
     7
176
     1
 90
        3
176
     1
 90
        0
176
     1
 90
        0
176
     1
290
     0
176
     1
 90
        1
176
     1
 40
0.0
176
     1
 90
        0
176
     1
290
     0
176
     1
290
     1
176
     1
290
     1
176
     1
290
     0
176
     1
290
     0
176
     1
290
     0
176
     1
290
     0
176
     1
290
     0
176
     1
290
     0
176
     1
 90
       50
176
     1
 40
0.0
176
     1
 40
1.0
176
     1
 90
        0
176
     1
 62
    18
420
        0
176
     1
 90
       50
176
     1
 90
        3
176
     1
 62
     5
420
      255
176
     1
290
     0
176
     1
 90
       50
176
     1
 90
       50
176
     1
 90
       50
176
     1
290
     0
176
     1
 90
       50
176
     1
 62
   256
176
     0
 40
1.0
176
     0
 90
        2
176
     1
  1
strokes_ogs.tif
176
     1
290
     0
176
     1
 40
1.0
176
     1
 40
1.0
176
     1
  0
VISUALSTYLE
  5
1F79
102
{ACAD_REACTORS
330
1F64
102
}
330
1F64
100
AcDbVisualStyle
  2
Sketchy
 70
    24
177
     3
291
     0
 70
    58
 90
        1
176
     1
 90
        2
176
     1
 90
        2
176
     1
 90
        0
176
     1
 40
0.6
176
     1
 40
30.0
176
     1
 62
     7
420
 16777215
176
     1
 90
        2
176
     1
 90
        2
176
     1
 62
     7
176
     1
 62
     7
176
     1
 90
        1
176
     1
 90
        1
176
     1
 40
40.0
176
     1
 90
       11
176
     1
 62
     7
176
     1
 40
1.0
176
     1
 90
        1
176
     1
 90
        6
176
     1
 90
        2
176
     1
 62
     7
176
     1
 90
        6
176
     1
 90
        0
176
     1
 90
        0
176
     1
290
     0
176
     1
 90
        1
176
     1
 40
0.0
176
     1
 90
        0
176
     1
290
     0
176
     1
290
     1
176
     1
290
     1
176
     1
290
     0
176
     1
290
     0
176
     1
290
     0
176
     1
290
     0
176
     1
290
     0
176
     1
290
     0
176
     1
 90
       50
176
     1
 40
0.0
176
     1
 40
1.0
176
     1
 90
        0
176
     1
 62
    18
420
        0
176
     1
 90
       50
176
     1
 90
        3
176
     1
 62
     5
420
      255
176
     1
290
     0
176
     1
 90
       50
176
     1
 90
       50
176
     1
 90
       50
176
     1
290
     0
176
     1
 90
       50
176
     1
 62
   256
176
     0
 40
1.0
176
     0
 90
        2
176
     1
  1
strokes_ogs.tif
176
     1
290
     0
176
     1
 40
1.0
176
     1
 40
1.0
176
     1
  0
VISUALSTYLE
  5
1F71
102
{ACAD_REACTORS
330
1F64
102
}
330
1F64
100
AcDbVisualStyle
  2
Thicken
 70
    13
177
     3
291
     1
 70
    58
 90
        2
176
     1
 90
        2
176
     1
 90
        0
176
     1
 90
        0
176
     1
 40
0.6
176
     1
 40
30.0
176
     1
 62
     7
420
 16777215
176
     1
 90
        1
176
     1
 90
        4
176
     1
 62
     7
176
     1
 62
   257
176
     1
 90
        1
176
     1
 90
        1
176
     1
 40
1.0
176
     1
 90
       12
176
     1
 62
     7
176
     1
 40
1.0
176
     1
 90
        1
176
     1
 90
        6
176
     1
 90
        2
176
     1
 62
     7
176
     1
 90
        5
176
     1
 90
        0
176
     1
 90
        0
176
     1
290
     0
176
     1
 90
        1
176
     1
 40
0.0
176
     1
 90
        0
176
     1
290
     0
176
     1
290
     1
176
     1
290
     1
176
     1
290
     0
176
     1
290
     0
176
     1
290
     0
176
     1
290
     0
176
     1
290
     0
176
     1
290
     0
176
     1
 90
       50
176
     1
 40
0.0
176
     1
 40
1.0
176
     1
 90
        0
176
     1
 62
    18
420
        0
176
     1
 90
       50
176
     1
 90
        3
176
     1
 62
     5
420
      255
176
     1
290
     0
176
     1
 90
       50
176
     1
 90
       50
176
     1
 90
       50
176
     1
290
     0
176
     1
 90
       50
176
     1
 62
   256
176
     0
 40
1.0
176
     0
 90
        2
176
     1
  1
strokes_ogs.tif
176
     1
290
     0
176
     1
 40
1.0
176
     1
 40
1.0
176
     1
  0
VISUALSTYLE
  5
1F6A
102
{ACAD_REACTORS
330
1F64
102
}
330
1F64
100
AcDbVisualStyle
  2
Wireframe
 70
     5
177
     3
291
     0
 70
    58
 90
        0
176
     1
 90
        2
176
     1
 90
        0
176
     1
 90
        0
176
     1
 40
0.6
176
     1
 40
30.0
176
     1
 62
     7
420
 16777215
176
     1
 90
        1
176
     1
 90
        4
176
     1
 62
     7
176
     1
 62
   257
176
     1
 90
        1
176
     1
 90
        1
176
     1
 40
1.0
176
     1
 90
        0
176
     1
 62
   257
176
     1
 40
1.0
176
     1
 90
        1
176
     1
 90
        6
176
     1
 90
        2
176
     1
 62
     7
176
     1
 90
        3
176
     1
 90
        0
176
     1
 90
        0
176
     1
290
     0
176
     1
 90
        1
176
     1
 40
0.0
176
     1
 90
        0
176
     1
290
     0
176
     1
290
     1
176
     1
290
     1
176
     1
290
     0
176
     1
290
     0
176
     1
290
     0
176
     1
290
     0
176
     1
290
     0
176
     1
290
     0
176
     1
 90
       50
176
     1
 40
0.0
176
     1
 40
1.0
176
     1
 90
        0
176
     1
 62
    18
420
        0
176
     1
 90
       50
176
     1
 90
        3
176
     1
 62
     5
420
      255
176
     1
290
     0
176
     1
 90
       50
176
     1
 90
       50
176
     1
 90
       50
176
     1
290
     0
176
     1
 90
       50
176
     1
 62
   256
176
     0
 40
1.0
176
     0
 90
        2
176
     1
  1
strokes_ogs.tif
176
     1
290
     0
176
     1
 40
1.0
176
     1
 40
1.0
176
     1
  0
VISUALSTYLE
  5
1F7A
102
{ACAD_REACTORS
330
1F64
102
}
330
1F64
100
AcDbVisualStyle
  2
X-Ray
 70
    25
177
     3
291
     0
 70
    58
 90
        2
176
     1
 90
        2
176
     1
 90
        1
176
     1
 90
        1
176
     1
 40
0.5
176
     1
 40
30.0
176
     1
 62
     7
420
 16777215
176
     1
 90
        1
176
     1
 90
        0
176
     1
 62
     7
176
     1
 62
   257
176
     1
 90
        1
176
     1
 90
        1
176
     1
 40
1.0
176
     1
 90
        8
176
     1
 62
     7
176
     1
 40
1.0
176
     1
 90
        1
176
     1
 90
        6
176
     1
 90
        2
176
     1
 62
     7
176
     1
 90
        3
176
     1
 90
        0
176
     1
 90
        0
176
     1
290
     0
176
     1
 90
       13
176
     1
 40
0.0
176
     1
 90
        0
176
     1
290
     0
176
     1
290
     1
176
     1
290
     1
176
     1
290
     0
176
     1
290
     0
176
     1
290
     0
176
     1
290
     0
176
     1
290
     0
176
     1
290
     0
176
     1
 90
       50
176
     1
 40
0.0
176
     1
 40
1.0
176
     1
 90
        0
176
     1
 62
    18
420
        0
176
     1
 90
       50
176
     1
 90
        3
176
     1
 62
     5
420
      255
176
     1
290
     0
176
     1
 90
       50
176
     1
 90
       50
176
     1
 90
       50
176
     1
290
     0
176
     1
 90
       50
176
     1
 62
   256
176
     0
 40
1.0
176
     0
 90
        2
176
     1
  1
strokes_ogs.tif
176
     1
290
     0
176
     1
 40
1.0
176
     1
 40
1.0
176
     1
  0
DICTIONARYVAR
  5
1FAF
102
{ACAD_REACTORS
330
13CA
102
}
330
13CA
100
DictionaryVariables
280
     0
  1
1:1
  0
DICTIONARYVAR
  5
1FB3
102
{ACAD_REACTORS
330
13CA
102
}
330
13CA
100
DictionaryVariables
280
     0
  1
Standard
  0
DICTIONARYVAR
  5
13CC
102
{ACAD_REACTORS
330
13CA
102
}
330
13CA
100
DictionaryVariables
280
     0
  1
2
  0
DICTIONARYVAR
  5
13CB
102
{ACAD_REACTORS
330
13CA
102
}
330
13CA
100
DictionaryVariables
280
     0
  1
1
  0
DICTIONARYVAR
  5
1FB5
102
{ACAD_REACTORS
330
13CA
102
}
330
13CA
100
DictionaryVariables
280
     0
  1
0
  0
DICTIONARYVAR
  5
13CD
102
{ACAD_REACTORS
330
13CA
102
}
330
13CA
100
DictionaryVariables
280
     0
  1

  0
DICTIONARY
  5
1FE9
330
1FA3
100
AcDbDictionary
280
     1
281
     1
  3
ACAD_ROUNDTRIP_2008_TABLESTYLE_CELLSTYLEMAP
360
1FEA
  0
CELLSTYLEMAP
  5
1FEA
102
{ACAD_REACTORS
330
1FE9
102
}
330
1FE9
100
AcDbCellStyleMap
 90
        3
300
CELLSTYLE
  1
TABLEFORMAT_BEGIN
 90
        5
170
     1
 91
        0
 92
        0
 62
   257
 93
        1
300
CONTENTFORMAT
  1
CONTENTFORMAT_BEGIN
 90
        0
 91
        0
 92
        4
 93
        0
300

 40
0.0
140
1.0
 94
        5
 62
     0
340
11
144
6.0
309
CONTENTFORMAT_END
171
     1
301
MARGIN
  1
CELLMARGIN_BEGIN
 40
1.5
 40
1.5
 40
1.5
 40
1.5
 40
1.5
 40
1.5
309
CELLMARGIN_END
 94
        6
 95
        1
302
GRIDFORMAT
  1
GRIDFORMAT_BEGIN
 90
        0
 91
        1
 62
     0
 92
       -2
340
14
 93
        0
 40
0.045
309
GRIDFORMAT_END
 95
        2
302
GRIDFORMAT
  1
GRIDFORMAT_BEGIN
 90
        0
 91
        1
 62
     0
 92
       -2
340
14
 93
        0
 40
0.045
309
GRIDFORMAT_END
 95
        4
302
GRIDFORMAT
  1
GRIDFORMAT_BEGIN
 90
        0
 91
        1
 62
     0
 92
       -2
340
14
 93
        0
 40
0.045
309
GRIDFORMAT_END
 95
        8
302
GRIDFORMAT
  1
GRIDFORMAT_BEGIN
 90
        0
 91
        1
 62
     0
 92
       -2
340
14
 93
        0
 40
0.045
309
GRIDFORMAT_END
 95
       16
302
GRIDFORMAT
  1
GRIDFORMAT_BEGIN
 90
        0
 91
        1
 62
     0
 92
       -2
340
14
 93
        0
 40
0.045
309
GRIDFORMAT_END
 95
       32
302
GRIDFORMAT
  1
GRIDFORMAT_BEGIN
 90
        0
 91
        1
 62
     0
 92
       -2
340
14
 93
        0
 40
0.045
309
GRIDFORMAT_END
309
TABLEFORMAT_END
  1
CELLSTYLE_BEGIN
 90
        1
 91
        1
300
_TITLE
309
CELLSTYLE_END
300
CELLSTYLE
  1
TABLEFORMAT_BEGIN
 90
        5
170
     1
 91
        0
 92
        0
 62
   257
 93
        1
300
CONTENTFORMAT
  1
CONTENTFORMAT_BEGIN
 90
        0
 91
        0
 92
        4
 93
        0
300

 40
0.0
140
1.0
 94
        5
 62
     0
340
11
144
4.5
309
CONTENTFORMAT_END
171
     1
301
MARGIN
  1
CELLMARGIN_BEGIN
 40
1.5
 40
1.5
 40
1.5
 40
1.5
 40
1.5
 40
1.5
309
CELLMARGIN_END
 94
        6
 95
        1
302
GRIDFORMAT
  1
GRIDFORMAT_BEGIN
 90
        0
 91
        1
 62
     0
 92
       -2
340
14
 93
        0
 40
0.045
309
GRIDFORMAT_END
 95
        2
302
GRIDFORMAT
  1
GRIDFORMAT_BEGIN
 90
        0
 91
        1
 62
     0
 92
       -2
340
14
 93
        0
 40
0.045
309
GRIDFORMAT_END
 95
        4
302
GRIDFORMAT
  1
GRIDFORMAT_BEGIN
 90
        0
 91
        1
 62
     0
 92
       -2
340
14
 93
        0
 40
0.045
309
GRIDFORMAT_END
 95
        8
302
GRIDFORMAT
  1
GRIDFORMAT_BEGIN
 90
        0
 91
        1
 62
     0
 92
       -2
340
14
 93
        0
 40
0.045
309
GRIDFORMAT_END
 95
       16
302
GRIDFORMAT
  1
GRIDFORMAT_BEGIN
 90
        0
 91
        1
 62
     0
 92
       -2
340
14
 93
        0
 40
0.045
309
GRIDFORMAT_END
 95
       32
302
GRIDFORMAT
  1
GRIDFORMAT_BEGIN
 90
        0
 91
        1
 62
     0
 92
       -2
340
14
 93
        0
 40
0.045
309
GRIDFORMAT_END
309
TABLEFORMAT_END
  1
CELLSTYLE_BEGIN
 90
        2
 91
        1
300
_HEADER
309
CELLSTYLE_END
300
CELLSTYLE
  1
TABLEFORMAT_BEGIN
 90
        5
170
     1
 91
        0
 92
        0
 62
   257
 93
        1
300
CONTENTFORMAT
  1
CONTENTFORMAT_BEGIN
 90
        0
 91
        0
 92
        4
 93
        0
300

 40
0.0
140
1.0
 94
        2
 62
     0
340
11
144
4.5
309
CONTENTFORMAT_END
171
     1
301
MARGIN
  1
CELLMARGIN_BEGIN
 40
1.5
 40
1.5
 40
1.5
 40
1.5
 40
1.5
 40
1.5
309
CELLMARGIN_END
 94
        6
 95
        1
302
GRIDFORMAT
  1
GRIDFORMAT_BEGIN
 90
        0
 91
        1
 62
     0
 92
       -2
340
14
 93
        0
 40
0.045
309
GRIDFORMAT_END
 95
        2
302
GRIDFORMAT
  1
GRIDFORMAT_BEGIN
 90
        0
 91
        1
 62
     0
 92
       -2
340
14
 93
        0
 40
0.045
309
GRIDFORMAT_END
 95
        4
302
GRIDFORMAT
  1
GRIDFORMAT_BEGIN
 90
        0
 91
        1
 62
     0
 92
       -2
340
14
 93
        0
 40
0.045
309
GRIDFORMAT_END
 95
        8
302
GRIDFORMAT
  1
GRIDFORMAT_BEGIN
 90
        0
 91
        1
 62
     0
 92
       -2
340
14
 93
        0
 40
0.045
309
GRIDFORMAT_END
 95
       16
302
GRIDFORMAT
  1
GRIDFORMAT_BEGIN
 90
        0
 91
        1
 62
     0
 92
       -2
340
14
 93
        0
 40
0.045
309
GRIDFORMAT_END
 95
       32
302
GRIDFORMAT
  1
GRIDFORMAT_BEGIN
 90
        0
 91
        1
 62
     0
 92
       -2
340
14
 93
        0
 40
0.045
309
GRIDFORMAT_END
309
TABLEFORMAT_END
  1
CELLSTYLE_BEGIN
 90
        3
 91
        2
300
_DATA
309
CELLSTYLE_END
  0
ENDSEC
  0
EOF
