  0
SECTION
  2
HEADER
  9
$ACADVER
  1
AC1027
  9
$ACADMAINTVER
 70
     8
  9
$DWGCODEPAGE
  3
ANSI_932
  9
$REQUIREDVERSIONS
160
                 0
  9
$LASTSAVEDBY
  1
Yasu
  9
$INSBASE
 10
0.0
 20
0.0
 30
0.0
  9
$EXTMIN
 10
38.56989145695651
 20
31.07203953687258
 30
0.0
  9
$EXTMAX
 10
278.4910769858396
 20
220.9482414276457
 30
0.0
  9
$LIMMIN
 10
0.0
 20
0.0
  9
$LIMMAX
 10
420.0
 20
297.0
  9
$ORTHOMODE
 70
     0
  9
$REGENMODE
 70
     1
  9
$FILLMODE
 70
     1
  9
$QTEXTMODE
 70
     0
  9
$MIRRTEXT
 70
     0
  9
$LTSCALE
 40
0.2
  9
$ATTMODE
 70
     1
  9
$TEXTSIZE
 40
3.0
  9
$TRACEWID
 40
1.0
  9
$TEXTSTYLE
  7
Standard
  9
$CLAYER
  8
文字
  9
$CELTYPE
  6
ByLayer
  9
$CECOLOR
 62
   256
  9
$CELTSCALE
 40
1.0
  9
$DISPSILH
 70
     0
  9
$DIMSCALE
 40
1.0
  9
$DIMASZ
 40
2.5
  9
$DIMEXO
 40
0.625
  9
$DIMDLI
 40
3.75
  9
$DIMRND
 40
0.0
  9
$DIMDLE
 40
0.0
  9
$DIMEXE
 40
1.25
  9
$DIMTP
 40
0.0
  9
$DIMTM
 40
0.0
  9
$DIMTXT
 40
2.5
  9
$DIMCEN
 40
2.5
  9
$DIMTSZ
 40
0.0
  9
$DIMTOL
 70
     0
  9
$DIMLIM
 70
     0
  9
$DIMTIH
 70
     0
  9
$DIMTOH
 70
     0
  9
$DIMSE1
 70
     0
  9
$DIMSE2
 70
     0
  9
$DIMTAD
 70
     1
  9
$DIMZIN
 70
     8
  9
$DIMBLK
  1

  9
$DIMASO
 70
     1
  9
$DIMSHO
 70
     1
  9
$DIMPOST
  1

  9
$DIMAPOST
  1

  9
$DIMALT
 70
     0
  9
$DIMALTD
 70
     3
  9
$DIMALTF
 40
0.03937007874016
  9
$DIMLFAC
 40
1.0
  9
$DIMTOFL
 70
     1
  9
$DIMTVP
 40
0.0
  9
$DIMTIX
 70
     0
  9
$DIMSOXD
 70
     0
  9
$DIMSAH
 70
     0
  9
$DIMBLK1
  1

  9
$DIMBLK2
  1

  9
$DIMSTYLE
  2
ISO-25
  9
$DIMCLRD
 70
     0
  9
$DIMCLRE
 70
     0
  9
$DIMCLRT
 70
     0
  9
$DIMTFAC
 40
1.0
  9
$DIMGAP
 40
0.625
  9
$DIMJUST
 70
     0
  9
$DIMSD1
 70
     0
  9
$DIMSD2
 70
     0
  9
$DIMTOLJ
 70
     0
  9
$DIMTZIN
 70
     8
  9
$DIMALTZ
 70
     0
  9
$DIMALTTZ
 70
     0
  9
$DIMUPT
 70
     0
  9
$DIMDEC
 70
     2
  9
$DIMTDEC
 70
     2
  9
$DIMALTU
 70
     2
  9
$DIMALTTD
 70
     3
  9
$DIMTXSTY
  7
Standard
  9
$DIMAUNIT
 70
     0
  9
$DIMADEC
 70
     0
  9
$DIMALTRND
 40
0.0
  9
$DIMAZIN
 70
     0
  9
$DIMDSEP
 70
    46
  9
$DIMATFIT
 70
     3
  9
$DIMFRAC
 70
     0
  9
$DIMLDRBLK
  1

  9
$DIMLUNIT
 70
     2
  9
$DIMLWD
 70
    -2
  9
$DIMLWE
 70
    -2
  9
$DIMTMOVE
 70
     0
  9
$DIMFXL
 40
1.0
  9
$DIMFXLON
 70
     0
  9
$DIMJOGANG
 40
0.7853981633974483
  9
$DIMTFILL
 70
     0
  9
$DIMTFILLCLR
 70
     0
  9
$DIMARCSYM
 70
     0
  9
$DIMLTYPE
  6

  9
$DIMLTEX1
  6

  9
$DIMLTEX2
  6

  9
$DIMTXTDIRECTION
 70
     0
  9
$LUNITS
 70
     2
  9
$LUPREC
 70
     4
  9
$SKETCHINC
 40
1.0
  9
$FILLETRAD
 40
2.0
  9
$AUNITS
 70
     0
  9
$AUPREC
 70
     0
  9
$MENU
  1
.
  9
$ELEVATION
 40
0.0
  9
$PELEVATION
 40
0.0
  9
$THICKNESS
 40
0.0
  9
$LIMCHECK
 70
     0
  9
$CHAMFERA
 40
0.0
  9
$CHAMFERB
 40
0.0
  9
$CHAMFERC
 40
0.0
  9
$CHAMFERD
 40
0.0
  9
$SKPOLY
 70
     0
  9
$TDCREATE
 40
2452936.788310359
  9
$TDUCREATE
 40
2452936.413310359
  9
$TDUPDATE
 40
2456756.888812026
  9
$TDUUPDATE
 40
2456756.513812026
  9
$TDINDWG
 40
0.9189012731
  9
$TDUSRTIMER
 40
2456756.513234873
  9
$USRTIMER
 70
     1
  9
$ANGBASE
 50
0.0
  9
$ANGDIR
 70
     0
  9
$PDMODE
 70
     0
  9
$PDSIZE
 40
0.0
  9
$PLINEWID
 40
0.0
  9
$SPLFRAME
 70
     0
  9
$SPLINETYPE
 70
     6
  9
$SPLINESEGS
 70
     8
  9
$HANDSEED
  5
1E15
  9
$SURFTAB1
 70
     6
  9
$SURFTAB2
 70
     6
  9
$SURFTYPE
 70
     6
  9
$SURFU
 70
     6
  9
$SURFV
 70
     6
  9
$UCSBASE
  2

  9
$UCSNAME
  2

  9
$UCSORG
 10
0.0
 20
0.0
 30
0.0
  9
$UCSXDIR
 10
1.0
 20
0.0
 30
0.0
  9
$UCSYDIR
 10
0.0
 20
1.0
 30
0.0
  9
$UCSORTHOREF
  2

  9
$UCSORTHOVIEW
 70
     0
  9
$UCSORGTOP
 10
0.0
 20
0.0
 30
0.0
  9
$UCSORGBOTTOM
 10
0.0
 20
0.0
 30
0.0
  9
$UCSORGLEFT
 10
0.0
 20
0.0
 30
0.0
  9
$UCSORGRIGHT
 10
0.0
 20
0.0
 30
0.0
  9
$UCSORGFRONT
 10
0.0
 20
0.0
 30
0.0
  9
$UCSORGBACK
 10
0.0
 20
0.0
 30
0.0
  9
$PUCSBASE
  2

  9
$PUCSNAME
  2

  9
$PUCSORG
 10
0.0
 20
0.0
 30
0.0
  9
$PUCSXDIR
 10
1.0
 20
0.0
 30
0.0
  9
$PUCSYDIR
 10
0.0
 20
1.0
 30
0.0
  9
$PUCSORTHOREF
  2

  9
$PUCSORTHOVIEW
 70
     0
  9
$PUCSORGTOP
 10
0.0
 20
0.0
 30
0.0
  9
$PUCSORGBOTTOM
 10
0.0
 20
0.0
 30
0.0
  9
$PUCSORGLEFT
 10
0.0
 20
0.0
 30
0.0
  9
$PUCSORGRIGHT
 10
0.0
 20
0.0
 30
0.0
  9
$PUCSORGFRONT
 10
0.0
 20
0.0
 30
0.0
  9
$PUCSORGBACK
 10
0.0
 20
0.0
 30
0.0
  9
$USERI1
 70
     0
  9
$USERI2
 70
     0
  9
$USERI3
 70
     0
  9
$USERI4
 70
     0
  9
$USERI5
 70
     0
  9
$USERR1
 40
0.0
  9
$USERR2
 40
0.0
  9
$USERR3
 40
0.0
  9
$USERR4
 40
0.0
  9
$USERR5
 40
0.0
  9
$WORLDVIEW
 70
     1
  9
$SHADEDGE
 70
     3
  9
$SHADEDIF
 70
    70
  9
$TILEMODE
 70
     1
  9
$MAXACTVP
 70
    64
  9
$PINSBASE
 10
0.0
 20
0.0
 30
0.0
  9
$PLIMCHECK
 70
     0
  9
$PEXTMIN
 10
0.0
 20
0.0
 30
0.0
  9
$PEXTMAX
 10
0.0
 20
0.0
 30
0.0
  9
$PLIMMIN
 10
-6.35
 20
-6.35
  9
$PLIMMAX
 10
413.8083333333333
 20
290.6888888888888
  9
$UNITMODE
 70
     0
  9
$VISRETAIN
 70
     1
  9
$PLINEGEN
 70
     0
  9
$PSLTSCALE
 70
     1
  9
$TREEDEPTH
 70
  3020
  9
$CMLSTYLE
  2
Standard
  9
$CMLJUST
 70
     0
  9
$CMLSCALE
 40
20.0
  9
$PROXYGRAPHICS
 70
     1
  9
$MEASUREMENT
 70
     1
  9
$CELWEIGHT
370
    -1
  9
$ENDCAPS
280
     0
  9
$JOINSTYLE
280
     0
  9
$LWDISPLAY
290
     0
  9
$INSUNITS
 70
     4
  9
$HYPERLINKBASE
  1

  9
$STYLESHEET
  1

  9
$XEDIT
290
     1
  9
$CEPSNTYPE
380
     0
  9
$PSTYLEMODE
290
     1
  9
$FINGERPRINTGUID
  2
{86E58535-AB5B-4AFE-AB1B-6758AAB7EA7D}
  9
$VERSIONGUID
  2
{B1E002B4-40F6-41E8-810B-94EDDBD5D07A}
  9
$EXTNAMES
290
     1
  9
$PSVPSCALE
 40
0.0
  9
$OLESTARTUP
290
     0
  9
$SORTENTS
280
   127
  9
$INDEXCTL
280
     0
  9
$HIDETEXT
280
     1
  9
$XCLIPFRAME
280
     2
  9
$HALOGAP
280
     0
  9
$OBSCOLOR
 70
   257
  9
$OBSLTYPE
280
     0
  9
$INTERSECTIONDISPLAY
280
     0
  9
$INTERSECTIONCOLOR
 70
   257
  9
$DIMASSOC
280
     2
  9
$PROJECTNAME
  1

  9
$CAMERADISPLAY
290
     0
  9
$LENSLENGTH
 40
50.0
  9
$CAMERAHEIGHT
 40
0.0
  9
$STEPSPERSEC
 40
2.0
  9
$STEPSIZE
 40
6.0
  9
$3DDWFPREC
 40
2.0
  9
$PSOLWIDTH
 40
0.25
  9
$PSOLHEIGHT
 40
4.0
  9
$LOFTANG1
 40
1.570796326794897
  9
$LOFTANG2
 40
1.570796326794897
  9
$LOFTMAG1
 40
0.0
  9
$LOFTMAG2
 40
0.0
  9
$LOFTPARAM
 70
     7
  9
$LOFTNORMALS
280
     1
  9
$LATITUDE
 40
37.795
  9
$LONGITUDE
 40
-122.394
  9
$NORTHDIRECTION
 40
0.0
  9
$TIMEZONE
 70
 -8000
  9
$LIGHTGLYPHDISPLAY
280
     1
  9
$TILEMODELIGHTSYNCH
280
     1
  9
$SOLIDHIST
280
     1
  9
$SHOWHIST
280
     1
  9
$DWFFRAME
280
     2
  9
$DGNFRAME
280
     2
  9
$REALWORLDSCALE
290
     1
  9
$INTERFERECOLOR
 62
   256
  9
$CSHADOW
280
     0
  9
$SHADOWPLANELOCATION
 40
0.0
  0
ENDSEC
  0
SECTION
  2
CLASSES
  0
CLASS
  1
ACDBDICTIONARYWDFLT
  2
AcDbDictionaryWithDefault
  3
ObjectDBX Classes
 90
        0
 91
        7
280
     0
281
     0
  0
CLASS
  1
DIMASSOC
  2
AcDbDimAssoc
  3
"AcDbDimAssoc|Product Desc:     AcDim ARX App For Dimension|Company:          Autodesk, Inc.|WEB Address:      www.autodesk.com"
 90
        0
 91
        5
280
     0
281
     0
  0
CLASS
  1
DICTIONARYVAR
  2
AcDbDictionaryVar
  3
ObjectDBX Classes
 90
        0
 91
        5
280
     0
281
     0
  0
CLASS
  1
ACDBPLACEHOLDER
  2
AcDbPlaceHolder
  3
ObjectDBX Classes
 90
        0
 91
        1
280
     0
281
     0
  0
CLASS
  1
LAYOUT
  2
AcDbLayout
  3
ObjectDBX Classes
 90
        0
 91
        1
280
     0
281
     0
  0
CLASS
  1
VISUALSTYLE
  2
AcDbVisualStyle
  3
ObjectDBX Classes
 90
     4095
 91
        7
280
     0
281
     0
  0
CLASS
  1
SCALE
  2
AcDbScale
  3
ObjectDBX Classes
 90
     1153
 91
        7
280
     0
281
     0
  0
CLASS
  1
MATERIAL
  2
AcDbMaterial
  3
ObjectDBX Classes
 90
     1153
 91
        7
280
     0
281
     0
  0
CLASS
  1
TABLESTYLE
  2
AcDbTableStyle
  3
ObjectDBX Classes
 90
     4095
 91
        7
280
     0
281
     0
  0
CLASS
  1
SUN
  2
AcDbSun
  3
SCENEOE
 90
     1153
 91
        7
280
     0
281
     0
  0
CLASS
  1
RASTERVARIABLES
  2
AcDbRasterVariables
  3
ISM
 90
        0
 91
        7
280
     0
281
     0
  0
CLASS
  1
CELLSTYLEMAP
  2
AcDbCellStyleMap
  3
ObjectDBX Classes
 90
     1152
 91
        5
280
     0
281
     0
  0
ENDSEC
  0
SECTION
  2
TABLES
  0
TABLE
  2
VPORT
  5
8
330
0
100
AcDbSymbolTable
 70
     1
  0
VPORT
  5
1CAF
330
8
100
AcDbSymbolTableRecord
100
AcDbViewportTableRecord
  2
*Active
 70
     0
 10
0.0
 20
0.0
 11
1.0
 21
1.0
 12
158.530484221398
 22
126.0101404822591
 13
0.0
 23
0.0
 14
10.0
 24
10.0
 15
10.0
 25
10.0
 16
0.0
 26
0.0
 36
1.0
 17
0.0
 27
0.0
 37
0.0
 40
193.6737259285886
 41
1.762376237623762
 42
50.0
 43
0.0
 44
0.0
 50
0.0
 51
0.0
 71
    16
 72
  1000
 73
     1
 74
     3
 75
     0
 76
     0
 77
     0
 78
     0
281
     0
 65
     1
110
0.0
120
0.0
130
0.0
111
1.0
121
0.0
131
0.0
112
0.0
122
1.0
132
0.0
 79
     0
146
0.0
348
1CC0
 60
     3
 61
     5
292
     1
282
     1
141
0.0
142
0.0
 63
   256
361
1D05
  0
ENDTAB
  0
TABLE
  2
LTYPE
  5
5
330
0
100
AcDbSymbolTable
 70
     6
  0
LTYPE
  5
14
330
5
100
AcDbSymbolTableRecord
100
AcDbLinetypeTableRecord
  2
ByBlock
 70
     0
  3

 72
    65
 73
     0
 40
0.0
  0
LTYPE
  5
15
330
5
100
AcDbSymbolTableRecord
100
AcDbLinetypeTableRecord
  2
ByLayer
 70
     0
  3

 72
    65
 73
     0
 40
0.0
  0
LTYPE
  5
16
330
5
100
AcDbSymbolTableRecord
100
AcDbLinetypeTableRecord
  2
Continuous
 70
     0
  3
Solid line
 72
    65
 73
     0
 40
0.0
  0
LTYPE
  5
35
330
5
100
AcDbSymbolTableRecord
100
AcDbLinetypeTableRecord
  2
ACAD_ISO08W100
 70
     0
  3
ISO long-dash short-dash ____ __ ____ __ ____ _
 72
    65
 73
     4
 40
36.0
 49
24.0
 74
     0
 49
-3.0
 74
     0
 49
6.0
 74
     0
 49
-3.0
 74
     0
  0
LTYPE
  5
127
330
5
100
AcDbSymbolTableRecord
100
AcDbLinetypeTableRecord
  2
HIDDENX2
 70
     0
  3
Hidden (2x) ____ ____ ____ ____ ____ ____ ____
 72
    65
 73
     2
 40
19.05
 49
12.7
 74
     0
 49
-6.35
 74
     0
  0
LTYPE
  5
5EC
330
5
100
AcDbSymbolTableRecord
100
AcDbLinetypeTableRecord
  2
CENTER
 70
     0
  3
Center ____ _ ____ _ ____ _ ____ _ ____ _ ____
 72
    65
 73
     4
 40
50.8
 49
31.75
 74
     0
 49
-6.35
 74
     0
 49
6.35
 74
     0
 49
-6.35
 74
     0
  0
LTYPE
  5
5ED
330
5
100
AcDbSymbolTableRecord
100
AcDbLinetypeTableRecord
  2
ACAD_ISO02W100
 70
     0
  3
ISO dash __ __ __ __ __ __ __ __ __ __ __ __ __
 72
    65
 73
     2
 40
15.0
 49
12.0
 74
     0
 49
-3.0
 74
     0
  0
LTYPE
  5
605
330
5
100
AcDbSymbolTableRecord
100
AcDbLinetypeTableRecord
  2
DASHED
 70
     0
  3
Dashed __ __ __ __ __ __ __ __ __ __ __ __ __ _
 72
    65
 73
     2
 40
19.05
 49
12.7
 74
     0
 49
-6.35
 74
     0
  0
ENDTAB
  0
TABLE
  2
LAYER
  5
2
330
0
100
AcDbSymbolTable
 70
     9
  0
LAYER
  5
10
330
2
100
AcDbSymbolTableRecord
100
AcDbLayerTableRecord
  2
0
 70
     0
 62
     7
  6
Continuous
370
    -3
390
F
347
1CF8
348
0
  0
LAYER
  5
2E
330
2
100
AcDbSymbolTableRecord
100
AcDbLayerTableRecord
  2
枠
 70
     0
 62
     1
  6
Continuous
370
    30
390
F
347
1CF8
348
0
  0
LAYER
  5
2F
330
2
100
AcDbSymbolTableRecord
100
AcDbLayerTableRecord
  2
文字
 70
     0
 62
     7
  6
Continuous
370
    18
390
F
347
1CF8
348
0
  0
LAYER
  5
36
330
2
100
AcDbSymbolTableRecord
100
AcDbLayerTableRecord
  2
中心線
 70
     0
 62
     7
  6
CENTER
370
    15
390
F
347
1CF8
348
0
  0
LAYER
  5
52
330
2
100
AcDbSymbolTableRecord
100
AcDbLayerTableRecord
  2
隠れ線
 70
     0
 62
     2
  6
Continuous
290
     0
370
    -3
390
F
347
1CF8
348
0
  0
LAYER
  5
128
330
2
100
AcDbSymbolTableRecord
100
AcDbLayerTableRecord
  2
実線
 70
     0
 62
     7
  6
Continuous
370
    20
390
F
347
1CF8
348
0
  0
LAYER
  5
129
330
2
100
AcDbSymbolTableRecord
100
AcDbLayerTableRecord
  2
破線
 70
     0
 62
     7
  6
DASHED
370
    15
390
F
347
1CF8
348
0
  0
LAYER
  5
677
330
2
100
AcDbSymbolTableRecord
100
AcDbLayerTableRecord
  2
Defpoints
 70
     0
 62
     7
  6
Continuous
290
     0
370
    -3
390
F
347
1CF8
348
0
  0
LAYER
  5
1DEA
330
2
100
AcDbSymbolTableRecord
100
AcDbLayerTableRecord
  2
文字・寸法線
 70
     0
 62
     7
  6
Continuous
370
    13
390
F
347
1CF8
348
0
  0
ENDTAB
  0
TABLE
  2
STYLE
  5
3
330
0
100
AcDbSymbolTable
 70
     2
  0
STYLE
  5
11
330
3
100
AcDbSymbolTableRecord
100
AcDbTextStyleTableRecord
  2
Standard
 70
     0
 40
0.0
 41
1.0
 50
0.0
 71
     0
 42
3.0
  3
txt.shx
  4
bigfont.shx
  0
STYLE
  5
34
330
3
100
AcDbSymbolTableRecord
100
AcDbTextStyleTableRecord
  2

 70
     1
 40
0.0
 41
1.0
 50
0.0
 71
     0
 42
2.5
  3
ltypeshp.shx
  4

  0
ENDTAB
  0
TABLE
  2
VIEW
  5
6
330
0
100
AcDbSymbolTable
 70
     0
  0
ENDTAB
  0
TABLE
  2
UCS
  5
7
330
0
100
AcDbSymbolTable
 70
     0
  0
ENDTAB
  0
TABLE
  2
APPID
  5
9
330
0
100
AcDbSymbolTable
 70
     4
  0
APPID
  5
12
330
9
100
AcDbSymbolTableRecord
100
AcDbRegAppTableRecord
  2
ACAD
 70
     0
  0
APPID
  5
1282
330
9
100
AcDbSymbolTableRecord
100
AcDbRegAppTableRecord
  2
ACAD_DIMASSOC_CALC_DIMLFAC
 70
     0
  0
APPID
  5
1283
330
9
100
AcDbSymbolTableRecord
100
AcDbRegAppTableRecord
  2
ACAD_DIMASSOC_DIMLFAC
 70
     0
  0
APPID
  5
1284
330
9
100
AcDbSymbolTableRecord
100
AcDbRegAppTableRecord
  2
ACAD_DIMASSOC_OVERRIDDEN_DIMLFAC
 70
     0
  0
ENDTAB
  0
TABLE
  2
DIMSTYLE
  5
A
330
0
100
AcDbSymbolTable
 70
     1
100
AcDbDimStyleTable
  0
DIMSTYLE
105
29
102
{ACAD_REACTORS
330
1B56
330
1B59
330
1B5E
330
1B6A
330
1D6F
330
1D72
330
1D7F
330
1DD9
102
}
330
A
100
AcDbSymbolTableRecord
100
AcDbDimStyleTableRecord
  2
ISO-25
 70
     0
 41
2.5
 42
0.625
 43
3.75
 44
1.25
 73
     0
 74
     0
 77
     1
 78
     8
140
2.5
141
2.5
143
0.03937007874016
147
0.625
171
     3
172
     1
178
     0
271
     2
272
     2
274
     3
283
     0
284
     8
340
11
  0
ENDTAB
  0
TABLE
  2
BLOCK_RECORD
  5
1
330
0
100
AcDbSymbolTable
 70
    30
  0
BLOCK_RECORD
  5
21
330
1
100
AcDbSymbolTableRecord
100
AcDbBlockTableRecord
  2
*Model_Space
340
24
 70
     0
280
     1
281
     0
  0
BLOCK_RECORD
  5
1CFE
330
1
100
AcDbSymbolTableRecord
100
AcDbBlockTableRecord
  2
*Paper_Space
340
1CFF
 70
     0
280
     1
281
     0
  0
BLOCK_RECORD
  5
1581
330
1
100
AcDbSymbolTableRecord
100
AcDbBlockTableRecord
  2
_Dot
340
0
 70
     0
280
     1
281
     0
  0
BLOCK_RECORD
  5
1591
330
1
100
AcDbSymbolTableRecord
100
AcDbBlockTableRecord
  2
_None
340
0
 70
     0
280
     1
281
     0
  0
BLOCK_RECORD
  5
15A6
330
1
100
AcDbSymbolTableRecord
100
AcDbBlockTableRecord
  2
_DatumFilled
340
0
 70
     0
280
     1
281
     0
  0
BLOCK_RECORD
  5
16CF
330
1
100
AcDbSymbolTableRecord
100
AcDbBlockTableRecord
  2
_DotSmall
340
0
 70
     0
280
     1
281
     0
  0
BLOCK_RECORD
  5
1992
330
1
100
AcDbSymbolTableRecord
100
AcDbBlockTableRecord
  2
*D4
340
0
 70
     0
280
     1
281
     0
  0
BLOCK_RECORD
  5
199E
330
1
100
AcDbSymbolTableRecord
100
AcDbBlockTableRecord
  2
*D5
340
0
 70
     0
280
     1
281
     0
  0
BLOCK_RECORD
  5
19AC
330
1
100
AcDbSymbolTableRecord
100
AcDbBlockTableRecord
  2
*D6
340
0
 70
     0
280
     1
281
     0
  0
BLOCK_RECORD
  5
19B8
330
1
100
AcDbSymbolTableRecord
100
AcDbBlockTableRecord
  2
*D7
340
0
 70
     0
280
     1
281
     0
  0
BLOCK_RECORD
  5
19C4
330
1
100
AcDbSymbolTableRecord
100
AcDbBlockTableRecord
  2
*D8
340
0
 70
     0
280
     1
281
     0
  0
BLOCK_RECORD
  5
19D0
330
1
100
AcDbSymbolTableRecord
100
AcDbBlockTableRecord
  2
*D9
340
0
 70
     0
280
     1
281
     0
  0
BLOCK_RECORD
  5
19DC
330
1
100
AcDbSymbolTableRecord
100
AcDbBlockTableRecord
  2
*D10
340
0
 70
     0
280
     1
281
     0
  0
BLOCK_RECORD
  5
19ED
330
1
100
AcDbSymbolTableRecord
100
AcDbBlockTableRecord
  2
*D11
340
0
 70
     0
280
     1
281
     0
  0
BLOCK_RECORD
  5
19F9
330
1
100
AcDbSymbolTableRecord
100
AcDbBlockTableRecord
  2
*D12
340
0
 70
     0
280
     1
281
     0
  0
BLOCK_RECORD
  5
1A05
330
1
100
AcDbSymbolTableRecord
100
AcDbBlockTableRecord
  2
A$C76A36C9E
340
0
 70
     0
280
     1
281
     0
  0
BLOCK_RECORD
  5
1B70
330
1
100
AcDbSymbolTableRecord
100
AcDbBlockTableRecord
  2
*D14
340
0
 70
     0
280
     1
281
     0
  0
BLOCK_RECORD
  5
1B7C
330
1
100
AcDbSymbolTableRecord
100
AcDbBlockTableRecord
  2
*D15
340
0
 70
     0
280
     1
281
     0
  0
BLOCK_RECORD
  5
1B88
330
1
100
AcDbSymbolTableRecord
100
AcDbBlockTableRecord
  2
*D16
340
0
 70
     0
280
     1
281
     0
  0
BLOCK_RECORD
  5
1B94
330
1
100
AcDbSymbolTableRecord
100
AcDbBlockTableRecord
  2
*D17
340
0
 70
     0
280
     1
281
     0
  0
BLOCK_RECORD
  5
1BA0
330
1
100
AcDbSymbolTableRecord
100
AcDbBlockTableRecord
  2
*D18
340
0
 70
     0
280
     1
281
     0
  0
BLOCK_RECORD
  5
1BAC
330
1
100
AcDbSymbolTableRecord
100
AcDbBlockTableRecord
  2
*D19
340
0
 70
     0
280
     1
281
     0
  0
BLOCK_RECORD
  5
1BB8
330
1
100
AcDbSymbolTableRecord
100
AcDbBlockTableRecord
  2
*D20
340
0
 70
     0
280
     1
281
     0
  0
BLOCK_RECORD
  5
1C15
330
1
100
AcDbSymbolTableRecord
100
AcDbBlockTableRecord
  2
*D21
340
0
 70
     0
280
     1
281
     0
  0
BLOCK_RECORD
  5
1D38
330
1
100
AcDbSymbolTableRecord
100
AcDbBlockTableRecord
  2
*D22
340
0
 70
     0
280
     1
281
     0
  0
BLOCK_RECORD
  5
1D47
330
1
100
AcDbSymbolTableRecord
100
AcDbBlockTableRecord
  2
*D23
340
0
 70
     0
280
     1
281
     0
  0
BLOCK_RECORD
  5
1D60
330
1
100
AcDbSymbolTableRecord
100
AcDbBlockTableRecord
  2
*D24
340
0
 70
     0
280
     1
281
     0
  0
BLOCK_RECORD
  5
1D82
330
1
100
AcDbSymbolTableRecord
100
AcDbBlockTableRecord
  2
*D25
340
0
 70
     0
280
     1
281
     0
  0
BLOCK_RECORD
  5
1D8E
330
1
100
AcDbSymbolTableRecord
100
AcDbBlockTableRecord
  2
*D26
340
0
 70
     0
280
     1
281
     0
  0
BLOCK_RECORD
  5
1D9A
330
1
100
AcDbSymbolTableRecord
100
AcDbBlockTableRecord
  2
*D27
340
0
 70
     0
280
     1
281
     0
  0
BLOCK_RECORD
  5
1DCA
330
1
100
AcDbSymbolTableRecord
100
AcDbBlockTableRecord
  2
*D28
340
0
 70
     0
280
     1
281
     0
  0
BLOCK_RECORD
  5
1DDB
330
1
100
AcDbSymbolTableRecord
100
AcDbBlockTableRecord
  2
*D29
340
0
 70
     0
280
     1
281
     0
  0
ENDTAB
  0
ENDSEC
  0
SECTION
  2
BLOCKS
  0
BLOCK
  5
22
330
21
100
AcDbEntity
  8
0
100
AcDbBlockBegin
  2
*Model_Space
 70
     0
 10
0.0
 20
0.0
 30
0.0
  3
*Model_Space
  1
*Model_Space
  0
ENDBLK
  5
23
330
21
100
AcDbEntity
  8
0
100
AcDbBlockEnd
  0
BLOCK
  5
1D00
330
1CFE
100
AcDbEntity
 67
     1
  8
0
100
AcDbBlockBegin
  2
*Paper_Space
 70
     0
 10
0.0
 20
0.0
 30
0.0
  3
*Paper_Space
  1
*Paper_Space
  0
ENDBLK
  5
1D01
330
1CFE
100
AcDbEntity
 67
     1
  8
0
100
AcDbBlockEnd
  0
BLOCK
  5
1584
330
1581
100
AcDbEntity
  8
0
 62
     0
100
AcDbBlockBegin
  2
_Dot
 70
     0
 10
0.0
 20
0.0
 30
0.0
  3
_Dot
  1
_Dot
  0
LWPOLYLINE
  5
1582
330
1581
100
AcDbEntity
  8
0
  6
ByBlock
 62
     0
100
AcDbPolyline
 90
        2
 70
     1
 43
0.5
 10
-0.25
 20
0.0
 42
1.0
 10
0.25
 20
0.0
 42
1.0
  0
LINE
  5
1583
330
1581
100
AcDbEntity
  8
0
  6
ByBlock
 62
     0
370
    -2
100
AcDbLine
 10
-0.5
 20
0.0
 30
0.0
 11
-1.0
 21
0.0
 31
0.0
  0
ENDBLK
  5
1585
330
1581
100
AcDbEntity
  8
0
 62
     0
100
AcDbBlockEnd
  0
BLOCK
  5
1592
330
1591
100
AcDbEntity
  8
0
 62
     0
100
AcDbBlockBegin
  2
_None
 70
     0
 10
0.0
 20
0.0
 30
0.0
  3
_None
  1
_None
  0
ENDBLK
  5
1593
330
1591
100
AcDbEntity
  8
0
 62
     0
100
AcDbBlockEnd
  0
BLOCK
  5
15A8
330
15A6
100
AcDbEntity
  8
0
 62
     0
100
AcDbBlockBegin
  2
_DatumFilled
 70
     0
 10
0.0
 20
0.0
 30
0.0
  3
_DatumFilled
  1
_DatumFilled
  0
SOLID
  5
15A7
330
15A6
100
AcDbEntity
  8
0
  6
ByBlock
 62
     0
100
AcDbTrace
 10
0.0
 20
0.57735027
 30
0.0
 11
-1.0
 21
0.0
 31
0.0
 12
0.0
 22
-0.57735027
 32
0.0
 13
0.0
 23
-0.57735027
 33
0.0
  0
ENDBLK
  5
15A9
330
15A6
100
AcDbEntity
  8
0
 62
     0
100
AcDbBlockEnd
  0
BLOCK
  5
16D1
330
16CF
100
AcDbEntity
  8
0
 62
     0
100
AcDbBlockBegin
  2
_DotSmall
 70
     0
 10
0.0
 20
0.0
 30
0.0
  3
_DotSmall
  1
_DotSmall
  0
LWPOLYLINE
  5
16D0
330
16CF
100
AcDbEntity
  8
0
  6
ByBlock
 62
     0
100
AcDbPolyline
 90
        2
 70
     1
 43
0.5
 10
-0.0625
 20
0.0
 42
1.0
 10
0.0625
 20
0.0
 42
1.0
  0
ENDBLK
  5
16D2
330
16CF
100
AcDbEntity
  8
0
 62
     0
100
AcDbBlockEnd
  0
BLOCK
  5
1993
330
1992
100
AcDbEntity
  8
0
370
    30
100
AcDbBlockBegin
  2
*D4
 70
     1
 10
0.0
 20
0.0
 30
0.0
  3
*D4
  1
*D13
  0
LINE
  5
1994
330
1992
100
AcDbEntity
  8
文字
 62
     0
370
    -2
100
AcDbLine
 10
192.2214242466307
 20
115.3847432098993
 30
0.0
 11
192.2214242466307
 21
74.91396239368606
 31
0.0
  0
LINE
  5
1995
330
1992
100
AcDbEntity
  8
文字
 62
     0
370
    -2
100
AcDbLine
 10
220.2214242466307
 20
115.3847432098993
 30
0.0
 11
220.2214242466307
 21
74.91396239368606
 31
0.0
  0
LINE
  5
1996
330
1992
100
AcDbEntity
  8
文字
 62
     0
370
    -2
100
AcDbLine
 10
194.7214242466307
 20
76.16396239368606
 30
0.0
 11
217.7214242466307
 21
76.16396239368606
 31
0.0
  0
SOLID
  5
1997
330
1992
100
AcDbEntity
  8
文字
 62
     0
100
AcDbTrace
 10
194.7214242466307
 20
76.58062906035273
 30
0.0
 11
194.7214242466307
 21
75.74729572701939
 31
0.0
 12
192.2214242466307
 22
76.16396239368606
 32
0.0
 13
192.2214242466307
 23
76.16396239368606
 33
0.0
  0
SOLID
  5
1998
330
1992
100
AcDbEntity
  8
文字
 62
     0
100
AcDbTrace
 10
217.7214242466307
 20
76.58062906035273
 30
0.0
 11
217.7214242466307
 21
75.74729572701939
 31
0.0
 12
220.2214242466307
 22
76.16396239368606
 32
0.0
 13
220.2214242466307
 23
76.16396239368606
 33
0.0
  0
MTEXT
  5
1999
330
1992
100
AcDbEntity
  8
文字
 62
     0
100
AcDbMText
 10
206.2214242466307
 20
78.03896239368606
 30
0.0
 40
2.5
 41
0.0
 46
0.0
 71
     5
 72
     1
  1
%%c28
 73
     1
 44
1.0
  0
POINT
  5
199A
330
1992
100
AcDbEntity
  8
Defpoints
 62
     0
100
AcDbPoint
 10
192.2214242466307
 20
116.0097432098993
 30
0.0
  0
POINT
  5
199B
330
1992
100
AcDbEntity
  8
Defpoints
 62
     0
100
AcDbPoint
 10
220.2214242466307
 20
116.0097432098993
 30
0.0
  0
POINT
  5
199C
330
1992
100
AcDbEntity
  8
Defpoints
 62
     0
100
AcDbPoint
 10
220.2214242466307
 20
76.16396239368606
 30
0.0
  0
ENDBLK
  5
199D
330
1992
100
AcDbEntity
  8
0
370
    30
100
AcDbBlockEnd
  0
BLOCK
  5
199F
330
199E
100
AcDbEntity
  8
0
370
    30
100
AcDbBlockBegin
  2
*D5
 70
     1
 10
0.0
 20
0.0
 30
0.0
  3
*D5
  1
*D14
  0
LINE
  5
19A0
330
199E
100
AcDbEntity
  8
文字
 62
     0
370
    -2
100
AcDbLine
 10
71.59625003018851
 20
83.94882055485836
 30
0.0
 11
55.97592567393417
 21
83.94882055485836
 31
0.0
  0
LINE
  5
19A1
330
199E
100
AcDbEntity
  8
文字
 62
     0
370
    -2
100
AcDbLine
 10
71.59625003018851
 20
82.34882055485836
 30
0.0
 11
55.97592567393417
 21
82.34882055485836
 31
0.0
  0
LINE
  5
19A2
330
199E
100
AcDbEntity
  8
文字
 62
     0
370
    -2
100
AcDbLine
 10
57.22592567393417
 20
86.44882055485836
 30
0.0
 11
57.22592567393417
 21
88.94882055485836
 31
0.0
  0
LINE
  5
19A3
330
199E
100
AcDbEntity
  8
文字
 62
     0
370
    -2
100
AcDbLine
 10
57.22592567393416
 20
79.84882055485836
 30
0.0
 11
57.22592567393416
 21
71.93215388819169
 31
0.0
  0
LINE
  5
19A4
330
199E
100
AcDbEntity
  8
文字
 62
     0
370
    -2
100
AcDbLine
 10
57.22592567393417
 20
83.94882055485836
 30
0.0
 11
57.22592567393417
 21
82.34882055485836
 31
0.0
  0
SOLID
  5
19A5
330
199E
100
AcDbEntity
  8
文字
 62
     0
100
AcDbTrace
 10
56.80925900726751
 20
86.44882055485836
 30
0.0
 11
57.64259234060084
 21
86.44882055485836
 31
0.0
 12
57.22592567393417
 22
83.94882055485836
 32
0.0
 13
57.22592567393417
 23
83.94882055485836
 33
0.0
  0
SOLID
  5
19A6
330
199E
100
AcDbEntity
  8
文字
 62
     0
100
AcDbTrace
 10
56.8092590072675
 20
79.84882055485836
 30
0.0
 11
57.64259234060083
 21
79.84882055485836
 31
0.0
 12
57.22592567393417
 22
82.34882055485836
 32
0.0
 13
57.22592567393417
 23
82.34882055485836
 33
0.0
  0
MTEXT
  5
19A7
330
199E
100
AcDbEntity
  8
文字
 62
     0
100
AcDbMText
 10
55.35092567393416
 20
74.64048722152505
 30
0.0
 40
2.5
 41
0.0
 46
0.0
 71
     5
 72
     1
  1
1.5
 11
6.123031769111886E-17
 21
1.0
 31
0.0
 73
     1
 44
1.0
  0
POINT
  5
19A8
330
199E
100
AcDbEntity
  8
Defpoints
 62
     0
100
AcDbPoint
 10
72.22125003018851
 20
83.94882055485836
 30
0.0
  0
POINT
  5
19A9
330
199E
100
AcDbEntity
  8
Defpoints
 62
     0
100
AcDbPoint
 10
72.22125003018851
 20
82.34882055485836
 30
0.0
  0
POINT
  5
19AA
330
199E
100
AcDbEntity
  8
Defpoints
 62
     0
100
AcDbPoint
 10
57.22592567393417
 20
82.34882055485836
 30
0.0
  0
ENDBLK
  5
19AB
330
199E
100
AcDbEntity
  8
0
370
    30
100
AcDbBlockEnd
  0
BLOCK
  5
19AD
330
19AC
100
AcDbEntity
  8
0
370
    30
100
AcDbBlockBegin
  2
*D6
 70
     1
 10
0.0
 20
0.0
 30
0.0
  3
*D6
  1
*D15
  0
LINE
  5
19AE
330
19AC
100
AcDbEntity
  8
文字
 62
     0
370
    -2
100
AcDbLine
 10
199.7262337182474
 20
115.3847432098993
 30
0.0
 11
199.7262337182474
 21
82.51985031794277
 31
0.0
  0
LINE
  5
19AF
330
19AC
100
AcDbEntity
  8
文字
 62
     0
370
    -2
100
AcDbLine
 10
212.716614775014
 20
115.3847432098993
 30
0.0
 11
212.716614775014
 21
82.51985031794277
 31
0.0
  0
LINE
  5
19B0
330
19AC
100
AcDbEntity
  8
文字
 62
     0
370
    -2
100
AcDbLine
 10
202.2262337182474
 20
83.76985031794277
 30
0.0
 11
210.216614775014
 21
83.76985031794277
 31
0.0
  0
SOLID
  5
19B1
330
19AC
100
AcDbEntity
  8
文字
 62
     0
100
AcDbTrace
 10
202.2262337182474
 20
84.18651698460944
 30
0.0
 11
202.2262337182474
 21
83.3531836512761
 31
0.0
 12
199.7262337182474
 22
83.76985031794277
 32
0.0
 13
199.7262337182474
 23
83.76985031794277
 33
0.0
  0
SOLID
  5
19B2
330
19AC
100
AcDbEntity
  8
文字
 62
     0
100
AcDbTrace
 10
210.216614775014
 20
84.18651698460944
 30
0.0
 11
210.216614775014
 21
83.3531836512761
 31
0.0
 12
212.716614775014
 22
83.76985031794277
 32
0.0
 13
212.716614775014
 23
83.76985031794277
 33
0.0
  0
MTEXT
  5
19B3
330
19AC
100
AcDbEntity
  8
文字
 62
     0
100
AcDbMText
 10
206.4041474863344
 20
85.64485031794277
 30
0.0
 40
2.5
 41
0.0
 46
0.0
 71
     5
 72
     1
  1
13
 73
     1
 44
1.0
  0
POINT
  5
19B4
330
19AC
100
AcDbEntity
  8
Defpoints
 62
     0
100
AcDbPoint
 10
199.7262337182474
 20
116.0097432098993
 30
0.0
  0
POINT
  5
19B5
330
19AC
100
AcDbEntity
  8
Defpoints
 62
     0
100
AcDbPoint
 10
212.716614775014
 20
116.0097432098993
 30
0.0
  0
POINT
  5
19B6
330
19AC
100
AcDbEntity
  8
Defpoints
 62
     0
100
AcDbPoint
 10
212.716614775014
 20
83.76985031794277
 30
0.0
  0
ENDBLK
  5
19B7
330
19AC
100
AcDbEntity
  8
0
370
    30
100
AcDbBlockEnd
  0
BLOCK
  5
19B9
330
19B8
100
AcDbEntity
  8
0
100
AcDbBlockBegin
  2
*D7
 70
     1
 10
0.0
 20
0.0
 30
0.0
  3
*D7
  1
*D16
  0
LINE
  5
19BA
330
19B8
100
AcDbEntity
  8
文字
 62
     0
370
    -2
100
AcDbLine
 10
87.2212500301885
 20
135.0570527207158
 30
0.0
 11
87.2212500301885
 21
147.9015722211
 31
0.0
  0
LINE
  5
19BB
330
19B8
100
AcDbEntity
  8
文字
 62
     0
370
    -2
100
AcDbLine
 10
95.22125003018851
 20
135.0570527207158
 30
0.0
 11
95.22125003018851
 21
147.9015722211
 31
0.0
  0
LINE
  5
19BC
330
19B8
100
AcDbEntity
  8
文字
 62
     0
370
    -2
100
AcDbLine
 10
89.7212500301885
 20
146.6515722211
 30
0.0
 11
92.72125003018851
 21
146.6515722211
 31
0.0
  0
SOLID
  5
19BD
330
19B8
100
AcDbEntity
  8
文字
 62
     0
100
AcDbTrace
 10
89.7212500301885
 20
147.0682388877666
 30
0.0
 11
89.7212500301885
 21
146.2349055544333
 31
0.0
 12
87.2212500301885
 22
146.6515722211
 32
0.0
 13
87.2212500301885
 23
146.6515722211
 33
0.0
  0
SOLID
  5
19BE
330
19B8
100
AcDbEntity
  8
文字
 62
     0
100
AcDbTrace
 10
92.72125003018851
 20
147.0682388877666
 30
0.0
 11
92.72125003018851
 21
146.2349055544333
 31
0.0
 12
95.22125003018851
 22
146.6515722211
 32
0.0
 13
95.22125003018851
 23
146.6515722211
 33
0.0
  0
MTEXT
  5
19BF
330
19B8
100
AcDbEntity
  8
文字
 62
     0
100
AcDbMText
 10
91.22125003018851
 20
148.5265722211
 30
0.0
 40
2.5
 41
0.0
 46
0.0
 71
     5
 72
     1
  1
{\fArial|b0|i0|c0|p32;M}8
 73
     1
 44
1.0
  0
POINT
  5
19C0
330
19B8
100
AcDbEntity
  8
Defpoints
 62
     0
100
AcDbPoint
 10
87.2212500301885
 20
134.4320527207158
 30
0.0
  0
POINT
  5
19C1
330
19B8
100
AcDbEntity
  8
Defpoints
 62
     0
100
AcDbPoint
 10
95.22125003018851
 20
134.4320527207158
 30
0.0
  0
POINT
  5
19C2
330
19B8
100
AcDbEntity
  8
Defpoints
 62
     0
100
AcDbPoint
 10
95.22125003018851
 20
146.6515722211
 30
0.0
  0
ENDBLK
  5
19C3
330
19B8
100
AcDbEntity
  8
0
100
AcDbBlockEnd
  0
BLOCK
  5
19C5
330
19C4
100
AcDbEntity
  8
0
100
AcDbBlockBegin
  2
*D8
 70
     1
 10
0.0
 20
0.0
 30
0.0
  3
*D8
  1
*D17
  0
LINE
  5
19C6
330
19C4
100
AcDbEntity
  8
文字
 62
     0
370
    -2
100
AcDbLine
 10
72.22125003018851
 20
81.72382055485836
 30
0.0
 11
72.22125003018851
 21
61.64683633055239
 31
0.0
  0
LINE
  5
19C7
330
19C4
100
AcDbEntity
  8
文字
 62
     0
370
    -2
100
AcDbLine
 10
110.2212500301885
 20
81.72382055485835
 30
0.0
 11
110.2212500301885
 21
61.64683633055239
 31
0.0
  0
LINE
  5
19C8
330
19C4
100
AcDbEntity
  8
文字
 62
     0
370
    -2
100
AcDbLine
 10
74.72125003018851
 20
62.89683633055239
 30
0.0
 11
107.7212500301885
 21
62.89683633055239
 31
0.0
  0
SOLID
  5
19C9
330
19C4
100
AcDbEntity
  8
文字
 62
     0
100
AcDbTrace
 10
74.72125003018851
 20
63.31350299721905
 30
0.0
 11
74.72125003018851
 21
62.48016966388573
 31
0.0
 12
72.22125003018851
 22
62.89683633055239
 32
0.0
 13
72.22125003018851
 23
62.89683633055239
 33
0.0
  0
SOLID
  5
19CA
330
19C4
100
AcDbEntity
  8
文字
 62
     0
100
AcDbTrace
 10
107.7212500301885
 20
63.31350299721905
 30
0.0
 11
107.7212500301885
 21
62.48016966388573
 31
0.0
 12
110.2212500301885
 22
62.89683633055239
 32
0.0
 13
110.2212500301885
 23
62.89683633055239
 33
0.0
  0
MTEXT
  5
19CB
330
19C4
100
AcDbEntity
  8
文字
 62
     0
100
AcDbMText
 10
91.22125003018851
 20
64.77183633055239
 30
0.0
 40
2.5
 41
0.0
 46
0.0
 71
     5
 72
     1
  1
%%c38
 73
     1
 44
1.0
  0
POINT
  5
19CC
330
19C4
100
AcDbEntity
  8
Defpoints
 62
     0
100
AcDbPoint
 10
72.22125003018851
 20
82.34882055485836
 30
0.0
  0
POINT
  5
19CD
330
19C4
100
AcDbEntity
  8
Defpoints
 62
     0
100
AcDbPoint
 10
110.2212500301885
 20
82.34882055485835
 30
0.0
  0
POINT
  5
19CE
330
19C4
100
AcDbEntity
  8
Defpoints
 62
     0
100
AcDbPoint
 10
110.2212500301885
 20
62.89683633055239
 30
0.0
  0
ENDBLK
  5
19CF
330
19C4
100
AcDbEntity
  8
0
100
AcDbBlockEnd
  0
BLOCK
  5
19D1
330
19D0
100
AcDbEntity
  8
0
100
AcDbBlockBegin
  2
*D9
 70
     1
 10
0.0
 20
0.0
 30
0.0
  3
*D9
  1
*D18
  0
LINE
  5
19D2
330
19D0
100
AcDbEntity
  8
文字
 62
     0
370
    -2
100
AcDbLine
 10
110.8462500301885
 20
82.34882055485835
 30
0.0
 11
126.0779593090463
 21
82.34882055485835
 31
0.0
  0
LINE
  5
19D3
330
19D0
100
AcDbEntity
  8
文字
 62
     0
370
    -2
100
AcDbLine
 10
96.86248092256537
 20
94.93228662189009
 30
0.0
 11
126.0779593090463
 21
94.93228662189009
 31
0.0
  0
LINE
  5
19D4
330
19D0
100
AcDbEntity
  8
文字
 62
     0
370
    -2
100
AcDbLine
 10
124.8279593090463
 20
84.84882055485835
 30
0.0
 11
124.8279593090463
 21
92.43228662189009
 31
0.0
  0
SOLID
  5
19D5
330
19D0
100
AcDbEntity
  8
文字
 62
     0
100
AcDbTrace
 10
124.4112926423796
 20
84.84882055485835
 30
0.0
 11
125.2446259757129
 21
84.84882055485835
 31
0.0
 12
124.8279593090463
 22
82.34882055485835
 32
0.0
 13
124.8279593090463
 23
82.34882055485835
 33
0.0
  0
SOLID
  5
19D6
330
19D0
100
AcDbEntity
  8
文字
 62
     0
100
AcDbTrace
 10
124.4112926423796
 20
92.43228662189009
 30
0.0
 11
125.2446259757129
 21
92.43228662189009
 31
0.0
 12
124.8279593090463
 22
94.93228662189009
 32
0.0
 13
124.8279593090463
 23
94.93228662189009
 33
0.0
  0
MTEXT
  5
19D7
330
19D0
100
AcDbEntity
  8
文字
 62
     0
100
AcDbMText
 10
122.9529593090462
 20
88.64055358837423
 30
0.0
 40
2.5
 41
0.0
 46
0.0
 71
     5
 72
     1
  1
13
 11
6.123031769111886E-17
 21
1.0
 31
0.0
 73
     1
 44
1.0
  0
POINT
  5
19D8
330
19D0
100
AcDbEntity
  8
Defpoints
 62
     0
100
AcDbPoint
 10
110.2212500301885
 20
82.34882055485835
 30
0.0
  0
POINT
  5
19D9
330
19D0
100
AcDbEntity
  8
Defpoints
 62
     0
100
AcDbPoint
 10
96.23748092256537
 20
94.93228662189009
 30
0.0
  0
POINT
  5
19DA
330
19D0
100
AcDbEntity
  8
Defpoints
 62
     0
100
AcDbPoint
 10
124.8279593090463
 20
94.93228662189009
 30
0.0
  0
ENDBLK
  5
19DB
330
19D0
100
AcDbEntity
  8
0
100
AcDbBlockEnd
  0
BLOCK
  5
19DD
330
19DC
100
AcDbEntity
  8
0
100
AcDbBlockBegin
  2
*D10
 70
     1
 10
0.0
 20
0.0
 30
0.0
  3
*D10
  1
*D19
  0
LINE
  5
19DE
330
19DC
100
AcDbEntity
  8
文字
 62
     0
370
    -2
100
AcDbLine
 10
96.86248092256537
 20
94.93228662189009
 30
0.0
 11
126.0779593090463
 21
94.93228662189009
 31
0.0
  0
LINE
  5
19DF
330
19DC
100
AcDbEntity
  8
文字
 62
     0
370
    -2
100
AcDbLine
 10
99.37863313321532
 20
100.4320527207158
 30
0.0
 11
126.0779593090463
 21
100.4320527207158
 31
0.0
  0
LINE
  5
19E0
330
19DC
100
AcDbEntity
  8
文字
 62
     0
370
    -2
100
AcDbLine
 10
124.8279593090463
 20
92.43228662189009
 30
0.0
 11
124.8279593090463
 21
89.93228662189009
 31
0.0
  0
LINE
  5
19E1
330
19DC
100
AcDbEntity
  8
文字
 62
     0
370
    -2
100
AcDbLine
 10
124.8279593090463
 20
102.9320527207158
 30
0.0
 11
124.8279593090463
 21
105.4320527207158
 31
0.0
  0
LINE
  5
19E2
330
19DC
100
AcDbEntity
  8
文字
 62
     0
370
    -2
100
AcDbLine
 10
124.8279593090463
 20
97.68216967130294
 30
0.0
 11
130.7654593090463
 21
99.46341967130294
 31
0.0
  0
LINE
  5
19E3
330
19DC
100
AcDbEntity
  8
文字
 62
     0
370
    -2
100
AcDbLine
 10
130.7654593090463
 20
99.46341967130294
 30
0.0
 11
130.7654593090463
 21
105.7134196713029
 31
0.0
  0
MTEXT
  5
19E4
330
19DC
100
AcDbEntity
  8
文字
 62
     0
100
AcDbMText
 10
128.8904593090463
 20
102.588419671303
 30
0.0
 40
2.5
 41
0.0
 46
0.0
 71
     5
 72
     1
  1
5.5
 11
6.123031769111886E-17
 21
1.0
 31
0.0
 73
     1
 44
1.0
  0
LINE
  5
19E5
330
19DC
100
AcDbEntity
  8
文字
 62
     0
370
    -2
100
AcDbLine
 10
124.8279593090463
 20
94.93228662189009
 30
0.0
 11
124.8279593090463
 21
100.4320527207158
 31
0.0
  0
LINE
  5
19E6
330
19DC
100
AcDbEntity
  8
文字
 62
     0
370
    -2
100
AcDbLine
 10
124.8279593090463
 20
94.93228662189009
 30
0.0
 11
124.8279593090463
 21
100.4320527207158
 31
0.0
  0
SOLID
  5
19E7
330
19DC
100
AcDbEntity
  8
文字
 62
     0
100
AcDbTrace
 10
124.4112926423796
 20
92.43228662189009
 30
0.0
 11
125.2446259757129
 21
92.43228662189009
 31
0.0
 12
124.8279593090463
 22
94.93228662189009
 32
0.0
 13
124.8279593090463
 23
94.93228662189009
 33
0.0
  0
SOLID
  5
19E8
330
19DC
100
AcDbEntity
  8
文字
 62
     0
100
AcDbTrace
 10
124.4112926423796
 20
102.9320527207158
 30
0.0
 11
125.2446259757129
 21
102.9320527207158
 31
0.0
 12
124.8279593090463
 22
100.4320527207158
 32
0.0
 13
124.8279593090463
 23
100.4320527207158
 33
0.0
  0
POINT
  5
19E9
330
19DC
100
AcDbEntity
  8
Defpoints
 62
     0
100
AcDbPoint
 10
96.23748092256537
 20
94.93228662189009
 30
0.0
  0
POINT
  5
19EA
330
19DC
100
AcDbEntity
  8
Defpoints
 62
     0
100
AcDbPoint
 10
98.75363313321532
 20
100.4320527207158
 30
0.0
  0
POINT
  5
19EB
330
19DC
100
AcDbEntity
  8
Defpoints
 62
     0
100
AcDbPoint
 10
124.8279593090463
 20
100.4320527207158
 30
0.0
  0
ENDBLK
  5
19EC
330
19DC
100
AcDbEntity
  8
0
100
AcDbBlockEnd
  0
BLOCK
  5
19EE
330
19ED
100
AcDbEntity
  8
0
100
AcDbBlockBegin
  2
*D11
 70
     1
 10
0.0
 20
0.0
 30
0.0
  3
*D11
  1
*D20
  0
LINE
  5
19EF
330
19ED
100
AcDbEntity
  8
文字
 62
     0
370
    -2
100
AcDbLine
 10
99.37863313321532
 20
100.4320527207158
 30
0.0
 11
126.0779593090463
 21
100.4320527207158
 31
0.0
  0
LINE
  5
19F0
330
19ED
100
AcDbEntity
  8
文字
 62
     0
370
    -2
100
AcDbLine
 10
94.84625003018851
 20
135.4320527207158
 30
0.0
 11
126.0779593090463
 21
135.4320527207158
 31
0.0
  0
LINE
  5
19F1
330
19ED
100
AcDbEntity
  8
文字
 62
     0
370
    -2
100
AcDbLine
 10
124.8279593090463
 20
102.9320527207158
 30
0.0
 11
124.8279593090463
 21
132.9320527207158
 31
0.0
  0
SOLID
  5
19F2
330
19ED
100
AcDbEntity
  8
文字
 62
     0
100
AcDbTrace
 10
124.4112926423796
 20
102.9320527207158
 30
0.0
 11
125.2446259757129
 21
102.9320527207158
 31
0.0
 12
124.8279593090463
 22
100.4320527207158
 32
0.0
 13
124.8279593090463
 23
100.4320527207158
 33
0.0
  0
SOLID
  5
19F3
330
19ED
100
AcDbEntity
  8
文字
 62
     0
100
AcDbTrace
 10
124.4112926423796
 20
132.9320527207158
 30
0.0
 11
125.2446259757129
 21
132.9320527207158
 31
0.0
 12
124.8279593090463
 22
135.4320527207158
 32
0.0
 13
124.8279593090463
 23
135.4320527207158
 33
0.0
  0
MTEXT
  5
19F4
330
19ED
100
AcDbEntity
  8
文字
 62
     0
100
AcDbMText
 10
122.9529593090463
 20
117.9320527207158
 30
0.0
 40
2.5
 41
0.0
 46
0.0
 71
     5
 72
     1
  1
35
 11
6.123031769111886E-17
 21
1.0
 31
0.0
 73
     1
 44
1.0
  0
POINT
  5
19F5
330
19ED
100
AcDbEntity
  8
Defpoints
 62
     0
100
AcDbPoint
 10
98.75363313321532
 20
100.4320527207158
 30
0.0
  0
POINT
  5
19F6
330
19ED
100
AcDbEntity
  8
Defpoints
 62
     0
100
AcDbPoint
 10
94.22125003018851
 20
135.4320527207158
 30
0.0
  0
POINT
  5
19F7
330
19ED
100
AcDbEntity
  8
Defpoints
 62
     0
100
AcDbPoint
 10
124.8279593090463
 20
135.4320527207158
 30
0.0
  0
ENDBLK
  5
19F8
330
19ED
100
AcDbEntity
  8
0
100
AcDbBlockEnd
  0
BLOCK
  5
19FA
330
19F9
100
AcDbEntity
  8
0
100
AcDbBlockBegin
  2
*D12
 70
     1
 10
0.0
 20
0.0
 30
0.0
  3
*D12
  1
*D21
  0
LINE
  5
19FB
330
19F9
100
AcDbEntity
  8
文字
 62
     0
370
    -2
100
AcDbLine
 10
110.8462500301885
 20
82.34882055485835
 30
0.0
 11
141.6100264422735
 21
82.34882055485835
 31
0.0
  0
LINE
  5
19FC
330
19F9
100
AcDbEntity
  8
文字
 62
     0
370
    -2
100
AcDbLine
 10
94.84625003018851
 20
135.4320527207158
 30
0.0
 11
141.6100264422735
 21
135.4320527207158
 31
0.0
  0
LINE
  5
19FD
330
19F9
100
AcDbEntity
  8
文字
 62
     0
370
    -2
100
AcDbLine
 10
140.3600264422735
 20
84.84882055485835
 30
0.0
 11
140.3600264422735
 21
132.9320527207158
 31
0.0
  0
SOLID
  5
19FE
330
19F9
100
AcDbEntity
  8
文字
 62
     0
100
AcDbTrace
 10
139.9433597756068
 20
84.84882055485835
 30
0.0
 11
140.7766931089401
 21
84.84882055485835
 31
0.0
 12
140.3600264422735
 22
82.34882055485835
 32
0.0
 13
140.3600264422735
 23
82.34882055485835
 33
0.0
  0
SOLID
  5
19FF
330
19F9
100
AcDbEntity
  8
文字
 62
     0
100
AcDbTrace
 10
139.9433597756068
 20
132.9320527207158
 30
0.0
 11
140.7766931089401
 21
132.9320527207158
 31
0.0
 12
140.3600264422735
 22
135.4320527207158
 32
0.0
 13
140.3600264422735
 23
135.4320527207158
 33
0.0
  0
MTEXT
  5
1A00
330
19F9
100
AcDbEntity
  8
文字
 62
     0
100
AcDbMText
 10
138.4850264422734
 20
108.8904366377871
 30
0.0
 40
2.5
 41
0.0
 46
0.0
 71
     5
 72
     1
  1
53.5
 11
6.123031769111886E-17
 21
1.0
 31
0.0
 73
     1
 44
1.0
  0
POINT
  5
1A01
330
19F9
100
AcDbEntity
  8
Defpoints
 62
     0
100
AcDbPoint
 10
110.2212500301885
 20
82.34882055485835
 30
0.0
  0
POINT
  5
1A02
330
19F9
100
AcDbEntity
  8
Defpoints
 62
     0
100
AcDbPoint
 10
94.22125003018851
 20
135.4320527207158
 30
0.0
  0
POINT
  5
1A03
330
19F9
100
AcDbEntity
  8
Defpoints
 62
     0
100
AcDbPoint
 10
140.3600264422735
 20
135.4320527207158
 30
0.0
  0
ENDBLK
  5
1A04
330
19F9
100
AcDbEntity
  8
0
100
AcDbBlockEnd
  0
BLOCK
  5
1A4C
330
1A05
100
AcDbEntity
  8
0
 62
     0
100
AcDbBlockBegin
  2
A$C76A36C9E
 70
     0
 10
0.0
 20
0.0
 30
0.0
  3
A$C76A36C9E
  1
A$C76A36C9E
  0
LWPOLYLINE
  5
1A06
330
1A05
100
AcDbEntity
  8
実線
370
    50
100
AcDbPolyline
 90
        6
 70
     0
 43
0.0
 10
-136.9787502058973
 20
95.18495711771044
 10
-136.9787502058973
 20
115.6320525348278
 10
-137.9787502058973
 20
116.6320525348278
 10
-143.9787502058973
 20
116.6320525348278
 10
-144.9787502058973
 20
115.6320525348278
 10
-144.9787502058973
 20
95.18495711771044
  0
LINE
  5
1A07
330
1A05
100
AcDbEntity
  8
実線
370
    20
100
AcDbLine
 10
-137.9787502058973
 20
88.68519101888472
 30
0.0
 11
-137.9787502058973
 21
81.6320525348278
 31
0.0
  0
LINE
  5
1A08
330
1A05
100
AcDbEntity
  8
実線
370
    20
100
AcDbLine
 10
-143.9787502058973
 20
88.68519101888475
 30
0.0
 11
-143.9787502058973
 21
81.6320525348278
 31
0.0
  0
LWPOLYLINE
  5
1A09
330
1A05
100
AcDbEntity
  8
実線
370
    50
100
AcDbPolyline
 90
        4
 70
     0
 43
0.0
 10
-133.4463671028705
 20
89.68495711771044
 10
-133.4463671028705
 20
95.18495711771044
 10
-148.4463671028705
 20
95.18495711771044
 10
-148.4463671028705
 20
89.68495711771044
  0
LINE
  5
1A0A
330
1A05
100
AcDbEntity
  8
実線
370
    50
100
AcDbLine
 10
-144.3456442458684
 20
95.18495711771044
 30
0.0
 11
-144.3456442458684
 21
89.68495711771044
 31
0.0
  0
LINE
  5
1A0B
330
1A05
100
AcDbEntity
  8
実線
370
    50
100
AcDbLine
 10
-137.4873226877818
 20
95.18495711771044
 30
0.0
 11
-137.4873226877818
 21
89.68495711771044
 31
0.0
  0
ARC
  5
1A0C
330
1A05
100
AcDbEntity
  8
実線
370
    50
100
AcDbCircle
 10
-146.3960056743694
 20
91.28535523740777
 30
0.0
 40
2.601010597636193
100
AcDbArc
 50
217.973618634994
 51
322.0263813650058
  0
ARC
  5
1A0D
330
1A05
100
AcDbEntity
  8
実線
370
    50
100
AcDbCircle
 10
-140.916483466825
 20
95.06408242612318
 30
0.0
 40
6.379195304435764
100
AcDbArc
 50
237.4827287485465
 51
302.5172712514534
  0
ARC
  5
1A0E
330
1A05
100
AcDbEntity
  8
実線
370
    50
100
AcDbCircle
 10
-135.4668448953261
 20
91.22496313739819
 30
0.0
 40
2.540462369428222
100
AcDbArc
 50
217.3146110078773
 51
322.6853889921216
  0
LINE
  5
1A0F
330
1A05
100
AcDbEntity
  8
実線
370
    50
100
AcDbLine
 10
-140.9787502058973
 20
88.68519101888472
 30
0.0
 11
-145.9949810982741
 21
88.68519101888472
 31
0.0
  0
LINE
  5
1A10
330
1A05
100
AcDbEntity
  8
実線
370
    50
100
AcDbLine
 10
-140.9787502058976
 20
88.68519101888472
 30
0.0
 11
-135.9625193135205
 21
88.68519101888472
 31
0.0
  0
DIMENSION
  5
1A11
102
{ACAD_REACTORS
330
1A13
102
}
102
{ACAD_XDICTIONARY
360
1A12
102
}
330
1A05
100
AcDbEntity
  8
文字
100
AcDbDimension
280
     0
  2
*D12
 10
-91.83997379381236
 20
116.6320525348278
 30
0.0
 11
-93.71497379381239
 21
90.09043645189911
 31
0.0
 12
-232.2000002360858
 22
-18.80000018588799
 32
0.0
 70
    32
  1
53.5
 71
     5
 42
53.08323216585745
 73
     0
 74
     0
 75
     0
  3
ISO-25
100
AcDbAlignedDimension
 13
-121.9787502058973
 23
63.54882036897036
 33
0.0
 14
-137.9787502058973
 24
116.6320525348278
 34
0.0
 50
90.0
100
AcDbRotatedDimension
  0
LINE
  5
1A14
330
1A05
100
AcDbEntity
  8
中心線
100
AcDbLine
 10
-25.97857598945512
 20
97.20974302401129
 30
0.0
 11
-25.97857598945512
 21
73.28463913907507
 31
0.0
  0
LINE
  5
1A15
330
1A05
100
AcDbEntity
  8
中心線
100
AcDbLine
 10
-25.97857598945512
 20
97.20974302401129
 30
0.0
 11
-25.97857598945512
 21
122.905154338709
 31
0.0
  0
DIMENSION
  5
1A16
102
{ACAD_REACTORS
330
1A18
102
}
102
{ACAD_XDICTIONARY
360
1A17
102
}
330
1A05
100
AcDbEntity
  8
文字
100
AcDbDimension
280
     0
  2
*D11
 10
-107.3720409270395
 20
116.6320525348278
 30
0.0
 11
-109.2470409270396
 21
99.13205253482784
 31
0.0
 12
-232.2000002360858
 22
-18.80000018588799
 32
0.0
 70
    32
 71
     5
 42
35.0
 73
     0
 74
     0
 75
     0
  3
ISO-25
100
AcDbAlignedDimension
 13
-133.4463671028705
 23
81.6320525348278
 33
0.0
 14
-137.9787502058973
 24
116.6320525348278
 34
0.0
 50
90.0
100
AcDbRotatedDimension
1001
ACAD
1000
DSTYLE
1002
{
1070
   279
1070
     1
1002
}
  0
DIMENSION
  5
1A19
102
{ACAD_REACTORS
330
1A1B
102
}
102
{ACAD_XDICTIONARY
360
1A1A
102
}
330
1A05
100
AcDbEntity
  8
文字
100
AcDbDimension
280
     0
  2
*D10
 10
-107.3720409270395
 20
81.6320525348278
 30
0.0
 11
-103.3095409270396
 21
81.28841948541498
 31
0.0
 12
-232.2000002360858
 22
-18.80000018588799
 32
0.0
 70
    32
 71
     5
 42
5.499766098825717
 73
     0
 74
     0
 75
     0
  3
ISO-25
100
AcDbAlignedDimension
 13
-135.9625193135205
 23
76.13228643600209
 33
0.0
 14
-133.4463671028705
 24
81.6320525348278
 34
0.0
 50
90.0
100
AcDbRotatedDimension
1001
ACAD
1000
DSTYLE
1002
{
1070
   279
1070
     1
1002
}
  0
DIMENSION
  5
1A1C
102
{ACAD_REACTORS
330
1A1E
102
}
102
{ACAD_XDICTIONARY
360
1A1D
102
}
330
1A05
100
AcDbEntity
  8
文字
100
AcDbDimension
280
     0
  2
*D9
 10
-107.3720409270396
 20
76.13228643600209
 30
0.0
 11
-109.2470409270396
 21
69.84055340248625
 31
0.0
 12
-232.2000002360858
 22
-18.80000018588799
 32
0.0
 70
    32
  1
13
 71
     5
 42
12.58346606703174
 73
     0
 74
     0
 75
     0
  3
ISO-25
100
AcDbAlignedDimension
 13
-121.9787502058973
 23
63.54882036897036
 33
0.0
 14
-135.9625193135205
 24
76.13228643600209
 34
0.0
 50
90.0
100
AcDbRotatedDimension
  0
DIMENSION
  5
1A1F
330
1A05
100
AcDbEntity
  8
文字
100
AcDbDimension
280
     0
  2
*D8
 10
-121.9787502058973
 20
44.0968361446644
 30
0.0
 11
-140.9787502058973
 21
45.9718361446644
 31
0.0
 12
-232.2000002360858
 22
-18.80000018588799
 32
0.0
 70
    32
  1
%%c<>
 71
     5
 42
38.0
 73
     0
 74
     0
 75
     0
  3
ISO-25
100
AcDbAlignedDimension
 13
-159.9787502058973
 23
63.54882036897038
 33
0.0
 14
-121.9787502058973
 24
63.54882036897036
 34
0.0
100
AcDbRotatedDimension
  0
DIMENSION
  5
1A20
102
{ACAD_REACTORS
330
1A22
102
}
102
{ACAD_XDICTIONARY
360
1A21
102
}
330
1A05
100
AcDbEntity
  8
文字
100
AcDbDimension
280
     0
  2
*D7
 10
-136.9787502058973
 20
127.851572035212
 30
0.0
 11
-140.9787502058973
 21
129.726572035212
 31
0.0
 12
-232.2000002360858
 22
-18.80000018588799
 32
0.0
 70
    32
  1
{\fArial|b0|i0|c0|p32;M}<>
 71
     5
 42
8.000000000000014
 73
     0
 74
     0
 75
     0
  3
ISO-25
100
AcDbAlignedDimension
 13
-144.9787502058973
 23
115.6320525348278
 33
0.0
 14
-136.9787502058973
 24
115.6320525348278
 34
0.0
100
AcDbRotatedDimension
  0
LINE
  5
1A23
102
{ACAD_REACTORS
330
1A18
330
1A13
102
}
330
1A05
100
AcDbEntity
  8
実線
370
    20
100
AcDbLine
 10
-137.9787502058973
 20
116.6320525348278
 30
0.0
 11
-137.9787502058973
 21
95.18495711771044
 31
0.0
  0
LINE
  5
1A24
330
1A05
100
AcDbEntity
  8
実線
370
    20
100
AcDbLine
 10
-143.9787502058973
 20
116.6320525348278
 30
0.0
 11
-143.9787502058973
 21
95.18495711771044
 31
0.0
  0
LINE
  5
1A25
102
{ACAD_REACTORS
330
1A22
102
}
330
1A05
100
AcDbEntity
  8
実線
370
    20
100
AcDbLine
 10
-144.9787502058973
 20
115.6320525348278
 30
0.0
 11
-136.9787502058973
 21
115.6320525348278
 31
0.0
  0
LWPOLYLINE
  5
1A26
330
1A05
100
AcDbEntity
  8
実線
370
    50
100
AcDbPolyline
 90
        4
 70
     0
 43
0.0
 10
-144.9787502058973
 20
88.68519101888472
 10
-144.9787502058973
 20
81.6320525348278
 10
-136.9787502058973
 20
81.6320525348278
 10
-136.9787502058973
 20
88.68519101888472
  0
DIMENSION
  5
1A27
102
{ACAD_REACTORS
330
1A29
102
}
102
{ACAD_XDICTIONARY
360
1A28
102
}
330
1A05
100
AcDbEntity
  8
文字
100
AcDbDimension
280
     0
  2
*D6
 10
-19.48338546107183
 20
64.96985013205477
 30
0.0
 11
-25.79585274975142
 21
64.96985013205477
 31
0.0
 12
-232.2000002360858
 22
-18.80000018588799
 32
0.0
 70
   128
  1
13
 71
     5
 42
12.99038105676658
 73
     0
 74
     0
 75
     0
  3
ISO-25
100
AcDbAlignedDimension
 13
-32.47376651783841
 23
97.20974302401126
 33
0.0
 14
-19.48338546107183
 24
97.20974302401129
 34
0.0
100
AcDbRotatedDimension
  0
DIMENSION
  5
1A2A
102
{ACAD_REACTORS
330
1A2C
102
}
102
{ACAD_XDICTIONARY
360
1A2B
102
}
330
1A05
100
AcDbEntity
  8
文字
100
AcDbDimension
280
     0
  2
*D5
 10
-174.9740745621517
 20
63.54882036897038
 30
0.0
 11
-176.8490745621517
 21
55.84048703563706
 31
0.0
 12
-232.2000002360858
 22
-18.80000018588799
 32
0.0
 70
    32
  1
1.5
 71
     5
 42
1.599999999999994
 73
     0
 74
     0
 75
     0
  3
ISO-25
100
AcDbAlignedDimension
 13
-159.9787502058973
 23
65.14882036897038
 33
0.0
 14
-159.9787502058973
 24
63.54882036897038
 34
0.0
 50
90.0
100
AcDbRotatedDimension
  0
CIRCLE
  5
1A2D
330
1A05
100
AcDbEntity
  8
実線
370
    20
100
AcDbCircle
 10
-25.97857598945512
 20
97.20974302401129
 30
0.0
 40
3.4
  0
CIRCLE
  5
1A2E
330
1A05
100
AcDbEntity
  8
実線
370
    50
100
AcDbCircle
 10
-25.97857598945512
 20
97.20974302401129
 30
0.0
 40
4.0
  0
LWPOLYLINE
  5
1A2F
102
{ACAD_REACTORS
330
1A29
102
}
330
1A05
100
AcDbEntity
  8
実線
370
    50
100
AcDbPolyline
 90
        6
 70
     1
 43
0.0
 10
-19.48338546107183
 20
100.9597430240113
 10
-25.97857598945512
 20
104.7097430240113
 10
-32.47376651783841
 20
100.9597430240113
 10
-32.47376651783841
 20
93.45974302401126
 10
-25.97857598945512
 20
89.70974302401126
 10
-19.48338546107183
 20
93.45974302401126
  0
DIMENSION
  5
1A30
102
{ACAD_REACTORS
330
1A32
102
}
102
{ACAD_XDICTIONARY
360
1A31
102
}
330
1A05
100
AcDbEntity
  8
文字
100
AcDbDimension
280
     0
  2
*D4
 10
-11.97857598945512
 20
57.36396220779807
 30
0.0
 11
-25.97857598945512
 21
59.23896220779807
 31
0.0
 12
-232.2000002360858
 22
-18.80000018588799
 32
0.0
 70
    32
  1
%%c<>
 71
     5
 42
28.0
 73
     0
 74
     0
 75
     0
  3
ISO-25
100
AcDbAlignedDimension
 13
-39.97857598945512
 23
97.20974302401129
 33
0.0
 14
-11.97857598945512
 24
97.20974302401129
 34
0.0
100
AcDbRotatedDimension
  0
ARC
  5
1A33
330
1A05
100
AcDbEntity
  8
実線
370
    50
100
AcDbCircle
 10
-140.9787502058973
 20
62.86352625132333
 30
0.0
 40
14.18529411764706
100
AcDbArc
 50
110.7090084471018
 51
164.6470298493059
  0
LINE
  5
1A34
102
{ACAD_REACTORS
330
1A1E
330
1A1B
102
}
330
1A05
100
AcDbEntity
  8
実線
370
    50
100
AcDbLine
 10
-140.9787502058976
 20
76.13228643600209
 30
0.0
 11
-135.9625193135205
 21
76.13228643600209
 31
0.0
  0
LINE
  5
1A35
330
1A05
100
AcDbEntity
  8
実線
370
    50
100
AcDbLine
 10
-140.9787502058973
 20
76.13228643600209
 30
0.0
 11
-145.9949810982741
 21
76.13228643600209
 31
0.0
  0
ARC
  5
1A36
330
1A05
100
AcDbEntity
  8
実線
370
    50
100
AcDbCircle
 10
-135.4668448953261
 20
78.67205855451556
 30
0.0
 40
2.540462369428222
100
AcDbArc
 50
217.3146110078773
 51
322.6853889921216
  0
ARC
  5
1A37
330
1A05
100
AcDbEntity
  8
実線
370
    50
100
AcDbCircle
 10
-140.916483466825
 20
82.51117784324055
 30
0.0
 40
6.379195304435764
100
AcDbArc
 50
237.4827287485465
 51
302.5172712514534
  0
ARC
  5
1A38
330
1A05
100
AcDbEntity
  8
実線
370
    50
100
AcDbCircle
 10
-146.3960056743694
 20
78.73245065452514
 30
0.0
 40
2.601010597636193
100
AcDbArc
 50
217.973618634994
 51
322.0263813650058
  0
LINE
  5
1A39
330
1A05
100
AcDbEntity
  8
実線
370
    50
100
AcDbLine
 10
-137.4873226877818
 20
81.6320525348278
 30
0.0
 11
-137.4873226877818
 21
77.1320525348278
 31
0.0
  0
LINE
  5
1A3A
330
1A05
100
AcDbEntity
  8
実線
370
    50
100
AcDbLine
 10
-144.3456442458684
 20
81.6320525348278
 30
0.0
 11
-144.3456442458684
 21
77.1320525348278
 31
0.0
  0
LWPOLYLINE
  5
1A3B
102
{ACAD_REACTORS
330
1A1B
330
1A18
102
}
330
1A05
100
AcDbEntity
  8
実線
370
    50
100
AcDbPolyline
 90
        4
 70
     0
 43
0.0
 10
-133.4463671028705
 20
77.1320525348278
 10
-133.4463671028705
 20
81.6320525348278
 10
-148.4463671028705
 20
81.6320525348278
 10
-148.4463671028705
 20
77.1320525348278
  0
LINE
  5
1A3C
102
{ACAD_REACTORS
330
1A29
102
}
330
1A05
100
AcDbEntity
  8
中心線
100
AcDbLine
 10
-56.39333659375262
 20
97.20974302401129
 30
0.0
 11
-16.39090544331049
 21
97.20974302401129
 31
0.0
  0
LINE
  5
1A3D
330
1A05
100
AcDbEntity
  8
実線
370
    50
100
AcDbLine
 10
-156.4653650853308
 20
65.14882036897038
 30
0.0
 11
-125.371059793796
 21
65.14882036897035
 31
0.0
  0
LINE
  5
1A3E
330
1A05
100
AcDbEntity
  8
中心線
100
AcDbLine
 10
-16.39090544331049
 20
97.20974302401129
 30
0.0
 11
4.251392774196745
 21
97.20974302401129
 31
0.0
  0
CIRCLE
  5
1A3F
330
1A05
100
AcDbEntity
  8
実線
370
    50
100
AcDbCircle
 10
-25.97857598945512
 20
97.20974302401129
 30
0.0
 40
19.0
  0
CIRCLE
  5
1A40
102
{ACAD_REACTORS
330
1A32
102
}
330
1A05
100
AcDbEntity
  8
実線
370
    50
100
AcDbCircle
 10
-25.97857598945512
 20
97.20974302401129
 30
0.0
 40
14.0
  0
ARC
  5
1A41
330
1A05
100
AcDbEntity
  8
実線
370
    50
100
AcDbCircle
 10
-125.371059793796
 20
67.14882036897038
 30
0.0
 40
2.0
100
AcDbArc
 50
195.3529701506943
 51
270.0
  0
LINE
  5
1A42
330
1A05
100
AcDbEntity
  8
実線
370
    50
100
AcDbLine
 10
-125.371059793796
 20
65.14882036897035
 30
0.0
 11
-121.9787502058973
 21
65.14882036897035
 31
0.0
  0
ARC
  5
1A43
330
1A05
100
AcDbEntity
  8
実線
370
    50
100
AcDbCircle
 10
-156.5864406179986
 20
67.14882036897038
 30
0.0
 40
2.0
100
AcDbArc
 50
270.0
 51
344.6470298493056
  0
ARC
  5
1A44
102
{ACAD_REACTORS
330
1A1E
330
1A1B
102
}
330
1A05
100
AcDbEntity
  8
実線
370
    50
100
AcDbCircle
 10
-140.9787502058973
 20
62.86352625132333
 30
0.0
 40
14.18529411764706
100
AcDbArc
 50
15.35297015069416
 51
69.29099155289825
  0
LINE
  5
1A45
330
1A05
100
AcDbEntity
  8
実線
370
    50
100
AcDbLine
 10
-156.4653650853308
 20
65.14882036897038
 30
0.0
 11
-156.5864406179986
 21
65.14882036897038
 31
0.0
  0
LINE
  5
1A46
102
{ACAD_REACTORS
330
1A2C
102
}
330
1A05
100
AcDbEntity
  8
実線
370
    50
100
AcDbLine
 10
-159.9787502058973
 20
65.14882036897038
 30
0.0
 11
-156.4653650853308
 21
65.14882036897038
 31
0.0
  0
LINE
  5
1A47
330
1A05
100
AcDbEntity
  8
中心線
100
AcDbLine
 10
-140.9787502058973
 20
52.63205253482781
 30
0.0
 11
-140.9787502058973
 21
125.3376695381868
 31
0.0
  0
LINE
  5
1A48
102
{ACAD_REACTORS
330
1A1E
330
1A13
102
}
330
1A05
100
AcDbEntity
  8
実線
370
    50
100
AcDbLine
 10
-121.9787502058973
 20
65.14882036897035
 30
0.0
 11
-121.9787502058973
 21
63.54882036897036
 31
0.0
  0
LINE
  5
1A49
102
{ACAD_REACTORS
330
1A2C
102
}
330
1A05
100
AcDbEntity
  8
実線
370
    50
100
AcDbLine
 10
-159.9787502058973
 20
63.54882036897038
 30
0.0
 11
-159.9787502058973
 21
65.14882036897038
 31
0.0
  0
LINE
  5
1A4A
330
1A05
100
AcDbEntity
  8
実線
370
    50
100
AcDbLine
 10
-121.9787502058973
 20
63.54882036897036
 30
0.0
 11
-159.9787502058973
 21
63.54882036897038
 31
0.0
  0
TEXT
  5
1A4B
330
1A05
100
AcDbEntity
  8
文字
100
AcDbText
 10
2.672502397611936
 20
1.442331116837359
 30
0.0
 40
3.0
  1
ＳＵＳ304Ｊ3
100
AcDbText
  0
ENDBLK
  5
1A4D
330
1A05
100
AcDbEntity
  8
0
 62
     0
100
AcDbBlockEnd
  0
BLOCK
  5
1B7A
330
1B70
100
AcDbEntity
  8
0
 62
     1
100
AcDbBlockBegin
  2
*D14
 70
     1
 10
0.0
 20
0.0
 30
0.0
  3
*D14
  1
*D31
  0
LINE
  5
1B71
330
1B70
100
AcDbEntity
  8
文字
 62
     0
370
    -2
100
AcDbLine
 10
51.28131399998713
 20
59.11887682616097
 30
0.0
 11
40.07090878178428
 21
59.11887682616098
 31
0.0
  0
LINE
  5
1B72
330
1B70
100
AcDbEntity
  8
文字
 62
     0
370
    -2
100
AcDbLine
 10
51.28131399998713
 20
51.11887682616097
 30
0.0
 11
40.07090878178428
 21
51.11887682616098
 31
0.0
  0
LINE
  5
1B73
330
1B70
100
AcDbEntity
  8
文字
 62
     0
370
    -2
100
AcDbLine
 10
41.32090878178428
 20
56.61887682616098
 30
0.0
 11
41.32090878178428
 21
53.61887682616098
 31
0.0
  0
SOLID
  5
1B74
330
1B70
100
AcDbEntity
  8
文字
 62
     0
100
AcDbTrace
 10
40.90424211511762
 20
56.61887682616098
 30
0.0
 11
41.73757544845095
 21
56.61887682616098
 31
0.0
 12
41.32090878178428
 22
59.11887682616098
 32
0.0
 13
41.32090878178428
 23
59.11887682616098
 33
0.0
  0
SOLID
  5
1B75
330
1B70
100
AcDbEntity
  8
文字
 62
     0
100
AcDbTrace
 10
40.90424211511762
 20
53.61887682616098
 30
0.0
 11
41.73757544845095
 21
53.61887682616098
 31
0.0
 12
41.32090878178428
 22
51.11887682616098
 32
0.0
 13
41.32090878178428
 23
51.11887682616098
 33
0.0
  0
MTEXT
  5
1B76
330
1B70
100
AcDbEntity
  8
文字
 62
     0
100
AcDbMText
 10
39.44590878178427
 20
55.11887682616099
 30
0.0
 40
2.5
 41
0.0
 46
0.0
 71
     5
 72
     1
  1
8
 11
6.123031769111886E-17
 21
1.0
 31
0.0
 73
     1
 44
1.0
  0
POINT
  5
1B77
330
1B70
100
AcDbEntity
  8
Defpoints
 62
     0
100
AcDbPoint
 10
51.90631399998713
 20
59.11887682616097
 30
0.0
  0
POINT
  5
1B78
330
1B70
100
AcDbEntity
  8
Defpoints
 62
     0
100
AcDbPoint
 10
51.90631399998713
 20
51.11887682616097
 30
0.0
  0
POINT
  5
1B79
330
1B70
100
AcDbEntity
  8
Defpoints
 62
     0
100
AcDbPoint
 10
41.32090878178428
 20
51.11887682616098
 30
0.0
  0
ENDBLK
  5
1B7B
330
1B70
100
AcDbEntity
  8
0
 62
     1
100
AcDbBlockEnd
  0
BLOCK
  5
1B86
330
1B7C
100
AcDbEntity
  8
0
 62
     1
100
AcDbBlockBegin
  2
*D15
 70
     1
 10
0.0
 20
0.0
 30
0.0
  3
*D15
  1
*D32
  0
LINE
  5
1BC4
330
1B7C
100
AcDbEntity
  8
文字
 62
     0
370
    -2
100
AcDbLine
 10
102.8592444460263
 20
76.11887566945396
 30
0.0
 11
143.3794460277643
 21
76.11887566945396
 31
0.0
  0
LINE
  5
1BC5
330
1B7C
100
AcDbEntity
  8
文字
 62
     0
370
    -2
100
AcDbLine
 10
132.5313139999875
 20
51.11887682616097
 30
0.0
 11
143.3794460277642
 21
51.11887682616097
 31
0.0
  0
LINE
  5
1BC6
330
1B7C
100
AcDbEntity
  8
文字
 62
     0
370
    -2
100
AcDbLine
 10
142.1294460277643
 20
73.61887566945396
 30
0.0
 11
142.1294460277642
 21
53.61887682616097
 31
0.0
  0
SOLID
  5
1BC7
330
1B7C
100
AcDbEntity
  8
文字
 62
     0
100
AcDbTrace
 10
141.7127793610976
 20
73.61887566945396
 30
0.0
 11
142.5461126944309
 21
73.61887566945396
 31
0.0
 12
142.1294460277643
 22
76.11887566945396
 32
0.0
 13
142.1294460277643
 23
76.11887566945396
 33
0.0
  0
SOLID
  5
1BC8
330
1B7C
100
AcDbEntity
  8
文字
 62
     0
100
AcDbTrace
 10
141.7127793610976
 20
53.61887682616097
 30
0.0
 11
142.5461126944309
 21
53.61887682616097
 31
0.0
 12
142.1294460277642
 22
51.11887682616097
 32
0.0
 13
142.1294460277642
 23
51.11887682616097
 33
0.0
  0
MTEXT
  5
1BC9
330
1B7C
100
AcDbEntity
  8
文字
 62
     0
100
AcDbMText
 10
140.2544460277642
 20
63.61887624780748
 30
0.0
 40
2.5
 41
0.0
 46
0.0
 71
     5
 72
     1
  1
25
 11
6.123031769111886E-17
 21
1.0
 31
0.0
 73
     1
 44
1.0
  0
POINT
  5
1BCA
330
1B7C
100
AcDbEntity
  8
Defpoints
 62
     0
100
AcDbPoint
 10
102.2342444460263
 20
76.11887566945396
 30
0.0
  0
POINT
  5
1BCB
330
1B7C
100
AcDbEntity
  8
Defpoints
 62
     0
100
AcDbPoint
 10
131.9063139999875
 20
51.11887682616097
 30
0.0
  0
POINT
  5
1BCC
330
1B7C
100
AcDbEntity
  8
Defpoints
 62
     0
100
AcDbPoint
 10
142.1294460277642
 20
51.11887682616097
 30
0.0
  0
ENDBLK
  5
1B87
330
1B7C
100
AcDbEntity
  8
0
 62
     1
100
AcDbBlockEnd
  0
BLOCK
  5
1B92
330
1B88
100
AcDbEntity
  8
0
 62
     1
100
AcDbBlockBegin
  2
*D16
 70
     1
 10
0.0
 20
0.0
 30
0.0
  3
*D16
  1
*D33
  0
LINE
  5
1C6F
330
1B88
100
AcDbEntity
  8
文字
 62
     0
370
    -2
100
AcDbLine
 10
83.90631399998713
 20
184.743876826161
 30
0.0
 11
83.90631399998713
 21
199.346883388827
 31
0.0
  0
LINE
  5
1C70
330
1B88
100
AcDbEntity
  8
文字
 62
     0
370
    -2
100
AcDbLine
 10
99.90631399998713
 20
184.743876826161
 30
0.0
 11
99.90631399998713
 21
199.346883388827
 31
0.0
  0
LINE
  5
1C71
330
1B88
100
AcDbEntity
  8
文字
 62
     0
370
    -2
100
AcDbLine
 10
86.40631399998713
 20
198.096883388827
 30
0.0
 11
97.40631399998713
 21
198.096883388827
 31
0.0
  0
SOLID
  5
1C72
330
1B88
100
AcDbEntity
  8
文字
 62
     0
100
AcDbTrace
 10
86.40631399998713
 20
198.5135500554937
 30
0.0
 11
86.40631399998713
 21
197.6802167221603
 31
0.0
 12
83.90631399998713
 22
198.096883388827
 32
0.0
 13
83.90631399998713
 23
198.096883388827
 33
0.0
  0
SOLID
  5
1C73
330
1B88
100
AcDbEntity
  8
文字
 62
     0
100
AcDbTrace
 10
97.40631399998713
 20
198.5135500554937
 30
0.0
 11
97.40631399998713
 21
197.6802167221603
 31
0.0
 12
99.90631399998713
 22
198.096883388827
 32
0.0
 13
99.90631399998713
 23
198.096883388827
 33
0.0
  0
MTEXT
  5
1C74
330
1B88
100
AcDbEntity
  8
文字
 62
     0
100
AcDbMText
 10
91.90631399998713
 20
199.971883388827
 30
0.0
 40
2.5
 41
0.0
 46
0.0
 71
     5
 72
     1
  1
M16
 73
     1
 44
1.0
  0
POINT
  5
1C75
330
1B88
100
AcDbEntity
  8
Defpoints
 62
     0
100
AcDbPoint
 10
83.90631399998713
 20
184.118876826161
 30
0.0
  0
POINT
  5
1C76
330
1B88
100
AcDbEntity
  8
Defpoints
 62
     0
100
AcDbPoint
 10
99.90631399998713
 20
184.118876826161
 30
0.0
  0
POINT
  5
1C77
330
1B88
100
AcDbEntity
  8
Defpoints
 62
     0
100
AcDbPoint
 10
99.90631399998713
 20
198.096883388827
 30
0.0
  0
ENDBLK
  5
1B93
330
1B88
100
AcDbEntity
  8
0
 62
     1
100
AcDbBlockEnd
  0
BLOCK
  5
1B9E
330
1B94
100
AcDbEntity
  8
0
 62
     1
100
AcDbBlockBegin
  2
*D17
 70
     1
 10
0.0
 20
0.0
 30
0.0
  3
*D17
  1
*D34
  0
LINE
  5
1BE6
330
1B94
100
AcDbEntity
  8
文字
 62
     0
370
    -2
100
AcDbLine
 10
219.0246179181684
 20
103.5186068909871
 30
0.0
 11
219.0246179181684
 21
60.07212657630431
 31
0.0
  0
LINE
  5
1BE7
330
1B94
100
AcDbEntity
  8
文字
 62
     0
370
    -2
100
AcDbLine
 10
243.0135216029973
 20
103.518606890987
 30
0.0
 11
243.0135216029973
 21
60.07212657630431
 31
0.0
  0
LINE
  5
1BE8
330
1B94
100
AcDbEntity
  8
文字
 62
     0
370
    -2
100
AcDbLine
 10
221.5246179181684
 20
61.32212657630431
 30
0.0
 11
240.5135216029973
 21
61.32212657630431
 31
0.0
  0
SOLID
  5
1BE9
330
1B94
100
AcDbEntity
  8
文字
 62
     0
100
AcDbTrace
 10
221.5246179181684
 20
61.73879324297098
 30
0.0
 11
221.5246179181684
 21
60.90545990963765
 31
0.0
 12
219.0246179181684
 22
61.32212657630431
 32
0.0
 13
219.0246179181684
 23
61.32212657630431
 33
0.0
  0
SOLID
  5
1BEA
330
1B94
100
AcDbEntity
  8
文字
 62
     0
100
AcDbTrace
 10
240.5135216029973
 20
61.73879324297098
 30
0.0
 11
240.5135216029973
 21
60.90545990963765
 31
0.0
 12
243.0135216029973
 22
61.32212657630431
 32
0.0
 13
243.0135216029973
 23
61.32212657630431
 33
0.0
  0
MTEXT
  5
1BEB
330
1B94
100
AcDbEntity
  8
文字
 62
     0
100
AcDbMText
 10
231.0190697605829
 20
63.19712657630431
 30
0.0
 40
2.5
 41
0.0
 46
0.0
 71
     5
 72
     1
  1
24
 73
     1
 44
1.0
  0
POINT
  5
1BEC
330
1B94
100
AcDbEntity
  8
Defpoints
 62
     0
100
AcDbPoint
 10
219.0246179181684
 20
104.1436068909871
 30
0.0
  0
POINT
  5
1BED
330
1B94
100
AcDbEntity
  8
Defpoints
 62
     0
100
AcDbPoint
 10
243.0135216029973
 20
104.143606890987
 30
0.0
  0
POINT
  5
1BEE
330
1B94
100
AcDbEntity
  8
Defpoints
 62
     0
100
AcDbPoint
 10
243.0135216029973
 20
61.32212657630431
 30
0.0
  0
ENDBLK
  5
1B9F
330
1B94
100
AcDbEntity
  8
0
 62
     1
100
AcDbBlockEnd
  0
BLOCK
  5
1BAA
330
1BA0
100
AcDbEntity
  8
0
 62
     1
100
AcDbBlockBegin
  2
*D18
 70
     1
 10
0.0
 20
0.0
 30
0.0
  3
*D18
  1
*D35
  0
LINE
  5
1C9D
330
1BA0
100
AcDbEntity
  8
文字
 62
     0
370
    -2
100
AcDbLine
 10
98.53131399998713
 20
186.1188768261609
 30
0.0
 11
143.3794460277638
 21
186.1188768261609
 31
0.0
  0
LINE
  5
1C9E
330
1BA0
100
AcDbEntity
  8
文字
 62
     0
370
    -2
100
AcDbLine
 10
106.3813139999871
 20
86.11887682616097
 30
0.0
 11
143.3794460277638
 21
86.11887682616097
 31
0.0
  0
LINE
  5
1C9F
330
1BA0
100
AcDbEntity
  8
文字
 62
     0
370
    -2
100
AcDbLine
 10
142.1294460277638
 20
183.6188768261609
 30
0.0
 11
142.1294460277638
 21
88.61887682616097
 31
0.0
  0
SOLID
  5
1CA0
330
1BA0
100
AcDbEntity
  8
文字
 62
     0
100
AcDbTrace
 10
141.7127793610972
 20
183.6188768261609
 30
0.0
 11
142.5461126944305
 21
183.6188768261609
 31
0.0
 12
142.1294460277638
 22
186.1188768261609
 32
0.0
 13
142.1294460277638
 23
186.1188768261609
 33
0.0
  0
SOLID
  5
1CA1
330
1BA0
100
AcDbEntity
  8
文字
 62
     0
100
AcDbTrace
 10
141.7127793610972
 20
88.61887682616097
 30
0.0
 11
142.5461126944305
 21
88.61887682616097
 31
0.0
 12
142.1294460277638
 22
86.11887682616097
 32
0.0
 13
142.1294460277638
 23
86.11887682616097
 33
0.0
  0
MTEXT
  5
1CA2
330
1BA0
100
AcDbEntity
  8
文字
 62
     0
100
AcDbMText
 10
140.2544460277638
 20
136.118876826161
 30
0.0
 40
2.5
 41
0.0
 46
0.0
 71
     5
 72
     1
  1
130
 11
6.123031769111886E-17
 21
1.0
 31
0.0
 73
     1
 44
1.0
  0
POINT
  5
1CA3
330
1BA0
100
AcDbEntity
  8
Defpoints
 62
     0
100
AcDbPoint
 10
97.90631399998713
 20
186.1188768261609
 30
0.0
  0
POINT
  5
1CA4
330
1BA0
100
AcDbEntity
  8
Defpoints
 62
     0
100
AcDbPoint
 10
105.7563139999871
 20
86.11887682616097
 30
0.0
  0
POINT
  5
1CA5
330
1BA0
100
AcDbEntity
  8
Defpoints
 62
     0
100
AcDbPoint
 10
142.1294460277638
 20
86.11887682616097
 30
0.0
  0
ENDBLK
  5
1BAB
330
1BA0
100
AcDbEntity
  8
0
 62
     1
100
AcDbBlockEnd
  0
BLOCK
  5
1BB6
330
1BAC
100
AcDbEntity
  8
0
 62
     1
100
AcDbBlockBegin
  2
*D19
 70
     1
 10
0.0
 20
0.0
 30
0.0
  3
*D19
  1
*D36
  0
LINE
  5
1BAD
330
1BAC
100
AcDbEntity
  8
文字
 62
     0
370
    -2
100
AcDbLine
 10
106.3813139999871
 20
86.11887682616097
 30
0.0
 11
143.3794460277638
 21
86.11887682616097
 31
0.0
  0
LINE
  5
1BAE
330
1BAC
100
AcDbEntity
  8
文字
 62
     0
370
    -2
100
AcDbLine
 10
102.3618157985835
 20
76.11917800378635
 30
0.0
 11
143.3794460277638
 21
76.11917800378635
 31
0.0
  0
LINE
  5
1BAF
330
1BAC
100
AcDbEntity
  8
文字
 62
     0
370
    -2
100
AcDbLine
 10
142.1294460277638
 20
83.61887682616097
 30
0.0
 11
142.1294460277638
 21
78.61917800378635
 31
0.0
  0
SOLID
  5
1BB0
330
1BAC
100
AcDbEntity
  8
文字
 62
     0
100
AcDbTrace
 10
142.5461126944305
 20
83.61887682616097
 30
0.0
 11
141.7127793610971
 21
83.61887682616097
 31
0.0
 12
142.1294460277638
 22
86.11887682616097
 32
0.0
 13
142.1294460277638
 23
86.11887682616097
 33
0.0
  0
SOLID
  5
1BB1
330
1BAC
100
AcDbEntity
  8
文字
 62
     0
100
AcDbTrace
 10
141.7127793610971
 20
78.61917800378635
 30
0.0
 11
142.5461126944305
 21
78.61917800378635
 31
0.0
 12
142.1294460277638
 22
76.11917800378635
 32
0.0
 13
142.1294460277638
 23
76.11917800378635
 33
0.0
  0
MTEXT
  5
1BB2
330
1BAC
100
AcDbEntity
  8
文字
 62
     0
100
AcDbMText
 10
140.2544460277638
 20
81.11902741497366
 30
0.0
 40
2.5
 41
0.0
 46
0.0
 71
     5
 72
     1
  1
10
 11
0.0
 21
1.0
 31
0.0
 73
     1
 44
1.0
  0
POINT
  5
1BB3
330
1BAC
100
AcDbEntity
  8
Defpoints
 62
     0
100
AcDbPoint
 10
105.7563139999871
 20
86.11887682616097
 30
0.0
  0
POINT
  5
1BB4
330
1BAC
100
AcDbEntity
  8
Defpoints
 62
     0
100
AcDbPoint
 10
101.7368157985835
 20
76.11917800378635
 30
0.0
  0
POINT
  5
1BB5
330
1BAC
100
AcDbEntity
  8
Defpoints
 62
     0
100
AcDbPoint
 10
142.1294460277638
 20
76.11917800378635
 30
0.0
  0
ENDBLK
  5
1BB7
330
1BAC
100
AcDbEntity
  8
0
 62
     1
100
AcDbBlockEnd
  0
BLOCK
  5
1BC2
330
1BB8
100
AcDbEntity
  8
0
 62
     1
100
AcDbBlockBegin
  2
*D20
 70
     1
 10
0.0
 20
0.0
 30
0.0
  3
*D20
  1
*D37
  0
LINE
  5
1BB9
330
1BB8
100
AcDbEntity
  8
文字
 62
     0
370
    -2
100
AcDbLine
 10
51.90631399998713
 20
50.49387682616097
 30
0.0
 11
51.90631399998713
 21
31.98754939019736
 31
0.0
  0
LINE
  5
1BBA
330
1BB8
100
AcDbEntity
  8
文字
 62
     0
370
    -2
100
AcDbLine
 10
131.9063139999871
 20
50.49387682616097
 30
0.0
 11
131.9063139999871
 21
31.98754939019736
 31
0.0
  0
LINE
  5
1BBB
330
1BB8
100
AcDbEntity
  8
文字
 62
     0
370
    -2
100
AcDbLine
 10
54.40631399998713
 20
33.23754939019736
 30
0.0
 11
129.4063139999871
 21
33.23754939019736
 31
0.0
  0
SOLID
  5
1BBC
330
1BB8
100
AcDbEntity
  8
文字
 62
     0
100
AcDbTrace
 10
54.40631399998713
 20
33.65421605686402
 30
0.0
 11
54.40631399998713
 21
32.82088272353069
 31
0.0
 12
51.90631399998713
 22
33.23754939019736
 32
0.0
 13
51.90631399998713
 23
33.23754939019736
 33
0.0
  0
SOLID
  5
1BBD
330
1BB8
100
AcDbEntity
  8
文字
 62
     0
100
AcDbTrace
 10
129.4063139999871
 20
33.65421605686402
 30
0.0
 11
129.4063139999871
 21
32.82088272353069
 31
0.0
 12
131.9063139999871
 22
33.23754939019736
 32
0.0
 13
131.9063139999871
 23
33.23754939019736
 33
0.0
  0
MTEXT
  5
1BBE
330
1BB8
100
AcDbEntity
  8
文字
 62
     0
100
AcDbMText
 10
91.90631399998713
 20
35.11254939019736
 30
0.0
 40
2.5
 41
0.0
 46
0.0
 71
     5
 72
     1
  1
%%c80
 73
     1
 44
1.0
  0
POINT
  5
1BBF
330
1BB8
100
AcDbEntity
  8
Defpoints
 62
     0
100
AcDbPoint
 10
51.90631399998713
 20
51.11887682616097
 30
0.0
  0
POINT
  5
1BC0
330
1BB8
100
AcDbEntity
  8
Defpoints
 62
     0
100
AcDbPoint
 10
131.9063139999871
 20
51.11887682616097
 30
0.0
  0
POINT
  5
1BC1
330
1BB8
100
AcDbEntity
  8
Defpoints
 62
     0
100
AcDbPoint
 10
131.9063139999871
 20
33.23754939019736
 30
0.0
  0
ENDBLK
  5
1BC3
330
1BB8
100
AcDbEntity
  8
0
 62
     1
100
AcDbBlockEnd
  0
BLOCK
  5
1C1F
330
1C15
100
AcDbEntity
  8
0
100
AcDbBlockBegin
  2
*D21
 70
     1
 10
0.0
 20
0.0
 30
0.0
  3
*D21
  1
*D40
  0
LINE
  5
1CA6
330
1C15
100
AcDbEntity
  8
文字
 62
     0
370
    -2
100
AcDbLine
 10
132.5313139999871
 20
51.11887682616097
 30
0.0
 11
150.1753132160715
 21
51.11887682616096
 31
0.0
  0
LINE
  5
1CA7
330
1C15
100
AcDbEntity
  8
文字
 62
     0
370
    -2
100
AcDbLine
 10
98.53131399998713
 20
186.1188768261609
 30
0.0
 11
150.1753132160716
 21
186.1188768261609
 31
0.0
  0
LINE
  5
1CA8
330
1C15
100
AcDbEntity
  8
文字
 62
     0
370
    -2
100
AcDbLine
 10
148.9253132160715
 20
53.61887682616096
 30
0.0
 11
148.9253132160716
 21
183.6188768261609
 31
0.0
  0
SOLID
  5
1CA9
330
1C15
100
AcDbEntity
  8
文字
 62
     0
100
AcDbTrace
 10
148.5086465494049
 20
53.61887682616096
 30
0.0
 11
149.3419798827382
 21
53.61887682616096
 31
0.0
 12
148.9253132160715
 22
51.11887682616096
 32
0.0
 13
148.9253132160715
 23
51.11887682616096
 33
0.0
  0
SOLID
  5
1CAA
330
1C15
100
AcDbEntity
  8
文字
 62
     0
100
AcDbTrace
 10
148.5086465494049
 20
183.6188768261609
 30
0.0
 11
149.3419798827382
 21
183.6188768261609
 31
0.0
 12
148.9253132160716
 22
186.1188768261609
 32
0.0
 13
148.9253132160716
 23
186.1188768261609
 33
0.0
  0
MTEXT
  5
1CAB
330
1C15
100
AcDbEntity
  8
文字
 62
     0
100
AcDbMText
 10
147.0503132160715
 20
118.618876826161
 30
0.0
 40
2.5
 41
0.0
 46
0.0
 71
     5
 72
     1
  1
165
 11
6.123031769111886E-17
 21
1.0
 31
0.0
 73
     1
 44
1.0
  0
POINT
  5
1CAC
330
1C15
100
AcDbEntity
  8
Defpoints
 62
     0
100
AcDbPoint
 10
131.9063139999871
 20
51.11887682616097
 30
0.0
  0
POINT
  5
1CAD
330
1C15
100
AcDbEntity
  8
Defpoints
 62
     0
100
AcDbPoint
 10
97.90631399998713
 20
186.1188768261609
 30
0.0
  0
POINT
  5
1CAE
330
1C15
100
AcDbEntity
  8
Defpoints
 62
     0
100
AcDbPoint
 10
148.9253132160716
 20
186.1188768261609
 30
0.0
  0
ENDBLK
  5
1C20
330
1C15
100
AcDbEntity
  8
0
100
AcDbBlockEnd
  0
BLOCK
  5
1D39
330
1D38
100
AcDbEntity
  8
0
 62
     1
100
AcDbBlockBegin
  2
*D22
 70
     1
 10
0.0
 20
0.0
 30
0.0
  3
*D22
  1
*D31
  0
LINE
  5
1D3A
330
1D38
100
AcDbEntity
  8
文字
 62
     0
370
    -2
100
AcDbLine
 10
13.08540521820284
 20
29.02563214192818
 30
0.0
 11
1.875
 21
29.02563214192818
 31
0.0
  0
LINE
  5
1D3B
330
1D38
100
AcDbEntity
  8
文字
 62
     0
370
    -2
100
AcDbLine
 10
13.08540521820284
 20
21.02563214192818
 30
0.0
 11
1.875
 21
21.02563214192818
 31
0.0
  0
LINE
  5
1D3C
330
1D38
100
AcDbEntity
  8
文字
 62
     0
370
    -2
100
AcDbLine
 10
3.125
 20
26.52563214192818
 30
0.0
 11
3.125
 21
23.52563214192818
 31
0.0
  0
SOLID
  5
1D3D
330
1D38
100
AcDbEntity
  8
文字
 62
     0
100
AcDbTrace
 10
3.541666666666667
 20
26.52563214192818
 30
0.0
 11
2.708333333333334
 21
26.52563214192818
 31
0.0
 12
3.125
 22
29.02563214192818
 32
0.0
 13
3.125
 23
29.02563214192818
 33
0.0
  0
SOLID
  5
1D3E
330
1D38
100
AcDbEntity
  8
文字
 62
     0
100
AcDbTrace
 10
2.708333333333333
 20
23.52563214192818
 30
0.0
 11
3.541666666666667
 21
23.52563214192818
 31
0.0
 12
3.125
 22
21.02563214192818
 32
0.0
 13
3.125
 23
21.02563214192818
 33
0.0
  0
MTEXT
  5
1D3F
330
1D38
100
AcDbEntity
  8
文字
 62
     0
100
AcDbMText
 10
1.25
 20
25.02563214192818
 30
0.0
 40
2.5
 41
0.0
 46
0.0
 71
     5
 72
     1
  1
8
 11
5.551115123125783E-17
 21
1.0
 31
0.0
 73
     1
 44
1.0
  0
POINT
  5
1D40
330
1D38
100
AcDbEntity
  8
Defpoints
 62
     0
100
AcDbPoint
 10
13.71040521820284
 20
29.02563214192818
 30
0.0
  0
POINT
  5
1D41
330
1D38
100
AcDbEntity
  8
Defpoints
 62
     0
100
AcDbPoint
 10
13.71040521820284
 20
21.02563214192818
 30
0.0
  0
POINT
  5
1D42
330
1D38
100
AcDbEntity
  8
Defpoints
 62
     0
100
AcDbPoint
 10
3.125
 20
21.02563214192818
 30
0.0
  0
ENDBLK
  5
1D43
330
1D38
100
AcDbEntity
  8
0
 62
     1
100
AcDbBlockEnd
  0
BLOCK
  5
1D48
330
1D47
100
AcDbEntity
  8
0
 62
     1
100
AcDbBlockBegin
  2
*D23
 70
     1
 10
0.0
 20
0.0
 30
0.0
  3
*D23
  1
*D32
  0
LINE
  5
1D49
330
1D47
100
AcDbEntity
  8
文字
 62
     0
370
    -2
100
AcDbLine
 10
64.66333566424201
 20
45.02563098522117
 30
0.0
 11
105.1835372459799
 21
45.02563098522117
 31
0.0
  0
LINE
  5
1D4A
330
1D47
100
AcDbEntity
  8
文字
 62
     0
370
    -2
100
AcDbLine
 10
94.33540521820322
 20
21.02563214192818
 30
0.0
 11
105.1835372459799
 21
21.02563214192818
 31
0.0
  0
LINE
  5
1D4B
330
1D47
100
AcDbEntity
  8
文字
 62
     0
370
    -2
100
AcDbLine
 10
103.9335372459799
 20
42.52563098522117
 30
0.0
 11
103.9335372459799
 21
23.52563214192818
 31
0.0
  0
SOLID
  5
1D4C
330
1D47
100
AcDbEntity
  8
文字
 62
     0
100
AcDbTrace
 10
104.3502039126466
 20
42.52563098522117
 30
0.0
 11
103.5168705793132
 21
42.52563098522117
 31
0.0
 12
103.9335372459799
 22
45.02563098522117
 32
0.0
 13
103.9335372459799
 23
45.02563098522117
 33
0.0
  0
SOLID
  5
1D4D
330
1D47
100
AcDbEntity
  8
文字
 62
     0
100
AcDbTrace
 10
103.5168705793132
 20
23.52563214192818
 30
0.0
 11
104.3502039126466
 21
23.52563214192818
 31
0.0
 12
103.9335372459799
 22
21.02563214192818
 32
0.0
 13
103.9335372459799
 23
21.02563214192818
 33
0.0
  0
MTEXT
  5
1D4E
330
1D47
100
AcDbEntity
  8
文字
 62
     0
100
AcDbMText
 10
102.0585372459799
 20
33.02563156357468
 30
0.0
 40
2.5
 41
0.0
 46
0.0
 71
     5
 72
     1
  1
24
 11
0.0
 21
1.0
 31
0.0
 73
     1
 44
1.0
  0
POINT
  5
1D4F
330
1D47
100
AcDbEntity
  8
Defpoints
 62
     0
100
AcDbPoint
 10
64.03833566424201
 20
45.02563098522117
 30
0.0
  0
POINT
  5
1D50
330
1D47
100
AcDbEntity
  8
Defpoints
 62
     0
100
AcDbPoint
 10
93.71040521820322
 20
21.02563214192818
 30
0.0
  0
POINT
  5
1D51
330
1D47
100
AcDbEntity
  8
Defpoints
 62
     0
100
AcDbPoint
 10
103.9335372459799
 20
21.02563214192818
 30
0.0
  0
ENDBLK
  5
1D52
330
1D47
100
AcDbEntity
  8
0
 62
     1
100
AcDbBlockEnd
  0
BLOCK
  5
1D61
330
1D60
100
AcDbEntity
  8
0
 62
     1
100
AcDbBlockBegin
  2
*D24
 70
     1
 10
0.0
 20
0.0
 30
0.0
  3
*D24
  1
*D37
  0
LINE
  5
1D62
330
1D60
100
AcDbEntity
  8
文字
 62
     0
370
    -2
100
AcDbLine
 10
13.71040521820284
 20
20.40063214192818
 30
0.0
 11
13.71040521820285
 21
0.0
 31
0.0
  0
LINE
  5
1D63
330
1D60
100
AcDbEntity
  8
文字
 62
     0
370
    -2
100
AcDbLine
 10
93.71040521820282
 20
20.40063214192818
 30
0.0
 11
93.71040521820282
 21
0.0
 31
0.0
  0
LINE
  5
1D64
330
1D60
100
AcDbEntity
  8
文字
 62
     0
370
    -2
100
AcDbLine
 10
16.21040521820285
 20
1.25
 30
0.0
 11
91.21040521820282
 21
1.25
 31
0.0
  0
SOLID
  5
1D65
330
1D60
100
AcDbEntity
  8
文字
 62
     0
100
AcDbTrace
 10
16.21040521820285
 20
1.666666666666667
 30
0.0
 11
16.21040521820285
 21
0.8333333333333333
 31
0.0
 12
13.71040521820285
 22
1.25
 32
0.0
 13
13.71040521820285
 23
1.25
 33
0.0
  0
SOLID
  5
1D66
330
1D60
100
AcDbEntity
  8
文字
 62
     0
100
AcDbTrace
 10
91.21040521820282
 20
0.8333333333333333
 30
0.0
 11
91.21040521820282
 21
1.666666666666667
 31
0.0
 12
93.71040521820282
 22
1.25
 32
0.0
 13
93.71040521820282
 23
1.25
 33
0.0
  0
MTEXT
  5
1D67
330
1D60
100
AcDbEntity
  8
文字
 62
     0
100
AcDbMText
 10
53.71040521820285
 20
3.125
 30
0.0
 40
2.5
 41
0.0
 46
0.0
 71
     5
 72
     1
  1
%%c80
 73
     1
 44
1.0
  0
POINT
  5
1D68
330
1D60
100
AcDbEntity
  8
Defpoints
 62
     0
100
AcDbPoint
 10
13.71040521820284
 20
21.02563214192818
 30
0.0
  0
POINT
  5
1D69
330
1D60
100
AcDbEntity
  8
Defpoints
 62
     0
100
AcDbPoint
 10
93.71040521820282
 20
21.02563214192818
 30
0.0
  0
POINT
  5
1D6A
330
1D60
100
AcDbEntity
  8
Defpoints
 62
     0
100
AcDbPoint
 10
93.71040521820282
 20
1.25
 30
0.0
  0
ENDBLK
  5
1D6B
330
1D60
100
AcDbEntity
  8
0
 62
     1
100
AcDbBlockEnd
  0
BLOCK
  5
1D83
330
1D82
100
AcDbEntity
  8
0
100
AcDbBlockBegin
  2
*D25
 70
     1
 10
0.0
 20
0.0
 30
0.0
  3
*D25
  1
*D26
  0
LINE
  5
1D85
330
1D82
100
AcDbEntity
  8
文字
 62
     0
370
    -2
100
AcDbLine
 10
51.65529667515936
 20
60.09767167880076
 30
0.0
 11
40.44489145695651
 21
60.09767167880076
 31
0.0
  0
LINE
  5
1D86
330
1D82
100
AcDbEntity
  8
文字
 62
     0
370
    -2
100
AcDbLine
 10
51.65529667515936
 20
52.09767167880076
 30
0.0
 11
40.44489145695651
 21
52.09767167880076
 31
0.0
  0
LINE
  5
1D87
330
1D82
100
AcDbEntity
  8
文字
 62
     0
370
    -2
100
AcDbLine
 10
41.69489145695651
 20
57.59767167880076
 30
0.0
 11
41.69489145695651
 21
54.59767167880076
 31
0.0
  0
SOLID
  5
1D88
330
1D82
100
AcDbEntity
  8
文字
 62
     0
100
AcDbTrace
 10
42.11155812362318
 20
57.59767167880076
 30
0.0
 11
41.27822479028985
 21
57.59767167880076
 31
0.0
 12
41.69489145695651
 22
60.09767167880076
 32
0.0
 13
41.69489145695651
 23
60.09767167880076
 33
0.0
  0
SOLID
  5
1D89
330
1D82
100
AcDbEntity
  8
文字
 62
     0
100
AcDbTrace
 10
41.27822479028985
 20
54.59767167880076
 30
0.0
 11
42.11155812362318
 21
54.59767167880076
 31
0.0
 12
41.69489145695651
 22
52.09767167880076
 32
0.0
 13
41.69489145695651
 23
52.09767167880076
 33
0.0
  0
MTEXT
  5
1D8A
330
1D82
100
AcDbEntity
  8
文字
 62
     0
100
AcDbMText
 10
39.81989145695651
 20
56.09767167880076
 30
0.0
 40
2.5
 41
0.0
 46
0.0
 71
     5
 72
     1
  1
8
 11
0.0
 21
1.0
 31
0.0
 73
     1
 44
1.0
  0
POINT
  5
1D8B
330
1D82
100
AcDbEntity
  8
Defpoints
 62
     0
100
AcDbPoint
 10
52.28029667515936
 20
60.09767167880076
 30
0.0
  0
POINT
  5
1D8C
330
1D82
100
AcDbEntity
  8
Defpoints
 62
     0
100
AcDbPoint
 10
52.28029667515936
 20
52.09767167880076
 30
0.0
  0
POINT
  5
1D8D
330
1D82
100
AcDbEntity
  8
Defpoints
 62
     0
100
AcDbPoint
 10
41.69489145695651
 20
52.09767167880076
 30
0.0
  0
ENDBLK
  5
1D84
330
1D82
100
AcDbEntity
  8
0
100
AcDbBlockEnd
  0
BLOCK
  5
1D8F
330
1D8E
100
AcDbEntity
  8
0
100
AcDbBlockBegin
  2
*D26
 70
     1
 10
0.0
 20
0.0
 30
0.0
  3
*D26
  1
*D27
  0
LINE
  5
1D91
330
1D8E
100
AcDbEntity
  8
文字
 62
     0
370
    -2
100
AcDbLine
 10
103.2332271211985
 20
76.09767052209375
 30
0.0
 11
143.3794460277638
 21
76.09767052209375
 31
0.0
  0
LINE
  5
1D92
330
1D8E
100
AcDbEntity
  8
文字
 62
     0
370
    -2
100
AcDbLine
 10
132.9052966751597
 20
52.09767167880076
 30
0.0
 11
143.3794460277638
 21
52.09767167880076
 31
0.0
  0
LINE
  5
1D93
330
1D8E
100
AcDbEntity
  8
文字
 62
     0
370
    -2
100
AcDbLine
 10
142.1294460277638
 20
73.59767052209375
 30
0.0
 11
142.1294460277638
 21
54.59767167880076
 31
0.0
  0
SOLID
  5
1D94
330
1D8E
100
AcDbEntity
  8
文字
 62
     0
100
AcDbTrace
 10
142.5461126944305
 20
73.59767052209375
 30
0.0
 11
141.7127793610971
 21
73.59767052209375
 31
0.0
 12
142.1294460277638
 22
76.09767052209375
 32
0.0
 13
142.1294460277638
 23
76.09767052209375
 33
0.0
  0
SOLID
  5
1D95
330
1D8E
100
AcDbEntity
  8
文字
 62
     0
100
AcDbTrace
 10
141.7127793610971
 20
54.59767167880076
 30
0.0
 11
142.5461126944305
 21
54.59767167880076
 31
0.0
 12
142.1294460277638
 22
52.09767167880076
 32
0.0
 13
142.1294460277638
 23
52.09767167880076
 33
0.0
  0
MTEXT
  5
1D96
330
1D8E
100
AcDbEntity
  8
文字
 62
     0
100
AcDbMText
 10
140.2544460277638
 20
64.09767110044726
 30
0.0
 40
2.5
 41
0.0
 46
0.0
 71
     5
 72
     1
  1
24
 11
0.0
 21
1.0
 31
0.0
 73
     1
 44
1.0
  0
POINT
  5
1D97
330
1D8E
100
AcDbEntity
  8
Defpoints
 62
     0
100
AcDbPoint
 10
102.6082271211985
 20
76.09767052209375
 30
0.0
  0
POINT
  5
1D98
330
1D8E
100
AcDbEntity
  8
Defpoints
 62
     0
100
AcDbPoint
 10
132.2802966751597
 20
52.09767167880076
 30
0.0
  0
POINT
  5
1D99
330
1D8E
100
AcDbEntity
  8
Defpoints
 62
     0
100
AcDbPoint
 10
142.1294460277638
 20
52.09767167880076
 30
0.0
  0
ENDBLK
  5
1D90
330
1D8E
100
AcDbEntity
  8
0
100
AcDbBlockEnd
  0
BLOCK
  5
1D9B
330
1D9A
100
AcDbEntity
  8
0
100
AcDbBlockBegin
  2
*D27
 70
     1
 10
0.0
 20
0.0
 30
0.0
  3
*D27
  1
*D28
  0
LINE
  5
1D9D
330
1D9A
100
AcDbEntity
  8
文字
 62
     0
370
    -2
100
AcDbLine
 10
52.28029667515936
 20
51.47267167880076
 30
0.0
 11
52.28029667515935
 21
31.07203953687258
 31
0.0
  0
LINE
  5
1D9E
330
1D9A
100
AcDbEntity
  8
文字
 62
     0
370
    -2
100
AcDbLine
 10
132.2802966751593
 20
51.47267167880076
 30
0.0
 11
132.2802966751593
 21
31.07203953687258
 31
0.0
  0
LINE
  5
1D9F
330
1D9A
100
AcDbEntity
  8
文字
 62
     0
370
    -2
100
AcDbLine
 10
54.78029667515935
 20
32.32203953687258
 30
0.0
 11
129.7802966751593
 21
32.32203953687258
 31
0.0
  0
SOLID
  5
1DA0
330
1D9A
100
AcDbEntity
  8
文字
 62
     0
100
AcDbTrace
 10
54.78029667515935
 20
32.73870620353924
 30
0.0
 11
54.78029667515935
 21
31.90537287020591
 31
0.0
 12
52.28029667515935
 22
32.32203953687258
 32
0.0
 13
52.28029667515935
 23
32.32203953687258
 33
0.0
  0
SOLID
  5
1DA1
330
1D9A
100
AcDbEntity
  8
文字
 62
     0
100
AcDbTrace
 10
129.7802966751593
 20
31.90537287020591
 30
0.0
 11
129.7802966751593
 21
32.73870620353924
 31
0.0
 12
132.2802966751593
 22
32.32203953687258
 32
0.0
 13
132.2802966751593
 23
32.32203953687258
 33
0.0
  0
MTEXT
  5
1DA2
330
1D9A
100
AcDbEntity
  8
文字
 62
     0
100
AcDbMText
 10
92.28029667515936
 20
34.19703953687258
 30
0.0
 40
2.5
 41
0.0
 46
0.0
 71
     5
 72
     1
  1
%%c80
 73
     1
 44
1.0
  0
POINT
  5
1DA3
330
1D9A
100
AcDbEntity
  8
Defpoints
 62
     0
100
AcDbPoint
 10
52.28029667515936
 20
52.09767167880076
 30
0.0
  0
POINT
  5
1DA4
330
1D9A
100
AcDbEntity
  8
Defpoints
 62
     0
100
AcDbPoint
 10
132.2802966751593
 20
52.09767167880076
 30
0.0
  0
POINT
  5
1DA5
330
1D9A
100
AcDbEntity
  8
Defpoints
 62
     0
100
AcDbPoint
 10
132.2802966751593
 20
32.32203953687258
 30
0.0
  0
ENDBLK
  5
1D9C
330
1D9A
100
AcDbEntity
  8
0
100
AcDbBlockEnd
  0
BLOCK
  5
1DCB
330
1DCA
100
AcDbEntity
  8
0
100
AcDbBlockBegin
  2
*D28
 70
     1
 10
0.0
 20
0.0
 30
0.0
  3
*D28
  1
*D30
  0
LINE
  5
1DCC
330
1DCA
100
AcDbEntity
  8
文字
 62
     0
370
    -2
100
AcDbLine
 10
0.0
 20
68.0014884454545
 30
0.0
 11
0.0
 21
0.0
 31
0.0
  0
LINE
  5
1DCD
330
1DCA
100
AcDbEntity
  8
文字
 62
     0
370
    -2
100
AcDbLine
 10
52.0
 20
68.0014884454545
 30
0.0
 11
52.0
 21
0.0
 31
0.0
  0
LINE
  5
1DCE
330
1DCA
100
AcDbEntity
  8
文字
 62
     0
370
    -2
100
AcDbLine
 10
2.5
 20
1.25
 30
0.0
 11
49.5
 21
1.25
 31
0.0
  0
SOLID
  5
1DCF
330
1DCA
100
AcDbEntity
  8
文字
 62
     0
100
AcDbTrace
 10
2.5
 20
1.666666666666667
 30
0.0
 11
2.5
 21
0.8333333333333333
 31
0.0
 12
0.0
 22
1.25
 32
0.0
 13
0.0
 23
1.25
 33
0.0
  0
SOLID
  5
1DD0
330
1DCA
100
AcDbEntity
  8
文字
 62
     0
100
AcDbTrace
 10
49.5
 20
0.8333333333333333
 30
0.0
 11
49.5
 21
1.666666666666667
 31
0.0
 12
52.0
 22
1.25
 32
0.0
 13
52.0
 23
1.25
 33
0.0
  0
MTEXT
  5
1DD1
330
1DCA
100
AcDbEntity
  8
文字
 62
     0
100
AcDbMText
 10
26.0
 20
3.125
 30
0.0
 40
2.5
 41
0.0
 46
0.0
 71
     5
 72
     1
  1
%%c52
 73
     1
 44
1.0
  0
POINT
  5
1DD2
330
1DCA
100
AcDbEntity
  8
Defpoints
 62
     0
100
AcDbPoint
 10
0.0
 20
68.6264884454545
 30
0.0
  0
POINT
  5
1DD3
330
1DCA
100
AcDbEntity
  8
Defpoints
 62
     0
100
AcDbPoint
 10
52.0
 20
68.6264884454545
 30
0.0
  0
POINT
  5
1DD4
330
1DCA
100
AcDbEntity
  8
Defpoints
 62
     0
100
AcDbPoint
 10
52.0
 20
1.25
 30
0.0
  0
ENDBLK
  5
1DD5
330
1DCA
100
AcDbEntity
  8
0
100
AcDbBlockEnd
  0
BLOCK
  5
1DDC
330
1DDB
100
AcDbEntity
  8
0
100
AcDbBlockBegin
  2
*D29
 70
     1
 10
0.0
 20
0.0
 30
0.0
  3
*D29
  1
*D31
  0
LINE
  5
1DDE
330
1DDB
100
AcDbEntity
  8
文字
 62
     0
370
    -2
100
AcDbLine
 10
205.1606520709788
 20
109.3533562717721
 30
0.0
 11
205.1606520709788
 21
41.35186782631756
 31
0.0
  0
LINE
  5
1DDF
330
1DDB
100
AcDbEntity
  8
文字
 62
     0
370
    -2
100
AcDbLine
 10
257.1606520709788
 20
109.3533562717721
 30
0.0
 11
257.1606520709788
 21
41.35186782631756
 31
0.0
  0
LINE
  5
1DE0
330
1DDB
100
AcDbEntity
  8
文字
 62
     0
370
    -2
100
AcDbLine
 10
207.6606520709788
 20
42.60186782631756
 30
0.0
 11
254.6606520709788
 21
42.60186782631756
 31
0.0
  0
SOLID
  5
1DE1
330
1DDB
100
AcDbEntity
  8
文字
 62
     0
100
AcDbTrace
 10
207.6606520709788
 20
43.01853449298422
 30
0.0
 11
207.6606520709788
 21
42.18520115965089
 31
0.0
 12
205.1606520709788
 22
42.60186782631756
 32
0.0
 13
205.1606520709788
 23
42.60186782631756
 33
0.0
  0
SOLID
  5
1DE2
330
1DDB
100
AcDbEntity
  8
文字
 62
     0
100
AcDbTrace
 10
254.6606520709788
 20
42.18520115965089
 30
0.0
 11
254.6606520709788
 21
43.01853449298422
 31
0.0
 12
257.1606520709788
 22
42.60186782631756
 32
0.0
 13
257.1606520709788
 23
42.60186782631756
 33
0.0
  0
MTEXT
  5
1DE3
330
1DDB
100
AcDbEntity
  8
文字
 62
     0
100
AcDbMText
 10
231.1606520709788
 20
44.47686782631756
 30
0.0
 40
2.5
 41
0.0
 46
0.0
 71
     5
 72
     1
  1
%%c52
 73
     1
 44
1.0
  0
POINT
  5
1DE4
330
1DDB
100
AcDbEntity
  8
Defpoints
 62
     0
100
AcDbPoint
 10
205.1606520709788
 20
109.9783562717721
 30
0.0
  0
POINT
  5
1DE5
330
1DDB
100
AcDbEntity
  8
Defpoints
 62
     0
100
AcDbPoint
 10
257.1606520709788
 20
109.9783562717721
 30
0.0
  0
POINT
  5
1DE6
330
1DDB
100
AcDbEntity
  8
Defpoints
 62
     0
100
AcDbPoint
 10
257.1606520709788
 20
42.60186782631756
 30
0.0
  0
ENDBLK
  5
1DDD
330
1DDB
100
AcDbEntity
  8
0
100
AcDbBlockEnd
  0
ENDSEC
  0
SECTION
  2
ENTITIES
  0
MTEXT
  5
B75
330
21
100
AcDbEntity
  8
中心線
100
AcDbMText
 10
112.831139206696
 20
180.2175614817369
 30
0.0
 40
2.5
 41
0.0
 46
0.0
 71
     7
 72
     1
  1

 73
     1
 44
1.0
  0
CIRCLE
  5
1B46
330
21
100
AcDbEntity
  8
実線
100
AcDbCircle
 10
231.0190697605829
 20
111.068606890987
 30
0.0
 40
40.0
  0
CIRCLE
  5
1B47
330
21
100
AcDbEntity
  8
実線
100
AcDbCircle
 10
231.0190697605829
 20
111.068606890987
 30
0.0
 40
26.0
  0
LWPOLYLINE
  5
1B48
102
{ACAD_REACTORS
330
1B60
330
1B6C
102
}
330
21
100
AcDbEntity
  8
実線
100
AcDbPolyline
 90
        4
 70
     0
 43
0.0
 10
105.7563139999871
 20
77.11887682616099
 10
105.7563139999871
 20
86.11887682616097
 10
78.05631399998714
 20
86.11887682616097
 10
78.05631399998714
 20
77.11887682616097
  0
LINE
  5
1B49
330
21
100
AcDbEntity
  8
実線
100
AcDbLine
 10
85.05631399998714
 20
86.11887682616097
 30
0.0
 11
85.05631399998714
 21
77.11887682616097
 31
0.0
  0
LINE
  5
1B4A
330
21
100
AcDbEntity
  8
実線
100
AcDbLine
 10
98.75631399998713
 20
86.11887682616097
 30
0.0
 11
98.75631399998713
 21
77.11887682616097
 31
0.0
  0
ARC
  5
1B4B
330
21
100
AcDbEntity
  8
実線
100
AcDbCircle
 10
81.55631399998714
 20
82.74386916298523
 30
0.0
 40
6.624993493531275
100
AcDbArc
 50
238.1091731852506
 51
301.8908268147494
  0
ARC
  5
1B4C
330
21
100
AcDbEntity
  8
実線
100
AcDbCircle
 10
91.90631399998713
 20
100.0801268261609
 30
0.0
 40
23.96124999999989
100
AcDbArc
 50
253.3886475888884
 51
286.6113524111116
  0
ARC
  5
1B4D
102
{ACAD_REACTORS
330
1B6C
102
}
330
21
100
AcDbEntity
  8
実線
100
AcDbCircle
 10
102.2563139999871
 20
82.74362563066093
 30
0.0
 40
6.624786722131047
100
AcDbArc
 50
238.1080604549013
 51
301.8919395450987
  0
LWPOLYLINE
  5
1B4E
330
21
100
AcDbEntity
  8
実線
100
AcDbPolyline
 90
        4
 70
     0
 43
0.0
 10
83.90631399998713
 20
97.25167650185045
 10
83.90631399998713
 20
86.11887682616097
 10
99.90631399998713
 20
86.11887682616097
 10
99.90631399998713
 20
97.25167650185048
  0
LINE
  5
1B4F
330
21
100
AcDbEntity
  8
実線
370
    15
100
AcDbLine
 10
85.90631399998713
 20
186.118876826161
 30
0.0
 11
85.90631399998712
 21
145.752526021495
 31
0.0
  0
LINE
  5
1B50
102
{ACAD_REACTORS
330
1B60
102
}
330
21
100
AcDbEntity
  8
実線
370
    15
100
AcDbLine
 10
97.90631399998713
 20
186.1188768261609
 30
0.0
 11
97.90631399998712
 21
151.751453976893
 31
0.0
  0
LWPOLYLINE
  5
1B51
102
{ACAD_REACTORS
330
1B5B
102
}
330
21
100
AcDbEntity
  8
実線
100
AcDbPolyline
 90
        6
 70
     1
 43
0.0
 10
243.0135216029973
 20
117.993606890987
 10
231.0190697605829
 20
124.9186068909871
 10
219.0246179181684
 20
117.9936068909871
 10
219.0246179181684
 20
104.1436068909871
 10
231.0190697605828
 20
97.21860689098706
 10
243.0135216029973
 20
104.143606890987
  0
CIRCLE
  5
1B52
330
21
100
AcDbEntity
  8
実線
100
AcDbCircle
 10
231.0190697605829
 20
111.068606890987
 30
0.0
 40
8.0
  0
CIRCLE
  5
1B53
330
21
100
AcDbEntity
  8
実線
370
    20
100
AcDbCircle
 10
231.0190697605829
 20
111.068606890987
 30
0.0
 40
7.0
  0
LINE
  5
1B54
330
21
100
AcDbEntity
  8
実線
100
AcDbLine
 10
80.82253032518982
 20
76.13910600030383
 30
0.0
 11
101.5445998791506
 21
76.13910600030383
 31
0.0
  0
LINE
  5
1B55
102
{ACAD_REACTORS
330
1B58
102
}
330
21
100
AcDbEntity
  8
実線
370
    20
100
AcDbLine
 10
83.90631399998713
 20
184.118876826161
 30
0.0
 11
99.90631399998713
 21
184.1188768261609
 31
0.0
  0
DIMENSION
  5
1B56
102
{ACAD_REACTORS
330
1B58
102
}
102
{ACAD_XDICTIONARY
360
1B57
102
}
330
21
100
AcDbEntity
  8
文字
100
AcDbDimension
280
     0
  2
*D16
 10
99.90631399998713
 20
198.096883388827
 30
0.0
 11
91.90631399998713
 21
199.971883388827
 31
0.0
 70
    32
  1
M16
 71
     5
 42
16.0
 73
     0
 74
     0
 75
     0
  3
ISO-25
100
AcDbAlignedDimension
 13
83.90631399998713
 23
184.118876826161
 33
0.0
 14
99.90631399998713
 24
184.118876826161
 34
0.0
100
AcDbRotatedDimension
  0
DIMENSION
  5
1B59
102
{ACAD_REACTORS
330
1B5B
102
}
102
{ACAD_XDICTIONARY
360
1B5A
102
}
330
21
100
AcDbEntity
  8
文字
100
AcDbDimension
280
     0
  2
*D17
 10
243.0135216029973
 20
61.32212657630431
 30
0.0
 11
231.0190697605829
 21
63.19712657630431
 31
0.0
 70
    32
  1
24
 71
     5
 42
23.98890368482893
 73
     0
 74
     0
 75
     0
  3
ISO-25
100
AcDbAlignedDimension
 13
219.0246179181684
 23
104.1436068909871
 33
0.0
 14
243.0135216029973
 24
104.143606890987
 34
0.0
100
AcDbRotatedDimension
  0
LINE
  5
1B5C
330
21
100
AcDbEntity
  8
中心線
100
AcDbLine
 10
231.0190697605829
 20
66.82777105133755
 30
0.0
 11
231.0190697605829
 21
156.6064325307373
 31
0.0
  0
DIMENSION
  5
1B5E
102
{ACAD_REACTORS
330
1B60
102
}
102
{ACAD_XDICTIONARY
360
1B5F
102
}
330
21
100
AcDbEntity
  8
文字
100
AcDbDimension
280
     0
  2
*D18
 10
142.1294460277638
 20
86.11887682616097
 30
0.0
 11
140.2544460277638
 21
136.118876826161
 31
0.0
 70
    32
  1
130
 71
     5
 42
99.99999999999997
 73
     0
 74
     0
 75
     0
  3
ISO-25
100
AcDbAlignedDimension
 13
97.90631399998713
 23
186.1188768261609
 33
0.0
 14
105.7563139999871
 24
86.11887682616097
 34
0.0
 50
90.0
100
AcDbRotatedDimension
  0
LINE
  5
1B67
330
21
100
AcDbEntity
  8
中心線
100
AcDbLine
 10
91.90631399998713
 20
193.3874502115361
 30
0.0
 11
91.90631399998716
 21
44.88142693213504
 31
0.0
  0
LINE
  5
1B69
330
21
100
AcDbEntity
  8
中心線
100
AcDbLine
 10
179.9317382663933
 20
111.068606890987
 30
0.0
 11
278.4910769858396
 21
111.068606890987
 31
0.0
  0
DIMENSION
  5
1B6A
102
{ACAD_REACTORS
330
1B6C
102
}
102
{ACAD_XDICTIONARY
360
1B6B
102
}
330
21
100
AcDbEntity
  8
文字
100
AcDbDimension
280
     0
  2
*D19
 10
142.1294460277638
 20
76.11917800378635
 30
0.0
 11
140.2544460277638
 21
81.11902741497366
 31
0.0
 70
    32
 71
     5
 42
9.999698822374626
 73
     0
 74
     0
 75
     0
  3
ISO-25
100
AcDbAlignedDimension
 13
105.7563139999871
 23
86.11887682616097
 33
0.0
 14
101.7368157985835
 24
76.11917800378635
 34
0.0
 50
90.0
100
AcDbRotatedDimension
  0
LINE
  5
1C0C
330
21
100
AcDbEntity
  8
実線
370
    15
100
AcDbLine
 10
85.90631399998712
 20
97.25167650185045
 30
0.0
 11
85.9063139999871
 21
86.11887682616097
 31
0.0
  0
LINE
  5
1C0D
330
21
100
AcDbEntity
  8
実線
370
    15
100
AcDbLine
 10
97.90631399998712
 20
97.2516765018505
 30
0.0
 11
97.9063139999871
 21
86.11887682616097
 31
0.0
  0
LWPOLYLINE
  5
1C0E
330
21
100
AcDbEntity
  8
実線
100
AcDbPolyline
 90
        2
 70
     0
 43
0.0
 10
99.90631399998713
 20
96.59787865504543
 10
99.90631399998713
 20
150.1454842430884
  0
LINE
  5
1C85
330
21
100
AcDbEntity
  8
文字
100
AcDbLine
 10
105.0710345277419
 20
155.3331741657731
 30
0.0
 11
78.98089949369933
 21
142.2904374644543
 31
0.0
  0
LINE
  5
1C86
330
21
100
AcDbEntity
  8
文字
100
AcDbLine
 10
105.0710345277419
 20
152.7273831060689
 30
0.0
 11
78.98089949369933
 21
139.68464640475
 31
0.0
  0
LWPOLYLINE
  5
1C87
330
21
100
AcDbEntity
  8
実線
100
AcDbPolyline
 90
        2
 70
     0
 43
0.0
 10
83.90631399998713
 20
142.1469136358911
 10
83.90631399998713
 20
97.25167650185045
  0
LINE
  5
1C88
330
21
100
AcDbEntity
  8
実線
370
    15
100
AcDbLine
 10
85.90631399998712
 20
143.1467349617907
 30
0.0
 11
85.90631399998712
 21
97.25167650185045
 31
0.0
  0
LINE
  5
1C89
330
21
100
AcDbEntity
  8
実線
370
    15
100
AcDbLine
 10
97.90631399998712
 20
149.1456629171887
 30
0.0
 11
97.90631399998712
 21
97.2516765018505
 31
0.0
  0
LWPOLYLINE
  5
1C8A
330
21
100
AcDbEntity
  8
実線
100
AcDbPolyline
 90
        6
 70
     0
 43
0.0
 10
99.90631399998713
 20
152.7512753027927
 10
99.90631399998713
 20
184.1188768261609
 10
97.90631399998713
 20
186.1188768261609
 10
85.90631399998713
 20
186.118876826161
 10
83.90631399998713
 20
184.118876826161
 10
83.90631399998713
 20
144.7527046955953
  0
DIMENSION
  5
1D6F
102
{ACAD_REACTORS
330
1D71
102
}
102
{ACAD_XDICTIONARY
360
1D70
102
}
330
21
100
AcDbEntity
  8
文字
100
AcDbDimension
280
     0
  2
*D25
 10
41.69489145695651
 20
52.09767167880076
 30
0.0
 11
39.81989145695651
 21
56.09767167880076
 31
0.0
 70
    32
 71
     5
 42
8.0
 73
     0
 74
     0
 75
     0
  3
ISO-25
100
AcDbAlignedDimension
 13
52.28029667515936
 23
60.09767167880076
 33
0.0
 14
52.28029667515936
 24
52.09767167880076
 34
0.0
 50
90.0
100
AcDbRotatedDimension
  0
DIMENSION
  5
1D72
102
{ACAD_REACTORS
330
1D74
102
}
102
{ACAD_XDICTIONARY
360
1D73
102
}
330
21
100
AcDbEntity
  8
文字
100
AcDbDimension
280
     0
  2
*D26
 10
142.1294460277638
 20
52.09767167880076
 30
0.0
 11
140.2544460277638
 21
64.09767110044726
 31
0.0
 70
    32
 71
     5
 42
23.99999884329298
 73
     0
 74
     0
 75
     0
  3
ISO-25
100
AcDbAlignedDimension
 13
102.6082271211985
 23
76.09767052209375
 33
0.0
 14
132.2802966751597
 24
52.09767167880076
 34
0.0
 50
90.0
100
AcDbRotatedDimension
  0
LWPOLYLINE
  5
1D75
102
{ACAD_REACTORS
330
1D74
330
1D71
330
1D81
102
}
330
21
100
AcDbEntity
  8
実線
100
AcDbPolyline
 90
        4
 70
     1
 43
0.0
 10
52.28029667515936
 20
52.09767167880076
 10
132.2802966751593
 20
52.09767167880076
 10
132.2802966751593
 20
60.09767167880076
 10
52.28029667515936
 20
60.09767167880076
  0
ARC
  5
1D7A
330
21
100
AcDbEntity
  8
実線
100
AcDbCircle
 10
95.77399025958847
 20
53.88238411448463
 30
0.0
 40
22.99264239890852
100
AcDbArc
 50
18.1228303503319
 51
75.46470454416651
  0
ARC
  5
1D7B
330
21
100
AcDbEntity
  8
実線
100
AcDbCircle
 10
120.4312518778204
 20
62.09767052209372
 30
0.0
 40
3.0
100
AcDbArc
 50
200.7588520922581
 51
221.8102852569592
  0
ARC
  5
1D7C
330
21
100
AcDbEntity
  8
実線
100
AcDbCircle
 10
64.12934147249834
 20
62.09767052209374
 30
0.0
 40
3.0
100
AcDbArc
 50
318.1897147430404
 51
339.2411479077418
  0
ARC
  5
1D7D
330
21
100
AcDbEntity
  8
実線
100
AcDbCircle
 10
89.39499854619532
 20
53.49885250004628
 30
0.0
 40
23.69080425813529
100
AcDbArc
 50
106.5299678719482
 51
161.4533007613981
  0
DIMENSION
  5
1D7F
102
{ACAD_REACTORS
330
1D81
102
}
102
{ACAD_XDICTIONARY
360
1D80
102
}
330
21
100
AcDbEntity
  8
文字
100
AcDbDimension
280
     0
  2
*D27
 10
132.2802966751593
 20
32.32203953687258
 30
0.0
 11
92.28029667515936
 21
32.32203953687258
 31
0.0
 70
   160
  1
%%c<>
 71
     5
 42
80.0
 73
     0
 74
     0
 75
     0
  3
ISO-25
100
AcDbAlignedDimension
 13
52.28029667515936
 23
52.09767167880076
 33
0.0
 14
132.2802966751593
 24
52.09767167880076
 34
0.0
100
AcDbRotatedDimension
  0
DIMENSION
  5
1DD9
102
{ACAD_XDICTIONARY
360
1DDA
102
}
330
21
100
AcDbEntity
  8
文字
100
AcDbDimension
280
     0
  2
*D29
 10
257.1606520709788
 20
42.60186782631756
 30
0.0
 11
231.1606520709788
 21
44.47686782631756
 31
0.0
 70
    32
  1
%%c<>
 71
     5
 42
52.00000000000003
 73
     0
 74
     0
 75
     0
  3
ISO-25
100
AcDbAlignedDimension
 13
205.1606520709788
 23
109.9783562717721
 33
0.0
 14
257.1606520709788
 24
109.9783562717721
 34
0.0
100
AcDbRotatedDimension
  0
MTEXT
  5
1E0E
330
21
100
AcDbEntity
  8
文字・寸法線
 62
     0
100
AcDbMText
 10
95.9299092132453
 20
214.9482414276457
 30
0.0
 40
6.0
 41
0.0
 46
6.0
 71
     9
 72
     1
  1
{\fＭＳ ゴシック|b0|i0|c0|p0;S-B2 M16X130}
 73
     1
 44
1.0
1001
ACAD
1000
ACAD_MTEXT_DEFINED_HEIGHT_BEGIN
1070
    46
1040
6.0
1000
ACAD_MTEXT_DEFINED_HEIGHT_END
  0
VIEWPORT
  5
1D02
330
1CFE
100
AcDbEntity
 67
     1
  8
0
100
AcDbViewport
 10
203.7291666666666
 20
142.1694444444444
 30
0.0
 40
488.9499999999999
 41
341.2066666666665
 68
     1
 69
     1
 12
203.7291666666666
 22
142.1694444444444
 13
0.0
 23
0.0
 14
0.5
 24
0.5
 15
0.0
 25
0.0
 16
0.0
 26
0.0
 36
1.0
 17
0.0
 27
0.0
 37
0.0
 42
50.0
 43
0.0
 44
0.0
 45
341.2066666666665
 50
0.0
 51
0.0
 72
   100
 90
   557152
  1

281
     0
 71
     1
 74
     0
110
0.0
120
0.0
130
0.0
111
1.0
121
0.0
131
0.0
112
0.0
122
1.0
132
0.0
 79
     0
146
0.0
170
     0
 61
     5
348
1CC0
292
     1
282
     1
141
0.0
142
0.0
 63
   256
361
1D04
  0
VIEWPORT
  5
1D03
330
1CFE
100
AcDbEntity
 67
     1
  8
0
100
AcDbViewport
 10
203.7291666666666
 20
142.1694444444444
 30
0.0
 40
325.9666666666666
 41
227.471111111111
 68
     2
 69
     2
 12
158.343492883812
 22
116.6047163895122
 13
0.0
 23
0.0
 14
0.5
 24
0.5
 15
0.0
 25
0.0
 16
0.0
 26
0.0
 36
1.0
 17
0.0
 27
0.0
 37
0.0
 42
50.0
 43
0.0
 44
0.0
 45
172.6190206786022
 50
0.0
 51
0.0
 72
   100
 90
   557152
  1

281
     0
 71
     1
 74
     0
110
0.0
120
0.0
130
0.0
111
1.0
121
0.0
131
0.0
112
0.0
122
1.0
132
0.0
 79
     0
146
0.0
170
     0
 61
     5
348
1CC0
292
     1
282
     1
141
0.0
142
0.0
 63
   256
  0
ENDSEC
  0
SECTION
  2
OBJECTS
  0
DICTIONARY
  5
C
330
0
100
AcDbDictionary
281
     1
  3
ACAD_COLOR
350
1C
  3
ACAD_DETAILVIEWSTYLE
350
1D0D
  3
ACAD_GROUP
350
D
  3
ACAD_IMAGE_VARS
350
1CFD
  3
ACAD_LAYOUT
350
1A
  3
ACAD_MATERIAL
350
1B
  3
ACAD_MLEADERSTYLE
350
1D0B
  3
ACAD_MLINESTYLE
350
17
  3
ACAD_PLOTSETTINGS
350
19
  3
ACAD_PLOTSTYLENAME
350
E
  3
ACAD_SCALELIST
350
1CD4
  3
ACAD_SECTIONVIEWSTYLE
350
1D0E
  3
ACAD_TABLESTYLE
350
1CF9
  3
ACAD_VISUALSTYLE
350
1CBB
  3
AcadDim
350
1271
  3
ACDB_RECOMPOSE_DATA
350
1E14
  3
AcDbVariableDictionary
350
13CA
  3
APPDATA
350
1CFB
  0
SUN
  5
1D05
330
1CAF
100
AcDbSun
 90
        1
290
     0
 63
     7
421
 16777215
 40
1.0
291
     1
 91
  2455826
 92
 54000000
292
     0
 70
     2
 71
   256
280
     1
  0
DICTIONARY
  5
1A12
330
1A11
100
AcDbDictionary
280
     1
281
     1
  3
ACAD_DIMASSOC
360
1A13
  0
DICTIONARY
  5
1A17
330
1A16
100
AcDbDictionary
280
     1
281
     1
  3
ACAD_DIMASSOC
360
1A18
  0
DICTIONARY
  5
1A1A
330
1A19
100
AcDbDictionary
280
     1
281
     1
  3
ACAD_DIMASSOC
360
1A1B
  0
DICTIONARY
  5
1A1D
330
1A1C
100
AcDbDictionary
280
     1
281
     1
  3
ACAD_DIMASSOC
360
1A1E
  0
DICTIONARY
  5
1A21
330
1A20
100
AcDbDictionary
280
     1
281
     1
  3
ACAD_DIMASSOC
360
1A22
  0
DICTIONARY
  5
1A28
330
1A27
100
AcDbDictionary
280
     1
281
     1
  3
ACAD_DIMASSOC
360
1A29
  0
DICTIONARY
  5
1A2B
330
1A2A
100
AcDbDictionary
280
     1
281
     1
  3
ACAD_DIMASSOC
360
1A2C
  0
DICTIONARY
  5
1A31
330
1A30
100
AcDbDictionary
280
     1
281
     1
  3
ACAD_DIMASSOC
360
1A32
  0
DICTIONARY
  5
1B57
330
1B56
100
AcDbDictionary
280
     1
281
     1
  3
ACAD_DIMASSOC
360
1B58
  0
DICTIONARY
  5
1B5A
330
1B59
100
AcDbDictionary
280
     1
281
     1
  3
ACAD_DIMASSOC
360
1B5B
  0
DICTIONARY
  5
1B5F
330
1B5E
100
AcDbDictionary
280
     1
281
     1
  3
ACAD_DIMASSOC
360
1B60
  0
DICTIONARY
  5
1B6B
330
1B6A
100
AcDbDictionary
280
     1
281
     1
  3
ACAD_DIMASSOC
360
1B6C
  0
DICTIONARY
  5
1D70
330
1D6F
100
AcDbDictionary
280
     1
281
     1
  3
ACAD_DIMASSOC
360
1D71
  0
DICTIONARY
  5
1D73
330
1D72
100
AcDbDictionary
280
     1
281
     1
  3
ACAD_DIMASSOC
360
1D74
  0
DICTIONARY
  5
1D80
330
1D7F
100
AcDbDictionary
280
     1
281
     1
  3
ACAD_DIMASSOC
360
1D81
  0
DICTIONARY
  5
1DDA
330
1DD9
100
AcDbDictionary
280
     1
281
     1
  0
SUN
  5
1D04
330
1D02
100
AcDbSun
 90
        1
290
     0
 63
     7
421
 16777215
 40
1.0
291
     1
 91
  2455826
 92
 54000000
292
     0
 70
     2
 71
   256
280
     1
  0
DICTIONARY
  5
1C
102
{ACAD_REACTORS
330
C
102
}
330
C
100
AcDbDictionary
281
     1
  0
DICTIONARY
  5
1D0D
102
{ACAD_REACTORS
330
C
102
}
330
C
100
AcDbDictionary
281
     1
  0
DICTIONARY
  5
D
102
{ACAD_REACTORS
330
C
102
}
330
C
100
AcDbDictionary
281
     1
  0
RASTERVARIABLES
  5
1CFD
102
{ACAD_REACTORS
330
C
102
}
330
C
100
AcDbRasterVariables
 90
        0
 70
     1
 71
     1
 72
     1
  0
DICTIONARY
  5
1A
102
{ACAD_REACTORS
330
C
102
}
330
C
100
AcDbDictionary
281
     1
  3
Model
350
24
  3
Sheet1
350
1CFF
  0
DICTIONARY
  5
1B
102
{ACAD_REACTORS
330
C
102
}
330
C
100
AcDbDictionary
281
     1
  3
ByBlock
350
1CF7
  3
ByLayer
350
1CF6
  3
Global
350
1CF8
  0
DICTIONARY
  5
1D0B
102
{ACAD_REACTORS
330
C
102
}
330
C
100
AcDbDictionary
281
     1
  0
DICTIONARY
  5
17
102
{ACAD_REACTORS
330
C
102
}
330
C
100
AcDbDictionary
281
     1
  3
Standard
350
18
  0
DICTIONARY
  5
19
102
{ACAD_REACTORS
330
C
102
}
330
C
100
AcDbDictionary
281
     1
  0
ACDBDICTIONARYWDFLT
  5
E
102
{ACAD_REACTORS
330
C
102
}
330
C
100
AcDbDictionary
281
     1
  3
Normal
350
F
100
AcDbDictionaryWithDefault
340
F
  0
DICTIONARY
  5
1CD4
102
{ACAD_REACTORS
330
C
102
}
330
C
100
AcDbDictionary
281
     1
  3
A0
350
1CD5
  3
A1
350
1CD6
  3
A2
350
1CD7
  3
A3
350
1CD8
  3
A4
350
1CD9
  3
A5
350
1CDA
  3
A6
350
1CDB
  3
A7
350
1CDC
  3
A8
350
1CDD
  3
A9
350
1CDE
  3
B0
350
1CDF
  3
B1
350
1CE0
  3
B2
350
1CE1
  3
B3
350
1CE2
  3
B4
350
1CE3
  3
B5
350
1CE4
  3
B6
350
1CE5
  3
B7
350
1CE6
  3
B8
350
1CE7
  3
B9
350
1CE8
  3
C0
350
1CE9
  3
C1
350
1CEA
  3
C2
350
1CEB
  3
C3
350
1CEC
  3
C4
350
1CED
  3
C5
350
1CEE
  3
C6
350
1CEF
  3
C7
350
1CF0
  3
C8
350
1CF1
  3
C9
350
1CF2
  3
D0
350
1CF3
  3
D1
350
1CF4
  3
D2
350
1CF5
  0
DICTIONARY
  5
1D0E
102
{ACAD_REACTORS
330
C
102
}
330
C
100
AcDbDictionary
281
     1
  0
DICTIONARY
  5
1CF9
102
{ACAD_REACTORS
330
C
102
}
330
C
100
AcDbDictionary
281
     1
  3
Standard
350
1CFA
  0
DICTIONARY
  5
1CBB
102
{ACAD_REACTORS
330
C
102
}
330
C
100
AcDbDictionary
281
     1
  3
2dWireframe
350
1CC0
  3
Basic
350
1CC3
  3
Brighten
350
1CC7
  3
ColorChange
350
1CCB
  3
Conceptual
350
1CC5
  3
Dim
350
1CC6
  3
EdgeColorOff
350
1CCE
  3
Facepattern
350
1CCA
  3
Flat
350
1CBC
  3
FlatWithEdges
350
1CBD
  3
Gouraud
350
1CBE
  3
GouraudWithEdges
350
1CBF
  3
Hidden
350
1CC2
  3
JitterOff
350
1CCC
  3
Linepattern
350
1CC9
  3
OverhangOff
350
1CCD
  3
Realistic
350
1CC4
  3
Shaded
350
1CD3
  3
Shaded with edges
350
1CD2
  3
Shades of Gray
350
1CCF
  3
Sketchy
350
1CD0
  3
Thicken
350
1CC8
  3
Wireframe
350
1CC1
  3
X-Ray
350
1CD1
  0
XRECORD
  5
1271
102
{ACAD_REACTORS
330
C
102
}
330
C
100
AcDbXrecord
280
     1
 90
   990106
  3

 60
     0
 61
     0
 62
     4
 63
     4
 64
     1
 65
     0
 66
     0
 67
     3
 68
     1
 69
     0
 70
     0
 71
     0
 72
     0
 40
0.0
170
     2
340
0
  0
XRECORD
  5
1E14
102
{ACAD_REACTORS
330
C
102
}
330
C
100
AcDbXrecord
280
     1
 90
        1
330
1CFA
  0
DICTIONARY
  5
13CA
102
{ACAD_REACTORS
330
C
102
}
330
C
100
AcDbDictionary
281
     1
  3
CANNOSCALE
350
1D06
  3
CTABLESTYLE
350
1D0A
  3
DIMASSOC
350
13CC
  3
HIDETEXT
350
13CB
  3
MSLTSCALE
350
1D0C
  3
PROJECTNAME
350
13CD
  0
DICTIONARY
  5
1CFB
102
{ACAD_REACTORS
330
C
102
}
330
C
100
AcDbDictionary
281
     1
  0
DIMASSOC
  5
1A13
102
{ACAD_REACTORS
330
1A12
102
}
330
1A12
100
AcDbDimAssoc
330
1A11
 90
        3
 70
     0
 71
     0
  1
AcDbOsnapPointRef
 72
     1
331
1A48
 73
     2
 91
        0
 40
1.0
 10
0.0
 20
0.0
 30
2.000000000000000E+50
 75
     0
  1
AcDbOsnapPointRef
 72
    13
331
1A23
 73
     2
 91
        0
 40
0.0
 10
0.0
 20
0.0
 30
2.000000000000000E+50
 75
     0
  0
DIMASSOC
  5
1A18
102
{ACAD_REACTORS
330
1A17
102
}
330
1A17
100
AcDbDimAssoc
330
1A16
 90
        3
 70
     0
 71
     0
  1
AcDbOsnapPointRef
 72
     1
331
1A3B
 73
     2
 91
        1
 40
1.0
 10
0.0
 20
0.0
 30
2.000000000000000E+50
 75
     0
  1
AcDbOsnapPointRef
 72
    13
331
1A23
 73
     2
 91
        0
 40
0.0
 10
0.0
 20
0.0
 30
2.000000000000000E+50
 75
     0
  0
DIMASSOC
  5
1A1B
102
{ACAD_REACTORS
330
1A1A
102
}
330
1A1A
100
AcDbDimAssoc
330
1A19
 90
        3
 70
     0
 71
     0
  1
AcDbOsnapPointRef
 72
     6
331
1A34
 73
     2
 91
        0
 40
1.0
 10
0.0
 20
0.0
 30
0.0
332
1A44
 74
     2
 92
        0
 75
     0
  1
AcDbOsnapPointRef
 72
     1
331
1A3B
 73
     2
 91
        1
 40
1.0
 10
0.0
 20
0.0
 30
2.000000000000000E+50
 75
     0
  0
DIMASSOC
  5
1A1E
102
{ACAD_REACTORS
330
1A1D
102
}
330
1A1D
100
AcDbDimAssoc
330
1A1C
 90
        3
 70
     0
 71
     0
  1
AcDbOsnapPointRef
 72
     1
331
1A48
 73
     2
 91
        0
 40
1.0
 10
0.0
 20
0.0
 30
2.000000000000000E+50
 75
     0
  1
AcDbOsnapPointRef
 72
     6
331
1A34
 73
     2
 91
        0
 40
1.0
 10
0.0
 20
0.0
 30
0.0
332
1A44
 74
     2
 92
        0
 75
     0
  0
DIMASSOC
  5
1A22
102
{ACAD_REACTORS
330
1A21
102
}
330
1A21
100
AcDbDimAssoc
330
1A20
 90
        3
 70
     0
 71
     0
  1
AcDbOsnapPointRef
 72
    13
331
1A25
 73
     2
 91
        0
 40
0.0
 10
0.0
 20
0.0
 30
2.000000000000000E+50
 75
     0
  1
AcDbOsnapPointRef
 72
     1
331
1A25
 73
     2
 91
        0
 40
1.0
 10
0.0
 20
0.0
 30
2.000000000000000E+50
 75
     0
  0
DIMASSOC
  5
1A29
102
{ACAD_REACTORS
330
1A28
102
}
330
1A28
100
AcDbDimAssoc
330
1A27
 90
        3
 70
     0
 71
     0
  1
AcDbOsnapPointRef
 72
     2
331
1A2F
 73
     2
 91
        3
 40
0.5
 10
0.0
 20
0.0
 30
0.0
 75
     0
  1
AcDbOsnapPointRef
 72
     6
331
1A2F
 73
     2
 91
        6
 40
0.5000000000000038
 10
0.0
 20
0.0
 30
0.0
332
1A3C
 74
     2
 92
        0
 75
     0
  0
DIMASSOC
  5
1A2C
102
{ACAD_REACTORS
330
1A2B
102
}
330
1A2B
100
AcDbDimAssoc
330
1A2A
 90
        3
 70
     0
 71
     0
  1
AcDbOsnapPointRef
 72
    13
331
1A46
 73
     2
 91
        0
 40
0.0
 10
0.0
 20
0.0
 30
2.000000000000000E+50
 75
     0
  1
AcDbOsnapPointRef
 72
    13
331
1A49
 73
     2
 91
        0
 40
0.0
 10
0.0
 20
0.0
 30
2.000000000000000E+50
 75
     0
  0
DIMASSOC
  5
1A32
102
{ACAD_REACTORS
330
1A31
102
}
330
1A31
100
AcDbDimAssoc
330
1A30
 90
        3
 70
     0
 71
     0
  1
AcDbOsnapPointRef
 72
     5
331
1A40
 73
     2
 91
        0
 40
3.141592653589793
 10
0.0
 20
0.0
 30
0.0
 75
     0
  1
AcDbOsnapPointRef
 72
     5
331
1A40
 73
     2
 91
        0
 40
0.0
 10
0.0
 20
0.0
 30
0.0
 75
     0
  0
DIMASSOC
  5
1B58
102
{ACAD_REACTORS
330
1B57
102
}
330
1B57
100
AcDbDimAssoc
330
1B56
 90
        1
 70
     0
 71
     0
  1
AcDbOsnapPointRef
 72
    13
331
1B55
 73
     2
 91
        0
 40
0.0
 10
0.0
 20
0.0
 30
2.000000000000000E+50
 75
     0
  0
DIMASSOC
  5
1B5B
102
{ACAD_REACTORS
330
1B5A
102
}
330
1B5A
100
AcDbDimAssoc
330
1B59
 90
        3
 70
     0
 71
     0
  1
AcDbOsnapPointRef
 72
     1
331
1B51
 73
     2
 91
        3
 40
1.0
 10
0.0
 20
0.0
 30
2.000000000000000E+50
 75
     0
  1
AcDbOsnapPointRef
 72
     1
331
1B51
 73
     2
 91
        5
 40
1.0
 10
0.0
 20
0.0
 30
2.000000000000000E+50
 75
     0
  0
DIMASSOC
  5
1B60
102
{ACAD_REACTORS
330
1B5F
102
}
330
1B5F
100
AcDbDimAssoc
330
1B5E
 90
        3
 70
     0
 71
     0
  1
AcDbOsnapPointRef
 72
    13
331
1B50
 73
     2
 91
        0
 40
0.0
 10
0.0
 20
0.0
 30
2.000000000000000E+50
 75
     0
  1
AcDbOsnapPointRef
 72
     1
331
1B48
 73
     2
 91
        1
 40
1.0
 10
0.0
 20
0.0
 30
2.000000000000000E+50
 75
     0
  0
DIMASSOC
  5
1B6C
102
{ACAD_REACTORS
330
1B6B
102
}
330
1B6B
100
AcDbDimAssoc
330
1B6A
 90
        1
 70
     0
 71
     0
  1
AcDbOsnapPointRef
 72
     1
331
1B48
 73
     2
 91
        1
 40
1.0
 10
0.0
 20
0.0
 30
2.000000000000000E+50
 75
     0
  0
DIMASSOC
  5
1D71
102
{ACAD_REACTORS
330
1D70
102
}
330
1D70
100
AcDbDimAssoc
330
1D6F
 90
        3
 70
     0
 71
     0
  1
AcDbOsnapPointRef
 72
     1
331
1D75
 73
     2
 91
        3
 40
1.0
 10
0.0
 20
0.0
 30
2.000000000000000E+50
 75
     0
  1
AcDbOsnapPointRef
 72
    13
331
1D75
 73
     2
 91
        1
 40
0.0
 10
0.0
 20
0.0
 30
2.000000000000000E+50
 75
     0
  0
DIMASSOC
  5
1D74
102
{ACAD_REACTORS
330
1D73
102
}
330
1D73
100
AcDbDimAssoc
330
1D72
 90
        2
 70
     0
 71
     0
  1
AcDbOsnapPointRef
 72
     1
331
1D75
 73
     2
 91
        1
 40
1.0
 10
0.0
 20
0.0
 30
2.000000000000000E+50
 75
     0
  0
DIMASSOC
  5
1D81
102
{ACAD_REACTORS
330
1D80
102
}
330
1D80
100
AcDbDimAssoc
330
1D7F
 90
        3
 70
     0
 71
     0
  1
AcDbOsnapPointRef
 72
    13
331
1D75
 73
     2
 91
        1
 40
0.0
 10
0.0
 20
0.0
 30
2.000000000000000E+50
 75
     0
  1
AcDbOsnapPointRef
 72
     1
331
1D75
 73
     2
 91
        1
 40
1.0
 10
0.0
 20
0.0
 30
2.000000000000000E+50
 75
     0
  0
LAYOUT
  5
24
102
{ACAD_REACTORS
330
1A
102
}
330
1A
100
AcDbPlotSettings
  1

  2
\\SF05\Brother HL-1440 series
  4
A4
  6

 40
6.72041654586792
 41
5.027085304260254
 42
6.889755249023438
 43
5.027069091796875
 44
209.9733276367188
 45
296.9259948730469
 46
-6.82
 47
-5.06
 48
0.0
 49
0.0
140
297.0000000000001
141
210.0
142
1.0
143
1.0
 70
 11956
 72
     1
 73
     1
 74
     4
  7

 75
    16
 76
     0
 77
     2
 78
   300
147
1.0
148
0.0
149
0.0
100
AcDbLayout
  1
Model
 70
     1
 71
     0
 10
0.0
 20
0.0
 11
12.0
 21
9.0
 12
0.0
 22
0.0
 32
0.0
 14
38.56989145695651
 24
31.07203953687258
 34
0.0
 15
278.4910769858396
 25
220.9482414276457
 35
0.0
146
0.0
 13
0.0
 23
0.0
 33
0.0
 16
1.0
 26
0.0
 36
0.0
 17
0.0
 27
1.0
 37
0.0
 76
     0
330
21
331
1CAF
  0
LAYOUT
  5
1CFF
102
{ACAD_REACTORS
330
1A
102
}
330
1A
100
AcDbPlotSettings
  1

  2
none_device
  4
iso-a3
  6

 40
6.35
 41
6.35
 42
6.35
 43
6.35
 44
297.0388888888888
 45
420.1583333333333
 46
0.0
 47
0.0
 48
0.0
 49
0.0
140
0.0
141
0.0
142
1.0
143
1.0
 70
   688
 72
     1
 73
     1
 74
     5
  7

 75
    16
 76
     0
 77
     2
 78
   300
147
1.0
148
0.0
149
0.0
100
AcDbLayout
  1
Sheet1
 70
     1
 71
     1
 10
0.0
 20
0.0
 11
0.0
 21
0.0
 12
0.0
 22
0.0
 32
0.0
 14
0.0
 24
0.0
 34
0.0
 15
0.0
 25
0.0
 35
0.0
146
0.0
 13
0.0
 23
0.0
 33
0.0
 16
1.0
 26
0.0
 36
0.0
 17
0.0
 27
1.0
 37
0.0
 76
     0
330
1CFE
331
1D02
  0
MATERIAL
  5
1CF7
102
{ACAD_REACTORS
330
1B
102
}
330
1B
100
AcDbMaterial
  1
ByBlock
 72
     1
 94
      127
  0
MATERIAL
  5
1CF6
102
{ACAD_REACTORS
330
1B
102
}
330
1B
100
AcDbMaterial
  1
ByLayer
 72
     1
 94
      127
  0
MATERIAL
  5
1CF8
102
{ACAD_REACTORS
330
1B
102
}
330
1B
100
AcDbMaterial
  1
Global
 72
     1
 94
      127
  0
MLINESTYLE
  5
18
102
{ACAD_REACTORS
330
17
102
}
330
17
100
AcDbMlineStyle
  2
STANDARD
 70
     0
  3

 62
   256
 51
90.0
 52
90.0
 71
     2
 49
0.5
 62
   256
  6
BYLAYER
 49
-0.5
 62
   256
  6
BYLAYER
  0
ACDBPLACEHOLDER
  5
F
102
{ACAD_REACTORS
330
E
102
}
330
E
  0
SCALE
  5
1CD5
102
{ACAD_REACTORS
330
1CD4
102
}
330
1CD4
100
AcDbScale
 70
     0
300
1:1
140
1.0
141
1.0
290
     1
  0
SCALE
  5
1CD6
102
{ACAD_REACTORS
330
1CD4
102
}
330
1CD4
100
AcDbScale
 70
     0
300
1:2
140
1.0
141
2.0
290
     0
  0
SCALE
  5
1CD7
102
{ACAD_REACTORS
330
1CD4
102
}
330
1CD4
100
AcDbScale
 70
     0
300
1:4
140
1.0
141
4.0
290
     0
  0
SCALE
  5
1CD8
102
{ACAD_REACTORS
330
1CD4
102
}
330
1CD4
100
AcDbScale
 70
     0
300
1:5
140
1.0
141
5.0
290
     0
  0
SCALE
  5
1CD9
102
{ACAD_REACTORS
330
1CD4
102
}
330
1CD4
100
AcDbScale
 70
     0
300
1:8
140
1.0
141
8.0
290
     0
  0
SCALE
  5
1CDA
102
{ACAD_REACTORS
330
1CD4
102
}
330
1CD4
100
AcDbScale
 70
     0
300
1:10
140
1.0
141
10.0
290
     0
  0
SCALE
  5
1CDB
102
{ACAD_REACTORS
330
1CD4
102
}
330
1CD4
100
AcDbScale
 70
     0
300
1:16
140
1.0
141
16.0
290
     0
  0
SCALE
  5
1CDC
102
{ACAD_REACTORS
330
1CD4
102
}
330
1CD4
100
AcDbScale
 70
     0
300
1:20
140
1.0
141
20.0
290
     0
  0
SCALE
  5
1CDD
102
{ACAD_REACTORS
330
1CD4
102
}
330
1CD4
100
AcDbScale
 70
     0
300
1:30
140
1.0
141
30.0
290
     0
  0
SCALE
  5
1CDE
102
{ACAD_REACTORS
330
1CD4
102
}
330
1CD4
100
AcDbScale
 70
     0
300
1:40
140
1.0
141
40.0
290
     0
  0
SCALE
  5
1CDF
102
{ACAD_REACTORS
330
1CD4
102
}
330
1CD4
100
AcDbScale
 70
     0
300
1:50
140
1.0
141
50.0
290
     0
  0
SCALE
  5
1CE0
102
{ACAD_REACTORS
330
1CD4
102
}
330
1CD4
100
AcDbScale
 70
     0
300
1:100
140
1.0
141
100.0
290
     0
  0
SCALE
  5
1CE1
102
{ACAD_REACTORS
330
1CD4
102
}
330
1CD4
100
AcDbScale
 70
     0
300
2:1
140
2.0
141
1.0
290
     0
  0
SCALE
  5
1CE2
102
{ACAD_REACTORS
330
1CD4
102
}
330
1CD4
100
AcDbScale
 70
     0
300
4:1
140
4.0
141
1.0
290
     0
  0
SCALE
  5
1CE3
102
{ACAD_REACTORS
330
1CD4
102
}
330
1CD4
100
AcDbScale
 70
     0
300
8:1
140
8.0
141
1.0
290
     0
  0
SCALE
  5
1CE4
102
{ACAD_REACTORS
330
1CD4
102
}
330
1CD4
100
AcDbScale
 70
     0
300
10:1
140
10.0
141
1.0
290
     0
  0
SCALE
  5
1CE5
102
{ACAD_REACTORS
330
1CD4
102
}
330
1CD4
100
AcDbScale
 70
     0
300
100:1
140
100.0
141
1.0
290
     0
  0
SCALE
  5
1CE6
102
{ACAD_REACTORS
330
1CD4
102
}
330
1CD4
100
AcDbScale
 70
     0
300
1/128" = 1'-0"
140
0.0078125
141
12.0
290
     0
  0
SCALE
  5
1CE7
102
{ACAD_REACTORS
330
1CD4
102
}
330
1CD4
100
AcDbScale
 70
     0
300
1/64" = 1'-0"
140
0.015625
141
12.0
290
     0
  0
SCALE
  5
1CE8
102
{ACAD_REACTORS
330
1CD4
102
}
330
1CD4
100
AcDbScale
 70
     0
300
1/32" = 1'-0"
140
0.03125
141
12.0
290
     0
  0
SCALE
  5
1CE9
102
{ACAD_REACTORS
330
1CD4
102
}
330
1CD4
100
AcDbScale
 70
     0
300
1/16" = 1'-0"
140
0.0625
141
12.0
290
     0
  0
SCALE
  5
1CEA
102
{ACAD_REACTORS
330
1CD4
102
}
330
1CD4
100
AcDbScale
 70
     0
300
3/32" = 1'-0"
140
0.09375
141
12.0
290
     0
  0
SCALE
  5
1CEB
102
{ACAD_REACTORS
330
1CD4
102
}
330
1CD4
100
AcDbScale
 70
     0
300
1/8" = 1'-0"
140
0.125
141
12.0
290
     0
  0
SCALE
  5
1CEC
102
{ACAD_REACTORS
330
1CD4
102
}
330
1CD4
100
AcDbScale
 70
     0
300
3/16" = 1'-0"
140
0.1875
141
12.0
290
     0
  0
SCALE
  5
1CED
102
{ACAD_REACTORS
330
1CD4
102
}
330
1CD4
100
AcDbScale
 70
     0
300
1/4" = 1'-0"
140
0.25
141
12.0
290
     0
  0
SCALE
  5
1CEE
102
{ACAD_REACTORS
330
1CD4
102
}
330
1CD4
100
AcDbScale
 70
     0
300
3/8" = 1'-0"
140
0.375
141
12.0
290
     0
  0
SCALE
  5
1CEF
102
{ACAD_REACTORS
330
1CD4
102
}
330
1CD4
100
AcDbScale
 70
     0
300
1/2" = 1'-0"
140
0.5
141
12.0
290
     0
  0
SCALE
  5
1CF0
102
{ACAD_REACTORS
330
1CD4
102
}
330
1CD4
100
AcDbScale
 70
     0
300
3/4" = 1'-0"
140
0.75
141
12.0
290
     0
  0
SCALE
  5
1CF1
102
{ACAD_REACTORS
330
1CD4
102
}
330
1CD4
100
AcDbScale
 70
     0
300
1" = 1'-0"
140
1.0
141
12.0
290
     0
  0
SCALE
  5
1CF2
102
{ACAD_REACTORS
330
1CD4
102
}
330
1CD4
100
AcDbScale
 70
     0
300
1-1/2" = 1'-0"
140
1.5
141
12.0
290
     0
  0
SCALE
  5
1CF3
102
{ACAD_REACTORS
330
1CD4
102
}
330
1CD4
100
AcDbScale
 70
     0
300
3" = 1'-0"
140
3.0
141
12.0
290
     0
  0
SCALE
  5
1CF4
102
{ACAD_REACTORS
330
1CD4
102
}
330
1CD4
100
AcDbScale
 70
     0
300
6" = 1'-0"
140
6.0
141
12.0
290
     0
  0
SCALE
  5
1CF5
102
{ACAD_REACTORS
330
1CD4
102
}
330
1CD4
100
AcDbScale
 70
     0
300
1'-0" = 1'-0"
140
12.0
141
12.0
290
     0
  0
TABLESTYLE
  5
1CFA
102
{ACAD_REACTORS
330
1CF9
102
}
102
{ACAD_XDICTIONARY
360
1E12
102
}
330
1CF9
100
AcDbTableStyle
  3
Standard
 70
     0
 71
     0
 40
0.06
 41
0.06
280
     0
281
     0
  7
Standard
140
4.5
170
     2
 62
     0
 63
   257
283
     0
 90
        4
 91
        0
  1

274
    -2
284
     1
 64
     0
275
    -2
285
     1
 65
     0
276
    -2
286
     1
 66
     0
277
    -2
287
     1
 67
     0
278
    -2
288
     1
 68
     0
279
    -2
289
     1
 69
     0
  7
Standard
140
6.0
170
     5
 62
     0
 63
   257
283
     0
 90
        4
 91
        0
  1

274
    -2
284
     1
 64
     0
275
    -2
285
     1
 65
     0
276
    -2
286
     1
 66
     0
277
    -2
287
     1
 67
     0
278
    -2
288
     1
 68
     0
279
    -2
289
     1
 69
     0
  7
Standard
140
4.5
170
     5
 62
     0
 63
   257
283
     0
 90
        4
 91
        0
  1

274
    -2
284
     1
 64
     0
275
    -2
285
     1
 65
     0
276
    -2
286
     1
 66
     0
277
    -2
287
     1
 67
     0
278
    -2
288
     1
 68
     0
279
    -2
289
     1
 69
     0
  0
VISUALSTYLE
  5
1CC0
102
{ACAD_REACTORS
330
1CBB
102
}
330
1CBB
100
AcDbVisualStyle
  2
2dWireframe
 70
     4
177
     3
291
     0
 70
    58
 90
        0
176
     1
 90
        2
176
     1
 90
        0
176
     1
 90
        0
176
     1
 40
0.6
176
     1
 40
30.0
176
     1
 62
     7
420
 16777215
176
     1
 90
        1
176
     1
 90
        4
176
     1
 62
     7
176
     1
 62
   257
176
     1
 90
        1
176
     1
 90
        1
176
     1
 40
1.0
176
     1
 90
        0
176
     1
 62
   257
176
     1
 40
1.0
176
     1
 90
        1
176
     1
 90
        6
176
     1
 90
        2
176
     1
 62
     7
176
     1
 90
        5
176
     1
 90
        0
176
     1
 90
        0
176
     1
290
     0
176
     1
 90
        1
176
     1
 40
0.0
176
     1
 90
        0
176
     1
290
     1
176
     1
290
     1
176
     1
290
     0
176
     1
290
     0
176
     1
290
     0
176
     1
290
     0
176
     1
290
     0
176
     1
290
     0
176
     1
290
     0
176
     1
 90
       50
176
     1
 40
0.0
176
     1
 40
1.0
176
     1
 90
        0
176
     1
 62
    18
420
        0
176
     1
 90
       50
176
     1
 90
        3
176
     1
 62
     5
420
      255
176
     1
290
     0
176
     1
 90
       50
176
     1
 90
       50
176
     1
 90
       50
176
     1
290
     0
176
     1
 90
       50
176
     1
 62
   256
176
     0
 40
1.0
176
     0
 90
        2
176
     1
  1
strokes_ogs.tif
176
     1
290
     0
176
     1
 40
1.0
176
     1
 40
1.0
176
     1
  0
VISUALSTYLE
  5
1CC3
102
{ACAD_REACTORS
330
1CBB
102
}
330
1CBB
100
AcDbVisualStyle
  2
Basic
 70
     7
177
     3
291
     1
 70
    58
 90
        1
176
     1
 90
        0
176
     1
 90
        1
176
     1
 90
        0
176
     1
 40
0.6
176
     1
 40
30.0
176
     1
 62
     7
420
 16777215
176
     1
 90
        0
176
     1
 90
        4
176
     1
 62
     7
176
     1
 62
   257
176
     1
 90
        1
176
     1
 90
        1
176
     1
 40
1.0
176
     1
 90
        8
176
     1
 62
     7
176
     1
 40
1.0
176
     1
 90
        1
176
     1
 90
        6
176
     1
 90
        2
176
     1
 62
     7
176
     1
 90
        5
176
     1
 90
        0
176
     1
 90
        0
176
     1
290
     0
176
     1
 90
        1
176
     1
 40
0.0
176
     1
 90
        0
176
     1
290
     0
176
     1
290
     1
176
     1
290
     1
176
     1
290
     0
176
     1
290
     0
176
     1
290
     0
176
     1
290
     0
176
     1
290
     0
176
     1
290
     0
176
     1
 90
       50
176
     1
 40
0.0
176
     1
 40
1.0
176
     1
 90
        0
176
     1
 62
    18
420
        0
176
     1
 90
       50
176
     1
 90
        3
176
     1
 62
     5
420
      255
176
     1
290
     0
176
     1
 90
       50
176
     1
 90
       50
176
     1
 90
       50
176
     1
290
     0
176
     1
 90
       50
176
     1
 62
   256
176
     0
 40
1.0
176
     0
 90
        2
176
     1
  1
strokes_ogs.tif
176
     1
290
     0
176
     1
 40
1.0
176
     1
 40
1.0
176
     1
  0
VISUALSTYLE
  5
1CC7
102
{ACAD_REACTORS
330
1CBB
102
}
330
1CBB
100
AcDbVisualStyle
  2
Brighten
 70
    12
177
     3
291
     1
 70
    58
 90
        2
176
     1
 90
        2
176
     1
 90
        0
176
     1
 90
        0
176
     1
 40
0.6
176
     1
 40
30.0
176
     1
 62
     7
420
 16777215
176
     1
 90
        1
176
     1
 90
        4
176
     1
 62
     7
176
     1
 62
   257
176
     1
 90
        1
176
     1
 90
        1
176
     1
 40
1.0
176
     1
 90
        8
176
     1
 62
     7
176
     1
 40
1.0
176
     1
 90
        1
176
     1
 90
        6
176
     1
 90
        2
176
     1
 62
     7
176
     1
 90
        5
176
     1
 90
        0
176
     1
 90
        0
176
     1
290
     0
176
     1
 90
        1
176
     1
 40
50.0
176
     1
 90
        0
176
     1
290
     0
176
     1
290
     1
176
     1
290
     1
176
     1
290
     0
176
     1
290
     0
176
     1
290
     0
176
     1
290
     0
176
     1
290
     0
176
     1
290
     0
176
     1
 90
       50
176
     1
 40
0.0
176
     1
 40
1.0
176
     1
 90
        0
176
     1
 62
    18
420
        0
176
     1
 90
       50
176
     1
 90
        3
176
     1
 62
     5
420
      255
176
     1
290
     0
176
     1
 90
       50
176
     1
 90
       50
176
     1
 90
       50
176
     1
290
     0
176
     1
 90
       50
176
     1
 62
   256
176
     0
 40
1.0
176
     0
 90
        2
176
     1
  1
strokes_ogs.tif
176
     1
290
     0
176
     1
 40
1.0
176
     1
 40
1.0
176
     1
  0
VISUALSTYLE
  5
1CCB
102
{ACAD_REACTORS
330
1CBB
102
}
330
1CBB
100
AcDbVisualStyle
  2
ColorChange
 70
    16
177
     3
291
     1
 70
    58
 90
        2
176
     1
 90
        2
176
     1
 90
        3
176
     1
 90
        0
176
     1
 40
0.6
176
     1
 40
30.0
176
     1
 62
     8
420
  8421504
176
     1
 90
        1
176
     1
 90
        4
176
     1
 62
     7
176
     1
 62
   257
176
     1
 90
        1
176
     1
 90
        1
176
     1
 40
1.0
176
     1
 90
        8
176
     1
 62
     8
420
  8421504
176
     1
 40
1.0
176
     1
 90
        1
176
     1
 90
        6
176
     1
 90
        2
176
     1
 62
     7
176
     1
 90
        5
176
     1
 90
        0
176
     1
 90
        0
176
     1
290
     0
176
     1
 90
        1
176
     1
 40
0.0
176
     1
 90
        0
176
     1
290
     0
176
     1
290
     1
176
     1
290
     1
176
     1
290
     0
176
     1
290
     0
176
     1
290
     0
176
     1
290
     0
176
     1
290
     0
176
     1
290
     0
176
     1
 90
       50
176
     1
 40
0.0
176
     1
 40
1.0
176
     1
 90
        0
176
     1
 62
    18
420
        0
176
     1
 90
       50
176
     1
 90
        3
176
     1
 62
     5
420
      255
176
     1
290
     0
176
     1
 90
       50
176
     1
 90
       50
176
     1
 90
       50
176
     1
290
     0
176
     1
 90
       50
176
     1
 62
   256
176
     0
 40
1.0
176
     0
 90
        2
176
     1
  1
strokes_ogs.tif
176
     1
290
     0
176
     1
 40
1.0
176
     1
 40
1.0
176
     1
  0
VISUALSTYLE
  5
1CC5
102
{ACAD_REACTORS
330
1CBB
102
}
330
1CBB
100
AcDbVisualStyle
  2
Conceptual
 70
     9
177
     3
291
     0
 70
    58
 90
        3
176
     1
 90
        2
176
     1
 90
        0
176
     1
 90
        0
176
     1
 40
0.6
176
     1
 40
30.0
176
     1
 62
     7
420
 16777215
176
     1
 90
        2
176
     1
 90
        2
176
     1
 62
     7
176
     1
 62
   257
176
     1
 90
        1
176
     1
 90
        1
176
     1
 40
179.0
176
     1
 90
        8
176
     1
 62
     7
176
     1
 40
1.0
176
     1
 90
        1
176
     1
 90
        6
176
     1
 90
        2
176
     1
 62
     7
176
     1
 90
        3
176
     1
 90
        0
176
     1
 90
        0
176
     1
290
     0
176
     1
 90
        1
176
     1
 40
0.0
176
     1
 90
        0
176
     1
290
     0
176
     1
290
     1
176
     1
290
     1
176
     1
290
     0
176
     1
290
     0
176
     1
290
     0
176
     1
290
     0
176
     1
290
     0
176
     1
290
     0
176
     1
 90
       50
176
     1
 40
0.0
176
     1
 40
1.0
176
     1
 90
        0
176
     1
 62
    18
420
        0
176
     1
 90
       50
176
     1
 90
        3
176
     1
 62
     5
420
      255
176
     1
290
     0
176
     1
 90
       50
176
     1
 90
       50
176
     1
 90
       50
176
     1
290
     0
176
     1
 90
       50
176
     1
 62
   256
176
     0
 40
1.0
176
     0
 90
        2
176
     1
  1
strokes_ogs.tif
176
     1
290
     0
176
     1
 40
1.0
176
     1
 40
1.0
176
     1
  0
VISUALSTYLE
  5
1CC6
102
{ACAD_REACTORS
330
1CBB
102
}
330
1CBB
100
AcDbVisualStyle
  2
Dim
 70
    11
177
     3
291
     1
 70
    58
 90
        2
176
     1
 90
        2
176
     1
 90
        0
176
     1
 90
        0
176
     1
 40
0.6
176
     1
 40
30.0
176
     1
 62
     7
420
 16777215
176
     1
 90
        1
176
     1
 90
        4
176
     1
 62
     7
176
     1
 62
   257
176
     1
 90
        1
176
     1
 90
        1
176
     1
 40
1.0
176
     1
 90
        8
176
     1
 62
     7
176
     1
 40
1.0
176
     1
 90
        1
176
     1
 90
        6
176
     1
 90
        2
176
     1
 62
     7
176
     1
 90
        5
176
     1
 90
        0
176
     1
 90
        0
176
     1
290
     0
176
     1
 90
        1
176
     1
 40
-50.0
176
     1
 90
        0
176
     1
290
     0
176
     1
290
     1
176
     1
290
     1
176
     1
290
     0
176
     1
290
     0
176
     1
290
     0
176
     1
290
     0
176
     1
290
     0
176
     1
290
     0
176
     1
 90
       50
176
     1
 40
0.0
176
     1
 40
1.0
176
     1
 90
        0
176
     1
 62
    18
420
        0
176
     1
 90
       50
176
     1
 90
        3
176
     1
 62
     5
420
      255
176
     1
290
     0
176
     1
 90
       50
176
     1
 90
       50
176
     1
 90
       50
176
     1
290
     0
176
     1
 90
       50
176
     1
 62
   256
176
     0
 40
1.0
176
     0
 90
        2
176
     1
  1
strokes_ogs.tif
176
     1
290
     0
176
     1
 40
1.0
176
     1
 40
1.0
176
     1
  0
VISUALSTYLE
  5
1CCE
102
{ACAD_REACTORS
330
1CBB
102
}
330
1CBB
100
AcDbVisualStyle
  2
EdgeColorOff
 70
    22
177
     3
291
     1
 70
    58
 90
        2
176
     0
 90
        2
176
     0
 90
        0
176
     0
 90
        0
176
     0
 40
0.6
176
     0
 40
30.0
176
     0
 62
     7
420
 16777215
176
     0
 90
        1
176
     0
 90
        4
176
     0
 62
     7
176
     0
 62
   257
176
     0
 90
        1
176
     0
 90
        1
176
     0
 40
1.0
176
     0
 90
        8
176
     2
 62
     7
176
     0
 40
1.0
176
     0
 90
        1
176
     0
 90
        6
176
     0
 90
        2
176
     0
 62
     7
176
     0
 90
        5
176
     0
 90
        0
176
     0
 90
        0
176
     0
290
     0
176
     0
 90
        1
176
     0
 40
0.0
176
     0
 90
        0
176
     0
290
     0
176
     0
290
     1
176
     0
290
     1
176
     0
290
     0
176
     0
290
     0
176
     0
290
     0
176
     0
290
     0
176
     0
290
     0
176
     0
290
     0
176
     0
 90
       50
176
     0
 40
0.0
176
     0
 40
1.0
176
     0
 90
        0
176
     0
 62
    18
420
        0
176
     0
 90
       50
176
     0
 90
        3
176
     0
 62
     5
420
      255
176
     0
290
     0
176
     0
 90
       50
176
     0
 90
       50
176
     0
 90
       50
176
     0
290
     0
176
     0
 90
       50
176
     0
 62
   256
176
     0
 40
1.0
176
     0
 90
        2
176
     0
  1
strokes_ogs.tif
176
     0
290
     0
176
     0
 40
1.0
176
     0
 40
1.0
176
     0
  0
VISUALSTYLE
  5
1CCA
102
{ACAD_REACTORS
330
1CBB
102
}
330
1CBB
100
AcDbVisualStyle
  2
Facepattern
 70
    15
177
     3
291
     1
 70
    58
 90
        2
176
     1
 90
        2
176
     1
 90
        0
176
     1
 90
        0
176
     1
 40
0.6
176
     1
 40
30.0
176
     1
 62
     7
420
 16777215
176
     1
 90
        1
176
     1
 90
        4
176
     1
 62
     7
176
     1
 62
   257
176
     1
 90
        1
176
     1
 90
        1
176
     1
 40
1.0
176
     1
 90
        8
176
     1
 62
     7
176
     1
 40
1.0
176
     1
 90
        1
176
     1
 90
        6
176
     1
 90
        2
176
     1
 62
     7
176
     1
 90
        5
176
     1
 90
        0
176
     1
 90
        0
176
     1
290
     0
176
     1
 90
        1
176
     1
 40
0.0
176
     1
 90
        0
176
     1
290
     0
176
     1
290
     1
176
     1
290
     1
176
     1
290
     0
176
     1
290
     0
176
     1
290
     0
176
     1
290
     0
176
     1
290
     0
176
     1
290
     0
176
     1
 90
       50
176
     1
 40
0.0
176
     1
 40
1.0
176
     1
 90
        0
176
     1
 62
    18
420
        0
176
     1
 90
       50
176
     1
 90
        3
176
     1
 62
     5
420
      255
176
     1
290
     0
176
     1
 90
       50
176
     1
 90
       50
176
     1
 90
       50
176
     1
290
     0
176
     1
 90
       50
176
     1
 62
   256
176
     0
 40
1.0
176
     0
 90
        2
176
     1
  1
strokes_ogs.tif
176
     1
290
     0
176
     1
 40
1.0
176
     1
 40
1.0
176
     1
  0
VISUALSTYLE
  5
1CBC
102
{ACAD_REACTORS
330
1CBB
102
}
330
1CBB
100
AcDbVisualStyle
  2
Flat
 70
     0
177
     3
291
     1
 70
    58
 90
        2
176
     1
 90
        1
176
     1
 90
        1
176
     1
 90
        2
176
     1
 40
0.6
176
     1
 40
30.0
176
     1
 62
     7
420
 16777215
176
     1
 90
        0
176
     1
 90
        0
176
     1
 62
     7
176
     1
 62
   257
176
     1
 90
        1
176
     1
 90
        1
176
     1
 40
1.0
176
     1
 90
        8
176
     1
 62
     7
176
     1
 40
1.0
176
     1
 90
        1
176
     1
 90
        6
176
     1
 90
        2
176
     1
 62
     7
176
     1
 90
        5
176
     1
 90
        0
176
     1
 90
        0
176
     1
290
     0
176
     1
 90
       13
176
     1
 40
0.0
176
     1
 90
        0
176
     1
290
     0
176
     1
290
     1
176
     1
290
     1
176
     1
290
     0
176
     1
290
     0
176
     1
290
     0
176
     1
290
     0
176
     1
290
     0
176
     1
290
     0
176
     1
 90
       50
176
     1
 40
0.0
176
     1
 40
1.0
176
     1
 90
        0
176
     1
 62
    18
420
        0
176
     1
 90
       50
176
     1
 90
        3
176
     1
 62
     5
420
      255
176
     1
290
     0
176
     1
 90
       50
176
     1
 90
       50
176
     1
 90
       50
176
     1
290
     0
176
     1
 90
       50
176
     1
 62
   256
176
     0
 40
1.0
176
     0
 90
        2
176
     1
  1
strokes_ogs.tif
176
     1
290
     0
176
     1
 40
1.0
176
     1
 40
1.0
176
     1
  0
VISUALSTYLE
  5
1CBD
102
{ACAD_REACTORS
330
1CBB
102
}
330
1CBB
100
AcDbVisualStyle
  2
FlatWithEdges
 70
     1
177
     3
291
     1
 70
    58
 90
        2
176
     1
 90
        1
176
     1
 90
        1
176
     1
 90
        2
176
     1
 40
0.6
176
     1
 40
30.0
176
     1
 62
     7
420
 16777215
176
     1
 90
        1
176
     1
 90
        0
176
     1
 62
     7
176
     1
 62
   257
176
     1
 90
        1
176
     1
 90
        1
176
     1
 40
1.0
176
     1
 90
        0
176
     1
 62
   257
176
     1
 40
1.0
176
     1
 90
        1
176
     1
 90
        6
176
     1
 90
        2
176
     1
 62
     7
176
     1
 90
        5
176
     1
 90
        0
176
     1
 90
        0
176
     1
290
     0
176
     1
 90
       13
176
     1
 40
0.0
176
     1
 90
        0
176
     1
290
     0
176
     1
290
     1
176
     1
290
     1
176
     1
290
     0
176
     1
290
     0
176
     1
290
     0
176
     1
290
     0
176
     1
290
     0
176
     1
290
     0
176
     1
 90
       50
176
     1
 40
0.0
176
     1
 40
1.0
176
     1
 90
        0
176
     1
 62
    18
420
        0
176
     1
 90
       50
176
     1
 90
        3
176
     1
 62
     5
420
      255
176
     1
290
     0
176
     1
 90
       50
176
     1
 90
       50
176
     1
 90
       50
176
     1
290
     0
176
     1
 90
       50
176
     1
 62
   256
176
     0
 40
1.0
176
     0
 90
        2
176
     1
  1
strokes_ogs.tif
176
     1
290
     0
176
     1
 40
1.0
176
     1
 40
1.0
176
     1
  0
VISUALSTYLE
  5
1CBE
102
{ACAD_REACTORS
330
1CBB
102
}
330
1CBB
100
AcDbVisualStyle
  2
Gouraud
 70
     2
177
     3
291
     1
 70
    58
 90
        2
176
     1
 90
        2
176
     1
 90
        1
176
     1
 90
        2
176
     1
 40
0.6
176
     1
 40
30.0
176
     1
 62
     7
420
 16777215
176
     1
 90
        0
176
     1
 90
        0
176
     1
 62
     7
176
     1
 62
   257
176
     1
 90
        1
176
     1
 90
        1
176
     1
 40
1.0
176
     1
 90
        0
176
     1
 62
     7
176
     1
 40
1.0
176
     1
 90
        1
176
     1
 90
        6
176
     1
 90
        2
176
     1
 62
     7
176
     1
 90
        5
176
     1
 90
        0
176
     1
 90
        0
176
     1
290
     0
176
     1
 90
       13
176
     1
 40
0.0
176
     1
 90
        0
176
     1
290
     0
176
     1
290
     1
176
     1
290
     1
176
     1
290
     0
176
     1
290
     0
176
     1
290
     0
176
     1
290
     0
176
     1
290
     0
176
     1
290
     0
176
     1
 90
       50
176
     1
 40
0.0
176
     1
 40
1.0
176
     1
 90
        0
176
     1
 62
    18
420
        0
176
     1
 90
       50
176
     1
 90
        3
176
     1
 62
     5
420
      255
176
     1
290
     0
176
     1
 90
       50
176
     1
 90
       50
176
     1
 90
       50
176
     1
290
     0
176
     1
 90
       50
176
     1
 62
   256
176
     0
 40
1.0
176
     0
 90
        2
176
     1
  1
strokes_ogs.tif
176
     1
290
     0
176
     1
 40
1.0
176
     1
 40
1.0
176
     1
  0
VISUALSTYLE
  5
1CBF
102
{ACAD_REACTORS
330
1CBB
102
}
330
1CBB
100
AcDbVisualStyle
  2
GouraudWithEdges
 70
     3
177
     3
291
     1
 70
    58
 90
        2
176
     1
 90
        2
176
     1
 90
        1
176
     1
 90
        2
176
     1
 40
0.6
176
     1
 40
30.0
176
     1
 62
     7
420
 16777215
176
     1
 90
        1
176
     1
 90
        0
176
     1
 62
     7
176
     1
 62
   257
176
     1
 90
        1
176
     1
 90
        1
176
     1
 40
1.0
176
     1
 90
        0
176
     1
 62
   257
176
     1
 40
1.0
176
     1
 90
        1
176
     1
 90
        6
176
     1
 90
        2
176
     1
 62
     7
176
     1
 90
        5
176
     1
 90
        0
176
     1
 90
        0
176
     1
290
     0
176
     1
 90
       13
176
     1
 40
0.0
176
     1
 90
        0
176
     1
290
     0
176
     1
290
     1
176
     1
290
     1
176
     1
290
     0
176
     1
290
     0
176
     1
290
     0
176
     1
290
     0
176
     1
290
     0
176
     1
290
     0
176
     1
 90
       50
176
     1
 40
0.0
176
     1
 40
1.0
176
     1
 90
        0
176
     1
 62
    18
420
        0
176
     1
 90
       50
176
     1
 90
        3
176
     1
 62
     5
420
      255
176
     1
290
     0
176
     1
 90
       50
176
     1
 90
       50
176
     1
 90
       50
176
     1
290
     0
176
     1
 90
       50
176
     1
 62
   256
176
     0
 40
1.0
176
     0
 90
        2
176
     1
  1
strokes_ogs.tif
176
     1
290
     0
176
     1
 40
1.0
176
     1
 40
1.0
176
     1
  0
VISUALSTYLE
  5
1CC2
102
{ACAD_REACTORS
330
1CBB
102
}
330
1CBB
100
AcDbVisualStyle
  2
Hidden
 70
     6
177
     3
291
     0
 70
    58
 90
        1
176
     1
 90
        2
176
     1
 90
        2
176
     1
 90
        0
176
     1
 40
0.6
176
     1
 40
30.0
176
     1
 62
     7
420
 16777215
176
     1
 90
        2
176
     1
 90
        2
176
     1
 62
     7
176
     1
 62
   257
176
     1
 90
        2
176
     1
 90
        1
176
     1
 40
40.0
176
     1
 90
        0
176
     1
 62
   257
176
     1
 40
1.0
176
     1
 90
        1
176
     1
 90
        6
176
     1
 90
        2
176
     1
 62
     7
176
     1
 90
        3
176
     1
 90
        0
176
     1
 90
        0
176
     1
290
     0
176
     1
 90
        1
176
     1
 40
0.0
176
     1
 90
        0
176
     1
290
     0
176
     1
290
     1
176
     1
290
     1
176
     1
290
     0
176
     1
290
     0
176
     1
290
     0
176
     1
290
     0
176
     1
290
     0
176
     1
290
     0
176
     1
 90
       50
176
     1
 40
0.0
176
     1
 40
1.0
176
     1
 90
        0
176
     1
 62
    18
420
        0
176
     1
 90
       50
176
     1
 90
        3
176
     1
 62
     5
420
      255
176
     1
290
     0
176
     1
 90
       50
176
     1
 90
       50
176
     1
 90
       50
176
     1
290
     0
176
     1
 90
       50
176
     1
 62
   256
176
     0
 40
1.0
176
     0
 90
        2
176
     1
  1
strokes_ogs.tif
176
     1
290
     0
176
     1
 40
1.0
176
     1
 40
1.0
176
     1
  0
VISUALSTYLE
  5
1CCC
102
{ACAD_REACTORS
330
1CBB
102
}
330
1CBB
100
AcDbVisualStyle
  2
JitterOff
 70
    20
177
     3
291
     1
 70
    58
 90
        2
176
     0
 90
        2
176
     0
 90
        0
176
     0
 90
        0
176
     0
 40
0.6
176
     0
 40
30.0
176
     0
 62
     7
420
 16777215
176
     0
 90
        1
176
     0
 90
        4
176
     0
 62
     7
176
     0
 62
   257
176
     0
 90
        1
176
     0
 90
        1
176
     0
 40
1.0
176
     0
 90
       10
176
     2
 62
     7
176
     0
 40
1.0
176
     0
 90
        1
176
     0
 90
        6
176
     0
 90
        2
176
     0
 62
     7
176
     0
 90
        5
176
     0
 90
        0
176
     0
 90
        0
176
     0
290
     0
176
     0
 90
        1
176
     0
 40
0.0
176
     0
 90
        0
176
     0
290
     0
176
     0
290
     1
176
     0
290
     1
176
     0
290
     0
176
     0
290
     0
176
     0
290
     0
176
     0
290
     0
176
     0
290
     0
176
     0
290
     0
176
     0
 90
       50
176
     0
 40
0.0
176
     0
 40
1.0
176
     0
 90
        0
176
     0
 62
    18
420
        0
176
     0
 90
       50
176
     0
 90
        3
176
     0
 62
     5
420
      255
176
     0
290
     0
176
     0
 90
       50
176
     0
 90
       50
176
     0
 90
       50
176
     0
290
     0
176
     0
 90
       50
176
     0
 62
   256
176
     0
 40
1.0
176
     0
 90
        2
176
     0
  1
strokes_ogs.tif
176
     0
290
     0
176
     0
 40
1.0
176
     0
 40
1.0
176
     0
  0
VISUALSTYLE
  5
1CC9
102
{ACAD_REACTORS
330
1CBB
102
}
330
1CBB
100
AcDbVisualStyle
  2
Linepattern
 70
    14
177
     3
291
     1
 70
    58
 90
        2
176
     1
 90
        2
176
     1
 90
        0
176
     1
 90
        0
176
     1
 40
0.6
176
     1
 40
30.0
176
     1
 62
     7
420
 16777215
176
     1
 90
        1
176
     1
 90
        4
176
     1
 62
     7
176
     1
 62
   257
176
     1
 90
        7
176
     1
 90
        7
176
     1
 40
1.0
176
     1
 90
        8
176
     1
 62
     7
176
     1
 40
1.0
176
     1
 90
        1
176
     1
 90
        6
176
     1
 90
        2
176
     1
 62
     7
176
     1
 90
        5
176
     1
 90
        0
176
     1
 90
        0
176
     1
290
     0
176
     1
 90
        1
176
     1
 40
0.0
176
     1
 90
        0
176
     1
290
     0
176
     1
290
     1
176
     1
290
     1
176
     1
290
     0
176
     1
290
     0
176
     1
290
     0
176
     1
290
     0
176
     1
290
     0
176
     1
290
     0
176
     1
 90
       50
176
     1
 40
0.0
176
     1
 40
1.0
176
     1
 90
        0
176
     1
 62
    18
420
        0
176
     1
 90
       50
176
     1
 90
        3
176
     1
 62
     5
420
      255
176
     1
290
     0
176
     1
 90
       50
176
     1
 90
       50
176
     1
 90
       50
176
     1
290
     0
176
     1
 90
       50
176
     1
 62
   256
176
     0
 40
1.0
176
     0
 90
        2
176
     1
  1
strokes_ogs.tif
176
     1
290
     0
176
     1
 40
1.0
176
     1
 40
1.0
176
     1
  0
VISUALSTYLE
  5
1CCD
102
{ACAD_REACTORS
330
1CBB
102
}
330
1CBB
100
AcDbVisualStyle
  2
OverhangOff
 70
    21
177
     3
291
     1
 70
    58
 90
        2
176
     0
 90
        2
176
     0
 90
        0
176
     0
 90
        0
176
     0
 40
0.6
176
     0
 40
30.0
176
     0
 62
     7
420
 16777215
176
     0
 90
        1
176
     0
 90
        4
176
     0
 62
     7
176
     0
 62
   257
176
     0
 90
        1
176
     0
 90
        1
176
     0
 40
1.0
176
     0
 90
        9
176
     2
 62
     7
176
     0
 40
1.0
176
     0
 90
        1
176
     0
 90
        6
176
     0
 90
        2
176
     0
 62
     7
176
     0
 90
        5
176
     0
 90
        0
176
     0
 90
        0
176
     0
290
     0
176
     0
 90
        1
176
     0
 40
0.0
176
     0
 90
        0
176
     0
290
     0
176
     0
290
     1
176
     0
290
     1
176
     0
290
     0
176
     0
290
     0
176
     0
290
     0
176
     0
290
     0
176
     0
290
     0
176
     0
290
     0
176
     0
 90
       50
176
     0
 40
0.0
176
     0
 40
1.0
176
     0
 90
        0
176
     0
 62
    18
420
        0
176
     0
 90
       50
176
     0
 90
        3
176
     0
 62
     5
420
      255
176
     0
290
     0
176
     0
 90
       50
176
     0
 90
       50
176
     0
 90
       50
176
     0
290
     0
176
     0
 90
       50
176
     0
 62
   256
176
     0
 40
1.0
176
     0
 90
        2
176
     0
  1
strokes_ogs.tif
176
     0
290
     0
176
     0
 40
1.0
176
     0
 40
1.0
176
     0
  0
VISUALSTYLE
  5
1CC4
102
{ACAD_REACTORS
330
1CBB
102
}
330
1CBB
100
AcDbVisualStyle
  2
Realistic
 70
     8
177
     3
291
     0
 70
    58
 90
        2
176
     1
 90
        3
176
     1
 90
        0
176
     1
 90
        2
176
     1
 40
0.6
176
     1
 40
30.0
176
     1
 62
     7
420
 16777215
176
     1
 90
        0
176
     1
 90
        0
176
     1
 62
     7
176
     1
 62
   257
176
     1
 90
        1
176
     1
 90
        1
176
     1
 40
1.0
176
     1
 90
        8
176
     1
 62
   257
176
     1
 40
1.0
176
     1
 90
        1
176
     1
 90
        6
176
     1
 90
        2
176
     1
 62
     7
176
     1
 90
        3
176
     1
 90
        0
176
     1
 90
        0
176
     1
290
     0
176
     1
 90
       13
176
     1
 40
0.0
176
     1
 90
        0
176
     1
290
     0
176
     1
290
     1
176
     1
290
     1
176
     1
290
     0
176
     1
290
     0
176
     1
290
     0
176
     1
290
     0
176
     1
290
     0
176
     1
290
     0
176
     1
 90
       50
176
     1
 40
0.0
176
     1
 40
1.0
176
     1
 90
        0
176
     1
 62
    18
420
        0
176
     1
 90
       50
176
     1
 90
        3
176
     1
 62
     5
420
      255
176
     1
290
     0
176
     1
 90
       50
176
     1
 90
       50
176
     1
 90
       50
176
     1
290
     0
176
     1
 90
       50
176
     1
 62
   256
176
     0
 40
1.0
176
     0
 90
        2
176
     1
  1
strokes_ogs.tif
176
     1
290
     0
176
     1
 40
1.0
176
     1
 40
1.0
176
     1
  0
VISUALSTYLE
  5
1CD3
102
{ACAD_REACTORS
330
1CBB
102
}
330
1CBB
100
AcDbVisualStyle
  2
Shaded
 70
    27
177
     3
291
     0
 70
    58
 90
        2
176
     1
 90
        2
176
     1
 90
        1
176
     1
 90
        2
176
     1
 40
0.6
176
     1
 40
30.0
176
     1
 62
     7
420
 16777215
176
     1
 90
        0
176
     1
 90
        4
176
     1
 62
     7
176
     1
 62
   257
176
     1
 90
        1
176
     1
 90
        1
176
     1
 40
1.0
176
     1
 90
        8
176
     1
 62
   257
176
     1
 40
1.0
176
     1
 90
        1
176
     1
 90
        6
176
     1
 90
        2
176
     1
 62
     8
420
  7895160
176
     1
 90
        3
176
     1
 90
        0
176
     1
 90
        0
176
     1
290
     0
176
     1
 90
        5
176
     1
 40
0.0
176
     1
 90
        0
176
     1
290
     0
176
     1
290
     1
176
     1
290
     1
176
     1
290
     0
176
     1
290
     0
176
     1
290
     0
176
     1
290
     0
176
     1
290
     0
176
     1
290
     0
176
     1
 90
       50
176
     1
 40
0.0
176
     1
 40
1.0
176
     1
 90
        0
176
     1
 62
    18
420
        0
176
     1
 90
       50
176
     1
 90
        3
176
     1
 62
     5
420
      255
176
     1
290
     0
176
     1
 90
       50
176
     1
 90
       50
176
     1
 90
       50
176
     1
290
     0
176
     1
 90
       50
176
     1
 62
   256
176
     0
 40
1.0
176
     0
 90
        2
176
     1
  1
strokes_ogs.tif
176
     1
290
     0
176
     1
 40
1.0
176
     1
 40
1.0
176
     1
  0
VISUALSTYLE
  5
1CD2
102
{ACAD_REACTORS
330
1CBB
102
}
330
1CBB
100
AcDbVisualStyle
  2
Shaded with edges
 70
    26
177
     3
291
     0
 70
    58
 90
        2
176
     1
 90
        2
176
     1
 90
        1
176
     1
 90
        2
176
     1
 40
0.6
176
     1
 40
30.0
176
     1
 62
     7
420
 16777215
176
     1
 90
        1
176
     1
 90
       10
176
     1
 62
     7
176
     1
 62
   257
176
     1
 90
        2
176
     1
 90
        1
176
     1
 40
1.0
176
     1
 90
        8
176
     1
 62
   257
176
     1
 40
1.0
176
     1
 90
        1
176
     1
 90
        6
176
     1
 90
        2
176
     1
 62
     7
176
     1
 90
        3
176
     1
 90
        0
176
     1
 90
        0
176
     1
290
     0
176
     1
 90
        5
176
     1
 40
0.0
176
     1
 90
        0
176
     1
290
     0
176
     1
290
     1
176
     1
290
     1
176
     1
290
     0
176
     1
290
     0
176
     1
290
     0
176
     1
290
     0
176
     1
290
     0
176
     1
290
     0
176
     1
 90
       50
176
     1
 40
0.0
176
     1
 40
1.0
176
     1
 90
        0
176
     1
 62
    18
420
        0
176
     1
 90
       50
176
     1
 90
        3
176
     1
 62
     5
420
      255
176
     1
290
     0
176
     1
 90
       50
176
     1
 90
       50
176
     1
 90
       50
176
     1
290
     0
176
     1
 90
       50
176
     1
 62
   256
176
     0
 40
1.0
176
     0
 90
        2
176
     1
  1
strokes_ogs.tif
176
     1
290
     0
176
     1
 40
1.0
176
     1
 40
1.0
176
     1
  0
VISUALSTYLE
  5
1CCF
102
{ACAD_REACTORS
330
1CBB
102
}
330
1CBB
100
AcDbVisualStyle
  2
Shades of Gray
 70
    23
177
     3
291
     0
 70
    58
 90
        2
176
     1
 90
        2
176
     1
 90
        3
176
     1
 90
        0
176
     1
 40
0.6
176
     1
 40
30.0
176
     1
 62
     7
420
 16777215
176
     1
 90
        2
176
     1
 90
        2
176
     1
 62
     7
176
     1
 62
     7
176
     1
 90
        1
176
     1
 90
        1
176
     1
 40
40.0
176
     1
 90
        8
176
     1
 62
     7
176
     1
 40
1.0
176
     1
 90
        1
176
     1
 90
        6
176
     1
 90
        2
176
     1
 62
     7
176
     1
 90
        3
176
     1
 90
        0
176
     1
 90
        0
176
     1
290
     0
176
     1
 90
        1
176
     1
 40
0.0
176
     1
 90
        0
176
     1
290
     0
176
     1
290
     1
176
     1
290
     1
176
     1
290
     0
176
     1
290
     0
176
     1
290
     0
176
     1
290
     0
176
     1
290
     0
176
     1
290
     0
176
     1
 90
       50
176
     1
 40
0.0
176
     1
 40
1.0
176
     1
 90
        0
176
     1
 62
    18
420
        0
176
     1
 90
       50
176
     1
 90
        3
176
     1
 62
     5
420
      255
176
     1
290
     0
176
     1
 90
       50
176
     1
 90
       50
176
     1
 90
       50
176
     1
290
     0
176
     1
 90
       50
176
     1
 62
   256
176
     0
 40
1.0
176
     0
 90
        2
176
     1
  1
strokes_ogs.tif
176
     1
290
     0
176
     1
 40
1.0
176
     1
 40
1.0
176
     1
  0
VISUALSTYLE
  5
1CD0
102
{ACAD_REACTORS
330
1CBB
102
}
330
1CBB
100
AcDbVisualStyle
  2
Sketchy
 70
    24
177
     3
291
     0
 70
    58
 90
        1
176
     1
 90
        2
176
     1
 90
        2
176
     1
 90
        0
176
     1
 40
0.6
176
     1
 40
30.0
176
     1
 62
     7
420
 16777215
176
     1
 90
        2
176
     1
 90
        2
176
     1
 62
     7
176
     1
 62
     7
176
     1
 90
        1
176
     1
 90
        1
176
     1
 40
40.0
176
     1
 90
       11
176
     1
 62
     7
176
     1
 40
1.0
176
     1
 90
        1
176
     1
 90
        6
176
     1
 90
        2
176
     1
 62
     7
176
     1
 90
        6
176
     1
 90
        0
176
     1
 90
        0
176
     1
290
     0
176
     1
 90
        1
176
     1
 40
0.0
176
     1
 90
        0
176
     1
290
     0
176
     1
290
     1
176
     1
290
     1
176
     1
290
     0
176
     1
290
     0
176
     1
290
     0
176
     1
290
     0
176
     1
290
     0
176
     1
290
     0
176
     1
 90
       50
176
     1
 40
0.0
176
     1
 40
1.0
176
     1
 90
        0
176
     1
 62
    18
420
        0
176
     1
 90
       50
176
     1
 90
        3
176
     1
 62
     5
420
      255
176
     1
290
     0
176
     1
 90
       50
176
     1
 90
       50
176
     1
 90
       50
176
     1
290
     0
176
     1
 90
       50
176
     1
 62
   256
176
     0
 40
1.0
176
     0
 90
        2
176
     1
  1
strokes_ogs.tif
176
     1
290
     0
176
     1
 40
1.0
176
     1
 40
1.0
176
     1
  0
VISUALSTYLE
  5
1CC8
102
{ACAD_REACTORS
330
1CBB
102
}
330
1CBB
100
AcDbVisualStyle
  2
Thicken
 70
    13
177
     3
291
     1
 70
    58
 90
        2
176
     1
 90
        2
176
     1
 90
        0
176
     1
 90
        0
176
     1
 40
0.6
176
     1
 40
30.0
176
     1
 62
     7
420
 16777215
176
     1
 90
        1
176
     1
 90
        4
176
     1
 62
     7
176
     1
 62
   257
176
     1
 90
        1
176
     1
 90
        1
176
     1
 40
1.0
176
     1
 90
       12
176
     1
 62
     7
176
     1
 40
1.0
176
     1
 90
        1
176
     1
 90
        6
176
     1
 90
        2
176
     1
 62
     7
176
     1
 90
        5
176
     1
 90
        0
176
     1
 90
        0
176
     1
290
     0
176
     1
 90
        1
176
     1
 40
0.0
176
     1
 90
        0
176
     1
290
     0
176
     1
290
     1
176
     1
290
     1
176
     1
290
     0
176
     1
290
     0
176
     1
290
     0
176
     1
290
     0
176
     1
290
     0
176
     1
290
     0
176
     1
 90
       50
176
     1
 40
0.0
176
     1
 40
1.0
176
     1
 90
        0
176
     1
 62
    18
420
        0
176
     1
 90
       50
176
     1
 90
        3
176
     1
 62
     5
420
      255
176
     1
290
     0
176
     1
 90
       50
176
     1
 90
       50
176
     1
 90
       50
176
     1
290
     0
176
     1
 90
       50
176
     1
 62
   256
176
     0
 40
1.0
176
     0
 90
        2
176
     1
  1
strokes_ogs.tif
176
     1
290
     0
176
     1
 40
1.0
176
     1
 40
1.0
176
     1
  0
VISUALSTYLE
  5
1CC1
102
{ACAD_REACTORS
330
1CBB
102
}
330
1CBB
100
AcDbVisualStyle
  2
Wireframe
 70
     5
177
     3
291
     0
 70
    58
 90
        0
176
     1
 90
        2
176
     1
 90
        0
176
     1
 90
        0
176
     1
 40
0.6
176
     1
 40
30.0
176
     1
 62
     7
420
 16777215
176
     1
 90
        1
176
     1
 90
        4
176
     1
 62
     7
176
     1
 62
   257
176
     1
 90
        1
176
     1
 90
        1
176
     1
 40
1.0
176
     1
 90
        0
176
     1
 62
   257
176
     1
 40
1.0
176
     1
 90
        1
176
     1
 90
        6
176
     1
 90
        2
176
     1
 62
     7
176
     1
 90
        3
176
     1
 90
        0
176
     1
 90
        0
176
     1
290
     0
176
     1
 90
        1
176
     1
 40
0.0
176
     1
 90
        0
176
     1
290
     0
176
     1
290
     1
176
     1
290
     1
176
     1
290
     0
176
     1
290
     0
176
     1
290
     0
176
     1
290
     0
176
     1
290
     0
176
     1
290
     0
176
     1
 90
       50
176
     1
 40
0.0
176
     1
 40
1.0
176
     1
 90
        0
176
     1
 62
    18
420
        0
176
     1
 90
       50
176
     1
 90
        3
176
     1
 62
     5
420
      255
176
     1
290
     0
176
     1
 90
       50
176
     1
 90
       50
176
     1
 90
       50
176
     1
290
     0
176
     1
 90
       50
176
     1
 62
   256
176
     0
 40
1.0
176
     0
 90
        2
176
     1
  1
strokes_ogs.tif
176
     1
290
     0
176
     1
 40
1.0
176
     1
 40
1.0
176
     1
  0
VISUALSTYLE
  5
1CD1
102
{ACAD_REACTORS
330
1CBB
102
}
330
1CBB
100
AcDbVisualStyle
  2
X-Ray
 70
    25
177
     3
291
     0
 70
    58
 90
        2
176
     1
 90
        2
176
     1
 90
        1
176
     1
 90
        1
176
     1
 40
0.5
176
     1
 40
30.0
176
     1
 62
     7
420
 16777215
176
     1
 90
        1
176
     1
 90
        0
176
     1
 62
     7
176
     1
 62
   257
176
     1
 90
        1
176
     1
 90
        1
176
     1
 40
1.0
176
     1
 90
        8
176
     1
 62
     7
176
     1
 40
1.0
176
     1
 90
        1
176
     1
 90
        6
176
     1
 90
        2
176
     1
 62
     7
176
     1
 90
        3
176
     1
 90
        0
176
     1
 90
        0
176
     1
290
     0
176
     1
 90
       13
176
     1
 40
0.0
176
     1
 90
        0
176
     1
290
     0
176
     1
290
     1
176
     1
290
     1
176
     1
290
     0
176
     1
290
     0
176
     1
290
     0
176
     1
290
     0
176
     1
290
     0
176
     1
290
     0
176
     1
 90
       50
176
     1
 40
0.0
176
     1
 40
1.0
176
     1
 90
        0
176
     1
 62
    18
420
        0
176
     1
 90
       50
176
     1
 90
        3
176
     1
 62
     5
420
      255
176
     1
290
     0
176
     1
 90
       50
176
     1
 90
       50
176
     1
 90
       50
176
     1
290
     0
176
     1
 90
       50
176
     1
 62
   256
176
     0
 40
1.0
176
     0
 90
        2
176
     1
  1
strokes_ogs.tif
176
     1
290
     0
176
     1
 40
1.0
176
     1
 40
1.0
176
     1
  0
DICTIONARYVAR
  5
1D06
102
{ACAD_REACTORS
330
13CA
102
}
330
13CA
100
DictionaryVariables
280
     0
  1
1:1
  0
DICTIONARYVAR
  5
1D0A
102
{ACAD_REACTORS
330
13CA
102
}
330
13CA
100
DictionaryVariables
280
     0
  1
Standard
  0
DICTIONARYVAR
  5
13CC
102
{ACAD_REACTORS
330
13CA
102
}
330
13CA
100
DictionaryVariables
280
     0
  1
2
  0
DICTIONARYVAR
  5
13CB
102
{ACAD_REACTORS
330
13CA
102
}
330
13CA
100
DictionaryVariables
280
     0
  1
1
  0
DICTIONARYVAR
  5
1D0C
102
{ACAD_REACTORS
330
13CA
102
}
330
13CA
100
DictionaryVariables
280
     0
  1
0
  0
DICTIONARYVAR
  5
13CD
102
{ACAD_REACTORS
330
13CA
102
}
330
13CA
100
DictionaryVariables
280
     0
  1

  0
DICTIONARY
  5
1E12
330
1CFA
100
AcDbDictionary
280
     1
281
     1
  3
ACAD_ROUNDTRIP_2008_TABLESTYLE_CELLSTYLEMAP
360
1E13
  0
CELLSTYLEMAP
  5
1E13
102
{ACAD_REACTORS
330
1E12
102
}
330
1E12
100
AcDbCellStyleMap
 90
        3
300
CELLSTYLE
  1
TABLEFORMAT_BEGIN
 90
        5
170
     1
 91
        0
 92
        0
 62
   257
 93
        1
300
CONTENTFORMAT
  1
CONTENTFORMAT_BEGIN
 90
        0
 91
        0
 92
        4
 93
        0
300

 40
0.0
140
1.0
 94
        5
 62
     0
340
11
144
6.0
309
CONTENTFORMAT_END
171
     1
301
MARGIN
  1
CELLMARGIN_BEGIN
 40
1.5
 40
1.5
 40
1.5
 40
1.5
 40
1.5
 40
1.5
309
CELLMARGIN_END
 94
        6
 95
        1
302
GRIDFORMAT
  1
GRIDFORMAT_BEGIN
 90
        0
 91
        1
 62
     0
 92
       -2
340
14
 93
        0
 40
0.045
309
GRIDFORMAT_END
 95
        2
302
GRIDFORMAT
  1
GRIDFORMAT_BEGIN
 90
        0
 91
        1
 62
     0
 92
       -2
340
14
 93
        0
 40
0.045
309
GRIDFORMAT_END
 95
        4
302
GRIDFORMAT
  1
GRIDFORMAT_BEGIN
 90
        0
 91
        1
 62
     0
 92
       -2
340
14
 93
        0
 40
0.045
309
GRIDFORMAT_END
 95
        8
302
GRIDFORMAT
  1
GRIDFORMAT_BEGIN
 90
        0
 91
        1
 62
     0
 92
       -2
340
14
 93
        0
 40
0.045
309
GRIDFORMAT_END
 95
       16
302
GRIDFORMAT
  1
GRIDFORMAT_BEGIN
 90
        0
 91
        1
 62
     0
 92
       -2
340
14
 93
        0
 40
0.045
309
GRIDFORMAT_END
 95
       32
302
GRIDFORMAT
  1
GRIDFORMAT_BEGIN
 90
        0
 91
        1
 62
     0
 92
       -2
340
14
 93
        0
 40
0.045
309
GRIDFORMAT_END
309
TABLEFORMAT_END
  1
CELLSTYLE_BEGIN
 90
        1
 91
        1
300
_TITLE
309
CELLSTYLE_END
300
CELLSTYLE
  1
TABLEFORMAT_BEGIN
 90
        5
170
     1
 91
        0
 92
        0
 62
   257
 93
        1
300
CONTENTFORMAT
  1
CONTENTFORMAT_BEGIN
 90
        0
 91
        0
 92
        4
 93
        0
300

 40
0.0
140
1.0
 94
        5
 62
     0
340
11
144
4.5
309
CONTENTFORMAT_END
171
     1
301
MARGIN
  1
CELLMARGIN_BEGIN
 40
1.5
 40
1.5
 40
1.5
 40
1.5
 40
1.5
 40
1.5
309
CELLMARGIN_END
 94
        6
 95
        1
302
GRIDFORMAT
  1
GRIDFORMAT_BEGIN
 90
        0
 91
        1
 62
     0
 92
       -2
340
14
 93
        0
 40
0.045
309
GRIDFORMAT_END
 95
        2
302
GRIDFORMAT
  1
GRIDFORMAT_BEGIN
 90
        0
 91
        1
 62
     0
 92
       -2
340
14
 93
        0
 40
0.045
309
GRIDFORMAT_END
 95
        4
302
GRIDFORMAT
  1
GRIDFORMAT_BEGIN
 90
        0
 91
        1
 62
     0
 92
       -2
340
14
 93
        0
 40
0.045
309
GRIDFORMAT_END
 95
        8
302
GRIDFORMAT
  1
GRIDFORMAT_BEGIN
 90
        0
 91
        1
 62
     0
 92
       -2
340
14
 93
        0
 40
0.045
309
GRIDFORMAT_END
 95
       16
302
GRIDFORMAT
  1
GRIDFORMAT_BEGIN
 90
        0
 91
        1
 62
     0
 92
       -2
340
14
 93
        0
 40
0.045
309
GRIDFORMAT_END
 95
       32
302
GRIDFORMAT
  1
GRIDFORMAT_BEGIN
 90
        0
 91
        1
 62
     0
 92
       -2
340
14
 93
        0
 40
0.045
309
GRIDFORMAT_END
309
TABLEFORMAT_END
  1
CELLSTYLE_BEGIN
 90
        2
 91
        1
300
_HEADER
309
CELLSTYLE_END
300
CELLSTYLE
  1
TABLEFORMAT_BEGIN
 90
        5
170
     1
 91
        0
 92
        0
 62
   257
 93
        1
300
CONTENTFORMAT
  1
CONTENTFORMAT_BEGIN
 90
        0
 91
        0
 92
        4
 93
        0
300

 40
0.0
140
1.0
 94
        2
 62
     0
340
11
144
4.5
309
CONTENTFORMAT_END
171
     1
301
MARGIN
  1
CELLMARGIN_BEGIN
 40
1.5
 40
1.5
 40
1.5
 40
1.5
 40
1.5
 40
1.5
309
CELLMARGIN_END
 94
        6
 95
        1
302
GRIDFORMAT
  1
GRIDFORMAT_BEGIN
 90
        0
 91
        1
 62
     0
 92
       -2
340
14
 93
        0
 40
0.045
309
GRIDFORMAT_END
 95
        2
302
GRIDFORMAT
  1
GRIDFORMAT_BEGIN
 90
        0
 91
        1
 62
     0
 92
       -2
340
14
 93
        0
 40
0.045
309
GRIDFORMAT_END
 95
        4
302
GRIDFORMAT
  1
GRIDFORMAT_BEGIN
 90
        0
 91
        1
 62
     0
 92
       -2
340
14
 93
        0
 40
0.045
309
GRIDFORMAT_END
 95
        8
302
GRIDFORMAT
  1
GRIDFORMAT_BEGIN
 90
        0
 91
        1
 62
     0
 92
       -2
340
14
 93
        0
 40
0.045
309
GRIDFORMAT_END
 95
       16
302
GRIDFORMAT
  1
GRIDFORMAT_BEGIN
 90
        0
 91
        1
 62
     0
 92
       -2
340
14
 93
        0
 40
0.045
309
GRIDFORMAT_END
 95
       32
302
GRIDFORMAT
  1
GRIDFORMAT_BEGIN
 90
        0
 91
        1
 62
     0
 92
       -2
340
14
 93
        0
 40
0.045
309
GRIDFORMAT_END
309
TABLEFORMAT_END
  1
CELLSTYLE_BEGIN
 90
        3
 91
        2
300
_DATA
309
CELLSTYLE_END
  0
ENDSEC
  0
EOF
