  0
SECTION
  2
HEADER
  9
$ACADVER
  1
AC1027
  9
$ACADMAINTVER
 70
     8
  9
$DWGCODEPAGE
  3
ANSI_932
  9
$REQUIREDVERSIONS
160
                 0
  9
$LASTSAVEDBY
  1
aki
  9
$INSBASE
 10
0.0
 20
0.0
 30
0.0
  9
$EXTMIN
 10
35.64504660423576
 20
36.29499959319333
 30
0.0
  9
$EXTMAX
 10
261.3715549950439
 20
222.0440950202285
 30
0.0
  9
$LIMMIN
 10
0.0
 20
0.0
  9
$LIMMAX
 10
420.0
 20
297.0
  9
$ORTHOMODE
 70
     0
  9
$REGENMODE
 70
     1
  9
$FILLMODE
 70
     1
  9
$QTEXTMODE
 70
     0
  9
$MIRRTEXT
 70
     0
  9
$LTSCALE
 40
0.2
  9
$ATTMODE
 70
     1
  9
$TEXTSIZE
 40
3.0
  9
$TRACEWID
 40
1.0
  9
$TEXTSTYLE
  7
Standard
  9
$CLAYER
  8
文字
  9
$CELTYPE
  6
ByLayer
  9
$CECOLOR
 62
   256
  9
$CELTSCALE
 40
1.0
  9
$DISPSILH
 70
     0
  9
$DIMSCALE
 40
1.0
  9
$DIMASZ
 40
2.5
  9
$DIMEXO
 40
0.625
  9
$DIMDLI
 40
3.75
  9
$DIMRND
 40
0.0
  9
$DIMDLE
 40
0.0
  9
$DIMEXE
 40
1.25
  9
$DIMTP
 40
0.0
  9
$DIMTM
 40
0.0
  9
$DIMTXT
 40
2.5
  9
$DIMCEN
 40
2.5
  9
$DIMTSZ
 40
0.0
  9
$DIMTOL
 70
     0
  9
$DIMLIM
 70
     0
  9
$DIMTIH
 70
     0
  9
$DIMTOH
 70
     0
  9
$DIMSE1
 70
     0
  9
$DIMSE2
 70
     0
  9
$DIMTAD
 70
     1
  9
$DIMZIN
 70
     8
  9
$DIMBLK
  1

  9
$DIMASO
 70
     1
  9
$DIMSHO
 70
     1
  9
$DIMPOST
  1

  9
$DIMAPOST
  1

  9
$DIMALT
 70
     0
  9
$DIMALTD
 70
     3
  9
$DIMALTF
 40
0.03937007874016
  9
$DIMLFAC
 40
1.0
  9
$DIMTOFL
 70
     1
  9
$DIMTVP
 40
0.0
  9
$DIMTIX
 70
     0
  9
$DIMSOXD
 70
     0
  9
$DIMSAH
 70
     0
  9
$DIMBLK1
  1

  9
$DIMBLK2
  1

  9
$DIMSTYLE
  2
ISO-25
  9
$DIMCLRD
 70
     0
  9
$DIMCLRE
 70
     0
  9
$DIMCLRT
 70
     0
  9
$DIMTFAC
 40
1.0
  9
$DIMGAP
 40
0.625
  9
$DIMJUST
 70
     0
  9
$DIMSD1
 70
     0
  9
$DIMSD2
 70
     0
  9
$DIMTOLJ
 70
     0
  9
$DIMTZIN
 70
     8
  9
$DIMALTZ
 70
     0
  9
$DIMALTTZ
 70
     0
  9
$DIMUPT
 70
     0
  9
$DIMDEC
 70
     2
  9
$DIMTDEC
 70
     2
  9
$DIMALTU
 70
     2
  9
$DIMALTTD
 70
     3
  9
$DIMTXSTY
  7
Standard
  9
$DIMAUNIT
 70
     0
  9
$DIMADEC
 70
     0
  9
$DIMALTRND
 40
0.0
  9
$DIMAZIN
 70
     0
  9
$DIMDSEP
 70
    46
  9
$DIMATFIT
 70
     3
  9
$DIMFRAC
 70
     0
  9
$DIMLDRBLK
  1

  9
$DIMLUNIT
 70
     2
  9
$DIMLWD
 70
    -2
  9
$DIMLWE
 70
    -2
  9
$DIMTMOVE
 70
     0
  9
$DIMFXL
 40
1.0
  9
$DIMFXLON
 70
     0
  9
$DIMJOGANG
 40
0.7853981633974483
  9
$DIMTFILL
 70
     0
  9
$DIMTFILLCLR
 70
     0
  9
$DIMARCSYM
 70
     0
  9
$DIMLTYPE
  6

  9
$DIMLTEX1
  6

  9
$DIMLTEX2
  6

  9
$DIMTXTDIRECTION
 70
     0
  9
$LUNITS
 70
     2
  9
$LUPREC
 70
     4
  9
$SKETCHINC
 40
1.0
  9
$FILLETRAD
 40
2.0
  9
$AUNITS
 70
     0
  9
$AUPREC
 70
     0
  9
$MENU
  1
.
  9
$ELEVATION
 40
0.0
  9
$PELEVATION
 40
0.0
  9
$THICKNESS
 40
0.0
  9
$LIMCHECK
 70
     0
  9
$CHAMFERA
 40
0.0
  9
$CHAMFERB
 40
0.0
  9
$CHAMFERC
 40
0.0
  9
$CHAMFERD
 40
0.0
  9
$SKPOLY
 70
     0
  9
$TDCREATE
 40
2452936.788310347
  9
$TDUCREATE
 40
2452936.413310359
  9
$TDUPDATE
 40
2456757.690706007
  9
$TDUUPDATE
 40
2456757.315706018
  9
$TDINDWG
 40
0.9449818519
  9
$TDUSRTIMER
 40
2456757.315416667
  9
$USRTIMER
 70
     1
  9
$ANGBASE
 50
0.0
  9
$ANGDIR
 70
     0
  9
$PDMODE
 70
     0
  9
$PDSIZE
 40
0.0
  9
$PLINEWID
 40
0.0
  9
$SPLFRAME
 70
     0
  9
$SPLINETYPE
 70
     6
  9
$SPLINESEGS
 70
     8
  9
$HANDSEED
  5
24E1
  9
$SURFTAB1
 70
     6
  9
$SURFTAB2
 70
     6
  9
$SURFTYPE
 70
     6
  9
$SURFU
 70
     6
  9
$SURFV
 70
     6
  9
$UCSBASE
  2

  9
$UCSNAME
  2

  9
$UCSORG
 10
0.0
 20
0.0
 30
0.0
  9
$UCSXDIR
 10
1.0
 20
0.0
 30
0.0
  9
$UCSYDIR
 10
0.0
 20
1.0
 30
0.0
  9
$UCSORTHOREF
  2

  9
$UCSORTHOVIEW
 70
     0
  9
$UCSORGTOP
 10
0.0
 20
0.0
 30
0.0
  9
$UCSORGBOTTOM
 10
0.0
 20
0.0
 30
0.0
  9
$UCSORGLEFT
 10
0.0
 20
0.0
 30
0.0
  9
$UCSORGRIGHT
 10
0.0
 20
0.0
 30
0.0
  9
$UCSORGFRONT
 10
0.0
 20
0.0
 30
0.0
  9
$UCSORGBACK
 10
0.0
 20
0.0
 30
0.0
  9
$PUCSBASE
  2

  9
$PUCSNAME
  2

  9
$PUCSORG
 10
0.0
 20
0.0
 30
0.0
  9
$PUCSXDIR
 10
1.0
 20
0.0
 30
0.0
  9
$PUCSYDIR
 10
0.0
 20
1.0
 30
0.0
  9
$PUCSORTHOREF
  2

  9
$PUCSORTHOVIEW
 70
     0
  9
$PUCSORGTOP
 10
0.0
 20
0.0
 30
0.0
  9
$PUCSORGBOTTOM
 10
0.0
 20
0.0
 30
0.0
  9
$PUCSORGLEFT
 10
0.0
 20
0.0
 30
0.0
  9
$PUCSORGRIGHT
 10
0.0
 20
0.0
 30
0.0
  9
$PUCSORGFRONT
 10
0.0
 20
0.0
 30
0.0
  9
$PUCSORGBACK
 10
0.0
 20
0.0
 30
0.0
  9
$USERI1
 70
     0
  9
$USERI2
 70
     0
  9
$USERI3
 70
     0
  9
$USERI4
 70
     0
  9
$USERI5
 70
     0
  9
$USERR1
 40
0.0
  9
$USERR2
 40
0.0
  9
$USERR3
 40
0.0
  9
$USERR4
 40
0.0
  9
$USERR5
 40
0.0
  9
$WORLDVIEW
 70
     1
  9
$SHADEDGE
 70
     3
  9
$SHADEDIF
 70
    70
  9
$TILEMODE
 70
     1
  9
$MAXACTVP
 70
    64
  9
$PINSBASE
 10
0.0
 20
0.0
 30
0.0
  9
$PLIMCHECK
 70
     0
  9
$PEXTMIN
 10
0.0
 20
0.0
 30
0.0
  9
$PEXTMAX
 10
0.0
 20
0.0
 30
0.0
  9
$PLIMMIN
 10
-6.35
 20
-6.35
  9
$PLIMMAX
 10
413.8083333333333
 20
290.6888888888888
  9
$UNITMODE
 70
     0
  9
$VISRETAIN
 70
     1
  9
$PLINEGEN
 70
     0
  9
$PSLTSCALE
 70
     1
  9
$TREEDEPTH
 70
  3020
  9
$CMLSTYLE
  2
Standard
  9
$CMLJUST
 70
     0
  9
$CMLSCALE
 40
20.0
  9
$PROXYGRAPHICS
 70
     1
  9
$MEASUREMENT
 70
     1
  9
$CELWEIGHT
370
    -1
  9
$ENDCAPS
280
     0
  9
$JOINSTYLE
280
     0
  9
$LWDISPLAY
290
     0
  9
$INSUNITS
 70
     4
  9
$HYPERLINKBASE
  1

  9
$STYLESHEET
  1

  9
$XEDIT
290
     1
  9
$CEPSNTYPE
380
     0
  9
$PSTYLEMODE
290
     1
  9
$FINGERPRINTGUID
  2
{86E58535-AB5B-4AFE-AB1B-6758AAB7EA7D}
  9
$VERSIONGUID
  2
{F4F8DEC7-6D40-436E-8B34-A91731299EB3}
  9
$EXTNAMES
290
     1
  9
$PSVPSCALE
 40
0.0
  9
$OLESTARTUP
290
     0
  9
$SORTENTS
280
   127
  9
$INDEXCTL
280
     0
  9
$HIDETEXT
280
     1
  9
$XCLIPFRAME
280
     0
  9
$HALOGAP
280
     0
  9
$OBSCOLOR
 70
   257
  9
$OBSLTYPE
280
     0
  9
$INTERSECTIONDISPLAY
280
     0
  9
$INTERSECTIONCOLOR
 70
   257
  9
$DIMASSOC
280
     2
  9
$PROJECTNAME
  1

  9
$CAMERADISPLAY
290
     0
  9
$LENSLENGTH
 40
50.0
  9
$CAMERAHEIGHT
 40
0.0
  9
$STEPSPERSEC
 40
2.0
  9
$STEPSIZE
 40
6.0
  9
$3DDWFPREC
 40
2.0
  9
$PSOLWIDTH
 40
0.25
  9
$PSOLHEIGHT
 40
4.0
  9
$LOFTANG1
 40
1.570796326794897
  9
$LOFTANG2
 40
1.570796326794897
  9
$LOFTMAG1
 40
0.0
  9
$LOFTMAG2
 40
0.0
  9
$LOFTPARAM
 70
     7
  9
$LOFTNORMALS
280
     1
  9
$LATITUDE
 40
37.795
  9
$LONGITUDE
 40
-122.394
  9
$NORTHDIRECTION
 40
0.0
  9
$TIMEZONE
 70
 -8000
  9
$LIGHTGLYPHDISPLAY
280
     1
  9
$TILEMODELIGHTSYNCH
280
     1
  9
$SOLIDHIST
280
     1
  9
$SHOWHIST
280
     1
  9
$DWFFRAME
280
     2
  9
$DGNFRAME
280
     2
  9
$REALWORLDSCALE
290
     1
  9
$INTERFERECOLOR
 62
   256
  9
$CSHADOW
280
     0
  9
$SHADOWPLANELOCATION
 40
0.0
  0
ENDSEC
  0
SECTION
  2
CLASSES
  0
CLASS
  1
ACDBDICTIONARYWDFLT
  2
AcDbDictionaryWithDefault
  3
ObjectDBX Classes
 90
        0
 91
        6
280
     0
281
     0
  0
CLASS
  1
DIMASSOC
  2
AcDbDimAssoc
  3
"AcDbDimAssoc|Product Desc:     AcDim ARX App For Dimension|Company:          Autodesk, Inc.|WEB Address:      www.autodesk.com"
 90
        0
 91
        6
280
     0
281
     0
  0
CLASS
  1
DICTIONARYVAR
  2
AcDbDictionaryVar
  3
ObjectDBX Classes
 90
        0
 91
        6
280
     0
281
     0
  0
CLASS
  1
ACDBPLACEHOLDER
  2
AcDbPlaceHolder
  3
ObjectDBX Classes
 90
        0
 91
        1
280
     0
281
     0
  0
CLASS
  1
LAYOUT
  2
AcDbLayout
  3
ObjectDBX Classes
 90
        0
 91
        1
280
     0
281
     0
  0
CLASS
  1
VISUALSTYLE
  2
AcDbVisualStyle
  3
ObjectDBX Classes
 90
     4095
 91
        6
280
     0
281
     0
  0
CLASS
  1
SCALE
  2
AcDbScale
  3
ObjectDBX Classes
 90
     1153
 91
        6
280
     0
281
     0
  0
CLASS
  1
MATERIAL
  2
AcDbMaterial
  3
ObjectDBX Classes
 90
     1153
 91
        6
280
     0
281
     0
  0
CLASS
  1
TABLESTYLE
  2
AcDbTableStyle
  3
ObjectDBX Classes
 90
     4095
 91
        6
280
     0
281
     0
  0
CLASS
  1
SUN
  2
AcDbSun
  3
SCENEOE
 90
     1153
 91
        6
280
     0
281
     0
  0
CLASS
  1
RASTERVARIABLES
  2
AcDbRasterVariables
  3
ISM
 90
        0
 91
        6
280
     0
281
     0
  0
CLASS
  1
CELLSTYLEMAP
  2
AcDbCellStyleMap
  3
ObjectDBX Classes
 90
     1152
 91
        6
280
     0
281
     0
  0
ENDSEC
  0
SECTION
  2
TABLES
  0
TABLE
  2
VPORT
  5
8
330
0
100
AcDbSymbolTable
 70
     1
  0
VPORT
  5
1C92
330
8
100
AcDbSymbolTableRecord
100
AcDbViewportTableRecord
  2
*Active
 70
     0
 10
0.0
 20
0.0
 11
1.0
 21
1.0
 12
148.5083007996398
 22
129.1695473067109
 13
0.0
 23
0.0
 14
10.0
 24
10.0
 15
10.0
 25
10.0
 16
0.0
 26
0.0
 36
1.0
 17
0.0
 27
0.0
 37
0.0
 40
189.4640773355759
 41
1.360169491525423
 42
50.0
 43
0.0
 44
0.0
 50
0.0
 51
0.0
 71
    16
 72
  1000
 73
     1
 74
     3
 75
     0
 76
     0
 77
     0
 78
     0
281
     0
 65
     1
110
0.0
120
0.0
130
0.0
111
1.0
121
0.0
131
0.0
112
0.0
122
1.0
132
0.0
 79
     0
146
0.0
348
1CA8
 60
     3
 61
     5
292
     1
282
     1
141
0.0
142
0.0
 63
   256
361
1CED
  0
ENDTAB
  0
TABLE
  2
LTYPE
  5
5
330
0
100
AcDbSymbolTable
 70
     6
  0
LTYPE
  5
14
330
5
100
AcDbSymbolTableRecord
100
AcDbLinetypeTableRecord
  2
ByBlock
 70
     0
  3

 72
    65
 73
     0
 40
0.0
  0
LTYPE
  5
15
330
5
100
AcDbSymbolTableRecord
100
AcDbLinetypeTableRecord
  2
ByLayer
 70
     0
  3

 72
    65
 73
     0
 40
0.0
  0
LTYPE
  5
16
330
5
100
AcDbSymbolTableRecord
100
AcDbLinetypeTableRecord
  2
Continuous
 70
     0
  3
Solid line
 72
    65
 73
     0
 40
0.0
  0
LTYPE
  5
35
330
5
100
AcDbSymbolTableRecord
100
AcDbLinetypeTableRecord
  2
ACAD_ISO08W100
 70
     0
  3
ISO long-dash short-dash ____ __ ____ __ ____ _
 72
    65
 73
     4
 40
36.0
 49
24.0
 74
     0
 49
-3.0
 74
     0
 49
6.0
 74
     0
 49
-3.0
 74
     0
  0
LTYPE
  5
127
330
5
100
AcDbSymbolTableRecord
100
AcDbLinetypeTableRecord
  2
HIDDENX2
 70
     0
  3
Hidden (2x) ____ ____ ____ ____ ____ ____ ____
 72
    65
 73
     2
 40
19.05
 49
12.7
 74
     0
 49
-6.35
 74
     0
  0
LTYPE
  5
5EC
330
5
100
AcDbSymbolTableRecord
100
AcDbLinetypeTableRecord
  2
CENTER
 70
     0
  3
Center ____ _ ____ _ ____ _ ____ _ ____ _ ____
 72
    65
 73
     4
 40
50.8
 49
31.75
 74
     0
 49
-6.35
 74
     0
 49
6.35
 74
     0
 49
-6.35
 74
     0
  0
LTYPE
  5
5ED
330
5
100
AcDbSymbolTableRecord
100
AcDbLinetypeTableRecord
  2
ACAD_ISO02W100
 70
     0
  3
ISO dash __ __ __ __ __ __ __ __ __ __ __ __ __
 72
    65
 73
     2
 40
15.0
 49
12.0
 74
     0
 49
-3.0
 74
     0
  0
LTYPE
  5
605
330
5
100
AcDbSymbolTableRecord
100
AcDbLinetypeTableRecord
  2
DASHED
 70
     0
  3
Dashed __ __ __ __ __ __ __ __ __ __ __ __ __ _
 72
    65
 73
     2
 40
19.05
 49
12.7
 74
     0
 49
-6.35
 74
     0
  0
ENDTAB
  0
TABLE
  2
LAYER
  5
2
330
0
100
AcDbSymbolTable
 70
     9
  0
LAYER
  5
10
330
2
100
AcDbSymbolTableRecord
100
AcDbLayerTableRecord
  2
0
 70
     0
 62
     7
  6
Continuous
370
    -3
390
F
347
1CE0
348
0
  0
LAYER
  5
2E
330
2
100
AcDbSymbolTableRecord
100
AcDbLayerTableRecord
  2
枠
 70
     0
 62
     1
  6
Continuous
370
    30
390
F
347
1CE0
348
0
  0
LAYER
  5
2F
330
2
100
AcDbSymbolTableRecord
100
AcDbLayerTableRecord
  2
文字
 70
     0
 62
     7
  6
Continuous
370
    18
390
F
347
1CE0
348
0
  0
LAYER
  5
36
330
2
100
AcDbSymbolTableRecord
100
AcDbLayerTableRecord
  2
中心線
 70
     0
 62
     7
  6
CENTER
370
    15
390
F
347
1CE0
348
0
  0
LAYER
  5
52
330
2
100
AcDbSymbolTableRecord
100
AcDbLayerTableRecord
  2
隠れ線
 70
     0
 62
     2
  6
Continuous
290
     0
370
    -3
390
F
347
1CE0
348
0
  0
LAYER
  5
128
330
2
100
AcDbSymbolTableRecord
100
AcDbLayerTableRecord
  2
実線
 70
     0
 62
     7
  6
Continuous
370
    20
390
F
347
1CE0
348
0
  0
LAYER
  5
129
330
2
100
AcDbSymbolTableRecord
100
AcDbLayerTableRecord
  2
破線
 70
     0
 62
     7
  6
DASHED
370
    15
390
F
347
1CE0
348
0
  0
LAYER
  5
677
330
2
100
AcDbSymbolTableRecord
100
AcDbLayerTableRecord
  2
Defpoints
 70
     0
 62
     7
  6
Continuous
290
     0
370
    -3
390
F
347
1CE0
348
0
  0
LAYER
  5
1EBE
330
2
100
AcDbSymbolTableRecord
100
AcDbLayerTableRecord
  2
文字・寸法線
 70
     0
 62
     7
  6
Continuous
370
    -3
390
F
347
1CE0
348
0
  0
ENDTAB
  0
TABLE
  2
STYLE
  5
3
330
0
100
AcDbSymbolTable
 70
     2
  0
STYLE
  5
11
330
3
100
AcDbSymbolTableRecord
100
AcDbTextStyleTableRecord
  2
Standard
 70
     0
 40
0.0
 41
1.0
 50
0.0
 71
     0
 42
3.0
  3
txt.shx
  4
bigfont.shx
  0
STYLE
  5
34
330
3
100
AcDbSymbolTableRecord
100
AcDbTextStyleTableRecord
  2

 70
     1
 40
0.0
 41
1.0
 50
0.0
 71
     0
 42
2.5
  3
ltypeshp.shx
  4

  0
ENDTAB
  0
TABLE
  2
VIEW
  5
6
330
0
100
AcDbSymbolTable
 70
     0
  0
ENDTAB
  0
TABLE
  2
UCS
  5
7
330
0
100
AcDbSymbolTable
 70
     0
  0
ENDTAB
  0
TABLE
  2
APPID
  5
9
330
0
100
AcDbSymbolTable
 70
     4
  0
APPID
  5
12
330
9
100
AcDbSymbolTableRecord
100
AcDbRegAppTableRecord
  2
ACAD
 70
     0
  0
APPID
  5
1282
330
9
100
AcDbSymbolTableRecord
100
AcDbRegAppTableRecord
  2
ACAD_DIMASSOC_CALC_DIMLFAC
 70
     0
  0
APPID
  5
1283
330
9
100
AcDbSymbolTableRecord
100
AcDbRegAppTableRecord
  2
ACAD_DIMASSOC_DIMLFAC
 70
     0
  0
APPID
  5
1284
330
9
100
AcDbSymbolTableRecord
100
AcDbRegAppTableRecord
  2
ACAD_DIMASSOC_OVERRIDDEN_DIMLFAC
 70
     0
  0
ENDTAB
  0
TABLE
  2
DIMSTYLE
  5
A
330
0
100
AcDbSymbolTable
 70
     2
100
AcDbDimStyleTable
  0
DIMSTYLE
105
29
102
{ACAD_REACTORS
330
1B53
330
21D6
330
21D9
330
2270
330
2273
330
2458
330
24BF
330
24D0
102
}
330
A
100
AcDbSymbolTableRecord
100
AcDbDimStyleTableRecord
  2
ISO-25
 70
     0
 41
2.5
 42
0.625
 43
3.75
 44
1.25
 73
     0
 74
     0
 77
     1
 78
     8
140
2.5
141
2.5
143
0.03937007874016
147
0.625
171
     3
172
     1
178
     0
271
     2
272
     2
274
     3
283
     0
284
     8
340
11
  0
DIMSTYLE
105
1D00
102
{ACAD_REACTORS
330
2468
102
}
330
A
100
AcDbSymbolTableRecord
100
AcDbDimStyleTableRecord
  2
Standard
 70
     0
178
     0
340
11
  0
ENDTAB
  0
TABLE
  2
BLOCK_RECORD
  5
1
330
0
100
AcDbSymbolTable
 70
    72
  0
BLOCK_RECORD
  5
21
330
1
100
AcDbSymbolTableRecord
100
AcDbBlockTableRecord
  2
*Model_Space
340
24
 70
     0
280
     1
281
     0
  0
BLOCK_RECORD
  5
1CE6
330
1
100
AcDbSymbolTableRecord
100
AcDbBlockTableRecord
  2
*Paper_Space
340
1CE7
 70
     0
280
     1
281
     0
  0
BLOCK_RECORD
  5
1581
330
1
100
AcDbSymbolTableRecord
100
AcDbBlockTableRecord
  2
_Dot
340
0
 70
     0
280
     1
281
     0
  0
BLOCK_RECORD
  5
1591
330
1
100
AcDbSymbolTableRecord
100
AcDbBlockTableRecord
  2
_None
340
0
 70
     0
280
     1
281
     0
  0
BLOCK_RECORD
  5
15A6
330
1
100
AcDbSymbolTableRecord
100
AcDbBlockTableRecord
  2
_DatumFilled
340
0
 70
     0
280
     1
281
     0
  0
BLOCK_RECORD
  5
16CF
330
1
100
AcDbSymbolTableRecord
100
AcDbBlockTableRecord
  2
_DotSmall
340
0
 70
     0
280
     1
281
     0
  0
BLOCK_RECORD
  5
1992
330
1
100
AcDbSymbolTableRecord
100
AcDbBlockTableRecord
  2
*D4
340
0
 70
     0
280
     1
281
     0
  0
BLOCK_RECORD
  5
199E
330
1
100
AcDbSymbolTableRecord
100
AcDbBlockTableRecord
  2
*D5
340
0
 70
     0
280
     1
281
     0
  0
BLOCK_RECORD
  5
19AC
330
1
100
AcDbSymbolTableRecord
100
AcDbBlockTableRecord
  2
*D6
340
0
 70
     0
280
     1
281
     0
  0
BLOCK_RECORD
  5
19B8
330
1
100
AcDbSymbolTableRecord
100
AcDbBlockTableRecord
  2
*D7
340
0
 70
     0
280
     1
281
     0
  0
BLOCK_RECORD
  5
19C4
330
1
100
AcDbSymbolTableRecord
100
AcDbBlockTableRecord
  2
*D8
340
0
 70
     0
280
     1
281
     0
  0
BLOCK_RECORD
  5
19D0
330
1
100
AcDbSymbolTableRecord
100
AcDbBlockTableRecord
  2
*D9
340
0
 70
     0
280
     1
281
     0
  0
BLOCK_RECORD
  5
19DC
330
1
100
AcDbSymbolTableRecord
100
AcDbBlockTableRecord
  2
*D10
340
0
 70
     0
280
     1
281
     0
  0
BLOCK_RECORD
  5
19ED
330
1
100
AcDbSymbolTableRecord
100
AcDbBlockTableRecord
  2
*D11
340
0
 70
     0
280
     1
281
     0
  0
BLOCK_RECORD
  5
19F9
330
1
100
AcDbSymbolTableRecord
100
AcDbBlockTableRecord
  2
*D12
340
0
 70
     0
280
     1
281
     0
  0
BLOCK_RECORD
  5
1A05
330
1
100
AcDbSymbolTableRecord
100
AcDbBlockTableRecord
  2
A$C76A36C9E
340
0
 70
     0
280
     1
281
     0
  0
BLOCK_RECORD
  5
1B8C
330
1
100
AcDbSymbolTableRecord
100
AcDbBlockTableRecord
  2
*D14
340
0
 70
     0
280
     1
281
     0
  0
BLOCK_RECORD
  5
1B9A
330
1
100
AcDbSymbolTableRecord
100
AcDbBlockTableRecord
  2
*D15
340
0
 70
     0
280
     1
281
     0
  0
BLOCK_RECORD
  5
1BA6
330
1
100
AcDbSymbolTableRecord
100
AcDbBlockTableRecord
  2
*D16
340
0
 70
     0
280
     1
281
     0
  0
BLOCK_RECORD
  5
1BB2
330
1
100
AcDbSymbolTableRecord
100
AcDbBlockTableRecord
  2
*D17
340
0
 70
     0
280
     1
281
     0
  0
BLOCK_RECORD
  5
1BBE
330
1
100
AcDbSymbolTableRecord
100
AcDbBlockTableRecord
  2
*D18
340
0
 70
     0
280
     1
281
     0
  0
BLOCK_RECORD
  5
1BCA
330
1
100
AcDbSymbolTableRecord
100
AcDbBlockTableRecord
  2
*D19
340
0
 70
     0
280
     1
281
     0
  0
BLOCK_RECORD
  5
1BD6
330
1
100
AcDbSymbolTableRecord
100
AcDbBlockTableRecord
  2
*D20
340
0
 70
     0
280
     1
281
     0
  0
BLOCK_RECORD
  5
1BE2
330
1
100
AcDbSymbolTableRecord
100
AcDbBlockTableRecord
  2
*D21
340
0
 70
     0
280
     1
281
     0
  0
BLOCK_RECORD
  5
1C07
330
1
100
AcDbSymbolTableRecord
100
AcDbBlockTableRecord
  2
*D22
340
0
 70
     0
280
     1
281
     0
  0
BLOCK_RECORD
  5
1D22
330
1
100
AcDbSymbolTableRecord
100
AcDbBlockTableRecord
  2
*D23
340
0
 70
     0
280
     1
281
     0
  0
BLOCK_RECORD
  5
1D37
330
1
100
AcDbSymbolTableRecord
100
AcDbBlockTableRecord
  2
*D24
340
0
 70
     0
280
     1
281
     0
  0
BLOCK_RECORD
  5
1DE2
330
1
100
AcDbSymbolTableRecord
100
AcDbBlockTableRecord
  2
*D25
340
0
 70
     0
280
     1
281
     0
  0
BLOCK_RECORD
  5
1E64
330
1
100
AcDbSymbolTableRecord
100
AcDbBlockTableRecord
  2
*D26
340
0
 70
     0
280
     1
281
     0
  0
BLOCK_RECORD
  5
1E96
330
1
100
AcDbSymbolTableRecord
100
AcDbBlockTableRecord
  2
*D27
340
0
 70
     0
280
     1
281
     0
  0
BLOCK_RECORD
  5
1EA9
330
1
100
AcDbSymbolTableRecord
100
AcDbBlockTableRecord
  2
*D28
340
0
 70
     0
280
     1
281
     0
  0
BLOCK_RECORD
  5
1F77
330
1
100
AcDbSymbolTableRecord
100
AcDbBlockTableRecord
  2
*D29
340
0
 70
     0
280
     1
281
     0
  0
BLOCK_RECORD
  5
1F86
330
1
100
AcDbSymbolTableRecord
100
AcDbBlockTableRecord
  2
*D30
340
0
 70
     0
280
     1
281
     0
  0
BLOCK_RECORD
  5
1FAD
330
1
100
AcDbSymbolTableRecord
100
AcDbBlockTableRecord
  2
*D31
340
0
 70
     0
280
     1
281
     0
  0
BLOCK_RECORD
  5
1FB9
330
1
100
AcDbSymbolTableRecord
100
AcDbBlockTableRecord
  2
*D32
340
0
 70
     0
280
     1
281
     0
  0
BLOCK_RECORD
  5
1FF2
330
1
100
AcDbSymbolTableRecord
100
AcDbBlockTableRecord
  2
*D33
340
0
 70
     0
280
     1
281
     0
  0
BLOCK_RECORD
  5
2001
330
1
100
AcDbSymbolTableRecord
100
AcDbBlockTableRecord
  2
*D34
340
0
 70
     0
280
     1
281
     0
  0
BLOCK_RECORD
  5
2033
330
1
100
AcDbSymbolTableRecord
100
AcDbBlockTableRecord
  2
*D35
340
0
 70
     0
280
     1
281
     0
  0
BLOCK_RECORD
  5
203F
330
1
100
AcDbSymbolTableRecord
100
AcDbBlockTableRecord
  2
*D36
340
0
 70
     0
280
     1
281
     0
  0
BLOCK_RECORD
  5
2078
330
1
100
AcDbSymbolTableRecord
100
AcDbBlockTableRecord
  2
*D37
340
0
 70
     0
280
     1
281
     0
  0
BLOCK_RECORD
  5
2087
330
1
100
AcDbSymbolTableRecord
100
AcDbBlockTableRecord
  2
*D38
340
0
 70
     0
280
     1
281
     0
  0
BLOCK_RECORD
  5
20B9
330
1
100
AcDbSymbolTableRecord
100
AcDbBlockTableRecord
  2
*D39
340
0
 70
     0
280
     1
281
     0
  0
BLOCK_RECORD
  5
20C5
330
1
100
AcDbSymbolTableRecord
100
AcDbBlockTableRecord
  2
*D40
340
0
 70
     0
280
     1
281
     0
  0
BLOCK_RECORD
  5
20FD
330
1
100
AcDbSymbolTableRecord
100
AcDbBlockTableRecord
  2
*D41
340
0
 70
     0
280
     1
281
     0
  0
BLOCK_RECORD
  5
210C
330
1
100
AcDbSymbolTableRecord
100
AcDbBlockTableRecord
  2
*D42
340
0
 70
     0
280
     1
281
     0
  0
BLOCK_RECORD
  5
211E
330
1
100
AcDbSymbolTableRecord
100
AcDbBlockTableRecord
  2
*D43
340
0
 70
     0
280
     1
281
     0
  0
BLOCK_RECORD
  5
214C
330
1
100
AcDbSymbolTableRecord
100
AcDbBlockTableRecord
  2
*D44
340
0
 70
     0
280
     1
281
     0
  0
BLOCK_RECORD
  5
2158
330
1
100
AcDbSymbolTableRecord
100
AcDbBlockTableRecord
  2
*D45
340
0
 70
     0
280
     1
281
     0
  0
BLOCK_RECORD
  5
2164
330
1
100
AcDbSymbolTableRecord
100
AcDbBlockTableRecord
  2
*D46
340
0
 70
     0
280
     1
281
     0
  0
BLOCK_RECORD
  5
219C
330
1
100
AcDbSymbolTableRecord
100
AcDbBlockTableRecord
  2
*D47
340
0
 70
     0
280
     1
281
     0
  0
BLOCK_RECORD
  5
21AB
330
1
100
AcDbSymbolTableRecord
100
AcDbBlockTableRecord
  2
*D48
340
0
 70
     0
280
     1
281
     0
  0
BLOCK_RECORD
  5
21BD
330
1
100
AcDbSymbolTableRecord
100
AcDbBlockTableRecord
  2
*D49
340
0
 70
     0
280
     1
281
     0
  0
BLOCK_RECORD
  5
21EB
330
1
100
AcDbSymbolTableRecord
100
AcDbBlockTableRecord
  2
*D50
340
0
 70
     0
280
     1
281
     0
  0
BLOCK_RECORD
  5
21F7
330
1
100
AcDbSymbolTableRecord
100
AcDbBlockTableRecord
  2
*D51
340
0
 70
     0
280
     1
281
     0
  0
BLOCK_RECORD
  5
2203
330
1
100
AcDbSymbolTableRecord
100
AcDbBlockTableRecord
  2
*D52
340
0
 70
     0
280
     1
281
     0
  0
BLOCK_RECORD
  5
2241
330
1
100
AcDbSymbolTableRecord
100
AcDbBlockTableRecord
  2
*D53
340
0
 70
     0
280
     1
281
     0
  0
BLOCK_RECORD
  5
2250
330
1
100
AcDbSymbolTableRecord
100
AcDbBlockTableRecord
  2
*D54
340
0
 70
     0
280
     1
281
     0
  0
BLOCK_RECORD
  5
2283
330
1
100
AcDbSymbolTableRecord
100
AcDbBlockTableRecord
  2
*D55
340
0
 70
     0
280
     1
281
     0
  0
BLOCK_RECORD
  5
228F
330
1
100
AcDbSymbolTableRecord
100
AcDbBlockTableRecord
  2
*D56
340
0
 70
     0
280
     1
281
     0
  0
BLOCK_RECORD
  5
22C4
330
1
100
AcDbSymbolTableRecord
100
AcDbBlockTableRecord
  2
*D57
340
0
 70
     0
280
     1
281
     0
  0
BLOCK_RECORD
  5
22E1
330
1
100
AcDbSymbolTableRecord
100
AcDbBlockTableRecord
  2
*D58
340
0
 70
     0
280
     1
281
     0
  0
BLOCK_RECORD
  5
22EF
330
1
100
AcDbSymbolTableRecord
100
AcDbBlockTableRecord
  2
*D59
340
0
 70
     0
280
     1
281
     0
  0
BLOCK_RECORD
  5
2321
330
1
100
AcDbSymbolTableRecord
100
AcDbBlockTableRecord
  2
*D60
340
0
 70
     0
280
     1
281
     0
  0
BLOCK_RECORD
  5
232D
330
1
100
AcDbSymbolTableRecord
100
AcDbBlockTableRecord
  2
*D61
340
0
 70
     0
280
     1
281
     0
  0
BLOCK_RECORD
  5
2339
330
1
100
AcDbSymbolTableRecord
100
AcDbBlockTableRecord
  2
*D62
340
0
 70
     0
280
     1
281
     0
  0
BLOCK_RECORD
  5
2419
330
1
100
AcDbSymbolTableRecord
100
AcDbBlockTableRecord
  2
*D63
340
0
 70
     0
280
     1
281
     0
  0
BLOCK_RECORD
  5
2432
330
1
100
AcDbSymbolTableRecord
100
AcDbBlockTableRecord
  2
*D64
340
0
 70
     0
280
     1
281
     0
  0
BLOCK_RECORD
  5
2440
330
1
100
AcDbSymbolTableRecord
100
AcDbBlockTableRecord
  2
*D65
340
0
 70
     0
280
     1
281
     0
  0
BLOCK_RECORD
  5
2473
330
1
100
AcDbSymbolTableRecord
100
AcDbBlockTableRecord
  2
*D66
340
0
 70
     0
280
     1
281
     0
  0
BLOCK_RECORD
  5
247F
330
1
100
AcDbSymbolTableRecord
100
AcDbBlockTableRecord
  2
*D67
340
0
 70
     0
280
     1
281
     0
  0
BLOCK_RECORD
  5
248B
330
1
100
AcDbSymbolTableRecord
100
AcDbBlockTableRecord
  2
*D68
340
0
 70
     0
280
     1
281
     0
  0
BLOCK_RECORD
  5
24C1
330
1
100
AcDbSymbolTableRecord
100
AcDbBlockTableRecord
  2
*D70
340
0
 70
     0
280
     1
281
     0
  0
BLOCK_RECORD
  5
24D2
330
1
100
AcDbSymbolTableRecord
100
AcDbBlockTableRecord
  2
*D71
340
0
 70
     0
280
     1
281
     0
  0
ENDTAB
  0
ENDSEC
  0
SECTION
  2
BLOCKS
  0
BLOCK
  5
22
330
21
100
AcDbEntity
  8
0
100
AcDbBlockBegin
  2
*Model_Space
 70
     0
 10
0.0
 20
0.0
 30
0.0
  3
*Model_Space
  1
*Model_Space
  0
ENDBLK
  5
23
330
21
100
AcDbEntity
  8
0
100
AcDbBlockEnd
  0
BLOCK
  5
1CE8
330
1CE6
100
AcDbEntity
 67
     1
  8
0
100
AcDbBlockBegin
  2
*Paper_Space
 70
     0
 10
0.0
 20
0.0
 30
0.0
  3
*Paper_Space
  1
*Paper_Space
  0
ENDBLK
  5
1CE9
330
1CE6
100
AcDbEntity
 67
     1
  8
0
100
AcDbBlockEnd
  0
BLOCK
  5
1584
330
1581
100
AcDbEntity
  8
0
 62
     0
100
AcDbBlockBegin
  2
_Dot
 70
     0
 10
0.0
 20
0.0
 30
0.0
  3
_Dot
  1
_Dot
  0
LWPOLYLINE
  5
1582
330
1581
100
AcDbEntity
  8
0
  6
ByBlock
 62
     0
100
AcDbPolyline
 90
        2
 70
     1
 43
0.5
 10
-0.25
 20
0.0
 42
1.0
 10
0.25
 20
0.0
 42
1.0
  0
LINE
  5
1583
330
1581
100
AcDbEntity
  8
0
  6
ByBlock
 62
     0
370
    -2
100
AcDbLine
 10
-0.5
 20
0.0
 30
0.0
 11
-1.0
 21
0.0
 31
0.0
  0
ENDBLK
  5
1585
330
1581
100
AcDbEntity
  8
0
 62
     0
100
AcDbBlockEnd
  0
BLOCK
  5
1592
330
1591
100
AcDbEntity
  8
0
 62
     0
100
AcDbBlockBegin
  2
_None
 70
     0
 10
0.0
 20
0.0
 30
0.0
  3
_None
  1
_None
  0
ENDBLK
  5
1593
330
1591
100
AcDbEntity
  8
0
 62
     0
100
AcDbBlockEnd
  0
BLOCK
  5
15A8
330
15A6
100
AcDbEntity
  8
0
 62
     0
100
AcDbBlockBegin
  2
_DatumFilled
 70
     0
 10
0.0
 20
0.0
 30
0.0
  3
_DatumFilled
  1
_DatumFilled
  0
SOLID
  5
15A7
330
15A6
100
AcDbEntity
  8
0
  6
ByBlock
 62
     0
100
AcDbTrace
 10
0.0
 20
0.57735027
 30
0.0
 11
-1.0
 21
0.0
 31
0.0
 12
0.0
 22
-0.57735027
 32
0.0
 13
0.0
 23
-0.57735027
 33
0.0
  0
ENDBLK
  5
15A9
330
15A6
100
AcDbEntity
  8
0
 62
     0
100
AcDbBlockEnd
  0
BLOCK
  5
16D1
330
16CF
100
AcDbEntity
  8
0
 62
     0
100
AcDbBlockBegin
  2
_DotSmall
 70
     0
 10
0.0
 20
0.0
 30
0.0
  3
_DotSmall
  1
_DotSmall
  0
LWPOLYLINE
  5
16D0
330
16CF
100
AcDbEntity
  8
0
  6
ByBlock
 62
     0
100
AcDbPolyline
 90
        2
 70
     1
 43
0.5
 10
-0.0625
 20
0.0
 42
1.0
 10
0.0625
 20
0.0
 42
1.0
  0
ENDBLK
  5
16D2
330
16CF
100
AcDbEntity
  8
0
 62
     0
100
AcDbBlockEnd
  0
BLOCK
  5
1993
330
1992
100
AcDbEntity
  8
0
370
    30
100
AcDbBlockBegin
  2
*D4
 70
     1
 10
0.0
 20
0.0
 30
0.0
  3
*D4
  1
*D4
  0
LINE
  5
1994
330
1992
100
AcDbEntity
  8
文字
 62
     0
370
    -2
100
AcDbLine
 10
192.2214242466307
 20
115.3847432098993
 30
0.0
 11
192.2214242466307
 21
74.91396239368606
 31
0.0
  0
LINE
  5
1995
330
1992
100
AcDbEntity
  8
文字
 62
     0
370
    -2
100
AcDbLine
 10
220.2214242466307
 20
115.3847432098993
 30
0.0
 11
220.2214242466307
 21
74.91396239368606
 31
0.0
  0
LINE
  5
1996
330
1992
100
AcDbEntity
  8
文字
 62
     0
370
    -2
100
AcDbLine
 10
194.7214242466307
 20
76.16396239368606
 30
0.0
 11
217.7214242466307
 21
76.16396239368606
 31
0.0
  0
SOLID
  5
1997
330
1992
100
AcDbEntity
  8
文字
 62
     0
100
AcDbTrace
 10
194.7214242466307
 20
76.58062906035273
 30
0.0
 11
194.7214242466307
 21
75.74729572701939
 31
0.0
 12
192.2214242466307
 22
76.16396239368606
 32
0.0
 13
192.2214242466307
 23
76.16396239368606
 33
0.0
  0
SOLID
  5
1998
330
1992
100
AcDbEntity
  8
文字
 62
     0
100
AcDbTrace
 10
217.7214242466307
 20
76.58062906035273
 30
0.0
 11
217.7214242466307
 21
75.74729572701939
 31
0.0
 12
220.2214242466307
 22
76.16396239368606
 32
0.0
 13
220.2214242466307
 23
76.16396239368606
 33
0.0
  0
MTEXT
  5
1999
330
1992
100
AcDbEntity
  8
文字
 62
     0
100
AcDbMText
 10
206.2214242466307
 20
78.03896239368606
 30
0.0
 40
2.5
 41
0.0
 46
0.0
 71
     5
 72
     1
  1
%%c28
 73
     1
 44
1.0
  0
POINT
  5
199A
330
1992
100
AcDbEntity
  8
Defpoints
 62
     0
100
AcDbPoint
 10
192.2214242466307
 20
116.0097432098993
 30
0.0
  0
POINT
  5
199B
330
1992
100
AcDbEntity
  8
Defpoints
 62
     0
100
AcDbPoint
 10
220.2214242466307
 20
116.0097432098993
 30
0.0
  0
POINT
  5
199C
330
1992
100
AcDbEntity
  8
Defpoints
 62
     0
100
AcDbPoint
 10
220.2214242466307
 20
76.16396239368606
 30
0.0
  0
ENDBLK
  5
199D
330
1992
100
AcDbEntity
  8
0
370
    30
100
AcDbBlockEnd
  0
BLOCK
  5
199F
330
199E
100
AcDbEntity
  8
0
370
    30
100
AcDbBlockBegin
  2
*D5
 70
     1
 10
0.0
 20
0.0
 30
0.0
  3
*D5
  1
*D5
  0
LINE
  5
19A0
330
199E
100
AcDbEntity
  8
文字
 62
     0
370
    -2
100
AcDbLine
 10
71.59625003018851
 20
83.94882055485836
 30
0.0
 11
55.97592567393417
 21
83.94882055485836
 31
0.0
  0
LINE
  5
19A1
330
199E
100
AcDbEntity
  8
文字
 62
     0
370
    -2
100
AcDbLine
 10
71.59625003018851
 20
82.34882055485836
 30
0.0
 11
55.97592567393417
 21
82.34882055485836
 31
0.0
  0
LINE
  5
19A2
330
199E
100
AcDbEntity
  8
文字
 62
     0
370
    -2
100
AcDbLine
 10
57.22592567393417
 20
86.44882055485836
 30
0.0
 11
57.22592567393417
 21
88.94882055485836
 31
0.0
  0
LINE
  5
19A3
330
199E
100
AcDbEntity
  8
文字
 62
     0
370
    -2
100
AcDbLine
 10
57.22592567393416
 20
79.84882055485836
 30
0.0
 11
57.22592567393416
 21
71.93215388819169
 31
0.0
  0
LINE
  5
19A4
330
199E
100
AcDbEntity
  8
文字
 62
     0
370
    -2
100
AcDbLine
 10
57.22592567393417
 20
83.94882055485836
 30
0.0
 11
57.22592567393417
 21
82.34882055485836
 31
0.0
  0
SOLID
  5
19A5
330
199E
100
AcDbEntity
  8
文字
 62
     0
100
AcDbTrace
 10
56.80925900726751
 20
86.44882055485836
 30
0.0
 11
57.64259234060084
 21
86.44882055485836
 31
0.0
 12
57.22592567393417
 22
83.94882055485836
 32
0.0
 13
57.22592567393417
 23
83.94882055485836
 33
0.0
  0
SOLID
  5
19A6
330
199E
100
AcDbEntity
  8
文字
 62
     0
100
AcDbTrace
 10
56.8092590072675
 20
79.84882055485836
 30
0.0
 11
57.64259234060083
 21
79.84882055485836
 31
0.0
 12
57.22592567393417
 22
82.34882055485836
 32
0.0
 13
57.22592567393417
 23
82.34882055485836
 33
0.0
  0
MTEXT
  5
19A7
330
199E
100
AcDbEntity
  8
文字
 62
     0
100
AcDbMText
 10
55.35092567393416
 20
74.64048722152505
 30
0.0
 40
2.5
 41
0.0
 46
0.0
 71
     5
 72
     1
  1
1.5
 11
6.123031769111886E-17
 21
1.0
 31
0.0
 73
     1
 44
1.0
  0
POINT
  5
19A8
330
199E
100
AcDbEntity
  8
Defpoints
 62
     0
100
AcDbPoint
 10
72.22125003018851
 20
83.94882055485836
 30
0.0
  0
POINT
  5
19A9
330
199E
100
AcDbEntity
  8
Defpoints
 62
     0
100
AcDbPoint
 10
72.22125003018851
 20
82.34882055485836
 30
0.0
  0
POINT
  5
19AA
330
199E
100
AcDbEntity
  8
Defpoints
 62
     0
100
AcDbPoint
 10
57.22592567393417
 20
82.34882055485836
 30
0.0
  0
ENDBLK
  5
19AB
330
199E
100
AcDbEntity
  8
0
370
    30
100
AcDbBlockEnd
  0
BLOCK
  5
19AD
330
19AC
100
AcDbEntity
  8
0
370
    30
100
AcDbBlockBegin
  2
*D6
 70
     1
 10
0.0
 20
0.0
 30
0.0
  3
*D6
  1
*D6
  0
LINE
  5
19AE
330
19AC
100
AcDbEntity
  8
文字
 62
     0
370
    -2
100
AcDbLine
 10
199.7262337182474
 20
115.3847432098993
 30
0.0
 11
199.7262337182474
 21
82.51985031794277
 31
0.0
  0
LINE
  5
19AF
330
19AC
100
AcDbEntity
  8
文字
 62
     0
370
    -2
100
AcDbLine
 10
212.716614775014
 20
115.3847432098993
 30
0.0
 11
212.716614775014
 21
82.51985031794277
 31
0.0
  0
LINE
  5
19B0
330
19AC
100
AcDbEntity
  8
文字
 62
     0
370
    -2
100
AcDbLine
 10
202.2262337182474
 20
83.76985031794277
 30
0.0
 11
210.216614775014
 21
83.76985031794277
 31
0.0
  0
SOLID
  5
19B1
330
19AC
100
AcDbEntity
  8
文字
 62
     0
100
AcDbTrace
 10
202.2262337182474
 20
84.18651698460944
 30
0.0
 11
202.2262337182474
 21
83.3531836512761
 31
0.0
 12
199.7262337182474
 22
83.76985031794277
 32
0.0
 13
199.7262337182474
 23
83.76985031794277
 33
0.0
  0
SOLID
  5
19B2
330
19AC
100
AcDbEntity
  8
文字
 62
     0
100
AcDbTrace
 10
210.216614775014
 20
84.18651698460944
 30
0.0
 11
210.216614775014
 21
83.3531836512761
 31
0.0
 12
212.716614775014
 22
83.76985031794277
 32
0.0
 13
212.716614775014
 23
83.76985031794277
 33
0.0
  0
MTEXT
  5
19B3
330
19AC
100
AcDbEntity
  8
文字
 62
     0
100
AcDbMText
 10
206.4041474863344
 20
85.64485031794277
 30
0.0
 40
2.5
 41
0.0
 46
0.0
 71
     5
 72
     1
  1
13
 73
     1
 44
1.0
  0
POINT
  5
19B4
330
19AC
100
AcDbEntity
  8
Defpoints
 62
     0
100
AcDbPoint
 10
199.7262337182474
 20
116.0097432098993
 30
0.0
  0
POINT
  5
19B5
330
19AC
100
AcDbEntity
  8
Defpoints
 62
     0
100
AcDbPoint
 10
212.716614775014
 20
116.0097432098993
 30
0.0
  0
POINT
  5
19B6
330
19AC
100
AcDbEntity
  8
Defpoints
 62
     0
100
AcDbPoint
 10
212.716614775014
 20
83.76985031794277
 30
0.0
  0
ENDBLK
  5
19B7
330
19AC
100
AcDbEntity
  8
0
370
    30
100
AcDbBlockEnd
  0
BLOCK
  5
19B9
330
19B8
100
AcDbEntity
  8
0
100
AcDbBlockBegin
  2
*D7
 70
     1
 10
0.0
 20
0.0
 30
0.0
  3
*D7
  1
*D7
  0
LINE
  5
19BA
330
19B8
100
AcDbEntity
  8
文字
 62
     0
370
    -2
100
AcDbLine
 10
87.2212500301885
 20
135.0570527207158
 30
0.0
 11
87.2212500301885
 21
147.9015722211
 31
0.0
  0
LINE
  5
19BB
330
19B8
100
AcDbEntity
  8
文字
 62
     0
370
    -2
100
AcDbLine
 10
95.22125003018851
 20
135.0570527207158
 30
0.0
 11
95.22125003018851
 21
147.9015722211
 31
0.0
  0
LINE
  5
19BC
330
19B8
100
AcDbEntity
  8
文字
 62
     0
370
    -2
100
AcDbLine
 10
89.7212500301885
 20
146.6515722211
 30
0.0
 11
92.72125003018851
 21
146.6515722211
 31
0.0
  0
SOLID
  5
19BD
330
19B8
100
AcDbEntity
  8
文字
 62
     0
100
AcDbTrace
 10
89.7212500301885
 20
147.0682388877666
 30
0.0
 11
89.7212500301885
 21
146.2349055544333
 31
0.0
 12
87.2212500301885
 22
146.6515722211
 32
0.0
 13
87.2212500301885
 23
146.6515722211
 33
0.0
  0
SOLID
  5
19BE
330
19B8
100
AcDbEntity
  8
文字
 62
     0
100
AcDbTrace
 10
92.72125003018851
 20
147.0682388877666
 30
0.0
 11
92.72125003018851
 21
146.2349055544333
 31
0.0
 12
95.22125003018851
 22
146.6515722211
 32
0.0
 13
95.22125003018851
 23
146.6515722211
 33
0.0
  0
MTEXT
  5
19BF
330
19B8
100
AcDbEntity
  8
文字
 62
     0
100
AcDbMText
 10
91.22125003018851
 20
148.5265722211
 30
0.0
 40
2.5
 41
0.0
 46
0.0
 71
     5
 72
     1
  1
{\fArial|b0|i0|c0|p32;M}8
 73
     1
 44
1.0
  0
POINT
  5
19C0
330
19B8
100
AcDbEntity
  8
Defpoints
 62
     0
100
AcDbPoint
 10
87.2212500301885
 20
134.4320527207158
 30
0.0
  0
POINT
  5
19C1
330
19B8
100
AcDbEntity
  8
Defpoints
 62
     0
100
AcDbPoint
 10
95.22125003018851
 20
134.4320527207158
 30
0.0
  0
POINT
  5
19C2
330
19B8
100
AcDbEntity
  8
Defpoints
 62
     0
100
AcDbPoint
 10
95.22125003018851
 20
146.6515722211
 30
0.0
  0
ENDBLK
  5
19C3
330
19B8
100
AcDbEntity
  8
0
100
AcDbBlockEnd
  0
BLOCK
  5
19C5
330
19C4
100
AcDbEntity
  8
0
100
AcDbBlockBegin
  2
*D8
 70
     1
 10
0.0
 20
0.0
 30
0.0
  3
*D8
  1
*D8
  0
LINE
  5
19C6
330
19C4
100
AcDbEntity
  8
文字
 62
     0
370
    -2
100
AcDbLine
 10
72.22125003018851
 20
81.72382055485836
 30
0.0
 11
72.22125003018851
 21
61.64683633055239
 31
0.0
  0
LINE
  5
19C7
330
19C4
100
AcDbEntity
  8
文字
 62
     0
370
    -2
100
AcDbLine
 10
110.2212500301885
 20
81.72382055485835
 30
0.0
 11
110.2212500301885
 21
61.64683633055239
 31
0.0
  0
LINE
  5
19C8
330
19C4
100
AcDbEntity
  8
文字
 62
     0
370
    -2
100
AcDbLine
 10
74.72125003018851
 20
62.89683633055239
 30
0.0
 11
107.7212500301885
 21
62.89683633055239
 31
0.0
  0
SOLID
  5
19C9
330
19C4
100
AcDbEntity
  8
文字
 62
     0
100
AcDbTrace
 10
74.72125003018851
 20
63.31350299721905
 30
0.0
 11
74.72125003018851
 21
62.48016966388573
 31
0.0
 12
72.22125003018851
 22
62.89683633055239
 32
0.0
 13
72.22125003018851
 23
62.89683633055239
 33
0.0
  0
SOLID
  5
19CA
330
19C4
100
AcDbEntity
  8
文字
 62
     0
100
AcDbTrace
 10
107.7212500301885
 20
63.31350299721905
 30
0.0
 11
107.7212500301885
 21
62.48016966388573
 31
0.0
 12
110.2212500301885
 22
62.89683633055239
 32
0.0
 13
110.2212500301885
 23
62.89683633055239
 33
0.0
  0
MTEXT
  5
19CB
330
19C4
100
AcDbEntity
  8
文字
 62
     0
100
AcDbMText
 10
91.22125003018851
 20
64.77183633055239
 30
0.0
 40
2.5
 41
0.0
 46
0.0
 71
     5
 72
     1
  1
%%c38
 73
     1
 44
1.0
  0
POINT
  5
19CC
330
19C4
100
AcDbEntity
  8
Defpoints
 62
     0
100
AcDbPoint
 10
72.22125003018851
 20
82.34882055485836
 30
0.0
  0
POINT
  5
19CD
330
19C4
100
AcDbEntity
  8
Defpoints
 62
     0
100
AcDbPoint
 10
110.2212500301885
 20
82.34882055485835
 30
0.0
  0
POINT
  5
19CE
330
19C4
100
AcDbEntity
  8
Defpoints
 62
     0
100
AcDbPoint
 10
110.2212500301885
 20
62.89683633055239
 30
0.0
  0
ENDBLK
  5
19CF
330
19C4
100
AcDbEntity
  8
0
100
AcDbBlockEnd
  0
BLOCK
  5
19D1
330
19D0
100
AcDbEntity
  8
0
100
AcDbBlockBegin
  2
*D9
 70
     1
 10
0.0
 20
0.0
 30
0.0
  3
*D9
  1
*D9
  0
LINE
  5
19D2
330
19D0
100
AcDbEntity
  8
文字
 62
     0
370
    -2
100
AcDbLine
 10
110.8462500301885
 20
82.34882055485835
 30
0.0
 11
126.0779593090463
 21
82.34882055485835
 31
0.0
  0
LINE
  5
19D3
330
19D0
100
AcDbEntity
  8
文字
 62
     0
370
    -2
100
AcDbLine
 10
96.86248092256537
 20
94.93228662189009
 30
0.0
 11
126.0779593090463
 21
94.93228662189009
 31
0.0
  0
LINE
  5
19D4
330
19D0
100
AcDbEntity
  8
文字
 62
     0
370
    -2
100
AcDbLine
 10
124.8279593090463
 20
84.84882055485835
 30
0.0
 11
124.8279593090463
 21
92.43228662189009
 31
0.0
  0
SOLID
  5
19D5
330
19D0
100
AcDbEntity
  8
文字
 62
     0
100
AcDbTrace
 10
124.4112926423796
 20
84.84882055485835
 30
0.0
 11
125.2446259757129
 21
84.84882055485835
 31
0.0
 12
124.8279593090463
 22
82.34882055485835
 32
0.0
 13
124.8279593090463
 23
82.34882055485835
 33
0.0
  0
SOLID
  5
19D6
330
19D0
100
AcDbEntity
  8
文字
 62
     0
100
AcDbTrace
 10
124.4112926423796
 20
92.43228662189009
 30
0.0
 11
125.2446259757129
 21
92.43228662189009
 31
0.0
 12
124.8279593090463
 22
94.93228662189009
 32
0.0
 13
124.8279593090463
 23
94.93228662189009
 33
0.0
  0
MTEXT
  5
19D7
330
19D0
100
AcDbEntity
  8
文字
 62
     0
100
AcDbMText
 10
122.9529593090462
 20
88.64055358837423
 30
0.0
 40
2.5
 41
0.0
 46
0.0
 71
     5
 72
     1
  1
13
 11
6.123031769111886E-17
 21
1.0
 31
0.0
 73
     1
 44
1.0
  0
POINT
  5
19D8
330
19D0
100
AcDbEntity
  8
Defpoints
 62
     0
100
AcDbPoint
 10
110.2212500301885
 20
82.34882055485835
 30
0.0
  0
POINT
  5
19D9
330
19D0
100
AcDbEntity
  8
Defpoints
 62
     0
100
AcDbPoint
 10
96.23748092256537
 20
94.93228662189009
 30
0.0
  0
POINT
  5
19DA
330
19D0
100
AcDbEntity
  8
Defpoints
 62
     0
100
AcDbPoint
 10
124.8279593090463
 20
94.93228662189009
 30
0.0
  0
ENDBLK
  5
19DB
330
19D0
100
AcDbEntity
  8
0
100
AcDbBlockEnd
  0
BLOCK
  5
19DD
330
19DC
100
AcDbEntity
  8
0
100
AcDbBlockBegin
  2
*D10
 70
     1
 10
0.0
 20
0.0
 30
0.0
  3
*D10
  1
*D10
  0
LINE
  5
19DE
330
19DC
100
AcDbEntity
  8
文字
 62
     0
370
    -2
100
AcDbLine
 10
96.86248092256537
 20
94.93228662189009
 30
0.0
 11
126.0779593090463
 21
94.93228662189009
 31
0.0
  0
LINE
  5
19DF
330
19DC
100
AcDbEntity
  8
文字
 62
     0
370
    -2
100
AcDbLine
 10
99.37863313321532
 20
100.4320527207158
 30
0.0
 11
126.0779593090463
 21
100.4320527207158
 31
0.0
  0
LINE
  5
19E0
330
19DC
100
AcDbEntity
  8
文字
 62
     0
370
    -2
100
AcDbLine
 10
124.8279593090463
 20
92.43228662189009
 30
0.0
 11
124.8279593090463
 21
89.93228662189009
 31
0.0
  0
LINE
  5
19E1
330
19DC
100
AcDbEntity
  8
文字
 62
     0
370
    -2
100
AcDbLine
 10
124.8279593090463
 20
102.9320527207158
 30
0.0
 11
124.8279593090463
 21
105.4320527207158
 31
0.0
  0
LINE
  5
19E2
330
19DC
100
AcDbEntity
  8
文字
 62
     0
370
    -2
100
AcDbLine
 10
124.8279593090463
 20
97.68216967130294
 30
0.0
 11
130.7654593090463
 21
99.46341967130294
 31
0.0
  0
LINE
  5
19E3
330
19DC
100
AcDbEntity
  8
文字
 62
     0
370
    -2
100
AcDbLine
 10
130.7654593090463
 20
99.46341967130294
 30
0.0
 11
130.7654593090463
 21
105.7134196713029
 31
0.0
  0
MTEXT
  5
19E4
330
19DC
100
AcDbEntity
  8
文字
 62
     0
100
AcDbMText
 10
128.8904593090463
 20
102.588419671303
 30
0.0
 40
2.5
 41
0.0
 46
0.0
 71
     5
 72
     1
  1
5.5
 11
6.123031769111886E-17
 21
1.0
 31
0.0
 73
     1
 44
1.0
  0
LINE
  5
19E5
330
19DC
100
AcDbEntity
  8
文字
 62
     0
370
    -2
100
AcDbLine
 10
124.8279593090463
 20
94.93228662189009
 30
0.0
 11
124.8279593090463
 21
100.4320527207158
 31
0.0
  0
LINE
  5
19E6
330
19DC
100
AcDbEntity
  8
文字
 62
     0
370
    -2
100
AcDbLine
 10
124.8279593090463
 20
94.93228662189009
 30
0.0
 11
124.8279593090463
 21
100.4320527207158
 31
0.0
  0
SOLID
  5
19E7
330
19DC
100
AcDbEntity
  8
文字
 62
     0
100
AcDbTrace
 10
124.4112926423796
 20
92.43228662189009
 30
0.0
 11
125.2446259757129
 21
92.43228662189009
 31
0.0
 12
124.8279593090463
 22
94.93228662189009
 32
0.0
 13
124.8279593090463
 23
94.93228662189009
 33
0.0
  0
SOLID
  5
19E8
330
19DC
100
AcDbEntity
  8
文字
 62
     0
100
AcDbTrace
 10
124.4112926423796
 20
102.9320527207158
 30
0.0
 11
125.2446259757129
 21
102.9320527207158
 31
0.0
 12
124.8279593090463
 22
100.4320527207158
 32
0.0
 13
124.8279593090463
 23
100.4320527207158
 33
0.0
  0
POINT
  5
19E9
330
19DC
100
AcDbEntity
  8
Defpoints
 62
     0
100
AcDbPoint
 10
96.23748092256537
 20
94.93228662189009
 30
0.0
  0
POINT
  5
19EA
330
19DC
100
AcDbEntity
  8
Defpoints
 62
     0
100
AcDbPoint
 10
98.75363313321532
 20
100.4320527207158
 30
0.0
  0
POINT
  5
19EB
330
19DC
100
AcDbEntity
  8
Defpoints
 62
     0
100
AcDbPoint
 10
124.8279593090463
 20
100.4320527207158
 30
0.0
  0
ENDBLK
  5
19EC
330
19DC
100
AcDbEntity
  8
0
100
AcDbBlockEnd
  0
BLOCK
  5
19EE
330
19ED
100
AcDbEntity
  8
0
100
AcDbBlockBegin
  2
*D11
 70
     1
 10
0.0
 20
0.0
 30
0.0
  3
*D11
  1
*D11
  0
LINE
  5
19EF
330
19ED
100
AcDbEntity
  8
文字
 62
     0
370
    -2
100
AcDbLine
 10
99.37863313321532
 20
100.4320527207158
 30
0.0
 11
126.0779593090463
 21
100.4320527207158
 31
0.0
  0
LINE
  5
19F0
330
19ED
100
AcDbEntity
  8
文字
 62
     0
370
    -2
100
AcDbLine
 10
94.84625003018851
 20
135.4320527207158
 30
0.0
 11
126.0779593090463
 21
135.4320527207158
 31
0.0
  0
LINE
  5
19F1
330
19ED
100
AcDbEntity
  8
文字
 62
     0
370
    -2
100
AcDbLine
 10
124.8279593090463
 20
102.9320527207158
 30
0.0
 11
124.8279593090463
 21
132.9320527207158
 31
0.0
  0
SOLID
  5
19F2
330
19ED
100
AcDbEntity
  8
文字
 62
     0
100
AcDbTrace
 10
124.4112926423796
 20
102.9320527207158
 30
0.0
 11
125.2446259757129
 21
102.9320527207158
 31
0.0
 12
124.8279593090463
 22
100.4320527207158
 32
0.0
 13
124.8279593090463
 23
100.4320527207158
 33
0.0
  0
SOLID
  5
19F3
330
19ED
100
AcDbEntity
  8
文字
 62
     0
100
AcDbTrace
 10
124.4112926423796
 20
132.9320527207158
 30
0.0
 11
125.2446259757129
 21
132.9320527207158
 31
0.0
 12
124.8279593090463
 22
135.4320527207158
 32
0.0
 13
124.8279593090463
 23
135.4320527207158
 33
0.0
  0
MTEXT
  5
19F4
330
19ED
100
AcDbEntity
  8
文字
 62
     0
100
AcDbMText
 10
122.9529593090463
 20
117.9320527207158
 30
0.0
 40
2.5
 41
0.0
 46
0.0
 71
     5
 72
     1
  1
35
 11
6.123031769111886E-17
 21
1.0
 31
0.0
 73
     1
 44
1.0
  0
POINT
  5
19F5
330
19ED
100
AcDbEntity
  8
Defpoints
 62
     0
100
AcDbPoint
 10
98.75363313321532
 20
100.4320527207158
 30
0.0
  0
POINT
  5
19F6
330
19ED
100
AcDbEntity
  8
Defpoints
 62
     0
100
AcDbPoint
 10
94.22125003018851
 20
135.4320527207158
 30
0.0
  0
POINT
  5
19F7
330
19ED
100
AcDbEntity
  8
Defpoints
 62
     0
100
AcDbPoint
 10
124.8279593090463
 20
135.4320527207158
 30
0.0
  0
ENDBLK
  5
19F8
330
19ED
100
AcDbEntity
  8
0
100
AcDbBlockEnd
  0
BLOCK
  5
19FA
330
19F9
100
AcDbEntity
  8
0
100
AcDbBlockBegin
  2
*D12
 70
     1
 10
0.0
 20
0.0
 30
0.0
  3
*D12
  1
*D12
  0
LINE
  5
19FB
330
19F9
100
AcDbEntity
  8
文字
 62
     0
370
    -2
100
AcDbLine
 10
110.8462500301885
 20
82.34882055485835
 30
0.0
 11
141.6100264422735
 21
82.34882055485835
 31
0.0
  0
LINE
  5
19FC
330
19F9
100
AcDbEntity
  8
文字
 62
     0
370
    -2
100
AcDbLine
 10
94.84625003018851
 20
135.4320527207158
 30
0.0
 11
141.6100264422735
 21
135.4320527207158
 31
0.0
  0
LINE
  5
19FD
330
19F9
100
AcDbEntity
  8
文字
 62
     0
370
    -2
100
AcDbLine
 10
140.3600264422735
 20
84.84882055485835
 30
0.0
 11
140.3600264422735
 21
132.9320527207158
 31
0.0
  0
SOLID
  5
19FE
330
19F9
100
AcDbEntity
  8
文字
 62
     0
100
AcDbTrace
 10
139.9433597756068
 20
84.84882055485835
 30
0.0
 11
140.7766931089401
 21
84.84882055485835
 31
0.0
 12
140.3600264422735
 22
82.34882055485835
 32
0.0
 13
140.3600264422735
 23
82.34882055485835
 33
0.0
  0
SOLID
  5
19FF
330
19F9
100
AcDbEntity
  8
文字
 62
     0
100
AcDbTrace
 10
139.9433597756068
 20
132.9320527207158
 30
0.0
 11
140.7766931089401
 21
132.9320527207158
 31
0.0
 12
140.3600264422735
 22
135.4320527207158
 32
0.0
 13
140.3600264422735
 23
135.4320527207158
 33
0.0
  0
MTEXT
  5
1A00
330
19F9
100
AcDbEntity
  8
文字
 62
     0
100
AcDbMText
 10
138.4850264422734
 20
108.8904366377871
 30
0.0
 40
2.5
 41
0.0
 46
0.0
 71
     5
 72
     1
  1
53.5
 11
6.123031769111886E-17
 21
1.0
 31
0.0
 73
     1
 44
1.0
  0
POINT
  5
1A01
330
19F9
100
AcDbEntity
  8
Defpoints
 62
     0
100
AcDbPoint
 10
110.2212500301885
 20
82.34882055485835
 30
0.0
  0
POINT
  5
1A02
330
19F9
100
AcDbEntity
  8
Defpoints
 62
     0
100
AcDbPoint
 10
94.22125003018851
 20
135.4320527207158
 30
0.0
  0
POINT
  5
1A03
330
19F9
100
AcDbEntity
  8
Defpoints
 62
     0
100
AcDbPoint
 10
140.3600264422735
 20
135.4320527207158
 30
0.0
  0
ENDBLK
  5
1A04
330
19F9
100
AcDbEntity
  8
0
100
AcDbBlockEnd
  0
BLOCK
  5
1A4C
330
1A05
100
AcDbEntity
  8
0
 62
     0
100
AcDbBlockBegin
  2
A$C76A36C9E
 70
     0
 10
0.0
 20
0.0
 30
0.0
  3
A$C76A36C9E
  1
A$C76A36C9E
  0
LWPOLYLINE
  5
1A06
330
1A05
100
AcDbEntity
  8
実線
370
    50
100
AcDbPolyline
 90
        6
 70
     0
 43
0.0
 10
-136.9787502058973
 20
95.18495711771044
 10
-136.9787502058973
 20
115.6320525348278
 10
-137.9787502058973
 20
116.6320525348278
 10
-143.9787502058973
 20
116.6320525348278
 10
-144.9787502058973
 20
115.6320525348278
 10
-144.9787502058973
 20
95.18495711771044
  0
LINE
  5
1A07
330
1A05
100
AcDbEntity
  8
実線
370
    20
100
AcDbLine
 10
-137.9787502058973
 20
88.68519101888472
 30
0.0
 11
-137.9787502058973
 21
81.6320525348278
 31
0.0
  0
LINE
  5
1A08
330
1A05
100
AcDbEntity
  8
実線
370
    20
100
AcDbLine
 10
-143.9787502058973
 20
88.68519101888475
 30
0.0
 11
-143.9787502058973
 21
81.6320525348278
 31
0.0
  0
LWPOLYLINE
  5
1A09
330
1A05
100
AcDbEntity
  8
実線
370
    50
100
AcDbPolyline
 90
        4
 70
     0
 43
0.0
 10
-133.4463671028705
 20
89.68495711771044
 10
-133.4463671028705
 20
95.18495711771044
 10
-148.4463671028705
 20
95.18495711771044
 10
-148.4463671028705
 20
89.68495711771044
  0
LINE
  5
1A0A
330
1A05
100
AcDbEntity
  8
実線
370
    50
100
AcDbLine
 10
-144.3456442458684
 20
95.18495711771044
 30
0.0
 11
-144.3456442458684
 21
89.68495711771044
 31
0.0
  0
LINE
  5
1A0B
330
1A05
100
AcDbEntity
  8
実線
370
    50
100
AcDbLine
 10
-137.4873226877818
 20
95.18495711771044
 30
0.0
 11
-137.4873226877818
 21
89.68495711771044
 31
0.0
  0
ARC
  5
1A0C
330
1A05
100
AcDbEntity
  8
実線
370
    50
100
AcDbCircle
 10
-146.3960056743694
 20
91.28535523740777
 30
0.0
 40
2.601010597636193
100
AcDbArc
 50
217.973618634994
 51
322.0263813650058
  0
ARC
  5
1A0D
330
1A05
100
AcDbEntity
  8
実線
370
    50
100
AcDbCircle
 10
-140.916483466825
 20
95.06408242612318
 30
0.0
 40
6.379195304435764
100
AcDbArc
 50
237.4827287485465
 51
302.5172712514534
  0
ARC
  5
1A0E
330
1A05
100
AcDbEntity
  8
実線
370
    50
100
AcDbCircle
 10
-135.4668448953261
 20
91.22496313739819
 30
0.0
 40
2.540462369428222
100
AcDbArc
 50
217.3146110078773
 51
322.6853889921216
  0
LINE
  5
1A0F
330
1A05
100
AcDbEntity
  8
実線
370
    50
100
AcDbLine
 10
-140.9787502058973
 20
88.68519101888472
 30
0.0
 11
-145.9949810982741
 21
88.68519101888472
 31
0.0
  0
LINE
  5
1A10
330
1A05
100
AcDbEntity
  8
実線
370
    50
100
AcDbLine
 10
-140.9787502058976
 20
88.68519101888472
 30
0.0
 11
-135.9625193135205
 21
88.68519101888472
 31
0.0
  0
DIMENSION
  5
1A11
102
{ACAD_REACTORS
330
1A13
102
}
102
{ACAD_XDICTIONARY
360
1A12
102
}
330
1A05
100
AcDbEntity
  8
文字
100
AcDbDimension
280
     0
  2
*D12
 10
-91.83997379381236
 20
116.6320525348278
 30
0.0
 11
-93.71497379381239
 21
90.09043645189911
 31
0.0
 12
-232.2000002360858
 22
-18.80000018588799
 32
0.0
 70
    32
  1
53.5
 71
     5
 42
53.08323216585745
 73
     0
 74
     0
 75
     0
  3
ISO-25
100
AcDbAlignedDimension
 13
-121.9787502058973
 23
63.54882036897036
 33
0.0
 14
-137.9787502058973
 24
116.6320525348278
 34
0.0
 50
90.0
100
AcDbRotatedDimension
  0
LINE
  5
1A14
330
1A05
100
AcDbEntity
  8
中心線
100
AcDbLine
 10
-25.97857598945512
 20
97.20974302401129
 30
0.0
 11
-25.97857598945512
 21
73.28463913907507
 31
0.0
  0
LINE
  5
1A15
330
1A05
100
AcDbEntity
  8
中心線
100
AcDbLine
 10
-25.97857598945512
 20
97.20974302401129
 30
0.0
 11
-25.97857598945512
 21
122.905154338709
 31
0.0
  0
DIMENSION
  5
1A16
102
{ACAD_REACTORS
330
1A18
102
}
102
{ACAD_XDICTIONARY
360
1A17
102
}
330
1A05
100
AcDbEntity
  8
文字
100
AcDbDimension
280
     0
  2
*D11
 10
-107.3720409270395
 20
116.6320525348278
 30
0.0
 11
-109.2470409270396
 21
99.13205253482784
 31
0.0
 12
-232.2000002360858
 22
-18.80000018588799
 32
0.0
 70
    32
 71
     5
 42
35.0
 73
     0
 74
     0
 75
     0
  3
ISO-25
100
AcDbAlignedDimension
 13
-133.4463671028705
 23
81.6320525348278
 33
0.0
 14
-137.9787502058973
 24
116.6320525348278
 34
0.0
 50
90.0
100
AcDbRotatedDimension
1001
ACAD
1000
DSTYLE
1002
{
1070
   279
1070
     1
1002
}
  0
DIMENSION
  5
1A19
102
{ACAD_REACTORS
330
1A1B
102
}
102
{ACAD_XDICTIONARY
360
1A1A
102
}
330
1A05
100
AcDbEntity
  8
文字
100
AcDbDimension
280
     0
  2
*D10
 10
-107.3720409270395
 20
81.6320525348278
 30
0.0
 11
-103.3095409270396
 21
81.28841948541498
 31
0.0
 12
-232.2000002360858
 22
-18.80000018588799
 32
0.0
 70
    32
 71
     5
 42
5.499766098825717
 73
     0
 74
     0
 75
     0
  3
ISO-25
100
AcDbAlignedDimension
 13
-135.9625193135205
 23
76.13228643600209
 33
0.0
 14
-133.4463671028705
 24
81.6320525348278
 34
0.0
 50
90.0
100
AcDbRotatedDimension
1001
ACAD
1000
DSTYLE
1002
{
1070
   279
1070
     1
1002
}
  0
DIMENSION
  5
1A1C
102
{ACAD_REACTORS
330
1A1E
102
}
102
{ACAD_XDICTIONARY
360
1A1D
102
}
330
1A05
100
AcDbEntity
  8
文字
100
AcDbDimension
280
     0
  2
*D9
 10
-107.3720409270396
 20
76.13228643600209
 30
0.0
 11
-109.2470409270396
 21
69.84055340248625
 31
0.0
 12
-232.2000002360858
 22
-18.80000018588799
 32
0.0
 70
    32
  1
13
 71
     5
 42
12.58346606703174
 73
     0
 74
     0
 75
     0
  3
ISO-25
100
AcDbAlignedDimension
 13
-121.9787502058973
 23
63.54882036897036
 33
0.0
 14
-135.9625193135205
 24
76.13228643600209
 34
0.0
 50
90.0
100
AcDbRotatedDimension
  0
DIMENSION
  5
1A1F
330
1A05
100
AcDbEntity
  8
文字
100
AcDbDimension
280
     0
  2
*D8
 10
-121.9787502058973
 20
44.0968361446644
 30
0.0
 11
-140.9787502058973
 21
45.9718361446644
 31
0.0
 12
-232.2000002360858
 22
-18.80000018588799
 32
0.0
 70
    32
  1
%%c<>
 71
     5
 42
38.0
 73
     0
 74
     0
 75
     0
  3
ISO-25
100
AcDbAlignedDimension
 13
-159.9787502058973
 23
63.54882036897038
 33
0.0
 14
-121.9787502058973
 24
63.54882036897036
 34
0.0
100
AcDbRotatedDimension
  0
DIMENSION
  5
1A20
102
{ACAD_REACTORS
330
1A22
102
}
102
{ACAD_XDICTIONARY
360
1A21
102
}
330
1A05
100
AcDbEntity
  8
文字
100
AcDbDimension
280
     0
  2
*D7
 10
-136.9787502058973
 20
127.851572035212
 30
0.0
 11
-140.9787502058973
 21
129.726572035212
 31
0.0
 12
-232.2000002360858
 22
-18.80000018588799
 32
0.0
 70
    32
  1
{\fArial|b0|i0|c0|p32;M}<>
 71
     5
 42
8.000000000000014
 73
     0
 74
     0
 75
     0
  3
ISO-25
100
AcDbAlignedDimension
 13
-144.9787502058973
 23
115.6320525348278
 33
0.0
 14
-136.9787502058973
 24
115.6320525348278
 34
0.0
100
AcDbRotatedDimension
  0
LINE
  5
1A23
102
{ACAD_REACTORS
330
1A18
330
1A13
102
}
330
1A05
100
AcDbEntity
  8
実線
370
    20
100
AcDbLine
 10
-137.9787502058973
 20
116.6320525348278
 30
0.0
 11
-137.9787502058973
 21
95.18495711771044
 31
0.0
  0
LINE
  5
1A24
330
1A05
100
AcDbEntity
  8
実線
370
    20
100
AcDbLine
 10
-143.9787502058973
 20
116.6320525348278
 30
0.0
 11
-143.9787502058973
 21
95.18495711771044
 31
0.0
  0
LINE
  5
1A25
102
{ACAD_REACTORS
330
1A22
102
}
330
1A05
100
AcDbEntity
  8
実線
370
    20
100
AcDbLine
 10
-144.9787502058973
 20
115.6320525348278
 30
0.0
 11
-136.9787502058973
 21
115.6320525348278
 31
0.0
  0
LWPOLYLINE
  5
1A26
330
1A05
100
AcDbEntity
  8
実線
370
    50
100
AcDbPolyline
 90
        4
 70
     0
 43
0.0
 10
-144.9787502058973
 20
88.68519101888472
 10
-144.9787502058973
 20
81.6320525348278
 10
-136.9787502058973
 20
81.6320525348278
 10
-136.9787502058973
 20
88.68519101888472
  0
DIMENSION
  5
1A27
102
{ACAD_REACTORS
330
1A29
102
}
102
{ACAD_XDICTIONARY
360
1A28
102
}
330
1A05
100
AcDbEntity
  8
文字
100
AcDbDimension
280
     0
  2
*D6
 10
-19.48338546107183
 20
64.96985013205477
 30
0.0
 11
-25.79585274975142
 21
64.96985013205477
 31
0.0
 12
-232.2000002360858
 22
-18.80000018588799
 32
0.0
 70
   128
  1
13
 71
     5
 42
12.99038105676658
 73
     0
 74
     0
 75
     0
  3
ISO-25
100
AcDbAlignedDimension
 13
-32.47376651783841
 23
97.20974302401126
 33
0.0
 14
-19.48338546107183
 24
97.20974302401129
 34
0.0
100
AcDbRotatedDimension
  0
DIMENSION
  5
1A2A
102
{ACAD_REACTORS
330
1A2C
102
}
102
{ACAD_XDICTIONARY
360
1A2B
102
}
330
1A05
100
AcDbEntity
  8
文字
100
AcDbDimension
280
     0
  2
*D5
 10
-174.9740745621517
 20
63.54882036897038
 30
0.0
 11
-176.8490745621517
 21
55.84048703563706
 31
0.0
 12
-232.2000002360858
 22
-18.80000018588799
 32
0.0
 70
    32
  1
1.5
 71
     5
 42
1.599999999999994
 73
     0
 74
     0
 75
     0
  3
ISO-25
100
AcDbAlignedDimension
 13
-159.9787502058973
 23
65.14882036897038
 33
0.0
 14
-159.9787502058973
 24
63.54882036897038
 34
0.0
 50
90.0
100
AcDbRotatedDimension
  0
CIRCLE
  5
1A2D
330
1A05
100
AcDbEntity
  8
実線
370
    20
100
AcDbCircle
 10
-25.97857598945512
 20
97.20974302401129
 30
0.0
 40
3.4
  0
CIRCLE
  5
1A2E
330
1A05
100
AcDbEntity
  8
実線
370
    50
100
AcDbCircle
 10
-25.97857598945512
 20
97.20974302401129
 30
0.0
 40
4.0
  0
LWPOLYLINE
  5
1A2F
102
{ACAD_REACTORS
330
1A29
102
}
330
1A05
100
AcDbEntity
  8
実線
370
    50
100
AcDbPolyline
 90
        6
 70
     1
 43
0.0
 10
-19.48338546107183
 20
100.9597430240113
 10
-25.97857598945512
 20
104.7097430240113
 10
-32.47376651783841
 20
100.9597430240113
 10
-32.47376651783841
 20
93.45974302401126
 10
-25.97857598945512
 20
89.70974302401126
 10
-19.48338546107183
 20
93.45974302401126
  0
DIMENSION
  5
1A30
102
{ACAD_REACTORS
330
1A32
102
}
102
{ACAD_XDICTIONARY
360
1A31
102
}
330
1A05
100
AcDbEntity
  8
文字
100
AcDbDimension
280
     0
  2
*D4
 10
-11.97857598945512
 20
57.36396220779807
 30
0.0
 11
-25.97857598945512
 21
59.23896220779807
 31
0.0
 12
-232.2000002360858
 22
-18.80000018588799
 32
0.0
 70
    32
  1
%%c<>
 71
     5
 42
28.0
 73
     0
 74
     0
 75
     0
  3
ISO-25
100
AcDbAlignedDimension
 13
-39.97857598945512
 23
97.20974302401129
 33
0.0
 14
-11.97857598945512
 24
97.20974302401129
 34
0.0
100
AcDbRotatedDimension
  0
ARC
  5
1A33
330
1A05
100
AcDbEntity
  8
実線
370
    50
100
AcDbCircle
 10
-140.9787502058973
 20
62.86352625132333
 30
0.0
 40
14.18529411764706
100
AcDbArc
 50
110.7090084471018
 51
164.6470298493059
  0
LINE
  5
1A34
102
{ACAD_REACTORS
330
1A1E
330
1A1B
102
}
330
1A05
100
AcDbEntity
  8
実線
370
    50
100
AcDbLine
 10
-140.9787502058976
 20
76.13228643600209
 30
0.0
 11
-135.9625193135205
 21
76.13228643600209
 31
0.0
  0
LINE
  5
1A35
330
1A05
100
AcDbEntity
  8
実線
370
    50
100
AcDbLine
 10
-140.9787502058973
 20
76.13228643600209
 30
0.0
 11
-145.9949810982741
 21
76.13228643600209
 31
0.0
  0
ARC
  5
1A36
330
1A05
100
AcDbEntity
  8
実線
370
    50
100
AcDbCircle
 10
-135.4668448953261
 20
78.67205855451556
 30
0.0
 40
2.540462369428222
100
AcDbArc
 50
217.3146110078773
 51
322.6853889921216
  0
ARC
  5
1A37
330
1A05
100
AcDbEntity
  8
実線
370
    50
100
AcDbCircle
 10
-140.916483466825
 20
82.51117784324055
 30
0.0
 40
6.379195304435764
100
AcDbArc
 50
237.4827287485465
 51
302.5172712514534
  0
ARC
  5
1A38
330
1A05
100
AcDbEntity
  8
実線
370
    50
100
AcDbCircle
 10
-146.3960056743694
 20
78.73245065452514
 30
0.0
 40
2.601010597636193
100
AcDbArc
 50
217.973618634994
 51
322.0263813650058
  0
LINE
  5
1A39
330
1A05
100
AcDbEntity
  8
実線
370
    50
100
AcDbLine
 10
-137.4873226877818
 20
81.6320525348278
 30
0.0
 11
-137.4873226877818
 21
77.1320525348278
 31
0.0
  0
LINE
  5
1A3A
330
1A05
100
AcDbEntity
  8
実線
370
    50
100
AcDbLine
 10
-144.3456442458684
 20
81.6320525348278
 30
0.0
 11
-144.3456442458684
 21
77.1320525348278
 31
0.0
  0
LWPOLYLINE
  5
1A3B
102
{ACAD_REACTORS
330
1A1B
330
1A18
102
}
330
1A05
100
AcDbEntity
  8
実線
370
    50
100
AcDbPolyline
 90
        4
 70
     0
 43
0.0
 10
-133.4463671028705
 20
77.1320525348278
 10
-133.4463671028705
 20
81.6320525348278
 10
-148.4463671028705
 20
81.6320525348278
 10
-148.4463671028705
 20
77.1320525348278
  0
LINE
  5
1A3C
102
{ACAD_REACTORS
330
1A29
102
}
330
1A05
100
AcDbEntity
  8
中心線
100
AcDbLine
 10
-56.39333659375262
 20
97.20974302401129
 30
0.0
 11
-16.39090544331049
 21
97.20974302401129
 31
0.0
  0
LINE
  5
1A3D
330
1A05
100
AcDbEntity
  8
実線
370
    50
100
AcDbLine
 10
-156.4653650853308
 20
65.14882036897038
 30
0.0
 11
-125.371059793796
 21
65.14882036897035
 31
0.0
  0
LINE
  5
1A3E
330
1A05
100
AcDbEntity
  8
中心線
100
AcDbLine
 10
-16.39090544331049
 20
97.20974302401129
 30
0.0
 11
4.251392774196745
 21
97.20974302401129
 31
0.0
  0
CIRCLE
  5
1A3F
330
1A05
100
AcDbEntity
  8
実線
370
    50
100
AcDbCircle
 10
-25.97857598945512
 20
97.20974302401129
 30
0.0
 40
19.0
  0
CIRCLE
  5
1A40
102
{ACAD_REACTORS
330
1A32
102
}
330
1A05
100
AcDbEntity
  8
実線
370
    50
100
AcDbCircle
 10
-25.97857598945512
 20
97.20974302401129
 30
0.0
 40
14.0
  0
ARC
  5
1A41
330
1A05
100
AcDbEntity
  8
実線
370
    50
100
AcDbCircle
 10
-125.371059793796
 20
67.14882036897038
 30
0.0
 40
2.0
100
AcDbArc
 50
195.3529701506943
 51
270.0
  0
LINE
  5
1A42
330
1A05
100
AcDbEntity
  8
実線
370
    50
100
AcDbLine
 10
-125.371059793796
 20
65.14882036897035
 30
0.0
 11
-121.9787502058973
 21
65.14882036897035
 31
0.0
  0
ARC
  5
1A43
330
1A05
100
AcDbEntity
  8
実線
370
    50
100
AcDbCircle
 10
-156.5864406179986
 20
67.14882036897038
 30
0.0
 40
2.0
100
AcDbArc
 50
270.0
 51
344.6470298493056
  0
ARC
  5
1A44
102
{ACAD_REACTORS
330
1A1E
330
1A1B
102
}
330
1A05
100
AcDbEntity
  8
実線
370
    50
100
AcDbCircle
 10
-140.9787502058973
 20
62.86352625132333
 30
0.0
 40
14.18529411764706
100
AcDbArc
 50
15.35297015069416
 51
69.29099155289825
  0
LINE
  5
1A45
330
1A05
100
AcDbEntity
  8
実線
370
    50
100
AcDbLine
 10
-156.4653650853308
 20
65.14882036897038
 30
0.0
 11
-156.5864406179986
 21
65.14882036897038
 31
0.0
  0
LINE
  5
1A46
102
{ACAD_REACTORS
330
1A2C
102
}
330
1A05
100
AcDbEntity
  8
実線
370
    50
100
AcDbLine
 10
-159.9787502058973
 20
65.14882036897038
 30
0.0
 11
-156.4653650853308
 21
65.14882036897038
 31
0.0
  0
LINE
  5
1A47
330
1A05
100
AcDbEntity
  8
中心線
100
AcDbLine
 10
-140.9787502058973
 20
52.63205253482781
 30
0.0
 11
-140.9787502058973
 21
125.3376695381868
 31
0.0
  0
LINE
  5
1A48
102
{ACAD_REACTORS
330
1A1E
330
1A13
102
}
330
1A05
100
AcDbEntity
  8
実線
370
    50
100
AcDbLine
 10
-121.9787502058973
 20
65.14882036897035
 30
0.0
 11
-121.9787502058973
 21
63.54882036897036
 31
0.0
  0
LINE
  5
1A49
102
{ACAD_REACTORS
330
1A2C
102
}
330
1A05
100
AcDbEntity
  8
実線
370
    50
100
AcDbLine
 10
-159.9787502058973
 20
63.54882036897038
 30
0.0
 11
-159.9787502058973
 21
65.14882036897038
 31
0.0
  0
LINE
  5
1A4A
330
1A05
100
AcDbEntity
  8
実線
370
    50
100
AcDbLine
 10
-121.9787502058973
 20
63.54882036897036
 30
0.0
 11
-159.9787502058973
 21
63.54882036897038
 31
0.0
  0
TEXT
  5
1A4B
330
1A05
100
AcDbEntity
  8
文字
100
AcDbText
 10
2.672502397611936
 20
1.442331116837359
 30
0.0
 40
3.0
  1
ＳＵＳ304Ｊ3
100
AcDbText
  0
ENDBLK
  5
1A4D
330
1A05
100
AcDbEntity
  8
0
 62
     0
100
AcDbBlockEnd
  0
BLOCK
  5
1B98
330
1B8C
100
AcDbEntity
  8
0
 62
     1
100
AcDbBlockBegin
  2
*D14
 70
     1
 10
0.0
 20
0.0
 30
0.0
  3
*D14
  1
*D22
  0
LINE
  5
1C51
330
1B8C
100
AcDbEntity
  8
文字
 62
     0
370
    -2
100
AcDbLine
 10
59.6631403854829
 20
57.75947538981868
 30
0.0
 11
46.60711055823094
 21
57.75947538981868
 31
0.0
  0
LINE
  5
1C52
330
1B8C
100
AcDbEntity
  8
文字
 62
     0
370
    -2
100
AcDbLine
 10
59.6631403854829
 20
59.75947538981866
 30
0.0
 11
46.60711055823094
 21
59.75947538981867
 31
0.0
  0
LINE
  5
1C53
330
1B8C
100
AcDbEntity
  8
文字
 62
     0
370
    -2
100
AcDbLine
 10
47.85711055823094
 20
55.25947538981868
 30
0.0
 11
47.85711055823094
 21
52.75947538981868
 31
0.0
  0
LINE
  5
1C54
330
1B8C
100
AcDbEntity
  8
文字
 62
     0
370
    -2
100
AcDbLine
 10
47.85711055823094
 20
62.25947538981867
 30
0.0
 11
47.85711055823094
 21
64.75947538981866
 31
0.0
  0
MTEXT
  5
1C55
330
1B8C
100
AcDbEntity
  8
文字
 62
     0
100
AcDbMText
 10
43.6107942700387
 20
58.65756302174805
 30
0.0
 40
2.5
 41
0.0
 46
0.0
 71
     5
 72
     1
  1
2
 11
6.123031769111886E-17
 21
1.0
 31
0.0
 73
     1
 44
1.0
  0
LINE
  5
1C56
330
1B8C
100
AcDbEntity
  8
文字
 62
     0
370
    -2
100
AcDbLine
 10
47.85711055823094
 20
57.75947538981868
 30
0.0
 11
47.85711055823094
 21
59.75947538981867
 31
0.0
  0
SOLID
  5
1C57
330
1B8C
100
AcDbEntity
  8
文字
 62
     0
100
AcDbTrace
 10
47.44044389156428
 20
55.25947538981868
 30
0.0
 11
48.27377722489761
 21
55.25947538981868
 31
0.0
 12
47.85711055823094
 22
57.75947538981868
 32
0.0
 13
47.85711055823094
 23
57.75947538981868
 33
0.0
  0
SOLID
  5
1C58
330
1B8C
100
AcDbEntity
  8
文字
 62
     0
100
AcDbTrace
 10
47.44044389156428
 20
62.25947538981867
 30
0.0
 11
48.27377722489761
 21
62.25947538981866
 31
0.0
 12
47.85711055823094
 22
59.75947538981867
 32
0.0
 13
47.85711055823094
 23
59.75947538981867
 33
0.0
  0
POINT
  5
1C59
330
1B8C
100
AcDbEntity
  8
Defpoints
 62
     0
100
AcDbPoint
 10
60.2881403854829
 20
57.75947538981868
 30
0.0
  0
POINT
  5
1C5A
330
1B8C
100
AcDbEntity
  8
Defpoints
 62
     0
100
AcDbPoint
 10
60.2881403854829
 20
59.75947538981866
 30
0.0
  0
POINT
  5
1C5B
330
1B8C
100
AcDbEntity
  8
Defpoints
 62
     0
100
AcDbPoint
 10
47.85711055823094
 20
59.75947538981867
 30
0.0
  0
ENDBLK
  5
1B99
330
1B8C
100
AcDbEntity
  8
0
 62
     1
100
AcDbBlockEnd
  0
BLOCK
  5
1BA4
330
1B9A
100
AcDbEntity
  8
0
 62
     1
100
AcDbBlockBegin
  2
*D15
 70
     1
 10
0.0
 20
0.0
 30
0.0
  3
*D15
  1
*D23
  0
LINE
  5
1B9B
330
1B9A
100
AcDbEntity
  8
文字
 62
     0
370
    -2
100
AcDbLine
 10
112.2631403854829
 20
87.75947654652569
 30
0.0
 11
149.2612724132596
 21
87.75947654652569
 31
0.0
  0
LINE
  5
1B9C
330
1B9A
100
AcDbEntity
  8
文字
 62
     0
370
    -2
100
AcDbLine
 10
108.7852099394441
 20
77.75947538981868
 30
0.0
 11
149.2612724132596
 21
77.75947538981868
 31
0.0
  0
LINE
  5
1B9D
330
1B9A
100
AcDbEntity
  8
文字
 62
     0
370
    -2
100
AcDbLine
 10
148.0112724132596
 20
85.25947654652569
 30
0.0
 11
148.0112724132596
 21
80.25947538981868
 31
0.0
  0
SOLID
  5
1B9E
330
1B9A
100
AcDbEntity
  8
文字
 62
     0
100
AcDbTrace
 10
147.5946057465929
 20
85.25947654652569
 30
0.0
 11
148.4279390799262
 21
85.25947654652569
 31
0.0
 12
148.0112724132596
 22
87.75947654652569
 32
0.0
 13
148.0112724132596
 23
87.75947654652569
 33
0.0
  0
SOLID
  5
1B9F
330
1B9A
100
AcDbEntity
  8
文字
 62
     0
100
AcDbTrace
 10
147.5946057465929
 20
80.25947538981868
 30
0.0
 11
148.4279390799262
 21
80.25947538981868
 31
0.0
 12
148.0112724132596
 22
77.75947538981868
 32
0.0
 13
148.0112724132596
 23
77.75947538981868
 33
0.0
  0
MTEXT
  5
1BA0
330
1B9A
100
AcDbEntity
  8
文字
 62
     0
100
AcDbMText
 10
146.1362724132595
 20
82.7594759681722
 30
0.0
 40
2.5
 41
0.0
 46
0.0
 71
     5
 72
     1
  1
10
 11
6.123031769111886E-17
 21
1.0
 31
0.0
 73
     1
 44
1.0
  0
POINT
  5
1BA1
330
1B9A
100
AcDbEntity
  8
Defpoints
 62
     0
100
AcDbPoint
 10
111.6381403854829
 20
87.75947654652569
 30
0.0
  0
POINT
  5
1BA2
330
1B9A
100
AcDbEntity
  8
Defpoints
 62
     0
100
AcDbPoint
 10
108.1602099394441
 20
77.75947538981868
 30
0.0
  0
POINT
  5
1BA3
330
1B9A
100
AcDbEntity
  8
Defpoints
 62
     0
100
AcDbPoint
 10
148.0112724132596
 20
77.75947538981868
 30
0.0
  0
ENDBLK
  5
1BA5
330
1B9A
100
AcDbEntity
  8
0
 62
     1
100
AcDbBlockEnd
  0
BLOCK
  5
1BB0
330
1BA6
100
AcDbEntity
  8
0
 62
     1
100
AcDbBlockBegin
  2
*D16
 70
     1
 10
0.0
 20
0.0
 30
0.0
  3
*D16
  1
*D24
  0
LINE
  5
1BA7
330
1BA6
100
AcDbEntity
  8
文字
 62
     0
370
    -2
100
AcDbLine
 10
108.0001228140373
 20
77.75947538981868
 30
0.0
 11
149.2612724132595
 21
77.75947538981868
 31
0.0
  0
LINE
  5
1BA8
330
1BA6
100
AcDbEntity
  8
文字
 62
     0
370
    -2
100
AcDbLine
 10
135.9233409067743
 20
55.75950140264646
 30
0.0
 11
149.2612724132595
 21
55.75950140264646
 31
0.0
  0
LINE
  5
1BA9
330
1BA6
100
AcDbEntity
  8
文字
 62
     0
370
    -2
100
AcDbLine
 10
148.0112724132595
 20
75.25947538981868
 30
0.0
 11
148.0112724132595
 21
58.25950140264646
 31
0.0
  0
SOLID
  5
1BAA
330
1BA6
100
AcDbEntity
  8
文字
 62
     0
100
AcDbTrace
 10
148.4279390799261
 20
75.25947538981868
 30
0.0
 11
147.5946057465928
 21
75.25947538981868
 31
0.0
 12
148.0112724132595
 22
77.75947538981868
 32
0.0
 13
148.0112724132595
 23
77.75947538981868
 33
0.0
  0
SOLID
  5
1BAB
330
1BA6
100
AcDbEntity
  8
文字
 62
     0
100
AcDbTrace
 10
147.5946057465928
 20
58.25950140264646
 30
0.0
 11
148.4279390799261
 21
58.25950140264646
 31
0.0
 12
148.0112724132595
 22
55.75950140264646
 32
0.0
 13
148.0112724132595
 23
55.75950140264646
 33
0.0
  0
MTEXT
  5
1BAC
330
1BA6
100
AcDbEntity
  8
文字
 62
     0
100
AcDbMText
 10
146.1362724132595
 20
66.75948839623257
 30
0.0
 40
2.5
 41
0.0
 46
0.0
 71
     5
 72
     1
  1
22
 11
0.0
 21
1.0
 31
0.0
 73
     1
 44
1.0
  0
POINT
  5
1BAD
330
1BA6
100
AcDbEntity
  8
Defpoints
 62
     0
100
AcDbPoint
 10
107.3751228140373
 20
77.75947538981868
 30
0.0
  0
POINT
  5
1BAE
330
1BA6
100
AcDbEntity
  8
Defpoints
 62
     0
100
AcDbPoint
 10
135.2983409067743
 20
55.75950140264646
 30
0.0
  0
POINT
  5
1BAF
330
1BA6
100
AcDbEntity
  8
Defpoints
 62
     0
100
AcDbPoint
 10
148.0112724132595
 20
55.75950140264646
 30
0.0
  0
ENDBLK
  5
1BB1
330
1BA6
100
AcDbEntity
  8
0
 62
     1
100
AcDbBlockEnd
  0
BLOCK
  5
1BBC
330
1BB2
100
AcDbEntity
  8
0
 62
     1
100
AcDbBlockBegin
  2
*D17
 70
     1
 10
0.0
 20
0.0
 30
0.0
  3
*D17
  1
*D25
  0
LINE
  5
1BB3
330
1BB2
100
AcDbEntity
  8
文字
 62
     0
370
    -2
100
AcDbLine
 10
60.2881403854829
 20
57.13447538981866
 30
0.0
 11
60.2881403854829
 21
39.04817185245366
 31
0.0
  0
LINE
  5
1BB4
330
1BB2
100
AcDbEntity
  8
文字
 62
     0
370
    -2
100
AcDbLine
 10
135.2881403854829
 20
57.13447538981865
 30
0.0
 11
135.2881403854829
 21
39.04817185245366
 31
0.0
  0
LINE
  5
1BB5
330
1BB2
100
AcDbEntity
  8
文字
 62
     0
370
    -2
100
AcDbLine
 10
62.7881403854829
 20
40.29817185245366
 30
0.0
 11
132.7881403854829
 21
40.29817185245366
 31
0.0
  0
SOLID
  5
1BB6
330
1BB2
100
AcDbEntity
  8
文字
 62
     0
100
AcDbTrace
 10
62.7881403854829
 20
40.71483851912033
 30
0.0
 11
62.7881403854829
 21
39.881505185787
 31
0.0
 12
60.2881403854829
 22
40.29817185245366
 32
0.0
 13
60.2881403854829
 23
40.29817185245366
 33
0.0
  0
SOLID
  5
1BB7
330
1BB2
100
AcDbEntity
  8
文字
 62
     0
100
AcDbTrace
 10
132.7881403854829
 20
40.71483851912033
 30
0.0
 11
132.7881403854829
 21
39.881505185787
 31
0.0
 12
135.2881403854829
 22
40.29817185245366
 32
0.0
 13
135.2881403854829
 23
40.29817185245366
 33
0.0
  0
MTEXT
  5
1BB8
330
1BB2
100
AcDbEntity
  8
文字
 62
     0
100
AcDbMText
 10
97.7881403854829
 20
42.17317185245366
 30
0.0
 40
2.5
 41
0.0
 46
0.0
 71
     5
 72
     1
  1
%%c75
 73
     1
 44
1.0
  0
POINT
  5
1BB9
330
1BB2
100
AcDbEntity
  8
Defpoints
 62
     0
100
AcDbPoint
 10
60.2881403854829
 20
57.75947538981866
 30
0.0
  0
POINT
  5
1BBA
330
1BB2
100
AcDbEntity
  8
Defpoints
 62
     0
100
AcDbPoint
 10
135.2881403854829
 20
57.75947538981865
 30
0.0
  0
POINT
  5
1BBB
330
1BB2
100
AcDbEntity
  8
Defpoints
 62
     0
100
AcDbPoint
 10
135.2881403854829
 20
40.29817185245366
 30
0.0
  0
ENDBLK
  5
1BBD
330
1BB2
100
AcDbEntity
  8
0
 62
     1
100
AcDbBlockEnd
  0
BLOCK
  5
1BC8
330
1BBE
100
AcDbEntity
  8
0
 62
     1
100
AcDbBlockBegin
  2
*D18
 70
     1
 10
0.0
 20
0.0
 30
0.0
  3
*D18
  1
*D26
  0
LINE
  5
1C7C
330
1BBE
100
AcDbEntity
  8
文字
 62
     0
370
    -2
100
AcDbLine
 10
110.6250963169227
 20
187.7603226336386
 30
0.0
 11
149.2612724132596
 21
187.7603226336386
 31
0.0
  0
LINE
  5
1C7D
330
1BBE
100
AcDbEntity
  8
文字
 62
     0
370
    -2
100
AcDbLine
 10
112.2631403854829
 20
87.75947654652569
 30
0.0
 11
149.2612724132596
 21
87.75947654652569
 31
0.0
  0
LINE
  5
1C7E
330
1BBE
100
AcDbEntity
  8
文字
 62
     0
370
    -2
100
AcDbLine
 10
148.0112724132596
 20
185.2603226336386
 30
0.0
 11
148.0112724132596
 21
90.25947654652569
 31
0.0
  0
SOLID
  5
1C7F
330
1BBE
100
AcDbEntity
  8
文字
 62
     0
100
AcDbTrace
 10
148.4279390799263
 20
185.2603226336386
 30
0.0
 11
147.5946057465929
 21
185.2603226336386
 31
0.0
 12
148.0112724132596
 22
187.7603226336386
 32
0.0
 13
148.0112724132596
 23
187.7603226336386
 33
0.0
  0
SOLID
  5
1C80
330
1BBE
100
AcDbEntity
  8
文字
 62
     0
100
AcDbTrace
 10
147.5946057465929
 20
90.25947654652569
 30
0.0
 11
148.4279390799263
 21
90.25947654652569
 31
0.0
 12
148.0112724132596
 22
87.75947654652569
 32
0.0
 13
148.0112724132596
 23
87.75947654652569
 33
0.0
  0
MTEXT
  5
1C81
330
1BBE
100
AcDbEntity
  8
文字
 62
     0
100
AcDbMText
 10
146.1362724132596
 20
137.7598995900821
 30
0.0
 40
2.5
 41
0.0
 46
0.0
 71
     5
 72
     1
  1
100
 11
0.0
 21
1.0
 31
0.0
 73
     1
 44
1.0
  0
POINT
  5
1C82
330
1BBE
100
AcDbEntity
  8
Defpoints
 62
     0
100
AcDbPoint
 10
110.0000963169227
 20
187.7603226336386
 30
0.0
  0
POINT
  5
1C83
330
1BBE
100
AcDbEntity
  8
Defpoints
 62
     0
100
AcDbPoint
 10
111.6381403854829
 20
87.75947654652569
 30
0.0
  0
POINT
  5
1C84
330
1BBE
100
AcDbEntity
  8
Defpoints
 62
     0
100
AcDbPoint
 10
148.0112724132596
 20
87.75947654652569
 30
0.0
  0
ENDBLK
  5
1BC9
330
1BBE
100
AcDbEntity
  8
0
 62
     1
100
AcDbBlockEnd
  0
BLOCK
  5
1BD4
330
1BCA
100
AcDbEntity
  8
0
 62
     1
100
AcDbBlockBegin
  2
*D19
 70
     1
 10
0.0
 20
0.0
 30
0.0
  3
*D19
  1
*D27
  0
LINE
  5
1BCB
330
1BCA
100
AcDbEntity
  8
文字
 62
     0
370
    -2
100
AcDbLine
 10
212.9119924612497
 20
109.0101795246784
 30
0.0
 11
212.9119924612497
 21
65.56369920999563
 31
0.0
  0
LINE
  5
1BCC
330
1BCA
100
AcDbEntity
  8
文字
 62
     0
370
    -2
100
AcDbLine
 10
236.9008961460786
 20
109.0101795246784
 30
0.0
 11
236.9008961460786
 21
65.56369920999563
 31
0.0
  0
LINE
  5
1BCD
330
1BCA
100
AcDbEntity
  8
文字
 62
     0
370
    -2
100
AcDbLine
 10
215.4119924612497
 20
66.81369920999563
 30
0.0
 11
234.4008961460786
 21
66.81369920999563
 31
0.0
  0
SOLID
  5
1BCE
330
1BCA
100
AcDbEntity
  8
文字
 62
     0
100
AcDbTrace
 10
215.4119924612497
 20
67.2303658766623
 30
0.0
 11
215.4119924612497
 21
66.39703254332896
 31
0.0
 12
212.9119924612497
 22
66.81369920999563
 32
0.0
 13
212.9119924612497
 23
66.81369920999563
 33
0.0
  0
SOLID
  5
1BCF
330
1BCA
100
AcDbEntity
  8
文字
 62
     0
100
AcDbTrace
 10
234.4008961460786
 20
67.2303658766623
 30
0.0
 11
234.4008961460786
 21
66.39703254332896
 31
0.0
 12
236.9008961460786
 22
66.81369920999563
 32
0.0
 13
236.9008961460786
 23
66.81369920999563
 33
0.0
  0
MTEXT
  5
1BD0
330
1BCA
100
AcDbEntity
  8
文字
 62
     0
100
AcDbMText
 10
224.9064443036641
 20
68.68869920999563
 30
0.0
 40
2.5
 41
0.0
 46
0.0
 71
     5
 72
     1
  1
24
 73
     1
 44
1.0
  0
POINT
  5
1BD1
330
1BCA
100
AcDbEntity
  8
Defpoints
 62
     0
100
AcDbPoint
 10
212.9119924612497
 20
109.6351795246784
 30
0.0
  0
POINT
  5
1BD2
330
1BCA
100
AcDbEntity
  8
Defpoints
 62
     0
100
AcDbPoint
 10
236.9008961460786
 20
109.6351795246784
 30
0.0
  0
POINT
  5
1BD3
330
1BCA
100
AcDbEntity
  8
Defpoints
 62
     0
100
AcDbPoint
 10
236.9008961460786
 20
66.81369920999563
 30
0.0
  0
ENDBLK
  5
1BD5
330
1BCA
100
AcDbEntity
  8
0
 62
     1
100
AcDbBlockEnd
  0
BLOCK
  5
1BE0
330
1BD6
100
AcDbEntity
  8
0
 62
     1
100
AcDbBlockBegin
  2
*D20
 70
     1
 10
0.0
 20
0.0
 30
0.0
  3
*D20
  1
*D28
  0
LINE
  5
1C73
330
1BD6
100
AcDbEntity
  8
文字
 62
     0
370
    -2
100
AcDbLine
 10
89.78814038548288
 20
186.4885742959289
 30
0.0
 11
89.78814038548288
 21
200.3175042054356
 31
0.0
  0
LINE
  5
1C74
330
1BD6
100
AcDbEntity
  8
文字
 62
     0
370
    -2
100
AcDbLine
 10
105.7881403854829
 20
186.4885742959289
 30
0.0
 11
105.7881403854829
 21
200.3175042054356
 31
0.0
  0
LINE
  5
1C75
330
1BD6
100
AcDbEntity
  8
文字
 62
     0
370
    -2
100
AcDbLine
 10
92.28814038548288
 20
199.0675042054356
 30
0.0
 11
103.2881403854829
 21
199.0675042054356
 31
0.0
  0
SOLID
  5
1C76
330
1BD6
100
AcDbEntity
  8
文字
 62
     0
100
AcDbTrace
 10
92.28814038548288
 20
199.4841708721023
 30
0.0
 11
92.28814038548288
 21
198.6508375387689
 31
0.0
 12
89.78814038548288
 22
199.0675042054356
 32
0.0
 13
89.78814038548288
 23
199.0675042054356
 33
0.0
  0
SOLID
  5
1C77
330
1BD6
100
AcDbEntity
  8
文字
 62
     0
100
AcDbTrace
 10
103.2881403854829
 20
198.6508375387689
 30
0.0
 11
103.2881403854829
 21
199.4841708721023
 31
0.0
 12
105.7881403854829
 22
199.0675042054356
 32
0.0
 13
105.7881403854829
 23
199.0675042054356
 33
0.0
  0
MTEXT
  5
1C78
330
1BD6
100
AcDbEntity
  8
文字
 62
     0
100
AcDbMText
 10
97.78814038548289
 20
200.9425042054356
 30
0.0
 40
2.5
 41
0.0
 46
0.0
 71
     5
 72
     1
  1
M16
 73
     1
 44
1.0
  0
POINT
  5
1C79
330
1BD6
100
AcDbEntity
  8
Defpoints
 62
     0
100
AcDbPoint
 10
89.78814038548288
 20
185.8635742959289
 30
0.0
  0
POINT
  5
1C7A
330
1BD6
100
AcDbEntity
  8
Defpoints
 62
     0
100
AcDbPoint
 10
105.7881403854829
 20
185.8635742959289
 30
0.0
  0
POINT
  5
1C7B
330
1BD6
100
AcDbEntity
  8
Defpoints
 62
     0
100
AcDbPoint
 10
105.7881403854829
 20
199.0675042054356
 30
0.0
  0
ENDBLK
  5
1BE1
330
1BD6
100
AcDbEntity
  8
0
 62
     1
100
AcDbBlockEnd
  0
BLOCK
  5
1BEC
330
1BE2
100
AcDbEntity
  8
0
 62
     1
100
AcDbBlockBegin
  2
*D21
 70
     1
 10
0.0
 20
0.0
 30
0.0
  3
*D21
  1
*D29
  0
LINE
  5
1BE3
330
1BE2
100
AcDbEntity
  8
文字
 62
     0
370
    -2
100
AcDbLine
 10
198.9064443036641
 20
115.9351795246783
 30
0.0
 11
198.9064443036641
 21
54.97303197751248
 31
0.0
  0
LINE
  5
1BE4
330
1BE2
100
AcDbEntity
  8
文字
 62
     0
370
    -2
100
AcDbLine
 10
250.9064443036641
 20
115.9351795246783
 30
0.0
 11
250.9064443036641
 21
54.97303197751248
 31
0.0
  0
LINE
  5
1BE5
330
1BE2
100
AcDbEntity
  8
文字
 62
     0
370
    -2
100
AcDbLine
 10
201.4064443036641
 20
56.22303197751248
 30
0.0
 11
248.4064443036641
 21
56.22303197751248
 31
0.0
  0
SOLID
  5
1BE6
330
1BE2
100
AcDbEntity
  8
文字
 62
     0
100
AcDbTrace
 10
201.4064443036641
 20
56.63969864417915
 30
0.0
 11
201.4064443036641
 21
55.80636531084582
 31
0.0
 12
198.9064443036641
 22
56.22303197751248
 32
0.0
 13
198.9064443036641
 23
56.22303197751248
 33
0.0
  0
SOLID
  5
1BE7
330
1BE2
100
AcDbEntity
  8
文字
 62
     0
100
AcDbTrace
 10
248.4064443036641
 20
55.80636531084582
 30
0.0
 11
248.4064443036641
 21
56.63969864417915
 31
0.0
 12
250.9064443036641
 22
56.22303197751248
 32
0.0
 13
250.9064443036641
 23
56.22303197751248
 33
0.0
  0
MTEXT
  5
1BE8
330
1BE2
100
AcDbEntity
  8
文字
 62
     0
100
AcDbMText
 10
224.9807086458195
 20
58.09803197751248
 30
0.0
 40
2.5
 41
0.0
 46
0.0
 71
     5
 72
     1
  1
%%c52
 73
     1
 44
1.0
  0
POINT
  5
1BE9
330
1BE2
100
AcDbEntity
  8
Defpoints
 62
     0
100
AcDbPoint
 10
198.9064443036641
 20
116.5601795246783
 30
0.0
  0
POINT
  5
1BEA
330
1BE2
100
AcDbEntity
  8
Defpoints
 62
     0
100
AcDbPoint
 10
250.9064443036641
 20
116.5601795246783
 30
0.0
  0
POINT
  5
1BEB
330
1BE2
100
AcDbEntity
  8
Defpoints
 62
     0
100
AcDbPoint
 10
250.9064443036641
 20
56.22303197751248
 30
0.0
  0
ENDBLK
  5
1BED
330
1BE2
100
AcDbEntity
  8
0
 62
     1
100
AcDbBlockEnd
  0
BLOCK
  5
1C11
330
1C07
100
AcDbEntity
  8
0
100
AcDbBlockBegin
  2
*D22
 70
     1
 10
0.0
 20
0.0
 30
0.0
  3
*D22
  1
*D30
  0
LINE
  5
1C6A
330
1C07
100
AcDbEntity
  8
文字
 62
     0
370
    -2
100
AcDbLine
 10
135.9131403854829
 20
57.75947538981865
 30
0.0
 11
156.4793090157293
 21
57.75947538981864
 31
0.0
  0
LINE
  5
1C6B
330
1C07
100
AcDbEntity
  8
文字
 62
     0
370
    -2
100
AcDbLine
 10
104.4131403854829
 20
162.7594765465257
 30
0.0
 11
156.4793090157293
 21
162.7594765465257
 31
0.0
  0
LINE
  5
1C6C
330
1C07
100
AcDbEntity
  8
文字
 62
     0
370
    -2
100
AcDbLine
 10
155.2293090157293
 20
60.25947538981864
 30
0.0
 11
155.2293090157293
 21
160.2594765465257
 31
0.0
  0
SOLID
  5
1C6D
330
1C07
100
AcDbEntity
  8
文字
 62
     0
100
AcDbTrace
 10
154.8126423490626
 20
60.25947538981864
 30
0.0
 11
155.6459756823959
 21
60.25947538981864
 31
0.0
 12
155.2293090157293
 22
57.75947538981864
 32
0.0
 13
155.2293090157293
 23
57.75947538981864
 33
0.0
  0
SOLID
  5
1C6E
330
1C07
100
AcDbEntity
  8
文字
 62
     0
100
AcDbTrace
 10
154.8126423490627
 20
160.2594765465257
 30
0.0
 11
155.645975682396
 21
160.2594765465257
 31
0.0
 12
155.2293090157293
 22
162.7594765465257
 32
0.0
 13
155.2293090157293
 23
162.7594765465257
 33
0.0
  0
MTEXT
  5
1C6F
330
1C07
100
AcDbEntity
  8
文字
 62
     0
100
AcDbMText
 10
153.3543090157293
 20
110.2594759681722
 30
0.0
 40
2.5
 41
0.0
 46
0.0
 71
     5
 72
     1
  1
105
 11
6.123031769111886E-17
 21
1.0
 31
0.0
 73
     1
 44
1.0
  0
POINT
  5
1C70
330
1C07
100
AcDbEntity
  8
Defpoints
 62
     0
100
AcDbPoint
 10
135.2881403854829
 20
57.75947538981865
 30
0.0
  0
POINT
  5
1C71
330
1C07
100
AcDbEntity
  8
Defpoints
 62
     0
100
AcDbPoint
 10
103.7881403854829
 20
162.7594765465257
 30
0.0
  0
POINT
  5
1C72
330
1C07
100
AcDbEntity
  8
Defpoints
 62
     0
100
AcDbPoint
 10
155.2293090157293
 20
162.7594765465257
 30
0.0
  0
ENDBLK
  5
1C12
330
1C07
100
AcDbEntity
  8
0
100
AcDbBlockEnd
  0
BLOCK
  5
1D23
330
1D22
100
AcDbEntity
  8
0
100
AcDbBlockBegin
  2
*D23
 70
     1
 10
0.0
 20
0.0
 30
0.0
  3
*D23
  1
*D6
  0
LINE
  5
1D24
330
1D22
100
AcDbEntity
  8
0
 62
     0
370
    -2
100
AcDbLine
 10
0.0
 20
79.40217180797751
 30
0.0
 11
0.0
 21
1.540927694406548
 31
0.0
  0
LINE
  5
1D25
330
1D22
100
AcDbEntity
  8
0
 62
     0
370
    -2
100
AcDbLine
 10
82.99999999999997
 20
79.40217180797751
 30
0.0
 11
82.99999999999997
 21
1.540927694406548
 31
0.0
  0
LINE
  5
1D26
330
1D22
100
AcDbEntity
  8
0
 62
     0
370
    -2
100
AcDbLine
 10
2.0
 20
2.540927694406548
 30
0.0
 11
34.32666666666665
 21
2.540927694406548
 31
0.0
  0
LINE
  5
1D27
330
1D22
100
AcDbEntity
  8
0
 62
     0
370
    -2
100
AcDbLine
 10
80.99999999999997
 20
2.540927694406548
 30
0.0
 11
48.67333333333332
 21
2.540927694406548
 31
0.0
  0
SOLID
  5
1D28
330
1D22
100
AcDbEntity
  8
0
 62
     0
100
AcDbTrace
 10
2.0
 20
2.874261027739882
 30
0.0
 11
2.0
 21
2.207594361073215
 31
0.0
 12
0.0
 22
2.540927694406548
 32
0.0
 13
0.0
 23
2.540927694406548
 33
0.0
  0
SOLID
  5
1D29
330
1D22
100
AcDbEntity
  8
0
 62
     0
100
AcDbTrace
 10
80.99999999999997
 20
2.207594361073215
 30
0.0
 11
80.99999999999997
 21
2.874261027739882
 31
0.0
 12
82.99999999999997
 22
2.540927694406548
 32
0.0
 13
82.99999999999997
 23
2.540927694406548
 33
0.0
  0
MTEXT
  5
1D2A
330
1D22
100
AcDbEntity
  8
0
 62
     0
100
AcDbMText
 10
41.49999999999999
 20
2.540927694406548
 30
0.0
 40
5.0
 41
0.0
 46
0.0
 71
     5
 72
     1
  1
\A1;83.0
 73
     1
 44
1.0
  0
POINT
  5
1D2B
330
1D22
100
AcDbEntity
  8
Defpoints
 62
     0
100
AcDbPoint
 10
0.0
 20
80.40217180797751
 30
0.0
  0
POINT
  5
1D2C
330
1D22
100
AcDbEntity
  8
Defpoints
 62
     0
100
AcDbPoint
 10
82.99999999999997
 20
80.40217180797751
 30
0.0
  0
POINT
  5
1D2D
330
1D22
100
AcDbEntity
  8
Defpoints
 62
     0
100
AcDbPoint
 10
82.99999999999997
 20
2.540927694406548
 30
0.0
  0
ENDBLK
  5
1D2E
330
1D22
100
AcDbEntity
  8
0
100
AcDbBlockEnd
  0
BLOCK
  5
1D38
330
1D37
100
AcDbEntity
  8
0
100
AcDbBlockBegin
  2
*D24
 70
     1
 10
0.0
 20
0.0
 30
0.0
  3
*D24
  1
*D25
  0
LINE
  5
1D3A
330
1D37
100
AcDbEntity
  8
0
 62
     0
370
    -2
100
AcDbLine
 10
183.0986406501863
 20
115.6975532190745
 30
0.0
 11
183.0986406501863
 21
37.83630910550355
 31
0.0
  0
LINE
  5
1D3B
330
1D37
100
AcDbEntity
  8
0
 62
     0
370
    -2
100
AcDbLine
 10
266.0986406501862
 20
115.6975532190745
 30
0.0
 11
266.0986406501862
 21
37.83630910550355
 31
0.0
  0
LINE
  5
1D3C
330
1D37
100
AcDbEntity
  8
0
 62
     0
370
    -2
100
AcDbLine
 10
185.0986406501863
 20
38.83630910550355
 30
0.0
 11
220.9669739835196
 21
38.83630910550355
 31
0.0
  0
LINE
  5
1D3D
330
1D37
100
AcDbEntity
  8
0
 62
     0
370
    -2
100
AcDbLine
 10
264.0986406501862
 20
38.83630910550355
 30
0.0
 11
228.2303073168529
 21
38.83630910550355
 31
0.0
  0
SOLID
  5
1D3E
330
1D37
100
AcDbEntity
  8
0
 62
     0
100
AcDbTrace
 10
185.0986406501863
 20
39.16964243883689
 30
0.0
 11
185.0986406501863
 21
38.50297577217022
 31
0.0
 12
183.0986406501863
 22
38.83630910550355
 32
0.0
 13
183.0986406501863
 23
38.83630910550355
 33
0.0
  0
SOLID
  5
1D3F
330
1D37
100
AcDbEntity
  8
0
 62
     0
100
AcDbTrace
 10
264.0986406501862
 20
38.50297577217022
 30
0.0
 11
264.0986406501862
 21
39.16964243883689
 31
0.0
 12
266.0986406501862
 22
38.83630910550355
 32
0.0
 13
266.0986406501862
 23
38.83630910550355
 33
0.0
  0
MTEXT
  5
1D40
330
1D37
100
AcDbEntity
  8
0
 62
     0
100
AcDbMText
 10
224.5986406501863
 20
38.83630910550355
 30
0.0
 40
2.5
 41
0.0
 46
0.0
 71
     5
 72
     1
  1
\A1;83.0
 73
     1
 44
1.0
  0
POINT
  5
1D41
330
1D37
100
AcDbEntity
  8
Defpoints
 62
     0
100
AcDbPoint
 10
183.0986406501863
 20
116.6975532190745
 30
0.0
  0
POINT
  5
1D42
330
1D37
100
AcDbEntity
  8
Defpoints
 62
     0
100
AcDbPoint
 10
266.0986406501862
 20
116.6975532190745
 30
0.0
  0
POINT
  5
1D43
330
1D37
100
AcDbEntity
  8
Defpoints
 62
     0
100
AcDbPoint
 10
266.0986406501862
 20
38.83630910550355
 30
0.0
  0
ENDBLK
  5
1D39
330
1D37
100
AcDbEntity
  8
0
100
AcDbBlockEnd
  0
BLOCK
  5
1DE3
330
1DE2
100
AcDbEntity
  8
0
100
AcDbBlockBegin
  2
*D25
 70
     1
 10
0.0
 20
0.0
 30
0.0
  3
*D25
  1
*D9
  0
LINE
  5
1DE4
330
1DE2
100
AcDbEntity
  8
0
 62
     0
370
    -2
100
AcDbLine
 10
25.90458484183566
 20
11.92976550525445
 30
0.0
 11
8.934556616643853
 21
11.92976550525445
 31
0.0
  0
LINE
  5
1DE5
330
1DE2
100
AcDbEntity
  8
0
 62
     0
370
    -2
100
AcDbLine
 10
25.90458484183566
 20
4.729765505254477
 30
0.0
 11
8.934556616643853
 21
4.729765505254478
 31
0.0
  0
LINE
  5
1DE6
330
1DE2
100
AcDbEntity
  8
0
 62
     0
370
    -2
100
AcDbLine
 10
9.114556616643853
 20
9.929765505254451
 30
0.0
 11
9.114556616643853
 21
6.729765505254478
 31
0.0
  0
SOLID
  5
1DE7
330
1DE2
100
AcDbEntity
  8
0
 62
     0
100
AcDbTrace
 10
9.447889949977187
 20
9.929765505254451
 30
0.0
 11
8.781223283310519
 21
9.929765505254451
 31
0.0
 12
9.114556616643853
 22
11.92976550525445
 32
0.0
 13
9.114556616643853
 23
11.92976550525445
 33
0.0
  0
SOLID
  5
1DE8
330
1DE2
100
AcDbEntity
  8
0
 62
     0
100
AcDbTrace
 10
8.781223283310519
 20
6.729765505254478
 30
0.0
 11
9.447889949977187
 21
6.729765505254478
 31
0.0
 12
9.114556616643853
 22
4.729765505254478
 32
0.0
 13
9.114556616643853
 23
4.729765505254478
 33
0.0
  0
MTEXT
  5
1DE9
330
1DE2
100
AcDbEntity
  8
0
 62
     0
100
AcDbMText
 10
4.024556616643852
 20
8.329765505254464
 30
0.0
 40
5.0
 41
0.0
 46
0.0
 71
     5
 72
     1
  1
\A1;7.2
 73
     1
 44
1.0
  0
POINT
  5
1DEA
330
1DE2
100
AcDbEntity
  8
Defpoints
 62
     0
100
AcDbPoint
 10
25.96708484183566
 20
11.92976550525445
 30
0.0
  0
POINT
  5
1DEB
330
1DE2
100
AcDbEntity
  8
Defpoints
 62
     0
100
AcDbPoint
 10
25.96708484183566
 20
4.729765505254477
 30
0.0
  0
POINT
  5
1DEC
330
1DE2
100
AcDbEntity
  8
Defpoints
 62
     0
100
AcDbPoint
 10
9.114556616643853
 20
4.729765505254478
 30
0.0
  0
ENDBLK
  5
1DED
330
1DE2
100
AcDbEntity
  8
0
100
AcDbBlockEnd
  0
BLOCK
  5
1E65
330
1E64
100
AcDbEntity
  8
0
100
AcDbBlockBegin
  2
*D26
 70
     1
 10
0.0
 20
0.0
 30
0.0
  3
*D26
  1
*D27
  0
LINE
  5
1E67
330
1E64
100
AcDbEntity
  8
0
 62
     0
370
    -2
100
AcDbLine
 10
56.2625946148862
 20
63.96543895419436
 30
0.0
 11
39.29256638969439
 21
63.96543895419436
 31
0.0
  0
LINE
  5
1E68
330
1E64
100
AcDbEntity
  8
0
 62
     0
370
    -2
100
AcDbLine
 10
56.23147705491363
 20
55.76592322272171
 30
0.0
 11
39.29256638969439
 21
55.76592322272171
 31
0.0
  0
LINE
  5
1E69
330
1E64
100
AcDbEntity
  8
0
 62
     0
370
    -2
100
AcDbLine
 10
39.47256638969439
 20
61.96543895419436
 30
0.0
 11
39.47256638969439
 21
57.76592322272171
 31
0.0
  0
SOLID
  5
1E6A
330
1E64
100
AcDbEntity
  8
0
 62
     0
100
AcDbTrace
 10
39.80589972302773
 20
61.96543895419436
 30
0.0
 11
39.13923305636106
 21
61.96543895419436
 31
0.0
 12
39.47256638969439
 22
63.96543895419436
 32
0.0
 13
39.47256638969439
 23
63.96543895419436
 33
0.0
  0
SOLID
  5
1E6B
330
1E64
100
AcDbEntity
  8
0
 62
     0
100
AcDbTrace
 10
39.13923305636106
 20
57.76592322272171
 30
0.0
 11
39.80589972302773
 21
57.76592322272171
 31
0.0
 12
39.47256638969439
 22
55.76592322272171
 32
0.0
 13
39.47256638969439
 23
55.76592322272171
 33
0.0
  0
MTEXT
  5
1E6C
330
1E64
100
AcDbEntity
  8
0
 62
     0
100
AcDbMText
 10
36.88256638969439
 20
59.86568108845803
 30
0.0
 40
2.5
 41
0.0
 46
0.0
 71
     5
 72
     1
  1
\A1;8.2
 73
     1
 44
1.0
  0
POINT
  5
1E6D
330
1E64
100
AcDbEntity
  8
Defpoints
 62
     0
100
AcDbPoint
 10
56.3250946148862
 20
63.96543895419436
 30
0.0
  0
POINT
  5
1E6E
330
1E64
100
AcDbEntity
  8
Defpoints
 62
     0
100
AcDbPoint
 10
56.29397705491363
 20
55.76592322272171
 30
0.0
  0
POINT
  5
1E6F
330
1E64
100
AcDbEntity
  8
Defpoints
 62
     0
100
AcDbPoint
 10
39.47256638969439
 20
55.76592322272171
 30
0.0
  0
ENDBLK
  5
1E66
330
1E64
100
AcDbEntity
  8
0
100
AcDbBlockEnd
  0
BLOCK
  5
1E97
330
1E96
100
AcDbEntity
  8
0
100
AcDbBlockBegin
  2
*D27
 70
     1
 10
0.0
 20
0.0
 30
0.0
  3
*D27
  1
*D25
  0
LINE
  5
1E98
330
1E96
100
AcDbEntity
  8
0
 62
     0
370
    -2
100
AcDbLine
 10
0.0
 20
78.11124411357096
 30
0.0
 11
0.0
 21
0.25
 31
0.0
  0
LINE
  5
1E99
330
1E96
100
AcDbEntity
  8
0
 62
     0
370
    -2
100
AcDbLine
 10
82.99999999999991
 20
78.11124411357096
 30
0.0
 11
82.99999999999991
 21
0.25
 31
0.0
  0
LINE
  5
1E9A
330
1E96
100
AcDbEntity
  8
0
 62
     0
370
    -2
100
AcDbLine
 10
2.0
 20
1.25
 30
0.0
 11
37.8683333333333
 21
1.25
 31
0.0
  0
LINE
  5
1E9B
330
1E96
100
AcDbEntity
  8
0
 62
     0
370
    -2
100
AcDbLine
 10
80.99999999999991
 20
1.25
 30
0.0
 11
45.13166666666662
 21
1.25
 31
0.0
  0
SOLID
  5
1E9C
330
1E96
100
AcDbEntity
  8
0
 62
     0
100
AcDbTrace
 10
2.0
 20
1.583333333333333
 30
0.0
 11
2.0
 21
0.9166666666666667
 31
0.0
 12
0.0
 22
1.25
 32
0.0
 13
0.0
 23
1.25
 33
0.0
  0
SOLID
  5
1E9D
330
1E96
100
AcDbEntity
  8
0
 62
     0
100
AcDbTrace
 10
80.99999999999991
 20
0.9166666666666667
 30
0.0
 11
80.99999999999991
 21
1.583333333333333
 31
0.0
 12
82.99999999999991
 22
1.25
 32
0.0
 13
82.99999999999991
 23
1.25
 33
0.0
  0
MTEXT
  5
1E9E
330
1E96
100
AcDbEntity
  8
0
 62
     0
100
AcDbMText
 10
41.49999999999996
 20
1.25
 30
0.0
 40
2.5
 41
0.0
 46
0.0
 71
     5
 72
     1
  1
\A1;83.0
 73
     1
 44
1.0
  0
POINT
  5
1E9F
330
1E96
100
AcDbEntity
  8
Defpoints
 62
     0
100
AcDbPoint
 10
0.0
 20
79.11124411357096
 30
0.0
  0
POINT
  5
1EA0
330
1E96
100
AcDbEntity
  8
Defpoints
 62
     0
100
AcDbPoint
 10
82.99999999999991
 20
79.11124411357096
 30
0.0
  0
POINT
  5
1EA1
330
1E96
100
AcDbEntity
  8
Defpoints
 62
     0
100
AcDbPoint
 10
82.99999999999991
 20
1.25
 30
0.0
  0
ENDBLK
  5
1EA2
330
1E96
100
AcDbEntity
  8
0
100
AcDbBlockEnd
  0
BLOCK
  5
1EAA
330
1EA9
100
AcDbEntity
  8
0
100
AcDbBlockBegin
  2
*D28
 70
     1
 10
0.0
 20
0.0
 30
0.0
  3
*D28
  1
*D30
  0
LINE
  5
1EAC
330
1EA9
100
AcDbEntity
  8
0
 62
     0
370
    -2
100
AcDbLine
 10
56.35435096788062
 20
55.80008385015309
 30
0.0
 11
56.35435096788062
 21
37.23065542096119
 31
0.0
  0
LINE
  5
1EAD
330
1EA9
100
AcDbEntity
  8
0
 62
     0
370
    -2
100
AcDbLine
 10
139.3543509678805
 20
55.80008385015309
 30
0.0
 11
139.3543509678805
 21
37.23065542096119
 31
0.0
  0
LINE
  5
1EAE
330
1EA9
100
AcDbEntity
  8
0
 62
     0
370
    -2
100
AcDbLine
 10
58.35435096788062
 20
38.23065542096119
 30
0.0
 11
93.20863342799679
 21
38.23065542096119
 31
0.0
  0
LINE
  5
1EAF
330
1EA9
100
AcDbEntity
  8
0
 62
     0
370
    -2
100
AcDbLine
 10
137.3543509678805
 20
38.23065542096119
 30
0.0
 11
102.9719667613301
 21
38.23065542096119
 31
0.0
  0
SOLID
  5
1EB0
330
1EA9
100
AcDbEntity
  8
0
 62
     0
100
AcDbTrace
 10
58.35435096788062
 20
38.56398875429453
 30
0.0
 11
58.35435096788062
 21
37.89732208762786
 31
0.0
 12
56.35435096788062
 22
38.23065542096119
 32
0.0
 13
56.35435096788062
 23
38.23065542096119
 33
0.0
  0
SOLID
  5
1EB1
330
1EA9
100
AcDbEntity
  8
0
 62
     0
100
AcDbTrace
 10
137.3543509678805
 20
37.89732208762786
 30
0.0
 11
137.3543509678805
 21
38.56398875429453
 31
0.0
 12
139.3543509678805
 22
38.23065542096119
 32
0.0
 13
139.3543509678805
 23
38.23065542096119
 33
0.0
  0
MTEXT
  5
1EB2
330
1EA9
100
AcDbEntity
  8
0
 62
     0
100
AcDbMText
 10
98.09030009466346
 20
38.23065542096119
 30
0.0
 40
2.5
 41
0.0
 46
0.0
 71
     5
 72
     1
  1
\A1;%%c83.0
 73
     1
 44
1.0
  0
POINT
  5
1EB3
330
1EA9
100
AcDbEntity
  8
Defpoints
 62
     0
100
AcDbPoint
 10
56.35435096788062
 20
56.80008385015309
 30
0.0
  0
POINT
  5
1EB4
330
1EA9
100
AcDbEntity
  8
Defpoints
 62
     0
100
AcDbPoint
 10
139.3543509678805
 20
56.80008385015309
 30
0.0
  0
POINT
  5
1EB5
330
1EA9
100
AcDbEntity
  8
Defpoints
 62
     0
100
AcDbPoint
 10
139.3543509678805
 20
38.23065542096119
 30
0.0
  0
ENDBLK
  5
1EAB
330
1EA9
100
AcDbEntity
  8
0
100
AcDbBlockEnd
  0
BLOCK
  5
1F78
330
1F77
100
AcDbEntity
  8
0
 62
     1
100
AcDbBlockBegin
  2
*D29
 70
     1
 10
0.0
 20
0.0
 30
0.0
  3
*D29
  1
*D26
  0
LINE
  5
1F79
330
1F77
100
AcDbEntity
  8
文字
 62
     0
370
    -2
100
AcDbLine
 10
44.7760755863994
 20
112.2773598766844
 30
0.0
 11
89.6242076141761
 21
112.2773598766844
 31
0.0
  0
LINE
  5
1F7A
330
1F77
100
AcDbEntity
  8
文字
 62
     0
370
    -2
100
AcDbLine
 10
52.62607558639939
 20
37.27735987668436
 30
0.0
 11
89.6242076141761
 21
37.27735987668436
 31
0.0
  0
LINE
  5
1F7B
330
1F77
100
AcDbEntity
  8
文字
 62
     0
370
    -2
100
AcDbLine
 10
88.3742076141761
 20
109.7773598766844
 30
0.0
 11
88.3742076141761
 21
39.77735987668436
 31
0.0
  0
SOLID
  5
1F7C
330
1F77
100
AcDbEntity
  8
文字
 62
     0
100
AcDbTrace
 10
88.79087428084277
 20
109.7773598766844
 30
0.0
 11
87.95754094750943
 21
109.7773598766844
 31
0.0
 12
88.3742076141761
 22
112.2773598766844
 32
0.0
 13
88.3742076141761
 23
112.2773598766844
 33
0.0
  0
SOLID
  5
1F7D
330
1F77
100
AcDbEntity
  8
文字
 62
     0
100
AcDbTrace
 10
87.95754094750943
 20
39.77735987668436
 30
0.0
 11
88.79087428084277
 21
39.77735987668436
 31
0.0
 12
88.3742076141761
 22
37.27735987668436
 32
0.0
 13
88.3742076141761
 23
37.27735987668436
 33
0.0
  0
MTEXT
  5
1F7E
330
1F77
100
AcDbEntity
  8
文字
 62
     0
100
AcDbMText
 10
86.4992076141761
 20
74.77735987668436
 30
0.0
 40
2.5
 41
0.0
 46
0.0
 71
     5
 72
     1
  1
75
 11
0.0
 21
1.0
 31
0.0
 73
     1
 44
1.0
  0
POINT
  5
1F7F
330
1F77
100
AcDbEntity
  8
Defpoints
 62
     0
100
AcDbPoint
 10
44.1510755863994
 20
112.2773598766844
 30
0.0
  0
POINT
  5
1F80
330
1F77
100
AcDbEntity
  8
Defpoints
 62
     0
100
AcDbPoint
 10
52.00107558639939
 20
37.27735987668436
 30
0.0
  0
POINT
  5
1F81
330
1F77
100
AcDbEntity
  8
Defpoints
 62
     0
100
AcDbPoint
 10
88.3742076141761
 20
37.27735987668436
 30
0.0
  0
ENDBLK
  5
1F82
330
1F77
100
AcDbEntity
  8
0
 62
     1
100
AcDbBlockEnd
  0
BLOCK
  5
1F87
330
1F86
100
AcDbEntity
  8
0
 62
     1
100
AcDbBlockBegin
  2
*D30
 70
     1
 10
0.0
 20
0.0
 30
0.0
  3
*D30
  1
*D28
  0
LINE
  5
1F88
330
1F86
100
AcDbEntity
  8
文字
 62
     0
370
    -2
100
AcDbLine
 10
30.15107558639937
 20
110.9023598766844
 30
0.0
 11
30.15107558639937
 21
124.7312897861911
 31
0.0
  0
LINE
  5
1F89
330
1F86
100
AcDbEntity
  8
文字
 62
     0
370
    -2
100
AcDbLine
 10
46.1510755863994
 20
110.9023598766844
 30
0.0
 11
46.1510755863994
 21
124.7312897861911
 31
0.0
  0
LINE
  5
1F8A
330
1F86
100
AcDbEntity
  8
文字
 62
     0
370
    -2
100
AcDbLine
 10
32.65107558639937
 20
123.4812897861911
 30
0.0
 11
43.6510755863994
 21
123.4812897861911
 31
0.0
  0
SOLID
  5
1F8B
330
1F86
100
AcDbEntity
  8
文字
 62
     0
100
AcDbTrace
 10
32.65107558639937
 20
123.8979564528577
 30
0.0
 11
32.65107558639937
 21
123.0646231195244
 31
0.0
 12
30.15107558639937
 22
123.4812897861911
 32
0.0
 13
30.15107558639937
 23
123.4812897861911
 33
0.0
  0
SOLID
  5
1F8C
330
1F86
100
AcDbEntity
  8
文字
 62
     0
100
AcDbTrace
 10
43.6510755863994
 20
123.0646231195244
 30
0.0
 11
43.6510755863994
 21
123.8979564528577
 31
0.0
 12
46.1510755863994
 22
123.4812897861911
 32
0.0
 13
46.1510755863994
 23
123.4812897861911
 33
0.0
  0
MTEXT
  5
1F8D
330
1F86
100
AcDbEntity
  8
文字
 62
     0
100
AcDbMText
 10
38.15107558639939
 20
125.3562897861911
 30
0.0
 40
2.5
 41
0.0
 46
0.0
 71
     5
 72
     1
  1
M16
 73
     1
 44
1.0
  0
POINT
  5
1F8E
330
1F86
100
AcDbEntity
  8
Defpoints
 62
     0
100
AcDbPoint
 10
30.15107558639937
 20
110.2773598766844
 30
0.0
  0
POINT
  5
1F8F
330
1F86
100
AcDbEntity
  8
Defpoints
 62
     0
100
AcDbPoint
 10
46.1510755863994
 20
110.2773598766844
 30
0.0
  0
POINT
  5
1F90
330
1F86
100
AcDbEntity
  8
Defpoints
 62
     0
100
AcDbPoint
 10
46.1510755863994
 20
123.4812897861911
 30
0.0
  0
ENDBLK
  5
1F91
330
1F86
100
AcDbEntity
  8
0
 62
     1
100
AcDbBlockEnd
  0
BLOCK
  5
1FAE
330
1FAD
100
AcDbEntity
  8
0
100
AcDbBlockBegin
  2
*D31
 70
     1
 10
0.0
 20
0.0
 30
0.0
  3
*D31
  1
*D34
  0
LINE
  5
1FB0
330
1FAD
100
AcDbEntity
  8
文字
 62
     0
370
    -2
100
AcDbLine
 10
104.27987319842
 20
162.747459157465
 30
0.0
 11
149.1280052261967
 21
162.747459157465
 31
0.0
  0
LINE
  5
1FB1
330
1FAD
100
AcDbEntity
  8
文字
 62
     0
370
    -2
100
AcDbLine
 10
112.12987319842
 20
87.74745915746504
 30
0.0
 11
149.1280052261967
 21
87.74745915746504
 31
0.0
  0
LINE
  5
1FB2
330
1FAD
100
AcDbEntity
  8
文字
 62
     0
370
    -2
100
AcDbLine
 10
147.8780052261967
 20
160.247459157465
 30
0.0
 11
147.8780052261967
 21
90.24745915746504
 31
0.0
  0
SOLID
  5
1FB3
330
1FAD
100
AcDbEntity
  8
文字
 62
     0
100
AcDbTrace
 10
148.2946718928634
 20
160.247459157465
 30
0.0
 11
147.46133855953
 21
160.247459157465
 31
0.0
 12
147.8780052261967
 22
162.747459157465
 32
0.0
 13
147.8780052261967
 23
162.747459157465
 33
0.0
  0
SOLID
  5
1FB4
330
1FAD
100
AcDbEntity
  8
文字
 62
     0
100
AcDbTrace
 10
147.46133855953
 20
90.24745915746504
 30
0.0
 11
148.2946718928634
 21
90.24745915746504
 31
0.0
 12
147.8780052261967
 22
87.74745915746504
 32
0.0
 13
147.8780052261967
 23
87.74745915746504
 33
0.0
  0
MTEXT
  5
1FB5
330
1FAD
100
AcDbEntity
  8
文字
 62
     0
100
AcDbMText
 10
146.0030052261967
 20
125.247459157465
 30
0.0
 40
2.5
 41
0.0
 46
0.0
 71
     5
 72
     1
  1
75
 11
0.0
 21
1.0
 31
0.0
 73
     1
 44
1.0
  0
POINT
  5
1FB6
330
1FAD
100
AcDbEntity
  8
Defpoints
 62
     0
100
AcDbPoint
 10
103.65487319842
 20
162.747459157465
 30
0.0
  0
POINT
  5
1FB7
330
1FAD
100
AcDbEntity
  8
Defpoints
 62
     0
100
AcDbPoint
 10
111.50487319842
 20
87.74745915746504
 30
0.0
  0
POINT
  5
1FB8
330
1FAD
100
AcDbEntity
  8
Defpoints
 62
     0
100
AcDbPoint
 10
147.8780052261967
 20
87.74745915746504
 30
0.0
  0
ENDBLK
  5
1FAF
330
1FAD
100
AcDbEntity
  8
0
100
AcDbBlockEnd
  0
BLOCK
  5
1FBA
330
1FB9
100
AcDbEntity
  8
0
100
AcDbBlockBegin
  2
*D32
 70
     1
 10
0.0
 20
0.0
 30
0.0
  3
*D32
  1
*D35
  0
LINE
  5
1FBC
330
1FB9
100
AcDbEntity
  8
文字
 62
     0
370
    -2
100
AcDbLine
 10
89.65487319841996
 20
161.372459157465
 30
0.0
 11
89.65487319841996
 21
175.2013890669718
 31
0.0
  0
LINE
  5
1FBD
330
1FB9
100
AcDbEntity
  8
文字
 62
     0
370
    -2
100
AcDbLine
 10
105.65487319842
 20
161.372459157465
 30
0.0
 11
105.65487319842
 21
175.2013890669718
 31
0.0
  0
LINE
  5
1FBE
330
1FB9
100
AcDbEntity
  8
文字
 62
     0
370
    -2
100
AcDbLine
 10
92.15487319841996
 20
173.9513890669718
 30
0.0
 11
103.15487319842
 21
173.9513890669718
 31
0.0
  0
SOLID
  5
1FBF
330
1FB9
100
AcDbEntity
  8
文字
 62
     0
100
AcDbTrace
 10
92.15487319841996
 20
174.3680557336384
 30
0.0
 11
92.15487319841996
 21
173.5347224003051
 31
0.0
 12
89.65487319841996
 22
173.9513890669718
 32
0.0
 13
89.65487319841996
 23
173.9513890669718
 33
0.0
  0
SOLID
  5
1FC0
330
1FB9
100
AcDbEntity
  8
文字
 62
     0
100
AcDbTrace
 10
103.15487319842
 20
173.5347224003051
 30
0.0
 11
103.15487319842
 21
174.3680557336384
 31
0.0
 12
105.65487319842
 22
173.9513890669718
 32
0.0
 13
105.65487319842
 23
173.9513890669718
 33
0.0
  0
MTEXT
  5
1FC1
330
1FB9
100
AcDbEntity
  8
文字
 62
     0
100
AcDbMText
 10
97.65487319841998
 20
175.8263890669718
 30
0.0
 40
2.5
 41
0.0
 46
0.0
 71
     5
 72
     1
  1
M16
 73
     1
 44
1.0
  0
POINT
  5
1FC2
330
1FB9
100
AcDbEntity
  8
Defpoints
 62
     0
100
AcDbPoint
 10
89.65487319841996
 20
160.747459157465
 30
0.0
  0
POINT
  5
1FC3
330
1FB9
100
AcDbEntity
  8
Defpoints
 62
     0
100
AcDbPoint
 10
105.65487319842
 20
160.747459157465
 30
0.0
  0
POINT
  5
1FC4
330
1FB9
100
AcDbEntity
  8
Defpoints
 62
     0
100
AcDbPoint
 10
105.65487319842
 20
173.9513890669718
 30
0.0
  0
ENDBLK
  5
1FBB
330
1FB9
100
AcDbEntity
  8
0
100
AcDbBlockEnd
  0
BLOCK
  5
1FF3
330
1FF2
100
AcDbEntity
  8
0
 62
     1
100
AcDbBlockBegin
  2
*D33
 70
     1
 10
0.0
 20
0.0
 30
0.0
  3
*D33
  1
*D18
  0
LINE
  5
1FF4
330
1FF2
100
AcDbEntity
  8
文字
 62
     0
370
    -2
100
AcDbLine
 10
65.54107993277239
 20
141.237449894026
 30
0.0
 11
110.3892119605491
 21
141.237449894026
 31
0.0
  0
LINE
  5
1FF5
330
1FF2
100
AcDbEntity
  8
文字
 62
     0
370
    -2
100
AcDbLine
 10
73.39107993277239
 20
41.23744989402593
 30
0.0
 11
110.3892119605491
 21
41.23744989402593
 31
0.0
  0
LINE
  5
1FF6
330
1FF2
100
AcDbEntity
  8
文字
 62
     0
370
    -2
100
AcDbLine
 10
109.1392119605491
 20
138.737449894026
 30
0.0
 11
109.1392119605491
 21
43.73744989402593
 31
0.0
  0
SOLID
  5
1FF7
330
1FF2
100
AcDbEntity
  8
文字
 62
     0
100
AcDbTrace
 10
109.5558786272157
 20
138.737449894026
 30
0.0
 11
108.7225452938824
 21
138.737449894026
 31
0.0
 12
109.1392119605491
 22
141.237449894026
 32
0.0
 13
109.1392119605491
 23
141.237449894026
 33
0.0
  0
SOLID
  5
1FF8
330
1FF2
100
AcDbEntity
  8
文字
 62
     0
100
AcDbTrace
 10
108.7225452938824
 20
43.73744989402593
 30
0.0
 11
109.5558786272157
 21
43.73744989402593
 31
0.0
 12
109.1392119605491
 22
41.23744989402593
 32
0.0
 13
109.1392119605491
 23
41.23744989402593
 33
0.0
  0
MTEXT
  5
1FF9
330
1FF2
100
AcDbEntity
  8
文字
 62
     0
100
AcDbMText
 10
107.2642119605491
 20
91.23744989402594
 30
0.0
 40
2.5
 41
0.0
 46
0.0
 71
     5
 72
     1
  1
300
 11
0.0
 21
1.0
 31
0.0
 73
     1
 44
1.0
  0
POINT
  5
1FFA
330
1FF2
100
AcDbEntity
  8
Defpoints
 62
     0
100
AcDbPoint
 10
64.91607993277239
 20
141.237449894026
 30
0.0
  0
POINT
  5
1FFB
330
1FF2
100
AcDbEntity
  8
Defpoints
 62
     0
100
AcDbPoint
 10
72.76607993277239
 20
41.23744989402593
 30
0.0
  0
POINT
  5
1FFC
330
1FF2
100
AcDbEntity
  8
Defpoints
 62
     0
100
AcDbPoint
 10
109.1392119605491
 20
41.23744989402593
 30
0.0
  0
ENDBLK
  5
1FFD
330
1FF2
100
AcDbEntity
  8
0
 62
     1
100
AcDbBlockEnd
  0
BLOCK
  5
2002
330
2001
100
AcDbEntity
  8
0
 62
     1
100
AcDbBlockBegin
  2
*D34
 70
     1
 10
0.0
 20
0.0
 30
0.0
  3
*D34
  1
*D20
  0
LINE
  5
2003
330
2001
100
AcDbEntity
  8
文字
 62
     0
370
    -2
100
AcDbLine
 10
50.91607993277238
 20
139.862449894026
 30
0.0
 11
50.91607993277238
 21
149.3746987869078
 31
0.0
  0
LINE
  5
2004
330
2001
100
AcDbEntity
  8
文字
 62
     0
370
    -2
100
AcDbLine
 10
66.91607993277239
 20
139.862449894026
 30
0.0
 11
66.91607993277239
 21
149.3746987869078
 31
0.0
  0
LINE
  5
2005
330
2001
100
AcDbEntity
  8
文字
 62
     0
370
    -2
100
AcDbLine
 10
53.41607993277238
 20
148.1246987869078
 30
0.0
 11
64.41607993277239
 21
148.1246987869078
 31
0.0
  0
SOLID
  5
2006
330
2001
100
AcDbEntity
  8
文字
 62
     0
100
AcDbTrace
 10
53.41607993277238
 20
148.5413654535744
 30
0.0
 11
53.41607993277238
 21
147.7080321202411
 31
0.0
 12
50.91607993277238
 22
148.1246987869078
 32
0.0
 13
50.91607993277238
 23
148.1246987869078
 33
0.0
  0
SOLID
  5
2007
330
2001
100
AcDbEntity
  8
文字
 62
     0
100
AcDbTrace
 10
64.41607993277239
 20
147.7080321202411
 30
0.0
 11
64.41607993277239
 21
148.5413654535744
 31
0.0
 12
66.91607993277239
 22
148.1246987869078
 32
0.0
 13
66.91607993277239
 23
148.1246987869078
 33
0.0
  0
MTEXT
  5
2008
330
2001
100
AcDbEntity
  8
文字
 62
     0
100
AcDbMText
 10
58.91607993277239
 20
149.9996987869078
 30
0.0
 40
2.5
 41
0.0
 46
0.0
 71
     5
 72
     1
  1
M16
 73
     1
 44
1.0
  0
POINT
  5
2009
330
2001
100
AcDbEntity
  8
Defpoints
 62
     0
100
AcDbPoint
 10
50.91607993277238
 20
139.237449894026
 30
0.0
  0
POINT
  5
200A
330
2001
100
AcDbEntity
  8
Defpoints
 62
     0
100
AcDbPoint
 10
66.91607993277239
 20
139.237449894026
 30
0.0
  0
POINT
  5
200B
330
2001
100
AcDbEntity
  8
Defpoints
 62
     0
100
AcDbPoint
 10
66.91607993277239
 20
148.1246987869078
 30
0.0
  0
ENDBLK
  5
200C
330
2001
100
AcDbEntity
  8
0
 62
     1
100
AcDbBlockEnd
  0
BLOCK
  5
2034
330
2033
100
AcDbEntity
  8
0
100
AcDbBlockBegin
  2
*D35
 70
     1
 10
0.0
 20
0.0
 30
0.0
  3
*D35
  1
*D39
  0
LINE
  5
2036
330
2033
100
AcDbEntity
  8
文字
 62
     0
370
    -2
100
AcDbLine
 10
104.358162704763
 20
187.8093314359133
 30
0.0
 11
149.2062947325396
 21
187.8093314359133
 31
0.0
  0
LINE
  5
2037
330
2033
100
AcDbEntity
  8
文字
 62
     0
370
    -2
100
AcDbLine
 10
112.208162704763
 20
87.80933143591326
 30
0.0
 11
149.2062947325396
 21
87.80933143591326
 31
0.0
  0
LINE
  5
2038
330
2033
100
AcDbEntity
  8
文字
 62
     0
370
    -2
100
AcDbLine
 10
147.9562947325396
 20
185.3093314359133
 30
0.0
 11
147.9562947325396
 21
90.30933143591326
 31
0.0
  0
SOLID
  5
2039
330
2033
100
AcDbEntity
  8
文字
 62
     0
100
AcDbTrace
 10
148.3729613992063
 20
185.3093314359133
 30
0.0
 11
147.539628065873
 21
185.3093314359133
 31
0.0
 12
147.9562947325396
 22
187.8093314359133
 32
0.0
 13
147.9562947325396
 23
187.8093314359133
 33
0.0
  0
SOLID
  5
203A
330
2033
100
AcDbEntity
  8
文字
 62
     0
100
AcDbTrace
 10
147.539628065873
 20
90.30933143591326
 30
0.0
 11
148.3729613992063
 21
90.30933143591326
 31
0.0
 12
147.9562947325396
 22
87.80933143591326
 32
0.0
 13
147.9562947325396
 23
87.80933143591326
 33
0.0
  0
MTEXT
  5
203B
330
2033
100
AcDbEntity
  8
文字
 62
     0
100
AcDbMText
 10
146.0812947325396
 20
137.8093314359133
 30
0.0
 40
2.5
 41
0.0
 46
0.0
 71
     5
 72
     1
  1
300
 11
0.0
 21
1.0
 31
0.0
 73
     1
 44
1.0
  0
POINT
  5
203C
330
2033
100
AcDbEntity
  8
Defpoints
 62
     0
100
AcDbPoint
 10
103.733162704763
 20
187.8093314359133
 30
0.0
  0
POINT
  5
203D
330
2033
100
AcDbEntity
  8
Defpoints
 62
     0
100
AcDbPoint
 10
111.583162704763
 20
87.80933143591326
 30
0.0
  0
POINT
  5
203E
330
2033
100
AcDbEntity
  8
Defpoints
 62
     0
100
AcDbPoint
 10
147.9562947325396
 20
87.80933143591326
 30
0.0
  0
ENDBLK
  5
2035
330
2033
100
AcDbEntity
  8
0
100
AcDbBlockEnd
  0
BLOCK
  5
2040
330
203F
100
AcDbEntity
  8
0
100
AcDbBlockBegin
  2
*D36
 70
     1
 10
0.0
 20
0.0
 30
0.0
  3
*D36
  1
*D40
  0
LINE
  5
2042
330
203F
100
AcDbEntity
  8
文字
 62
     0
370
    -2
100
AcDbLine
 10
89.73316270476298
 20
186.4343314359133
 30
0.0
 11
89.73316270476298
 21
195.9465803287951
 31
0.0
  0
LINE
  5
2043
330
203F
100
AcDbEntity
  8
文字
 62
     0
370
    -2
100
AcDbLine
 10
105.733162704763
 20
186.4343314359133
 30
0.0
 11
105.733162704763
 21
195.9465803287951
 31
0.0
  0
LINE
  5
2044
330
203F
100
AcDbEntity
  8
文字
 62
     0
370
    -2
100
AcDbLine
 10
92.23316270476298
 20
194.6965803287951
 30
0.0
 11
103.233162704763
 21
194.6965803287951
 31
0.0
  0
SOLID
  5
2045
330
203F
100
AcDbEntity
  8
文字
 62
     0
100
AcDbTrace
 10
92.23316270476298
 20
195.1132469954618
 30
0.0
 11
92.23316270476298
 21
194.2799136621285
 31
0.0
 12
89.73316270476298
 22
194.6965803287951
 32
0.0
 13
89.73316270476298
 23
194.6965803287951
 33
0.0
  0
SOLID
  5
2046
330
203F
100
AcDbEntity
  8
文字
 62
     0
100
AcDbTrace
 10
103.233162704763
 20
194.2799136621285
 30
0.0
 11
103.233162704763
 21
195.1132469954618
 31
0.0
 12
105.733162704763
 22
194.6965803287951
 32
0.0
 13
105.733162704763
 23
194.6965803287951
 33
0.0
  0
MTEXT
  5
2047
330
203F
100
AcDbEntity
  8
文字
 62
     0
100
AcDbMText
 10
97.73316270476298
 20
196.5715803287951
 30
0.0
 40
2.5
 41
0.0
 46
0.0
 71
     5
 72
     1
  1
M16
 73
     1
 44
1.0
  0
POINT
  5
2048
330
203F
100
AcDbEntity
  8
Defpoints
 62
     0
100
AcDbPoint
 10
89.73316270476298
 20
185.8093314359133
 30
0.0
  0
POINT
  5
2049
330
203F
100
AcDbEntity
  8
Defpoints
 62
     0
100
AcDbPoint
 10
105.733162704763
 20
185.8093314359133
 30
0.0
  0
POINT
  5
204A
330
203F
100
AcDbEntity
  8
Defpoints
 62
     0
100
AcDbPoint
 10
105.733162704763
 20
194.6965803287951
 30
0.0
  0
ENDBLK
  5
2041
330
203F
100
AcDbEntity
  8
0
100
AcDbBlockEnd
  0
BLOCK
  5
2079
330
2078
100
AcDbEntity
  8
0
 62
     1
100
AcDbBlockBegin
  2
*D37
 70
     1
 10
0.0
 20
0.0
 30
0.0
  3
*D37
  1
*D18
  0
LINE
  5
207A
330
2078
100
AcDbEntity
  8
文字
 62
     0
370
    -2
100
AcDbLine
 10
45.54841667798645
 20
141.237449894026
 30
0.0
 11
90.39654870576311
 21
141.237449894026
 31
0.0
  0
LINE
  5
207B
330
2078
100
AcDbEntity
  8
文字
 62
     0
370
    -2
100
AcDbLine
 10
53.39841667798644
 20
41.23744989402593
 30
0.0
 11
90.39654870576311
 21
41.23744989402593
 31
0.0
  0
LINE
  5
207C
330
2078
100
AcDbEntity
  8
文字
 62
     0
370
    -2
100
AcDbLine
 10
89.14654870576311
 20
138.737449894026
 30
0.0
 11
89.14654870576311
 21
43.73744989402593
 31
0.0
  0
SOLID
  5
207D
330
2078
100
AcDbEntity
  8
文字
 62
     0
100
AcDbTrace
 10
89.56321537242978
 20
138.737449894026
 30
0.0
 11
88.72988203909644
 21
138.737449894026
 31
0.0
 12
89.14654870576311
 22
141.237449894026
 32
0.0
 13
89.14654870576311
 23
141.237449894026
 33
0.0
  0
SOLID
  5
207E
330
2078
100
AcDbEntity
  8
文字
 62
     0
100
AcDbTrace
 10
88.72988203909644
 20
43.73744989402593
 30
0.0
 11
89.56321537242978
 21
43.73744989402593
 31
0.0
 12
89.14654870576311
 22
41.23744989402593
 32
0.0
 13
89.14654870576311
 23
41.23744989402593
 33
0.0
  0
MTEXT
  5
207F
330
2078
100
AcDbEntity
  8
文字
 62
     0
100
AcDbMText
 10
87.27154870576311
 20
91.23744989402594
 30
0.0
 40
2.5
 41
0.0
 46
0.0
 71
     5
 72
     1
  1
250
 11
0.0
 21
1.0
 31
0.0
 73
     1
 44
1.0
  0
POINT
  5
2080
330
2078
100
AcDbEntity
  8
Defpoints
 62
     0
100
AcDbPoint
 10
44.92341667798645
 20
141.237449894026
 30
0.0
  0
POINT
  5
2081
330
2078
100
AcDbEntity
  8
Defpoints
 62
     0
100
AcDbPoint
 10
52.77341667798644
 20
41.23744989402593
 30
0.0
  0
POINT
  5
2082
330
2078
100
AcDbEntity
  8
Defpoints
 62
     0
100
AcDbPoint
 10
89.14654870576311
 20
41.23744989402593
 30
0.0
  0
ENDBLK
  5
2083
330
2078
100
AcDbEntity
  8
0
 62
     1
100
AcDbBlockEnd
  0
BLOCK
  5
2088
330
2087
100
AcDbEntity
  8
0
 62
     1
100
AcDbBlockBegin
  2
*D38
 70
     1
 10
0.0
 20
0.0
 30
0.0
  3
*D38
  1
*D20
  0
LINE
  5
2089
330
2087
100
AcDbEntity
  8
文字
 62
     0
370
    -2
100
AcDbLine
 10
30.92341667798645
 20
139.862449894026
 30
0.0
 11
30.92341667798645
 21
149.3746987869078
 31
0.0
  0
LINE
  5
208A
330
2087
100
AcDbEntity
  8
文字
 62
     0
370
    -2
100
AcDbLine
 10
46.92341667798645
 20
139.862449894026
 30
0.0
 11
46.92341667798645
 21
149.3746987869078
 31
0.0
  0
LINE
  5
208B
330
2087
100
AcDbEntity
  8
文字
 62
     0
370
    -2
100
AcDbLine
 10
33.42341667798645
 20
148.1246987869078
 30
0.0
 11
44.42341667798645
 21
148.1246987869078
 31
0.0
  0
SOLID
  5
208C
330
2087
100
AcDbEntity
  8
文字
 62
     0
100
AcDbTrace
 10
33.42341667798645
 20
148.5413654535744
 30
0.0
 11
33.42341667798645
 21
147.7080321202411
 31
0.0
 12
30.92341667798645
 22
148.1246987869078
 32
0.0
 13
30.92341667798645
 23
148.1246987869078
 33
0.0
  0
SOLID
  5
208D
330
2087
100
AcDbEntity
  8
文字
 62
     0
100
AcDbTrace
 10
44.42341667798645
 20
147.7080321202411
 30
0.0
 11
44.42341667798645
 21
148.5413654535744
 31
0.0
 12
46.92341667798645
 22
148.1246987869078
 32
0.0
 13
46.92341667798645
 23
148.1246987869078
 33
0.0
  0
MTEXT
  5
208E
330
2087
100
AcDbEntity
  8
文字
 62
     0
100
AcDbMText
 10
38.92341667798645
 20
149.9996987869078
 30
0.0
 40
2.5
 41
0.0
 46
0.0
 71
     5
 72
     1
  1
M16
 73
     1
 44
1.0
  0
POINT
  5
208F
330
2087
100
AcDbEntity
  8
Defpoints
 62
     0
100
AcDbPoint
 10
30.92341667798645
 20
139.237449894026
 30
0.0
  0
POINT
  5
2090
330
2087
100
AcDbEntity
  8
Defpoints
 62
     0
100
AcDbPoint
 10
46.92341667798645
 20
139.237449894026
 30
0.0
  0
POINT
  5
2091
330
2087
100
AcDbEntity
  8
Defpoints
 62
     0
100
AcDbPoint
 10
46.92341667798645
 20
148.1246987869078
 30
0.0
  0
ENDBLK
  5
2092
330
2087
100
AcDbEntity
  8
0
 62
     1
100
AcDbBlockEnd
  0
BLOCK
  5
20BA
330
20B9
100
AcDbEntity
  8
0
100
AcDbBlockBegin
  2
*D39
 70
     1
 10
0.0
 20
0.0
 30
0.0
  3
*D39
  1
*D44
  0
LINE
  5
20BC
330
20B9
100
AcDbEntity
  8
文字
 62
     0
370
    -2
100
AcDbLine
 10
104.2483204250793
 20
187.7741088640223
 30
0.0
 11
149.096452452856
 21
187.7741088640223
 31
0.0
  0
LINE
  5
20BD
330
20B9
100
AcDbEntity
  8
文字
 62
     0
370
    -2
100
AcDbLine
 10
112.0983204250793
 20
87.77410886402228
 30
0.0
 11
149.096452452856
 21
87.77410886402228
 31
0.0
  0
LINE
  5
20BE
330
20B9
100
AcDbEntity
  8
文字
 62
     0
370
    -2
100
AcDbLine
 10
147.846452452856
 20
185.2741088640223
 30
0.0
 11
147.846452452856
 21
90.27410886402228
 31
0.0
  0
SOLID
  5
20BF
330
20B9
100
AcDbEntity
  8
文字
 62
     0
100
AcDbTrace
 10
148.2631191195227
 20
185.2741088640223
 30
0.0
 11
147.4297857861893
 21
185.2741088640223
 31
0.0
 12
147.846452452856
 22
187.7741088640223
 32
0.0
 13
147.846452452856
 23
187.7741088640223
 33
0.0
  0
SOLID
  5
20C0
330
20B9
100
AcDbEntity
  8
文字
 62
     0
100
AcDbTrace
 10
147.4297857861893
 20
90.27410886402228
 30
0.0
 11
148.2631191195227
 21
90.27410886402228
 31
0.0
 12
147.846452452856
 22
87.77410886402228
 32
0.0
 13
147.846452452856
 23
87.77410886402228
 33
0.0
  0
MTEXT
  5
20C1
330
20B9
100
AcDbEntity
  8
文字
 62
     0
100
AcDbMText
 10
145.971452452856
 20
137.7741088640223
 30
0.0
 40
2.5
 41
0.0
 46
0.0
 71
     5
 72
     1
  1
250
 11
0.0
 21
1.0
 31
0.0
 73
     1
 44
1.0
  0
POINT
  5
20C2
330
20B9
100
AcDbEntity
  8
Defpoints
 62
     0
100
AcDbPoint
 10
103.6233204250793
 20
187.7741088640223
 30
0.0
  0
POINT
  5
20C3
330
20B9
100
AcDbEntity
  8
Defpoints
 62
     0
100
AcDbPoint
 10
111.4733204250793
 20
87.77410886402228
 30
0.0
  0
POINT
  5
20C4
330
20B9
100
AcDbEntity
  8
Defpoints
 62
     0
100
AcDbPoint
 10
147.846452452856
 20
87.77410886402228
 30
0.0
  0
ENDBLK
  5
20BB
330
20B9
100
AcDbEntity
  8
0
100
AcDbBlockEnd
  0
BLOCK
  5
20C6
330
20C5
100
AcDbEntity
  8
0
100
AcDbBlockBegin
  2
*D40
 70
     1
 10
0.0
 20
0.0
 30
0.0
  3
*D40
  1
*D45
  0
LINE
  5
20C8
330
20C5
100
AcDbEntity
  8
文字
 62
     0
370
    -2
100
AcDbLine
 10
89.62332042507933
 20
186.3991088640223
 30
0.0
 11
89.62332042507933
 21
195.9113577569041
 31
0.0
  0
LINE
  5
20C9
330
20C5
100
AcDbEntity
  8
文字
 62
     0
370
    -2
100
AcDbLine
 10
105.6233204250793
 20
186.3991088640223
 30
0.0
 11
105.6233204250793
 21
195.9113577569041
 31
0.0
  0
LINE
  5
20CA
330
20C5
100
AcDbEntity
  8
文字
 62
     0
370
    -2
100
AcDbLine
 10
92.12332042507933
 20
194.6613577569041
 30
0.0
 11
103.1233204250793
 21
194.6613577569041
 31
0.0
  0
SOLID
  5
20CB
330
20C5
100
AcDbEntity
  8
文字
 62
     0
100
AcDbTrace
 10
92.12332042507933
 20
195.0780244235708
 30
0.0
 11
92.12332042507933
 21
194.2446910902375
 31
0.0
 12
89.62332042507933
 22
194.6613577569041
 32
0.0
 13
89.62332042507933
 23
194.6613577569041
 33
0.0
  0
SOLID
  5
20CC
330
20C5
100
AcDbEntity
  8
文字
 62
     0
100
AcDbTrace
 10
103.1233204250793
 20
194.2446910902375
 30
0.0
 11
103.1233204250793
 21
195.0780244235708
 31
0.0
 12
105.6233204250793
 22
194.6613577569041
 32
0.0
 13
105.6233204250793
 23
194.6613577569041
 33
0.0
  0
MTEXT
  5
20CD
330
20C5
100
AcDbEntity
  8
文字
 62
     0
100
AcDbMText
 10
97.62332042507933
 20
196.5363577569041
 30
0.0
 40
2.5
 41
0.0
 46
0.0
 71
     5
 72
     1
  1
M16
 73
     1
 44
1.0
  0
POINT
  5
20CE
330
20C5
100
AcDbEntity
  8
Defpoints
 62
     0
100
AcDbPoint
 10
89.62332042507933
 20
185.7741088640223
 30
0.0
  0
POINT
  5
20CF
330
20C5
100
AcDbEntity
  8
Defpoints
 62
     0
100
AcDbPoint
 10
105.6233204250793
 20
185.7741088640223
 30
0.0
  0
POINT
  5
20D0
330
20C5
100
AcDbEntity
  8
Defpoints
 62
     0
100
AcDbPoint
 10
105.6233204250793
 20
194.6613577569041
 30
0.0
  0
ENDBLK
  5
20C7
330
20C5
100
AcDbEntity
  8
0
100
AcDbBlockEnd
  0
BLOCK
  5
20FE
330
20FD
100
AcDbEntity
  8
0
 62
     1
100
AcDbBlockBegin
  2
*D41
 70
     1
 10
0.0
 20
0.0
 30
0.0
  3
*D41
  1
*D18
  0
LINE
  5
20FF
330
20FD
100
AcDbEntity
  8
文字
 62
     0
370
    -2
100
AcDbLine
 10
19.79248059150601
 20
141.237449894026
 30
0.0
 11
64.64061261928268
 21
141.237449894026
 31
0.0
  0
LINE
  5
2100
330
20FD
100
AcDbEntity
  8
文字
 62
     0
370
    -2
100
AcDbLine
 10
27.642480591506
 20
41.23744989402593
 30
0.0
 11
64.64061261928268
 21
41.23744989402593
 31
0.0
  0
LINE
  5
2101
330
20FD
100
AcDbEntity
  8
文字
 62
     0
370
    -2
100
AcDbLine
 10
63.39061261928268
 20
138.737449894026
 30
0.0
 11
63.39061261928268
 21
43.73744989402593
 31
0.0
  0
SOLID
  5
2102
330
20FD
100
AcDbEntity
  8
文字
 62
     0
100
AcDbTrace
 10
63.80727928594935
 20
138.737449894026
 30
0.0
 11
62.97394595261602
 21
138.737449894026
 31
0.0
 12
63.39061261928268
 22
141.237449894026
 32
0.0
 13
63.39061261928268
 23
141.237449894026
 33
0.0
  0
SOLID
  5
2103
330
20FD
100
AcDbEntity
  8
文字
 62
     0
100
AcDbTrace
 10
62.97394595261601
 20
43.73744989402593
 30
0.0
 11
63.80727928594934
 21
43.73744989402593
 31
0.0
 12
63.39061261928268
 22
41.23744989402593
 32
0.0
 13
63.39061261928268
 23
41.23744989402593
 33
0.0
  0
MTEXT
  5
2104
330
20FD
100
AcDbEntity
  8
文字
 62
     0
100
AcDbMText
 10
61.51561261928268
 20
91.23744989402594
 30
0.0
 40
2.5
 41
0.0
 46
0.0
 71
     5
 72
     1
  1
200
 11
7.105427357601000E-17
 21
1.0
 31
0.0
 73
     1
 44
1.0
  0
POINT
  5
2105
330
20FD
100
AcDbEntity
  8
Defpoints
 62
     0
100
AcDbPoint
 10
19.16748059150601
 20
141.237449894026
 30
0.0
  0
POINT
  5
2106
330
20FD
100
AcDbEntity
  8
Defpoints
 62
     0
100
AcDbPoint
 10
27.017480591506
 20
41.23744989402593
 30
0.0
  0
POINT
  5
2107
330
20FD
100
AcDbEntity
  8
Defpoints
 62
     0
100
AcDbPoint
 10
63.39061261928268
 20
41.23744989402593
 30
0.0
  0
ENDBLK
  5
2108
330
20FD
100
AcDbEntity
  8
0
 62
     1
100
AcDbBlockEnd
  0
BLOCK
  5
210D
330
210C
100
AcDbEntity
  8
0
 62
     1
100
AcDbBlockBegin
  2
*D42
 70
     1
 10
0.0
 20
0.0
 30
0.0
  3
*D42
  1
*D20
  0
LINE
  5
210E
330
210C
100
AcDbEntity
  8
文字
 62
     0
370
    -2
100
AcDbLine
 10
5.167480591506006
 20
139.862449894026
 30
0.0
 11
5.167480591506006
 21
149.3746987869078
 31
0.0
  0
LINE
  5
210F
330
210C
100
AcDbEntity
  8
文字
 62
     0
370
    -2
100
AcDbLine
 10
21.16748059150601
 20
139.862449894026
 30
0.0
 11
21.16748059150601
 21
149.3746987869078
 31
0.0
  0
LINE
  5
2110
330
210C
100
AcDbEntity
  8
文字
 62
     0
370
    -2
100
AcDbLine
 10
7.667480591506006
 20
148.1246987869078
 30
0.0
 11
18.66748059150601
 21
148.1246987869078
 31
0.0
  0
SOLID
  5
2111
330
210C
100
AcDbEntity
  8
文字
 62
     0
100
AcDbTrace
 10
7.667480591506006
 20
148.5413654535744
 30
0.0
 11
7.667480591506006
 21
147.7080321202411
 31
0.0
 12
5.167480591506006
 22
148.1246987869078
 32
0.0
 13
5.167480591506006
 23
148.1246987869078
 33
0.0
  0
SOLID
  5
2112
330
210C
100
AcDbEntity
  8
文字
 62
     0
100
AcDbTrace
 10
18.66748059150601
 20
147.7080321202411
 30
0.0
 11
18.66748059150601
 21
148.5413654535744
 31
0.0
 12
21.16748059150601
 22
148.1246987869078
 32
0.0
 13
21.16748059150601
 23
148.1246987869078
 33
0.0
  0
MTEXT
  5
2113
330
210C
100
AcDbEntity
  8
文字
 62
     0
100
AcDbMText
 10
13.16748059150601
 20
149.9996987869078
 30
0.0
 40
2.5
 41
0.0
 46
0.0
 71
     5
 72
     1
  1
M16
 73
     1
 44
1.0
  0
POINT
  5
2114
330
210C
100
AcDbEntity
  8
Defpoints
 62
     0
100
AcDbPoint
 10
5.167480591506006
 20
139.237449894026
 30
0.0
  0
POINT
  5
2115
330
210C
100
AcDbEntity
  8
Defpoints
 62
     0
100
AcDbPoint
 10
21.16748059150601
 20
139.237449894026
 30
0.0
  0
POINT
  5
2116
330
210C
100
AcDbEntity
  8
Defpoints
 62
     0
100
AcDbPoint
 10
21.16748059150601
 20
148.1246987869078
 30
0.0
  0
ENDBLK
  5
2117
330
210C
100
AcDbEntity
  8
0
 62
     1
100
AcDbBlockEnd
  0
BLOCK
  5
211F
330
211E
100
AcDbEntity
  8
0
100
AcDbBlockBegin
  2
*D43
 70
     1
 10
0.0
 20
0.0
 30
0.0
  3
*D43
  1
*D21
  0
LINE
  5
2120
330
211E
100
AcDbEntity
  8
文字
 62
     0
370
    -2
100
AcDbLine
 10
19.79248059150601
 20
141.237449894026
 30
0.0
 11
70.55755866190741
 21
141.237449894026
 31
0.0
  0
LINE
  5
2121
330
211E
100
AcDbEntity
  8
文字
 62
     0
370
    -2
100
AcDbLine
 10
52.79248059150598
 20
9.2374487373189
 30
0.0
 11
70.5575586619074
 21
9.237448737318898
 31
0.0
  0
LINE
  5
2122
330
211E
100
AcDbEntity
  8
文字
 62
     0
370
    -2
100
AcDbLine
 10
69.30755866190741
 20
138.737449894026
 30
0.0
 11
69.3075586619074
 21
11.7374487373189
 31
0.0
  0
SOLID
  5
2123
330
211E
100
AcDbEntity
  8
文字
 62
     0
100
AcDbTrace
 10
69.72422532857408
 20
138.737449894026
 30
0.0
 11
68.89089199524074
 21
138.737449894026
 31
0.0
 12
69.30755866190741
 22
141.237449894026
 32
0.0
 13
69.30755866190741
 23
141.237449894026
 33
0.0
  0
SOLID
  5
2124
330
211E
100
AcDbEntity
  8
文字
 62
     0
100
AcDbTrace
 10
68.89089199524072
 20
11.7374487373189
 30
0.0
 11
69.72422532857406
 21
11.7374487373189
 31
0.0
 12
69.3075586619074
 22
9.237448737318898
 32
0.0
 13
69.3075586619074
 23
9.237448737318898
 33
0.0
  0
MTEXT
  5
2125
330
211E
100
AcDbEntity
  8
文字
 62
     0
100
AcDbMText
 10
67.4325586619074
 20
75.23744931567242
 30
0.0
 40
2.5
 41
0.0
 46
0.0
 71
     5
 72
     1
  1
232
 11
1.076579893232822E-16
 21
1.0
 31
0.0
 73
     1
 44
1.0
  0
POINT
  5
2126
330
211E
100
AcDbEntity
  8
Defpoints
 62
     0
100
AcDbPoint
 10
19.16748059150601
 20
141.237449894026
 30
0.0
  0
POINT
  5
2127
330
211E
100
AcDbEntity
  8
Defpoints
 62
     0
100
AcDbPoint
 10
52.16748059150598
 20
9.2374487373189
 30
0.0
  0
POINT
  5
2128
330
211E
100
AcDbEntity
  8
Defpoints
 62
     0
100
AcDbPoint
 10
69.3075586619074
 20
9.237448737318898
 30
0.0
  0
ENDBLK
  5
2129
330
211E
100
AcDbEntity
  8
0
100
AcDbBlockEnd
  0
BLOCK
  5
214D
330
214C
100
AcDbEntity
  8
0
100
AcDbBlockBegin
  2
*D44
 70
     1
 10
0.0
 20
0.0
 30
0.0
  3
*D44
  1
*D50
  0
LINE
  5
214F
330
214C
100
AcDbEntity
  8
文字
 62
     0
370
    -2
100
AcDbLine
 10
104.4159466458839
 20
187.7427935784364
 30
0.0
 11
149.2640786736605
 21
187.7427935784364
 31
0.0
  0
LINE
  5
2150
330
214C
100
AcDbEntity
  8
文字
 62
     0
370
    -2
100
AcDbLine
 10
112.2659466458839
 20
87.74279357843636
 30
0.0
 11
149.2640786736605
 21
87.74279357843636
 31
0.0
  0
LINE
  5
2151
330
214C
100
AcDbEntity
  8
文字
 62
     0
370
    -2
100
AcDbLine
 10
148.0140786736605
 20
185.2427935784364
 30
0.0
 11
148.0140786736605
 21
90.24279357843636
 31
0.0
  0
SOLID
  5
2152
330
214C
100
AcDbEntity
  8
文字
 62
     0
100
AcDbTrace
 10
148.4307453403272
 20
185.2427935784364
 30
0.0
 11
147.5974120069939
 21
185.2427935784364
 31
0.0
 12
148.0140786736605
 22
187.7427935784364
 32
0.0
 13
148.0140786736605
 23
187.7427935784364
 33
0.0
  0
SOLID
  5
2153
330
214C
100
AcDbEntity
  8
文字
 62
     0
100
AcDbTrace
 10
147.5974120069939
 20
90.24279357843636
 30
0.0
 11
148.4307453403272
 21
90.24279357843636
 31
0.0
 12
148.0140786736605
 22
87.74279357843636
 32
0.0
 13
148.0140786736605
 23
87.74279357843636
 33
0.0
  0
MTEXT
  5
2154
330
214C
100
AcDbEntity
  8
文字
 62
     0
100
AcDbMText
 10
146.1390786736605
 20
137.7427935784364
 30
0.0
 40
2.5
 41
0.0
 46
0.0
 71
     5
 72
     1
  1
200
 11
0.0
 21
1.0
 31
0.0
 73
     1
 44
1.0
  0
POINT
  5
2155
330
214C
100
AcDbEntity
  8
Defpoints
 62
     0
100
AcDbPoint
 10
103.7909466458839
 20
187.7427935784364
 30
0.0
  0
POINT
  5
2156
330
214C
100
AcDbEntity
  8
Defpoints
 62
     0
100
AcDbPoint
 10
111.6409466458839
 20
87.74279357843636
 30
0.0
  0
POINT
  5
2157
330
214C
100
AcDbEntity
  8
Defpoints
 62
     0
100
AcDbPoint
 10
148.0140786736605
 20
87.74279357843636
 30
0.0
  0
ENDBLK
  5
214E
330
214C
100
AcDbEntity
  8
0
100
AcDbBlockEnd
  0
BLOCK
  5
2159
330
2158
100
AcDbEntity
  8
0
100
AcDbBlockBegin
  2
*D45
 70
     1
 10
0.0
 20
0.0
 30
0.0
  3
*D45
  1
*D51
  0
LINE
  5
215B
330
2158
100
AcDbEntity
  8
文字
 62
     0
370
    -2
100
AcDbLine
 10
89.79094664588388
 20
186.3677935784364
 30
0.0
 11
89.79094664588388
 21
195.8800424713182
 31
0.0
  0
LINE
  5
215C
330
2158
100
AcDbEntity
  8
文字
 62
     0
370
    -2
100
AcDbLine
 10
105.7909466458839
 20
186.3677935784364
 30
0.0
 11
105.7909466458839
 21
195.8800424713182
 31
0.0
  0
LINE
  5
215D
330
2158
100
AcDbEntity
  8
文字
 62
     0
370
    -2
100
AcDbLine
 10
92.29094664588388
 20
194.6300424713182
 30
0.0
 11
103.2909466458839
 21
194.6300424713182
 31
0.0
  0
SOLID
  5
215E
330
2158
100
AcDbEntity
  8
文字
 62
     0
100
AcDbTrace
 10
92.29094664588388
 20
195.0467091379849
 30
0.0
 11
92.29094664588388
 21
194.2133758046515
 31
0.0
 12
89.79094664588388
 22
194.6300424713182
 32
0.0
 13
89.79094664588388
 23
194.6300424713182
 33
0.0
  0
SOLID
  5
215F
330
2158
100
AcDbEntity
  8
文字
 62
     0
100
AcDbTrace
 10
103.2909466458839
 20
194.2133758046515
 30
0.0
 11
103.2909466458839
 21
195.0467091379849
 31
0.0
 12
105.7909466458839
 22
194.6300424713182
 32
0.0
 13
105.7909466458839
 23
194.6300424713182
 33
0.0
  0
MTEXT
  5
2160
330
2158
100
AcDbEntity
  8
文字
 62
     0
100
AcDbMText
 10
97.79094664588388
 20
196.5050424713182
 30
0.0
 40
2.5
 41
0.0
 46
0.0
 71
     5
 72
     1
  1
M16
 73
     1
 44
1.0
  0
POINT
  5
2161
330
2158
100
AcDbEntity
  8
Defpoints
 62
     0
100
AcDbPoint
 10
89.79094664588388
 20
185.7427935784364
 30
0.0
  0
POINT
  5
2162
330
2158
100
AcDbEntity
  8
Defpoints
 62
     0
100
AcDbPoint
 10
105.7909466458839
 20
185.7427935784364
 30
0.0
  0
POINT
  5
2163
330
2158
100
AcDbEntity
  8
Defpoints
 62
     0
100
AcDbPoint
 10
105.7909466458839
 20
194.6300424713182
 30
0.0
  0
ENDBLK
  5
215A
330
2158
100
AcDbEntity
  8
0
100
AcDbBlockEnd
  0
BLOCK
  5
2165
330
2164
100
AcDbEntity
  8
0
100
AcDbBlockBegin
  2
*D46
 70
     1
 10
0.0
 20
0.0
 30
0.0
  3
*D46
  1
*D52
  0
LINE
  5
2167
330
2164
100
AcDbEntity
  8
文字
 62
     0
370
    -2
100
AcDbLine
 10
104.4159466458839
 20
187.7427935784364
 30
0.0
 11
155.1810247162853
 21
187.7427935784364
 31
0.0
  0
LINE
  5
2168
330
2164
100
AcDbEntity
  8
文字
 62
     0
370
    -2
100
AcDbLine
 10
137.4159466458838
 20
55.74279242172933
 30
0.0
 11
155.1810247162853
 21
55.74279242172933
 31
0.0
  0
LINE
  5
2169
330
2164
100
AcDbEntity
  8
文字
 62
     0
370
    -2
100
AcDbLine
 10
153.9310247162853
 20
185.2427935784364
 30
0.0
 11
153.9310247162853
 21
58.24279242172933
 31
0.0
  0
SOLID
  5
216A
330
2164
100
AcDbEntity
  8
文字
 62
     0
100
AcDbTrace
 10
154.3476913829519
 20
185.2427935784364
 30
0.0
 11
153.5143580496186
 21
185.2427935784364
 31
0.0
 12
153.9310247162853
 22
187.7427935784364
 32
0.0
 13
153.9310247162853
 23
187.7427935784364
 33
0.0
  0
SOLID
  5
216B
330
2164
100
AcDbEntity
  8
文字
 62
     0
100
AcDbTrace
 10
153.5143580496186
 20
58.24279242172933
 30
0.0
 11
154.3476913829519
 21
58.24279242172933
 31
0.0
 12
153.9310247162853
 22
55.74279242172933
 32
0.0
 13
153.9310247162853
 23
55.74279242172933
 33
0.0
  0
MTEXT
  5
216C
330
2164
100
AcDbEntity
  8
文字
 62
     0
100
AcDbMText
 10
152.0560247162853
 20
121.7427930000829
 30
0.0
 40
2.5
 41
0.0
 46
0.0
 71
     5
 72
     1
  1
232
 11
0.0
 21
1.0
 31
0.0
 73
     1
 44
1.0
  0
POINT
  5
216D
330
2164
100
AcDbEntity
  8
Defpoints
 62
     0
100
AcDbPoint
 10
103.7909466458839
 20
187.7427935784364
 30
0.0
  0
POINT
  5
216E
330
2164
100
AcDbEntity
  8
Defpoints
 62
     0
100
AcDbPoint
 10
136.7909466458838
 20
55.74279242172933
 30
0.0
  0
POINT
  5
216F
330
2164
100
AcDbEntity
  8
Defpoints
 62
     0
100
AcDbPoint
 10
153.9310247162853
 20
55.74279242172933
 30
0.0
  0
ENDBLK
  5
2166
330
2164
100
AcDbEntity
  8
0
100
AcDbBlockEnd
  0
BLOCK
  5
219D
330
219C
100
AcDbEntity
  8
0
 62
     1
100
AcDbBlockBegin
  2
*D47
 70
     1
 10
0.0
 20
0.0
 30
0.0
  3
*D47
  1
*D18
  0
LINE
  5
219E
330
219C
100
AcDbEntity
  8
文字
 62
     0
370
    -2
100
AcDbLine
 10
19.79248059150601
 20
141.237449894026
 30
0.0
 11
64.64061261928268
 21
141.237449894026
 31
0.0
  0
LINE
  5
219F
330
219C
100
AcDbEntity
  8
文字
 62
     0
370
    -2
100
AcDbLine
 10
27.642480591506
 20
41.23744989402593
 30
0.0
 11
64.64061261928268
 21
41.23744989402593
 31
0.0
  0
LINE
  5
21A0
330
219C
100
AcDbEntity
  8
文字
 62
     0
370
    -2
100
AcDbLine
 10
63.39061261928268
 20
138.737449894026
 30
0.0
 11
63.39061261928268
 21
43.73744989402593
 31
0.0
  0
SOLID
  5
21A1
330
219C
100
AcDbEntity
  8
文字
 62
     0
100
AcDbTrace
 10
63.80727928594935
 20
138.737449894026
 30
0.0
 11
62.97394595261602
 21
138.737449894026
 31
0.0
 12
63.39061261928268
 22
141.237449894026
 32
0.0
 13
63.39061261928268
 23
141.237449894026
 33
0.0
  0
SOLID
  5
21A2
330
219C
100
AcDbEntity
  8
文字
 62
     0
100
AcDbTrace
 10
62.97394595261601
 20
43.73744989402593
 30
0.0
 11
63.80727928594934
 21
43.73744989402593
 31
0.0
 12
63.39061261928268
 22
41.23744989402593
 32
0.0
 13
63.39061261928268
 23
41.23744989402593
 33
0.0
  0
MTEXT
  5
21A3
330
219C
100
AcDbEntity
  8
文字
 62
     0
100
AcDbMText
 10
61.51561261928268
 20
91.23744989402594
 30
0.0
 40
2.5
 41
0.0
 46
0.0
 71
     5
 72
     1
  1
180
 11
7.105427357601000E-17
 21
1.0
 31
0.0
 73
     1
 44
1.0
  0
POINT
  5
21A4
330
219C
100
AcDbEntity
  8
Defpoints
 62
     0
100
AcDbPoint
 10
19.16748059150601
 20
141.237449894026
 30
0.0
  0
POINT
  5
21A5
330
219C
100
AcDbEntity
  8
Defpoints
 62
     0
100
AcDbPoint
 10
27.017480591506
 20
41.23744989402593
 30
0.0
  0
POINT
  5
21A6
330
219C
100
AcDbEntity
  8
Defpoints
 62
     0
100
AcDbPoint
 10
63.39061261928268
 20
41.23744989402593
 30
0.0
  0
ENDBLK
  5
21A7
330
219C
100
AcDbEntity
  8
0
 62
     1
100
AcDbBlockEnd
  0
BLOCK
  5
21AC
330
21AB
100
AcDbEntity
  8
0
 62
     1
100
AcDbBlockBegin
  2
*D48
 70
     1
 10
0.0
 20
0.0
 30
0.0
  3
*D48
  1
*D20
  0
LINE
  5
21AD
330
21AB
100
AcDbEntity
  8
文字
 62
     0
370
    -2
100
AcDbLine
 10
5.167480591506006
 20
139.862449894026
 30
0.0
 11
5.167480591506006
 21
149.3746987869078
 31
0.0
  0
LINE
  5
21AE
330
21AB
100
AcDbEntity
  8
文字
 62
     0
370
    -2
100
AcDbLine
 10
21.16748059150601
 20
139.862449894026
 30
0.0
 11
21.16748059150601
 21
149.3746987869078
 31
0.0
  0
LINE
  5
21AF
330
21AB
100
AcDbEntity
  8
文字
 62
     0
370
    -2
100
AcDbLine
 10
7.667480591506006
 20
148.1246987869078
 30
0.0
 11
18.66748059150601
 21
148.1246987869078
 31
0.0
  0
SOLID
  5
21B0
330
21AB
100
AcDbEntity
  8
文字
 62
     0
100
AcDbTrace
 10
7.667480591506006
 20
148.5413654535744
 30
0.0
 11
7.667480591506006
 21
147.7080321202411
 31
0.0
 12
5.167480591506006
 22
148.1246987869078
 32
0.0
 13
5.167480591506006
 23
148.1246987869078
 33
0.0
  0
SOLID
  5
21B1
330
21AB
100
AcDbEntity
  8
文字
 62
     0
100
AcDbTrace
 10
18.66748059150601
 20
147.7080321202411
 30
0.0
 11
18.66748059150601
 21
148.5413654535744
 31
0.0
 12
21.16748059150601
 22
148.1246987869078
 32
0.0
 13
21.16748059150601
 23
148.1246987869078
 33
0.0
  0
MTEXT
  5
21B2
330
21AB
100
AcDbEntity
  8
文字
 62
     0
100
AcDbMText
 10
13.16748059150601
 20
149.9996987869078
 30
0.0
 40
2.5
 41
0.0
 46
0.0
 71
     5
 72
     1
  1
M16
 73
     1
 44
1.0
  0
POINT
  5
21B3
330
21AB
100
AcDbEntity
  8
Defpoints
 62
     0
100
AcDbPoint
 10
5.167480591506006
 20
139.237449894026
 30
0.0
  0
POINT
  5
21B4
330
21AB
100
AcDbEntity
  8
Defpoints
 62
     0
100
AcDbPoint
 10
21.16748059150601
 20
139.237449894026
 30
0.0
  0
POINT
  5
21B5
330
21AB
100
AcDbEntity
  8
Defpoints
 62
     0
100
AcDbPoint
 10
21.16748059150601
 20
148.1246987869078
 30
0.0
  0
ENDBLK
  5
21B6
330
21AB
100
AcDbEntity
  8
0
 62
     1
100
AcDbBlockEnd
  0
BLOCK
  5
21BE
330
21BD
100
AcDbEntity
  8
0
100
AcDbBlockBegin
  2
*D49
 70
     1
 10
0.0
 20
0.0
 30
0.0
  3
*D49
  1
*D21
  0
LINE
  5
21BF
330
21BD
100
AcDbEntity
  8
文字
 62
     0
370
    -2
100
AcDbLine
 10
19.79248059150601
 20
141.237449894026
 30
0.0
 11
70.55755866190741
 21
141.237449894026
 31
0.0
  0
LINE
  5
21C0
330
21BD
100
AcDbEntity
  8
文字
 62
     0
370
    -2
100
AcDbLine
 10
52.79248059150598
 20
9.2374487373189
 30
0.0
 11
70.5575586619074
 21
9.237448737318898
 31
0.0
  0
LINE
  5
21C1
330
21BD
100
AcDbEntity
  8
文字
 62
     0
370
    -2
100
AcDbLine
 10
69.30755866190741
 20
138.737449894026
 30
0.0
 11
69.3075586619074
 21
11.7374487373189
 31
0.0
  0
SOLID
  5
21C2
330
21BD
100
AcDbEntity
  8
文字
 62
     0
100
AcDbTrace
 10
69.72422532857408
 20
138.737449894026
 30
0.0
 11
68.89089199524074
 21
138.737449894026
 31
0.0
 12
69.30755866190741
 22
141.237449894026
 32
0.0
 13
69.30755866190741
 23
141.237449894026
 33
0.0
  0
SOLID
  5
21C3
330
21BD
100
AcDbEntity
  8
文字
 62
     0
100
AcDbTrace
 10
68.89089199524072
 20
11.7374487373189
 30
0.0
 11
69.72422532857406
 21
11.7374487373189
 31
0.0
 12
69.3075586619074
 22
9.237448737318898
 32
0.0
 13
69.3075586619074
 23
9.237448737318898
 33
0.0
  0
MTEXT
  5
21C4
330
21BD
100
AcDbEntity
  8
文字
 62
     0
100
AcDbMText
 10
67.4325586619074
 20
75.23744931567242
 30
0.0
 40
2.5
 41
0.0
 46
0.0
 71
     5
 72
     1
  1
212
 11
1.076579893232822E-16
 21
1.0
 31
0.0
 73
     1
 44
1.0
  0
POINT
  5
21C5
330
21BD
100
AcDbEntity
  8
Defpoints
 62
     0
100
AcDbPoint
 10
19.16748059150601
 20
141.237449894026
 30
0.0
  0
POINT
  5
21C6
330
21BD
100
AcDbEntity
  8
Defpoints
 62
     0
100
AcDbPoint
 10
52.16748059150598
 20
9.2374487373189
 30
0.0
  0
POINT
  5
21C7
330
21BD
100
AcDbEntity
  8
Defpoints
 62
     0
100
AcDbPoint
 10
69.3075586619074
 20
9.237448737318898
 30
0.0
  0
ENDBLK
  5
21C8
330
21BD
100
AcDbEntity
  8
0
100
AcDbBlockEnd
  0
BLOCK
  5
21EC
330
21EB
100
AcDbEntity
  8
0
100
AcDbBlockBegin
  2
*D50
 70
     1
 10
0.0
 20
0.0
 30
0.0
  3
*D50
  1
*D57
  0
LINE
  5
21EE
330
21EB
100
AcDbEntity
  8
文字
 62
     0
370
    -2
100
AcDbLine
 10
104.3914495968299
 20
187.7591718760721
 30
0.0
 11
149.2395816246066
 21
187.7591718760721
 31
0.0
  0
LINE
  5
21EF
330
21EB
100
AcDbEntity
  8
文字
 62
     0
370
    -2
100
AcDbLine
 10
112.2414495968299
 20
87.75917187607202
 30
0.0
 11
149.2395816246066
 21
87.75917187607202
 31
0.0
  0
LINE
  5
21F0
330
21EB
100
AcDbEntity
  8
文字
 62
     0
370
    -2
100
AcDbLine
 10
147.9895816246066
 20
185.2591718760721
 30
0.0
 11
147.9895816246066
 21
90.25917187607202
 31
0.0
  0
SOLID
  5
21F1
330
21EB
100
AcDbEntity
  8
文字
 62
     0
100
AcDbTrace
 10
148.4062482912732
 20
185.2591718760721
 30
0.0
 11
147.5729149579399
 21
185.2591718760721
 31
0.0
 12
147.9895816246066
 22
187.7591718760721
 32
0.0
 13
147.9895816246066
 23
187.7591718760721
 33
0.0
  0
SOLID
  5
21F2
330
21EB
100
AcDbEntity
  8
文字
 62
     0
100
AcDbTrace
 10
147.5729149579399
 20
90.25917187607202
 30
0.0
 11
148.4062482912732
 21
90.25917187607202
 31
0.0
 12
147.9895816246066
 22
87.75917187607202
 32
0.0
 13
147.9895816246066
 23
87.75917187607202
 33
0.0
  0
MTEXT
  5
21F3
330
21EB
100
AcDbEntity
  8
文字
 62
     0
100
AcDbMText
 10
146.1145816246066
 20
137.759171876072
 30
0.0
 40
2.5
 41
0.0
 46
0.0
 71
     5
 72
     1
  1
180
 11
0.0
 21
1.0
 31
0.0
 73
     1
 44
1.0
  0
POINT
  5
21F4
330
21EB
100
AcDbEntity
  8
Defpoints
 62
     0
100
AcDbPoint
 10
103.7664495968299
 20
187.7591718760721
 30
0.0
  0
POINT
  5
21F5
330
21EB
100
AcDbEntity
  8
Defpoints
 62
     0
100
AcDbPoint
 10
111.6164495968299
 20
87.75917187607202
 30
0.0
  0
POINT
  5
21F6
330
21EB
100
AcDbEntity
  8
Defpoints
 62
     0
100
AcDbPoint
 10
147.9895816246066
 20
87.75917187607202
 30
0.0
  0
ENDBLK
  5
21ED
330
21EB
100
AcDbEntity
  8
0
100
AcDbBlockEnd
  0
BLOCK
  5
21F8
330
21F7
100
AcDbEntity
  8
0
100
AcDbBlockBegin
  2
*D51
 70
     1
 10
0.0
 20
0.0
 30
0.0
  3
*D51
  1
*D58
  0
LINE
  5
21FA
330
21F7
100
AcDbEntity
  8
文字
 62
     0
370
    -2
100
AcDbLine
 10
89.76644959682989
 20
186.3841718760721
 30
0.0
 11
89.76644959682989
 21
195.8964207689539
 31
0.0
  0
LINE
  5
21FB
330
21F7
100
AcDbEntity
  8
文字
 62
     0
370
    -2
100
AcDbLine
 10
105.7664495968299
 20
186.3841718760721
 30
0.0
 11
105.7664495968299
 21
195.8964207689539
 31
0.0
  0
LINE
  5
21FC
330
21F7
100
AcDbEntity
  8
文字
 62
     0
370
    -2
100
AcDbLine
 10
92.26644959682989
 20
194.6464207689539
 30
0.0
 11
103.2664495968299
 21
194.6464207689539
 31
0.0
  0
SOLID
  5
21FD
330
21F7
100
AcDbEntity
  8
文字
 62
     0
100
AcDbTrace
 10
92.26644959682989
 20
195.0630874356205
 30
0.0
 11
92.26644959682989
 21
194.2297541022872
 31
0.0
 12
89.76644959682989
 22
194.6464207689539
 32
0.0
 13
89.76644959682989
 23
194.6464207689539
 33
0.0
  0
SOLID
  5
21FE
330
21F7
100
AcDbEntity
  8
文字
 62
     0
100
AcDbTrace
 10
103.2664495968299
 20
194.2297541022872
 30
0.0
 11
103.2664495968299
 21
195.0630874356205
 31
0.0
 12
105.7664495968299
 22
194.6464207689539
 32
0.0
 13
105.7664495968299
 23
194.6464207689539
 33
0.0
  0
MTEXT
  5
21FF
330
21F7
100
AcDbEntity
  8
文字
 62
     0
100
AcDbMText
 10
97.76644959682989
 20
196.5214207689539
 30
0.0
 40
2.5
 41
0.0
 46
0.0
 71
     5
 72
     1
  1
M16
 73
     1
 44
1.0
  0
POINT
  5
2200
330
21F7
100
AcDbEntity
  8
Defpoints
 62
     0
100
AcDbPoint
 10
89.76644959682989
 20
185.7591718760721
 30
0.0
  0
POINT
  5
2201
330
21F7
100
AcDbEntity
  8
Defpoints
 62
     0
100
AcDbPoint
 10
105.7664495968299
 20
185.7591718760721
 30
0.0
  0
POINT
  5
2202
330
21F7
100
AcDbEntity
  8
Defpoints
 62
     0
100
AcDbPoint
 10
105.7664495968299
 20
194.6464207689539
 30
0.0
  0
ENDBLK
  5
21F9
330
21F7
100
AcDbEntity
  8
0
100
AcDbBlockEnd
  0
BLOCK
  5
2204
330
2203
100
AcDbEntity
  8
0
100
AcDbBlockBegin
  2
*D52
 70
     1
 10
0.0
 20
0.0
 30
0.0
  3
*D52
  1
*D59
  0
LINE
  5
2206
330
2203
100
AcDbEntity
  8
文字
 62
     0
370
    -2
100
AcDbLine
 10
104.3914495968299
 20
187.7591718760721
 30
0.0
 11
155.1565276672313
 21
187.7591718760721
 31
0.0
  0
LINE
  5
2207
330
2203
100
AcDbEntity
  8
文字
 62
     0
370
    -2
100
AcDbLine
 10
137.3914495968299
 20
55.75917071936499
 30
0.0
 11
155.1565276672313
 21
55.75917071936499
 31
0.0
  0
LINE
  5
2208
330
2203
100
AcDbEntity
  8
文字
 62
     0
370
    -2
100
AcDbLine
 10
153.9065276672313
 20
185.2591718760721
 30
0.0
 11
153.9065276672313
 21
58.25917071936499
 31
0.0
  0
SOLID
  5
2209
330
2203
100
AcDbEntity
  8
文字
 62
     0
100
AcDbTrace
 10
154.3231943338979
 20
185.2591718760721
 30
0.0
 11
153.4898610005646
 21
185.2591718760721
 31
0.0
 12
153.9065276672313
 22
187.7591718760721
 32
0.0
 13
153.9065276672313
 23
187.7591718760721
 33
0.0
  0
SOLID
  5
220A
330
2203
100
AcDbEntity
  8
文字
 62
     0
100
AcDbTrace
 10
153.4898610005646
 20
58.25917071936499
 30
0.0
 11
154.3231943338979
 21
58.25917071936499
 31
0.0
 12
153.9065276672313
 22
55.75917071936499
 32
0.0
 13
153.9065276672313
 23
55.75917071936499
 33
0.0
  0
MTEXT
  5
220B
330
2203
100
AcDbEntity
  8
文字
 62
     0
100
AcDbMText
 10
152.0315276672313
 20
121.7591712977185
 30
0.0
 40
2.5
 41
0.0
 46
0.0
 71
     5
 72
     1
  1
212
 11
0.0
 21
1.0
 31
0.0
 73
     1
 44
1.0
  0
POINT
  5
220C
330
2203
100
AcDbEntity
  8
Defpoints
 62
     0
100
AcDbPoint
 10
103.7664495968299
 20
187.7591718760721
 30
0.0
  0
POINT
  5
220D
330
2203
100
AcDbEntity
  8
Defpoints
 62
     0
100
AcDbPoint
 10
136.7664495968299
 20
55.75917071936499
 30
0.0
  0
POINT
  5
220E
330
2203
100
AcDbEntity
  8
Defpoints
 62
     0
100
AcDbPoint
 10
153.9065276672313
 20
55.75917071936499
 30
0.0
  0
ENDBLK
  5
2205
330
2203
100
AcDbEntity
  8
0
100
AcDbBlockEnd
  0
BLOCK
  5
2242
330
2241
100
AcDbEntity
  8
0
 62
     1
100
AcDbBlockBegin
  2
*D53
 70
     1
 10
0.0
 20
0.0
 30
0.0
  3
*D53
  1
*D27
  0
LINE
  5
2243
330
2241
100
AcDbEntity
  8
文字
 62
     0
370
    -2
100
AcDbLine
 10
36.3763631607072
 20
54.03714754716593
 30
0.0
 11
36.3763631607072
 21
10.59066723248316
 31
0.0
  0
LINE
  5
2244
330
2241
100
AcDbEntity
  8
文字
 62
     0
370
    -2
100
AcDbLine
 10
60.3652668455361
 20
54.03714754716593
 30
0.0
 11
60.3652668455361
 21
10.59066723248316
 31
0.0
  0
LINE
  5
2245
330
2241
100
AcDbEntity
  8
文字
 62
     0
370
    -2
100
AcDbLine
 10
38.8763631607072
 20
11.84066723248316
 30
0.0
 11
57.8652668455361
 21
11.84066723248316
 31
0.0
  0
SOLID
  5
2246
330
2241
100
AcDbEntity
  8
文字
 62
     0
100
AcDbTrace
 10
38.8763631607072
 20
12.25733389914982
 30
0.0
 11
38.8763631607072
 21
11.42400056581649
 31
0.0
 12
36.3763631607072
 22
11.84066723248316
 32
0.0
 13
36.3763631607072
 23
11.84066723248316
 33
0.0
  0
SOLID
  5
2247
330
2241
100
AcDbEntity
  8
文字
 62
     0
100
AcDbTrace
 10
57.8652668455361
 20
11.42400056581649
 30
0.0
 11
57.8652668455361
 21
12.25733389914982
 31
0.0
 12
60.3652668455361
 22
11.84066723248316
 32
0.0
 13
60.3652668455361
 23
11.84066723248316
 33
0.0
  0
MTEXT
  5
2248
330
2241
100
AcDbEntity
  8
文字
 62
     0
100
AcDbMText
 10
48.37081500312165
 20
13.71566723248316
 30
0.0
 40
2.5
 41
0.0
 46
0.0
 71
     5
 72
     1
  1
24
 73
     1
 44
1.0
  0
POINT
  5
2249
330
2241
100
AcDbEntity
  8
Defpoints
 62
     0
100
AcDbPoint
 10
36.3763631607072
 20
54.66214754716593
 30
0.0
  0
POINT
  5
224A
330
2241
100
AcDbEntity
  8
Defpoints
 62
     0
100
AcDbPoint
 10
60.3652668455361
 20
54.66214754716593
 30
0.0
  0
POINT
  5
224B
330
2241
100
AcDbEntity
  8
Defpoints
 62
     0
100
AcDbPoint
 10
60.3652668455361
 20
11.84066723248316
 30
0.0
  0
ENDBLK
  5
224C
330
2241
100
AcDbEntity
  8
0
 62
     1
100
AcDbBlockEnd
  0
BLOCK
  5
2251
330
2250
100
AcDbEntity
  8
0
 62
     1
100
AcDbBlockBegin
  2
*D54
 70
     1
 10
0.0
 20
0.0
 30
0.0
  3
*D54
  1
*D29
  0
LINE
  5
2252
330
2250
100
AcDbEntity
  8
文字
 62
     0
370
    -2
100
AcDbLine
 10
22.37081500312161
 20
60.96214754716583
 30
0.0
 11
22.37081500312161
 21
0.0
 31
0.0
  0
LINE
  5
2253
330
2250
100
AcDbEntity
  8
文字
 62
     0
370
    -2
100
AcDbLine
 10
74.3708150031216
 20
60.96214754716583
 30
0.0
 11
74.3708150031216
 21
0.0
 31
0.0
  0
LINE
  5
2254
330
2250
100
AcDbEntity
  8
文字
 62
     0
370
    -2
100
AcDbLine
 10
24.87081500312161
 20
1.25
 30
0.0
 11
71.8708150031216
 21
1.25
 31
0.0
  0
SOLID
  5
2255
330
2250
100
AcDbEntity
  8
文字
 62
     0
100
AcDbTrace
 10
24.87081500312161
 20
1.666666666666667
 30
0.0
 11
24.87081500312161
 21
0.8333333333333333
 31
0.0
 12
22.37081500312161
 22
1.25
 32
0.0
 13
22.37081500312161
 23
1.25
 33
0.0
  0
SOLID
  5
2256
330
2250
100
AcDbEntity
  8
文字
 62
     0
100
AcDbTrace
 10
71.8708150031216
 20
0.8333333333333333
 30
0.0
 11
71.8708150031216
 21
1.666666666666667
 31
0.0
 12
74.3708150031216
 22
1.25
 32
0.0
 13
74.3708150031216
 23
1.25
 33
0.0
  0
MTEXT
  5
2257
330
2250
100
AcDbEntity
  8
文字
 62
     0
100
AcDbMText
 10
48.44507934527701
 20
3.125
 30
0.0
 40
2.5
 41
0.0
 46
0.0
 71
     5
 72
     1
  1
%%c52
 73
     1
 44
1.0
  0
POINT
  5
2258
330
2250
100
AcDbEntity
  8
Defpoints
 62
     0
100
AcDbPoint
 10
22.37081500312161
 20
61.58714754716583
 30
0.0
  0
POINT
  5
2259
330
2250
100
AcDbEntity
  8
Defpoints
 62
     0
100
AcDbPoint
 10
74.3708150031216
 20
61.58714754716583
 30
0.0
  0
POINT
  5
225A
330
2250
100
AcDbEntity
  8
Defpoints
 62
     0
100
AcDbPoint
 10
74.3708150031216
 20
1.25
 30
0.0
  0
ENDBLK
  5
225B
330
2250
100
AcDbEntity
  8
0
 62
     1
100
AcDbBlockEnd
  0
BLOCK
  5
2284
330
2283
100
AcDbEntity
  8
0
100
AcDbBlockBegin
  2
*D55
 70
     1
 10
0.0
 20
0.0
 30
0.0
  3
*D55
  1
*D56
  0
LINE
  5
2286
330
2283
100
AcDbEntity
  8
文字
 62
     0
370
    -2
100
AcDbLine
 10
201.9050959273727
 20
91.65911191723346
 30
0.0
 11
201.9050959273727
 21
48.21263160255069
 31
0.0
  0
LINE
  5
2287
330
2283
100
AcDbEntity
  8
文字
 62
     0
370
    -2
100
AcDbLine
 10
225.8939996122016
 20
91.65911191723346
 30
0.0
 11
225.8939996122016
 21
48.21263160255069
 31
0.0
  0
LINE
  5
2288
330
2283
100
AcDbEntity
  8
文字
 62
     0
370
    -2
100
AcDbLine
 10
204.4050959273727
 20
49.46263160255069
 30
0.0
 11
223.3939996122016
 21
49.46263160255069
 31
0.0
  0
SOLID
  5
2289
330
2283
100
AcDbEntity
  8
文字
 62
     0
100
AcDbTrace
 10
204.4050959273727
 20
49.87929826921735
 30
0.0
 11
204.4050959273727
 21
49.04596493588402
 31
0.0
 12
201.9050959273727
 22
49.46263160255069
 32
0.0
 13
201.9050959273727
 23
49.46263160255069
 33
0.0
  0
SOLID
  5
228A
330
2283
100
AcDbEntity
  8
文字
 62
     0
100
AcDbTrace
 10
223.3939996122016
 20
49.04596493588402
 30
0.0
 11
223.3939996122016
 21
49.87929826921735
 31
0.0
 12
225.8939996122016
 22
49.46263160255069
 32
0.0
 13
225.8939996122016
 23
49.46263160255069
 33
0.0
  0
MTEXT
  5
228B
330
2283
100
AcDbEntity
  8
文字
 62
     0
100
AcDbMText
 10
213.8995477697871
 20
51.33763160255069
 30
0.0
 40
2.5
 41
0.0
 46
0.0
 71
     5
 72
     1
  1
24
 73
     1
 44
1.0
  0
POINT
  5
228C
330
2283
100
AcDbEntity
  8
Defpoints
 62
     0
100
AcDbPoint
 10
201.9050959273727
 20
92.28411191723346
 30
0.0
  0
POINT
  5
228D
330
2283
100
AcDbEntity
  8
Defpoints
 62
     0
100
AcDbPoint
 10
225.8939996122016
 20
92.28411191723346
 30
0.0
  0
POINT
  5
228E
330
2283
100
AcDbEntity
  8
Defpoints
 62
     0
100
AcDbPoint
 10
225.8939996122016
 20
49.46263160255069
 30
0.0
  0
ENDBLK
  5
2285
330
2283
100
AcDbEntity
  8
0
100
AcDbBlockEnd
  0
BLOCK
  5
2290
330
228F
100
AcDbEntity
  8
0
100
AcDbBlockBegin
  2
*D56
 70
     1
 10
0.0
 20
0.0
 30
0.0
  3
*D56
  1
*D57
  0
LINE
  5
2292
330
228F
100
AcDbEntity
  8
文字
 62
     0
370
    -2
100
AcDbLine
 10
187.8995477697871
 20
98.58411191723336
 30
0.0
 11
187.8995477697871
 21
37.62196437006753
 31
0.0
  0
LINE
  5
2293
330
228F
100
AcDbEntity
  8
文字
 62
     0
370
    -2
100
AcDbLine
 10
239.8995477697871
 20
98.58411191723336
 30
0.0
 11
239.8995477697871
 21
37.62196437006753
 31
0.0
  0
LINE
  5
2294
330
228F
100
AcDbEntity
  8
文字
 62
     0
370
    -2
100
AcDbLine
 10
190.3995477697871
 20
38.87196437006753
 30
0.0
 11
237.3995477697871
 21
38.87196437006753
 31
0.0
  0
SOLID
  5
2295
330
228F
100
AcDbEntity
  8
文字
 62
     0
100
AcDbTrace
 10
190.3995477697871
 20
39.28863103673419
 30
0.0
 11
190.3995477697871
 21
38.45529770340087
 31
0.0
 12
187.8995477697871
 22
38.87196437006753
 32
0.0
 13
187.8995477697871
 23
38.87196437006753
 33
0.0
  0
SOLID
  5
2296
330
228F
100
AcDbEntity
  8
文字
 62
     0
100
AcDbTrace
 10
237.3995477697871
 20
38.45529770340087
 30
0.0
 11
237.3995477697871
 21
39.28863103673419
 31
0.0
 12
239.8995477697871
 22
38.87196437006753
 32
0.0
 13
239.8995477697871
 23
38.87196437006753
 33
0.0
  0
MTEXT
  5
2297
330
228F
100
AcDbEntity
  8
文字
 62
     0
100
AcDbMText
 10
213.9738121119425
 20
40.74696437006753
 30
0.0
 40
2.5
 41
0.0
 46
0.0
 71
     5
 72
     1
  1
%%c52
 73
     1
 44
1.0
  0
POINT
  5
2298
330
228F
100
AcDbEntity
  8
Defpoints
 62
     0
100
AcDbPoint
 10
187.8995477697871
 20
99.20911191723336
 30
0.0
  0
POINT
  5
2299
330
228F
100
AcDbEntity
  8
Defpoints
 62
     0
100
AcDbPoint
 10
239.8995477697871
 20
99.20911191723336
 30
0.0
  0
POINT
  5
229A
330
228F
100
AcDbEntity
  8
Defpoints
 62
     0
100
AcDbPoint
 10
239.8995477697871
 20
38.87196437006753
 30
0.0
  0
ENDBLK
  5
2291
330
228F
100
AcDbEntity
  8
0
100
AcDbBlockEnd
  0
BLOCK
  5
22C5
330
22C4
100
AcDbEntity
  8
0
 62
     1
100
AcDbBlockBegin
  2
*D57
 70
     1
 10
0.0
 20
0.0
 30
0.0
  3
*D57
  1
*D24
  0
LINE
  5
22C6
330
22C4
100
AcDbEntity
  8
文字
 62
     0
370
    -2
100
AcDbLine
 10
73.61755642434291
 20
41.74524453773132
 30
0.0
 11
114.8787060235651
 21
41.74524453773131
 31
0.0
  0
LINE
  5
22C7
330
22C4
100
AcDbEntity
  8
文字
 62
     0
370
    -2
100
AcDbLine
 10
101.6707023398686
 20
18.74448046105953
 30
0.0
 11
114.8787060235651
 21
18.74448046105953
 31
0.0
  0
LINE
  5
22C8
330
22C4
100
AcDbEntity
  8
文字
 62
     0
370
    -2
100
AcDbLine
 10
113.6287060235651
 20
39.24524453773131
 30
0.0
 11
113.6287060235651
 21
21.24448046105953
 31
0.0
  0
SOLID
  5
22C9
330
22C4
100
AcDbEntity
  8
文字
 62
     0
100
AcDbTrace
 10
114.0453726902318
 20
39.24524453773131
 30
0.0
 11
113.2120393568984
 21
39.24524453773131
 31
0.0
 12
113.6287060235651
 22
41.74524453773131
 32
0.0
 13
113.6287060235651
 23
41.74524453773131
 33
0.0
  0
SOLID
  5
22CA
330
22C4
100
AcDbEntity
  8
文字
 62
     0
100
AcDbTrace
 10
113.2120393568984
 20
21.24448046105953
 30
0.0
 11
114.0453726902318
 21
21.24448046105953
 31
0.0
 12
113.6287060235651
 22
18.74448046105953
 32
0.0
 13
113.6287060235651
 23
18.74448046105953
 33
0.0
  0
MTEXT
  5
22CB
330
22C4
100
AcDbEntity
  8
文字
 62
     0
100
AcDbMText
 10
111.7537060235651
 20
30.24486249939542
 30
0.0
 40
2.5
 41
0.0
 46
0.0
 71
     5
 72
     1
  1
23
 11
0.0
 21
1.0
 31
0.0
 73
     1
 44
1.0
  0
POINT
  5
22CC
330
22C4
100
AcDbEntity
  8
Defpoints
 62
     0
100
AcDbPoint
 10
72.99255642434291
 20
41.74524453773132
 30
0.0
  0
POINT
  5
22CD
330
22C4
100
AcDbEntity
  8
Defpoints
 62
     0
100
AcDbPoint
 10
101.0457023398686
 20
18.74448046105953
 30
0.0
  0
POINT
  5
22CE
330
22C4
100
AcDbEntity
  8
Defpoints
 62
     0
100
AcDbPoint
 10
113.6287060235651
 20
18.74448046105953
 30
0.0
  0
ENDBLK
  5
22CF
330
22C4
100
AcDbEntity
  8
0
 62
     1
100
AcDbBlockEnd
  0
BLOCK
  5
22E2
330
22E1
100
AcDbEntity
  8
0
100
AcDbBlockBegin
  2
*D58
 70
     1
 10
0.0
 20
0.0
 30
0.0
  3
*D58
  1
*D27
  0
LINE
  5
22E3
330
22E1
100
AcDbEntity
  8
0
 62
     0
370
    -2
100
AcDbLine
 10
21.88002822519181
 20
26.98478353323317
 30
0.0
 11
4.910000000000005
 21
26.98478353323317
 31
0.0
  0
LINE
  5
22E4
330
22E1
100
AcDbEntity
  8
0
 62
     0
370
    -2
100
AcDbLine
 10
21.84891066521924
 20
18.78526780176052
 30
0.0
 11
4.910000000000004
 21
18.78526780176052
 31
0.0
  0
LINE
  5
22E5
330
22E1
100
AcDbEntity
  8
0
 62
     0
370
    -2
100
AcDbLine
 10
5.090000000000004
 20
24.98478353323317
 30
0.0
 11
5.090000000000003
 21
20.78526780176052
 31
0.0
  0
SOLID
  5
22E6
330
22E1
100
AcDbEntity
  8
0
 62
     0
100
AcDbTrace
 10
5.423333333333337
 20
24.98478353323317
 30
0.0
 11
4.756666666666671
 21
24.98478353323317
 31
0.0
 12
5.090000000000004
 22
26.98478353323317
 32
0.0
 13
5.090000000000004
 23
26.98478353323317
 33
0.0
  0
SOLID
  5
22E7
330
22E1
100
AcDbEntity
  8
0
 62
     0
100
AcDbTrace
 10
4.75666666666667
 20
20.78526780176052
 30
0.0
 11
5.423333333333336
 21
20.78526780176052
 31
0.0
 12
5.090000000000003
 22
18.78526780176052
 32
0.0
 13
5.090000000000003
 23
18.78526780176052
 33
0.0
  0
MTEXT
  5
22E8
330
22E1
100
AcDbEntity
  8
0
 62
     0
100
AcDbMText
 10
2.500000000000004
 20
22.88502566749684
 30
0.0
 40
2.5
 41
0.0
 46
0.0
 71
     5
 72
     1
  1
\A1;8.2
 73
     1
 44
1.0
  0
POINT
  5
22E9
330
22E1
100
AcDbEntity
  8
Defpoints
 62
     0
100
AcDbPoint
 10
21.94252822519181
 20
26.98478353323317
 30
0.0
  0
POINT
  5
22EA
330
22E1
100
AcDbEntity
  8
Defpoints
 62
     0
100
AcDbPoint
 10
21.91141066521924
 20
18.78526780176052
 30
0.0
  0
POINT
  5
22EB
330
22E1
100
AcDbEntity
  8
Defpoints
 62
     0
100
AcDbPoint
 10
5.090000000000003
 20
18.78526780176052
 30
0.0
  0
ENDBLK
  5
22EC
330
22E1
100
AcDbEntity
  8
0
100
AcDbBlockEnd
  0
BLOCK
  5
22F0
330
22EF
100
AcDbEntity
  8
0
100
AcDbBlockBegin
  2
*D59
 70
     1
 10
0.0
 20
0.0
 30
0.0
  3
*D59
  1
*D30
  0
LINE
  5
22F1
330
22EF
100
AcDbEntity
  8
0
 62
     0
370
    -2
100
AcDbLine
 10
21.97178457818623
 20
18.81942842919189
 30
0.0
 11
21.97178457818623
 21
0.25
 31
0.0
  0
LINE
  5
22F2
330
22EF
100
AcDbEntity
  8
0
 62
     0
370
    -2
100
AcDbLine
 10
104.9717845781861
 20
18.81942842919189
 30
0.0
 11
104.9717845781861
 21
0.25
 31
0.0
  0
LINE
  5
22F3
330
22EF
100
AcDbEntity
  8
0
 62
     0
370
    -2
100
AcDbLine
 10
23.97178457818623
 20
1.25
 30
0.0
 11
58.8260670383024
 21
1.25
 31
0.0
  0
LINE
  5
22F4
330
22EF
100
AcDbEntity
  8
0
 62
     0
370
    -2
100
AcDbLine
 10
102.9717845781861
 20
1.25
 30
0.0
 11
68.58940037163575
 21
1.25
 31
0.0
  0
SOLID
  5
22F5
330
22EF
100
AcDbEntity
  8
0
 62
     0
100
AcDbTrace
 10
23.97178457818623
 20
1.583333333333333
 30
0.0
 11
23.97178457818623
 21
0.9166666666666667
 31
0.0
 12
21.97178457818623
 22
1.25
 32
0.0
 13
21.97178457818623
 23
1.25
 33
0.0
  0
SOLID
  5
22F6
330
22EF
100
AcDbEntity
  8
0
 62
     0
100
AcDbTrace
 10
102.9717845781861
 20
0.9166666666666667
 30
0.0
 11
102.9717845781861
 21
1.583333333333333
 31
0.0
 12
104.9717845781861
 22
1.25
 32
0.0
 13
104.9717845781861
 23
1.25
 33
0.0
  0
MTEXT
  5
22F7
330
22EF
100
AcDbEntity
  8
0
 62
     0
100
AcDbMText
 10
63.70773370496907
 20
1.25
 30
0.0
 40
2.5
 41
0.0
 46
0.0
 71
     5
 72
     1
  1
\A1;%%c83.0
 73
     1
 44
1.0
  0
POINT
  5
22F8
330
22EF
100
AcDbEntity
  8
Defpoints
 62
     0
100
AcDbPoint
 10
21.97178457818623
 20
19.81942842919189
 30
0.0
  0
POINT
  5
22F9
330
22EF
100
AcDbEntity
  8
Defpoints
 62
     0
100
AcDbPoint
 10
104.9717845781861
 20
19.81942842919189
 30
0.0
  0
POINT
  5
22FA
330
22EF
100
AcDbEntity
  8
Defpoints
 62
     0
100
AcDbPoint
 10
104.9717845781861
 20
1.25
 30
0.0
  0
ENDBLK
  5
22FB
330
22EF
100
AcDbEntity
  8
0
100
AcDbBlockEnd
  0
BLOCK
  5
2322
330
2321
100
AcDbEntity
  8
0
100
AcDbBlockBegin
  2
*D60
 70
     1
 10
0.0
 20
0.0
 30
0.0
  3
*D60
  1
*D62
  0
LINE
  5
2324
330
2321
100
AcDbEntity
  8
文字
 62
     0
370
    -2
100
AcDbLine
 10
107.7856139059556
 20
77.72115573119366
 30
0.0
 11
149.0467635051778
 21
77.72115573119366
 31
0.0
  0
LINE
  5
2325
330
2321
100
AcDbEntity
  8
文字
 62
     0
370
    -2
100
AcDbLine
 10
135.8387598214813
 20
54.72039165452188
 30
0.0
 11
149.0467635051778
 21
54.72039165452188
 31
0.0
  0
LINE
  5
2326
330
2321
100
AcDbEntity
  8
文字
 62
     0
370
    -2
100
AcDbLine
 10
147.7967635051778
 20
75.22115573119366
 30
0.0
 11
147.7967635051778
 21
57.22039165452188
 31
0.0
  0
SOLID
  5
2327
330
2321
100
AcDbEntity
  8
文字
 62
     0
100
AcDbTrace
 10
148.2134301718444
 20
75.22115573119366
 30
0.0
 11
147.3800968385111
 21
75.22115573119366
 31
0.0
 12
147.7967635051778
 22
77.72115573119366
 32
0.0
 13
147.7967635051778
 23
77.72115573119366
 33
0.0
  0
SOLID
  5
2328
330
2321
100
AcDbEntity
  8
文字
 62
     0
100
AcDbTrace
 10
147.3800968385111
 20
57.22039165452188
 30
0.0
 11
148.2134301718444
 21
57.22039165452188
 31
0.0
 12
147.7967635051778
 22
54.72039165452188
 32
0.0
 13
147.7967635051778
 23
54.72039165452188
 33
0.0
  0
MTEXT
  5
2329
330
2321
100
AcDbEntity
  8
文字
 62
     0
100
AcDbMText
 10
145.9217635051778
 20
66.22077369285776
 30
0.0
 40
2.5
 41
0.0
 46
0.0
 71
     5
 72
     1
  1
23
 11
0.0
 21
1.0
 31
0.0
 73
     1
 44
1.0
  0
POINT
  5
232A
330
2321
100
AcDbEntity
  8
Defpoints
 62
     0
100
AcDbPoint
 10
107.1606139059556
 20
77.72115573119366
 30
0.0
  0
POINT
  5
232B
330
2321
100
AcDbEntity
  8
Defpoints
 62
     0
100
AcDbPoint
 10
135.2137598214813
 20
54.72039165452188
 30
0.0
  0
POINT
  5
232C
330
2321
100
AcDbEntity
  8
Defpoints
 62
     0
100
AcDbPoint
 10
147.7967635051778
 20
54.72039165452188
 30
0.0
  0
ENDBLK
  5
2323
330
2321
100
AcDbEntity
  8
0
100
AcDbBlockEnd
  0
BLOCK
  5
232E
330
232D
100
AcDbEntity
  8
0
100
AcDbBlockBegin
  2
*D61
 70
     1
 10
0.0
 20
0.0
 30
0.0
  3
*D61
  1
*D63
  0
LINE
  5
2330
330
232D
100
AcDbEntity
  8
0
 62
     0
370
    -2
100
AcDbLine
 10
56.04808570680446
 20
62.96069472669551
 30
0.0
 11
39.07805748161265
 21
62.96069472669551
 31
0.0
  0
LINE
  5
2331
330
232D
100
AcDbEntity
  8
0
 62
     0
370
    -2
100
AcDbLine
 10
56.01696814683189
 20
54.76117899522286
 30
0.0
 11
39.07805748161265
 21
54.76117899522286
 31
0.0
  0
LINE
  5
2332
330
232D
100
AcDbEntity
  8
0
 62
     0
370
    -2
100
AcDbLine
 10
39.25805748161265
 20
60.96069472669551
 30
0.0
 11
39.25805748161265
 21
56.76117899522286
 31
0.0
  0
SOLID
  5
2333
330
232D
100
AcDbEntity
  8
0
 62
     0
100
AcDbTrace
 10
39.59139081494599
 20
60.96069472669551
 30
0.0
 11
38.92472414827932
 21
60.96069472669551
 31
0.0
 12
39.25805748161265
 22
62.96069472669551
 32
0.0
 13
39.25805748161265
 23
62.96069472669551
 33
0.0
  0
SOLID
  5
2334
330
232D
100
AcDbEntity
  8
0
 62
     0
100
AcDbTrace
 10
38.92472414827932
 20
56.76117899522286
 30
0.0
 11
39.59139081494599
 21
56.76117899522286
 31
0.0
 12
39.25805748161265
 22
54.76117899522286
 32
0.0
 13
39.25805748161265
 23
54.76117899522286
 33
0.0
  0
MTEXT
  5
2335
330
232D
100
AcDbEntity
  8
0
 62
     0
100
AcDbMText
 10
36.66805748161265
 20
58.86093686095919
 30
0.0
 40
2.5
 41
0.0
 46
0.0
 71
     5
 72
     1
  1
\A1;8.2
 73
     1
 44
1.0
  0
POINT
  5
2336
330
232D
100
AcDbEntity
  8
Defpoints
 62
     0
100
AcDbPoint
 10
56.11058570680446
 20
62.96069472669551
 30
0.0
  0
POINT
  5
2337
330
232D
100
AcDbEntity
  8
Defpoints
 62
     0
100
AcDbPoint
 10
56.07946814683189
 20
54.76117899522286
 30
0.0
  0
POINT
  5
2338
330
232D
100
AcDbEntity
  8
Defpoints
 62
     0
100
AcDbPoint
 10
39.25805748161265
 20
54.76117899522286
 30
0.0
  0
ENDBLK
  5
232F
330
232D
100
AcDbEntity
  8
0
100
AcDbBlockEnd
  0
BLOCK
  5
233A
330
2339
100
AcDbEntity
  8
0
100
AcDbBlockBegin
  2
*D62
 70
     1
 10
0.0
 20
0.0
 30
0.0
  3
*D62
  1
*D64
  0
LINE
  5
233C
330
2339
100
AcDbEntity
  8
0
 62
     0
370
    -2
100
AcDbLine
 10
56.13984205979888
 20
54.79533962265424
 30
0.0
 11
56.13984205979888
 21
36.22591119346234
 31
0.0
  0
LINE
  5
233D
330
2339
100
AcDbEntity
  8
0
 62
     0
370
    -2
100
AcDbLine
 10
139.1398420597988
 20
54.79533962265424
 30
0.0
 11
139.1398420597988
 21
36.22591119346234
 31
0.0
  0
LINE
  5
233E
330
2339
100
AcDbEntity
  8
0
 62
     0
370
    -2
100
AcDbLine
 10
58.13984205979888
 20
37.22591119346234
 30
0.0
 11
92.99412451991505
 21
37.22591119346234
 31
0.0
  0
LINE
  5
233F
330
2339
100
AcDbEntity
  8
0
 62
     0
370
    -2
100
AcDbLine
 10
137.1398420597988
 20
37.22591119346234
 30
0.0
 11
102.7574578532484
 21
37.22591119346234
 31
0.0
  0
SOLID
  5
2340
330
2339
100
AcDbEntity
  8
0
 62
     0
100
AcDbTrace
 10
58.13984205979888
 20
37.55924452679568
 30
0.0
 11
58.13984205979888
 21
36.89257786012901
 31
0.0
 12
56.13984205979888
 22
37.22591119346234
 32
0.0
 13
56.13984205979888
 23
37.22591119346234
 33
0.0
  0
SOLID
  5
2341
330
2339
100
AcDbEntity
  8
0
 62
     0
100
AcDbTrace
 10
137.1398420597988
 20
36.89257786012901
 30
0.0
 11
137.1398420597988
 21
37.55924452679568
 31
0.0
 12
139.1398420597988
 22
37.22591119346234
 32
0.0
 13
139.1398420597988
 23
37.22591119346234
 33
0.0
  0
MTEXT
  5
2342
330
2339
100
AcDbEntity
  8
0
 62
     0
100
AcDbMText
 10
97.87579118658172
 20
37.22591119346234
 30
0.0
 40
2.5
 41
0.0
 46
0.0
 71
     5
 72
     1
  1
\A1;%%c83.0
 73
     1
 44
1.0
  0
POINT
  5
2343
330
2339
100
AcDbEntity
  8
Defpoints
 62
     0
100
AcDbPoint
 10
56.13984205979888
 20
55.79533962265424
 30
0.0
  0
POINT
  5
2344
330
2339
100
AcDbEntity
  8
Defpoints
 62
     0
100
AcDbPoint
 10
139.1398420597988
 20
55.79533962265424
 30
0.0
  0
POINT
  5
2345
330
2339
100
AcDbEntity
  8
Defpoints
 62
     0
100
AcDbPoint
 10
139.1398420597988
 20
37.22591119346234
 30
0.0
  0
ENDBLK
  5
233B
330
2339
100
AcDbEntity
  8
0
100
AcDbBlockEnd
  0
BLOCK
  5
241A
330
2419
100
AcDbEntity
  8
0
 62
     1
100
AcDbBlockBegin
  2
*D63
 70
     1
 10
0.0
 20
0.0
 30
0.0
  3
*D63
  1
*D24
  0
LINE
  5
241B
330
2419
100
AcDbEntity
  8
文字
 62
     0
370
    -2
100
AcDbLine
 10
73.61755642434291
 20
41.49524453773132
 30
0.0
 11
114.8787060235651
 21
41.49524453773131
 31
0.0
  0
LINE
  5
241C
330
2419
100
AcDbEntity
  8
文字
 62
     0
370
    -2
100
AcDbLine
 10
105.8081347302512
 20
18.49448046105953
 30
0.0
 11
114.8787060235651
 21
18.49448046105953
 31
0.0
  0
LINE
  5
241D
330
2419
100
AcDbEntity
  8
文字
 62
     0
370
    -2
100
AcDbLine
 10
113.6287060235651
 20
38.99524453773131
 30
0.0
 11
113.6287060235651
 21
20.99448046105953
 31
0.0
  0
SOLID
  5
241E
330
2419
100
AcDbEntity
  8
文字
 62
     0
100
AcDbTrace
 10
114.0453726902318
 20
38.99524453773131
 30
0.0
 11
113.2120393568984
 21
38.99524453773131
 31
0.0
 12
113.6287060235651
 22
41.49524453773131
 32
0.0
 13
113.6287060235651
 23
41.49524453773131
 33
0.0
  0
SOLID
  5
241F
330
2419
100
AcDbEntity
  8
文字
 62
     0
100
AcDbTrace
 10
113.2120393568984
 20
20.99448046105953
 30
0.0
 11
114.0453726902318
 21
20.99448046105953
 31
0.0
 12
113.6287060235651
 22
18.49448046105953
 32
0.0
 13
113.6287060235651
 23
18.49448046105953
 33
0.0
  0
MTEXT
  5
2420
330
2419
100
AcDbEntity
  8
文字
 62
     0
100
AcDbMText
 10
111.7537060235651
 20
29.99486249939542
 30
0.0
 40
2.5
 41
0.0
 46
0.0
 71
     5
 72
     1
  1
23
 11
0.0
 21
1.0
 31
0.0
 73
     1
 44
1.0
  0
POINT
  5
2421
330
2419
100
AcDbEntity
  8
Defpoints
 62
     0
100
AcDbPoint
 10
72.99255642434291
 20
41.49524453773132
 30
0.0
  0
POINT
  5
2422
330
2419
100
AcDbEntity
  8
Defpoints
 62
     0
100
AcDbPoint
 10
105.1831347302512
 20
18.49448046105953
 30
0.0
  0
POINT
  5
2423
330
2419
100
AcDbEntity
  8
Defpoints
 62
     0
100
AcDbPoint
 10
113.6287060235651
 20
18.49448046105953
 30
0.0
  0
ENDBLK
  5
2424
330
2419
100
AcDbEntity
  8
0
 62
     1
100
AcDbBlockEnd
  0
BLOCK
  5
2433
330
2432
100
AcDbEntity
  8
0
100
AcDbBlockBegin
  2
*D64
 70
     1
 10
0.0
 20
0.0
 30
0.0
  3
*D64
  1
*D27
  0
LINE
  5
2434
330
2432
100
AcDbEntity
  8
0
 62
     0
370
    -2
100
AcDbLine
 10
21.82283670212111
 20
25.7364203079044
 30
0.0
 11
4.910000000000004
 21
25.7364203079044
 31
0.0
  0
LINE
  5
2435
330
2432
100
AcDbEntity
  8
0
 62
     0
370
    -2
100
AcDbLine
 10
21.84891066521924
 20
18.53526780176052
 30
0.0
 11
4.910000000000004
 21
18.53526780176052
 31
0.0
  0
LINE
  5
2436
330
2432
100
AcDbEntity
  8
0
 62
     0
370
    -2
100
AcDbLine
 10
5.090000000000003
 20
23.7364203079044
 30
0.0
 11
5.090000000000003
 21
20.53526780176052
 31
0.0
  0
SOLID
  5
2437
330
2432
100
AcDbEntity
  8
0
 62
     0
100
AcDbTrace
 10
5.423333333333336
 20
23.7364203079044
 30
0.0
 11
4.75666666666667
 21
23.7364203079044
 31
0.0
 12
5.090000000000003
 22
25.7364203079044
 32
0.0
 13
5.090000000000003
 23
25.7364203079044
 33
0.0
  0
SOLID
  5
2438
330
2432
100
AcDbEntity
  8
0
 62
     0
100
AcDbTrace
 10
4.75666666666667
 20
20.53526780176052
 30
0.0
 11
5.423333333333336
 21
20.53526780176052
 31
0.0
 12
5.090000000000003
 22
18.53526780176052
 32
0.0
 13
5.090000000000003
 23
18.53526780176052
 33
0.0
  0
MTEXT
  5
2439
330
2432
100
AcDbEntity
  8
0
 62
     0
100
AcDbMText
 10
2.500000000000004
 20
22.13584405483246
 30
0.0
 40
2.5
 41
0.0
 46
0.0
 71
     5
 72
     1
  1
\A1;7.2
 73
     1
 44
1.0
  0
POINT
  5
243A
330
2432
100
AcDbEntity
  8
Defpoints
 62
     0
100
AcDbPoint
 10
21.88533670212111
 20
25.7364203079044
 30
0.0
  0
POINT
  5
243B
330
2432
100
AcDbEntity
  8
Defpoints
 62
     0
100
AcDbPoint
 10
21.91141066521924
 20
18.53526780176052
 30
0.0
  0
POINT
  5
243C
330
2432
100
AcDbEntity
  8
Defpoints
 62
     0
100
AcDbPoint
 10
5.090000000000003
 20
18.53526780176052
 30
0.0
  0
ENDBLK
  5
243D
330
2432
100
AcDbEntity
  8
0
100
AcDbBlockEnd
  0
BLOCK
  5
2441
330
2440
100
AcDbEntity
  8
0
100
AcDbBlockBegin
  2
*D65
 70
     1
 10
0.0
 20
0.0
 30
0.0
  3
*D65
  1
*D30
  0
LINE
  5
2442
330
2440
100
AcDbEntity
  8
0
 62
     0
370
    -2
100
AcDbLine
 10
21.97178457818623
 20
18.56942842919189
 30
0.0
 11
21.97178457818623
 21
0.0
 31
0.0
  0
LINE
  5
2443
330
2440
100
AcDbEntity
  8
0
 62
     0
370
    -2
100
AcDbLine
 10
104.9717845781861
 20
18.56942842919189
 30
0.0
 11
104.9717845781861
 21
0.0
 31
0.0
  0
LINE
  5
2444
330
2440
100
AcDbEntity
  8
0
 62
     0
370
    -2
100
AcDbLine
 10
23.97178457818623
 20
1.0
 30
0.0
 11
102.9717845781861
 21
1.0
 31
0.0
  0
SOLID
  5
2445
330
2440
100
AcDbEntity
  8
0
 62
     0
100
AcDbTrace
 10
23.97178457818623
 20
1.333333333333333
 30
0.0
 11
23.97178457818623
 21
0.6666666666666667
 31
0.0
 12
21.97178457818623
 22
1.0
 32
0.0
 13
21.97178457818623
 23
1.0
 33
0.0
  0
SOLID
  5
2446
330
2440
100
AcDbEntity
  8
0
 62
     0
100
AcDbTrace
 10
102.9717845781861
 20
0.6666666666666667
 30
0.0
 11
102.9717845781861
 21
1.333333333333333
 31
0.0
 12
104.9717845781861
 22
1.0
 32
0.0
 13
104.9717845781861
 23
1.0
 33
0.0
  0
MTEXT
  5
2447
330
2440
100
AcDbEntity
  8
0
 62
     0
100
AcDbMText
 10
63.70773370496907
 20
2.340000000000001
 30
0.0
 40
2.5
 41
0.0
 46
0.0
 71
     5
 72
     1
  1
\A1;%%c83.0
 73
     1
 44
1.0
  0
POINT
  5
2448
330
2440
100
AcDbEntity
  8
Defpoints
 62
     0
100
AcDbPoint
 10
21.97178457818623
 20
19.56942842919189
 30
0.0
  0
POINT
  5
2449
330
2440
100
AcDbEntity
  8
Defpoints
 62
     0
100
AcDbPoint
 10
104.9717845781861
 20
19.56942842919189
 30
0.0
  0
POINT
  5
244A
330
2440
100
AcDbEntity
  8
Defpoints
 62
     0
100
AcDbPoint
 10
104.9717845781861
 20
1.0
 30
0.0
  0
ENDBLK
  5
244B
330
2440
100
AcDbEntity
  8
0
100
AcDbBlockEnd
  0
BLOCK
  5
2474
330
2473
100
AcDbEntity
  8
0
100
AcDbBlockBegin
  2
*D66
 70
     1
 10
0.0
 20
0.0
 30
0.0
  3
*D66
  1
*D67
  0
LINE
  5
2476
330
2473
100
AcDbEntity
  8
文字
 62
     0
370
    -2
100
AcDbLine
 10
107.804993494717
 20
77.79024413092463
 30
0.0
 11
149.0661430939392
 21
77.79024413092463
 31
0.0
  0
LINE
  5
2477
330
2473
100
AcDbEntity
  8
文字
 62
     0
370
    -2
100
AcDbLine
 10
139.9955718006253
 20
54.78948005425286
 30
0.0
 11
149.0661430939392
 21
54.78948005425286
 31
0.0
  0
LINE
  5
2478
330
2473
100
AcDbEntity
  8
文字
 62
     0
370
    -2
100
AcDbLine
 10
147.8161430939392
 20
75.29024413092463
 30
0.0
 11
147.8161430939392
 21
57.28948005425286
 31
0.0
  0
SOLID
  5
2479
330
2473
100
AcDbEntity
  8
文字
 62
     0
100
AcDbTrace
 10
148.2328097606059
 20
75.29024413092463
 30
0.0
 11
147.3994764272726
 21
75.29024413092463
 31
0.0
 12
147.8161430939392
 22
77.79024413092463
 32
0.0
 13
147.8161430939392
 23
77.79024413092463
 33
0.0
  0
SOLID
  5
247A
330
2473
100
AcDbEntity
  8
文字
 62
     0
100
AcDbTrace
 10
147.3994764272726
 20
57.28948005425286
 30
0.0
 11
148.2328097606059
 21
57.28948005425286
 31
0.0
 12
147.8161430939392
 22
54.78948005425286
 32
0.0
 13
147.8161430939392
 23
54.78948005425286
 33
0.0
  0
MTEXT
  5
247B
330
2473
100
AcDbEntity
  8
文字
 62
     0
100
AcDbMText
 10
145.9411430939392
 20
66.28986209258875
 30
0.0
 40
2.5
 41
0.0
 46
0.0
 71
     5
 72
     1
  1
23
 11
0.0
 21
1.0
 31
0.0
 73
     1
 44
1.0
  0
POINT
  5
247C
330
2473
100
AcDbEntity
  8
Defpoints
 62
     0
100
AcDbPoint
 10
107.179993494717
 20
77.79024413092463
 30
0.0
  0
POINT
  5
247D
330
2473
100
AcDbEntity
  8
Defpoints
 62
     0
100
AcDbPoint
 10
139.3705718006253
 20
54.78948005425286
 30
0.0
  0
POINT
  5
247E
330
2473
100
AcDbEntity
  8
Defpoints
 62
     0
100
AcDbPoint
 10
147.8161430939392
 20
54.78948005425286
 30
0.0
  0
ENDBLK
  5
2475
330
2473
100
AcDbEntity
  8
0
100
AcDbBlockEnd
  0
BLOCK
  5
2480
330
247F
100
AcDbEntity
  8
0
100
AcDbBlockBegin
  2
*D67
 70
     1
 10
0.0
 20
0.0
 30
0.0
  3
*D67
  1
*D68
  0
LINE
  5
2482
330
247F
100
AcDbEntity
  8
0
 62
     0
370
    -2
100
AcDbLine
 10
56.01027377249525
 20
62.03141990109773
 30
0.0
 11
39.09743707037414
 21
62.03141990109773
 31
0.0
  0
LINE
  5
2483
330
247F
100
AcDbEntity
  8
0
 62
     0
370
    -2
100
AcDbLine
 10
56.03634773559338
 20
54.83026739495384
 30
0.0
 11
39.09743707037414
 21
54.83026739495384
 31
0.0
  0
LINE
  5
2484
330
247F
100
AcDbEntity
  8
0
 62
     0
370
    -2
100
AcDbLine
 10
39.27743707037414
 20
60.03141990109773
 30
0.0
 11
39.27743707037414
 21
56.83026739495384
 31
0.0
  0
SOLID
  5
2485
330
247F
100
AcDbEntity
  8
0
 62
     0
100
AcDbTrace
 10
39.61077040370748
 20
60.03141990109773
 30
0.0
 11
38.94410373704081
 21
60.03141990109773
 31
0.0
 12
39.27743707037414
 22
62.03141990109773
 32
0.0
 13
39.27743707037414
 23
62.03141990109773
 33
0.0
  0
SOLID
  5
2486
330
247F
100
AcDbEntity
  8
0
 62
     0
100
AcDbTrace
 10
38.94410373704081
 20
56.83026739495384
 30
0.0
 11
39.61077040370748
 21
56.83026739495384
 31
0.0
 12
39.27743707037414
 22
54.83026739495384
 32
0.0
 13
39.27743707037414
 23
54.83026739495384
 33
0.0
  0
MTEXT
  5
2487
330
247F
100
AcDbEntity
  8
0
 62
     0
100
AcDbMText
 10
36.68743707037414
 20
58.43084364802579
 30
0.0
 40
2.5
 41
0.0
 46
0.0
 71
     5
 72
     1
  1
\A1;7.2
 73
     1
 44
1.0
  0
POINT
  5
2488
330
247F
100
AcDbEntity
  8
Defpoints
 62
     0
100
AcDbPoint
 10
56.07277377249525
 20
62.03141990109773
 30
0.0
  0
POINT
  5
2489
330
247F
100
AcDbEntity
  8
Defpoints
 62
     0
100
AcDbPoint
 10
56.09884773559338
 20
54.83026739495384
 30
0.0
  0
POINT
  5
248A
330
247F
100
AcDbEntity
  8
Defpoints
 62
     0
100
AcDbPoint
 10
39.27743707037414
 20
54.83026739495384
 30
0.0
  0
ENDBLK
  5
2481
330
247F
100
AcDbEntity
  8
0
100
AcDbBlockEnd
  0
BLOCK
  5
248C
330
248B
100
AcDbEntity
  8
0
100
AcDbBlockBegin
  2
*D68
 70
     1
 10
0.0
 20
0.0
 30
0.0
  3
*D68
  1
*D69
  0
LINE
  5
248E
330
248B
100
AcDbEntity
  8
0
 62
     0
370
    -2
100
AcDbLine
 10
56.15922164856038
 20
54.86442802238522
 30
0.0
 11
56.15922164856038
 21
36.29499959319333
 31
0.0
  0
LINE
  5
248F
330
248B
100
AcDbEntity
  8
0
 62
     0
370
    -2
100
AcDbLine
 10
139.1592216485602
 20
54.86442802238522
 30
0.0
 11
139.1592216485602
 21
36.29499959319333
 31
0.0
  0
LINE
  5
2490
330
248B
100
AcDbEntity
  8
0
 62
     0
370
    -2
100
AcDbLine
 10
58.15922164856038
 20
37.29499959319333
 30
0.0
 11
137.1592216485602
 21
37.29499959319333
 31
0.0
  0
SOLID
  5
2491
330
248B
100
AcDbEntity
  8
0
 62
     0
100
AcDbTrace
 10
58.15922164856038
 20
37.62833292652667
 30
0.0
 11
58.15922164856038
 21
36.96166625986
 31
0.0
 12
56.15922164856038
 22
37.29499959319333
 32
0.0
 13
56.15922164856038
 23
37.29499959319333
 33
0.0
  0
SOLID
  5
2492
330
248B
100
AcDbEntity
  8
0
 62
     0
100
AcDbTrace
 10
137.1592216485602
 20
36.96166625986
 30
0.0
 11
137.1592216485602
 21
37.62833292652667
 31
0.0
 12
139.1592216485602
 22
37.29499959319333
 32
0.0
 13
139.1592216485602
 23
37.29499959319333
 33
0.0
  0
MTEXT
  5
2493
330
248B
100
AcDbEntity
  8
0
 62
     0
100
AcDbMText
 10
97.89517077534322
 20
38.63499959319333
 30
0.0
 40
2.5
 41
0.0
 46
0.0
 71
     5
 72
     1
  1
\A1;%%c83.0
 73
     1
 44
1.0
  0
POINT
  5
2494
330
248B
100
AcDbEntity
  8
Defpoints
 62
     0
100
AcDbPoint
 10
56.15922164856038
 20
55.86442802238522
 30
0.0
  0
POINT
  5
2495
330
248B
100
AcDbEntity
  8
Defpoints
 62
     0
100
AcDbPoint
 10
139.1592216485602
 20
55.86442802238522
 30
0.0
  0
POINT
  5
2496
330
248B
100
AcDbEntity
  8
Defpoints
 62
     0
100
AcDbPoint
 10
139.1592216485602
 20
37.29499959319333
 30
0.0
  0
ENDBLK
  5
248D
330
248B
100
AcDbEntity
  8
0
100
AcDbBlockEnd
  0
BLOCK
  5
24C2
330
24C1
100
AcDbEntity
  8
0
100
AcDbBlockBegin
  2
*D70
 70
     1
 10
0.0
 20
0.0
 30
0.0
  3
*D70
  1
*D70
  0
LINE
  5
24C3
330
24C1
100
AcDbEntity
  8
文字
 62
     0
370
    -2
100
AcDbLine
 10
16.02145548014449
 20
7.202633936624665
 30
0.0
 11
1.875000000000008
 21
7.202633936624665
 31
0.0
  0
LINE
  5
24C4
330
24C1
100
AcDbEntity
  8
文字
 62
     0
370
    -2
100
AcDbLine
 10
16.21040521820284
 20
0.0
 30
0.0
 11
1.875000000000007
 21
0.000000000000001
 31
0.0
  0
LINE
  5
24C5
330
24C1
100
AcDbEntity
  8
文字
 62
     0
370
    -2
100
AcDbLine
 10
3.125000000000008
 20
4.702633936624665
 30
0.0
 11
3.125000000000007
 21
2.500000000000001
 31
0.0
  0
SOLID
  5
24C6
330
24C1
100
AcDbEntity
  8
文字
 62
     0
100
AcDbTrace
 10
3.541666666666674
 20
4.702633936624665
 30
0.0
 11
2.708333333333341
 21
4.702633936624665
 31
0.0
 12
3.125000000000008
 22
7.202633936624665
 32
0.0
 13
3.125000000000008
 23
7.202633936624665
 33
0.0
  0
SOLID
  5
24C7
330
24C1
100
AcDbEntity
  8
文字
 62
     0
100
AcDbTrace
 10
2.708333333333341
 20
2.500000000000001
 30
0.0
 11
3.541666666666674
 21
2.500000000000001
 31
0.0
 12
3.125000000000007
 22
0.0000000000000009
 32
0.0
 13
3.125000000000007
 23
0.0000000000000009
 33
0.0
  0
MTEXT
  5
24C8
330
24C1
100
AcDbEntity
  8
文字
 62
     0
100
AcDbMText
 10
1.250000000000007
 20
3.166666666666671
 30
0.0
 40
2.5
 41
0.0
 46
0.0
 71
     5
 72
     1
  1
7.2
 11
6.165650146287651E-17
 21
1.0
 31
0.0
 73
     1
 44
1.0
  0
POINT
  5
24C9
330
24C1
100
AcDbEntity
  8
Defpoints
 62
     0
100
AcDbPoint
 10
16.64645548014449
 20
7.202633936624665
 30
0.0
  0
POINT
  5
24CA
330
24C1
100
AcDbEntity
  8
Defpoints
 62
     0
100
AcDbPoint
 10
16.83540521820284
 20
0.0
 30
0.0
  0
POINT
  5
24CB
330
24C1
100
AcDbEntity
  8
Defpoints
 62
     0
100
AcDbPoint
 10
3.125000000000007
 20
0.0000000000000008
 30
0.0
  0
ENDBLK
  5
24CC
330
24C1
100
AcDbEntity
  8
0
100
AcDbBlockEnd
  0
BLOCK
  5
24D3
330
24D2
100
AcDbEntity
  8
0
100
AcDbBlockBegin
  2
*D71
 70
     1
 10
0.0
 20
0.0
 30
0.0
  3
*D71
  1
*D71
  0
LINE
  5
24D5
330
24D2
100
AcDbEntity
  8
文字
 62
     0
370
    -2
100
AcDbLine
 10
56.5080858239026
 20
61.99486364851869
 30
0.0
 11
42.36163034375812
 21
61.99486364851869
 31
0.0
  0
LINE
  5
24D6
330
24D2
100
AcDbEntity
  8
文字
 62
     0
370
    -2
100
AcDbLine
 10
56.69703556196095
 20
54.79222971189402
 30
0.0
 11
42.36163034375812
 21
54.79222971189402
 31
0.0
  0
LINE
  5
24D7
330
24D2
100
AcDbEntity
  8
文字
 62
     0
370
    -2
100
AcDbLine
 10
43.61163034375812
 20
59.49486364851869
 30
0.0
 11
43.61163034375812
 21
57.29222971189402
 31
0.0
  0
SOLID
  5
24D8
330
24D2
100
AcDbEntity
  8
文字
 62
     0
100
AcDbTrace
 10
44.02829701042478
 20
59.49486364851869
 30
0.0
 11
43.19496367709145
 21
59.49486364851869
 31
0.0
 12
43.61163034375812
 22
61.99486364851869
 32
0.0
 13
43.61163034375812
 23
61.99486364851869
 33
0.0
  0
SOLID
  5
24D9
330
24D2
100
AcDbEntity
  8
文字
 62
     0
100
AcDbTrace
 10
43.19496367709145
 20
57.29222971189402
 30
0.0
 11
44.02829701042478
 21
57.29222971189402
 31
0.0
 12
43.61163034375812
 22
54.79222971189402
 32
0.0
 13
43.61163034375812
 23
54.79222971189402
 33
0.0
  0
MTEXT
  5
24DA
330
24D2
100
AcDbEntity
  8
文字
 62
     0
100
AcDbMText
 10
41.73663034375812
 20
57.95889637856069
 30
0.0
 40
2.5
 41
0.0
 46
0.0
 71
     5
 72
     1
  1
7.2
 11
0.0
 21
1.0
 31
0.0
 73
     1
 44
1.0
  0
POINT
  5
24DB
330
24D2
100
AcDbEntity
  8
Defpoints
 62
     0
100
AcDbPoint
 10
57.1330858239026
 20
61.99486364851869
 30
0.0
  0
POINT
  5
24DC
330
24D2
100
AcDbEntity
  8
Defpoints
 62
     0
100
AcDbPoint
 10
57.32203556196095
 20
54.79222971189402
 30
0.0
  0
POINT
  5
24DD
330
24D2
100
AcDbEntity
  8
Defpoints
 62
     0
100
AcDbPoint
 10
43.61163034375812
 20
54.79222971189402
 30
0.0
  0
ENDBLK
  5
24D4
330
24D2
100
AcDbEntity
  8
0
100
AcDbBlockEnd
  0
ENDSEC
  0
SECTION
  2
ENTITIES
  0
MTEXT
  5
B75
330
21
100
AcDbEntity
  8
中心線
100
AcDbMText
 10
112.831139206696
 20
180.2175614817369
 30
0.0
 40
2.5
 41
0.0
 46
0.0
 71
     7
 72
     1
  1

 73
     1
 44
1.0
  0
DIMENSION
  5
1B53
102
{ACAD_REACTORS
330
1B55
102
}
102
{ACAD_XDICTIONARY
360
1B54
102
}
330
21
100
AcDbEntity
  8
文字
100
AcDbDimension
280
     0
  2
*D15
 10
148.0112724132596
 20
77.75947538981868
 30
0.0
 11
146.1362724132595
 21
82.7594759681722
 31
0.0
 70
    32
 71
     5
 42
10.00000115670701
 73
     0
 74
     0
 75
     0
  3
ISO-25
100
AcDbAlignedDimension
 13
111.6381403854829
 23
87.75947654652569
 33
0.0
 14
108.1602099394441
 24
77.75947538981868
 34
0.0
 50
90.0
100
AcDbRotatedDimension
  0
LINE
  5
1B5C
330
21
100
AcDbEntity
  8
実線
100
AcDbLine
 10
88.20115795692845
 20
77.75947538981865
 30
0.0
 11
107.3751228140373
 21
77.75947538981868
 31
0.0
  0
LINE
  5
1B7D
102
{ACAD_REACTORS
330
1B55
102
}
330
21
100
AcDbEntity
  8
実線
100
AcDbLine
 10
87.43814038548288
 20
77.75947538981868
 30
0.0
 11
108.1602099394437
 21
77.75947538981868
 31
0.0
  0
ARC
  5
1B84
102
{ACAD_REACTORS
330
1B55
102
}
330
21
100
AcDbEntity
  8
実線
100
AcDbCircle
 10
108.1381403854828
 20
84.38422535102565
 30
0.0
 40
6.624786722131047
100
AcDbArc
 50
238.1080604549013
 51
301.8919395450987
  0
ARC
  5
1B85
330
21
100
AcDbEntity
  8
実線
100
AcDbCircle
 10
97.78814038548288
 20
101.7207265465256
 30
0.0
 40
23.96124999999989
100
AcDbArc
 50
253.3886475888884
 51
286.6113524111116
  0
ARC
  5
1B86
330
21
100
AcDbEntity
  8
実線
100
AcDbCircle
 10
87.43814038548288
 20
84.38446888334995
 30
0.0
 40
6.624993493531275
100
AcDbArc
 50
238.1091731852506
 51
301.8908268147494
  0
LINE
  5
1B87
330
21
100
AcDbEntity
  8
実線
100
AcDbLine
 10
104.6381403854829
 20
87.75947654652569
 30
0.0
 11
104.6381403854829
 21
78.75947654652569
 31
0.0
  0
LINE
  5
1B88
330
21
100
AcDbEntity
  8
実線
100
AcDbLine
 10
90.93814038548288
 20
87.75947654652569
 30
0.0
 11
90.93814038548288
 21
78.75947654652569
 31
0.0
  0
LWPOLYLINE
  5
1B89
102
{ACAD_REACTORS
330
1B55
102
}
330
21
100
AcDbEntity
  8
実線
100
AcDbPolyline
 90
        4
 70
     0
 43
0.0
 10
111.6381403854829
 20
78.7594765465257
 10
111.6381403854829
 20
87.75947654652569
 10
83.93814038548288
 20
87.75947654652569
 10
83.93814038548288
 20
78.75947654652569
  0
MTEXT
  5
20B8
330
21
100
AcDbEntity
  8
文字・寸法線
 62
     0
100
AcDbMText
 10
108.7879037470929
 20
216.0440950202285
 30
0.0
 40
6.0
 41
0.0
 46
6.0
 71
     9
 72
     1
  1
{\fＭＳ ゴシック|b0|i0|c0|p0;S-B33 M16X180}
 73
     1
 44
1.0
1001
ACAD
1000
ACAD_MTEXT_DEFINED_HEIGHT_BEGIN
1070
    46
1040
6.0
1000
ACAD_MTEXT_DEFINED_HEIGHT_END
  0
LINE
  5
21D5
330
21
100
AcDbEntity
  8
中心線
100
AcDbLine
 10
97.83921923177219
 20
191.1106832728706
 30
0.0
 11
97.8392192317722
 21
46.81280052181528
 31
0.0
  0
DIMENSION
  5
21D6
102
{ACAD_REACTORS
330
21D8
102
}
102
{ACAD_XDICTIONARY
360
21D7
102
}
330
21
100
AcDbEntity
  8
文字
100
AcDbDimension
280
     0
  2
*D50
 10
147.9895816246066
 20
87.75917187607202
 30
0.0
 11
146.1145816246066
 21
137.759171876072
 31
0.0
 70
    32
  1
180
 71
     5
 42
100.0
 73
     0
 74
     0
 75
     0
  3
ISO-25
100
AcDbAlignedDimension
 13
103.7664495968299
 23
187.7591718760721
 33
0.0
 14
111.6164495968299
 24
87.75917187607202
 34
0.0
 50
90.0
100
AcDbRotatedDimension
  0
DIMENSION
  5
21D9
102
{ACAD_REACTORS
330
21DB
102
}
102
{ACAD_XDICTIONARY
360
21DA
102
}
330
21
100
AcDbEntity
  8
文字
100
AcDbDimension
280
     0
  2
*D51
 10
105.7664495968299
 20
194.6464207689539
 30
0.0
 11
97.76644959682989
 21
196.5214207689539
 31
0.0
 70
    32
  1
M16
 71
     5
 42
16.0
 73
     0
 74
     0
 75
     0
  3
ISO-25
100
AcDbAlignedDimension
 13
89.76644959682989
 23
185.7591718760721
 33
0.0
 14
105.7664495968299
 24
185.7591718760721
 34
0.0
100
AcDbRotatedDimension
  0
LINE
  5
21DC
102
{ACAD_REACTORS
330
21DB
102
}
330
21
100
AcDbEntity
  8
実線
370
    20
100
AcDbLine
 10
89.76644959682989
 20
185.7591718760721
 30
0.0
 11
105.7664495968299
 21
185.7591718760721
 31
0.0
  0
LINE
  5
21DD
102
{ACAD_REACTORS
330
21D8
102
}
330
21
100
AcDbEntity
  8
実線
370
    15
100
AcDbLine
 10
103.7664495968299
 20
187.7591718760721
 30
0.0
 11
103.7664495968299
 21
144.378665162003
 31
0.0
  0
LINE
  5
21DE
330
21
100
AcDbEntity
  8
実線
370
    15
100
AcDbLine
 10
91.76644959682989
 20
187.7591718760721
 30
0.0
 11
91.76644959682987
 21
137.3258715567179
 31
0.0
  0
LWPOLYLINE
  5
21DF
330
21
100
AcDbEntity
  8
実線
100
AcDbPolyline
 90
        2
 70
     0
 43
0.0
 10
89.76644959682989
 20
133.6779808696841
 10
89.76644959682989
 20
98.89197155176153
  0
LINE
  5
21E2
330
21
100
AcDbEntity
  8
文字
100
AcDbLine
 10
110.5891887321625
 20
148.3886127406864
 30
0.0
 11
84.59896900532388
 21
133.1133081165698
 31
0.0
  0
LINE
  5
21E3
330
21
100
AcDbEntity
  8
文字
100
AcDbLine
 10
110.5891887321625
 20
145.9161876545335
 30
0.0
 11
84.59896900532388
 21
130.6408830304168
 31
0.0
  0
LINE
  5
21E4
330
21
100
AcDbEntity
  8
実線
370
    15
100
AcDbLine
 10
91.76644959682987
 20
134.853446470565
 30
0.0
 11
91.76644959682987
 21
98.89197155176153
 31
0.0
  0
LINE
  5
21E5
330
21
100
AcDbEntity
  8
実線
370
    15
100
AcDbLine
 10
103.7664495968299
 20
141.90624007585
 30
0.0
 11
103.7664495968299
 21
98.89197155176153
 31
0.0
  0
LWPOLYLINE
  5
21E6
330
21
100
AcDbEntity
  8
実線
100
AcDbPolyline
 90
        6
 70
     0
 43
0.0
 10
105.7664495968299
 20
145.5541307628837
 10
105.7664495968299
 20
185.7591718760721
 10
103.7664495968299
 20
187.7591718760721
 10
91.76644959682989
 20
187.7591718760721
 10
89.76644959682989
 20
185.7591718760721
 10
89.76644959682989
 20
136.1504059558371
  0
LWPOLYLINE
  5
21E7
330
21
100
AcDbEntity
  8
実線
100
AcDbPolyline
 90
        4
 70
     0
 43
0.0
 10
89.76644959682989
 20
98.89197155176153
 10
89.76644959682989
 20
87.75917187607202
 10
105.7664495968299
 20
87.75917187607202
 10
105.7664495968299
 20
98.89197155176154
  0
LINE
  5
21E8
330
21
100
AcDbEntity
  8
実線
370
    15
100
AcDbLine
 10
91.76644959682987
 20
98.89197155176153
 30
0.0
 11
91.76644959682987
 21
87.75917187607202
 31
0.0
  0
LINE
  5
21E9
330
21
100
AcDbEntity
  8
実線
370
    15
100
AcDbLine
 10
103.7664495968299
 20
98.89197155176153
 30
0.0
 11
103.7664495968299
 21
87.75917187607202
 31
0.0
  0
LWPOLYLINE
  5
21EA
330
21
100
AcDbEntity
  8
実線
100
AcDbPolyline
 90
        2
 70
     0
 43
0.0
 10
105.7664495968299
 20
98.89197155176154
 10
105.7664495968299
 20
143.0817056767308
  0
LINE
  5
226C
330
21
100
AcDbEntity
  8
中心線
100
AcDbLine
 10
213.8995477697871
 20
99.20911191723336
 30
0.0
 11
261.3715549950439
 21
99.20911191723336
 31
0.0
  0
LINE
  5
226D
330
21
100
AcDbEntity
  8
中心線
100
AcDbLine
 10
213.8995477697871
 20
99.20911191723336
 30
0.0
 11
165.5287327666655
 21
99.20911191723336
 31
0.0
  0
LINE
  5
226E
330
21
100
AcDbEntity
  8
中心線
100
AcDbLine
 10
213.8995477697871
 20
99.20911191723336
 30
0.0
 11
213.8995477697871
 21
57.39034570428043
 31
0.0
  0
LINE
  5
226F
330
21
100
AcDbEntity
  8
中心線
100
AcDbLine
 10
213.8995477697871
 20
99.20911191723336
 30
0.0
 11
213.8995477697871
 21
144.7469375569837
 31
0.0
  0
DIMENSION
  5
2270
102
{ACAD_REACTORS
330
2272
102
}
102
{ACAD_XDICTIONARY
360
2271
102
}
330
21
100
AcDbEntity
  8
文字
100
AcDbDimension
280
     0
  2
*D55
 10
225.8939996122016
 20
49.46263160255069
 30
0.0
 11
213.8995477697871
 21
51.33763160255069
 31
0.0
 70
    32
  1
24
 71
     5
 42
23.9889036848289
 73
     0
 74
     0
 75
     0
  3
ISO-25
100
AcDbAlignedDimension
 13
201.9050959273727
 23
92.28411191723346
 33
0.0
 14
225.8939996122016
 24
92.28411191723346
 34
0.0
100
AcDbRotatedDimension
  0
DIMENSION
  5
2273
102
{ACAD_REACTORS
330
2275
102
}
102
{ACAD_XDICTIONARY
360
2274
102
}
330
21
100
AcDbEntity
  8
文字
100
AcDbDimension
280
     0
  2
*D56
 10
239.8995477697871
 20
38.87196437006753
 30
0.0
 11
213.9738121119425
 21
38.87196437006753
 31
0.0
 70
   160
  1
%%c<>
 71
     5
 42
52.0
 73
     0
 74
     0
 75
     0
  3
ISO-25
100
AcDbAlignedDimension
 13
187.8995477697871
 23
99.20911191723336
 33
0.0
 14
239.8995477697871
 24
99.20911191723336
 34
0.0
100
AcDbRotatedDimension
  0
CIRCLE
  5
2276
330
21
100
AcDbEntity
  8
実線
370
    20
100
AcDbCircle
 10
213.8995477697871
 20
99.20911191723336
 30
0.0
 40
7.0
  0
CIRCLE
  5
2277
330
21
100
AcDbEntity
  8
実線
100
AcDbCircle
 10
213.8995477697871
 20
99.20911191723336
 30
0.0
 40
8.0
  0
LWPOLYLINE
  5
2278
102
{ACAD_REACTORS
330
2272
102
}
330
21
100
AcDbEntity
  8
実線
100
AcDbPolyline
 90
        6
 70
     1
 43
0.0
 10
225.8939996122016
 20
106.1341119172335
 10
213.8995477697871
 20
113.0591119172335
 10
201.9050959273727
 20
106.1341119172335
 10
201.9050959273727
 20
92.28411191723346
 10
213.8995477697871
 20
85.35911191723345
 10
225.8939996122016
 20
92.28411191723346
  0
CIRCLE
  5
2279
102
{ACAD_REACTORS
330
2275
102
}
330
21
100
AcDbEntity
  8
実線
100
AcDbCircle
 10
213.8995477697871
 20
99.20911191723336
 30
0.0
 40
26.0
  0
CIRCLE
  5
227A
330
21
100
AcDbEntity
  8
実線
 48
0.5
370
    25
100
AcDbCircle
 10
213.5917441163093
 20
99.34648561162956
 30
0.0
 40
41.5
  0
ARC
  5
227B
330
21
100
AcDbEntity
  8
実線
 48
0.5
370
    25
100
AcDbCircle
 10
252.2596777274913
 20
99.03044166113176
 30
0.0
 40
11.03160765086955
100
AcDbArc
 50
98.23697442905808
 51
261.7630255709419
  0
ARC
  5
227C
330
21
100
AcDbEntity
  8
実線
 48
0.5
370
    25
100
AcDbCircle
 10
213.7596777274913
 20
99.03044166113176
 30
0.0
 40
38.5
100
AcDbArc
 50
16.47394885811096
 51
73.52605114189902
  0
ARC
  5
227D
330
21
100
AcDbEntity
  8
実線
 48
0.5
370
    25
100
AcDbCircle
 10
213.7596777274913
 20
137.5304416611318
 30
0.0
 40
11.03160765086955
100
AcDbArc
 50
188.2369744290481
 51
351.7630255709519
  0
ARC
  5
227E
330
21
100
AcDbEntity
  8
実線
 48
0.5
370
    25
100
AcDbCircle
 10
213.7679051138885
 20
60.53044254022117
 30
0.0
 40
11.03160765086955
100
AcDbArc
 50
8.24921844257741
 51
171.7752695844655
  0
ARC
  5
227F
330
21
100
AcDbEntity
  8
実線
 48
0.5
370
    25
100
AcDbCircle
 10
213.7596777274913
 20
99.03044166113176
 30
0.0
 40
38.5
100
AcDbArc
 50
286.48619287163
 51
343.526051141889
  0
ARC
  5
2280
330
21
100
AcDbEntity
  8
実線
 48
0.5
370
    25
100
AcDbCircle
 10
213.7596777274913
 20
99.03044166113176
 30
0.0
 40
38.5
100
AcDbArc
 50
196.4739488581157
 51
253.5382951554127
  0
ARC
  5
2281
330
21
100
AcDbEntity
  8
実線
 48
0.5
370
    25
100
AcDbCircle
 10
175.2596777274913
 20
99.03044166113176
 30
0.0
 40
11.03160765086955
100
AcDbArc
 50
278.2369744290629
 51
81.76302557093715
  0
ARC
  5
2282
330
21
100
AcDbEntity
  8
実線
 48
0.5
370
    25
100
AcDbCircle
 10
213.7596777274913
 20
99.03044166113176
 30
0.0
 40
38.5
100
AcDbArc
 50
106.473948858101
 51
163.5260511418843
  0
DIMENSION
  5
2458
102
{ACAD_XDICTIONARY
360
2459
102
}
330
21
100
AcDbEntity
  8
文字
100
AcDbDimension
280
     0
  2
*D66
 10
147.8161430939392
 20
54.78948005425286
 30
0.0
 11
145.9411430939392
 21
66.28986209258875
 31
0.0
 70
    32
 71
     5
 42
23.00076407667177
 73
     0
 74
     0
 75
     0
  3
ISO-25
100
AcDbAlignedDimension
 13
107.179993494717
 23
77.79024413092463
 33
0.0
 14
139.3705718006253
 24
54.78948005425286
 34
0.0
 50
90.0
100
AcDbRotatedDimension
  0
ARC
  5
245B
330
21
100
AcDbEntity
  8
実線
100
AcDbCircle
 10
95.26978021984533
 20
56.89585293858453
 30
0.0
 40
22.12097806036146
100
AcDbArc
 50
109.1695583937718
 51
166.5601067248915
  0
ARC
  5
245C
330
21
100
AcDbEntity
  8
実線
100
AcDbCircle
 10
99.90669629549802
 20
56.88112059536781
 30
0.0
 40
22.13802834882427
100
AcDbArc
 50
13.51078039934398
 51
70.8196265483096
  0
LINE
  5
245D
330
21
100
AcDbEntity
  8
実線
370
    25
100
AcDbLine
 10
128.129965295566
 20
54.86086374420506
 30
0.0
 11
130.6299652955657
 21
54.86086374420506
 31
0.0
  0
LINE
  5
245E
330
21
100
AcDbEntity
  8
実線
370
    25
100
AcDbLine
 10
132.6299652955657
 20
54.86086374420506
 30
0.0
 11
139.1299652955657
 21
54.86086374420506
 31
0.0
  0
LINE
  5
245F
330
21
100
AcDbEntity
  8
実線
370
    25
100
AcDbLine
 10
69.12996529556595
 20
54.86086374420506
 30
0.0
 11
126.1299652955659
 21
54.86086374420506
 31
0.0
  0
LINE
  5
2460
330
21
100
AcDbEntity
  8
実線
370
    25
100
AcDbLine
 10
64.62996529556595
 20
54.86086374420506
 30
0.0
 11
67.12996529556595
 21
54.86086374420506
 31
0.0
  0
ARC
  5
2461
330
21
100
AcDbEntity
  8
実線
 48
0.5
370
    25
100
AcDbCircle
 10
68.12996529556595
 20
54.86086374420506
 30
0.0
 40
1.0
100
AcDbArc
 50
180.0
 51
0.0
  0
ARC
  5
2462
330
21
100
AcDbEntity
  8
実線
 48
0.5
370
    25
100
AcDbCircle
 10
63.62996529556595
 20
54.86086374420506
 30
0.0
 40
1.0
100
AcDbArc
 50
180.0
 51
0.0
  0
ARC
  5
2463
330
21
100
AcDbEntity
  8
実線
 48
0.5
370
    25
100
AcDbCircle
 10
131.6299652955657
 20
54.86086374420506
 30
0.0
 40
1.0
100
AcDbArc
 50
180.0
 51
0.0
  0
ARC
  5
2464
330
21
100
AcDbEntity
  8
実線
 48
0.5
370
    25
100
AcDbCircle
 10
127.1299652955659
 20
54.86086374420506
 30
0.0
 40
1.0
100
AcDbArc
 50
180.0
 51
0.0
  0
LINE
  5
2465
330
21
100
AcDbEntity
  8
実線
370
    25
100
AcDbLine
 10
56.12996529556595
 20
54.86086374420506
 30
0.0
 11
62.62996529556595
 21
54.86086374420506
 31
0.0
  0
DIMENSION
  5
2468
102
{ACAD_XDICTIONARY
360
2469
102
}
330
21
100
AcDbEntity
  8
0
100
AcDbDimension
280
     0
  2
*D68
 10
139.1592216485602
 20
37.29499959319333
 30
0.0
 11
97.89517077534322
 21
37.29499959319333
 31
0.0
 70
   160
  1
%%c<>
 71
     5
 42
82.99999999999984
 73
     0
 74
     0
 75
     0
  3
Standard
100
AcDbAlignedDimension
 13
56.15922164856038
 23
55.86442802238522
 33
0.0
 14
139.1592216485602
 24
55.86442802238522
 34
0.0
100
AcDbRotatedDimension
1001
ACAD
1000
DSTYLE
1002
{
1070
    77
1070
     1
1070
    41
1040
2.0
1070
    44
1040
1.0
1070
    42
1040
1.0
1070
   271
1070
     1
1070
   140
1040
2.5
1002
}
  0
LINE
  5
246B
330
21
100
AcDbEntity
  8
文字
100
AcDbLine
 10
62.62996529556595
 20
54.86086374420506
 30
0.0
 11
64.62996529556595
 21
54.86086374420506
 31
0.0
  0
LINE
  5
246C
330
21
100
AcDbEntity
  8
文字
100
AcDbLine
 10
64.62996529556595
 20
54.86086374420506
 30
0.0
 11
67.12996529556595
 21
54.86086374420506
 31
0.0
  0
LINE
  5
246D
330
21
100
AcDbEntity
  8
文字
100
AcDbLine
 10
67.12996529556595
 20
54.86086374420506
 30
0.0
 11
69.12996529556595
 21
54.86086374420506
 31
0.0
  0
LINE
  5
246E
330
21
100
AcDbEntity
  8
文字
100
AcDbLine
 10
126.1299652955659
 20
54.86086374420506
 30
0.0
 11
129.3799652955659
 21
54.86086374420506
 31
0.0
  0
LINE
  5
246F
330
21
100
AcDbEntity
  8
文字
100
AcDbLine
 10
129.3799652955659
 20
54.86086374420506
 30
0.0
 11
132.6299652955657
 21
54.86086374420506
 31
0.0
  0
LINE
  5
2470
330
21
100
AcDbEntity
  8
文字
100
AcDbLine
 10
139.3705718006253
 20
62.05916038317193
 30
0.0
 11
56.01027377249525
 21
62.03141990109773
 31
0.0
  0
LINE
  5
2471
330
21
100
AcDbEntity
  8
文字
100
AcDbLine
 10
56.01027377249525
 20
62.03141990109773
 30
0.0
 11
56.12996529556595
 21
54.86086374420506
 31
0.0
  0
LINE
  5
2472
330
21
100
AcDbEntity
  8
文字
100
AcDbLine
 10
139.3705718006253
 20
62.05916038317193
 30
0.0
 11
139.3705718006253
 21
54.78948005425286
 31
0.0
  0
DIMENSION
  5
24D0
102
{ACAD_XDICTIONARY
360
24D1
102
}
330
21
100
AcDbEntity
  8
文字
100
AcDbDimension
280
     0
  2
*D71
 10
43.61163034375812
 20
54.79222971189402
 30
0.0
 11
43.61163034375812
 21
57.95889637856069
 31
0.0
 70
   160
 71
     5
 42
7.202633936624665
 73
     0
 74
     0
 75
     0
  3
ISO-25
100
AcDbAlignedDimension
 13
57.1330858239026
 23
61.99486364851869
 33
0.0
 14
57.32203556196095
 24
54.79222971189402
 34
0.0
 50
90.0
100
AcDbRotatedDimension
  0
VIEWPORT
  5
1CEA
330
1CE6
100
AcDbEntity
 67
     1
  8
0
100
AcDbViewport
 10
203.7291666666666
 20
142.1694444444444
 30
0.0
 40
488.9499999999999
 41
341.2066666666665
 68
     1
 69
     1
 12
203.7291666666666
 22
142.1694444444444
 13
0.0
 23
0.0
 14
0.5
 24
0.5
 15
0.0
 25
0.0
 16
0.0
 26
0.0
 36
1.0
 17
0.0
 27
0.0
 37
0.0
 42
50.0
 43
0.0
 44
0.0
 45
341.2066666666665
 50
0.0
 51
0.0
 72
   100
 90
   557152
  1

281
     0
 71
     1
 74
     0
110
0.0
120
0.0
130
0.0
111
1.0
121
0.0
131
0.0
112
0.0
122
1.0
132
0.0
 79
     0
146
0.0
170
     0
 61
     5
348
1CA8
292
     1
282
     1
141
0.0
142
0.0
 63
   256
361
1CEC
  0
VIEWPORT
  5
1CEB
330
1CE6
100
AcDbEntity
 67
     1
  8
0
100
AcDbViewport
 10
203.7291666666666
 20
142.1694444444444
 30
0.0
 40
325.9666666666666
 41
227.471111111111
 68
     2
 69
     2
 12
157.3696228994798
 22
108.068289154243
 13
0.0
 23
0.0
 14
0.5
 24
0.5
 15
0.0
 25
0.0
 16
0.0
 26
0.0
 36
1.0
 17
0.0
 27
0.0
 37
0.0
 42
50.0
 43
0.0
 44
0.0
 45
163.7247760914911
 50
0.0
 51
0.0
 72
   100
 90
   557152
  1

281
     0
 71
     1
 74
     0
110
0.0
120
0.0
130
0.0
111
1.0
121
0.0
131
0.0
112
0.0
122
1.0
132
0.0
 79
     0
146
0.0
170
     0
 61
     5
348
1CA8
292
     1
282
     1
141
0.0
142
0.0
 63
   256
  0
ENDSEC
  0
SECTION
  2
OBJECTS
  0
DICTIONARY
  5
C
330
0
100
AcDbDictionary
281
     1
  3
AcadDim
350
1271
  3
ACAD_COLOR
350
1C
  3
ACAD_DETAILVIEWSTYLE
350
1CF6
  3
ACAD_GROUP
350
D
  3
ACAD_IMAGE_VARS
350
1CE5
  3
ACAD_LAYOUT
350
1A
  3
ACAD_MATERIAL
350
1B
  3
ACAD_MLEADERSTYLE
350
1CF3
  3
ACAD_MLINESTYLE
350
17
  3
ACAD_PLOTSETTINGS
350
19
  3
ACAD_PLOTSTYLENAME
350
E
  3
ACAD_SCALELIST
350
1CBC
  3
ACAD_SECTIONVIEWSTYLE
350
1CF7
  3
ACAD_TABLESTYLE
350
1CE1
  3
ACAD_VISUALSTYLE
350
1CA3
  3
AcDbVariableDictionary
350
13CA
  3
ACDB_RECOMPOSE_DATA
350
24E0
  3
APPDATA
350
1CE3
  0
SUN
  5
1CED
330
1C92
100
AcDbSun
 90
        1
290
     0
 63
     7
421
 16777215
 40
1.0
291
     1
 91
  2455826
 92
 54000000
292
     0
 70
     2
 71
   256
280
     1
  0
DICTIONARY
  5
1A12
330
1A11
100
AcDbDictionary
280
     1
281
     1
  3
ACAD_DIMASSOC
360
1A13
  0
DICTIONARY
  5
1A17
330
1A16
100
AcDbDictionary
280
     1
281
     1
  3
ACAD_DIMASSOC
360
1A18
  0
DICTIONARY
  5
1A1A
330
1A19
100
AcDbDictionary
280
     1
281
     1
  3
ACAD_DIMASSOC
360
1A1B
  0
DICTIONARY
  5
1A1D
330
1A1C
100
AcDbDictionary
280
     1
281
     1
  3
ACAD_DIMASSOC
360
1A1E
  0
DICTIONARY
  5
1A21
330
1A20
100
AcDbDictionary
280
     1
281
     1
  3
ACAD_DIMASSOC
360
1A22
  0
DICTIONARY
  5
1A28
330
1A27
100
AcDbDictionary
280
     1
281
     1
  3
ACAD_DIMASSOC
360
1A29
  0
DICTIONARY
  5
1A2B
330
1A2A
100
AcDbDictionary
280
     1
281
     1
  3
ACAD_DIMASSOC
360
1A2C
  0
DICTIONARY
  5
1A31
330
1A30
100
AcDbDictionary
280
     1
281
     1
  3
ACAD_DIMASSOC
360
1A32
  0
DICTIONARY
  5
1B54
330
1B53
100
AcDbDictionary
280
     1
281
     1
  3
ACAD_DIMASSOC
360
1B55
  0
DICTIONARY
  5
21D7
330
21D6
100
AcDbDictionary
280
     1
281
     1
  3
ACAD_DIMASSOC
360
21D8
  0
DICTIONARY
  5
21DA
330
21D9
100
AcDbDictionary
280
     1
281
     1
  3
ACAD_DIMASSOC
360
21DB
  0
DICTIONARY
  5
2271
330
2270
100
AcDbDictionary
280
     1
281
     1
  3
ACAD_DIMASSOC
360
2272
  0
DICTIONARY
  5
2274
330
2273
100
AcDbDictionary
280
     1
281
     1
  3
ACAD_DIMASSOC
360
2275
  0
DICTIONARY
  5
2459
330
2458
100
AcDbDictionary
280
     1
281
     1
  0
DICTIONARY
  5
2469
330
2468
100
AcDbDictionary
280
     1
281
     1
  0
DICTIONARY
  5
24D1
330
24D0
100
AcDbDictionary
280
     1
281
     1
  0
SUN
  5
1CEC
330
1CEA
100
AcDbSun
 90
        1
290
     0
 63
     7
421
 16777215
 40
1.0
291
     1
 91
  2455826
 92
 54000000
292
     0
 70
     2
 71
   256
280
     1
  0
XRECORD
  5
1271
102
{ACAD_REACTORS
330
C
102
}
330
C
100
AcDbXrecord
280
     1
 90
   990106
  3

 60
     0
 61
     0
 62
     4
 63
     4
 64
     1
 65
     0
 66
     0
 67
     3
 68
     1
 69
     0
 70
     0
 71
     0
 72
     0
 40
0.0
170
     2
340
0
  0
DICTIONARY
  5
1C
102
{ACAD_REACTORS
330
C
102
}
330
C
100
AcDbDictionary
281
     1
  0
DICTIONARY
  5
1CF6
102
{ACAD_REACTORS
330
C
102
}
330
C
100
AcDbDictionary
281
     1
  0
DICTIONARY
  5
D
102
{ACAD_REACTORS
330
C
102
}
330
C
100
AcDbDictionary
281
     1
  0
RASTERVARIABLES
  5
1CE5
102
{ACAD_REACTORS
330
C
102
}
330
C
100
AcDbRasterVariables
 90
        0
 70
     1
 71
     1
 72
     1
  0
DICTIONARY
  5
1A
102
{ACAD_REACTORS
330
C
102
}
330
C
100
AcDbDictionary
281
     1
  3
Model
350
24
  3
Sheet1
350
1CE7
  0
DICTIONARY
  5
1B
102
{ACAD_REACTORS
330
C
102
}
330
C
100
AcDbDictionary
281
     1
  3
ByBlock
350
1CDF
  3
ByLayer
350
1CDE
  3
Global
350
1CE0
  0
DICTIONARY
  5
1CF3
102
{ACAD_REACTORS
330
C
102
}
330
C
100
AcDbDictionary
281
     1
  0
DICTIONARY
  5
17
102
{ACAD_REACTORS
330
C
102
}
330
C
100
AcDbDictionary
281
     1
  3
Standard
350
18
  0
DICTIONARY
  5
19
102
{ACAD_REACTORS
330
C
102
}
330
C
100
AcDbDictionary
281
     1
  0
ACDBDICTIONARYWDFLT
  5
E
102
{ACAD_REACTORS
330
C
102
}
330
C
100
AcDbDictionary
281
     1
  3
Normal
350
F
100
AcDbDictionaryWithDefault
340
F
  0
DICTIONARY
  5
1CBC
102
{ACAD_REACTORS
330
C
102
}
330
C
100
AcDbDictionary
281
     1
  3
A0
350
1CBD
  3
A1
350
1CBE
  3
A2
350
1CBF
  3
A3
350
1CC0
  3
A4
350
1CC1
  3
A5
350
1CC2
  3
A6
350
1CC3
  3
A7
350
1CC4
  3
A8
350
1CC5
  3
A9
350
1CC6
  3
B0
350
1CC7
  3
B1
350
1CC8
  3
B2
350
1CC9
  3
B3
350
1CCA
  3
B4
350
1CCB
  3
B5
350
1CCC
  3
B6
350
1CCD
  3
B7
350
1CCE
  3
B8
350
1CCF
  3
B9
350
1CD0
  3
C0
350
1CD1
  3
C1
350
1CD2
  3
C2
350
1CD3
  3
C3
350
1CD4
  3
C4
350
1CD5
  3
C5
350
1CD6
  3
C6
350
1CD7
  3
C7
350
1CD8
  3
C8
350
1CD9
  3
C9
350
1CDA
  3
D0
350
1CDB
  3
D1
350
1CDC
  3
D2
350
1CDD
  0
DICTIONARY
  5
1CF7
102
{ACAD_REACTORS
330
C
102
}
330
C
100
AcDbDictionary
281
     1
  0
DICTIONARY
  5
1CE1
102
{ACAD_REACTORS
330
C
102
}
330
C
100
AcDbDictionary
281
     1
  3
Standard
350
1CE2
  0
DICTIONARY
  5
1CA3
102
{ACAD_REACTORS
330
C
102
}
330
C
100
AcDbDictionary
281
     1
  3
2dWireframe
350
1CA8
  3
Basic
350
1CAB
  3
Brighten
350
1CAF
  3
ColorChange
350
1CB3
  3
Conceptual
350
1CAD
  3
Dim
350
1CAE
  3
EdgeColorOff
350
1CB6
  3
Facepattern
350
1CB2
  3
Flat
350
1CA4
  3
FlatWithEdges
350
1CA5
  3
Gouraud
350
1CA6
  3
GouraudWithEdges
350
1CA7
  3
Hidden
350
1CAA
  3
JitterOff
350
1CB4
  3
Linepattern
350
1CB1
  3
OverhangOff
350
1CB5
  3
Realistic
350
1CAC
  3
Shaded
350
1CBB
  3
Shaded with edges
350
1CBA
  3
Shades of Gray
350
1CB7
  3
Sketchy
350
1CB8
  3
Thicken
350
1CB0
  3
Wireframe
350
1CA9
  3
X-Ray
350
1CB9
  0
DICTIONARY
  5
13CA
102
{ACAD_REACTORS
330
C
102
}
330
C
100
AcDbDictionary
281
     1
  3
CANNOSCALE
350
1CEE
  3
CTABLESTYLE
350
1CF2
  3
DIMASSOC
350
13CC
  3
HIDETEXT
350
13CB
  3
MSLTSCALE
350
1CF4
  3
PROJECTNAME
350
13CD
  3
XCLIPFRAME
350
1CF5
  0
XRECORD
  5
24E0
102
{ACAD_REACTORS
330
C
102
}
330
C
100
AcDbXrecord
280
     1
 90
        1
330
1CE2
  0
DICTIONARY
  5
1CE3
102
{ACAD_REACTORS
330
C
102
}
330
C
100
AcDbDictionary
281
     1
  0
DIMASSOC
  5
1A13
102
{ACAD_REACTORS
330
1A12
102
}
330
1A12
100
AcDbDimAssoc
330
1A11
 90
        3
 70
     0
 71
     0
  1
AcDbOsnapPointRef
 72
     1
331
1A48
 73
     2
 91
        0
 40
1.0
 10
0.0
 20
0.0
 30
2.000000000000000E+50
 75
     0
  1
AcDbOsnapPointRef
 72
    13
331
1A23
 73
     2
 91
        0
 40
0.0
 10
0.0
 20
0.0
 30
2.000000000000000E+50
 75
     0
  0
DIMASSOC
  5
1A18
102
{ACAD_REACTORS
330
1A17
102
}
330
1A17
100
AcDbDimAssoc
330
1A16
 90
        3
 70
     0
 71
     0
  1
AcDbOsnapPointRef
 72
     1
331
1A3B
 73
     2
 91
        1
 40
1.0
 10
0.0
 20
0.0
 30
2.000000000000000E+50
 75
     0
  1
AcDbOsnapPointRef
 72
    13
331
1A23
 73
     2
 91
        0
 40
0.0
 10
0.0
 20
0.0
 30
2.000000000000000E+50
 75
     0
  0
DIMASSOC
  5
1A1B
102
{ACAD_REACTORS
330
1A1A
102
}
330
1A1A
100
AcDbDimAssoc
330
1A19
 90
        3
 70
     0
 71
     0
  1
AcDbOsnapPointRef
 72
     6
331
1A34
 73
     2
 91
        0
 40
1.0
 10
0.0
 20
0.0
 30
0.0
332
1A44
 74
     2
 92
        0
 75
     0
  1
AcDbOsnapPointRef
 72
     1
331
1A3B
 73
     2
 91
        1
 40
1.0
 10
0.0
 20
0.0
 30
2.000000000000000E+50
 75
     0
  0
DIMASSOC
  5
1A1E
102
{ACAD_REACTORS
330
1A1D
102
}
330
1A1D
100
AcDbDimAssoc
330
1A1C
 90
        3
 70
     0
 71
     0
  1
AcDbOsnapPointRef
 72
     1
331
1A48
 73
     2
 91
        0
 40
1.0
 10
0.0
 20
0.0
 30
2.000000000000000E+50
 75
     0
  1
AcDbOsnapPointRef
 72
     6
331
1A34
 73
     2
 91
        0
 40
1.0
 10
0.0
 20
0.0
 30
0.0
332
1A44
 74
     2
 92
        0
 75
     0
  0
DIMASSOC
  5
1A22
102
{ACAD_REACTORS
330
1A21
102
}
330
1A21
100
AcDbDimAssoc
330
1A20
 90
        3
 70
     0
 71
     0
  1
AcDbOsnapPointRef
 72
    13
331
1A25
 73
     2
 91
        0
 40
0.0
 10
0.0
 20
0.0
 30
2.000000000000000E+50
 75
     0
  1
AcDbOsnapPointRef
 72
     1
331
1A25
 73
     2
 91
        0
 40
1.0
 10
0.0
 20
0.0
 30
2.000000000000000E+50
 75
     0
  0
DIMASSOC
  5
1A29
102
{ACAD_REACTORS
330
1A28
102
}
330
1A28
100
AcDbDimAssoc
330
1A27
 90
        3
 70
     0
 71
     0
  1
AcDbOsnapPointRef
 72
     2
331
1A2F
 73
     2
 91
        3
 40
0.5
 10
0.0
 20
0.0
 30
0.0
 75
     0
  1
AcDbOsnapPointRef
 72
     6
331
1A2F
 73
     2
 91
        6
 40
0.5000000000000038
 10
0.0
 20
0.0
 30
0.0
332
1A3C
 74
     2
 92
        0
 75
     0
  0
DIMASSOC
  5
1A2C
102
{ACAD_REACTORS
330
1A2B
102
}
330
1A2B
100
AcDbDimAssoc
330
1A2A
 90
        3
 70
     0
 71
     0
  1
AcDbOsnapPointRef
 72
    13
331
1A46
 73
     2
 91
        0
 40
0.0
 10
0.0
 20
0.0
 30
2.000000000000000E+50
 75
     0
  1
AcDbOsnapPointRef
 72
    13
331
1A49
 73
     2
 91
        0
 40
0.0
 10
0.0
 20
0.0
 30
2.000000000000000E+50
 75
     0
  0
DIMASSOC
  5
1A32
102
{ACAD_REACTORS
330
1A31
102
}
330
1A31
100
AcDbDimAssoc
330
1A30
 90
        3
 70
     0
 71
     0
  1
AcDbOsnapPointRef
 72
     5
331
1A40
 73
     2
 91
        0
 40
3.141592653589793
 10
0.0
 20
0.0
 30
0.0
 75
     0
  1
AcDbOsnapPointRef
 72
     5
331
1A40
 73
     2
 91
        0
 40
0.0
 10
0.0
 20
0.0
 30
0.0
 75
     0
  0
DIMASSOC
  5
1B55
102
{ACAD_REACTORS
330
1B54
102
}
330
1B54
100
AcDbDimAssoc
330
1B53
 90
        3
 70
     0
 71
     0
  1
AcDbOsnapPointRef
 72
     1
331
1B89
 73
     2
 91
        1
 40
1.0
 10
0.0
 20
0.0
 30
2.000000000000000E+50
 75
     0
  1
AcDbOsnapPointRef
 72
     6
331
1B7D
 73
     2
 91
        0
 40
1.0
 10
0.0
 20
0.0
 30
0.0
332
1B84
 74
     2
 92
        0
 75
     0
  0
DIMASSOC
  5
21D8
102
{ACAD_REACTORS
330
21D7
102
}
330
21D7
100
AcDbDimAssoc
330
21D6
 90
        1
 70
     0
 71
     0
  1
AcDbOsnapPointRef
 72
    13
331
21DD
 73
     2
 91
        0
 40
0.0
 10
0.0
 20
0.0
 30
2.000000000000000E+50
 75
     0
  0
DIMASSOC
  5
21DB
102
{ACAD_REACTORS
330
21DA
102
}
330
21DA
100
AcDbDimAssoc
330
21D9
 90
        1
 70
     0
 71
     0
  1
AcDbOsnapPointRef
 72
    13
331
21DC
 73
     2
 91
        0
 40
0.0
 10
0.0
 20
0.0
 30
2.000000000000000E+50
 75
     0
  0
DIMASSOC
  5
2272
102
{ACAD_REACTORS
330
2271
102
}
330
2271
100
AcDbDimAssoc
330
2270
 90
        3
 70
     0
 71
     0
  1
AcDbOsnapPointRef
 72
     1
331
2278
 73
     2
 91
        3
 40
1.0
 10
0.0
 20
0.0
 30
2.000000000000000E+50
 75
     0
  1
AcDbOsnapPointRef
 72
     1
331
2278
 73
     2
 91
        5
 40
1.0
 10
0.0
 20
0.0
 30
2.000000000000000E+50
 75
     0
  0
DIMASSOC
  5
2275
102
{ACAD_REACTORS
330
2274
102
}
330
2274
100
AcDbDimAssoc
330
2273
 90
        3
 70
     0
 71
     0
  1
AcDbOsnapPointRef
 72
     5
331
2279
 73
     2
 91
        0
 40
3.141592653589793
 10
0.0
 20
0.0
 30
0.0
 75
     0
  1
AcDbOsnapPointRef
 72
     5
331
2279
 73
     2
 91
        0
 40
0.0
 10
0.0
 20
0.0
 30
0.0
 75
     0
  0
LAYOUT
  5
24
102
{ACAD_REACTORS
330
1A
102
}
330
1A
100
AcDbPlotSettings
  1

  2
\\SF05\Brother HL-1440 series
  4
A4
  6

 40
6.72041654586792
 41
5.027085304260254
 42
6.889755249023438
 43
5.027069091796875
 44
209.9733276367188
 45
296.9259948730469
 46
-6.82
 47
-5.06
 48
0.0
 49
0.0
140
297.0000000000001
141
210.0
142
1.0
143
1.0
 70
 11956
 72
     1
 73
     1
 74
     4
  7

 75
    16
 76
     0
 77
     2
 78
   300
147
1.0
148
0.0
149
0.0
100
AcDbLayout
  1
Model
 70
     1
 71
     0
 10
0.0
 20
0.0
 11
12.0
 21
9.0
 12
0.0
 22
0.0
 32
0.0
 14
35.64504660423576
 24
36.29499959319333
 34
0.0
 15
261.3715549950439
 25
222.0440950202285
 35
0.0
146
0.0
 13
0.0
 23
0.0
 33
0.0
 16
1.0
 26
0.0
 36
0.0
 17
0.0
 27
1.0
 37
0.0
 76
     0
330
21
331
1C92
  0
LAYOUT
  5
1CE7
102
{ACAD_REACTORS
330
1A
102
}
330
1A
100
AcDbPlotSettings
  1

  2
none_device
  4
iso-a3
  6

 40
6.35
 41
6.35
 42
6.35
 43
6.35
 44
297.0388888888888
 45
420.1583333333333
 46
0.0
 47
0.0
 48
0.0
 49
0.0
140
0.0
141
0.0
142
1.0
143
1.0
 70
   688
 72
     1
 73
     1
 74
     5
  7

 75
    16
 76
     0
 77
     2
 78
   300
147
1.0
148
0.0
149
0.0
100
AcDbLayout
  1
Sheet1
 70
     1
 71
     1
 10
0.0
 20
0.0
 11
0.0
 21
0.0
 12
0.0
 22
0.0
 32
0.0
 14
0.0
 24
0.0
 34
0.0
 15
0.0
 25
0.0
 35
0.0
146
0.0
 13
0.0
 23
0.0
 33
0.0
 16
1.0
 26
0.0
 36
0.0
 17
0.0
 27
1.0
 37
0.0
 76
     0
330
1CE6
331
1CEA
  0
MATERIAL
  5
1CDF
102
{ACAD_REACTORS
330
1B
102
}
330
1B
100
AcDbMaterial
  1
ByBlock
 72
     1
 94
      127
  0
MATERIAL
  5
1CDE
102
{ACAD_REACTORS
330
1B
102
}
330
1B
100
AcDbMaterial
  1
ByLayer
 72
     1
 94
      127
  0
MATERIAL
  5
1CE0
102
{ACAD_REACTORS
330
1B
102
}
330
1B
100
AcDbMaterial
  1
Global
 72
     1
 94
      127
  0
MLINESTYLE
  5
18
102
{ACAD_REACTORS
330
17
102
}
330
17
100
AcDbMlineStyle
  2
STANDARD
 70
     0
  3

 62
   256
 51
90.0
 52
90.0
 71
     2
 49
0.5
 62
   256
  6
BYLAYER
 49
-0.5
 62
   256
  6
BYLAYER
  0
ACDBPLACEHOLDER
  5
F
102
{ACAD_REACTORS
330
E
102
}
330
E
  0
SCALE
  5
1CBD
102
{ACAD_REACTORS
330
1CBC
102
}
330
1CBC
100
AcDbScale
 70
     0
300
1:1
140
1.0
141
1.0
290
     1
  0
SCALE
  5
1CBE
102
{ACAD_REACTORS
330
1CBC
102
}
330
1CBC
100
AcDbScale
 70
     0
300
1:2
140
1.0
141
2.0
290
     0
  0
SCALE
  5
1CBF
102
{ACAD_REACTORS
330
1CBC
102
}
330
1CBC
100
AcDbScale
 70
     0
300
1:4
140
1.0
141
4.0
290
     0
  0
SCALE
  5
1CC0
102
{ACAD_REACTORS
330
1CBC
102
}
330
1CBC
100
AcDbScale
 70
     0
300
1:5
140
1.0
141
5.0
290
     0
  0
SCALE
  5
1CC1
102
{ACAD_REACTORS
330
1CBC
102
}
330
1CBC
100
AcDbScale
 70
     0
300
1:8
140
1.0
141
8.0
290
     0
  0
SCALE
  5
1CC2
102
{ACAD_REACTORS
330
1CBC
102
}
330
1CBC
100
AcDbScale
 70
     0
300
1:10
140
1.0
141
10.0
290
     0
  0
SCALE
  5
1CC3
102
{ACAD_REACTORS
330
1CBC
102
}
330
1CBC
100
AcDbScale
 70
     0
300
1:16
140
1.0
141
16.0
290
     0
  0
SCALE
  5
1CC4
102
{ACAD_REACTORS
330
1CBC
102
}
330
1CBC
100
AcDbScale
 70
     0
300
1:20
140
1.0
141
20.0
290
     0
  0
SCALE
  5
1CC5
102
{ACAD_REACTORS
330
1CBC
102
}
330
1CBC
100
AcDbScale
 70
     0
300
1:30
140
1.0
141
30.0
290
     0
  0
SCALE
  5
1CC6
102
{ACAD_REACTORS
330
1CBC
102
}
330
1CBC
100
AcDbScale
 70
     0
300
1:40
140
1.0
141
40.0
290
     0
  0
SCALE
  5
1CC7
102
{ACAD_REACTORS
330
1CBC
102
}
330
1CBC
100
AcDbScale
 70
     0
300
1:50
140
1.0
141
50.0
290
     0
  0
SCALE
  5
1CC8
102
{ACAD_REACTORS
330
1CBC
102
}
330
1CBC
100
AcDbScale
 70
     0
300
1:100
140
1.0
141
100.0
290
     0
  0
SCALE
  5
1CC9
102
{ACAD_REACTORS
330
1CBC
102
}
330
1CBC
100
AcDbScale
 70
     0
300
2:1
140
2.0
141
1.0
290
     0
  0
SCALE
  5
1CCA
102
{ACAD_REACTORS
330
1CBC
102
}
330
1CBC
100
AcDbScale
 70
     0
300
4:1
140
4.0
141
1.0
290
     0
  0
SCALE
  5
1CCB
102
{ACAD_REACTORS
330
1CBC
102
}
330
1CBC
100
AcDbScale
 70
     0
300
8:1
140
8.0
141
1.0
290
     0
  0
SCALE
  5
1CCC
102
{ACAD_REACTORS
330
1CBC
102
}
330
1CBC
100
AcDbScale
 70
     0
300
10:1
140
10.0
141
1.0
290
     0
  0
SCALE
  5
1CCD
102
{ACAD_REACTORS
330
1CBC
102
}
330
1CBC
100
AcDbScale
 70
     0
300
100:1
140
100.0
141
1.0
290
     0
  0
SCALE
  5
1CCE
102
{ACAD_REACTORS
330
1CBC
102
}
330
1CBC
100
AcDbScale
 70
     0
300
1/128" = 1'-0"
140
0.0078125
141
12.0
290
     0
  0
SCALE
  5
1CCF
102
{ACAD_REACTORS
330
1CBC
102
}
330
1CBC
100
AcDbScale
 70
     0
300
1/64" = 1'-0"
140
0.015625
141
12.0
290
     0
  0
SCALE
  5
1CD0
102
{ACAD_REACTORS
330
1CBC
102
}
330
1CBC
100
AcDbScale
 70
     0
300
1/32" = 1'-0"
140
0.03125
141
12.0
290
     0
  0
SCALE
  5
1CD1
102
{ACAD_REACTORS
330
1CBC
102
}
330
1CBC
100
AcDbScale
 70
     0
300
1/16" = 1'-0"
140
0.0625
141
12.0
290
     0
  0
SCALE
  5
1CD2
102
{ACAD_REACTORS
330
1CBC
102
}
330
1CBC
100
AcDbScale
 70
     0
300
3/32" = 1'-0"
140
0.09375
141
12.0
290
     0
  0
SCALE
  5
1CD3
102
{ACAD_REACTORS
330
1CBC
102
}
330
1CBC
100
AcDbScale
 70
     0
300
1/8" = 1'-0"
140
0.125
141
12.0
290
     0
  0
SCALE
  5
1CD4
102
{ACAD_REACTORS
330
1CBC
102
}
330
1CBC
100
AcDbScale
 70
     0
300
3/16" = 1'-0"
140
0.1875
141
12.0
290
     0
  0
SCALE
  5
1CD5
102
{ACAD_REACTORS
330
1CBC
102
}
330
1CBC
100
AcDbScale
 70
     0
300
1/4" = 1'-0"
140
0.25
141
12.0
290
     0
  0
SCALE
  5
1CD6
102
{ACAD_REACTORS
330
1CBC
102
}
330
1CBC
100
AcDbScale
 70
     0
300
3/8" = 1'-0"
140
0.375
141
12.0
290
     0
  0
SCALE
  5
1CD7
102
{ACAD_REACTORS
330
1CBC
102
}
330
1CBC
100
AcDbScale
 70
     0
300
1/2" = 1'-0"
140
0.5
141
12.0
290
     0
  0
SCALE
  5
1CD8
102
{ACAD_REACTORS
330
1CBC
102
}
330
1CBC
100
AcDbScale
 70
     0
300
3/4" = 1'-0"
140
0.75
141
12.0
290
     0
  0
SCALE
  5
1CD9
102
{ACAD_REACTORS
330
1CBC
102
}
330
1CBC
100
AcDbScale
 70
     0
300
1" = 1'-0"
140
1.0
141
12.0
290
     0
  0
SCALE
  5
1CDA
102
{ACAD_REACTORS
330
1CBC
102
}
330
1CBC
100
AcDbScale
 70
     0
300
1-1/2" = 1'-0"
140
1.5
141
12.0
290
     0
  0
SCALE
  5
1CDB
102
{ACAD_REACTORS
330
1CBC
102
}
330
1CBC
100
AcDbScale
 70
     0
300
3" = 1'-0"
140
3.0
141
12.0
290
     0
  0
SCALE
  5
1CDC
102
{ACAD_REACTORS
330
1CBC
102
}
330
1CBC
100
AcDbScale
 70
     0
300
6" = 1'-0"
140
6.0
141
12.0
290
     0
  0
SCALE
  5
1CDD
102
{ACAD_REACTORS
330
1CBC
102
}
330
1CBC
100
AcDbScale
 70
     0
300
1'-0" = 1'-0"
140
12.0
141
12.0
290
     0
  0
TABLESTYLE
  5
1CE2
102
{ACAD_REACTORS
330
1CE1
102
}
102
{ACAD_XDICTIONARY
360
24DE
102
}
330
1CE1
100
AcDbTableStyle
  3
Standard
 70
     0
 71
     0
 40
0.06
 41
0.06
280
     0
281
     0
  7
Standard
140
4.5
170
     2
 62
     0
 63
   257
283
     0
 90
        4
 91
        0
  1

274
    -2
284
     1
 64
     0
275
    -2
285
     1
 65
     0
276
    -2
286
     1
 66
     0
277
    -2
287
     1
 67
     0
278
    -2
288
     1
 68
     0
279
    -2
289
     1
 69
     0
  7
Standard
140
6.0
170
     5
 62
     0
 63
   257
283
     0
 90
        4
 91
        0
  1

274
    -2
284
     1
 64
     0
275
    -2
285
     1
 65
     0
276
    -2
286
     1
 66
     0
277
    -2
287
     1
 67
     0
278
    -2
288
     1
 68
     0
279
    -2
289
     1
 69
     0
  7
Standard
140
4.5
170
     5
 62
     0
 63
   257
283
     0
 90
        4
 91
        0
  1

274
    -2
284
     1
 64
     0
275
    -2
285
     1
 65
     0
276
    -2
286
     1
 66
     0
277
    -2
287
     1
 67
     0
278
    -2
288
     1
 68
     0
279
    -2
289
     1
 69
     0
  0
VISUALSTYLE
  5
1CA8
102
{ACAD_REACTORS
330
1CA3
102
}
330
1CA3
100
AcDbVisualStyle
  2
2dWireframe
 70
     4
177
     3
291
     0
 70
    58
 90
        0
176
     1
 90
        2
176
     1
 90
        0
176
     1
 90
        0
176
     1
 40
0.6
176
     1
 40
30.0
176
     1
 62
     7
420
 16777215
176
     1
 90
        1
176
     1
 90
        4
176
     1
 62
     7
176
     1
 62
   257
176
     1
 90
        1
176
     1
 90
        1
176
     1
 40
1.0
176
     1
 90
        0
176
     1
 62
   257
176
     1
 40
1.0
176
     1
 90
        1
176
     1
 90
        6
176
     1
 90
        2
176
     1
 62
     7
176
     1
 90
        5
176
     1
 90
        0
176
     1
 90
        0
176
     1
290
     0
176
     1
 90
        1
176
     1
 40
0.0
176
     1
 90
        0
176
     1
290
     1
176
     1
290
     1
176
     1
290
     0
176
     1
290
     0
176
     1
290
     0
176
     1
290
     0
176
     1
290
     0
176
     1
290
     0
176
     1
290
     0
176
     1
 90
       50
176
     1
 40
0.0
176
     1
 40
1.0
176
     1
 90
        0
176
     1
 62
   178
420
        0
176
     1
 90
       50
176
     1
 90
        3
176
     1
 62
     5
420
      255
176
     1
290
     0
176
     1
 90
       50
176
     1
 90
       50
176
     1
 90
       50
176
     1
290
     0
176
     1
 90
       50
176
     1
 62
   256
176
     0
 40
1.0
176
     0
 90
        2
176
     1
  1
strokes_ogs.tif
176
     1
290
     0
176
     1
 40
1.0
176
     1
 40
1.0
176
     1
  0
VISUALSTYLE
  5
1CAB
102
{ACAD_REACTORS
330
1CA3
102
}
330
1CA3
100
AcDbVisualStyle
  2
Basic
 70
     7
177
     3
291
     1
 70
    58
 90
        1
176
     1
 90
        0
176
     1
 90
        1
176
     1
 90
        0
176
     1
 40
0.6
176
     1
 40
30.0
176
     1
 62
     7
420
 16777215
176
     1
 90
        0
176
     1
 90
        4
176
     1
 62
     7
176
     1
 62
   257
176
     1
 90
        1
176
     1
 90
        1
176
     1
 40
1.0
176
     1
 90
        8
176
     1
 62
     7
176
     1
 40
1.0
176
     1
 90
        1
176
     1
 90
        6
176
     1
 90
        2
176
     1
 62
     7
176
     1
 90
        5
176
     1
 90
        0
176
     1
 90
        0
176
     1
290
     0
176
     1
 90
        1
176
     1
 40
0.0
176
     1
 90
        0
176
     1
290
     0
176
     1
290
     1
176
     1
290
     1
176
     1
290
     0
176
     1
290
     0
176
     1
290
     0
176
     1
290
     0
176
     1
290
     0
176
     1
290
     0
176
     1
 90
       50
176
     1
 40
0.0
176
     1
 40
1.0
176
     1
 90
        0
176
     1
 62
   178
420
        0
176
     1
 90
       50
176
     1
 90
        3
176
     1
 62
     5
420
      255
176
     1
290
     0
176
     1
 90
       50
176
     1
 90
       50
176
     1
 90
       50
176
     1
290
     0
176
     1
 90
       50
176
     1
 62
   256
176
     0
 40
1.0
176
     0
 90
        2
176
     1
  1
strokes_ogs.tif
176
     1
290
     0
176
     1
 40
1.0
176
     1
 40
1.0
176
     1
  0
VISUALSTYLE
  5
1CAF
102
{ACAD_REACTORS
330
1CA3
102
}
330
1CA3
100
AcDbVisualStyle
  2
Brighten
 70
    12
177
     3
291
     1
 70
    58
 90
        2
176
     1
 90
        2
176
     1
 90
        0
176
     1
 90
        0
176
     1
 40
0.6
176
     1
 40
30.0
176
     1
 62
     7
420
 16777215
176
     1
 90
        1
176
     1
 90
        4
176
     1
 62
     7
176
     1
 62
   257
176
     1
 90
        1
176
     1
 90
        1
176
     1
 40
1.0
176
     1
 90
        8
176
     1
 62
     7
176
     1
 40
1.0
176
     1
 90
        1
176
     1
 90
        6
176
     1
 90
        2
176
     1
 62
     7
176
     1
 90
        5
176
     1
 90
        0
176
     1
 90
        0
176
     1
290
     0
176
     1
 90
        1
176
     1
 40
50.0
176
     1
 90
        0
176
     1
290
     0
176
     1
290
     1
176
     1
290
     1
176
     1
290
     0
176
     1
290
     0
176
     1
290
     0
176
     1
290
     0
176
     1
290
     0
176
     1
290
     0
176
     1
 90
       50
176
     1
 40
0.0
176
     1
 40
1.0
176
     1
 90
        0
176
     1
 62
   178
420
        0
176
     1
 90
       50
176
     1
 90
        3
176
     1
 62
     5
420
      255
176
     1
290
     0
176
     1
 90
       50
176
     1
 90
       50
176
     1
 90
       50
176
     1
290
     0
176
     1
 90
       50
176
     1
 62
   256
176
     0
 40
1.0
176
     0
 90
        2
176
     1
  1
strokes_ogs.tif
176
     1
290
     0
176
     1
 40
1.0
176
     1
 40
1.0
176
     1
  0
VISUALSTYLE
  5
1CB3
102
{ACAD_REACTORS
330
1CA3
102
}
330
1CA3
100
AcDbVisualStyle
  2
ColorChange
 70
    16
177
     3
291
     1
 70
    58
 90
        2
176
     1
 90
        2
176
     1
 90
        3
176
     1
 90
        0
176
     1
 40
0.6
176
     1
 40
30.0
176
     1
 62
     8
420
  8421504
176
     1
 90
        1
176
     1
 90
        4
176
     1
 62
     7
176
     1
 62
   257
176
     1
 90
        1
176
     1
 90
        1
176
     1
 40
1.0
176
     1
 90
        8
176
     1
 62
     8
420
  8421504
176
     1
 40
1.0
176
     1
 90
        1
176
     1
 90
        6
176
     1
 90
        2
176
     1
 62
     7
176
     1
 90
        5
176
     1
 90
        0
176
     1
 90
        0
176
     1
290
     0
176
     1
 90
        1
176
     1
 40
0.0
176
     1
 90
        0
176
     1
290
     0
176
     1
290
     1
176
     1
290
     1
176
     1
290
     0
176
     1
290
     0
176
     1
290
     0
176
     1
290
     0
176
     1
290
     0
176
     1
290
     0
176
     1
 90
       50
176
     1
 40
0.0
176
     1
 40
1.0
176
     1
 90
        0
176
     1
 62
   178
420
        0
176
     1
 90
       50
176
     1
 90
        3
176
     1
 62
     5
420
      255
176
     1
290
     0
176
     1
 90
       50
176
     1
 90
       50
176
     1
 90
       50
176
     1
290
     0
176
     1
 90
       50
176
     1
 62
   256
176
     0
 40
1.0
176
     0
 90
        2
176
     1
  1
strokes_ogs.tif
176
     1
290
     0
176
     1
 40
1.0
176
     1
 40
1.0
176
     1
  0
VISUALSTYLE
  5
1CAD
102
{ACAD_REACTORS
330
1CA3
102
}
330
1CA3
100
AcDbVisualStyle
  2
Conceptual
 70
     9
177
     3
291
     0
 70
    58
 90
        3
176
     1
 90
        2
176
     1
 90
        0
176
     1
 90
        0
176
     1
 40
0.6
176
     1
 40
30.0
176
     1
 62
     7
420
 16777215
176
     1
 90
        2
176
     1
 90
        2
176
     1
 62
     7
176
     1
 62
   257
176
     1
 90
        1
176
     1
 90
        1
176
     1
 40
179.0
176
     1
 90
        8
176
     1
 62
     7
176
     1
 40
1.0
176
     1
 90
        1
176
     1
 90
        6
176
     1
 90
        2
176
     1
 62
     7
176
     1
 90
        3
176
     1
 90
        0
176
     1
 90
        0
176
     1
290
     0
176
     1
 90
        1
176
     1
 40
0.0
176
     1
 90
        0
176
     1
290
     0
176
     1
290
     1
176
     1
290
     1
176
     1
290
     0
176
     1
290
     0
176
     1
290
     0
176
     1
290
     0
176
     1
290
     0
176
     1
290
     0
176
     1
 90
       50
176
     1
 40
0.0
176
     1
 40
1.0
176
     1
 90
        0
176
     1
 62
   178
420
        0
176
     1
 90
       50
176
     1
 90
        3
176
     1
 62
     5
420
      255
176
     1
290
     0
176
     1
 90
       50
176
     1
 90
       50
176
     1
 90
       50
176
     1
290
     0
176
     1
 90
       50
176
     1
 62
   256
176
     0
 40
1.0
176
     0
 90
        2
176
     1
  1
strokes_ogs.tif
176
     1
290
     0
176
     1
 40
1.0
176
     1
 40
1.0
176
     1
  0
VISUALSTYLE
  5
1CAE
102
{ACAD_REACTORS
330
1CA3
102
}
330
1CA3
100
AcDbVisualStyle
  2
Dim
 70
    11
177
     3
291
     1
 70
    58
 90
        2
176
     1
 90
        2
176
     1
 90
        0
176
     1
 90
        0
176
     1
 40
0.6
176
     1
 40
30.0
176
     1
 62
     7
420
 16777215
176
     1
 90
        1
176
     1
 90
        4
176
     1
 62
     7
176
     1
 62
   257
176
     1
 90
        1
176
     1
 90
        1
176
     1
 40
1.0
176
     1
 90
        8
176
     1
 62
     7
176
     1
 40
1.0
176
     1
 90
        1
176
     1
 90
        6
176
     1
 90
        2
176
     1
 62
     7
176
     1
 90
        5
176
     1
 90
        0
176
     1
 90
        0
176
     1
290
     0
176
     1
 90
        1
176
     1
 40
-50.0
176
     1
 90
        0
176
     1
290
     0
176
     1
290
     1
176
     1
290
     1
176
     1
290
     0
176
     1
290
     0
176
     1
290
     0
176
     1
290
     0
176
     1
290
     0
176
     1
290
     0
176
     1
 90
       50
176
     1
 40
0.0
176
     1
 40
1.0
176
     1
 90
        0
176
     1
 62
   178
420
        0
176
     1
 90
       50
176
     1
 90
        3
176
     1
 62
     5
420
      255
176
     1
290
     0
176
     1
 90
       50
176
     1
 90
       50
176
     1
 90
       50
176
     1
290
     0
176
     1
 90
       50
176
     1
 62
   256
176
     0
 40
1.0
176
     0
 90
        2
176
     1
  1
strokes_ogs.tif
176
     1
290
     0
176
     1
 40
1.0
176
     1
 40
1.0
176
     1
  0
VISUALSTYLE
  5
1CB6
102
{ACAD_REACTORS
330
1CA3
102
}
330
1CA3
100
AcDbVisualStyle
  2
EdgeColorOff
 70
    22
177
     3
291
     1
 70
    58
 90
        2
176
     0
 90
        2
176
     0
 90
        0
176
     0
 90
        0
176
     0
 40
0.6
176
     0
 40
30.0
176
     0
 62
     7
420
 16777215
176
     0
 90
        1
176
     0
 90
        4
176
     0
 62
     7
176
     0
 62
   257
176
     0
 90
        1
176
     0
 90
        1
176
     0
 40
1.0
176
     0
 90
        8
176
     2
 62
     7
176
     0
 40
1.0
176
     0
 90
        1
176
     0
 90
        6
176
     0
 90
        2
176
     0
 62
     7
176
     0
 90
        5
176
     0
 90
        0
176
     0
 90
        0
176
     0
290
     0
176
     0
 90
        1
176
     0
 40
0.0
176
     0
 90
        0
176
     0
290
     0
176
     0
290
     1
176
     0
290
     1
176
     0
290
     0
176
     0
290
     0
176
     0
290
     0
176
     0
290
     0
176
     0
290
     0
176
     0
290
     0
176
     0
 90
       50
176
     0
 40
0.0
176
     0
 40
1.0
176
     0
 90
        0
176
     0
 62
   178
420
        0
176
     0
 90
       50
176
     0
 90
        3
176
     0
 62
     5
420
      255
176
     0
290
     0
176
     0
 90
       50
176
     0
 90
       50
176
     0
 90
       50
176
     0
290
     0
176
     0
 90
       50
176
     0
 62
   256
176
     0
 40
1.0
176
     0
 90
        2
176
     0
  1
strokes_ogs.tif
176
     0
290
     0
176
     0
 40
1.0
176
     0
 40
1.0
176
     0
  0
VISUALSTYLE
  5
1CB2
102
{ACAD_REACTORS
330
1CA3
102
}
330
1CA3
100
AcDbVisualStyle
  2
Facepattern
 70
    15
177
     3
291
     1
 70
    58
 90
        2
176
     1
 90
        2
176
     1
 90
        0
176
     1
 90
        0
176
     1
 40
0.6
176
     1
 40
30.0
176
     1
 62
     7
420
 16777215
176
     1
 90
        1
176
     1
 90
        4
176
     1
 62
     7
176
     1
 62
   257
176
     1
 90
        1
176
     1
 90
        1
176
     1
 40
1.0
176
     1
 90
        8
176
     1
 62
     7
176
     1
 40
1.0
176
     1
 90
        1
176
     1
 90
        6
176
     1
 90
        2
176
     1
 62
     7
176
     1
 90
        5
176
     1
 90
        0
176
     1
 90
        0
176
     1
290
     0
176
     1
 90
        1
176
     1
 40
0.0
176
     1
 90
        0
176
     1
290
     0
176
     1
290
     1
176
     1
290
     1
176
     1
290
     0
176
     1
290
     0
176
     1
290
     0
176
     1
290
     0
176
     1
290
     0
176
     1
290
     0
176
     1
 90
       50
176
     1
 40
0.0
176
     1
 40
1.0
176
     1
 90
        0
176
     1
 62
   178
420
        0
176
     1
 90
       50
176
     1
 90
        3
176
     1
 62
     5
420
      255
176
     1
290
     0
176
     1
 90
       50
176
     1
 90
       50
176
     1
 90
       50
176
     1
290
     0
176
     1
 90
       50
176
     1
 62
   256
176
     0
 40
1.0
176
     0
 90
        2
176
     1
  1
strokes_ogs.tif
176
     1
290
     0
176
     1
 40
1.0
176
     1
 40
1.0
176
     1
  0
VISUALSTYLE
  5
1CA4
102
{ACAD_REACTORS
330
1CA3
102
}
330
1CA3
100
AcDbVisualStyle
  2
Flat
 70
     0
177
     3
291
     1
 70
    58
 90
        2
176
     1
 90
        1
176
     1
 90
        1
176
     1
 90
        2
176
     1
 40
0.6
176
     1
 40
30.0
176
     1
 62
     7
420
 16777215
176
     1
 90
        0
176
     1
 90
        0
176
     1
 62
     7
176
     1
 62
   257
176
     1
 90
        1
176
     1
 90
        1
176
     1
 40
1.0
176
     1
 90
        8
176
     1
 62
     7
176
     1
 40
1.0
176
     1
 90
        1
176
     1
 90
        6
176
     1
 90
        2
176
     1
 62
     7
176
     1
 90
        5
176
     1
 90
        0
176
     1
 90
        0
176
     1
290
     0
176
     1
 90
       13
176
     1
 40
0.0
176
     1
 90
        0
176
     1
290
     0
176
     1
290
     1
176
     1
290
     1
176
     1
290
     0
176
     1
290
     0
176
     1
290
     0
176
     1
290
     0
176
     1
290
     0
176
     1
290
     0
176
     1
 90
       50
176
     1
 40
0.0
176
     1
 40
1.0
176
     1
 90
        0
176
     1
 62
   178
420
        0
176
     1
 90
       50
176
     1
 90
        3
176
     1
 62
     5
420
      255
176
     1
290
     0
176
     1
 90
       50
176
     1
 90
       50
176
     1
 90
       50
176
     1
290
     0
176
     1
 90
       50
176
     1
 62
   256
176
     0
 40
1.0
176
     0
 90
        2
176
     1
  1
strokes_ogs.tif
176
     1
290
     0
176
     1
 40
1.0
176
     1
 40
1.0
176
     1
  0
VISUALSTYLE
  5
1CA5
102
{ACAD_REACTORS
330
1CA3
102
}
330
1CA3
100
AcDbVisualStyle
  2
FlatWithEdges
 70
     1
177
     3
291
     1
 70
    58
 90
        2
176
     1
 90
        1
176
     1
 90
        1
176
     1
 90
        2
176
     1
 40
0.6
176
     1
 40
30.0
176
     1
 62
     7
420
 16777215
176
     1
 90
        1
176
     1
 90
        0
176
     1
 62
     7
176
     1
 62
   257
176
     1
 90
        1
176
     1
 90
        1
176
     1
 40
1.0
176
     1
 90
        0
176
     1
 62
   257
176
     1
 40
1.0
176
     1
 90
        1
176
     1
 90
        6
176
     1
 90
        2
176
     1
 62
     7
176
     1
 90
        5
176
     1
 90
        0
176
     1
 90
        0
176
     1
290
     0
176
     1
 90
       13
176
     1
 40
0.0
176
     1
 90
        0
176
     1
290
     0
176
     1
290
     1
176
     1
290
     1
176
     1
290
     0
176
     1
290
     0
176
     1
290
     0
176
     1
290
     0
176
     1
290
     0
176
     1
290
     0
176
     1
 90
       50
176
     1
 40
0.0
176
     1
 40
1.0
176
     1
 90
        0
176
     1
 62
   178
420
        0
176
     1
 90
       50
176
     1
 90
        3
176
     1
 62
     5
420
      255
176
     1
290
     0
176
     1
 90
       50
176
     1
 90
       50
176
     1
 90
       50
176
     1
290
     0
176
     1
 90
       50
176
     1
 62
   256
176
     0
 40
1.0
176
     0
 90
        2
176
     1
  1
strokes_ogs.tif
176
     1
290
     0
176
     1
 40
1.0
176
     1
 40
1.0
176
     1
  0
VISUALSTYLE
  5
1CA6
102
{ACAD_REACTORS
330
1CA3
102
}
330
1CA3
100
AcDbVisualStyle
  2
Gouraud
 70
     2
177
     3
291
     1
 70
    58
 90
        2
176
     1
 90
        2
176
     1
 90
        1
176
     1
 90
        2
176
     1
 40
0.6
176
     1
 40
30.0
176
     1
 62
     7
420
 16777215
176
     1
 90
        0
176
     1
 90
        0
176
     1
 62
     7
176
     1
 62
   257
176
     1
 90
        1
176
     1
 90
        1
176
     1
 40
1.0
176
     1
 90
        0
176
     1
 62
     7
176
     1
 40
1.0
176
     1
 90
        1
176
     1
 90
        6
176
     1
 90
        2
176
     1
 62
     7
176
     1
 90
        5
176
     1
 90
        0
176
     1
 90
        0
176
     1
290
     0
176
     1
 90
       13
176
     1
 40
0.0
176
     1
 90
        0
176
     1
290
     0
176
     1
290
     1
176
     1
290
     1
176
     1
290
     0
176
     1
290
     0
176
     1
290
     0
176
     1
290
     0
176
     1
290
     0
176
     1
290
     0
176
     1
 90
       50
176
     1
 40
0.0
176
     1
 40
1.0
176
     1
 90
        0
176
     1
 62
   178
420
        0
176
     1
 90
       50
176
     1
 90
        3
176
     1
 62
     5
420
      255
176
     1
290
     0
176
     1
 90
       50
176
     1
 90
       50
176
     1
 90
       50
176
     1
290
     0
176
     1
 90
       50
176
     1
 62
   256
176
     0
 40
1.0
176
     0
 90
        2
176
     1
  1
strokes_ogs.tif
176
     1
290
     0
176
     1
 40
1.0
176
     1
 40
1.0
176
     1
  0
VISUALSTYLE
  5
1CA7
102
{ACAD_REACTORS
330
1CA3
102
}
330
1CA3
100
AcDbVisualStyle
  2
GouraudWithEdges
 70
     3
177
     3
291
     1
 70
    58
 90
        2
176
     1
 90
        2
176
     1
 90
        1
176
     1
 90
        2
176
     1
 40
0.6
176
     1
 40
30.0
176
     1
 62
     7
420
 16777215
176
     1
 90
        1
176
     1
 90
        0
176
     1
 62
     7
176
     1
 62
   257
176
     1
 90
        1
176
     1
 90
        1
176
     1
 40
1.0
176
     1
 90
        0
176
     1
 62
   257
176
     1
 40
1.0
176
     1
 90
        1
176
     1
 90
        6
176
     1
 90
        2
176
     1
 62
     7
176
     1
 90
        5
176
     1
 90
        0
176
     1
 90
        0
176
     1
290
     0
176
     1
 90
       13
176
     1
 40
0.0
176
     1
 90
        0
176
     1
290
     0
176
     1
290
     1
176
     1
290
     1
176
     1
290
     0
176
     1
290
     0
176
     1
290
     0
176
     1
290
     0
176
     1
290
     0
176
     1
290
     0
176
     1
 90
       50
176
     1
 40
0.0
176
     1
 40
1.0
176
     1
 90
        0
176
     1
 62
   178
420
        0
176
     1
 90
       50
176
     1
 90
        3
176
     1
 62
     5
420
      255
176
     1
290
     0
176
     1
 90
       50
176
     1
 90
       50
176
     1
 90
       50
176
     1
290
     0
176
     1
 90
       50
176
     1
 62
   256
176
     0
 40
1.0
176
     0
 90
        2
176
     1
  1
strokes_ogs.tif
176
     1
290
     0
176
     1
 40
1.0
176
     1
 40
1.0
176
     1
  0
VISUALSTYLE
  5
1CAA
102
{ACAD_REACTORS
330
1CA3
102
}
330
1CA3
100
AcDbVisualStyle
  2
Hidden
 70
     6
177
     3
291
     0
 70
    58
 90
        1
176
     1
 90
        2
176
     1
 90
        2
176
     1
 90
        0
176
     1
 40
0.6
176
     1
 40
30.0
176
     1
 62
     7
420
 16777215
176
     1
 90
        2
176
     1
 90
        2
176
     1
 62
     7
176
     1
 62
   257
176
     1
 90
        2
176
     1
 90
        1
176
     1
 40
40.0
176
     1
 90
        0
176
     1
 62
   257
176
     1
 40
1.0
176
     1
 90
        1
176
     1
 90
        6
176
     1
 90
        2
176
     1
 62
     7
176
     1
 90
        3
176
     1
 90
        0
176
     1
 90
        0
176
     1
290
     0
176
     1
 90
        1
176
     1
 40
0.0
176
     1
 90
        0
176
     1
290
     0
176
     1
290
     1
176
     1
290
     1
176
     1
290
     0
176
     1
290
     0
176
     1
290
     0
176
     1
290
     0
176
     1
290
     0
176
     1
290
     0
176
     1
 90
       50
176
     1
 40
0.0
176
     1
 40
1.0
176
     1
 90
        0
176
     1
 62
   178
420
        0
176
     1
 90
       50
176
     1
 90
        3
176
     1
 62
     5
420
      255
176
     1
290
     0
176
     1
 90
       50
176
     1
 90
       50
176
     1
 90
       50
176
     1
290
     0
176
     1
 90
       50
176
     1
 62
   256
176
     0
 40
1.0
176
     0
 90
        2
176
     1
  1
strokes_ogs.tif
176
     1
290
     0
176
     1
 40
1.0
176
     1
 40
1.0
176
     1
  0
VISUALSTYLE
  5
1CB4
102
{ACAD_REACTORS
330
1CA3
102
}
330
1CA3
100
AcDbVisualStyle
  2
JitterOff
 70
    20
177
     3
291
     1
 70
    58
 90
        2
176
     0
 90
        2
176
     0
 90
        0
176
     0
 90
        0
176
     0
 40
0.6
176
     0
 40
30.0
176
     0
 62
     7
420
 16777215
176
     0
 90
        1
176
     0
 90
        4
176
     0
 62
     7
176
     0
 62
   257
176
     0
 90
        1
176
     0
 90
        1
176
     0
 40
1.0
176
     0
 90
       10
176
     2
 62
     7
176
     0
 40
1.0
176
     0
 90
        1
176
     0
 90
        6
176
     0
 90
        2
176
     0
 62
     7
176
     0
 90
        5
176
     0
 90
        0
176
     0
 90
        0
176
     0
290
     0
176
     0
 90
        1
176
     0
 40
0.0
176
     0
 90
        0
176
     0
290
     0
176
     0
290
     1
176
     0
290
     1
176
     0
290
     0
176
     0
290
     0
176
     0
290
     0
176
     0
290
     0
176
     0
290
     0
176
     0
290
     0
176
     0
 90
       50
176
     0
 40
0.0
176
     0
 40
1.0
176
     0
 90
        0
176
     0
 62
   178
420
        0
176
     0
 90
       50
176
     0
 90
        3
176
     0
 62
     5
420
      255
176
     0
290
     0
176
     0
 90
       50
176
     0
 90
       50
176
     0
 90
       50
176
     0
290
     0
176
     0
 90
       50
176
     0
 62
   256
176
     0
 40
1.0
176
     0
 90
        2
176
     0
  1
strokes_ogs.tif
176
     0
290
     0
176
     0
 40
1.0
176
     0
 40
1.0
176
     0
  0
VISUALSTYLE
  5
1CB1
102
{ACAD_REACTORS
330
1CA3
102
}
330
1CA3
100
AcDbVisualStyle
  2
Linepattern
 70
    14
177
     3
291
     1
 70
    58
 90
        2
176
     1
 90
        2
176
     1
 90
        0
176
     1
 90
        0
176
     1
 40
0.6
176
     1
 40
30.0
176
     1
 62
     7
420
 16777215
176
     1
 90
        1
176
     1
 90
        4
176
     1
 62
     7
176
     1
 62
   257
176
     1
 90
        7
176
     1
 90
        7
176
     1
 40
1.0
176
     1
 90
        8
176
     1
 62
     7
176
     1
 40
1.0
176
     1
 90
        1
176
     1
 90
        6
176
     1
 90
        2
176
     1
 62
     7
176
     1
 90
        5
176
     1
 90
        0
176
     1
 90
        0
176
     1
290
     0
176
     1
 90
        1
176
     1
 40
0.0
176
     1
 90
        0
176
     1
290
     0
176
     1
290
     1
176
     1
290
     1
176
     1
290
     0
176
     1
290
     0
176
     1
290
     0
176
     1
290
     0
176
     1
290
     0
176
     1
290
     0
176
     1
 90
       50
176
     1
 40
0.0
176
     1
 40
1.0
176
     1
 90
        0
176
     1
 62
   178
420
        0
176
     1
 90
       50
176
     1
 90
        3
176
     1
 62
     5
420
      255
176
     1
290
     0
176
     1
 90
       50
176
     1
 90
       50
176
     1
 90
       50
176
     1
290
     0
176
     1
 90
       50
176
     1
 62
   256
176
     0
 40
1.0
176
     0
 90
        2
176
     1
  1
strokes_ogs.tif
176
     1
290
     0
176
     1
 40
1.0
176
     1
 40
1.0
176
     1
  0
VISUALSTYLE
  5
1CB5
102
{ACAD_REACTORS
330
1CA3
102
}
330
1CA3
100
AcDbVisualStyle
  2
OverhangOff
 70
    21
177
     3
291
     1
 70
    58
 90
        2
176
     0
 90
        2
176
     0
 90
        0
176
     0
 90
        0
176
     0
 40
0.6
176
     0
 40
30.0
176
     0
 62
     7
420
 16777215
176
     0
 90
        1
176
     0
 90
        4
176
     0
 62
     7
176
     0
 62
   257
176
     0
 90
        1
176
     0
 90
        1
176
     0
 40
1.0
176
     0
 90
        9
176
     2
 62
     7
176
     0
 40
1.0
176
     0
 90
        1
176
     0
 90
        6
176
     0
 90
        2
176
     0
 62
     7
176
     0
 90
        5
176
     0
 90
        0
176
     0
 90
        0
176
     0
290
     0
176
     0
 90
        1
176
     0
 40
0.0
176
     0
 90
        0
176
     0
290
     0
176
     0
290
     1
176
     0
290
     1
176
     0
290
     0
176
     0
290
     0
176
     0
290
     0
176
     0
290
     0
176
     0
290
     0
176
     0
290
     0
176
     0
 90
       50
176
     0
 40
0.0
176
     0
 40
1.0
176
     0
 90
        0
176
     0
 62
   178
420
        0
176
     0
 90
       50
176
     0
 90
        3
176
     0
 62
     5
420
      255
176
     0
290
     0
176
     0
 90
       50
176
     0
 90
       50
176
     0
 90
       50
176
     0
290
     0
176
     0
 90
       50
176
     0
 62
   256
176
     0
 40
1.0
176
     0
 90
        2
176
     0
  1
strokes_ogs.tif
176
     0
290
     0
176
     0
 40
1.0
176
     0
 40
1.0
176
     0
  0
VISUALSTYLE
  5
1CAC
102
{ACAD_REACTORS
330
1CA3
102
}
330
1CA3
100
AcDbVisualStyle
  2
Realistic
 70
     8
177
     3
291
     0
 70
    58
 90
        2
176
     1
 90
        3
176
     1
 90
        0
176
     1
 90
        2
176
     1
 40
0.6
176
     1
 40
30.0
176
     1
 62
     7
420
 16777215
176
     1
 90
        0
176
     1
 90
        0
176
     1
 62
     7
176
     1
 62
   257
176
     1
 90
        1
176
     1
 90
        1
176
     1
 40
1.0
176
     1
 90
        8
176
     1
 62
   257
176
     1
 40
1.0
176
     1
 90
        1
176
     1
 90
        6
176
     1
 90
        2
176
     1
 62
     7
176
     1
 90
        3
176
     1
 90
        0
176
     1
 90
        0
176
     1
290
     0
176
     1
 90
       13
176
     1
 40
0.0
176
     1
 90
        0
176
     1
290
     0
176
     1
290
     1
176
     1
290
     1
176
     1
290
     0
176
     1
290
     0
176
     1
290
     0
176
     1
290
     0
176
     1
290
     0
176
     1
290
     0
176
     1
 90
       50
176
     1
 40
0.0
176
     1
 40
1.0
176
     1
 90
        0
176
     1
 62
   178
420
        0
176
     1
 90
       50
176
     1
 90
        3
176
     1
 62
     5
420
      255
176
     1
290
     0
176
     1
 90
       50
176
     1
 90
       50
176
     1
 90
       50
176
     1
290
     0
176
     1
 90
       50
176
     1
 62
   256
176
     0
 40
1.0
176
     0
 90
        2
176
     1
  1
strokes_ogs.tif
176
     1
290
     0
176
     1
 40
1.0
176
     1
 40
1.0
176
     1
  0
VISUALSTYLE
  5
1CBB
102
{ACAD_REACTORS
330
1CA3
102
}
330
1CA3
100
AcDbVisualStyle
  2
Shaded
 70
    27
177
     3
291
     0
 70
    58
 90
        2
176
     1
 90
        2
176
     1
 90
        1
176
     1
 90
        2
176
     1
 40
0.6
176
     1
 40
30.0
176
     1
 62
     7
420
 16777215
176
     1
 90
        0
176
     1
 90
        4
176
     1
 62
     7
176
     1
 62
   257
176
     1
 90
        1
176
     1
 90
        1
176
     1
 40
1.0
176
     1
 90
        8
176
     1
 62
   257
176
     1
 40
1.0
176
     1
 90
        1
176
     1
 90
        6
176
     1
 90
        2
176
     1
 62
     8
420
  7895160
176
     1
 90
        3
176
     1
 90
        0
176
     1
 90
        0
176
     1
290
     0
176
     1
 90
        5
176
     1
 40
0.0
176
     1
 90
        0
176
     1
290
     0
176
     1
290
     1
176
     1
290
     1
176
     1
290
     0
176
     1
290
     0
176
     1
290
     0
176
     1
290
     0
176
     1
290
     0
176
     1
290
     0
176
     1
 90
       50
176
     1
 40
0.0
176
     1
 40
1.0
176
     1
 90
        0
176
     1
 62
   178
420
        0
176
     1
 90
       50
176
     1
 90
        3
176
     1
 62
     5
420
      255
176
     1
290
     0
176
     1
 90
       50
176
     1
 90
       50
176
     1
 90
       50
176
     1
290
     0
176
     1
 90
       50
176
     1
 62
   256
176
     0
 40
1.0
176
     0
 90
        2
176
     1
  1
strokes_ogs.tif
176
     1
290
     0
176
     1
 40
1.0
176
     1
 40
1.0
176
     1
  0
VISUALSTYLE
  5
1CBA
102
{ACAD_REACTORS
330
1CA3
102
}
330
1CA3
100
AcDbVisualStyle
  2
Shaded with edges
 70
    26
177
     3
291
     0
 70
    58
 90
        2
176
     1
 90
        2
176
     1
 90
        1
176
     1
 90
        2
176
     1
 40
0.6
176
     1
 40
30.0
176
     1
 62
     7
420
 16777215
176
     1
 90
        1
176
     1
 90
       10
176
     1
 62
     7
176
     1
 62
   257
176
     1
 90
        2
176
     1
 90
        1
176
     1
 40
1.0
176
     1
 90
        8
176
     1
 62
   257
176
     1
 40
1.0
176
     1
 90
        1
176
     1
 90
        6
176
     1
 90
        2
176
     1
 62
     7
176
     1
 90
        3
176
     1
 90
        0
176
     1
 90
        0
176
     1
290
     0
176
     1
 90
        5
176
     1
 40
0.0
176
     1
 90
        0
176
     1
290
     0
176
     1
290
     1
176
     1
290
     1
176
     1
290
     0
176
     1
290
     0
176
     1
290
     0
176
     1
290
     0
176
     1
290
     0
176
     1
290
     0
176
     1
 90
       50
176
     1
 40
0.0
176
     1
 40
1.0
176
     1
 90
        0
176
     1
 62
   178
420
        0
176
     1
 90
       50
176
     1
 90
        3
176
     1
 62
     5
420
      255
176
     1
290
     0
176
     1
 90
       50
176
     1
 90
       50
176
     1
 90
       50
176
     1
290
     0
176
     1
 90
       50
176
     1
 62
   256
176
     0
 40
1.0
176
     0
 90
        2
176
     1
  1
strokes_ogs.tif
176
     1
290
     0
176
     1
 40
1.0
176
     1
 40
1.0
176
     1
  0
VISUALSTYLE
  5
1CB7
102
{ACAD_REACTORS
330
1CA3
102
}
330
1CA3
100
AcDbVisualStyle
  2
Shades of Gray
 70
    23
177
     3
291
     0
 70
    58
 90
        2
176
     1
 90
        2
176
     1
 90
        3
176
     1
 90
        0
176
     1
 40
0.6
176
     1
 40
30.0
176
     1
 62
     7
420
 16777215
176
     1
 90
        2
176
     1
 90
        2
176
     1
 62
     7
176
     1
 62
     7
176
     1
 90
        1
176
     1
 90
        1
176
     1
 40
40.0
176
     1
 90
        8
176
     1
 62
     7
176
     1
 40
1.0
176
     1
 90
        1
176
     1
 90
        6
176
     1
 90
        2
176
     1
 62
     7
176
     1
 90
        3
176
     1
 90
        0
176
     1
 90
        0
176
     1
290
     0
176
     1
 90
        1
176
     1
 40
0.0
176
     1
 90
        0
176
     1
290
     0
176
     1
290
     1
176
     1
290
     1
176
     1
290
     0
176
     1
290
     0
176
     1
290
     0
176
     1
290
     0
176
     1
290
     0
176
     1
290
     0
176
     1
 90
       50
176
     1
 40
0.0
176
     1
 40
1.0
176
     1
 90
        0
176
     1
 62
   178
420
        0
176
     1
 90
       50
176
     1
 90
        3
176
     1
 62
     5
420
      255
176
     1
290
     0
176
     1
 90
       50
176
     1
 90
       50
176
     1
 90
       50
176
     1
290
     0
176
     1
 90
       50
176
     1
 62
   256
176
     0
 40
1.0
176
     0
 90
        2
176
     1
  1
strokes_ogs.tif
176
     1
290
     0
176
     1
 40
1.0
176
     1
 40
1.0
176
     1
  0
VISUALSTYLE
  5
1CB8
102
{ACAD_REACTORS
330
1CA3
102
}
330
1CA3
100
AcDbVisualStyle
  2
Sketchy
 70
    24
177
     3
291
     0
 70
    58
 90
        1
176
     1
 90
        2
176
     1
 90
        2
176
     1
 90
        0
176
     1
 40
0.6
176
     1
 40
30.0
176
     1
 62
     7
420
 16777215
176
     1
 90
        2
176
     1
 90
        2
176
     1
 62
     7
176
     1
 62
     7
176
     1
 90
        1
176
     1
 90
        1
176
     1
 40
40.0
176
     1
 90
       11
176
     1
 62
     7
176
     1
 40
1.0
176
     1
 90
        1
176
     1
 90
        6
176
     1
 90
        2
176
     1
 62
     7
176
     1
 90
        6
176
     1
 90
        0
176
     1
 90
        0
176
     1
290
     0
176
     1
 90
        1
176
     1
 40
0.0
176
     1
 90
        0
176
     1
290
     0
176
     1
290
     1
176
     1
290
     1
176
     1
290
     0
176
     1
290
     0
176
     1
290
     0
176
     1
290
     0
176
     1
290
     0
176
     1
290
     0
176
     1
 90
       50
176
     1
 40
0.0
176
     1
 40
1.0
176
     1
 90
        0
176
     1
 62
   178
420
        0
176
     1
 90
       50
176
     1
 90
        3
176
     1
 62
     5
420
      255
176
     1
290
     0
176
     1
 90
       50
176
     1
 90
       50
176
     1
 90
       50
176
     1
290
     0
176
     1
 90
       50
176
     1
 62
   256
176
     0
 40
1.0
176
     0
 90
        2
176
     1
  1
strokes_ogs.tif
176
     1
290
     0
176
     1
 40
1.0
176
     1
 40
1.0
176
     1
  0
VISUALSTYLE
  5
1CB0
102
{ACAD_REACTORS
330
1CA3
102
}
330
1CA3
100
AcDbVisualStyle
  2
Thicken
 70
    13
177
     3
291
     1
 70
    58
 90
        2
176
     1
 90
        2
176
     1
 90
        0
176
     1
 90
        0
176
     1
 40
0.6
176
     1
 40
30.0
176
     1
 62
     7
420
 16777215
176
     1
 90
        1
176
     1
 90
        4
176
     1
 62
     7
176
     1
 62
   257
176
     1
 90
        1
176
     1
 90
        1
176
     1
 40
1.0
176
     1
 90
       12
176
     1
 62
     7
176
     1
 40
1.0
176
     1
 90
        1
176
     1
 90
        6
176
     1
 90
        2
176
     1
 62
     7
176
     1
 90
        5
176
     1
 90
        0
176
     1
 90
        0
176
     1
290
     0
176
     1
 90
        1
176
     1
 40
0.0
176
     1
 90
        0
176
     1
290
     0
176
     1
290
     1
176
     1
290
     1
176
     1
290
     0
176
     1
290
     0
176
     1
290
     0
176
     1
290
     0
176
     1
290
     0
176
     1
290
     0
176
     1
 90
       50
176
     1
 40
0.0
176
     1
 40
1.0
176
     1
 90
        0
176
     1
 62
   178
420
        0
176
     1
 90
       50
176
     1
 90
        3
176
     1
 62
     5
420
      255
176
     1
290
     0
176
     1
 90
       50
176
     1
 90
       50
176
     1
 90
       50
176
     1
290
     0
176
     1
 90
       50
176
     1
 62
   256
176
     0
 40
1.0
176
     0
 90
        2
176
     1
  1
strokes_ogs.tif
176
     1
290
     0
176
     1
 40
1.0
176
     1
 40
1.0
176
     1
  0
VISUALSTYLE
  5
1CA9
102
{ACAD_REACTORS
330
1CA3
102
}
330
1CA3
100
AcDbVisualStyle
  2
Wireframe
 70
     5
177
     3
291
     0
 70
    58
 90
        0
176
     1
 90
        2
176
     1
 90
        0
176
     1
 90
        0
176
     1
 40
0.6
176
     1
 40
30.0
176
     1
 62
     7
420
 16777215
176
     1
 90
        1
176
     1
 90
        4
176
     1
 62
     7
176
     1
 62
   257
176
     1
 90
        1
176
     1
 90
        1
176
     1
 40
1.0
176
     1
 90
        0
176
     1
 62
   257
176
     1
 40
1.0
176
     1
 90
        1
176
     1
 90
        6
176
     1
 90
        2
176
     1
 62
     7
176
     1
 90
        3
176
     1
 90
        0
176
     1
 90
        0
176
     1
290
     0
176
     1
 90
        1
176
     1
 40
0.0
176
     1
 90
        0
176
     1
290
     0
176
     1
290
     1
176
     1
290
     1
176
     1
290
     0
176
     1
290
     0
176
     1
290
     0
176
     1
290
     0
176
     1
290
     0
176
     1
290
     0
176
     1
 90
       50
176
     1
 40
0.0
176
     1
 40
1.0
176
     1
 90
        0
176
     1
 62
   178
420
        0
176
     1
 90
       50
176
     1
 90
        3
176
     1
 62
     5
420
      255
176
     1
290
     0
176
     1
 90
       50
176
     1
 90
       50
176
     1
 90
       50
176
     1
290
     0
176
     1
 90
       50
176
     1
 62
   256
176
     0
 40
1.0
176
     0
 90
        2
176
     1
  1
strokes_ogs.tif
176
     1
290
     0
176
     1
 40
1.0
176
     1
 40
1.0
176
     1
  0
VISUALSTYLE
  5
1CB9
102
{ACAD_REACTORS
330
1CA3
102
}
330
1CA3
100
AcDbVisualStyle
  2
X-Ray
 70
    25
177
     3
291
     0
 70
    58
 90
        2
176
     1
 90
        2
176
     1
 90
        1
176
     1
 90
        1
176
     1
 40
0.5
176
     1
 40
30.0
176
     1
 62
     7
420
 16777215
176
     1
 90
        1
176
     1
 90
        0
176
     1
 62
     7
176
     1
 62
   257
176
     1
 90
        1
176
     1
 90
        1
176
     1
 40
1.0
176
     1
 90
        8
176
     1
 62
     7
176
     1
 40
1.0
176
     1
 90
        1
176
     1
 90
        6
176
     1
 90
        2
176
     1
 62
     7
176
     1
 90
        3
176
     1
 90
        0
176
     1
 90
        0
176
     1
290
     0
176
     1
 90
       13
176
     1
 40
0.0
176
     1
 90
        0
176
     1
290
     0
176
     1
290
     1
176
     1
290
     1
176
     1
290
     0
176
     1
290
     0
176
     1
290
     0
176
     1
290
     0
176
     1
290
     0
176
     1
290
     0
176
     1
 90
       50
176
     1
 40
0.0
176
     1
 40
1.0
176
     1
 90
        0
176
     1
 62
   178
420
        0
176
     1
 90
       50
176
     1
 90
        3
176
     1
 62
     5
420
      255
176
     1
290
     0
176
     1
 90
       50
176
     1
 90
       50
176
     1
 90
       50
176
     1
290
     0
176
     1
 90
       50
176
     1
 62
   256
176
     0
 40
1.0
176
     0
 90
        2
176
     1
  1
strokes_ogs.tif
176
     1
290
     0
176
     1
 40
1.0
176
     1
 40
1.0
176
     1
  0
DICTIONARYVAR
  5
1CEE
102
{ACAD_REACTORS
330
13CA
102
}
330
13CA
100
DictionaryVariables
280
     0
  1
1:1
  0
DICTIONARYVAR
  5
1CF2
102
{ACAD_REACTORS
330
13CA
102
}
330
13CA
100
DictionaryVariables
280
     0
  1
Standard
  0
DICTIONARYVAR
  5
13CC
102
{ACAD_REACTORS
330
13CA
102
}
330
13CA
100
DictionaryVariables
280
     0
  1
2
  0
DICTIONARYVAR
  5
13CB
102
{ACAD_REACTORS
330
13CA
102
}
330
13CA
100
DictionaryVariables
280
     0
  1
1
  0
DICTIONARYVAR
  5
1CF4
102
{ACAD_REACTORS
330
13CA
102
}
330
13CA
100
DictionaryVariables
280
     0
  1
0
  0
DICTIONARYVAR
  5
13CD
102
{ACAD_REACTORS
330
13CA
102
}
330
13CA
100
DictionaryVariables
280
     0
  1

  0
DICTIONARYVAR
  5
1CF5
102
{ACAD_REACTORS
330
13CA
102
}
330
13CA
100
DictionaryVariables
280
     0
  1
0
  0
DICTIONARY
  5
24DE
330
1CE2
100
AcDbDictionary
280
     1
281
     1
  3
ACAD_ROUNDTRIP_2008_TABLESTYLE_CELLSTYLEMAP
360
24DF
  0
CELLSTYLEMAP
  5
24DF
102
{ACAD_REACTORS
330
24DE
102
}
330
24DE
100
AcDbCellStyleMap
 90
        3
300
CELLSTYLE
  1
TABLEFORMAT_BEGIN
 90
        5
170
     1
 91
        0
 92
        0
 62
   257
 93
        1
300
CONTENTFORMAT
  1
CONTENTFORMAT_BEGIN
 90
        0
 91
        0
 92
        4
 93
        0
300

 40
0.0
140
1.0
 94
        5
 62
     0
340
11
144
6.0
309
CONTENTFORMAT_END
171
     1
301
MARGIN
  1
CELLMARGIN_BEGIN
 40
1.5
 40
1.5
 40
1.5
 40
1.5
 40
1.5
 40
1.5
309
CELLMARGIN_END
 94
        6
 95
        1
302
GRIDFORMAT
  1
GRIDFORMAT_BEGIN
 90
        0
 91
        1
 62
     0
 92
       -2
340
14
 93
        0
 40
0.045
309
GRIDFORMAT_END
 95
        2
302
GRIDFORMAT
  1
GRIDFORMAT_BEGIN
 90
        0
 91
        1
 62
     0
 92
       -2
340
14
 93
        0
 40
0.045
309
GRIDFORMAT_END
 95
        4
302
GRIDFORMAT
  1
GRIDFORMAT_BEGIN
 90
        0
 91
        1
 62
     0
 92
       -2
340
14
 93
        0
 40
0.045
309
GRIDFORMAT_END
 95
        8
302
GRIDFORMAT
  1
GRIDFORMAT_BEGIN
 90
        0
 91
        1
 62
     0
 92
       -2
340
14
 93
        0
 40
0.045
309
GRIDFORMAT_END
 95
       16
302
GRIDFORMAT
  1
GRIDFORMAT_BEGIN
 90
        0
 91
        1
 62
     0
 92
       -2
340
14
 93
        0
 40
0.045
309
GRIDFORMAT_END
 95
       32
302
GRIDFORMAT
  1
GRIDFORMAT_BEGIN
 90
        0
 91
        1
 62
     0
 92
       -2
340
14
 93
        0
 40
0.045
309
GRIDFORMAT_END
309
TABLEFORMAT_END
  1
CELLSTYLE_BEGIN
 90
        1
 91
        1
300
_TITLE
309
CELLSTYLE_END
300
CELLSTYLE
  1
TABLEFORMAT_BEGIN
 90
        5
170
     1
 91
        0
 92
        0
 62
   257
 93
        1
300
CONTENTFORMAT
  1
CONTENTFORMAT_BEGIN
 90
        0
 91
        0
 92
        4
 93
        0
300

 40
0.0
140
1.0
 94
        5
 62
     0
340
11
144
4.5
309
CONTENTFORMAT_END
171
     1
301
MARGIN
  1
CELLMARGIN_BEGIN
 40
1.5
 40
1.5
 40
1.5
 40
1.5
 40
1.5
 40
1.5
309
CELLMARGIN_END
 94
        6
 95
        1
302
GRIDFORMAT
  1
GRIDFORMAT_BEGIN
 90
        0
 91
        1
 62
     0
 92
       -2
340
14
 93
        0
 40
0.045
309
GRIDFORMAT_END
 95
        2
302
GRIDFORMAT
  1
GRIDFORMAT_BEGIN
 90
        0
 91
        1
 62
     0
 92
       -2
340
14
 93
        0
 40
0.045
309
GRIDFORMAT_END
 95
        4
302
GRIDFORMAT
  1
GRIDFORMAT_BEGIN
 90
        0
 91
        1
 62
     0
 92
       -2
340
14
 93
        0
 40
0.045
309
GRIDFORMAT_END
 95
        8
302
GRIDFORMAT
  1
GRIDFORMAT_BEGIN
 90
        0
 91
        1
 62
     0
 92
       -2
340
14
 93
        0
 40
0.045
309
GRIDFORMAT_END
 95
       16
302
GRIDFORMAT
  1
GRIDFORMAT_BEGIN
 90
        0
 91
        1
 62
     0
 92
       -2
340
14
 93
        0
 40
0.045
309
GRIDFORMAT_END
 95
       32
302
GRIDFORMAT
  1
GRIDFORMAT_BEGIN
 90
        0
 91
        1
 62
     0
 92
       -2
340
14
 93
        0
 40
0.045
309
GRIDFORMAT_END
309
TABLEFORMAT_END
  1
CELLSTYLE_BEGIN
 90
        2
 91
        1
300
_HEADER
309
CELLSTYLE_END
300
CELLSTYLE
  1
TABLEFORMAT_BEGIN
 90
        5
170
     1
 91
        0
 92
        0
 62
   257
 93
        1
300
CONTENTFORMAT
  1
CONTENTFORMAT_BEGIN
 90
        0
 91
        0
 92
        4
 93
        0
300

 40
0.0
140
1.0
 94
        2
 62
     0
340
11
144
4.5
309
CONTENTFORMAT_END
171
     1
301
MARGIN
  1
CELLMARGIN_BEGIN
 40
1.5
 40
1.5
 40
1.5
 40
1.5
 40
1.5
 40
1.5
309
CELLMARGIN_END
 94
        6
 95
        1
302
GRIDFORMAT
  1
GRIDFORMAT_BEGIN
 90
        0
 91
        1
 62
     0
 92
       -2
340
14
 93
        0
 40
0.045
309
GRIDFORMAT_END
 95
        2
302
GRIDFORMAT
  1
GRIDFORMAT_BEGIN
 90
        0
 91
        1
 62
     0
 92
       -2
340
14
 93
        0
 40
0.045
309
GRIDFORMAT_END
 95
        4
302
GRIDFORMAT
  1
GRIDFORMAT_BEGIN
 90
        0
 91
        1
 62
     0
 92
       -2
340
14
 93
        0
 40
0.045
309
GRIDFORMAT_END
 95
        8
302
GRIDFORMAT
  1
GRIDFORMAT_BEGIN
 90
        0
 91
        1
 62
     0
 92
       -2
340
14
 93
        0
 40
0.045
309
GRIDFORMAT_END
 95
       16
302
GRIDFORMAT
  1
GRIDFORMAT_BEGIN
 90
        0
 91
        1
 62
     0
 92
       -2
340
14
 93
        0
 40
0.045
309
GRIDFORMAT_END
 95
       32
302
GRIDFORMAT
  1
GRIDFORMAT_BEGIN
 90
        0
 91
        1
 62
     0
 92
       -2
340
14
 93
        0
 40
0.045
309
GRIDFORMAT_END
309
TABLEFORMAT_END
  1
CELLSTYLE_BEGIN
 90
        3
 91
        2
300
_DATA
309
CELLSTYLE_END
  0
ENDSEC
  0
EOF
