  0
SECTION
  2
HEADER
  9
$ACADVER
  1
AC1027
  9
$ACADMAINTVER
 70
     8
  9
$DWGCODEPAGE
  3
ANSI_932
  9
$REQUIREDVERSIONS
160
                 0
  9
$LASTSAVEDBY
  1
akihiro
  9
$INSBASE
 10
0.0
 20
0.0
 30
0.0
  9
$EXTMIN
 10
52.46940089602387
 20
63.77669710113682
 30
0.0
  9
$EXTMAX
 10
378.7228574678373
 20
256.6526360272783
 30
0.0
  9
$LIMMIN
 10
0.0
 20
0.0
  9
$LIMMAX
 10
12.0
 20
9.0
  9
$ORTHOMODE
 70
     0
  9
$REGENMODE
 70
     1
  9
$FILLMODE
 70
     1
  9
$QTEXTMODE
 70
     0
  9
$MIRRTEXT
 70
     0
  9
$LTSCALE
 40
1.0
  9
$ATTMODE
 70
     1
  9
$TEXTSIZE
 40
0.2
  9
$TRACEWID
 40
0.05
  9
$TEXTSTYLE
  7
Standard
  9
$CLAYER
  8
0
  9
$CELTYPE
  6
ByLayer
  9
$CECOLOR
 62
   256
  9
$CELTSCALE
 40
1.0
  9
$DISPSILH
 70
     0
  9
$DIMSCALE
 40
1.0
  9
$DIMASZ
 40
0.18
  9
$DIMEXO
 40
0.0625
  9
$DIMDLI
 40
0.38
  9
$DIMRND
 40
0.0
  9
$DIMDLE
 40
0.0
  9
$DIMEXE
 40
0.18
  9
$DIMTP
 40
0.0
  9
$DIMTM
 40
0.0
  9
$DIMTXT
 40
0.18
  9
$DIMCEN
 40
0.09
  9
$DIMTSZ
 40
0.0
  9
$DIMTOL
 70
     0
  9
$DIMLIM
 70
     0
  9
$DIMTIH
 70
     1
  9
$DIMTOH
 70
     1
  9
$DIMSE1
 70
     0
  9
$DIMSE2
 70
     0
  9
$DIMTAD
 70
     0
  9
$DIMZIN
 70
     0
  9
$DIMBLK
  1

  9
$DIMASO
 70
     1
  9
$DIMSHO
 70
     1
  9
$DIMPOST
  1

  9
$DIMAPOST
  1

  9
$DIMALT
 70
     0
  9
$DIMALTD
 70
     2
  9
$DIMALTF
 40
25.4
  9
$DIMLFAC
 40
1.0
  9
$DIMTOFL
 70
     0
  9
$DIMTVP
 40
0.0
  9
$DIMTIX
 70
     0
  9
$DIMSOXD
 70
     0
  9
$DIMSAH
 70
     0
  9
$DIMBLK1
  1

  9
$DIMBLK2
  1

  9
$DIMSTYLE
  2
Standard
  9
$DIMCLRD
 70
     0
  9
$DIMCLRE
 70
     0
  9
$DIMCLRT
 70
     0
  9
$DIMTFAC
 40
1.0
  9
$DIMGAP
 40
0.09
  9
$DIMJUST
 70
     0
  9
$DIMSD1
 70
     0
  9
$DIMSD2
 70
     0
  9
$DIMTOLJ
 70
     1
  9
$DIMTZIN
 70
     0
  9
$DIMALTZ
 70
     0
  9
$DIMALTTZ
 70
     0
  9
$DIMUPT
 70
     0
  9
$DIMDEC
 70
     4
  9
$DIMTDEC
 70
     4
  9
$DIMALTU
 70
     2
  9
$DIMALTTD
 70
     2
  9
$DIMTXSTY
  7
Standard
  9
$DIMAUNIT
 70
     0
  9
$DIMADEC
 70
     0
  9
$DIMALTRND
 40
0.0
  9
$DIMAZIN
 70
     0
  9
$DIMDSEP
 70
    46
  9
$DIMATFIT
 70
     3
  9
$DIMFRAC
 70
     0
  9
$DIMLDRBLK
  1

  9
$DIMLUNIT
 70
     2
  9
$DIMLWD
 70
    -2
  9
$DIMLWE
 70
    -2
  9
$DIMTMOVE
 70
     0
  9
$DIMFXL
 40
1.0
  9
$DIMFXLON
 70
     0
  9
$DIMJOGANG
 40
0.7853981633974483
  9
$DIMTFILL
 70
     0
  9
$DIMTFILLCLR
 70
     0
  9
$DIMARCSYM
 70
     0
  9
$DIMLTYPE
  6

  9
$DIMLTEX1
  6

  9
$DIMLTEX2
  6

  9
$DIMTXTDIRECTION
 70
     0
  9
$LUNITS
 70
     2
  9
$LUPREC
 70
     4
  9
$SKETCHINC
 40
0.1
  9
$FILLETRAD
 40
0.0
  9
$AUNITS
 70
     0
  9
$AUPREC
 70
     0
  9
$MENU
  1
.
  9
$ELEVATION
 40
0.0
  9
$PELEVATION
 40
0.0
  9
$THICKNESS
 40
0.0
  9
$LIMCHECK
 70
     0
  9
$CHAMFERA
 40
0.0
  9
$CHAMFERB
 40
0.0
  9
$CHAMFERC
 40
0.0
  9
$CHAMFERD
 40
0.0
  9
$SKPOLY
 70
     0
  9
$TDCREATE
 40
2452643.438384271
  9
$TDUCREATE
 40
2452643.063384271
  9
$TDUPDATE
 40
2456756.718319745
  9
$TDUUPDATE
 40
2456756.343319745
  9
$TDINDWG
 40
0.0031828356
  9
$TDUSRTIMER
 40
2456756.342677222
  9
$USRTIMER
 70
     1
  9
$ANGBASE
 50
0.0
  9
$ANGDIR
 70
     0
  9
$PDMODE
 70
     0
  9
$PDSIZE
 40
0.0
  9
$PLINEWID
 40
0.0
  9
$SPLFRAME
 70
     0
  9
$SPLINETYPE
 70
     6
  9
$SPLINESEGS
 70
     8
  9
$HANDSEED
  5
3B1
  9
$SURFTAB1
 70
     6
  9
$SURFTAB2
 70
     6
  9
$SURFTYPE
 70
     6
  9
$SURFU
 70
     6
  9
$SURFV
 70
     6
  9
$UCSBASE
  2

  9
$UCSNAME
  2

  9
$UCSORG
 10
0.0
 20
0.0
 30
0.0
  9
$UCSXDIR
 10
1.0
 20
0.0
 30
0.0
  9
$UCSYDIR
 10
0.0
 20
1.0
 30
0.0
  9
$UCSORTHOREF
  2

  9
$UCSORTHOVIEW
 70
     0
  9
$UCSORGTOP
 10
0.0
 20
0.0
 30
0.0
  9
$UCSORGBOTTOM
 10
0.0
 20
0.0
 30
0.0
  9
$UCSORGLEFT
 10
0.0
 20
0.0
 30
0.0
  9
$UCSORGRIGHT
 10
0.0
 20
0.0
 30
0.0
  9
$UCSORGFRONT
 10
0.0
 20
0.0
 30
0.0
  9
$UCSORGBACK
 10
0.0
 20
0.0
 30
0.0
  9
$PUCSBASE
  2

  9
$PUCSNAME
  2

  9
$PUCSORG
 10
0.0
 20
0.0
 30
0.0
  9
$PUCSXDIR
 10
1.0
 20
0.0
 30
0.0
  9
$PUCSYDIR
 10
0.0
 20
1.0
 30
0.0
  9
$PUCSORTHOREF
  2

  9
$PUCSORTHOVIEW
 70
     0
  9
$PUCSORGTOP
 10
0.0
 20
0.0
 30
0.0
  9
$PUCSORGBOTTOM
 10
0.0
 20
0.0
 30
0.0
  9
$PUCSORGLEFT
 10
0.0
 20
0.0
 30
0.0
  9
$PUCSORGRIGHT
 10
0.0
 20
0.0
 30
0.0
  9
$PUCSORGFRONT
 10
0.0
 20
0.0
 30
0.0
  9
$PUCSORGBACK
 10
0.0
 20
0.0
 30
0.0
  9
$USERI1
 70
     0
  9
$USERI2
 70
     0
  9
$USERI3
 70
     0
  9
$USERI4
 70
     0
  9
$USERI5
 70
     0
  9
$USERR1
 40
0.0
  9
$USERR2
 40
0.0
  9
$USERR3
 40
0.0
  9
$USERR4
 40
0.0
  9
$USERR5
 40
0.0
  9
$WORLDVIEW
 70
     1
  9
$SHADEDGE
 70
     3
  9
$SHADEDIF
 70
    70
  9
$TILEMODE
 70
     1
  9
$MAXACTVP
 70
    64
  9
$PINSBASE
 10
0.0
 20
0.0
 30
0.0
  9
$PLIMCHECK
 70
     0
  9
$PEXTMIN
 10
0.0
 20
0.0
 30
0.0
  9
$PEXTMAX
 10
0.0
 20
0.0
 30
0.0
  9
$PLIMMIN
 10
0.0
 20
0.0
  9
$PLIMMAX
 10
0.0
 20
0.0
  9
$UNITMODE
 70
     0
  9
$VISRETAIN
 70
     1
  9
$PLINEGEN
 70
     0
  9
$PSLTSCALE
 70
     1
  9
$TREEDEPTH
 70
  3020
  9
$CMLSTYLE
  2
Standard
  9
$CMLJUST
 70
     0
  9
$CMLSCALE
 40
1.0
  9
$PROXYGRAPHICS
 70
     1
  9
$MEASUREMENT
 70
     0
  9
$CELWEIGHT
370
    -1
  9
$ENDCAPS
280
     0
  9
$JOINSTYLE
280
     0
  9
$LWDISPLAY
290
     0
  9
$INSUNITS
 70
     1
  9
$HYPERLINKBASE
  1

  9
$STYLESHEET
  1

  9
$XEDIT
290
     1
  9
$CEPSNTYPE
380
     0
  9
$PSTYLEMODE
290
     1
  9
$FINGERPRINTGUID
  2
{FDEAD576-A652-11D2-9A35-0060089B3A3F}
  9
$VERSIONGUID
  2
{FBC2AE19-5C5C-49EC-81BC-71B1A3362A02}
  9
$EXTNAMES
290
     1
  9
$PSVPSCALE
 40
0.0
  9
$OLESTARTUP
290
     0
  9
$SORTENTS
280
   127
  9
$INDEXCTL
280
     0
  9
$HIDETEXT
280
     1
  9
$XCLIPFRAME
280
     0
  9
$HALOGAP
280
     0
  9
$OBSCOLOR
 70
   257
  9
$OBSLTYPE
280
     0
  9
$INTERSECTIONDISPLAY
280
     0
  9
$INTERSECTIONCOLOR
 70
   257
  9
$DIMASSOC
280
     2
  9
$PROJECTNAME
  1

  9
$CAMERADISPLAY
290
     0
  9
$LENSLENGTH
 40
50.0
  9
$CAMERAHEIGHT
 40
0.0
  9
$STEPSPERSEC
 40
2.0
  9
$STEPSIZE
 40
6.0
  9
$3DDWFPREC
 40
2.0
  9
$PSOLWIDTH
 40
0.25
  9
$PSOLHEIGHT
 40
4.0
  9
$LOFTANG1
 40
1.570796326794897
  9
$LOFTANG2
 40
1.570796326794897
  9
$LOFTMAG1
 40
0.0
  9
$LOFTMAG2
 40
0.0
  9
$LOFTPARAM
 70
     7
  9
$LOFTNORMALS
280
     1
  9
$LATITUDE
 40
37.795
  9
$LONGITUDE
 40
-122.394
  9
$NORTHDIRECTION
 40
0.0
  9
$TIMEZONE
 70
 -8000
  9
$LIGHTGLYPHDISPLAY
280
     1
  9
$TILEMODELIGHTSYNCH
280
     1
  9
$CMATERIAL
347
96
  9
$SOLIDHIST
280
     1
  9
$SHOWHIST
280
     1
  9
$DWFFRAME
280
     2
  9
$DGNFRAME
280
     0
  9
$REALWORLDSCALE
290
     1
  9
$INTERFERECOLOR
 62
     1
  9
$CSHADOW
280
     0
  9
$SHADOWPLANELOCATION
 40
0.0
  0
ENDSEC
  0
SECTION
  2
CLASSES
  0
CLASS
  1
ACDBDICTIONARYWDFLT
  2
AcDbDictionaryWithDefault
  3
ObjectDBX Classes
 90
        0
 91
        5
280
     0
281
     0
  0
CLASS
  1
ACDBPLACEHOLDER
  2
AcDbPlaceHolder
  3
ObjectDBX Classes
 90
        0
 91
        1
280
     0
281
     0
  0
CLASS
  1
LAYOUT
  2
AcDbLayout
  3
ObjectDBX Classes
 90
        0
 91
        1
280
     0
281
     0
  0
CLASS
  1
DICTIONARYVAR
  2
AcDbDictionaryVar
  3
ObjectDBX Classes
 90
        0
 91
        4
280
     0
281
     0
  0
CLASS
  1
TABLESTYLE
  2
AcDbTableStyle
  3
ObjectDBX Classes
 90
     4095
 91
        5
280
     0
281
     0
  0
CLASS
  1
MATERIAL
  2
AcDbMaterial
  3
ObjectDBX Classes
 90
     1153
 91
        5
280
     0
281
     0
  0
CLASS
  1
VISUALSTYLE
  2
AcDbVisualStyle
  3
ObjectDBX Classes
 90
     4095
 91
        5
280
     0
281
     0
  0
CLASS
  1
SCALE
  2
AcDbScale
  3
ObjectDBX Classes
 90
     1153
 91
        5
280
     0
281
     0
  0
CLASS
  1
CELLSTYLEMAP
  2
AcDbCellStyleMap
  3
ObjectDBX Classes
 90
     1152
 91
        4
280
     0
281
     0
  0
CLASS
  1
RASTERVARIABLES
  2
AcDbRasterVariables
  3
ISM
 90
        0
 91
        5
280
     0
281
     0
  0
CLASS
  1
SUN
  2
AcDbSun
  3
SCENEOE
 90
     1153
 91
        5
280
     0
281
     0
  0
CLASS
  1
DIMASSOC
  2
AcDbDimAssoc
  3
"AcDbDimAssoc|Product Desc:     AcDim ARX App For Dimension|Company:          Autodesk, Inc.|WEB Address:      www.autodesk.com"
 90
        0
 91
        4
280
     0
281
     0
  0
ENDSEC
  0
SECTION
  2
TABLES
  0
TABLE
  2
VPORT
  5
8
330
0
100
AcDbSymbolTable
 70
     1
  0
VPORT
  5
94
330
8
100
AcDbSymbolTableRecord
100
AcDbViewportTableRecord
  2
*Active
 70
     0
 10
0.0
 20
0.0
 11
1.0
 21
1.0
 12
243.2657227479104
 22
179.7533695220696
 13
0.0
 23
0.0
 14
0.5
 24
0.5
 15
0.5
 25
0.5
 16
0.0
 26
0.0
 36
1.0
 17
-27.6695935659798
 27
-19.53870295786209
 37
0.0
 40
301.8776626022337
 41
1.102362204724409
 42
50.0
 43
0.0
 44
0.0
 50
0.0
 51
0.0
 71
    16
 72
  1000
 73
     1
 74
     3
 75
     0
 76
     0
 77
     0
 78
     0
281
     0
 65
     1
110
0.0
120
0.0
130
0.0
111
1.0
121
0.0
131
0.0
112
0.0
122
1.0
132
0.0
 79
     0
146
0.0
348
9F
 60
     2
 61
     5
292
     1
282
     1
141
0.0
142
0.0
 63
   250
421
  3355443
361
ED
  0
ENDTAB
  0
TABLE
  2
LTYPE
  5
5
330
0
100
AcDbSymbolTable
 70
     2
  0
LTYPE
  5
14
330
5
100
AcDbSymbolTableRecord
100
AcDbLinetypeTableRecord
  2
ByBlock
 70
     0
  3

 72
    65
 73
     0
 40
0.0
  0
LTYPE
  5
15
330
5
100
AcDbSymbolTableRecord
100
AcDbLinetypeTableRecord
  2
ByLayer
 70
     0
  3

 72
    65
 73
     0
 40
0.0
  0
LTYPE
  5
16
330
5
100
AcDbSymbolTableRecord
100
AcDbLinetypeTableRecord
  2
Continuous
 70
     0
  3
Solid line
 72
    65
 73
     0
 40
0.0
  0
LTYPE
  5
128
330
5
100
AcDbSymbolTableRecord
100
AcDbLinetypeTableRecord
  2
CENTER
 70
     0
  3
Center ____ _ ____ _ ____ _ ____ _ ____ _ ____
 72
    65
 73
     4
 40
50.8
 49
31.75
 74
     0
 49
-6.35
 74
     0
 49
6.35
 74
     0
 49
-6.35
 74
     0
  0
ENDTAB
  0
TABLE
  2
LAYER
  5
2
330
0
100
AcDbSymbolTable
 70
     6
  0
LAYER
  5
10
330
2
100
AcDbSymbolTableRecord
100
AcDbLayerTableRecord
  2
0
 70
     0
 62
     7
  6
Continuous
370
    -3
390
F
347
98
348
0
  0
LAYER
  5
125
330
2
100
AcDbSymbolTableRecord
100
AcDbLayerTableRecord
  2
Defpoints
 70
     0
 62
     7
  6
Continuous
290
     0
370
    -3
390
F
347
98
348
0
  0
LAYER
  5
126
330
2
100
AcDbSymbolTableRecord
100
AcDbLayerTableRecord
  2
中心線
 70
     0
 62
     7
  6
CENTER
370
    15
390
F
347
98
348
0
  0
LAYER
  5
129
330
2
100
AcDbSymbolTableRecord
100
AcDbLayerTableRecord
  2
実線
 70
     0
 62
     7
  6
Continuous
370
    25
390
F
347
98
348
0
  0
LAYER
  5
12A
330
2
100
AcDbSymbolTableRecord
100
AcDbLayerTableRecord
  2
文字・寸法線
 70
     0
 62
     7
  6
Continuous
370
    13
390
F
347
98
348
0
  0
LAYER
  5
34A
330
2
100
AcDbSymbolTableRecord
100
AcDbLayerTableRecord
  2
文字
 70
     0
 62
     7
  6
Continuous
370
    18
390
F
347
98
348
0
  0
ENDTAB
  0
TABLE
  2
STYLE
  5
3
330
0
100
AcDbSymbolTable
 70
     1
  0
STYLE
  5
11
330
3
100
AcDbSymbolTableRecord
100
AcDbTextStyleTableRecord
  2
Standard
 70
     0
 40
0.0
 41
1.0
 50
0.0
 71
     0
 42
0.2
  3
arial.ttf
  4

1001
ACAD
1000
Arial
1071
        0
  0
ENDTAB
  0
TABLE
  2
VIEW
  5
6
330
0
100
AcDbSymbolTable
 70
     0
  0
ENDTAB
  0
TABLE
  2
UCS
  5
7
330
0
100
AcDbSymbolTable
 70
     0
  0
ENDTAB
  0
TABLE
  2
APPID
  5
9
330
0
100
AcDbSymbolTable
 70
     1
  0
APPID
  5
12
330
9
100
AcDbSymbolTableRecord
100
AcDbRegAppTableRecord
  2
ACAD
 70
     0
  0
ENDTAB
  0
TABLE
  2
DIMSTYLE
  5
A
330
0
100
AcDbSymbolTable
 70
     2
100
AcDbDimStyleTable
  0
DIMSTYLE
105
27
330
A
100
AcDbSymbolTableRecord
100
AcDbDimStyleTableRecord
  2
Standard
 70
     0
178
     0
340
11
  0
DIMSTYLE
105
12B
102
{ACAD_REACTORS
330
248
330
24B
330
24E
330
252
330
255
330
25C
330
25F
330
262
330
279
330
27C
330
283
330
287
330
292
102
}
330
A
100
AcDbSymbolTableRecord
100
AcDbDimStyleTableRecord
  2
ISO-25
 70
     0
 41
2.5
 42
2.0
 43
3.75
 44
0.5
 73
     0
 74
     0
 77
     1
 78
     8
140
3.0
141
2.5
143
0.03937007874016
147
0.625
171
     3
172
     1
178
     0
271
     2
272
     2
274
     3
283
     0
284
     8
340
11
  0
ENDTAB
  0
TABLE
  2
BLOCK_RECORD
  5
1
330
0
100
AcDbSymbolTable
 70
    27
  0
BLOCK_RECORD
  5
1F
330
1
100
AcDbSymbolTableRecord
100
AcDbBlockTableRecord
  2
*Model_Space
340
22
 70
     0
280
     1
281
     0
  0
BLOCK_RECORD
  5
58
330
1
100
AcDbSymbolTableRecord
100
AcDbBlockTableRecord
  2
*Paper_Space
340
59
 70
     0
280
     1
281
     0
  0
BLOCK_RECORD
  5
5D
330
1
100
AcDbSymbolTableRecord
100
AcDbBlockTableRecord
  2
*Paper_Space0
340
5E
 70
     0
280
     1
281
     0
  0
BLOCK_RECORD
  5
14D
330
1
100
AcDbSymbolTableRecord
100
AcDbBlockTableRecord
  2
*D1
340
0
 70
     0
280
     1
281
     0
  0
BLOCK_RECORD
  5
15C
330
1
100
AcDbSymbolTableRecord
100
AcDbBlockTableRecord
  2
*D2
340
0
 70
     0
280
     1
281
     0
  0
BLOCK_RECORD
  5
16B
330
1
100
AcDbSymbolTableRecord
100
AcDbBlockTableRecord
  2
*D3
340
0
 70
     0
280
     1
281
     0
  0
BLOCK_RECORD
  5
17B
330
1
100
AcDbSymbolTableRecord
100
AcDbBlockTableRecord
  2
*D4
340
0
 70
     0
280
     1
281
     0
  0
BLOCK_RECORD
  5
18A
330
1
100
AcDbSymbolTableRecord
100
AcDbBlockTableRecord
  2
*D5
340
0
 70
     0
280
     1
281
     0
  0
BLOCK_RECORD
  5
19D
330
1
100
AcDbSymbolTableRecord
100
AcDbBlockTableRecord
  2
*D6
340
0
 70
     0
280
     1
281
     0
  0
BLOCK_RECORD
  5
1AE
330
1
100
AcDbSymbolTableRecord
100
AcDbBlockTableRecord
  2
*D7
340
0
 70
     0
280
     1
281
     0
  0
BLOCK_RECORD
  5
1BD
330
1
100
AcDbSymbolTableRecord
100
AcDbBlockTableRecord
  2
*D8
340
0
 70
     0
280
     1
281
     0
  0
BLOCK_RECORD
  5
1E0
330
1
100
AcDbSymbolTableRecord
100
AcDbBlockTableRecord
  2
*D9
340
0
 70
     0
280
     1
281
     0
  0
BLOCK_RECORD
  5
1EF
330
1
100
AcDbSymbolTableRecord
100
AcDbBlockTableRecord
  2
*D10
340
0
 70
     0
280
     1
281
     0
  0
BLOCK_RECORD
  5
202
330
1
100
AcDbSymbolTableRecord
100
AcDbBlockTableRecord
  2
*D11
340
0
 70
     0
280
     1
281
     0
  0
BLOCK_RECORD
  5
210
330
1
100
AcDbSymbolTableRecord
100
AcDbBlockTableRecord
  2
*D12
340
0
 70
     0
280
     1
281
     0
  0
BLOCK_RECORD
  5
236
330
1
100
AcDbSymbolTableRecord
100
AcDbBlockTableRecord
  2
*D13
340
0
 70
     0
280
     1
281
     0
  0
BLOCK_RECORD
  5
2A5
330
1
100
AcDbSymbolTableRecord
100
AcDbBlockTableRecord
  2
*D14
340
0
 70
     0
280
     1
281
     0
  0
BLOCK_RECORD
  5
2B1
330
1
100
AcDbSymbolTableRecord
100
AcDbBlockTableRecord
  2
*D15
340
0
 70
     0
280
     1
281
     0
  0
BLOCK_RECORD
  5
2BD
330
1
100
AcDbSymbolTableRecord
100
AcDbBlockTableRecord
  2
*D16
340
0
 70
     0
280
     1
281
     0
  0
BLOCK_RECORD
  5
2C9
330
1
100
AcDbSymbolTableRecord
100
AcDbBlockTableRecord
  2
*D17
340
0
 70
     0
280
     1
281
     0
  0
BLOCK_RECORD
  5
2D5
330
1
100
AcDbSymbolTableRecord
100
AcDbBlockTableRecord
  2
*D18
340
0
 70
     0
280
     1
281
     0
  0
BLOCK_RECORD
  5
2E1
330
1
100
AcDbSymbolTableRecord
100
AcDbBlockTableRecord
  2
*D19
340
0
 70
     0
280
     1
281
     0
  0
BLOCK_RECORD
  5
2EF
330
1
100
AcDbSymbolTableRecord
100
AcDbBlockTableRecord
  2
*D20
340
0
 70
     0
280
     1
281
     0
  0
BLOCK_RECORD
  5
2FB
330
1
100
AcDbSymbolTableRecord
100
AcDbBlockTableRecord
  2
*D21
340
0
 70
     0
280
     1
281
     0
  0
BLOCK_RECORD
  5
307
330
1
100
AcDbSymbolTableRecord
100
AcDbBlockTableRecord
  2
*D22
340
0
 70
     0
280
     1
281
     0
  0
BLOCK_RECORD
  5
313
330
1
100
AcDbSymbolTableRecord
100
AcDbBlockTableRecord
  2
*D23
340
0
 70
     0
280
     1
281
     0
  0
BLOCK_RECORD
  5
31F
330
1
100
AcDbSymbolTableRecord
100
AcDbBlockTableRecord
  2
*D24
340
0
 70
     0
280
     1
281
     0
  0
BLOCK_RECORD
  5
32B
330
1
100
AcDbSymbolTableRecord
100
AcDbBlockTableRecord
  2
*D25
340
0
 70
     0
280
     1
281
     0
  0
BLOCK_RECORD
  5
337
330
1
100
AcDbSymbolTableRecord
100
AcDbBlockTableRecord
  2
*D26
340
0
 70
     0
280
     1
281
     0
  0
ENDTAB
  0
ENDSEC
  0
SECTION
  2
BLOCKS
  0
BLOCK
  5
20
330
1F
100
AcDbEntity
  8
0
100
AcDbBlockBegin
  2
*Model_Space
 70
     0
 10
0.0
 20
0.0
 30
0.0
  3
*Model_Space
  1
*Model_Space
  0
ENDBLK
  5
21
330
1F
100
AcDbEntity
  8
0
100
AcDbBlockEnd
  0
BLOCK
  5
5A
330
58
100
AcDbEntity
 67
     1
  8
0
100
AcDbBlockBegin
  2
*Paper_Space
 70
     0
 10
0.0
 20
0.0
 30
0.0
  3
*Paper_Space
  1
*Paper_Space
  0
ENDBLK
  5
5B
330
58
100
AcDbEntity
 67
     1
  8
0
100
AcDbBlockEnd
  0
BLOCK
  5
5F
330
5D
100
AcDbEntity
  8
0
100
AcDbBlockBegin
  2
*Paper_Space0
 70
     0
 10
0.0
 20
0.0
 30
0.0
  3
*Paper_Space0
  1
*Paper_Space0
  0
ENDBLK
  5
60
330
5D
100
AcDbEntity
  8
0
100
AcDbBlockEnd
  0
BLOCK
  5
14E
330
14D
100
AcDbEntity
  8
0
370
    15
100
AcDbBlockBegin
  2
*D1
 70
     1
 10
0.0
 20
0.0
 30
0.0
  3
*D1
  1
*D2
  0
LINE
  5
14F
330
14D
100
AcDbEntity
  8
文字・寸法線
 62
     0
370
    -2
100
AcDbLine
 10
242.0932007669393
 20
80.04975031731479
 30
0.0
 11
242.0932007669393
 21
97.3746234977086
 31
0.0
  0
LINE
  5
150
330
14D
100
AcDbEntity
  8
文字・寸法線
 62
     0
370
    -2
100
AcDbLine
 10
227.0932007669393
 20
49.42475031731479
 30
0.0
 11
227.0932007669393
 21
97.3746234977086
 31
0.0
  0
LINE
  5
151
330
14D
100
AcDbEntity
  8
文字・寸法線
 62
     0
370
    -2
100
AcDbLine
 10
239.5932007669393
 20
96.8746234977086
 30
0.0
 11
229.5932007669393
 21
96.8746234977086
 31
0.0
  0
SOLID
  5
152
330
14D
100
AcDbEntity
  8
文字・寸法線
 62
     0
100
AcDbTrace
 10
239.5932007669393
 20
96.45795683104193
 30
0.0
 11
239.5932007669393
 21
97.29129016437527
 31
0.0
 12
242.0932007669393
 22
96.8746234977086
 32
0.0
 13
242.0932007669393
 23
96.8746234977086
 33
0.0
  0
SOLID
  5
153
330
14D
100
AcDbEntity
  8
文字・寸法線
 62
     0
100
AcDbTrace
 10
229.5932007669393
 20
97.29129016437527
 30
0.0
 11
229.5932007669393
 21
96.45795683104193
 31
0.0
 12
227.0932007669393
 22
96.8746234977086
 32
0.0
 13
227.0932007669393
 23
96.8746234977086
 33
0.0
  0
MTEXT
  5
154
330
14D
100
AcDbEntity
  8
文字・寸法線
 62
     0
100
AcDbMText
 10
234.5932007669393
 20
99.03031926851351
 30
0.0
 40
3.0
 41
0.0
 46
0.0
 71
     5
 72
     1
  1
15
 73
     1
 44
1.0
  0
POINT
  5
155
330
14D
100
AcDbEntity
  8
Defpoints
 62
     0
100
AcDbPoint
 10
242.0932007669393
 20
78.04975031731479
 30
0.0
  0
POINT
  5
156
330
14D
100
AcDbEntity
  8
Defpoints
 62
     0
100
AcDbPoint
 10
227.0932007669393
 20
47.42475031731479
 30
0.0
  0
POINT
  5
157
330
14D
100
AcDbEntity
  8
Defpoints
 62
     0
100
AcDbPoint
 10
227.0932007669393
 20
96.8746234977086
 30
0.0
  0
ENDBLK
  5
158
330
14D
100
AcDbEntity
  8
0
370
    15
100
AcDbBlockEnd
  0
BLOCK
  5
15D
330
15C
100
AcDbEntity
  8
0
370
    15
100
AcDbBlockBegin
  2
*D2
 70
     1
 10
0.0
 20
0.0
 30
0.0
  3
*D2
  1
*D3
  0
LINE
  5
15E
330
15C
100
AcDbEntity
  8
文字・寸法線
 62
     0
370
    -2
100
AcDbLine
 10
312.0932007669393
 20
90.8201894239879
 30
0.0
 11
312.0932007669393
 21
97.3746234977086
 31
0.0
  0
LINE
  5
15F
330
15C
100
AcDbEntity
  8
文字・寸法線
 62
     0
370
    -2
100
AcDbLine
 10
242.0932007669393
 20
79.42475031731479
 30
0.0
 11
242.0932007669393
 21
97.3746234977086
 31
0.0
  0
LINE
  5
160
330
15C
100
AcDbEntity
  8
文字・寸法線
 62
     0
370
    -2
100
AcDbLine
 10
309.5932007669393
 20
96.8746234977086
 30
0.0
 11
244.5932007669393
 21
96.8746234977086
 31
0.0
  0
SOLID
  5
161
330
15C
100
AcDbEntity
  8
文字・寸法線
 62
     0
100
AcDbTrace
 10
309.5932007669393
 20
96.45795683104193
 30
0.0
 11
309.5932007669393
 21
97.29129016437527
 31
0.0
 12
312.0932007669393
 22
96.8746234977086
 32
0.0
 13
312.0932007669393
 23
96.8746234977086
 33
0.0
  0
SOLID
  5
162
330
15C
100
AcDbEntity
  8
文字・寸法線
 62
     0
100
AcDbTrace
 10
244.5932007669393
 20
97.29129016437527
 30
0.0
 11
244.5932007669393
 21
96.45795683104193
 31
0.0
 12
242.0932007669393
 22
96.8746234977086
 32
0.0
 13
242.0932007669393
 23
96.8746234977086
 33
0.0
  0
MTEXT
  5
163
330
15C
100
AcDbEntity
  8
文字・寸法線
 62
     0
100
AcDbMText
 10
277.0932007669393
 20
99.03031926851351
 30
0.0
 40
3.0
 41
0.0
 46
0.0
 71
     5
 72
     1
  1
70
 73
     1
 44
1.0
  0
POINT
  5
164
330
15C
100
AcDbEntity
  8
Defpoints
 62
     0
100
AcDbPoint
 10
312.0932007669393
 20
88.8201894239879
 30
0.0
  0
POINT
  5
165
330
15C
100
AcDbEntity
  8
Defpoints
 62
     0
100
AcDbPoint
 10
242.0932007669393
 20
77.42475031731479
 30
0.0
  0
POINT
  5
166
330
15C
100
AcDbEntity
  8
Defpoints
 62
     0
100
AcDbPoint
 10
242.0932007669393
 20
96.8746234977086
 30
0.0
  0
ENDBLK
  5
167
330
15C
100
AcDbEntity
  8
0
370
    15
100
AcDbBlockEnd
  0
BLOCK
  5
16C
330
16B
100
AcDbEntity
  8
0
370
    15
100
AcDbBlockBegin
  2
*D3
 70
     1
 10
0.0
 20
0.0
 30
0.0
  3
*D3
  1
*D4
  0
LINE
  5
16D
330
16B
100
AcDbEntity
  8
文字・寸法線
 62
     0
370
    -2
100
AcDbLine
 10
347.0932007669393
 20
49.42475031731479
 30
0.0
 11
347.0932007669393
 21
97.3746234977086
 31
0.0
  0
LINE
  5
16E
330
16B
100
AcDbEntity
  8
文字・寸法線
 62
     0
370
    -2
100
AcDbLine
 10
312.0932007669393
 20
90.1951894239879
 30
0.0
 11
312.0932007669393
 21
97.3746234977086
 31
0.0
  0
LINE
  5
16F
330
16B
100
AcDbEntity
  8
文字・寸法線
 62
     0
370
    -2
100
AcDbLine
 10
344.5932007669393
 20
96.8746234977086
 30
0.0
 11
314.5932007669393
 21
96.8746234977086
 31
0.0
  0
SOLID
  5
170
330
16B
100
AcDbEntity
  8
文字・寸法線
 62
     0
100
AcDbTrace
 10
344.5932007669393
 20
96.45795683104193
 30
0.0
 11
344.5932007669393
 21
97.29129016437527
 31
0.0
 12
347.0932007669393
 22
96.8746234977086
 32
0.0
 13
347.0932007669393
 23
96.8746234977086
 33
0.0
  0
SOLID
  5
171
330
16B
100
AcDbEntity
  8
文字・寸法線
 62
     0
100
AcDbTrace
 10
314.5932007669393
 20
97.29129016437527
 30
0.0
 11
314.5932007669393
 21
96.45795683104193
 31
0.0
 12
312.0932007669393
 22
96.8746234977086
 32
0.0
 13
312.0932007669393
 23
96.8746234977086
 33
0.0
  0
MTEXT
  5
172
330
16B
100
AcDbEntity
  8
文字・寸法線
 62
     0
100
AcDbMText
 10
329.5932007669393
 20
99.03031926851351
 30
0.0
 40
3.0
 41
0.0
 46
0.0
 71
     5
 72
     1
  1
35
 73
     1
 44
1.0
  0
POINT
  5
173
330
16B
100
AcDbEntity
  8
Defpoints
 62
     0
100
AcDbPoint
 10
347.0932007669393
 20
47.42475031731479
 30
0.0
  0
POINT
  5
174
330
16B
100
AcDbEntity
  8
Defpoints
 62
     0
100
AcDbPoint
 10
312.0932007669393
 20
88.1951894239879
 30
0.0
  0
POINT
  5
175
330
16B
100
AcDbEntity
  8
Defpoints
 62
     0
100
AcDbPoint
 10
312.0932007669393
 20
96.8746234977086
 30
0.0
  0
ENDBLK
  5
176
330
16B
100
AcDbEntity
  8
0
370
    15
100
AcDbBlockEnd
  0
BLOCK
  5
17C
330
17B
100
AcDbEntity
  8
0
370
    15
100
AcDbBlockBegin
  2
*D4
 70
     1
 10
0.0
 20
0.0
 30
0.0
  3
*D4
  1
*D5
  0
LINE
  5
17D
330
17B
100
AcDbEntity
  8
文字・寸法線
 62
     0
370
    -2
100
AcDbLine
 10
314.0932007669393
 20
82.42475031731479
 30
0.0
 11
374.3063645306113
 21
82.42475031731479
 31
0.0
  0
LINE
  5
17E
330
17B
100
AcDbEntity
  8
文字・寸法線
 62
     0
370
    -2
100
AcDbLine
 10
314.0932007669393
 20
12.42475031731479
 30
0.0
 11
374.3063645306113
 21
12.42475031731479
 31
0.0
  0
LINE
  5
17F
330
17B
100
AcDbEntity
  8
文字・寸法線
 62
     0
370
    -2
100
AcDbLine
 10
373.8063645306113
 20
79.92475031731479
 30
0.0
 11
373.8063645306113
 21
14.92475031731479
 31
0.0
  0
SOLID
  5
180
330
17B
100
AcDbEntity
  8
文字・寸法線
 62
     0
100
AcDbTrace
 10
374.223031197278
 20
79.92475031731479
 30
0.0
 11
373.3896978639447
 21
79.92475031731479
 31
0.0
 12
373.8063645306113
 22
82.42475031731479
 32
0.0
 13
373.8063645306113
 23
82.42475031731479
 33
0.0
  0
SOLID
  5
181
330
17B
100
AcDbEntity
  8
文字・寸法線
 62
     0
100
AcDbTrace
 10
373.3896978639447
 20
14.92475031731479
 30
0.0
 11
374.223031197278
 21
14.92475031731479
 31
0.0
 12
373.8063645306113
 22
12.42475031731479
 32
0.0
 13
373.8063645306113
 23
12.42475031731479
 33
0.0
  0
MTEXT
  5
182
330
17B
100
AcDbEntity
  8
文字・寸法線
 62
     0
100
AcDbMText
 10
371.6506687598064
 20
47.42475031731479
 30
0.0
 40
3.0
 41
0.0
 46
0.0
 71
     5
 72
     1
  1
70
 11
0.0
 21
1.0
 31
0.0
 73
     1
 44
1.0
  0
POINT
  5
183
330
17B
100
AcDbEntity
  8
Defpoints
 62
     0
100
AcDbPoint
 10
312.0932007669393
 20
82.42475031731479
 30
0.0
  0
POINT
  5
184
330
17B
100
AcDbEntity
  8
Defpoints
 62
     0
100
AcDbPoint
 10
312.0932007669393
 20
12.42475031731479
 30
0.0
  0
POINT
  5
185
330
17B
100
AcDbEntity
  8
Defpoints
 62
     0
100
AcDbPoint
 10
373.8063645306113
 20
12.42475031731479
 30
0.0
  0
ENDBLK
  5
186
330
17B
100
AcDbEntity
  8
0
370
    15
100
AcDbBlockEnd
  0
BLOCK
  5
18B
330
18A
100
AcDbEntity
  8
0
370
    15
100
AcDbBlockBegin
  2
*D5
 70
     1
 10
0.0
 20
0.0
 30
0.0
  3
*D5
  1
*D6
  0
LINE
  5
18C
330
18A
100
AcDbEntity
  8
文字・寸法線
 62
     0
370
    -2
100
AcDbLine
 10
314.0932007669393
 20
74.42475031731479
 30
0.0
 11
366.3079499666689
 21
74.42475031731479
 31
0.0
  0
LINE
  5
18D
330
18A
100
AcDbEntity
  8
文字・寸法線
 62
     0
370
    -2
100
AcDbLine
 10
314.0932007669393
 20
20.42475031731479
 30
0.0
 11
366.3079499666689
 21
20.42475031731479
 31
0.0
  0
LINE
  5
18E
330
18A
100
AcDbEntity
  8
文字・寸法線
 62
     0
370
    -2
100
AcDbLine
 10
365.8079499666689
 20
71.92475031731479
 30
0.0
 11
365.8079499666689
 21
22.92475031731479
 31
0.0
  0
SOLID
  5
18F
330
18A
100
AcDbEntity
  8
文字・寸法線
 62
     0
100
AcDbTrace
 10
366.2246166333356
 20
71.92475031731479
 30
0.0
 11
365.3912833000022
 21
71.92475031731479
 31
0.0
 12
365.8079499666689
 22
74.42475031731479
 32
0.0
 13
365.8079499666689
 23
74.42475031731479
 33
0.0
  0
SOLID
  5
190
330
18A
100
AcDbEntity
  8
文字・寸法線
 62
     0
100
AcDbTrace
 10
365.3912833000022
 20
22.92475031731479
 30
0.0
 11
366.2246166333356
 21
22.92475031731479
 31
0.0
 12
365.8079499666689
 22
20.42475031731479
 32
0.0
 13
365.8079499666689
 23
20.42475031731479
 33
0.0
  0
MTEXT
  5
191
330
18A
100
AcDbEntity
  8
文字・寸法線
 62
     0
100
AcDbMText
 10
363.6010945778558
 20
47.42475031731479
 30
0.0
 40
3.0
 41
0.0
 46
0.0
 71
     5
 72
     1
  1
%%c54
 11
0.0
 21
1.0
 31
0.0
 73
     1
 44
1.0
  0
POINT
  5
192
330
18A
100
AcDbEntity
  8
Defpoints
 62
     0
100
AcDbPoint
 10
312.0932007669393
 20
74.42475031731479
 30
0.0
  0
POINT
  5
193
330
18A
100
AcDbEntity
  8
Defpoints
 62
     0
100
AcDbPoint
 10
312.0932007669393
 20
20.42475031731479
 30
0.0
  0
POINT
  5
194
330
18A
100
AcDbEntity
  8
Defpoints
 62
     0
100
AcDbPoint
 10
365.8079499666689
 20
20.42475031731479
 30
0.0
  0
ENDBLK
  5
195
330
18A
100
AcDbEntity
  8
0
370
    15
100
AcDbBlockEnd
  0
BLOCK
  5
19E
330
19D
100
AcDbEntity
  8
0
370
    15
100
AcDbBlockBegin
  2
*D6
 70
     1
 10
0.0
 20
0.0
 30
0.0
  3
*D6
  1
*D7
  0
LINE
  5
19F
330
19D
100
AcDbEntity
  8
文字・寸法線
 62
     0
370
    -2
100
AcDbLine
 10
10.84355160201605
 20
24.33521546489121
 30
0.0
 11
3.679076202585037
 21
24.33521546489121
 31
0.0
  0
LINE
  5
1A0
330
19D
100
AcDbEntity
  8
文字・寸法線
 62
     0
370
    -2
100
AcDbLine
 10
10.84355160201605
 20
22.33521546489121
 30
0.0
 11
3.679076202585037
 21
22.33521546489121
 31
0.0
  0
LINE
  5
1A1
330
19D
100
AcDbEntity
  8
文字・寸法線
 62
     0
370
    -2
100
AcDbLine
 10
4.179076202585037
 20
24.33521546489121
 30
0.0
 11
4.179076202585037
 21
22.33521546489121
 31
0.0
  0
LINE
  5
1A2
330
19D
100
AcDbEntity
  8
文字・寸法線
 62
     0
370
    -2
100
AcDbLine
 10
4.179076202585037
 20
26.83521546489121
 30
0.0
 11
4.179076202585037
 21
29.33521546489121
 31
0.0
  0
LINE
  5
1A3
330
19D
100
AcDbEntity
  8
文字・寸法線
 62
     0
370
    -2
100
AcDbLine
 10
4.179076202585037
 20
19.83521546489121
 30
0.0
 11
4.179076202585037
 21
17.33521546489121
 31
0.0
  0
SOLID
  5
1A4
330
19D
100
AcDbEntity
  8
文字・寸法線
 62
     0
100
AcDbTrace
 10
3.76240953591837
 20
26.83521546489121
 30
0.0
 11
4.595742869251704
 21
26.83521546489121
 31
0.0
 12
4.179076202585037
 22
24.33521546489121
 32
0.0
 13
4.179076202585037
 23
24.33521546489121
 33
0.0
  0
SOLID
  5
1A5
330
19D
100
AcDbEntity
  8
文字・寸法線
 62
     0
100
AcDbTrace
 10
4.595742869251704
 20
19.83521546489121
 30
0.0
 11
3.76240953591837
 21
19.83521546489121
 31
0.0
 12
4.179076202585037
 22
22.33521546489121
 32
0.0
 13
4.179076202585037
 23
22.33521546489121
 33
0.0
  0
MTEXT
  5
1A6
330
19D
100
AcDbEntity
  8
文字・寸法線
 62
     0
100
AcDbMText
 10
1.5
 20
27.65082444152486
 30
0.0
 40
3.0
 41
0.0
 46
0.0
 71
     5
 72
     1
  1
2
 11
0.0
 21
1.0
 31
0.0
 73
     1
 44
1.0
  0
POINT
  5
1A7
330
19D
100
AcDbEntity
  8
Defpoints
 62
     0
100
AcDbPoint
 10
12.84355160201605
 20
24.33521546489121
 30
0.0
  0
POINT
  5
1A8
330
19D
100
AcDbEntity
  8
Defpoints
 62
     0
100
AcDbPoint
 10
12.84355160201605
 20
22.33521546489121
 30
0.0
  0
POINT
  5
1A9
330
19D
100
AcDbEntity
  8
Defpoints
 62
     0
100
AcDbPoint
 10
4.179076202585037
 20
22.33521546489121
 30
0.0
  0
ENDBLK
  5
1AA
330
19D
100
AcDbEntity
  8
0
370
    15
100
AcDbBlockEnd
  0
BLOCK
  5
1AF
330
1AE
100
AcDbEntity
  8
0
370
    15
100
AcDbBlockBegin
  2
*D7
 70
     1
 10
0.0
 20
0.0
 30
0.0
  3
*D7
  1
*D8
  0
LINE
  5
1B0
330
1AE
100
AcDbEntity
  8
文字・寸法線
 62
     0
370
    -2
100
AcDbLine
 10
12.84355160201605
 20
20.33521546489121
 30
0.0
 11
12.84355160201605
 21
4.583056160363384
 31
0.0
  0
LINE
  5
1B1
330
1AE
100
AcDbEntity
  8
文字・寸法線
 62
     0
370
    -2
100
AcDbLine
 10
132.843551602016
 20
20.33521546489121
 30
0.0
 11
132.843551602016
 21
4.583056160363384
 31
0.0
  0
LINE
  5
1B2
330
1AE
100
AcDbEntity
  8
文字・寸法線
 62
     0
370
    -2
100
AcDbLine
 10
15.34355160201605
 20
5.083056160363384
 30
0.0
 11
130.343551602016
 21
5.083056160363384
 31
0.0
  0
SOLID
  5
1B3
330
1AE
100
AcDbEntity
  8
文字・寸法線
 62
     0
100
AcDbTrace
 10
15.34355160201605
 20
5.499722827030051
 30
0.0
 11
15.34355160201605
 21
4.666389493696717
 31
0.0
 12
12.84355160201605
 22
5.083056160363384
 32
0.0
 13
12.84355160201605
 23
5.083056160363384
 33
0.0
  0
SOLID
  5
1B4
330
1AE
100
AcDbEntity
  8
文字・寸法線
 62
     0
100
AcDbTrace
 10
130.343551602016
 20
4.666389493696717
 30
0.0
 11
130.343551602016
 21
5.499722827030051
 31
0.0
 12
132.843551602016
 22
5.083056160363384
 32
0.0
 13
132.843551602016
 23
5.083056160363384
 33
0.0
  0
MTEXT
  5
1B5
330
1AE
100
AcDbEntity
  8
文字・寸法線
 62
     0
100
AcDbMText
 10
72.84355160201605
 20
7.238751931168295
 30
0.0
 40
3.0
 41
0.0
 46
0.0
 71
     5
 72
     1
  1
120
 73
     1
 44
1.0
  0
POINT
  5
1B6
330
1AE
100
AcDbEntity
  8
Defpoints
 62
     0
100
AcDbPoint
 10
12.84355160201605
 20
22.33521546489121
 30
0.0
  0
POINT
  5
1B7
330
1AE
100
AcDbEntity
  8
Defpoints
 62
     0
100
AcDbPoint
 10
132.843551602016
 20
22.33521546489121
 30
0.0
  0
POINT
  5
1B8
330
1AE
100
AcDbEntity
  8
Defpoints
 62
     0
100
AcDbPoint
 10
132.843551602016
 20
5.083056160363384
 30
0.0
  0
ENDBLK
  5
1B9
330
1AE
100
AcDbEntity
  8
0
370
    15
100
AcDbBlockEnd
  0
BLOCK
  5
1BE
330
1BD
100
AcDbEntity
  8
0
370
    15
100
AcDbBlockBegin
  2
*D8
 70
     1
 10
0.0
 20
0.0
 30
0.0
  3
*D8
  1
*D9
  0
LINE
  5
1BF
330
1BD
100
AcDbEntity
  8
文字・寸法線
 62
     0
370
    -2
100
AcDbLine
 10
99.87383101352935
 20
42.83521546489116
 30
0.0
 11
141.9534819207253
 21
42.83521546489116
 31
0.0
  0
LINE
  5
1C0
330
1BD
100
AcDbEntity
  8
文字・寸法線
 62
     0
370
    -2
100
AcDbLine
 10
134.843551602016
 20
22.33521546489116
 30
0.0
 11
141.9534819207253
 21
22.33521546489116
 31
0.0
  0
LINE
  5
1C1
330
1BD
100
AcDbEntity
  8
文字・寸法線
 62
     0
370
    -2
100
AcDbLine
 10
141.4534819207253
 20
40.33521546489116
 30
0.0
 11
141.4534819207253
 21
24.83521546489116
 31
0.0
  0
SOLID
  5
1C2
330
1BD
100
AcDbEntity
  8
文字・寸法線
 62
     0
100
AcDbTrace
 10
141.8701485873919
 20
40.33521546489116
 30
0.0
 11
141.0368152540586
 21
40.33521546489116
 31
0.0
 12
141.4534819207253
 22
42.83521546489116
 32
0.0
 13
141.4534819207253
 23
42.83521546489116
 33
0.0
  0
SOLID
  5
1C3
330
1BD
100
AcDbEntity
  8
文字・寸法線
 62
     0
100
AcDbTrace
 10
141.0368152540586
 20
24.83521546489116
 30
0.0
 11
141.8701485873919
 21
24.83521546489116
 31
0.0
 12
141.4534819207253
 22
22.33521546489116
 32
0.0
 13
141.4534819207253
 23
22.33521546489116
 33
0.0
  0
MTEXT
  5
1C4
330
1BD
100
AcDbEntity
  8
文字・寸法線
 62
     0
100
AcDbMText
 10
139.2977861499203
 20
32.58521546489116
 30
0.0
 40
3.0
 41
0.0
 46
0.0
 71
     5
 72
     1
  1
20.5
 11
0.0
 21
1.0
 31
0.0
 73
     1
 44
1.0
  0
POINT
  5
1C5
330
1BD
100
AcDbEntity
  8
Defpoints
 62
     0
100
AcDbPoint
 10
97.87383101352935
 20
42.83521546489116
 30
0.0
  0
POINT
  5
1C6
330
1BD
100
AcDbEntity
  8
Defpoints
 62
     0
100
AcDbPoint
 10
132.843551602016
 20
22.33521546489116
 30
0.0
  0
POINT
  5
1C7
330
1BD
100
AcDbEntity
  8
Defpoints
 62
     0
100
AcDbPoint
 10
141.4534819207253
 20
22.33521546489116
 30
0.0
  0
ENDBLK
  5
1C8
330
1BD
100
AcDbEntity
  8
0
370
    15
100
AcDbBlockEnd
  0
BLOCK
  5
1E1
330
1E0
100
AcDbEntity
  8
0
370
    15
100
AcDbBlockBegin
  2
*D9
 70
     1
 10
0.0
 20
0.0
 30
0.0
  3
*D9
  1
*D10
  0
LINE
  5
1E2
330
1E0
100
AcDbEntity
  8
文字・寸法線
 62
     0
370
    -2
100
AcDbLine
 10
91.87383101352884
 20
150.8352154648912
 30
0.0
 11
91.87383101352884
 21
161.9075526245599
 31
0.0
  0
LINE
  5
1E3
330
1E0
100
AcDbEntity
  8
文字・寸法線
 62
     0
370
    -2
100
AcDbLine
 10
103.8738310135288
 20
150.8352154648912
 30
0.0
 11
103.8738310135288
 21
161.9075526245599
 31
0.0
  0
LINE
  5
1E4
330
1E0
100
AcDbEntity
  8
文字・寸法線
 62
     0
370
    -2
100
AcDbLine
 10
94.37383101352884
 20
161.4075526245599
 30
0.0
 11
101.3738310135288
 21
161.4075526245599
 31
0.0
  0
SOLID
  5
1E5
330
1E0
100
AcDbEntity
  8
文字・寸法線
 62
     0
100
AcDbTrace
 10
94.37383101352884
 20
161.8242192912265
 30
0.0
 11
94.37383101352884
 21
160.9908859578932
 31
0.0
 12
91.87383101352884
 22
161.4075526245599
 32
0.0
 13
91.87383101352884
 23
161.4075526245599
 33
0.0
  0
SOLID
  5
1E6
330
1E0
100
AcDbEntity
  8
文字・寸法線
 62
     0
100
AcDbTrace
 10
101.3738310135288
 20
160.9908859578932
 30
0.0
 11
101.3738310135288
 21
161.8242192912265
 31
0.0
 12
103.8738310135288
 22
161.4075526245599
 32
0.0
 13
103.8738310135288
 23
161.4075526245599
 33
0.0
  0
MTEXT
  5
1E7
330
1E0
100
AcDbEntity
  8
文字・寸法線
 62
     0
100
AcDbMText
 10
97.87383101352884
 20
163.5386917787209
 30
0.0
 40
3.0
 41
0.0
 46
0.0
 71
     5
 72
     1
  1
M12
 73
     1
 44
1.0
  0
POINT
  5
1E8
330
1E0
100
AcDbEntity
  8
Defpoints
 62
     0
100
AcDbPoint
 10
91.87383101352884
 20
148.8352154648912
 30
0.0
  0
POINT
  5
1E9
330
1E0
100
AcDbEntity
  8
Defpoints
 62
     0
100
AcDbPoint
 10
103.8738310135288
 20
148.8352154648912
 30
0.0
  0
POINT
  5
1EA
330
1E0
100
AcDbEntity
  8
Defpoints
 62
     0
100
AcDbPoint
 10
103.8738310135288
 20
161.4075526245599
 30
0.0
  0
ENDBLK
  5
1EB
330
1E0
100
AcDbEntity
  8
0
370
    15
100
AcDbBlockEnd
  0
BLOCK
  5
1F0
330
1EF
100
AcDbEntity
  8
0
370
    15
100
AcDbBlockBegin
  2
*D10
 70
     1
 10
0.0
 20
0.0
 30
0.0
  3
*D10
  1
*D11
  0
LINE
  5
1F1
330
1EF
100
AcDbEntity
  8
文字・寸法線
 62
     0
370
    -2
100
AcDbLine
 10
103.8738310135288
 20
150.8352154648912
 30
0.0
 11
141.9534819207254
 21
150.8352154648912
 31
0.0
  0
LINE
  5
1F2
330
1EF
100
AcDbEntity
  8
文字・寸法線
 62
     0
370
    -2
100
AcDbLine
 10
110.8238310135288
 20
50.83521546489121
 30
0.0
 11
141.9534819207254
 21
50.83521546489121
 31
0.0
  0
LINE
  5
1F3
330
1EF
100
AcDbEntity
  8
文字・寸法線
 62
     0
370
    -2
100
AcDbLine
 10
141.4534819207254
 20
148.3352154648912
 30
0.0
 11
141.4534819207254
 21
53.33521546489121
 31
0.0
  0
SOLID
  5
1F4
330
1EF
100
AcDbEntity
  8
文字・寸法線
 62
     0
100
AcDbTrace
 10
141.8701485873921
 20
148.3352154648912
 30
0.0
 11
141.0368152540588
 21
148.3352154648912
 31
0.0
 12
141.4534819207254
 22
150.8352154648912
 32
0.0
 13
141.4534819207254
 23
150.8352154648912
 33
0.0
  0
SOLID
  5
1F5
330
1EF
100
AcDbEntity
  8
文字・寸法線
 62
     0
100
AcDbTrace
 10
141.0368152540588
 20
53.33521546489121
 30
0.0
 11
141.8701485873921
 21
53.33521546489121
 31
0.0
 12
141.4534819207254
 22
50.83521546489121
 32
0.0
 13
141.4534819207254
 23
50.83521546489121
 33
0.0
  0
MTEXT
  5
1F6
330
1EF
100
AcDbEntity
  8
文字・寸法線
 62
     0
100
AcDbMText
 10
139.2977861499205
 20
100.8352154648912
 30
0.0
 40
3.0
 41
0.0
 46
0.0
 71
     5
 72
     1
  1
100
 11
0.0
 21
1.0
 31
0.0
 73
     1
 44
1.0
  0
POINT
  5
1F7
330
1EF
100
AcDbEntity
  8
Defpoints
 62
     0
100
AcDbPoint
 10
101.8738310135288
 20
150.8352154648912
 30
0.0
  0
POINT
  5
1F8
330
1EF
100
AcDbEntity
  8
Defpoints
 62
     0
100
AcDbPoint
 10
108.8238310135288
 20
50.83521546489121
 30
0.0
  0
POINT
  5
1F9
330
1EF
100
AcDbEntity
  8
Defpoints
 62
     0
100
AcDbPoint
 10
141.4534819207254
 20
50.83521546489121
 30
0.0
  0
ENDBLK
  5
1FA
330
1EF
100
AcDbEntity
  8
0
370
    15
100
AcDbBlockEnd
  0
BLOCK
  5
203
330
202
100
AcDbEntity
  8
0
370
    15
100
AcDbBlockBegin
  2
*D11
 70
     1
 10
0.0
 20
0.0
 30
0.0
  3
*D11
  1
*D12
  0
LINE
  5
204
330
202
100
AcDbEntity
  8
文字・寸法線
 62
     0
370
    -2
100
AcDbLine
 10
302.6102225954997
 20
39.94975031731482
 30
0.0
 11
302.6102225954997
 21
0.0
 31
0.0
  0
LINE
  5
205
330
202
100
AcDbEntity
  8
文字・寸法線
 62
     0
370
    -2
100
AcDbLine
 10
321.5761789383789
 20
39.94975031731482
 30
0.0
 11
321.5761789383789
 21
0.0
 31
0.0
  0
LINE
  5
206
330
202
100
AcDbEntity
  8
文字・寸法線
 62
     0
370
    -2
100
AcDbLine
 10
305.1102225954997
 20
0.5
 30
0.0
 11
319.0761789383789
 21
0.5
 31
0.0
  0
SOLID
  5
207
330
202
100
AcDbEntity
  8
文字・寸法線
 62
     0
100
AcDbTrace
 10
305.1102225954997
 20
0.9166666666666667
 30
0.0
 11
305.1102225954997
 21
0.0833333333333333
 31
0.0
 12
302.6102225954997
 22
0.5
 32
0.0
 13
302.6102225954997
 23
0.5
 33
0.0
  0
SOLID
  5
208
330
202
100
AcDbEntity
  8
文字・寸法線
 62
     0
100
AcDbTrace
 10
319.0761789383789
 20
0.0833333333333333
 30
0.0
 11
319.0761789383789
 21
0.9166666666666667
 31
0.0
 12
321.5761789383789
 22
0.5
 32
0.0
 13
321.5761789383789
 23
0.5
 33
0.0
  0
MTEXT
  5
209
330
202
100
AcDbEntity
  8
文字・寸法線
 62
     0
100
AcDbMText
 10
312.0932007669393
 20
2.655695770804911
 30
0.0
 40
3.0
 41
0.0
 46
0.0
 71
     5
 72
     1
  1
19
 73
     1
 44
1.0
  0
POINT
  5
20A
330
202
100
AcDbEntity
  8
Defpoints
 62
     0
100
AcDbPoint
 10
302.6102225954997
 20
41.94975031731482
 30
0.0
  0
POINT
  5
20B
330
202
100
AcDbEntity
  8
Defpoints
 62
     0
100
AcDbPoint
 10
321.5761789383789
 20
41.94975031731482
 30
0.0
  0
POINT
  5
20C
330
202
100
AcDbEntity
  8
Defpoints
 62
     0
100
AcDbPoint
 10
321.5761789383789
 20
0.5
 30
0.0
  0
ENDBLK
  5
20D
330
202
100
AcDbEntity
  8
0
370
    15
100
AcDbBlockEnd
  0
BLOCK
  5
211
330
210
100
AcDbEntity
  8
0
370
    15
100
AcDbBlockBegin
  2
*D12
 70
     1
 10
0.0
 20
0.0
 30
0.0
  3
*D12
  1
*D13
  0
LINE
  5
212
330
210
100
AcDbEntity
  8
文字・寸法線
 62
     0
370
    -2
100
AcDbLine
 10
110.6907175383404
 20
42.83521546489123
 30
0.0
 11
141.9534819207254
 21
42.83521546489123
 31
0.0
  0
LINE
  5
213
330
210
100
AcDbEntity
  8
文字・寸法線
 62
     0
370
    -2
100
AcDbLine
 10
110.8238310135289
 20
50.83521546489121
 30
0.0
 11
141.9534819207254
 21
50.83521546489121
 31
0.0
  0
LINE
  5
214
330
210
100
AcDbEntity
  8
文字・寸法線
 62
     0
370
    -2
100
AcDbLine
 10
141.4534819207254
 20
45.33521546489123
 30
0.0
 11
141.4534819207254
 21
48.33521546489121
 31
0.0
  0
SOLID
  5
215
330
210
100
AcDbEntity
  8
文字・寸法線
 62
     0
100
AcDbTrace
 10
141.0368152540588
 20
45.33521546489123
 30
0.0
 11
141.8701485873921
 21
45.33521546489123
 31
0.0
 12
141.4534819207254
 22
42.83521546489123
 32
0.0
 13
141.4534819207254
 23
42.83521546489123
 33
0.0
  0
SOLID
  5
216
330
210
100
AcDbEntity
  8
文字・寸法線
 62
     0
100
AcDbTrace
 10
141.8701485873921
 20
48.33521546489121
 30
0.0
 11
141.0368152540588
 21
48.33521546489121
 31
0.0
 12
141.4534819207254
 22
50.83521546489121
 32
0.0
 13
141.4534819207254
 23
50.83521546489121
 33
0.0
  0
MTEXT
  5
217
330
210
100
AcDbEntity
  8
文字・寸法線
 62
     0
100
AcDbMText
 10
139.2977861499205
 20
46.83521546489122
 30
0.0
 40
3.0
 41
0.0
 46
0.0
 71
     5
 72
     1
  1
8
 11
0.0
 21
1.0
 31
0.0
 73
     1
 44
1.0
  0
POINT
  5
218
330
210
100
AcDbEntity
  8
Defpoints
 62
     0
100
AcDbPoint
 10
108.6907175383404
 20
42.83521546489123
 30
0.0
  0
POINT
  5
219
330
210
100
AcDbEntity
  8
Defpoints
 62
     0
100
AcDbPoint
 10
108.8238310135289
 20
50.83521546489121
 30
0.0
  0
POINT
  5
21A
330
210
100
AcDbEntity
  8
Defpoints
 62
     0
100
AcDbPoint
 10
141.4534819207254
 20
50.83521546489121
 30
0.0
  0
ENDBLK
  5
21B
330
210
100
AcDbEntity
  8
0
370
    15
100
AcDbBlockEnd
  0
BLOCK
  5
237
330
236
100
AcDbEntity
  8
0
100
AcDbBlockBegin
  2
*D13
 70
     1
 10
0.0
 20
0.0
 30
0.0
  3
*D13
  1
*D14
  0
LINE
  5
238
330
236
100
AcDbEntity
  8
文字・寸法線
 62
     0
370
    -2
100
AcDbLine
 10
103.8738310135288
 20
150.8352154648912
 30
0.0
 11
149.4809994020897
 21
150.8352154648912
 31
0.0
  0
LINE
  5
239
330
236
100
AcDbEntity
  8
文字・寸法線
 62
     0
370
    -2
100
AcDbLine
 10
134.843551602016
 20
22.33521546489121
 30
0.0
 11
149.4809994020897
 21
22.33521546489121
 31
0.0
  0
LINE
  5
23A
330
236
100
AcDbEntity
  8
文字・寸法線
 62
     0
370
    -2
100
AcDbLine
 10
148.9809994020897
 20
148.3352154648912
 30
0.0
 11
148.9809994020897
 21
24.83521546489121
 31
0.0
  0
SOLID
  5
23B
330
236
100
AcDbEntity
  8
文字・寸法線
 62
     0
100
AcDbTrace
 10
149.3976660687563
 20
148.3352154648912
 30
0.0
 11
148.564332735423
 21
148.3352154648912
 31
0.0
 12
148.9809994020897
 22
150.8352154648912
 32
0.0
 13
148.9809994020897
 23
150.8352154648912
 33
0.0
  0
SOLID
  5
23C
330
236
100
AcDbEntity
  8
文字・寸法線
 62
     0
100
AcDbTrace
 10
148.564332735423
 20
24.83521546489121
 30
0.0
 11
149.3976660687563
 21
24.83521546489121
 31
0.0
 12
148.9809994020897
 22
22.33521546489121
 32
0.0
 13
148.9809994020897
 23
22.33521546489121
 33
0.0
  0
MTEXT
  5
23D
330
236
100
AcDbEntity
  8
文字・寸法線
 62
     0
100
AcDbMText
 10
146.8253036312847
 20
86.5852154648912
 30
0.0
 40
3.0
 41
0.0
 46
0.0
 71
     5
 72
     1
  1
128.5
 11
0.0
 21
1.0
 31
0.0
 73
     1
 44
1.0
  0
POINT
  5
23E
330
236
100
AcDbEntity
  8
Defpoints
 62
     0
100
AcDbPoint
 10
101.8738310135288
 20
150.8352154648912
 30
0.0
  0
POINT
  5
23F
330
236
100
AcDbEntity
  8
Defpoints
 62
     0
100
AcDbPoint
 10
132.843551602016
 20
22.33521546489121
 30
0.0
  0
POINT
  5
240
330
236
100
AcDbEntity
  8
Defpoints
 62
     0
100
AcDbPoint
 10
148.9809994020897
 20
22.33521546489121
 30
0.0
  0
ENDBLK
  5
241
330
236
100
AcDbEntity
  8
0
100
AcDbBlockEnd
  0
BLOCK
  5
2A6
330
2A5
100
AcDbEntity
  8
0
100
AcDbBlockBegin
  2
*D14
 70
     1
 10
0.0
 20
0.0
 30
0.0
  3
*D14
  1
*D15
  0
LINE
  5
2A8
330
2A5
100
AcDbEntity
  8
文字・寸法線
 62
     0
370
    -2
100
AcDbLine
 10
246.5096937041652
 20
147.2395147319882
 30
0.0
 11
246.5096937041652
 21
164.564387912382
 31
0.0
  0
LINE
  5
2A9
330
2A5
100
AcDbEntity
  8
文字・寸法線
 62
     0
370
    -2
100
AcDbLine
 10
231.5096937041652
 20
116.6145147319882
 30
0.0
 11
231.5096937041652
 21
164.564387912382
 31
0.0
  0
LINE
  5
2AA
330
2A5
100
AcDbEntity
  8
文字・寸法線
 62
     0
370
    -2
100
AcDbLine
 10
244.0096937041652
 20
164.064387912382
 30
0.0
 11
234.0096937041652
 21
164.064387912382
 31
0.0
  0
SOLID
  5
2AB
330
2A5
100
AcDbEntity
  8
文字・寸法線
 62
     0
100
AcDbTrace
 10
244.0096937041652
 20
163.6477212457153
 30
0.0
 11
244.0096937041652
 21
164.4810545790486
 31
0.0
 12
246.5096937041652
 22
164.064387912382
 32
0.0
 13
246.5096937041652
 23
164.064387912382
 33
0.0
  0
SOLID
  5
2AC
330
2A5
100
AcDbEntity
  8
文字・寸法線
 62
     0
100
AcDbTrace
 10
234.0096937041652
 20
164.4810545790486
 30
0.0
 11
234.0096937041652
 21
163.6477212457153
 31
0.0
 12
231.5096937041652
 22
164.064387912382
 32
0.0
 13
231.5096937041652
 23
164.064387912382
 33
0.0
  0
MTEXT
  5
2AD
330
2A5
100
AcDbEntity
  8
文字・寸法線
 62
     0
100
AcDbMText
 10
239.0096937041652
 20
166.220887912382
 30
0.0
 40
3.0
 41
0.0
 46
0.0
 71
     5
 72
     1
  1
15
 73
     1
 44
1.0
  0
POINT
  5
2AE
330
2A5
100
AcDbEntity
  8
Defpoints
 62
     0
100
AcDbPoint
 10
246.5096937041652
 20
145.2395147319882
 30
0.0
  0
POINT
  5
2AF
330
2A5
100
AcDbEntity
  8
Defpoints
 62
     0
100
AcDbPoint
 10
231.5096937041652
 20
114.6145147319882
 30
0.0
  0
POINT
  5
2B0
330
2A5
100
AcDbEntity
  8
Defpoints
 62
     0
100
AcDbPoint
 10
231.5096937041652
 20
164.064387912382
 30
0.0
  0
ENDBLK
  5
2A7
330
2A5
100
AcDbEntity
  8
0
100
AcDbBlockEnd
  0
BLOCK
  5
2B2
330
2B1
100
AcDbEntity
  8
0
100
AcDbBlockBegin
  2
*D15
 70
     1
 10
0.0
 20
0.0
 30
0.0
  3
*D15
  1
*D16
  0
LINE
  5
2B4
330
2B1
100
AcDbEntity
  8
文字・寸法線
 62
     0
370
    -2
100
AcDbLine
 10
316.5096937041652
 20
158.0099538386613
 30
0.0
 11
316.5096937041652
 21
164.564387912382
 31
0.0
  0
LINE
  5
2B5
330
2B1
100
AcDbEntity
  8
文字・寸法線
 62
     0
370
    -2
100
AcDbLine
 10
246.5096937041652
 20
146.6145147319882
 30
0.0
 11
246.5096937041652
 21
164.564387912382
 31
0.0
  0
LINE
  5
2B6
330
2B1
100
AcDbEntity
  8
文字・寸法線
 62
     0
370
    -2
100
AcDbLine
 10
314.0096937041652
 20
164.064387912382
 30
0.0
 11
249.0096937041652
 21
164.064387912382
 31
0.0
  0
SOLID
  5
2B7
330
2B1
100
AcDbEntity
  8
文字・寸法線
 62
     0
100
AcDbTrace
 10
314.0096937041652
 20
163.6477212457153
 30
0.0
 11
314.0096937041652
 21
164.4810545790486
 31
0.0
 12
316.5096937041652
 22
164.064387912382
 32
0.0
 13
316.5096937041652
 23
164.064387912382
 33
0.0
  0
SOLID
  5
2B8
330
2B1
100
AcDbEntity
  8
文字・寸法線
 62
     0
100
AcDbTrace
 10
249.0096937041652
 20
164.4810545790486
 30
0.0
 11
249.0096937041652
 21
163.6477212457153
 31
0.0
 12
246.5096937041652
 22
164.064387912382
 32
0.0
 13
246.5096937041652
 23
164.064387912382
 33
0.0
  0
MTEXT
  5
2B9
330
2B1
100
AcDbEntity
  8
文字・寸法線
 62
     0
100
AcDbMText
 10
281.5096937041652
 20
166.220887912382
 30
0.0
 40
3.0
 41
0.0
 46
0.0
 71
     5
 72
     1
  1
70
 73
     1
 44
1.0
  0
POINT
  5
2BA
330
2B1
100
AcDbEntity
  8
Defpoints
 62
     0
100
AcDbPoint
 10
316.5096937041652
 20
156.0099538386613
 30
0.0
  0
POINT
  5
2BB
330
2B1
100
AcDbEntity
  8
Defpoints
 62
     0
100
AcDbPoint
 10
246.5096937041652
 20
144.6145147319882
 30
0.0
  0
POINT
  5
2BC
330
2B1
100
AcDbEntity
  8
Defpoints
 62
     0
100
AcDbPoint
 10
246.5096937041652
 20
164.064387912382
 30
0.0
  0
ENDBLK
  5
2B3
330
2B1
100
AcDbEntity
  8
0
100
AcDbBlockEnd
  0
BLOCK
  5
2BE
330
2BD
100
AcDbEntity
  8
0
100
AcDbBlockBegin
  2
*D16
 70
     1
 10
0.0
 20
0.0
 30
0.0
  3
*D16
  1
*D17
  0
LINE
  5
2C0
330
2BD
100
AcDbEntity
  8
文字・寸法線
 62
     0
370
    -2
100
AcDbLine
 10
351.5096937041652
 20
116.6145147319882
 30
0.0
 11
351.5096937041652
 21
164.564387912382
 31
0.0
  0
LINE
  5
2C1
330
2BD
100
AcDbEntity
  8
文字・寸法線
 62
     0
370
    -2
100
AcDbLine
 10
316.5096937041652
 20
157.3849538386613
 30
0.0
 11
316.5096937041652
 21
164.564387912382
 31
0.0
  0
LINE
  5
2C2
330
2BD
100
AcDbEntity
  8
文字・寸法線
 62
     0
370
    -2
100
AcDbLine
 10
349.0096937041652
 20
164.064387912382
 30
0.0
 11
319.0096937041652
 21
164.064387912382
 31
0.0
  0
SOLID
  5
2C3
330
2BD
100
AcDbEntity
  8
文字・寸法線
 62
     0
100
AcDbTrace
 10
349.0096937041652
 20
163.6477212457153
 30
0.0
 11
349.0096937041652
 21
164.4810545790486
 31
0.0
 12
351.5096937041652
 22
164.064387912382
 32
0.0
 13
351.5096937041652
 23
164.064387912382
 33
0.0
  0
SOLID
  5
2C4
330
2BD
100
AcDbEntity
  8
文字・寸法線
 62
     0
100
AcDbTrace
 10
319.0096937041652
 20
164.4810545790486
 30
0.0
 11
319.0096937041652
 21
163.6477212457153
 31
0.0
 12
316.5096937041652
 22
164.064387912382
 32
0.0
 13
316.5096937041652
 23
164.064387912382
 33
0.0
  0
MTEXT
  5
2C5
330
2BD
100
AcDbEntity
  8
文字・寸法線
 62
     0
100
AcDbMText
 10
334.0096937041652
 20
166.220887912382
 30
0.0
 40
3.0
 41
0.0
 46
0.0
 71
     5
 72
     1
  1
35
 73
     1
 44
1.0
  0
POINT
  5
2C6
330
2BD
100
AcDbEntity
  8
Defpoints
 62
     0
100
AcDbPoint
 10
351.5096937041652
 20
114.6145147319882
 30
0.0
  0
POINT
  5
2C7
330
2BD
100
AcDbEntity
  8
Defpoints
 62
     0
100
AcDbPoint
 10
316.5096937041652
 20
155.3849538386613
 30
0.0
  0
POINT
  5
2C8
330
2BD
100
AcDbEntity
  8
Defpoints
 62
     0
100
AcDbPoint
 10
316.5096937041652
 20
164.064387912382
 30
0.0
  0
ENDBLK
  5
2BF
330
2BD
100
AcDbEntity
  8
0
100
AcDbBlockEnd
  0
BLOCK
  5
2CA
330
2C9
100
AcDbEntity
  8
0
100
AcDbBlockBegin
  2
*D17
 70
     1
 10
0.0
 20
0.0
 30
0.0
  3
*D17
  1
*D18
  0
LINE
  5
2CC
330
2C9
100
AcDbEntity
  8
文字・寸法線
 62
     0
370
    -2
100
AcDbLine
 10
318.5096937041652
 20
149.6145147319882
 30
0.0
 11
378.7228574678373
 21
149.6145147319882
 31
0.0
  0
LINE
  5
2CD
330
2C9
100
AcDbEntity
  8
文字・寸法線
 62
     0
370
    -2
100
AcDbLine
 10
318.5096937041652
 20
149.6145147319882
 30
0.0
 11
378.7228574678373
 21
149.6145147319882
 31
0.0
  0
LINE
  5
2CE
330
2C9
100
AcDbEntity
  8
文字・寸法線
 62
     0
370
    -2
100
AcDbLine
 10
378.2228574678373
 20
152.1145147319882
 30
0.0
 11
378.2228574678373
 21
157.8175147319882
 31
0.0
  0
LINE
  5
2CF
330
2C9
100
AcDbEntity
  8
文字・寸法線
 62
     0
370
    -2
100
AcDbLine
 10
378.2228574678373
 20
149.6145147319882
 30
0.0
 11
378.2228574678373
 21
149.6145147319882
 31
0.0
  0
LINE
  5
2D0
330
2C9
100
AcDbEntity
  8
文字・寸法線
 62
     0
370
    -2
100
AcDbLine
 10
378.2228574678373
 20
147.1145147319882
 30
0.0
 11
378.2228574678373
 21
144.6145147319882
 31
0.0
  0
SOLID
  5
2D1
330
2C9
100
AcDbEntity
  8
文字・寸法線
 62
     0
100
AcDbTrace
 10
378.639524134504
 20
147.1145147319882
 30
0.0
 11
377.8061908011706
 21
147.1145147319882
 31
0.0
 12
378.2228574678373
 22
149.6145147319882
 32
0.0
 13
378.2228574678373
 23
149.6145147319882
 33
0.0
  0
SOLID
  5
2D2
330
2C9
100
AcDbEntity
  8
文字・寸法線
 62
     0
100
AcDbTrace
 10
377.8061908011706
 20
152.1145147319882
 30
0.0
 11
378.639524134504
 21
152.1145147319882
 31
0.0
 12
378.2228574678373
 22
149.6145147319882
 32
0.0
 13
378.2228574678373
 23
149.6145147319882
 33
0.0
  0
MTEXT
  5
2D3
330
2C9
100
AcDbEntity
  8
文字・寸法線
 62
     0
100
AcDbMText
 10
376.0663574678373
 20
156.2160147319882
 30
0.0
 40
3.0
 41
0.0
 46
0.0
 71
     5
 72
     1
  1
0
 11
6.123233995736766E-17
 21
1.0
 31
0.0
 73
     1
 44
1.0
  0
POINT
  5
2D4
330
2C9
100
AcDbEntity
  8
Defpoints
 62
     0
100
AcDbPoint
 10
316.5096937041652
 20
149.6145147319882
 30
0.0
  0
POINT
  5
3AC
330
2C9
100
AcDbEntity
  8
Defpoints
 62
     0
100
AcDbPoint
 10
316.5096937041652
 20
149.6145147319882
 30
0.0
  0
POINT
  5
3AD
330
2C9
100
AcDbEntity
  8
Defpoints
 62
     0
100
AcDbPoint
 10
378.2228574678373
 20
149.6145147319882
 30
0.0
  0
ENDBLK
  5
2CB
330
2C9
100
AcDbEntity
  8
0
100
AcDbBlockEnd
  0
BLOCK
  5
2D6
330
2D5
100
AcDbEntity
  8
0
100
AcDbBlockBegin
  2
*D18
 70
     1
 10
0.0
 20
0.0
 30
0.0
  3
*D18
  1
*D19
  0
LINE
  5
2D8
330
2D5
100
AcDbEntity
  8
文字・寸法線
 62
     0
370
    -2
100
AcDbLine
 10
318.5096937041652
 20
141.6145147319882
 30
0.0
 11
370.724442903895
 21
141.6145147319882
 31
0.0
  0
LINE
  5
2D9
330
2D5
100
AcDbEntity
  8
文字・寸法線
 62
     0
370
    -2
100
AcDbLine
 10
318.5096937041652
 20
87.61451473198818
 30
0.0
 11
370.724442903895
 21
87.61451473198818
 31
0.0
  0
LINE
  5
2DA
330
2D5
100
AcDbEntity
  8
文字・寸法線
 62
     0
370
    -2
100
AcDbLine
 10
370.224442903895
 20
139.1145147319882
 30
0.0
 11
370.224442903895
 21
90.11451473198818
 31
0.0
  0
SOLID
  5
2DB
330
2D5
100
AcDbEntity
  8
文字・寸法線
 62
     0
100
AcDbTrace
 10
370.6411095705616
 20
139.1145147319882
 30
0.0
 11
369.8077762372283
 21
139.1145147319882
 31
0.0
 12
370.224442903895
 22
141.6145147319882
 32
0.0
 13
370.224442903895
 23
141.6145147319882
 33
0.0
  0
SOLID
  5
2DC
330
2D5
100
AcDbEntity
  8
文字・寸法線
 62
     0
100
AcDbTrace
 10
369.8077762372283
 20
90.11451473198818
 30
0.0
 11
370.6411095705616
 21
90.11451473198818
 31
0.0
 12
370.224442903895
 22
87.61451473198818
 32
0.0
 13
370.224442903895
 23
87.61451473198818
 33
0.0
  0
MTEXT
  5
2DD
330
2D5
100
AcDbEntity
  8
文字・寸法線
 62
     0
100
AcDbMText
 10
368.019942903895
 20
114.6145147319882
 30
0.0
 40
3.0
 41
0.0
 46
0.0
 71
     5
 72
     1
  1
%%c54
 11
0.0
 21
1.0
 31
0.0
 73
     1
 44
1.0
  0
POINT
  5
2DE
330
2D5
100
AcDbEntity
  8
Defpoints
 62
     0
100
AcDbPoint
 10
316.5096937041652
 20
141.6145147319882
 30
0.0
  0
POINT
  5
2DF
330
2D5
100
AcDbEntity
  8
Defpoints
 62
     0
100
AcDbPoint
 10
316.5096937041652
 20
87.61451473198818
 30
0.0
  0
POINT
  5
2E0
330
2D5
100
AcDbEntity
  8
Defpoints
 62
     0
100
AcDbPoint
 10
370.224442903895
 20
87.61451473198818
 30
0.0
  0
ENDBLK
  5
2D7
330
2D5
100
AcDbEntity
  8
0
100
AcDbBlockEnd
  0
BLOCK
  5
2E2
330
2E1
100
AcDbEntity
  8
0
100
AcDbBlockBegin
  2
*D19
 70
     1
 10
0.0
 20
0.0
 30
0.0
  3
*D19
  1
*D20
  0
LINE
  5
2E4
330
2E1
100
AcDbEntity
  8
文字・寸法線
 62
     0
370
    -2
100
AcDbLine
 10
63.31895249803992
 20
83.52885640566464
 30
0.0
 11
56.15447709860891
 21
83.52885640566464
 31
0.0
  0
LINE
  5
2E5
330
2E1
100
AcDbEntity
  8
文字・寸法線
 62
     0
370
    -2
100
AcDbLine
 10
63.31895249803992
 20
81.52885640566464
 30
0.0
 11
56.15447709860891
 21
81.52885640566464
 31
0.0
  0
LINE
  5
2E6
330
2E1
100
AcDbEntity
  8
文字・寸法線
 62
     0
370
    -2
100
AcDbLine
 10
56.65447709860891
 20
83.52885640566464
 30
0.0
 11
56.65447709860891
 21
81.52885640566464
 31
0.0
  0
LINE
  5
2E7
330
2E1
100
AcDbEntity
  8
文字・寸法線
 62
     0
370
    -2
100
AcDbLine
 10
56.65447709860891
 20
86.02885640566464
 30
0.0
 11
56.65447709860891
 21
88.52885640566464
 31
0.0
  0
LINE
  5
2E8
330
2E1
100
AcDbEntity
  8
文字・寸法線
 62
     0
370
    -2
100
AcDbLine
 10
56.65447709860891
 20
79.02885640566464
 30
0.0
 11
56.65447709860891
 21
76.52885640566464
 31
0.0
  0
SOLID
  5
2E9
330
2E1
100
AcDbEntity
  8
文字・寸法線
 62
     0
100
AcDbTrace
 10
56.23781043194224
 20
86.02885640566464
 30
0.0
 11
57.07114376527557
 21
86.02885640566464
 31
0.0
 12
56.65447709860891
 22
83.52885640566464
 32
0.0
 13
56.65447709860891
 23
83.52885640566464
 33
0.0
  0
SOLID
  5
2EA
330
2E1
100
AcDbEntity
  8
文字・寸法線
 62
     0
100
AcDbTrace
 10
57.07114376527557
 20
79.02885640566464
 30
0.0
 11
56.23781043194224
 21
79.02885640566464
 31
0.0
 12
56.65447709860891
 22
81.52885640566464
 32
0.0
 13
56.65447709860891
 23
81.52885640566464
 33
0.0
  0
MTEXT
  5
2EB
330
2E1
100
AcDbEntity
  8
文字・寸法線
 62
     0
100
AcDbMText
 10
53.97540089602387
 20
86.8444653822983
 30
0.0
 40
3.0
 41
0.0
 46
0.0
 71
     5
 72
     1
  1
2
 11
0.0
 21
1.0
 31
0.0
 73
     1
 44
1.0
  0
POINT
  5
2EC
330
2E1
100
AcDbEntity
  8
Defpoints
 62
     0
100
AcDbPoint
 10
65.31895249803992
 20
83.52885640566464
 30
0.0
  0
POINT
  5
2ED
330
2E1
100
AcDbEntity
  8
Defpoints
 62
     0
100
AcDbPoint
 10
65.31895249803992
 20
81.52885640566464
 30
0.0
  0
POINT
  5
2EE
330
2E1
100
AcDbEntity
  8
Defpoints
 62
     0
100
AcDbPoint
 10
56.65447709860891
 20
81.52885640566464
 30
0.0
  0
ENDBLK
  5
2E3
330
2E1
100
AcDbEntity
  8
0
100
AcDbBlockEnd
  0
BLOCK
  5
2F0
330
2EF
100
AcDbEntity
  8
0
100
AcDbBlockBegin
  2
*D20
 70
     1
 10
0.0
 20
0.0
 30
0.0
  3
*D20
  1
*D21
  0
LINE
  5
2F2
330
2EF
100
AcDbEntity
  8
文字・寸法線
 62
     0
370
    -2
100
AcDbLine
 10
65.31895249803992
 20
79.52885640566464
 30
0.0
 11
65.31895249803992
 21
63.77669710113682
 31
0.0
  0
LINE
  5
2F3
330
2EF
100
AcDbEntity
  8
文字・寸法線
 62
     0
370
    -2
100
AcDbLine
 10
185.3189524980399
 20
79.52885640566464
 30
0.0
 11
185.3189524980399
 21
63.77669710113682
 31
0.0
  0
LINE
  5
2F4
330
2EF
100
AcDbEntity
  8
文字・寸法線
 62
     0
370
    -2
100
AcDbLine
 10
67.81895249803992
 20
64.27669710113682
 30
0.0
 11
182.8189524980399
 21
64.27669710113682
 31
0.0
  0
SOLID
  5
2F5
330
2EF
100
AcDbEntity
  8
文字・寸法線
 62
     0
100
AcDbTrace
 10
67.81895249803992
 20
64.69336376780349
 30
0.0
 11
67.81895249803992
 21
63.86003043447015
 31
0.0
 12
65.31895249803992
 22
64.27669710113682
 32
0.0
 13
65.31895249803992
 23
64.27669710113682
 33
0.0
  0
SOLID
  5
2F6
330
2EF
100
AcDbEntity
  8
文字・寸法線
 62
     0
100
AcDbTrace
 10
182.8189524980399
 20
63.86003043447015
 30
0.0
 11
182.8189524980399
 21
64.69336376780349
 31
0.0
 12
185.3189524980399
 22
64.27669710113682
 32
0.0
 13
185.3189524980399
 23
64.27669710113682
 33
0.0
  0
MTEXT
  5
2F7
330
2EF
100
AcDbEntity
  8
文字・寸法線
 62
     0
100
AcDbMText
 10
125.3189524980399
 20
66.43239287194173
 30
0.0
 40
3.0
 41
0.0
 46
0.0
 71
     5
 72
     1
  1
120
 73
     1
 44
1.0
  0
POINT
  5
2F8
330
2EF
100
AcDbEntity
  8
Defpoints
 62
     0
100
AcDbPoint
 10
65.31895249803992
 20
81.52885640566464
 30
0.0
  0
POINT
  5
2F9
330
2EF
100
AcDbEntity
  8
Defpoints
 62
     0
100
AcDbPoint
 10
185.3189524980399
 20
81.52885640566464
 30
0.0
  0
POINT
  5
2FA
330
2EF
100
AcDbEntity
  8
Defpoints
 62
     0
100
AcDbPoint
 10
185.3189524980399
 20
64.27669710113682
 30
0.0
  0
ENDBLK
  5
2F1
330
2EF
100
AcDbEntity
  8
0
100
AcDbBlockEnd
  0
BLOCK
  5
2FC
330
2FB
100
AcDbEntity
  8
0
100
AcDbBlockBegin
  2
*D21
 70
     1
 10
0.0
 20
0.0
 30
0.0
  3
*D21
  1
*D22
  0
LINE
  5
2FE
330
2FB
100
AcDbEntity
  8
文字・寸法線
 62
     0
370
    -2
100
AcDbLine
 10
152.3492319095532
 20
102.0288564056646
 30
0.0
 11
194.4288828167491
 21
102.0288564056646
 31
0.0
  0
LINE
  5
2FF
330
2FB
100
AcDbEntity
  8
文字・寸法線
 62
     0
370
    -2
100
AcDbLine
 10
187.3189524980398
 20
81.5288564056646
 30
0.0
 11
194.4288828167491
 21
81.5288564056646
 31
0.0
  0
LINE
  5
300
330
2FB
100
AcDbEntity
  8
文字・寸法線
 62
     0
370
    -2
100
AcDbLine
 10
193.9288828167491
 20
99.5288564056646
 30
0.0
 11
193.9288828167491
 21
84.0288564056646
 31
0.0
  0
SOLID
  5
301
330
2FB
100
AcDbEntity
  8
文字・寸法線
 62
     0
100
AcDbTrace
 10
194.3455494834158
 20
99.5288564056646
 30
0.0
 11
193.5122161500825
 21
99.5288564056646
 31
0.0
 12
193.9288828167491
 22
102.0288564056646
 32
0.0
 13
193.9288828167491
 23
102.0288564056646
 33
0.0
  0
SOLID
  5
302
330
2FB
100
AcDbEntity
  8
文字・寸法線
 62
     0
100
AcDbTrace
 10
193.5122161500825
 20
84.0288564056646
 30
0.0
 11
194.3455494834158
 21
84.0288564056646
 31
0.0
 12
193.9288828167491
 22
81.5288564056646
 32
0.0
 13
193.9288828167491
 23
81.5288564056646
 33
0.0
  0
MTEXT
  5
303
330
2FB
100
AcDbEntity
  8
文字・寸法線
 62
     0
100
AcDbMText
 10
191.7731870459442
 20
91.7788564056646
 30
0.0
 40
3.0
 41
0.0
 46
0.0
 71
     5
 72
     1
  1
20.5
 11
0.0
 21
1.0
 31
0.0
 73
     1
 44
1.0
  0
POINT
  5
304
330
2FB
100
AcDbEntity
  8
Defpoints
 62
     0
100
AcDbPoint
 10
150.3492319095532
 20
102.0288564056646
 30
0.0
  0
POINT
  5
305
330
2FB
100
AcDbEntity
  8
Defpoints
 62
     0
100
AcDbPoint
 10
185.3189524980398
 20
81.5288564056646
 30
0.0
  0
POINT
  5
306
330
2FB
100
AcDbEntity
  8
Defpoints
 62
     0
100
AcDbPoint
 10
193.9288828167491
 20
81.5288564056646
 30
0.0
  0
ENDBLK
  5
2FD
330
2FB
100
AcDbEntity
  8
0
100
AcDbBlockEnd
  0
BLOCK
  5
308
330
307
100
AcDbEntity
  8
0
100
AcDbBlockBegin
  2
*D22
 70
     1
 10
0.0
 20
0.0
 30
0.0
  3
*D22
  1
*D23
  0
LINE
  5
30A
330
307
100
AcDbEntity
  8
文字・寸法線
 62
     0
370
    -2
100
AcDbLine
 10
144.3492319095527
 20
210.0288564056646
 30
0.0
 11
144.3492319095527
 21
221.1011935653333
 31
0.0
  0
LINE
  5
30B
330
307
100
AcDbEntity
  8
文字・寸法線
 62
     0
370
    -2
100
AcDbLine
 10
156.3492319095527
 20
210.0288564056646
 30
0.0
 11
156.3492319095527
 21
221.1011935653333
 31
0.0
  0
LINE
  5
30C
330
307
100
AcDbEntity
  8
文字・寸法線
 62
     0
370
    -2
100
AcDbLine
 10
146.8492319095527
 20
220.6011935653333
 30
0.0
 11
153.8492319095527
 21
220.6011935653333
 31
0.0
  0
SOLID
  5
30D
330
307
100
AcDbEntity
  8
文字・寸法線
 62
     0
100
AcDbTrace
 10
146.8492319095527
 20
221.017860232
 30
0.0
 11
146.8492319095527
 21
220.1845268986667
 31
0.0
 12
144.3492319095527
 22
220.6011935653333
 32
0.0
 13
144.3492319095527
 23
220.6011935653333
 33
0.0
  0
SOLID
  5
30E
330
307
100
AcDbEntity
  8
文字・寸法線
 62
     0
100
AcDbTrace
 10
153.8492319095527
 20
220.1845268986667
 30
0.0
 11
153.8492319095527
 21
221.017860232
 31
0.0
 12
156.3492319095527
 22
220.6011935653333
 32
0.0
 13
156.3492319095527
 23
220.6011935653333
 33
0.0
  0
MTEXT
  5
30F
330
307
100
AcDbEntity
  8
文字・寸法線
 62
     0
100
AcDbMText
 10
150.3492319095527
 20
222.7323327194943
 30
0.0
 40
3.0
 41
0.0
 46
0.0
 71
     5
 72
     1
  1
M12
 73
     1
 44
1.0
  0
POINT
  5
310
330
307
100
AcDbEntity
  8
Defpoints
 62
     0
100
AcDbPoint
 10
144.3492319095527
 20
208.0288564056646
 30
0.0
  0
POINT
  5
311
330
307
100
AcDbEntity
  8
Defpoints
 62
     0
100
AcDbPoint
 10
156.3492319095527
 20
208.0288564056646
 30
0.0
  0
POINT
  5
312
330
307
100
AcDbEntity
  8
Defpoints
 62
     0
100
AcDbPoint
 10
156.3492319095527
 20
220.6011935653333
 30
0.0
  0
ENDBLK
  5
309
330
307
100
AcDbEntity
  8
0
100
AcDbBlockEnd
  0
BLOCK
  5
314
330
313
100
AcDbEntity
  8
0
100
AcDbBlockBegin
  2
*D23
 70
     1
 10
0.0
 20
0.0
 30
0.0
  3
*D23
  1
*D24
  0
LINE
  5
316
330
313
100
AcDbEntity
  8
文字・寸法線
 62
     0
370
    -2
100
AcDbLine
 10
156.3492319095527
 20
210.0288564056646
 30
0.0
 11
194.4288828167493
 21
210.0288564056646
 31
0.0
  0
LINE
  5
317
330
313
100
AcDbEntity
  8
文字・寸法線
 62
     0
370
    -2
100
AcDbLine
 10
163.2992319095527
 20
110.0288564056646
 30
0.0
 11
194.4288828167493
 21
110.0288564056646
 31
0.0
  0
LINE
  5
318
330
313
100
AcDbEntity
  8
文字・寸法線
 62
     0
370
    -2
100
AcDbLine
 10
193.9288828167493
 20
207.5288564056646
 30
0.0
 11
193.9288828167493
 21
112.5288564056646
 31
0.0
  0
SOLID
  5
319
330
313
100
AcDbEntity
  8
文字・寸法線
 62
     0
100
AcDbTrace
 10
194.3455494834159
 20
207.5288564056646
 30
0.0
 11
193.5122161500826
 21
207.5288564056646
 31
0.0
 12
193.9288828167493
 22
210.0288564056646
 32
0.0
 13
193.9288828167493
 23
210.0288564056646
 33
0.0
  0
SOLID
  5
31A
330
313
100
AcDbEntity
  8
文字・寸法線
 62
     0
100
AcDbTrace
 10
193.5122161500826
 20
112.5288564056646
 30
0.0
 11
194.3455494834159
 21
112.5288564056646
 31
0.0
 12
193.9288828167493
 22
110.0288564056646
 32
0.0
 13
193.9288828167493
 23
110.0288564056646
 33
0.0
  0
MTEXT
  5
31B
330
313
100
AcDbEntity
  8
文字・寸法線
 62
     0
100
AcDbMText
 10
191.7731870459444
 20
160.0288564056646
 30
0.0
 40
3.0
 41
0.0
 46
0.0
 71
     5
 72
     1
  1
100
 11
0.0
 21
1.0
 31
0.0
 73
     1
 44
1.0
  0
POINT
  5
31C
330
313
100
AcDbEntity
  8
Defpoints
 62
     0
100
AcDbPoint
 10
154.3492319095527
 20
210.0288564056646
 30
0.0
  0
POINT
  5
31D
330
313
100
AcDbEntity
  8
Defpoints
 62
     0
100
AcDbPoint
 10
161.2992319095527
 20
110.0288564056646
 30
0.0
  0
POINT
  5
31E
330
313
100
AcDbEntity
  8
Defpoints
 62
     0
100
AcDbPoint
 10
193.9288828167493
 20
110.0288564056646
 30
0.0
  0
ENDBLK
  5
315
330
313
100
AcDbEntity
  8
0
100
AcDbBlockEnd
  0
BLOCK
  5
320
330
31F
100
AcDbEntity
  8
0
100
AcDbBlockBegin
  2
*D24
 70
     1
 10
0.0
 20
0.0
 30
0.0
  3
*D24
  1
*D25
  0
LINE
  5
322
330
31F
100
AcDbEntity
  8
文字・寸法線
 62
     0
370
    -2
100
AcDbLine
 10
307.0267155327257
 20
107.1395147319883
 30
0.0
 11
307.0267155327257
 21
67.18976441467339
 31
0.0
  0
LINE
  5
323
330
31F
100
AcDbEntity
  8
文字・寸法線
 62
     0
370
    -2
100
AcDbLine
 10
325.9926718756049
 20
107.1395147319883
 30
0.0
 11
325.9926718756049
 21
67.18976441467339
 31
0.0
  0
LINE
  5
324
330
31F
100
AcDbEntity
  8
文字・寸法線
 62
     0
370
    -2
100
AcDbLine
 10
309.5267155327257
 20
67.68976441467339
 30
0.0
 11
323.4926718756049
 21
67.68976441467339
 31
0.0
  0
SOLID
  5
325
330
31F
100
AcDbEntity
  8
文字・寸法線
 62
     0
100
AcDbTrace
 10
309.5267155327257
 20
68.10643108134006
 30
0.0
 11
309.5267155327257
 21
67.27309774800672
 31
0.0
 12
307.0267155327257
 22
67.68976441467339
 32
0.0
 13
307.0267155327257
 23
67.68976441467339
 33
0.0
  0
SOLID
  5
326
330
31F
100
AcDbEntity
  8
文字・寸法線
 62
     0
100
AcDbTrace
 10
323.4926718756049
 20
67.27309774800672
 30
0.0
 11
323.4926718756049
 21
68.10643108134006
 31
0.0
 12
325.9926718756049
 22
67.68976441467339
 32
0.0
 13
325.9926718756049
 23
67.68976441467339
 33
0.0
  0
MTEXT
  5
327
330
31F
100
AcDbEntity
  8
文字・寸法線
 62
     0
100
AcDbMText
 10
316.5096937041652
 20
69.84626441467339
 30
0.0
 40
3.0
 41
0.0
 46
0.0
 71
     5
 72
     1
  1
19
 73
     1
 44
1.0
  0
POINT
  5
328
330
31F
100
AcDbEntity
  8
Defpoints
 62
     0
100
AcDbPoint
 10
307.0267155327257
 20
109.1395147319883
 30
0.0
  0
POINT
  5
329
330
31F
100
AcDbEntity
  8
Defpoints
 62
     0
100
AcDbPoint
 10
325.9926718756049
 20
109.1395147319883
 30
0.0
  0
POINT
  5
32A
330
31F
100
AcDbEntity
  8
Defpoints
 62
     0
100
AcDbPoint
 10
325.9926718756049
 20
67.68976441467339
 30
0.0
  0
ENDBLK
  5
321
330
31F
100
AcDbEntity
  8
0
100
AcDbBlockEnd
  0
BLOCK
  5
32C
330
32B
100
AcDbEntity
  8
0
100
AcDbBlockBegin
  2
*D25
 70
     1
 10
0.0
 20
0.0
 30
0.0
  3
*D25
  1
*D26
  0
LINE
  5
32E
330
32B
100
AcDbEntity
  8
文字・寸法線
 62
     0
370
    -2
100
AcDbLine
 10
163.1661184343643
 20
102.0288564056647
 30
0.0
 11
194.4288828167493
 21
102.0288564056647
 31
0.0
  0
LINE
  5
32F
330
32B
100
AcDbEntity
  8
文字・寸法線
 62
     0
370
    -2
100
AcDbLine
 10
163.2992319095527
 20
110.0288564056646
 30
0.0
 11
194.4288828167493
 21
110.0288564056646
 31
0.0
  0
LINE
  5
330
330
32B
100
AcDbEntity
  8
文字・寸法線
 62
     0
370
    -2
100
AcDbLine
 10
193.9288828167493
 20
104.5288564056647
 30
0.0
 11
193.9288828167493
 21
107.5288564056646
 31
0.0
  0
SOLID
  5
331
330
32B
100
AcDbEntity
  8
文字・寸法線
 62
     0
100
AcDbTrace
 10
193.5122161500826
 20
104.5288564056647
 30
0.0
 11
194.3455494834159
 21
104.5288564056647
 31
0.0
 12
193.9288828167493
 22
102.0288564056647
 32
0.0
 13
193.9288828167493
 23
102.0288564056647
 33
0.0
  0
SOLID
  5
332
330
32B
100
AcDbEntity
  8
文字・寸法線
 62
     0
100
AcDbTrace
 10
194.3455494834159
 20
107.5288564056646
 30
0.0
 11
193.5122161500826
 21
107.5288564056646
 31
0.0
 12
193.9288828167493
 22
110.0288564056646
 32
0.0
 13
193.9288828167493
 23
110.0288564056646
 33
0.0
  0
MTEXT
  5
333
330
32B
100
AcDbEntity
  8
文字・寸法線
 62
     0
100
AcDbMText
 10
191.7731870459444
 20
106.0288564056647
 30
0.0
 40
3.0
 41
0.0
 46
0.0
 71
     5
 72
     1
  1
8
 11
0.0
 21
1.0
 31
0.0
 73
     1
 44
1.0
  0
POINT
  5
334
330
32B
100
AcDbEntity
  8
Defpoints
 62
     0
100
AcDbPoint
 10
161.1661184343643
 20
102.0288564056647
 30
0.0
  0
POINT
  5
335
330
32B
100
AcDbEntity
  8
Defpoints
 62
     0
100
AcDbPoint
 10
161.2992319095527
 20
110.0288564056646
 30
0.0
  0
POINT
  5
336
330
32B
100
AcDbEntity
  8
Defpoints
 62
     0
100
AcDbPoint
 10
193.9288828167493
 20
110.0288564056646
 30
0.0
  0
ENDBLK
  5
32D
330
32B
100
AcDbEntity
  8
0
100
AcDbBlockEnd
  0
BLOCK
  5
338
330
337
100
AcDbEntity
  8
0
100
AcDbBlockBegin
  2
*D26
 70
     1
 10
0.0
 20
0.0
 30
0.0
  3
*D26
  1
*D27
  0
LINE
  5
33A
330
337
100
AcDbEntity
  8
文字・寸法線
 62
     0
370
    -2
100
AcDbLine
 10
156.3492319095527
 20
210.0288564056646
 30
0.0
 11
201.9564002981135
 21
210.0288564056646
 31
0.0
  0
LINE
  5
33B
330
337
100
AcDbEntity
  8
文字・寸法線
 62
     0
370
    -2
100
AcDbLine
 10
187.3189524980399
 20
81.52885640566464
 30
0.0
 11
201.9564002981135
 21
81.52885640566464
 31
0.0
  0
LINE
  5
33C
330
337
100
AcDbEntity
  8
文字・寸法線
 62
     0
370
    -2
100
AcDbLine
 10
201.4564002981135
 20
207.5288564056646
 30
0.0
 11
201.4564002981135
 21
84.02885640566464
 31
0.0
  0
SOLID
  5
33D
330
337
100
AcDbEntity
  8
文字・寸法線
 62
     0
100
AcDbTrace
 10
201.8730669647802
 20
207.5288564056646
 30
0.0
 11
201.0397336314469
 21
207.5288564056646
 31
0.0
 12
201.4564002981135
 22
210.0288564056646
 32
0.0
 13
201.4564002981135
 23
210.0288564056646
 33
0.0
  0
SOLID
  5
33E
330
337
100
AcDbEntity
  8
文字・寸法線
 62
     0
100
AcDbTrace
 10
201.0397336314469
 20
84.02885640566464
 30
0.0
 11
201.8730669647802
 21
84.02885640566464
 31
0.0
 12
201.4564002981135
 22
81.52885640566464
 32
0.0
 13
201.4564002981135
 23
81.52885640566464
 33
0.0
  0
MTEXT
  5
33F
330
337
100
AcDbEntity
  8
文字・寸法線
 62
     0
100
AcDbMText
 10
199.3007045273086
 20
145.7788564056646
 30
0.0
 40
3.0
 41
0.0
 46
0.0
 71
     5
 72
     1
  1
128.5
 11
0.0
 21
1.0
 31
0.0
 73
     1
 44
1.0
  0
POINT
  5
340
330
337
100
AcDbEntity
  8
Defpoints
 62
     0
100
AcDbPoint
 10
154.3492319095527
 20
210.0288564056646
 30
0.0
  0
POINT
  5
341
330
337
100
AcDbEntity
  8
Defpoints
 62
     0
100
AcDbPoint
 10
185.3189524980399
 20
81.52885640566464
 30
0.0
  0
POINT
  5
342
330
337
100
AcDbEntity
  8
Defpoints
 62
     0
100
AcDbPoint
 10
201.4564002981135
 20
81.52885640566464
 30
0.0
  0
ENDBLK
  5
339
330
337
100
AcDbEntity
  8
0
100
AcDbBlockEnd
  0
ENDSEC
  0
SECTION
  2
ENTITIES
  0
DIMENSION
  5
248
102
{ACAD_XDICTIONARY
360
249
102
}
330
1F
100
AcDbEntity
  8
文字・寸法線
100
AcDbDimension
280
     0
  2
*D14
 10
231.5096937041652
 20
164.064387912382
 30
0.0
 11
239.0096937041652
 21
166.220887912382
 31
0.0
 70
    32
 71
     5
 42
15.0
 73
     0
 74
     0
 75
     0
  3
ISO-25
100
AcDbAlignedDimension
 13
246.5096937041652
 23
145.2395147319882
 33
0.0
 14
231.5096937041652
 24
114.6145147319882
 34
0.0
100
AcDbRotatedDimension
  0
DIMENSION
  5
24B
102
{ACAD_REACTORS
330
24D
102
}
102
{ACAD_XDICTIONARY
360
24C
102
}
330
1F
100
AcDbEntity
  8
文字・寸法線
100
AcDbDimension
280
     0
  2
*D15
 10
246.5096937041652
 20
164.064387912382
 30
0.0
 11
281.5096937041652
 21
166.220887912382
 31
0.0
 70
    32
 71
     5
 42
70.0
 73
     0
 74
     0
 75
     0
  3
ISO-25
100
AcDbAlignedDimension
 13
316.5096937041652
 23
156.0099538386613
 33
0.0
 14
246.5096937041652
 24
144.6145147319882
 34
0.0
100
AcDbRotatedDimension
  0
DIMENSION
  5
24E
102
{ACAD_REACTORS
330
250
102
}
102
{ACAD_XDICTIONARY
360
24F
102
}
330
1F
100
AcDbEntity
  8
文字・寸法線
100
AcDbDimension
280
     0
  2
*D16
 10
316.5096937041652
 20
164.064387912382
 30
0.0
 11
334.0096937041652
 21
166.220887912382
 31
0.0
 70
    32
 71
     5
 42
35.0
 73
     0
 74
     0
 75
     0
  3
ISO-25
100
AcDbAlignedDimension
 13
351.5096937041652
 23
114.6145147319882
 33
0.0
 14
316.5096937041652
 24
155.3849538386613
 34
0.0
100
AcDbRotatedDimension
  0
LINE
  5
251
102
{ACAD_REACTORS
330
24D
102
}
330
1F
100
AcDbEntity
  8
中心線
 48
0.3
100
AcDbLine
 10
246.5096937041652
 20
144.6145147319882
 30
0.0
 11
246.5096937041652
 21
84.61451473198818
 31
0.0
  0
DIMENSION
  5
252
102
{ACAD_REACTORS
330
254
102
}
102
{ACAD_XDICTIONARY
360
253
102
}
330
1F
100
AcDbEntity
  8
文字・寸法線
100
AcDbDimension
280
     0
  2
*D17
 10
378.2228574678373
 20
149.6145147319882
 30
0.0
 11
376.0663574678373
 21
156.2160147319882
 31
0.0
 70
    32
 71
     5
 42
0.0
 73
     0
 74
     0
 75
     0
  3
ISO-25
100
AcDbAlignedDimension
 13
316.5096937041652
 23
149.6145147319882
 33
0.0
 14
316.5096937041652
 24
149.6145147319882
 34
0.0
 50
90.0
100
AcDbRotatedDimension
  0
DIMENSION
  5
255
102
{ACAD_XDICTIONARY
360
256
102
}
330
1F
100
AcDbEntity
  8
文字・寸法線
100
AcDbDimension
280
     0
  2
*D18
 10
370.224442903895
 20
87.61451473198818
 30
0.0
 11
368.019942903895
 21
114.6145147319882
 31
0.0
 70
    32
  1
%%c<>
 71
     5
 42
53.99999999999997
 73
     0
 74
     0
 75
     0
  3
ISO-25
100
AcDbAlignedDimension
 13
316.5096937041652
 23
141.6145147319882
 33
0.0
 14
316.5096937041652
 24
87.61451473198818
 34
0.0
 50
90.0
100
AcDbRotatedDimension
  0
LINE
  5
258
330
1F
100
AcDbEntity
  8
中心線
 48
0.3
100
AcDbLine
 10
316.5096937041652
 20
114.6145147319882
 30
0.0
 11
223.9211043282291
 21
114.6145147319882
 31
0.0
  0
LINE
  5
259
102
{ACAD_REACTORS
330
254
102
}
330
1F
100
AcDbEntity
  8
中心線
 48
0.3
100
AcDbLine
 10
316.5096937041652
 20
155.3849538386613
 30
0.0
 11
316.5096937041652
 21
75.07604647694731
 31
0.0
  0
LINE
  5
25B
102
{ACAD_REACTORS
330
250
102
}
330
1F
100
AcDbEntity
  8
中心線
 48
0.3
100
AcDbLine
 10
316.5096937041652
 20
114.6145147319882
 30
0.0
 11
360.4188212426389
 21
114.6145147319882
 31
0.0
  0
DIMENSION
  5
25C
102
{ACAD_REACTORS
330
25E
102
}
102
{ACAD_XDICTIONARY
360
25D
102
}
330
1F
100
AcDbEntity
  8
文字・寸法線
100
AcDbDimension
280
     0
  2
*D19
 10
56.65447709860891
 20
81.52885640566464
 30
0.0
 11
53.97540089602387
 21
86.8444653822983
 31
0.0
 70
   160
 71
     5
 42
2.0
 73
     0
 74
     0
 75
     0
  3
ISO-25
100
AcDbAlignedDimension
 13
65.31895249803992
 23
83.52885640566464
 33
0.0
 14
65.31895249803992
 24
81.52885640566464
 34
0.0
 50
90.0
100
AcDbRotatedDimension
1001
ACAD
1000
DSTYLE
1002
{
1070
   279
1070
     2
1002
}
  0
DIMENSION
  5
25F
102
{ACAD_REACTORS
330
261
102
}
102
{ACAD_XDICTIONARY
360
260
102
}
330
1F
100
AcDbEntity
  8
文字・寸法線
100
AcDbDimension
280
     0
  2
*D20
 10
185.3189524980399
 20
64.27669710113682
 30
0.0
 11
125.3189524980399
 21
66.43239287194173
 31
0.0
 70
    32
 71
     5
 42
120.0
 73
     0
 74
     0
 75
     0
  3
ISO-25
100
AcDbAlignedDimension
 13
65.31895249803992
 23
81.52885640566464
 33
0.0
 14
185.3189524980399
 24
81.52885640566464
 34
0.0
100
AcDbRotatedDimension
  0
DIMENSION
  5
262
102
{ACAD_REACTORS
330
264
102
}
102
{ACAD_XDICTIONARY
360
263
102
}
330
1F
100
AcDbEntity
  8
文字・寸法線
100
AcDbDimension
280
     0
  2
*D21
 10
193.9288828167491
 20
81.5288564056646
 30
0.0
 11
191.7731870459442
 21
91.7788564056646
 31
0.0
 70
    32
  1
20.5
 71
     5
 42
20.5
 73
     0
 74
     0
 75
     0
  3
ISO-25
100
AcDbAlignedDimension
 13
150.3492319095532
 23
102.0288564056646
 33
0.0
 14
185.3189524980398
 24
81.5288564056646
 34
0.0
 50
90.0
100
AcDbRotatedDimension
  0
LINE
  5
265
330
1F
100
AcDbEntity
  8
実線
100
AcDbLine
 10
141.8992319095527
 20
102.0288564056646
 30
0.0
 11
158.7992319095527
 21
102.0288564056646
 31
0.0
  0
ARC
  5
266
330
1F
100
AcDbEntity
  8
実線
100
AcDbCircle
 10
158.7992319095527
 20
105.6538564056646
 30
0.0
 40
3.62500000000001
100
AcDbArc
 50
226.3971810272965
 51
313.6028189727041
  0
ARC
  5
267
102
{ACAD_REACTORS
330
264
102
}
330
1F
100
AcDbEntity
  8
実線
100
AcDbCircle
 10
150.3492319095527
 20
120.2301064056645
 30
0.0
 40
18.20124999999991
100
AcDbArc
 50
250.9192363903145
 51
289.0807636096853
  0
ARC
  5
268
330
1F
100
AcDbEntity
  8
実線
100
AcDbCircle
 10
141.8992319095527
 20
105.6538564056646
 30
0.0
 40
3.625
100
AcDbArc
 50
226.3971810272964
 51
313.6028189727036
  0
LINE
  5
269
102
{ACAD_REACTORS
330
264
330
261
330
25E
102
}
330
1F
100
AcDbEntity
  8
実線
100
AcDbLine
 10
185.3189524980399
 20
81.52885640566464
 30
0.0
 11
65.31895249803992
 21
81.52885640566464
 31
0.0
  0
LINE
  5
26A
102
{ACAD_REACTORS
330
25E
102
}
330
1F
100
AcDbEntity
  8
実線
100
AcDbLine
 10
65.31895249803992
 20
83.52885640566464
 30
0.0
 11
65.31895249803992
 21
81.52885640566464
 31
0.0
  0
LINE
  5
26B
330
1F
100
AcDbEntity
  8
実線
100
AcDbLine
 10
185.3189524980399
 20
83.52885640566464
 30
0.0
 11
185.3189524980399
 21
81.52885640566464
 31
0.0
  0
LINE
  5
26C
330
1F
100
AcDbEntity
  8
実線
100
AcDbLine
 10
121.3591238465947
 20
83.52885640566464
 30
0.0
 11
65.31895249803992
 21
83.52885640566464
 31
0.0
  0
ARC
  5
26D
330
1F
100
AcDbEntity
  8
実線
100
AcDbCircle
 10
150.0162193868884
 20
73.58660397349612
 30
0.0
 40
28.44420188290481
100
AcDbArc
 50
89.32919024911546
 51
155.7437195008696
  0
ARC
  5
26E
330
1F
100
AcDbEntity
  8
実線
100
AcDbCircle
 10
121.3591238465947
 20
86.52885640566464
 30
0.0
 40
3.0
100
AcDbArc
 50
269.9999999999994
 51
335.2319015012845
  0
ARC
  5
26F
330
1F
100
AcDbEntity
  8
実線
100
AcDbCircle
 10
179.3393399725105
 20
86.52885640566464
 30
0.0
 40
3.0
100
AcDbArc
 50
204.7680984987155
 51
270.0000000000005
  0
ARC
  5
270
102
{ACAD_REACTORS
330
264
102
}
330
1F
100
AcDbEntity
  8
実線
100
AcDbCircle
 10
150.6822444322169
 20
73.58660397349614
 30
0.0
 40
28.44420188290477
100
AcDbArc
 50
24.25628049913038
 51
90.67080975088456
  0
LINE
  5
271
330
1F
100
AcDbEntity
  8
実線
100
AcDbLine
 10
179.3393399725106
 20
83.52885640566464
 30
0.0
 11
185.3189524980399
 21
83.52885640566464
 31
0.0
  0
LINE
  5
272
330
1F
100
AcDbEntity
  8
実線
100
AcDbLine
 10
121.3591238465947
 20
83.52885640566464
 30
0.0
 11
181.4436024589886
 21
83.52885640566464
 31
0.0
  0
CIRCLE
  5
273
102
{ACAD_REACTORS
102
}
330
1F
100
AcDbEntity
  8
実線
100
AcDbCircle
 10
316.5096937041652
 20
114.6145147319882
 30
0.0
 40
27.0
  0
CIRCLE
  5
274
330
1F
100
AcDbEntity
  8
実線
100
AcDbCircle
 10
246.5096937041652
 20
114.6145147319882
 30
0.0
 40
7.0
  0
ARC
  5
275
102
{ACAD_REACTORS
330
294
102
}
330
1F
100
AcDbEntity
  8
実線
100
AcDbCircle
 10
246.5096937041652
 20
114.6145147319882
 30
0.0
 40
15.0
100
AcDbArc
 50
99.55953660869511
 51
260.4404633913044
  0
ARC
  5
276
102
{ACAD_REACTORS
330
254
330
250
102
}
330
1F
100
AcDbEntity
  8
実線
100
AcDbCircle
 10
316.5096937041652
 20
114.6145147319882
 30
0.0
 40
35.0
100
AcDbArc
 50
253.2990352067444
 51
106.7009647932556
  0
LINE
  5
277
330
1F
100
AcDbEntity
  8
実線
100
AcDbLine
 10
244.018608069386
 20
99.8228112344124
 30
0.0
 11
306.4515110098673
 21
81.09089677556636
 31
0.0
  0
LINE
  5
278
330
1F
100
AcDbEntity
  8
実線
100
AcDbLine
 10
244.018608069386
 20
129.406218229564
 30
0.0
 11
306.4515110098673
 21
148.13813268841
 31
0.0
  0
DIMENSION
  5
279
102
{ACAD_REACTORS
330
27B
102
}
102
{ACAD_XDICTIONARY
360
27A
102
}
330
1F
100
AcDbEntity
  8
文字・寸法線
100
AcDbDimension
280
     0
  2
*D22
 10
156.3492319095527
 20
220.6011935653333
 30
0.0
 11
150.3492319095527
 21
222.7323327194943
 31
0.0
 70
    32
  1
M12
 71
     5
 42
12.0
 73
     0
 74
     0
 75
     0
  3
ISO-25
100
AcDbAlignedDimension
 13
144.3492319095527
 23
208.0288564056646
 33
0.0
 14
156.3492319095527
 24
208.0288564056646
 34
0.0
100
AcDbRotatedDimension
  0
DIMENSION
  5
27C
102
{ACAD_REACTORS
330
27E
102
}
102
{ACAD_XDICTIONARY
360
27D
102
}
330
1F
100
AcDbEntity
  8
文字・寸法線
100
AcDbDimension
280
     0
  2
*D23
 10
193.9288828167493
 20
110.0288564056646
 30
0.0
 11
191.7731870459444
 21
160.0288564056646
 31
0.0
 70
    32
 71
     5
 42
100.0
 73
     0
 74
     0
 75
     0
  3
ISO-25
100
AcDbAlignedDimension
 13
154.3492319095527
 23
210.0288564056646
 33
0.0
 14
161.2992319095527
 24
110.0288564056646
 34
0.0
 50
90.0
100
AcDbRotatedDimension
  0
LINE
  5
27F
102
{ACAD_REACTORS
330
27E
102
}
330
1F
100
AcDbEntity
  8
実線
370
    15
100
AcDbLine
 10
154.3492319095527
 20
210.0288564056646
 30
0.0
 11
154.3492319095527
 21
119.2535469124184
 31
0.0
  0
LINE
  5
280
330
1F
100
AcDbEntity
  8
実線
370
    15
100
AcDbLine
 10
146.3492319095527
 20
210.0288564056646
 30
0.0
 11
146.3492319095527
 21
119.2534470544421
 31
0.0
  0
LINE
  5
281
102
{ACAD_REACTORS
330
27B
102
}
330
1F
100
AcDbEntity
  8
実線
370
    20
100
AcDbLine
 10
144.3492319095527
 20
208.0288564056646
 30
0.0
 11
156.3492319095527
 21
208.0288564056646
 31
0.0
  0
LWPOLYLINE
  5
282
330
1F
100
AcDbEntity
  8
実線
100
AcDbPolyline
 90
        4
 70
     0
 43
0.0
 10
144.3492319095527
 20
119.253422089948
 10
144.3492319095527
 20
110.0288564056646
 10
156.3492319095527
 20
110.0288564056646
 10
156.3492319095527
 20
119.2535718769124
  0
DIMENSION
  5
283
102
{ACAD_REACTORS
330
285
102
}
102
{ACAD_XDICTIONARY
360
284
102
}
330
1F
100
AcDbEntity
  8
文字・寸法線
100
AcDbDimension
280
     0
  2
*D24
 10
325.9926718756049
 20
67.68976441467339
 30
0.0
 11
316.5096937041652
 21
67.68976441467339
 31
0.0
 70
   160
  1
19
 71
     5
 42
18.96595634287917
 73
     0
 74
     0
 75
     0
  3
ISO-25
100
AcDbAlignedDimension
 13
307.0267155327257
 23
109.1395147319883
 33
0.0
 14
325.9926718756049
 24
109.1395147319883
 34
0.0
100
AcDbRotatedDimension
  0
LINE
  5
286
330
1F
100
AcDbEntity
  8
中心線
 48
0.3
100
AcDbLine
 10
150.3492319095527
 20
74.91899900038098
 30
0.0
 11
150.3492319095527
 21
215.3234542279659
 31
0.0
  0
DIMENSION
  5
287
330
1F
100
AcDbEntity
  8
文字・寸法線
100
AcDbDimension
280
     0
  2
*D25
 10
193.9288828167493
 20
110.0288564056646
 30
0.0
 11
191.7731870459444
 21
106.0288564056647
 31
0.0
 70
    32
  1
8
 71
     5
 42
7.999999999999972
 73
     0
 74
     0
 75
     0
  3
ISO-25
100
AcDbAlignedDimension
 13
161.1661184343643
 23
102.0288564056647
 33
0.0
 14
161.2992319095527
 24
110.0288564056646
 34
0.0
 50
90.0
100
AcDbRotatedDimension
  0
CIRCLE
  5
288
330
1F
100
AcDbEntity
  8
実線
370
    20
100
AcDbCircle
 10
316.5096937041652
 20
114.6145147319882
 30
0.0
 40
5.15
  0
CIRCLE
  5
289
330
1F
100
AcDbEntity
  8
実線
100
AcDbCircle
 10
316.5096937041652
 20
114.6145147319882
 30
0.0
 40
6.0
  0
LWPOLYLINE
  5
28A
102
{ACAD_REACTORS
330
285
102
}
330
1F
100
AcDbEntity
  8
実線
100
AcDbPolyline
 90
        6
 70
     1
 43
0.0
 10
307.0267155327257
 20
109.1395147319883
 10
316.5096937041652
 20
103.6645147319882
 10
325.9926718756049
 20
109.1395147319883
 10
325.9926718756049
 20
120.0895147319882
 10
316.5096937041652
 20
125.5645147319882
 10
307.0267155327257
 20
120.0895147319882
  0
LINE
  5
28B
330
1F
100
AcDbEntity
  8
実線
100
AcDbLine
 10
139.3992319095527
 20
104.0288564056646
 30
0.0
 11
139.3992319095527
 21
103.0288564056646
 31
0.0
  0
LINE
  5
28C
330
1F
100
AcDbEntity
  8
実線
100
AcDbLine
 10
161.2992319095527
 20
104.0288564056646
 30
0.0
 11
161.2992319095527
 21
103.0288564056646
 31
0.0
  0
LINE
  5
28D
330
1F
100
AcDbEntity
  8
実線
100
AcDbLine
 10
161.2992319095527
 20
103.0288564056646
 30
0.0
 11
161.2992319095527
 21
104.0288564056646
 31
0.0
  0
LINE
  5
28E
330
1F
100
AcDbEntity
  8
実線
100
AcDbLine
 10
144.3992319095527
 20
110.0288564056646
 30
0.0
 11
144.3992319095527
 21
103.0288564056646
 31
0.0
  0
LINE
  5
28F
330
1F
100
AcDbEntity
  8
実線
100
AcDbLine
 10
156.2992319095527
 20
110.0288564056646
 30
0.0
 11
156.2992319095527
 21
103.0288564056646
 31
0.0
  0
LWPOLYLINE
  5
290
102
{ACAD_REACTORS
330
27E
102
}
330
1F
100
AcDbEntity
  8
実線
100
AcDbPolyline
 90
        4
 70
     0
 43
0.0
 10
161.2992319095527
 20
104.0288564056646
 10
161.2992319095527
 20
110.0288564056646
 10
139.3992319095527
 20
110.0288564056646
 10
139.3992319095527
 20
104.0288564056646
  0
MTEXT
  5
291
102
{ACAD_REACTORS
330
292
102
}
330
1F
100
AcDbEntity
  8
文字・寸法線
100
AcDbMText
 10
231.9119050132333
 20
89.13781246440183
 30
0.0
 40
3.0
 41
0.0
 46
0.0
 71
     9
 72
     1
  1
%%c14
 73
     1
 44
1.0
  0
LEADER
  5
292
102
{ACAD_REACTORS
330
294
102
}
102
{ACAD_XDICTIONARY
360
293
102
}
330
1F
100
AcDbEntity
  8
文字・寸法線
100
AcDbLeader
  3
ISO-25
 73
     0
 40
3.171
 41
6.750000000000001
 76
     3
 10
246.5096937041652
 20
114.6145147319882
 30
0.0
 10
234.1513443520494
 20
88.51281246440183
 30
0.0
 10
232.5369050132333
 20
88.51281246440183
 30
0.0
340
291
1001
ACAD
1000
DSTYLE
1002
{
1070
   147
1040
0.625
1070
    77
1070
     1
1002
}
  0
LINE
  5
2A2
330
1F
100
AcDbEntity
  8
実線
370
    15
100
AcDbLine
 10
146.3492319095527
 20
119.2534470544421
 30
0.0
 11
146.3492319095527
 21
110.0288564056646
 31
0.0
  0
LINE
  5
2A3
330
1F
100
AcDbEntity
  8
実線
370
    15
100
AcDbLine
 10
154.3492319095527
 20
119.2535469124184
 30
0.0
 11
154.3492319095527
 21
110.0288564056646
 31
0.0
  0
LWPOLYLINE
  5
2A4
330
1F
100
AcDbEntity
  8
実線
100
AcDbPolyline
 90
        6
 70
     0
 43
0.0
 10
156.3492319095527
 20
119.2535718769124
 10
156.3492319095527
 20
208.0288564056646
 10
154.3492319095527
 20
210.0288564056646
 10
146.3492319095527
 20
210.0288564056646
 10
144.3492319095527
 20
208.0288564056646
 10
144.3492319095527
 20
119.253422089948
  0
MTEXT
  5
370
330
1F
100
AcDbEntity
  8
文字・寸法線
 62
     0
100
AcDbMText
 10
114.6218789850382
 20
250.6526360272783
 30
0.0
 40
6.0
 41
0.0
 46
6.0
 71
     9
 72
     1
  1
{\fＭＳ ゴシック|b0|i0|c0|p0;S-D M12X100}
 73
     1
 44
1.0
1001
ACAD
1000
ACAD_MTEXT_DEFINED_HEIGHT_BEGIN
1070
    46
1040
6.0
1000
ACAD_MTEXT_DEFINED_HEIGHT_END
  0
ENDSEC
  0
SECTION
  2
OBJECTS
  0
DICTIONARY
  5
C
330
0
100
AcDbDictionary
281
     1
  3
ACAD_COLOR
350
73
  3
ACAD_DETAILVIEWSTYLE
350
122
  3
ACAD_GROUP
350
D
  3
ACAD_IMAGE_VARS
350
DC
  3
ACAD_LAYOUT
350
1A
  3
ACAD_MATERIAL
350
72
  3
ACAD_MLEADERSTYLE
350
B5
  3
ACAD_MLINESTYLE
350
17
  3
ACAD_PLOTSETTINGS
350
19
  3
ACAD_PLOTSTYLENAME
350
E
  3
ACAD_SCALELIST
350
B6
  3
ACAD_SECTIONVIEWSTYLE
350
123
  3
ACAD_TABLESTYLE
350
86
  3
ACAD_VISUALSTYLE
350
99
  3
ACDB_RECOMPOSE_DATA
350
3B0
  3
AcDbVariableDictionary
350
66
  3
APPDATA
350
E1
  0
SUN
  5
ED
330
94
100
AcDbSun
 90
        1
290
     0
 63
     7
421
 16777215
 40
1.0
291
     1
 91
  2455826
 92
 54000000
292
     0
 70
     2
 71
   256
280
     1
  0
DICTIONARY
  5
249
330
248
100
AcDbDictionary
280
     1
281
     1
  0
DICTIONARY
  5
24C
330
24B
100
AcDbDictionary
280
     1
281
     1
  3
ACAD_DIMASSOC
360
24D
  0
DICTIONARY
  5
24F
330
24E
100
AcDbDictionary
280
     1
281
     1
  3
ACAD_DIMASSOC
360
250
  0
DICTIONARY
  5
253
330
252
100
AcDbDictionary
280
     1
281
     1
  3
ACAD_DIMASSOC
360
254
  0
DICTIONARY
  5
256
330
255
100
AcDbDictionary
280
     1
281
     1
  0
DICTIONARY
  5
25D
330
25C
100
AcDbDictionary
280
     1
281
     1
  3
ACAD_DIMASSOC
360
25E
  0
DICTIONARY
  5
260
330
25F
100
AcDbDictionary
280
     1
281
     1
  3
ACAD_DIMASSOC
360
261
  0
DICTIONARY
  5
263
330
262
100
AcDbDictionary
280
     1
281
     1
  3
ACAD_DIMASSOC
360
264
  0
DICTIONARY
  5
27A
330
279
100
AcDbDictionary
280
     1
281
     1
  3
ACAD_DIMASSOC
360
27B
  0
DICTIONARY
  5
27D
330
27C
100
AcDbDictionary
280
     1
281
     1
  3
ACAD_DIMASSOC
360
27E
  0
DICTIONARY
  5
284
330
283
100
AcDbDictionary
280
     1
281
     1
  3
ACAD_DIMASSOC
360
285
  0
DICTIONARY
  5
293
330
292
100
AcDbDictionary
280
     1
281
     1
  3
ACAD_DIMASSOC
360
294
  0
DICTIONARY
  5
73
102
{ACAD_REACTORS
330
C
102
}
330
C
100
AcDbDictionary
281
     1
  0
DICTIONARY
  5
122
102
{ACAD_REACTORS
330
C
102
}
330
C
100
AcDbDictionary
281
     1
  0
DICTIONARY
  5
D
102
{ACAD_REACTORS
330
C
102
}
330
C
100
AcDbDictionary
281
     1
  0
RASTERVARIABLES
  5
DC
102
{ACAD_REACTORS
330
C
102
}
330
C
100
AcDbRasterVariables
 90
        0
 70
     1
 71
     1
 72
     5
  0
DICTIONARY
  5
1A
102
{ACAD_REACTORS
330
C
102
}
330
C
100
AcDbDictionary
281
     1
  3
Model
350
22
  3
Sheet1
350
59
  3
Sheet2
350
5E
  0
DICTIONARY
  5
72
102
{ACAD_REACTORS
330
C
102
}
330
C
100
AcDbDictionary
281
     1
  3
ByBlock
350
E2
  3
ByLayer
350
96
  3
Global
350
98
  0
DICTIONARY
  5
B5
102
{ACAD_REACTORS
330
C
102
}
330
C
100
AcDbDictionary
281
     1
  0
DICTIONARY
  5
17
102
{ACAD_REACTORS
330
C
102
}
330
C
100
AcDbDictionary
281
     1
  3
Standard
350
18
  0
DICTIONARY
  5
19
102
{ACAD_REACTORS
330
C
102
}
330
C
100
AcDbDictionary
281
     1
  0
ACDBDICTIONARYWDFLT
  5
E
102
{ACAD_REACTORS
330
C
102
}
330
C
100
AcDbDictionary
281
     1
  3
Normal
350
F
100
AcDbDictionaryWithDefault
340
F
  0
DICTIONARY
  5
B6
102
{ACAD_REACTORS
330
C
102
}
330
C
100
AcDbDictionary
281
     1
  3
A0
350
B7
  3
A1
350
B8
  3
A2
350
B9
  3
A3
350
BA
  3
A4
350
BB
  3
A5
350
BC
  3
A6
350
BD
  3
A7
350
BE
  3
A8
350
BF
  3
A9
350
C0
  3
B0
350
C1
  3
B1
350
C2
  3
B2
350
C3
  3
B3
350
C4
  3
B4
350
C5
  3
B5
350
C6
  3
B6
350
C7
  3
B7
350
C8
  3
B8
350
C9
  3
B9
350
CA
  3
C0
350
CB
  3
C1
350
CC
  3
C2
350
CD
  3
C3
350
CE
  3
C4
350
CF
  3
C5
350
D0
  3
C6
350
D1
  3
C7
350
D2
  3
C8
350
D3
  3
C9
350
D4
  3
D0
350
D5
  3
D1
350
D6
  3
D2
350
D7
  0
DICTIONARY
  5
123
102
{ACAD_REACTORS
330
C
102
}
330
C
100
AcDbDictionary
281
     1
  0
DICTIONARY
  5
86
102
{ACAD_REACTORS
330
C
102
}
330
C
100
AcDbDictionary
281
     1
  3
Standard
350
87
  0
DICTIONARY
  5
99
102
{ACAD_REACTORS
330
C
102
}
330
C
100
AcDbDictionary
281
     1
  3
2dWireframe
350
9F
  3
3D Hidden
350
A1
  3
3dWireframe
350
A0
  3
Basic
350
9E
  3
Brighten
350
A5
  3
ColorChange
350
A9
  3
Conceptual
350
A2
  3
Dim
350
A4
  3
EdgeColorOff
350
E7
  3
Facepattern
350
A8
  3
Flat
350
9A
  3
FlatWithEdges
350
9B
  3
Gouraud
350
9C
  3
GouraudWithEdges
350
9D
  3
Hidden
350
E4
  3
JitterOff
350
E5
  3
Linepattern
350
A7
  3
OverhangOff
350
E6
  3
Realistic
350
A3
  3
Shaded
350
EC
  3
Shaded with edges
350
EB
  3
Shades of Gray
350
E8
  3
Sketchy
350
E9
  3
Thicken
350
A6
  3
Wireframe
350
E3
  3
X-Ray
350
EA
  0
XRECORD
  5
3B0
102
{ACAD_REACTORS
330
C
102
}
330
C
100
AcDbXrecord
280
     1
 90
        1
330
87
  0
DICTIONARY
  5
66
102
{ACAD_REACTORS
330
C
102
}
330
C
100
AcDbDictionary
281
     1
  3
CANNOSCALE
350
D8
  3
CTABLESTYLE
350
89
  3
DIMASSOC
350
67
  3
HIDETEXT
350
6B
  3
LIGHTSINBLOCKS
350
DF
  3
XCLIPFRAME
350
E0
  0
DICTIONARY
  5
E1
102
{ACAD_REACTORS
330
C
102
}
330
C
100
AcDbDictionary
281
     1
  0
DIMASSOC
  5
24D
102
{ACAD_REACTORS
330
24C
102
}
330
24C
100
AcDbDimAssoc
330
24B
 90
        2
 70
     0
 71
     0
  1
AcDbOsnapPointRef
 72
    13
331
251
 73
     2
 91
        0
 40
0.0
 10
0.0
 20
0.0
 30
2.000000000000000E+50
 75
     0
  0
DIMASSOC
  5
250
102
{ACAD_REACTORS
330
24F
102
}
330
24F
100
AcDbDimAssoc
330
24E
 90
        1
 70
     0
 71
     0
  1
AcDbOsnapPointRef
 72
     6
331
25B
 73
     2
 91
        0
 40
0.7971007843262793
 10
0.0
 20
0.0
 30
0.0
332
276
 74
     2
 92
        0
 75
     0
  0
DIMASSOC
  5
254
102
{ACAD_REACTORS
330
253
102
}
330
253
100
AcDbDimAssoc
330
252
 90
        2
 70
     0
 71
     0
  1
AcDbOsnapPointRef
 72
     6
331
259
 73
     2
 91
        0
 40
0.8852138574067738
 10
0.0
 20
0.0
 30
0.0
332
276
 74
     2
 92
        0
 75
     0
  0
DIMASSOC
  5
25E
102
{ACAD_REACTORS
330
25D
102
}
330
25D
100
AcDbDimAssoc
330
25C
 90
        3
 70
     0
 71
     0
  1
AcDbOsnapPointRef
 72
    13
331
26A
 73
     2
 91
        0
 40
0.0
 10
0.0
 20
0.0
 30
2.000000000000000E+50
 75
     0
  1
AcDbOsnapPointRef
 72
     1
331
269
 73
     2
 91
        0
 40
1.0
 10
0.0
 20
0.0
 30
2.000000000000000E+50
 75
     0
  0
DIMASSOC
  5
261
102
{ACAD_REACTORS
330
260
102
}
330
260
100
AcDbDimAssoc
330
25F
 90
        3
 70
     0
 71
     0
  1
AcDbOsnapPointRef
 72
     1
331
269
 73
     2
 91
        0
 40
1.0
 10
0.0
 20
0.0
 30
2.000000000000000E+50
 75
     0
  1
AcDbOsnapPointRef
 72
    13
331
269
 73
     2
 91
        0
 40
0.0
 10
0.0
 20
0.0
 30
2.000000000000000E+50
 75
     0
  0
DIMASSOC
  5
264
102
{ACAD_REACTORS
330
263
102
}
330
263
100
AcDbDimAssoc
330
262
 90
        3
 70
     0
 71
     0
  1
AcDbOsnapPointRef
 72
     6
331
267
 73
     2
 91
        0
 40
4.712388980384723
 10
0.0
 20
0.0
 30
0.0
332
270
 74
     2
 92
        0
 75
     0
  1
AcDbOsnapPointRef
 72
    13
331
269
 73
     2
 91
        0
 40
0.0
 10
0.0
 20
0.0
 30
2.000000000000000E+50
 75
     0
  0
DIMASSOC
  5
27B
102
{ACAD_REACTORS
330
27A
102
}
330
27A
100
AcDbDimAssoc
330
279
 90
        3
 70
     0
 71
     0
  1
AcDbOsnapPointRef
 72
    13
331
281
 73
     2
 91
        0
 40
0.0
 10
0.0
 20
0.0
 30
2.000000000000000E+50
 75
     0
  1
AcDbOsnapPointRef
 72
     1
331
281
 73
     2
 91
        0
 40
1.0
 10
0.0
 20
0.0
 30
2.000000000000000E+50
 75
     0
  0
DIMASSOC
  5
27E
102
{ACAD_REACTORS
330
27D
102
}
330
27D
100
AcDbDimAssoc
330
27C
 90
        3
 70
     0
 71
     0
  1
AcDbOsnapPointRef
 72
    13
331
27F
 73
     2
 91
        0
 40
0.0
 10
0.0
 20
0.0
 30
2.000000000000000E+50
 75
     0
  1
AcDbOsnapPointRef
 72
     1
331
290
 73
     2
 91
        1
 40
1.0
 10
0.0
 20
0.0
 30
2.000000000000000E+50
 75
     0
  0
DIMASSOC
  5
285
102
{ACAD_REACTORS
330
284
102
}
330
284
100
AcDbDimAssoc
330
283
 90
        3
 70
     0
 71
     0
  1
AcDbOsnapPointRef
 72
    13
331
28A
 73
     2
 91
        1
 40
0.0
 10
0.0
 20
0.0
 30
2.000000000000000E+50
 75
     0
  1
AcDbOsnapPointRef
 72
     1
331
28A
 73
     2
 91
        2
 40
1.0
 10
0.0
 20
0.0
 30
2.000000000000000E+50
 75
     0
  0
DIMASSOC
  5
294
102
{ACAD_REACTORS
330
293
102
}
330
293
100
AcDbDimAssoc
330
292
 90
        1
 70
     0
 71
     0
  1
AcDbOsnapPointRef
 72
     3
331
275
 73
     2
 91
        0
 40
1.737641715581558
 10
0.0
 20
0.0
 30
0.0
 75
     0
  0
LAYOUT
  5
22
102
{ACAD_REACTORS
330
1A
102
}
330
1A
100
AcDbPlotSettings
  1

  2
none_device
  4
ANSI_A_(8.50_x_11.00_Inches)
  6

 40
6.35
 41
19.05
 42
6.35
 43
19.05
 44
215.9
 45
279.4
 46
11.11250000000003
 47
0.0000000000000142
 48
0.0
 49
0.0
140
0.0
141
0.0
142
1.0
143
1.263157894736842
 70
 11444
 72
     0
 73
     1
 74
     1
  7
monochrome.ctb
 75
     0
 76
     0
 77
     2
 78
   300
147
0.7916666666666665
148
-702.8076765758875
149
-496.2830551296954
100
AcDbLayout
  1
Model
 70
     1
 71
     0
 10
0.0
 20
0.0
 11
12.0
 21
9.0
 12
0.0
 22
0.0
 32
0.0
 14
52.46940089602387
 24
63.77669710113682
 34
0.0
 15
378.7228574678373
 25
256.6526360272783
 35
0.0
146
0.0
 13
0.0
 23
0.0
 33
0.0
 16
1.0
 26
0.0
 36
0.0
 17
0.0
 27
1.0
 37
0.0
 76
     0
330
1F
331
94
  0
LAYOUT
  5
59
102
{ACAD_REACTORS
330
1A
102
}
330
1A
100
AcDbPlotSettings
  1

  2
None
  4

  6

 40
0.0
 41
0.0
 42
0.0
 43
0.0
 44
0.0
 45
0.0
 46
0.0
 47
0.0
 48
0.0
 49
0.0
140
0.0
141
0.0
142
1.0
143
1.0
 70
   688
 72
     0
 73
     0
 74
     5
  7

 75
    16
 76
     0
 77
     2
 78
   300
147
1.0
148
0.0
149
0.0
100
AcDbLayout
  1
Sheet1
 70
     1
 71
     1
 10
0.0
 20
0.0
 11
12.0
 21
9.0
 12
0.0
 22
0.0
 32
0.0
 14
0.0
 24
0.0
 34
0.0
 15
0.0
 25
0.0
 35
0.0
146
0.0
 13
0.0
 23
0.0
 33
0.0
 16
1.0
 26
0.0
 36
0.0
 17
0.0
 27
1.0
 37
0.0
 76
     0
330
58
  0
LAYOUT
  5
5E
102
{ACAD_REACTORS
330
1A
102
}
330
1A
100
AcDbPlotSettings
  1

  2
None
  4

  6

 40
0.0
 41
0.0
 42
0.0
 43
0.0
 44
0.0
 45
0.0
 46
0.0
 47
0.0
 48
0.0
 49
0.0
140
0.0
141
0.0
142
1.0
143
1.0
 70
   688
 72
     0
 73
     0
 74
     5
  7

 75
    16
 76
     0
 77
     2
 78
   300
147
1.0
148
0.0
149
0.0
100
AcDbLayout
  1
Sheet2
 70
     1
 71
     2
 10
0.0
 20
0.0
 11
12.0
 21
9.0
 12
0.0
 22
0.0
 32
0.0
 14
0.0
 24
0.0
 34
0.0
 15
0.0
 25
0.0
 35
0.0
146
0.0
 13
0.0
 23
0.0
 33
0.0
 16
1.0
 26
0.0
 36
0.0
 17
0.0
 27
1.0
 37
0.0
 76
     0
330
5D
  0
MATERIAL
  5
E2
102
{ACAD_REACTORS
330
72
102
}
330
72
100
AcDbMaterial
  1
ByBlock
 72
     1
 94
      127
  0
MATERIAL
  5
96
102
{ACAD_REACTORS
330
72
102
}
330
72
100
AcDbMaterial
  1
ByLayer
 72
     1
 94
       63
  0
MATERIAL
  5
98
102
{ACAD_REACTORS
330
72
102
}
330
72
100
AcDbMaterial
  1
Global
 72
     1
 94
       63
  0
MLINESTYLE
  5
18
102
{ACAD_REACTORS
330
17
102
}
330
17
100
AcDbMlineStyle
  2
STANDARD
 70
     0
  3

 62
   256
 51
90.0
 52
90.0
 71
     2
 49
0.5
 62
   256
  6
BYLAYER
 49
-0.5
 62
   256
  6
BYLAYER
  0
ACDBPLACEHOLDER
  5
F
102
{ACAD_REACTORS
330
E
102
}
330
E
  0
SCALE
  5
B7
102
{ACAD_REACTORS
330
B6
102
}
330
B6
100
AcDbScale
 70
     0
300
1:1
140
1.0
141
1.0
290
     1
  0
SCALE
  5
B8
102
{ACAD_REACTORS
330
B6
102
}
330
B6
100
AcDbScale
 70
     0
300
1:2
140
1.0
141
2.0
290
     0
  0
SCALE
  5
B9
102
{ACAD_REACTORS
330
B6
102
}
330
B6
100
AcDbScale
 70
     0
300
1:4
140
1.0
141
4.0
290
     0
  0
SCALE
  5
BA
102
{ACAD_REACTORS
330
B6
102
}
330
B6
100
AcDbScale
 70
     0
300
1:5
140
1.0
141
5.0
290
     0
  0
SCALE
  5
BB
102
{ACAD_REACTORS
330
B6
102
}
330
B6
100
AcDbScale
 70
     0
300
1:8
140
1.0
141
8.0
290
     0
  0
SCALE
  5
BC
102
{ACAD_REACTORS
330
B6
102
}
330
B6
100
AcDbScale
 70
     0
300
1:10
140
1.0
141
10.0
290
     0
  0
SCALE
  5
BD
102
{ACAD_REACTORS
330
B6
102
}
330
B6
100
AcDbScale
 70
     0
300
1:16
140
1.0
141
16.0
290
     0
  0
SCALE
  5
BE
102
{ACAD_REACTORS
330
B6
102
}
330
B6
100
AcDbScale
 70
     0
300
1:20
140
1.0
141
20.0
290
     0
  0
SCALE
  5
BF
102
{ACAD_REACTORS
330
B6
102
}
330
B6
100
AcDbScale
 70
     0
300
1:30
140
1.0
141
30.0
290
     0
  0
SCALE
  5
C0
102
{ACAD_REACTORS
330
B6
102
}
330
B6
100
AcDbScale
 70
     0
300
1:40
140
1.0
141
40.0
290
     0
  0
SCALE
  5
C1
102
{ACAD_REACTORS
330
B6
102
}
330
B6
100
AcDbScale
 70
     0
300
1:50
140
1.0
141
50.0
290
     0
  0
SCALE
  5
C2
102
{ACAD_REACTORS
330
B6
102
}
330
B6
100
AcDbScale
 70
     0
300
1:100
140
1.0
141
100.0
290
     0
  0
SCALE
  5
C3
102
{ACAD_REACTORS
330
B6
102
}
330
B6
100
AcDbScale
 70
     0
300
2:1
140
2.0
141
1.0
290
     0
  0
SCALE
  5
C4
102
{ACAD_REACTORS
330
B6
102
}
330
B6
100
AcDbScale
 70
     0
300
4:1
140
4.0
141
1.0
290
     0
  0
SCALE
  5
C5
102
{ACAD_REACTORS
330
B6
102
}
330
B6
100
AcDbScale
 70
     0
300
8:1
140
8.0
141
1.0
290
     0
  0
SCALE
  5
C6
102
{ACAD_REACTORS
330
B6
102
}
330
B6
100
AcDbScale
 70
     0
300
10:1
140
10.0
141
1.0
290
     0
  0
SCALE
  5
C7
102
{ACAD_REACTORS
330
B6
102
}
330
B6
100
AcDbScale
 70
     0
300
100:1
140
100.0
141
1.0
290
     0
  0
SCALE
  5
C8
102
{ACAD_REACTORS
330
B6
102
}
330
B6
100
AcDbScale
 70
     0
300
1/128" = 1'-0"
140
0.0078125
141
12.0
290
     0
  0
SCALE
  5
C9
102
{ACAD_REACTORS
330
B6
102
}
330
B6
100
AcDbScale
 70
     0
300
1/64" = 1'-0"
140
0.015625
141
12.0
290
     0
  0
SCALE
  5
CA
102
{ACAD_REACTORS
330
B6
102
}
330
B6
100
AcDbScale
 70
     0
300
1/32" = 1'-0"
140
0.03125
141
12.0
290
     0
  0
SCALE
  5
CB
102
{ACAD_REACTORS
330
B6
102
}
330
B6
100
AcDbScale
 70
     0
300
1/16" = 1'-0"
140
0.0625
141
12.0
290
     0
  0
SCALE
  5
CC
102
{ACAD_REACTORS
330
B6
102
}
330
B6
100
AcDbScale
 70
     0
300
3/32" = 1'-0"
140
0.09375
141
12.0
290
     0
  0
SCALE
  5
CD
102
{ACAD_REACTORS
330
B6
102
}
330
B6
100
AcDbScale
 70
     0
300
1/8" = 1'-0"
140
0.125
141
12.0
290
     0
  0
SCALE
  5
CE
102
{ACAD_REACTORS
330
B6
102
}
330
B6
100
AcDbScale
 70
     0
300
3/16" = 1'-0"
140
0.1875
141
12.0
290
     0
  0
SCALE
  5
CF
102
{ACAD_REACTORS
330
B6
102
}
330
B6
100
AcDbScale
 70
     0
300
1/4" = 1'-0"
140
0.25
141
12.0
290
     0
  0
SCALE
  5
D0
102
{ACAD_REACTORS
330
B6
102
}
330
B6
100
AcDbScale
 70
     0
300
3/8" = 1'-0"
140
0.375
141
12.0
290
     0
  0
SCALE
  5
D1
102
{ACAD_REACTORS
330
B6
102
}
330
B6
100
AcDbScale
 70
     0
300
1/2" = 1'-0"
140
0.5
141
12.0
290
     0
  0
SCALE
  5
D2
102
{ACAD_REACTORS
330
B6
102
}
330
B6
100
AcDbScale
 70
     0
300
3/4" = 1'-0"
140
0.75
141
12.0
290
     0
  0
SCALE
  5
D3
102
{ACAD_REACTORS
330
B6
102
}
330
B6
100
AcDbScale
 70
     0
300
1" = 1'-0"
140
1.0
141
12.0
290
     0
  0
SCALE
  5
D4
102
{ACAD_REACTORS
330
B6
102
}
330
B6
100
AcDbScale
 70
     0
300
1-1/2" = 1'-0"
140
1.5
141
12.0
290
     0
  0
SCALE
  5
D5
102
{ACAD_REACTORS
330
B6
102
}
330
B6
100
AcDbScale
 70
     0
300
3" = 1'-0"
140
3.0
141
12.0
290
     0
  0
SCALE
  5
D6
102
{ACAD_REACTORS
330
B6
102
}
330
B6
100
AcDbScale
 70
     0
300
6" = 1'-0"
140
6.0
141
12.0
290
     0
  0
SCALE
  5
D7
102
{ACAD_REACTORS
330
B6
102
}
330
B6
100
AcDbScale
 70
     0
300
1'-0" = 1'-0"
140
12.0
141
12.0
290
     0
  0
TABLESTYLE
  5
87
102
{ACAD_REACTORS
330
86
102
}
102
{ACAD_XDICTIONARY
360
3AE
102
}
330
86
100
AcDbTableStyle
  3
Standard
 70
     0
 71
     0
 40
0.06
 41
0.06
280
     0
281
     0
  7
Standard
140
0.18
170
     2
 62
     0
 63
   257
283
     0
 90
      512
 91
        0
  1

274
    -2
284
     1
 64
     0
275
    -2
285
     1
 65
     0
276
    -2
286
     1
 66
     0
277
    -2
287
     1
 67
     0
278
    -2
288
     1
 68
     0
279
    -2
289
     1
 69
     0
  7
Standard
140
0.25
170
     5
 62
     0
 63
   257
283
     0
 90
      512
 91
        0
  1

274
    -2
284
     1
 64
     0
275
    -2
285
     1
 65
     0
276
    -2
286
     1
 66
     0
277
    -2
287
     1
 67
     0
278
    -2
288
     1
 68
     0
279
    -2
289
     1
 69
     0
  7
Standard
140
0.18
170
     5
 62
     0
 63
   257
283
     0
 90
      512
 91
        0
  1

274
    -2
284
     1
 64
     0
275
    -2
285
     1
 65
     0
276
    -2
286
     1
 66
     0
277
    -2
287
     1
 67
     0
278
    -2
288
     1
 68
     0
279
    -2
289
     1
 69
     0
  0
VISUALSTYLE
  5
9F
102
{ACAD_REACTORS
330
99
102
}
330
99
100
AcDbVisualStyle
  2
2dWireframe
 70
     4
177
     3
291
     0
 70
    58
 90
        0
176
     1
 90
        2
176
     1
 90
        1
176
     1
 90
        0
176
     1
 40
-0.6
176
     1
 40
-30.0
176
     1
 62
     7
420
 16777215
176
     1
 90
        1
176
     1
 90
        4
176
     1
 62
     7
176
     1
 62
   257
176
     1
 90
        1
176
     1
 90
        1
176
     1
 40
1.0
176
     1
 90
        0
176
     1
 62
   257
176
     1
 40
1.0
176
     1
 90
        1
176
     1
 90
        6
176
     1
 90
        2
176
     1
 62
     7
176
     1
 90
        5
176
     1
 90
        0
176
     1
 90
        0
176
     1
290
     0
176
     1
 90
        1
176
     1
 40
0.0
176
     1
 90
        0
176
     1
290
     1
176
     1
290
     1
176
     1
290
     0
176
     1
290
     0
176
     1
290
     0
176
     1
290
     0
176
     1
290
     0
176
     1
290
     0
176
     1
290
     0
176
     1
 90
       50
176
     1
 40
0.0
176
     1
 40
1.0
176
     1
 90
        0
176
     1
 62
    18
420
        0
176
     1
 90
       50
176
     1
 90
        3
176
     1
 62
     5
420
      255
176
     1
290
     0
176
     1
 90
       50
176
     1
 90
       50
176
     1
 90
       50
176
     1
290
     0
176
     1
 90
       50
176
     1
 62
   256
176
     0
 40
1.0
176
     0
 90
        2
176
     1
  1
strokes_ogs.tif
176
     1
290
     0
176
     1
 40
1.0
176
     1
 40
1.0
176
     1
  0
VISUALSTYLE
  5
A1
102
{ACAD_REACTORS
330
99
102
}
330
99
100
AcDbVisualStyle
  2
3D Hidden
 70
     6
177
     3
291
     0
 70
    58
 90
        1
176
     1
 90
        2
176
     1
 90
        2
176
     1
 90
        0
176
     1
 40
-0.6
176
     1
 40
-30.0
176
     1
 62
     7
420
 16777215
176
     1
 90
        2
176
     1
 90
        2
176
     1
 62
     7
176
     1
 62
   257
176
     1
 90
        2
176
     1
 90
        1
176
     1
 40
40.0
176
     1
 90
        0
176
     1
 62
   257
176
     1
 40
1.0
176
     1
 90
        1
176
     1
 90
        6
176
     1
 90
        2
176
     1
 62
     7
176
     1
 90
        3
176
     1
 90
        0
176
     1
 90
        0
176
     1
290
     0
176
     1
 90
        1
176
     1
 40
0.0
176
     1
 90
        0
176
     1
290
     0
176
     1
290
     1
176
     1
290
     1
176
     1
290
     0
176
     1
290
     0
176
     1
290
     0
176
     1
290
     0
176
     1
290
     0
176
     1
290
     0
176
     1
 90
       50
176
     1
 40
0.0
176
     1
 40
1.0
176
     1
 90
        0
176
     1
 62
    18
420
        0
176
     1
 90
       50
176
     1
 90
        3
176
     1
 62
     5
420
      255
176
     1
290
     0
176
     1
 90
       50
176
     1
 90
       50
176
     1
 90
       50
176
     1
290
     0
176
     1
 90
       50
176
     1
 62
   256
176
     0
 40
1.0
176
     0
 90
        2
176
     1
  1
strokes_ogs.tif
176
     1
290
     0
176
     1
 40
1.0
176
     1
 40
1.0
176
     1
  0
VISUALSTYLE
  5
A0
102
{ACAD_REACTORS
330
99
102
}
330
99
100
AcDbVisualStyle
  2
3dWireframe
 70
     5
177
     3
291
     0
 70
    58
 90
        0
176
     1
 90
        2
176
     1
 90
        1
176
     1
 90
        0
176
     1
 40
-0.6
176
     1
 40
-30.0
176
     1
 62
     7
420
 16777215
176
     1
 90
        1
176
     1
 90
        4
176
     1
 62
     7
176
     1
 62
   257
176
     1
 90
        1
176
     1
 90
        1
176
     1
 40
1.0
176
     1
 90
        0
176
     1
 62
   257
176
     1
 40
1.0
176
     1
 90
        1
176
     1
 90
        6
176
     1
 90
        2
176
     1
 62
     7
176
     1
 90
        5
176
     1
 90
        0
176
     1
 90
        0
176
     1
290
     0
176
     1
 90
        1
176
     1
 40
0.0
176
     1
 90
        0
176
     1
290
     0
176
     1
290
     1
176
     1
290
     1
176
     1
290
     0
176
     1
290
     0
176
     1
290
     0
176
     1
290
     0
176
     1
290
     0
176
     1
290
     0
176
     1
 90
       50
176
     1
 40
0.0
176
     1
 40
1.0
176
     1
 90
        0
176
     1
 62
    18
420
        0
176
     1
 90
       50
176
     1
 90
        3
176
     1
 62
     5
420
      255
176
     1
290
     0
176
     1
 90
       50
176
     1
 90
       50
176
     1
 90
       50
176
     1
290
     0
176
     1
 90
       50
176
     1
 62
   256
176
     0
 40
1.0
176
     0
 90
        2
176
     1
  1
strokes_ogs.tif
176
     1
290
     0
176
     1
 40
1.0
176
     1
 40
1.0
176
     1
  0
VISUALSTYLE
  5
9E
102
{ACAD_REACTORS
330
99
102
}
330
99
100
AcDbVisualStyle
  2
Basic
 70
     7
177
     3
291
     1
 70
    58
 90
        1
176
     1
 90
        0
176
     1
 90
        1
176
     1
 90
        0
176
     1
 40
-0.6
176
     1
 40
-30.0
176
     1
 62
     7
420
 16777215
176
     1
 90
        0
176
     1
 90
        4
176
     1
 62
     7
176
     1
 62
   257
176
     1
 90
        1
176
     1
 90
        1
176
     1
 40
1.0
176
     1
 90
        8
176
     1
 62
     7
176
     1
 40
1.0
176
     1
 90
        1
176
     1
 90
        6
176
     1
 90
        2
176
     1
 62
     7
176
     1
 90
        5
176
     1
 90
        0
176
     1
 90
        0
176
     1
290
     0
176
     1
 90
        1
176
     1
 40
0.0
176
     1
 90
        0
176
     1
290
     0
176
     1
290
     1
176
     1
290
     1
176
     1
290
     0
176
     1
290
     0
176
     1
290
     0
176
     1
290
     0
176
     1
290
     0
176
     1
290
     0
176
     1
 90
       50
176
     1
 40
0.0
176
     1
 40
1.0
176
     1
 90
        0
176
     1
 62
    18
420
        0
176
     1
 90
       50
176
     1
 90
        3
176
     1
 62
     5
420
      255
176
     1
290
     0
176
     1
 90
       50
176
     1
 90
       50
176
     1
 90
       50
176
     1
290
     0
176
     1
 90
       50
176
     1
 62
   256
176
     0
 40
1.0
176
     0
 90
        2
176
     1
  1
strokes_ogs.tif
176
     1
290
     0
176
     1
 40
1.0
176
     1
 40
1.0
176
     1
  0
VISUALSTYLE
  5
A5
102
{ACAD_REACTORS
330
99
102
}
330
99
100
AcDbVisualStyle
  2
Brighten
 70
    12
177
     3
291
     1
 70
    58
 90
        2
176
     1
 90
        2
176
     1
 90
        1
176
     1
 90
        0
176
     1
 40
-0.6
176
     1
 40
-30.0
176
     1
 62
     7
420
 16777215
176
     1
 90
        1
176
     1
 90
        4
176
     1
 62
     7
176
     1
 62
   257
176
     1
 90
        1
176
     1
 90
        1
176
     1
 40
1.0
176
     1
 90
        8
176
     1
 62
     7
176
     1
 40
1.0
176
     1
 90
        1
176
     1
 90
        6
176
     1
 90
        2
176
     1
 62
     7
176
     1
 90
        5
176
     1
 90
        0
176
     1
 90
        0
176
     1
290
     0
176
     1
 90
        1
176
     1
 40
50.0
176
     1
 90
        0
176
     1
290
     0
176
     1
290
     1
176
     1
290
     1
176
     1
290
     0
176
     1
290
     0
176
     1
290
     0
176
     1
290
     0
176
     1
290
     0
176
     1
290
     0
176
     1
 90
       50
176
     1
 40
0.0
176
     1
 40
1.0
176
     1
 90
        0
176
     1
 62
    18
420
        0
176
     1
 90
       50
176
     1
 90
        3
176
     1
 62
     5
420
      255
176
     1
290
     0
176
     1
 90
       50
176
     1
 90
       50
176
     1
 90
       50
176
     1
290
     0
176
     1
 90
       50
176
     1
 62
   256
176
     0
 40
1.0
176
     0
 90
        2
176
     1
  1
strokes_ogs.tif
176
     1
290
     0
176
     1
 40
1.0
176
     1
 40
1.0
176
     1
  0
VISUALSTYLE
  5
A9
102
{ACAD_REACTORS
330
99
102
}
330
99
100
AcDbVisualStyle
  2
ColorChange
 70
    16
177
     3
291
     1
 70
    58
 90
        2
176
     1
 90
        2
176
     1
 90
        3
176
     1
 90
        0
176
     1
 40
-0.6
176
     1
 40
-30.0
176
     1
 62
     8
420
  8421504
176
     1
 90
        1
176
     1
 90
        4
176
     1
 62
     7
176
     1
 62
   257
176
     1
 90
        1
176
     1
 90
        1
176
     1
 40
1.0
176
     1
 90
        8
176
     1
 62
     8
420
  8421504
176
     1
 40
1.0
176
     1
 90
        1
176
     1
 90
        6
176
     1
 90
        2
176
     1
 62
     7
176
     1
 90
        5
176
     1
 90
        0
176
     1
 90
        0
176
     1
290
     0
176
     1
 90
        1
176
     1
 40
0.0
176
     1
 90
        0
176
     1
290
     0
176
     1
290
     1
176
     1
290
     1
176
     1
290
     0
176
     1
290
     0
176
     1
290
     0
176
     1
290
     0
176
     1
290
     0
176
     1
290
     0
176
     1
 90
       50
176
     1
 40
0.0
176
     1
 40
1.0
176
     1
 90
        0
176
     1
 62
    18
420
        0
176
     1
 90
       50
176
     1
 90
        3
176
     1
 62
     5
420
      255
176
     1
290
     0
176
     1
 90
       50
176
     1
 90
       50
176
     1
 90
       50
176
     1
290
     0
176
     1
 90
       50
176
     1
 62
   256
176
     0
 40
1.0
176
     0
 90
        2
176
     1
  1
strokes_ogs.tif
176
     1
290
     0
176
     1
 40
1.0
176
     1
 40
1.0
176
     1
  0
VISUALSTYLE
  5
A2
102
{ACAD_REACTORS
330
99
102
}
330
99
100
AcDbVisualStyle
  2
Conceptual
 70
     9
177
     3
291
     0
 70
    58
 90
        3
176
     1
 90
        2
176
     1
 90
        1
176
     1
 90
        0
176
     1
 40
-0.6
176
     1
 40
-30.0
176
     1
 62
     7
420
 16777215
176
     1
 90
        2
176
     1
 90
        2
176
     1
 62
     7
176
     1
 62
   257
176
     1
 90
        1
176
     1
 90
        1
176
     1
 40
40.0
176
     1
 90
        8
176
     1
 62
     7
176
     1
 40
1.0
176
     1
 90
        1
176
     1
 90
        6
176
     1
 90
        2
176
     1
 62
     7
176
     1
 90
        3
176
     1
 90
        0
176
     1
 90
        0
176
     1
290
     0
176
     1
 90
        1
176
     1
 40
0.0
176
     1
 90
        0
176
     1
290
     0
176
     1
290
     1
176
     1
290
     1
176
     1
290
     0
176
     1
290
     0
176
     1
290
     0
176
     1
290
     0
176
     1
290
     0
176
     1
290
     0
176
     1
 90
       50
176
     1
 40
0.0
176
     1
 40
1.0
176
     1
 90
        0
176
     1
 62
    18
420
        0
176
     1
 90
       50
176
     1
 90
        3
176
     1
 62
     5
420
      255
176
     1
290
     0
176
     1
 90
       50
176
     1
 90
       50
176
     1
 90
       50
176
     1
290
     0
176
     1
 90
       50
176
     1
 62
   256
176
     0
 40
1.0
176
     0
 90
        2
176
     1
  1
strokes_ogs.tif
176
     1
290
     0
176
     1
 40
1.0
176
     1
 40
1.0
176
     1
  0
VISUALSTYLE
  5
A4
102
{ACAD_REACTORS
330
99
102
}
330
99
100
AcDbVisualStyle
  2
Dim
 70
    11
177
     3
291
     1
 70
    58
 90
        2
176
     1
 90
        2
176
     1
 90
        1
176
     1
 90
        0
176
     1
 40
-0.6
176
     1
 40
-30.0
176
     1
 62
     7
420
 16777215
176
     1
 90
        1
176
     1
 90
        4
176
     1
 62
     7
176
     1
 62
   257
176
     1
 90
        1
176
     1
 90
        1
176
     1
 40
1.0
176
     1
 90
        8
176
     1
 62
     7
176
     1
 40
1.0
176
     1
 90
        1
176
     1
 90
        6
176
     1
 90
        2
176
     1
 62
     7
176
     1
 90
        5
176
     1
 90
        0
176
     1
 90
        0
176
     1
290
     0
176
     1
 90
        1
176
     1
 40
-50.0
176
     1
 90
        0
176
     1
290
     0
176
     1
290
     1
176
     1
290
     1
176
     1
290
     0
176
     1
290
     0
176
     1
290
     0
176
     1
290
     0
176
     1
290
     0
176
     1
290
     0
176
     1
 90
       50
176
     1
 40
0.0
176
     1
 40
1.0
176
     1
 90
        0
176
     1
 62
    18
420
        0
176
     1
 90
       50
176
     1
 90
        3
176
     1
 62
     5
420
      255
176
     1
290
     0
176
     1
 90
       50
176
     1
 90
       50
176
     1
 90
       50
176
     1
290
     0
176
     1
 90
       50
176
     1
 62
   256
176
     0
 40
1.0
176
     0
 90
        2
176
     1
  1
strokes_ogs.tif
176
     1
290
     0
176
     1
 40
1.0
176
     1
 40
1.0
176
     1
  0
VISUALSTYLE
  5
E7
102
{ACAD_REACTORS
330
99
102
}
330
99
100
AcDbVisualStyle
  2
EdgeColorOff
 70
    22
177
     3
291
     1
 70
    58
 90
        2
176
     0
 90
        2
176
     0
 90
        0
176
     0
 90
        0
176
     0
 40
0.6
176
     0
 40
30.0
176
     0
 62
     7
420
 16777215
176
     0
 90
        1
176
     0
 90
        4
176
     0
 62
     7
176
     0
 62
   257
176
     0
 90
        1
176
     0
 90
        1
176
     0
 40
1.0
176
     0
 90
        8
176
     2
 62
     7
176
     0
 40
1.0
176
     0
 90
        1
176
     0
 90
        6
176
     0
 90
        2
176
     0
 62
     7
176
     0
 90
        5
176
     0
 90
        0
176
     0
 90
        0
176
     0
290
     0
176
     0
 90
        1
176
     0
 40
0.0
176
     0
 90
        0
176
     0
290
     0
176
     0
290
     1
176
     0
290
     1
176
     0
290
     0
176
     0
290
     0
176
     0
290
     0
176
     0
290
     0
176
     0
290
     0
176
     0
290
     0
176
     0
 90
       50
176
     0
 40
0.0
176
     0
 40
1.0
176
     0
 90
        0
176
     0
 62
    18
420
        0
176
     0
 90
       50
176
     0
 90
        3
176
     0
 62
     5
420
      255
176
     0
290
     0
176
     0
 90
       50
176
     0
 90
       50
176
     0
 90
       50
176
     0
290
     0
176
     0
 90
       50
176
     0
 62
   256
176
     0
 40
1.0
176
     0
 90
        2
176
     0
  1
strokes_ogs.tif
176
     0
290
     0
176
     0
 40
1.0
176
     0
 40
1.0
176
     0
  0
VISUALSTYLE
  5
A8
102
{ACAD_REACTORS
330
99
102
}
330
99
100
AcDbVisualStyle
  2
Facepattern
 70
    15
177
     3
291
     1
 70
    58
 90
        2
176
     1
 90
        2
176
     1
 90
        1
176
     1
 90
        0
176
     1
 40
-0.6
176
     1
 40
-30.0
176
     1
 62
     7
420
 16777215
176
     1
 90
        1
176
     1
 90
        4
176
     1
 62
     7
176
     1
 62
   257
176
     1
 90
        1
176
     1
 90
        1
176
     1
 40
1.0
176
     1
 90
        8
176
     1
 62
     7
176
     1
 40
1.0
176
     1
 90
        1
176
     1
 90
        6
176
     1
 90
        2
176
     1
 62
     7
176
     1
 90
        5
176
     1
 90
        0
176
     1
 90
        0
176
     1
290
     0
176
     1
 90
        1
176
     1
 40
0.0
176
     1
 90
        0
176
     1
290
     0
176
     1
290
     1
176
     1
290
     1
176
     1
290
     0
176
     1
290
     0
176
     1
290
     0
176
     1
290
     0
176
     1
290
     0
176
     1
290
     0
176
     1
 90
       50
176
     1
 40
0.0
176
     1
 40
1.0
176
     1
 90
        0
176
     1
 62
    18
420
        0
176
     1
 90
       50
176
     1
 90
        3
176
     1
 62
     5
420
      255
176
     1
290
     0
176
     1
 90
       50
176
     1
 90
       50
176
     1
 90
       50
176
     1
290
     0
176
     1
 90
       50
176
     1
 62
   256
176
     0
 40
1.0
176
     0
 90
        2
176
     1
  1
strokes_ogs.tif
176
     1
290
     0
176
     1
 40
1.0
176
     1
 40
1.0
176
     1
  0
VISUALSTYLE
  5
9A
102
{ACAD_REACTORS
330
99
102
}
330
99
100
AcDbVisualStyle
  2
Flat
 70
     0
177
     3
291
     1
 70
    58
 90
        2
176
     1
 90
        1
176
     1
 90
        1
176
     1
 90
        2
176
     1
 40
-0.6
176
     1
 40
30.0
176
     1
 62
     7
420
 16777215
176
     1
 90
        0
176
     1
 90
        4
176
     1
 62
     7
176
     1
 62
   257
176
     1
 90
        1
176
     1
 90
        1
176
     1
 40
1.0
176
     1
 90
        8
176
     1
 62
     7
176
     1
 40
1.0
176
     1
 90
        1
176
     1
 90
        6
176
     1
 90
        2
176
     1
 62
     7
176
     1
 90
        5
176
     1
 90
        0
176
     1
 90
        0
176
     1
290
     0
176
     1
 90
        1
176
     1
 40
0.0
176
     1
 90
        0
176
     1
290
     0
176
     1
290
     1
176
     1
290
     1
176
     1
290
     0
176
     1
290
     0
176
     1
290
     0
176
     1
290
     0
176
     1
290
     0
176
     1
290
     0
176
     1
 90
       50
176
     1
 40
0.0
176
     1
 40
1.0
176
     1
 90
        0
176
     1
 62
    18
420
        0
176
     1
 90
       50
176
     1
 90
        3
176
     1
 62
     5
420
      255
176
     1
290
     0
176
     1
 90
       50
176
     1
 90
       50
176
     1
 90
       50
176
     1
290
     0
176
     1
 90
       50
176
     1
 62
   256
176
     0
 40
1.0
176
     0
 90
        2
176
     1
  1
strokes_ogs.tif
176
     1
290
     0
176
     1
 40
1.0
176
     1
 40
1.0
176
     1
  0
VISUALSTYLE
  5
9B
102
{ACAD_REACTORS
330
99
102
}
330
99
100
AcDbVisualStyle
  2
FlatWithEdges
 70
     1
177
     3
291
     1
 70
    58
 90
        2
176
     1
 90
        1
176
     1
 90
        1
176
     1
 90
        2
176
     1
 40
-0.6
176
     1
 40
30.0
176
     1
 62
     7
420
 16777215
176
     1
 90
        1
176
     1
 90
        4
176
     1
 62
     7
176
     1
 62
   257
176
     1
 90
        1
176
     1
 90
        1
176
     1
 40
1.0
176
     1
 90
        0
176
     1
 62
   257
176
     1
 40
1.0
176
     1
 90
        1
176
     1
 90
        6
176
     1
 90
        2
176
     1
 62
     7
176
     1
 90
        5
176
     1
 90
        0
176
     1
 90
        0
176
     1
290
     0
176
     1
 90
        1
176
     1
 40
0.0
176
     1
 90
        0
176
     1
290
     0
176
     1
290
     1
176
     1
290
     1
176
     1
290
     0
176
     1
290
     0
176
     1
290
     0
176
     1
290
     0
176
     1
290
     0
176
     1
290
     0
176
     1
 90
       50
176
     1
 40
0.0
176
     1
 40
1.0
176
     1
 90
        0
176
     1
 62
    18
420
        0
176
     1
 90
       50
176
     1
 90
        3
176
     1
 62
     5
420
      255
176
     1
290
     0
176
     1
 90
       50
176
     1
 90
       50
176
     1
 90
       50
176
     1
290
     0
176
     1
 90
       50
176
     1
 62
   256
176
     0
 40
1.0
176
     0
 90
        2
176
     1
  1
strokes_ogs.tif
176
     1
290
     0
176
     1
 40
1.0
176
     1
 40
1.0
176
     1
  0
VISUALSTYLE
  5
9C
102
{ACAD_REACTORS
330
99
102
}
330
99
100
AcDbVisualStyle
  2
Gouraud
 70
     2
177
     3
291
     1
 70
    58
 90
        2
176
     1
 90
        2
176
     1
 90
        1
176
     1
 90
        2
176
     1
 40
-0.6
176
     1
 40
30.0
176
     1
 62
     7
420
 16777215
176
     1
 90
        0
176
     1
 90
        4
176
     1
 62
     7
176
     1
 62
   257
176
     1
 90
        1
176
     1
 90
        1
176
     1
 40
1.0
176
     1
 90
        0
176
     1
 62
     7
176
     1
 40
1.0
176
     1
 90
        1
176
     1
 90
        6
176
     1
 90
        2
176
     1
 62
     7
176
     1
 90
        5
176
     1
 90
        0
176
     1
 90
        0
176
     1
290
     0
176
     1
 90
        1
176
     1
 40
0.0
176
     1
 90
        0
176
     1
290
     0
176
     1
290
     1
176
     1
290
     1
176
     1
290
     0
176
     1
290
     0
176
     1
290
     0
176
     1
290
     0
176
     1
290
     0
176
     1
290
     0
176
     1
 90
       50
176
     1
 40
0.0
176
     1
 40
1.0
176
     1
 90
        0
176
     1
 62
    18
420
        0
176
     1
 90
       50
176
     1
 90
        3
176
     1
 62
     5
420
      255
176
     1
290
     0
176
     1
 90
       50
176
     1
 90
       50
176
     1
 90
       50
176
     1
290
     0
176
     1
 90
       50
176
     1
 62
   256
176
     0
 40
1.0
176
     0
 90
        2
176
     1
  1
strokes_ogs.tif
176
     1
290
     0
176
     1
 40
1.0
176
     1
 40
1.0
176
     1
  0
VISUALSTYLE
  5
9D
102
{ACAD_REACTORS
330
99
102
}
330
99
100
AcDbVisualStyle
  2
GouraudWithEdges
 70
     3
177
     3
291
     1
 70
    58
 90
        2
176
     1
 90
        2
176
     1
 90
        1
176
     1
 90
        2
176
     1
 40
-0.6
176
     1
 40
30.0
176
     1
 62
     7
420
 16777215
176
     1
 90
        1
176
     1
 90
        4
176
     1
 62
     7
176
     1
 62
   257
176
     1
 90
        1
176
     1
 90
        1
176
     1
 40
1.0
176
     1
 90
        0
176
     1
 62
   257
176
     1
 40
1.0
176
     1
 90
        1
176
     1
 90
        6
176
     1
 90
        2
176
     1
 62
     7
176
     1
 90
        5
176
     1
 90
        0
176
     1
 90
        0
176
     1
290
     0
176
     1
 90
        1
176
     1
 40
0.0
176
     1
 90
        0
176
     1
290
     0
176
     1
290
     1
176
     1
290
     1
176
     1
290
     0
176
     1
290
     0
176
     1
290
     0
176
     1
290
     0
176
     1
290
     0
176
     1
290
     0
176
     1
 90
       50
176
     1
 40
0.0
176
     1
 40
1.0
176
     1
 90
        0
176
     1
 62
    18
420
        0
176
     1
 90
       50
176
     1
 90
        3
176
     1
 62
     5
420
      255
176
     1
290
     0
176
     1
 90
       50
176
     1
 90
       50
176
     1
 90
       50
176
     1
290
     0
176
     1
 90
       50
176
     1
 62
   256
176
     0
 40
1.0
176
     0
 90
        2
176
     1
  1
strokes_ogs.tif
176
     1
290
     0
176
     1
 40
1.0
176
     1
 40
1.0
176
     1
  0
VISUALSTYLE
  5
E4
102
{ACAD_REACTORS
330
99
102
}
330
99
100
AcDbVisualStyle
  2
Hidden
 70
     6
177
     3
291
     0
 70
    58
 90
        1
176
     1
 90
        2
176
     1
 90
        2
176
     1
 90
        0
176
     1
 40
0.6
176
     1
 40
30.0
176
     1
 62
     7
420
 16777215
176
     1
 90
        2
176
     1
 90
        2
176
     1
 62
     7
176
     1
 62
   257
176
     1
 90
        2
176
     1
 90
        1
176
     1
 40
40.0
176
     1
 90
        0
176
     1
 62
   257
176
     1
 40
1.0
176
     1
 90
        1
176
     1
 90
        6
176
     1
 90
        2
176
     1
 62
     7
176
     1
 90
        3
176
     1
 90
        0
176
     1
 90
        0
176
     1
290
     0
176
     1
 90
        1
176
     1
 40
0.0
176
     1
 90
        0
176
     1
290
     0
176
     1
290
     1
176
     1
290
     1
176
     1
290
     0
176
     1
290
     0
176
     1
290
     0
176
     1
290
     0
176
     1
290
     0
176
     1
290
     0
176
     1
 90
       50
176
     1
 40
0.0
176
     1
 40
1.0
176
     1
 90
        0
176
     1
 62
    18
420
        0
176
     1
 90
       50
176
     1
 90
        3
176
     1
 62
     5
420
      255
176
     1
290
     0
176
     1
 90
       50
176
     1
 90
       50
176
     1
 90
       50
176
     1
290
     0
176
     1
 90
       50
176
     1
 62
   256
176
     0
 40
1.0
176
     0
 90
        2
176
     1
  1
strokes_ogs.tif
176
     1
290
     0
176
     1
 40
1.0
176
     1
 40
1.0
176
     1
  0
VISUALSTYLE
  5
E5
102
{ACAD_REACTORS
330
99
102
}
330
99
100
AcDbVisualStyle
  2
JitterOff
 70
    20
177
     3
291
     1
 70
    58
 90
        2
176
     0
 90
        2
176
     0
 90
        0
176
     0
 90
        0
176
     0
 40
0.6
176
     0
 40
30.0
176
     0
 62
     7
420
 16777215
176
     0
 90
        1
176
     0
 90
        4
176
     0
 62
     7
176
     0
 62
   257
176
     0
 90
        1
176
     0
 90
        1
176
     0
 40
1.0
176
     0
 90
       10
176
     2
 62
     7
176
     0
 40
1.0
176
     0
 90
        1
176
     0
 90
        6
176
     0
 90
        2
176
     0
 62
     7
176
     0
 90
        5
176
     0
 90
        0
176
     0
 90
        0
176
     0
290
     0
176
     0
 90
        1
176
     0
 40
0.0
176
     0
 90
        0
176
     0
290
     0
176
     0
290
     1
176
     0
290
     1
176
     0
290
     0
176
     0
290
     0
176
     0
290
     0
176
     0
290
     0
176
     0
290
     0
176
     0
290
     0
176
     0
 90
       50
176
     0
 40
0.0
176
     0
 40
1.0
176
     0
 90
        0
176
     0
 62
    18
420
        0
176
     0
 90
       50
176
     0
 90
        3
176
     0
 62
     5
420
      255
176
     0
290
     0
176
     0
 90
       50
176
     0
 90
       50
176
     0
 90
       50
176
     0
290
     0
176
     0
 90
       50
176
     0
 62
   256
176
     0
 40
1.0
176
     0
 90
        2
176
     0
  1
strokes_ogs.tif
176
     0
290
     0
176
     0
 40
1.0
176
     0
 40
1.0
176
     0
  0
VISUALSTYLE
  5
A7
102
{ACAD_REACTORS
330
99
102
}
330
99
100
AcDbVisualStyle
  2
Linepattern
 70
    14
177
     3
291
     1
 70
    58
 90
        2
176
     1
 90
        2
176
     1
 90
        1
176
     1
 90
        0
176
     1
 40
-0.6
176
     1
 40
-30.0
176
     1
 62
     7
420
 16777215
176
     1
 90
        1
176
     1
 90
        4
176
     1
 62
     7
176
     1
 62
   257
176
     1
 90
        7
176
     1
 90
        7
176
     1
 40
1.0
176
     1
 90
        8
176
     1
 62
     7
176
     1
 40
1.0
176
     1
 90
        1
176
     1
 90
        6
176
     1
 90
        2
176
     1
 62
     7
176
     1
 90
        5
176
     1
 90
        0
176
     1
 90
        0
176
     1
290
     0
176
     1
 90
        1
176
     1
 40
0.0
176
     1
 90
        0
176
     1
290
     0
176
     1
290
     1
176
     1
290
     1
176
     1
290
     0
176
     1
290
     0
176
     1
290
     0
176
     1
290
     0
176
     1
290
     0
176
     1
290
     0
176
     1
 90
       50
176
     1
 40
0.0
176
     1
 40
1.0
176
     1
 90
        0
176
     1
 62
    18
420
        0
176
     1
 90
       50
176
     1
 90
        3
176
     1
 62
     5
420
      255
176
     1
290
     0
176
     1
 90
       50
176
     1
 90
       50
176
     1
 90
       50
176
     1
290
     0
176
     1
 90
       50
176
     1
 62
   256
176
     0
 40
1.0
176
     0
 90
        2
176
     1
  1
strokes_ogs.tif
176
     1
290
     0
176
     1
 40
1.0
176
     1
 40
1.0
176
     1
  0
VISUALSTYLE
  5
E6
102
{ACAD_REACTORS
330
99
102
}
330
99
100
AcDbVisualStyle
  2
OverhangOff
 70
    21
177
     3
291
     1
 70
    58
 90
        2
176
     0
 90
        2
176
     0
 90
        0
176
     0
 90
        0
176
     0
 40
0.6
176
     0
 40
30.0
176
     0
 62
     7
420
 16777215
176
     0
 90
        1
176
     0
 90
        4
176
     0
 62
     7
176
     0
 62
   257
176
     0
 90
        1
176
     0
 90
        1
176
     0
 40
1.0
176
     0
 90
        9
176
     2
 62
     7
176
     0
 40
1.0
176
     0
 90
        1
176
     0
 90
        6
176
     0
 90
        2
176
     0
 62
     7
176
     0
 90
        5
176
     0
 90
        0
176
     0
 90
        0
176
     0
290
     0
176
     0
 90
        1
176
     0
 40
0.0
176
     0
 90
        0
176
     0
290
     0
176
     0
290
     1
176
     0
290
     1
176
     0
290
     0
176
     0
290
     0
176
     0
290
     0
176
     0
290
     0
176
     0
290
     0
176
     0
290
     0
176
     0
 90
       50
176
     0
 40
0.0
176
     0
 40
1.0
176
     0
 90
        0
176
     0
 62
    18
420
        0
176
     0
 90
       50
176
     0
 90
        3
176
     0
 62
     5
420
      255
176
     0
290
     0
176
     0
 90
       50
176
     0
 90
       50
176
     0
 90
       50
176
     0
290
     0
176
     0
 90
       50
176
     0
 62
   256
176
     0
 40
1.0
176
     0
 90
        2
176
     0
  1
strokes_ogs.tif
176
     0
290
     0
176
     0
 40
1.0
176
     0
 40
1.0
176
     0
  0
VISUALSTYLE
  5
A3
102
{ACAD_REACTORS
330
99
102
}
330
99
100
AcDbVisualStyle
  2
Realistic
 70
     8
177
     3
291
     0
 70
    58
 90
        2
176
     1
 90
        2
176
     1
 90
        1
176
     1
 90
        0
176
     1
 40
-0.6
176
     1
 40
-30.0
176
     1
 62
     7
420
 16777215
176
     1
 90
        1
176
     1
 90
        0
176
     1
 62
     7
176
     1
 62
   257
176
     1
 90
        1
176
     1
 90
        1
176
     1
 40
1.0
176
     1
 90
        8
176
     1
 62
     8
420
  7895160
176
     1
 40
1.0
176
     1
 90
        1
176
     1
 90
        6
176
     1
 90
        2
176
     1
 62
     7
176
     1
 90
        5
176
     1
 90
        0
176
     1
 90
        0
176
     1
290
     0
176
     1
 90
       13
176
     1
 40
0.0
176
     1
 90
        0
176
     1
290
     0
176
     1
290
     1
176
     1
290
     1
176
     1
290
     0
176
     1
290
     0
176
     1
290
     0
176
     1
290
     0
176
     1
290
     0
176
     1
290
     0
176
     1
 90
       50
176
     1
 40
0.0
176
     1
 40
1.0
176
     1
 90
        0
176
     1
 62
    18
420
        0
176
     1
 90
       50
176
     1
 90
        3
176
     1
 62
     5
420
      255
176
     1
290
     0
176
     1
 90
       50
176
     1
 90
       50
176
     1
 90
       50
176
     1
290
     0
176
     1
 90
       50
176
     1
 62
   256
176
     0
 40
1.0
176
     0
 90
        2
176
     1
  1
strokes_ogs.tif
176
     1
290
     0
176
     1
 40
1.0
176
     1
 40
1.0
176
     1
  0
VISUALSTYLE
  5
EC
102
{ACAD_REACTORS
330
99
102
}
330
99
100
AcDbVisualStyle
  2
Shaded
 70
    27
177
     3
291
     0
 70
    58
 90
        2
176
     1
 90
        2
176
     1
 90
        1
176
     1
 90
        2
176
     1
 40
0.6
176
     1
 40
30.0
176
     1
 62
     7
420
 16777215
176
     1
 90
        0
176
     1
 90
        4
176
     1
 62
     7
176
     1
 62
   257
176
     1
 90
        1
176
     1
 90
        1
176
     1
 40
1.0
176
     1
 90
        8
176
     1
 62
   257
176
     1
 40
1.0
176
     1
 90
        1
176
     1
 90
        6
176
     1
 90
        2
176
     1
 62
     8
420
  7895160
176
     1
 90
        3
176
     1
 90
        0
176
     1
 90
        0
176
     1
290
     0
176
     1
 90
        5
176
     1
 40
0.0
176
     1
 90
        0
176
     1
290
     0
176
     1
290
     1
176
     1
290
     1
176
     1
290
     0
176
     1
290
     0
176
     1
290
     0
176
     1
290
     0
176
     1
290
     0
176
     1
290
     0
176
     1
 90
       50
176
     1
 40
0.0
176
     1
 40
1.0
176
     1
 90
        0
176
     1
 62
    18
420
        0
176
     1
 90
       50
176
     1
 90
        3
176
     1
 62
     5
420
      255
176
     1
290
     0
176
     1
 90
       50
176
     1
 90
       50
176
     1
 90
       50
176
     1
290
     0
176
     1
 90
       50
176
     1
 62
   256
176
     0
 40
1.0
176
     0
 90
        2
176
     1
  1
strokes_ogs.tif
176
     1
290
     0
176
     1
 40
1.0
176
     1
 40
1.0
176
     1
  0
VISUALSTYLE
  5
EB
102
{ACAD_REACTORS
330
99
102
}
330
99
100
AcDbVisualStyle
  2
Shaded with edges
 70
    26
177
     3
291
     0
 70
    58
 90
        2
176
     1
 90
        2
176
     1
 90
        1
176
     1
 90
        2
176
     1
 40
0.6
176
     1
 40
30.0
176
     1
 62
     7
420
 16777215
176
     1
 90
        1
176
     1
 90
       10
176
     1
 62
     7
176
     1
 62
   257
176
     1
 90
        2
176
     1
 90
        1
176
     1
 40
1.0
176
     1
 90
        8
176
     1
 62
   257
176
     1
 40
1.0
176
     1
 90
        1
176
     1
 90
        6
176
     1
 90
        2
176
     1
 62
     7
176
     1
 90
        3
176
     1
 90
        0
176
     1
 90
        0
176
     1
290
     0
176
     1
 90
        5
176
     1
 40
0.0
176
     1
 90
        0
176
     1
290
     0
176
     1
290
     1
176
     1
290
     1
176
     1
290
     0
176
     1
290
     0
176
     1
290
     0
176
     1
290
     0
176
     1
290
     0
176
     1
290
     0
176
     1
 90
       50
176
     1
 40
0.0
176
     1
 40
1.0
176
     1
 90
        0
176
     1
 62
    18
420
        0
176
     1
 90
       50
176
     1
 90
        3
176
     1
 62
     5
420
      255
176
     1
290
     0
176
     1
 90
       50
176
     1
 90
       50
176
     1
 90
       50
176
     1
290
     0
176
     1
 90
       50
176
     1
 62
   256
176
     0
 40
1.0
176
     0
 90
        2
176
     1
  1
strokes_ogs.tif
176
     1
290
     0
176
     1
 40
1.0
176
     1
 40
1.0
176
     1
  0
VISUALSTYLE
  5
E8
102
{ACAD_REACTORS
330
99
102
}
330
99
100
AcDbVisualStyle
  2
Shades of Gray
 70
    23
177
     3
291
     0
 70
    58
 90
        2
176
     1
 90
        2
176
     1
 90
        3
176
     1
 90
        0
176
     1
 40
0.6
176
     1
 40
30.0
176
     1
 62
     7
420
 16777215
176
     1
 90
        2
176
     1
 90
        2
176
     1
 62
     7
176
     1
 62
     7
176
     1
 90
        1
176
     1
 90
        1
176
     1
 40
40.0
176
     1
 90
        8
176
     1
 62
     7
176
     1
 40
1.0
176
     1
 90
        1
176
     1
 90
        6
176
     1
 90
        2
176
     1
 62
     7
176
     1
 90
        3
176
     1
 90
        0
176
     1
 90
        0
176
     1
290
     0
176
     1
 90
        1
176
     1
 40
0.0
176
     1
 90
        0
176
     1
290
     0
176
     1
290
     1
176
     1
290
     1
176
     1
290
     0
176
     1
290
     0
176
     1
290
     0
176
     1
290
     0
176
     1
290
     0
176
     1
290
     0
176
     1
 90
       50
176
     1
 40
0.0
176
     1
 40
1.0
176
     1
 90
        0
176
     1
 62
    18
420
        0
176
     1
 90
       50
176
     1
 90
        3
176
     1
 62
     5
420
      255
176
     1
290
     0
176
     1
 90
       50
176
     1
 90
       50
176
     1
 90
       50
176
     1
290
     0
176
     1
 90
       50
176
     1
 62
   256
176
     0
 40
1.0
176
     0
 90
        2
176
     1
  1
strokes_ogs.tif
176
     1
290
     0
176
     1
 40
1.0
176
     1
 40
1.0
176
     1
  0
VISUALSTYLE
  5
E9
102
{ACAD_REACTORS
330
99
102
}
330
99
100
AcDbVisualStyle
  2
Sketchy
 70
    24
177
     3
291
     0
 70
    58
 90
        1
176
     1
 90
        2
176
     1
 90
        2
176
     1
 90
        0
176
     1
 40
0.6
176
     1
 40
30.0
176
     1
 62
     7
420
 16777215
176
     1
 90
        2
176
     1
 90
        2
176
     1
 62
     7
176
     1
 62
     7
176
     1
 90
        1
176
     1
 90
        1
176
     1
 40
40.0
176
     1
 90
       11
176
     1
 62
     7
176
     1
 40
1.0
176
     1
 90
        1
176
     1
 90
        6
176
     1
 90
        2
176
     1
 62
     7
176
     1
 90
        6
176
     1
 90
        0
176
     1
 90
        0
176
     1
290
     0
176
     1
 90
        1
176
     1
 40
0.0
176
     1
 90
        0
176
     1
290
     0
176
     1
290
     1
176
     1
290
     1
176
     1
290
     0
176
     1
290
     0
176
     1
290
     0
176
     1
290
     0
176
     1
290
     0
176
     1
290
     0
176
     1
 90
       50
176
     1
 40
0.0
176
     1
 40
1.0
176
     1
 90
        0
176
     1
 62
    18
420
        0
176
     1
 90
       50
176
     1
 90
        3
176
     1
 62
     5
420
      255
176
     1
290
     0
176
     1
 90
       50
176
     1
 90
       50
176
     1
 90
       50
176
     1
290
     0
176
     1
 90
       50
176
     1
 62
   256
176
     0
 40
1.0
176
     0
 90
        2
176
     1
  1
strokes_ogs.tif
176
     1
290
     0
176
     1
 40
1.0
176
     1
 40
1.0
176
     1
  0
VISUALSTYLE
  5
A6
102
{ACAD_REACTORS
330
99
102
}
330
99
100
AcDbVisualStyle
  2
Thicken
 70
    13
177
     3
291
     1
 70
    58
 90
        2
176
     1
 90
        2
176
     1
 90
        1
176
     1
 90
        0
176
     1
 40
-0.6
176
     1
 40
-30.0
176
     1
 62
     7
420
 16777215
176
     1
 90
        1
176
     1
 90
        4
176
     1
 62
     7
176
     1
 62
   257
176
     1
 90
        1
176
     1
 90
        1
176
     1
 40
1.0
176
     1
 90
       12
176
     1
 62
     7
176
     1
 40
1.0
176
     1
 90
        1
176
     1
 90
        6
176
     1
 90
        2
176
     1
 62
     7
176
     1
 90
        5
176
     1
 90
        0
176
     1
 90
        0
176
     1
290
     0
176
     1
 90
        1
176
     1
 40
0.0
176
     1
 90
        0
176
     1
290
     0
176
     1
290
     1
176
     1
290
     1
176
     1
290
     0
176
     1
290
     0
176
     1
290
     0
176
     1
290
     0
176
     1
290
     0
176
     1
290
     0
176
     1
 90
       50
176
     1
 40
0.0
176
     1
 40
1.0
176
     1
 90
        0
176
     1
 62
    18
420
        0
176
     1
 90
       50
176
     1
 90
        3
176
     1
 62
     5
420
      255
176
     1
290
     0
176
     1
 90
       50
176
     1
 90
       50
176
     1
 90
       50
176
     1
290
     0
176
     1
 90
       50
176
     1
 62
   256
176
     0
 40
1.0
176
     0
 90
        2
176
     1
  1
strokes_ogs.tif
176
     1
290
     0
176
     1
 40
1.0
176
     1
 40
1.0
176
     1
  0
VISUALSTYLE
  5
E3
102
{ACAD_REACTORS
330
99
102
}
330
99
100
AcDbVisualStyle
  2
Wireframe
 70
     5
177
     3
291
     0
 70
    58
 90
        0
176
     1
 90
        2
176
     1
 90
        0
176
     1
 90
        0
176
     1
 40
0.6
176
     1
 40
30.0
176
     1
 62
     7
420
 16777215
176
     1
 90
        1
176
     1
 90
        4
176
     1
 62
     7
176
     1
 62
   257
176
     1
 90
        1
176
     1
 90
        1
176
     1
 40
1.0
176
     1
 90
        0
176
     1
 62
   257
176
     1
 40
1.0
176
     1
 90
        1
176
     1
 90
        6
176
     1
 90
        2
176
     1
 62
     7
176
     1
 90
        3
176
     1
 90
        0
176
     1
 90
        0
176
     1
290
     0
176
     1
 90
        1
176
     1
 40
0.0
176
     1
 90
        0
176
     1
290
     0
176
     1
290
     1
176
     1
290
     1
176
     1
290
     0
176
     1
290
     0
176
     1
290
     0
176
     1
290
     0
176
     1
290
     0
176
     1
290
     0
176
     1
 90
       50
176
     1
 40
0.0
176
     1
 40
1.0
176
     1
 90
        0
176
     1
 62
    18
420
        0
176
     1
 90
       50
176
     1
 90
        3
176
     1
 62
     5
420
      255
176
     1
290
     0
176
     1
 90
       50
176
     1
 90
       50
176
     1
 90
       50
176
     1
290
     0
176
     1
 90
       50
176
     1
 62
   256
176
     0
 40
1.0
176
     0
 90
        2
176
     1
  1
strokes_ogs.tif
176
     1
290
     0
176
     1
 40
1.0
176
     1
 40
1.0
176
     1
  0
VISUALSTYLE
  5
EA
102
{ACAD_REACTORS
330
99
102
}
330
99
100
AcDbVisualStyle
  2
X-Ray
 70
    25
177
     3
291
     0
 70
    58
 90
        2
176
     1
 90
        2
176
     1
 90
        1
176
     1
 90
        1
176
     1
 40
0.5
176
     1
 40
30.0
176
     1
 62
     7
420
 16777215
176
     1
 90
        1
176
     1
 90
        0
176
     1
 62
     7
176
     1
 62
   257
176
     1
 90
        1
176
     1
 90
        1
176
     1
 40
1.0
176
     1
 90
        8
176
     1
 62
     7
176
     1
 40
1.0
176
     1
 90
        1
176
     1
 90
        6
176
     1
 90
        2
176
     1
 62
     7
176
     1
 90
        3
176
     1
 90
        0
176
     1
 90
        0
176
     1
290
     0
176
     1
 90
       13
176
     1
 40
0.0
176
     1
 90
        0
176
     1
290
     0
176
     1
290
     1
176
     1
290
     1
176
     1
290
     0
176
     1
290
     0
176
     1
290
     0
176
     1
290
     0
176
     1
290
     0
176
     1
290
     0
176
     1
 90
       50
176
     1
 40
0.0
176
     1
 40
1.0
176
     1
 90
        0
176
     1
 62
    18
420
        0
176
     1
 90
       50
176
     1
 90
        3
176
     1
 62
     5
420
      255
176
     1
290
     0
176
     1
 90
       50
176
     1
 90
       50
176
     1
 90
       50
176
     1
290
     0
176
     1
 90
       50
176
     1
 62
   256
176
     0
 40
1.0
176
     0
 90
        2
176
     1
  1
strokes_ogs.tif
176
     1
290
     0
176
     1
 40
1.0
176
     1
 40
1.0
176
     1
  0
DICTIONARYVAR
  5
D8
102
{ACAD_REACTORS
330
66
102
}
330
66
100
DictionaryVariables
280
     0
  1
1:1
  0
DICTIONARYVAR
  5
89
102
{ACAD_REACTORS
330
66
102
}
330
66
100
DictionaryVariables
280
     0
  1
Standard
  0
DICTIONARYVAR
  5
67
102
{ACAD_REACTORS
330
66
102
}
330
66
100
DictionaryVariables
280
     0
  1
2
  0
DICTIONARYVAR
  5
6B
102
{ACAD_REACTORS
330
66
102
}
330
66
100
DictionaryVariables
280
     0
  1
1
  0
DICTIONARYVAR
  5
DF
102
{ACAD_REACTORS
330
66
102
}
330
66
100
DictionaryVariables
280
     0
  1
0
  0
DICTIONARYVAR
  5
E0
102
{ACAD_REACTORS
330
66
102
}
330
66
100
DictionaryVariables
280
     0
  1
0
  0
DICTIONARY
  5
3AE
330
87
100
AcDbDictionary
280
     1
281
     1
  3
ACAD_ROUNDTRIP_2008_TABLESTYLE_CELLSTYLEMAP
360
3AF
  0
CELLSTYLEMAP
  5
3AF
102
{ACAD_REACTORS
330
3AE
102
}
330
3AE
100
AcDbCellStyleMap
 90
        3
300
CELLSTYLE
  1
TABLEFORMAT_BEGIN
 90
        5
170
     1
 91
        0
 92
    32768
 62
   257
 93
        1
300
CONTENTFORMAT
  1
CONTENTFORMAT_BEGIN
 90
        0
 91
        0
 92
      512
 93
        0
300

 40
0.0
140
1.0
 94
        5
 62
     0
340
11
144
0.25
309
CONTENTFORMAT_END
171
     0
 94
        6
 95
        1
302
GRIDFORMAT
  1
GRIDFORMAT_BEGIN
 90
        0
 91
        1
 62
     0
 92
       -2
340
0
 93
        0
 40
0.045
309
GRIDFORMAT_END
 95
        2
302
GRIDFORMAT
  1
GRIDFORMAT_BEGIN
 90
        0
 91
        1
 62
     0
 92
       -2
340
0
 93
        0
 40
0.045
309
GRIDFORMAT_END
 95
        4
302
GRIDFORMAT
  1
GRIDFORMAT_BEGIN
 90
        0
 91
        1
 62
     0
 92
       -2
340
0
 93
        0
 40
0.045
309
GRIDFORMAT_END
 95
        8
302
GRIDFORMAT
  1
GRIDFORMAT_BEGIN
 90
        0
 91
        1
 62
     0
 92
       -2
340
0
 93
        0
 40
0.045
309
GRIDFORMAT_END
 95
       16
302
GRIDFORMAT
  1
GRIDFORMAT_BEGIN
 90
        0
 91
        1
 62
     0
 92
       -2
340
0
 93
        0
 40
0.045
309
GRIDFORMAT_END
 95
       32
302
GRIDFORMAT
  1
GRIDFORMAT_BEGIN
 90
        0
 91
        1
 62
     0
 92
       -2
340
0
 93
        0
 40
0.045
309
GRIDFORMAT_END
309
TABLEFORMAT_END
  1
CELLSTYLE_BEGIN
 90
        1
 91
        1
300
_TITLE
309
CELLSTYLE_END
300
CELLSTYLE
  1
TABLEFORMAT_BEGIN
 90
        5
170
     1
 91
        0
 92
        0
 62
   257
 93
        1
300
CONTENTFORMAT
  1
CONTENTFORMAT_BEGIN
 90
        0
 91
        0
 92
      512
 93
        0
300

 40
0.0
140
1.0
 94
        5
 62
     0
340
11
144
0.18
309
CONTENTFORMAT_END
171
     0
 94
        6
 95
        1
302
GRIDFORMAT
  1
GRIDFORMAT_BEGIN
 90
        0
 91
        1
 62
     0
 92
       -2
340
0
 93
        0
 40
0.045
309
GRIDFORMAT_END
 95
        2
302
GRIDFORMAT
  1
GRIDFORMAT_BEGIN
 90
        0
 91
        1
 62
     0
 92
       -2
340
0
 93
        0
 40
0.045
309
GRIDFORMAT_END
 95
        4
302
GRIDFORMAT
  1
GRIDFORMAT_BEGIN
 90
        0
 91
        1
 62
     0
 92
       -2
340
0
 93
        0
 40
0.045
309
GRIDFORMAT_END
 95
        8
302
GRIDFORMAT
  1
GRIDFORMAT_BEGIN
 90
        0
 91
        1
 62
     0
 92
       -2
340
0
 93
        0
 40
0.045
309
GRIDFORMAT_END
 95
       16
302
GRIDFORMAT
  1
GRIDFORMAT_BEGIN
 90
        0
 91
        1
 62
     0
 92
       -2
340
0
 93
        0
 40
0.045
309
GRIDFORMAT_END
 95
       32
302
GRIDFORMAT
  1
GRIDFORMAT_BEGIN
 90
        0
 91
        1
 62
     0
 92
       -2
340
0
 93
        0
 40
0.045
309
GRIDFORMAT_END
309
TABLEFORMAT_END
  1
CELLSTYLE_BEGIN
 90
        2
 91
        1
300
_HEADER
309
CELLSTYLE_END
300
CELLSTYLE
  1
TABLEFORMAT_BEGIN
 90
        5
170
     1
 91
        0
 92
        0
 62
   257
 93
        1
300
CONTENTFORMAT
  1
CONTENTFORMAT_BEGIN
 90
        0
 91
        0
 92
      512
 93
        0
300

 40
0.0
140
1.0
 94
        2
 62
     0
340
11
144
0.18
309
CONTENTFORMAT_END
171
     0
 94
        6
 95
        1
302
GRIDFORMAT
  1
GRIDFORMAT_BEGIN
 90
        0
 91
        1
 62
     0
 92
       -2
340
0
 93
        0
 40
0.045
309
GRIDFORMAT_END
 95
        2
302
GRIDFORMAT
  1
GRIDFORMAT_BEGIN
 90
        0
 91
        1
 62
     0
 92
       -2
340
0
 93
        0
 40
0.045
309
GRIDFORMAT_END
 95
        4
302
GRIDFORMAT
  1
GRIDFORMAT_BEGIN
 90
        0
 91
        1
 62
     0
 92
       -2
340
0
 93
        0
 40
0.045
309
GRIDFORMAT_END
 95
        8
302
GRIDFORMAT
  1
GRIDFORMAT_BEGIN
 90
        0
 91
        1
 62
     0
 92
       -2
340
0
 93
        0
 40
0.045
309
GRIDFORMAT_END
 95
       16
302
GRIDFORMAT
  1
GRIDFORMAT_BEGIN
 90
        0
 91
        1
 62
     0
 92
       -2
340
0
 93
        0
 40
0.045
309
GRIDFORMAT_END
 95
       32
302
GRIDFORMAT
  1
GRIDFORMAT_BEGIN
 90
        0
 91
        1
 62
     0
 92
       -2
340
0
 93
        0
 40
0.045
309
GRIDFORMAT_END
309
TABLEFORMAT_END
  1
CELLSTYLE_BEGIN
 90
        3
 91
        2
300
_DATA
309
CELLSTYLE_END
  0
ENDSEC
  0
EOF
