  0
SECTION
  2
HEADER
  9
$ACADVER
  1
AC1027
  9
$ACADMAINTVER
 70
     8
  9
$DWGCODEPAGE
  3
ANSI_932
  9
$REQUIREDVERSIONS
160
                 0
  9
$LASTSAVEDBY
  1
Yasu
  9
$INSBASE
 10
0.0
 20
0.0
 30
0.0
  9
$EXTMIN
 10
38.4603913980452
 20
65.79632849307369
 30
0.0
  9
$EXTMAX
 10
351.5745644736853
 20
259.8979600899488
 30
0.0
  9
$LIMMIN
 10
0.0
 20
0.0
  9
$LIMMAX
 10
420.0
 20
297.0
  9
$ORTHOMODE
 70
     0
  9
$REGENMODE
 70
     1
  9
$FILLMODE
 70
     1
  9
$QTEXTMODE
 70
     0
  9
$MIRRTEXT
 70
     0
  9
$LTSCALE
 40
0.2
  9
$ATTMODE
 70
     1
  9
$TEXTSIZE
 40
3.0
  9
$TRACEWID
 40
1.0
  9
$TEXTSTYLE
  7
Standard
  9
$CLAYER
  8
実線
  9
$CELTYPE
  6
ByLayer
  9
$CECOLOR
 62
   256
  9
$CELTSCALE
 40
1.0
  9
$DISPSILH
 70
     0
  9
$DIMSCALE
 40
1.0
  9
$DIMASZ
 40
2.5
  9
$DIMEXO
 40
2.0
  9
$DIMDLI
 40
3.75
  9
$DIMRND
 40
0.0
  9
$DIMDLE
 40
0.0
  9
$DIMEXE
 40
0.5
  9
$DIMTP
 40
0.0
  9
$DIMTM
 40
0.0
  9
$DIMTXT
 40
3.0
  9
$DIMCEN
 40
2.5
  9
$DIMTSZ
 40
0.0
  9
$DIMTOL
 70
     0
  9
$DIMLIM
 70
     0
  9
$DIMTIH
 70
     0
  9
$DIMTOH
 70
     0
  9
$DIMSE1
 70
     0
  9
$DIMSE2
 70
     0
  9
$DIMTAD
 70
     1
  9
$DIMZIN
 70
     8
  9
$DIMBLK
  1

  9
$DIMASO
 70
     1
  9
$DIMSHO
 70
     1
  9
$DIMPOST
  1

  9
$DIMAPOST
  1

  9
$DIMALT
 70
     0
  9
$DIMALTD
 70
     3
  9
$DIMALTF
 40
0.03937007874016
  9
$DIMLFAC
 40
1.0
  9
$DIMTOFL
 70
     1
  9
$DIMTVP
 40
0.0
  9
$DIMTIX
 70
     0
  9
$DIMSOXD
 70
     0
  9
$DIMSAH
 70
     0
  9
$DIMBLK1
  1

  9
$DIMBLK2
  1

  9
$DIMSTYLE
  2
ISO-25
  9
$DIMCLRD
 70
     0
  9
$DIMCLRE
 70
     0
  9
$DIMCLRT
 70
     0
  9
$DIMTFAC
 40
1.0
  9
$DIMGAP
 40
0.625
  9
$DIMJUST
 70
     0
  9
$DIMSD1
 70
     0
  9
$DIMSD2
 70
     0
  9
$DIMTOLJ
 70
     0
  9
$DIMTZIN
 70
     8
  9
$DIMALTZ
 70
     0
  9
$DIMALTTZ
 70
     0
  9
$DIMUPT
 70
     0
  9
$DIMDEC
 70
     2
  9
$DIMTDEC
 70
     2
  9
$DIMALTU
 70
     2
  9
$DIMALTTD
 70
     3
  9
$DIMTXSTY
  7
Standard
  9
$DIMAUNIT
 70
     0
  9
$DIMADEC
 70
     0
  9
$DIMALTRND
 40
0.0
  9
$DIMAZIN
 70
     0
  9
$DIMDSEP
 70
    46
  9
$DIMATFIT
 70
     3
  9
$DIMFRAC
 70
     0
  9
$DIMLDRBLK
  1

  9
$DIMLUNIT
 70
     2
  9
$DIMLWD
 70
    -2
  9
$DIMLWE
 70
    -2
  9
$DIMTMOVE
 70
     0
  9
$DIMFXL
 40
1.0
  9
$DIMFXLON
 70
     0
  9
$DIMJOGANG
 40
0.7853981633974483
  9
$DIMTFILL
 70
     0
  9
$DIMTFILLCLR
 70
     0
  9
$DIMARCSYM
 70
     0
  9
$DIMLTYPE
  6

  9
$DIMLTEX1
  6

  9
$DIMLTEX2
  6

  9
$DIMTXTDIRECTION
 70
     0
  9
$LUNITS
 70
     2
  9
$LUPREC
 70
     4
  9
$SKETCHINC
 40
1.0
  9
$FILLETRAD
 40
3.0
  9
$AUNITS
 70
     0
  9
$AUPREC
 70
     0
  9
$MENU
  1
.
  9
$ELEVATION
 40
0.0
  9
$PELEVATION
 40
0.0
  9
$THICKNESS
 40
0.0
  9
$LIMCHECK
 70
     0
  9
$CHAMFERA
 40
0.0
  9
$CHAMFERB
 40
0.0
  9
$CHAMFERC
 40
0.0
  9
$CHAMFERD
 40
0.0
  9
$SKPOLY
 70
     0
  9
$TDCREATE
 40
2452936.788310359
  9
$TDUCREATE
 40
2452936.413310359
  9
$TDUPDATE
 40
2456721.037475752
  9
$TDUUPDATE
 40
2456720.662475752
  9
$TDINDWG
 40
0.6158583912
  9
$TDUSRTIMER
 40
2456720.661970717
  9
$USRTIMER
 70
     1
  9
$ANGBASE
 50
0.0
  9
$ANGDIR
 70
     0
  9
$PDMODE
 70
     0
  9
$PDSIZE
 40
0.0
  9
$PLINEWID
 40
0.0
  9
$SPLFRAME
 70
     0
  9
$SPLINETYPE
 70
     6
  9
$SPLINESEGS
 70
     8
  9
$HANDSEED
  5
1267
  9
$SURFTAB1
 70
     6
  9
$SURFTAB2
 70
     6
  9
$SURFTYPE
 70
     6
  9
$SURFU
 70
     6
  9
$SURFV
 70
     6
  9
$UCSBASE
  2

  9
$UCSNAME
  2

  9
$UCSORG
 10
0.0
 20
0.0
 30
0.0
  9
$UCSXDIR
 10
1.0
 20
0.0
 30
0.0
  9
$UCSYDIR
 10
0.0
 20
1.0
 30
0.0
  9
$UCSORTHOREF
  2

  9
$UCSORTHOVIEW
 70
     0
  9
$UCSORGTOP
 10
0.0
 20
0.0
 30
0.0
  9
$UCSORGBOTTOM
 10
0.0
 20
0.0
 30
0.0
  9
$UCSORGLEFT
 10
0.0
 20
0.0
 30
0.0
  9
$UCSORGRIGHT
 10
0.0
 20
0.0
 30
0.0
  9
$UCSORGFRONT
 10
0.0
 20
0.0
 30
0.0
  9
$UCSORGBACK
 10
0.0
 20
0.0
 30
0.0
  9
$PUCSBASE
  2

  9
$PUCSNAME
  2

  9
$PUCSORG
 10
0.0
 20
0.0
 30
0.0
  9
$PUCSXDIR
 10
1.0
 20
0.0
 30
0.0
  9
$PUCSYDIR
 10
0.0
 20
1.0
 30
0.0
  9
$PUCSORTHOREF
  2

  9
$PUCSORTHOVIEW
 70
     0
  9
$PUCSORGTOP
 10
0.0
 20
0.0
 30
0.0
  9
$PUCSORGBOTTOM
 10
0.0
 20
0.0
 30
0.0
  9
$PUCSORGLEFT
 10
0.0
 20
0.0
 30
0.0
  9
$PUCSORGRIGHT
 10
0.0
 20
0.0
 30
0.0
  9
$PUCSORGFRONT
 10
0.0
 20
0.0
 30
0.0
  9
$PUCSORGBACK
 10
0.0
 20
0.0
 30
0.0
  9
$USERI1
 70
     0
  9
$USERI2
 70
     0
  9
$USERI3
 70
     0
  9
$USERI4
 70
     0
  9
$USERI5
 70
     0
  9
$USERR1
 40
0.0
  9
$USERR2
 40
0.0
  9
$USERR3
 40
0.0
  9
$USERR4
 40
0.0
  9
$USERR5
 40
0.0
  9
$WORLDVIEW
 70
     1
  9
$SHADEDGE
 70
     3
  9
$SHADEDIF
 70
    70
  9
$TILEMODE
 70
     1
  9
$MAXACTVP
 70
    64
  9
$PINSBASE
 10
0.0
 20
0.0
 30
0.0
  9
$PLIMCHECK
 70
     0
  9
$PEXTMIN
 10
0.0
 20
0.0
 30
0.0
  9
$PEXTMAX
 10
0.0
 20
0.0
 30
0.0
  9
$PLIMMIN
 10
-6.35
 20
-6.35
  9
$PLIMMAX
 10
413.8083333333333
 20
290.6888888888888
  9
$UNITMODE
 70
     0
  9
$VISRETAIN
 70
     1
  9
$PLINEGEN
 70
     0
  9
$PSLTSCALE
 70
     1
  9
$TREEDEPTH
 70
  3020
  9
$CMLSTYLE
  2
Standard
  9
$CMLJUST
 70
     0
  9
$CMLSCALE
 40
20.0
  9
$PROXYGRAPHICS
 70
     1
  9
$MEASUREMENT
 70
     1
  9
$CELWEIGHT
370
    -1
  9
$ENDCAPS
280
     0
  9
$JOINSTYLE
280
     0
  9
$LWDISPLAY
290
     0
  9
$INSUNITS
 70
     4
  9
$HYPERLINKBASE
  1

  9
$STYLESHEET
  1

  9
$XEDIT
290
     1
  9
$CEPSNTYPE
380
     0
  9
$PSTYLEMODE
290
     1
  9
$FINGERPRINTGUID
  2
{86E58535-AB5B-4AFE-AB1B-6758AAB7EA7D}
  9
$VERSIONGUID
  2
{4FF373DF-5194-4466-B348-8397560C4F3B}
  9
$EXTNAMES
290
     1
  9
$PSVPSCALE
 40
0.0
  9
$OLESTARTUP
290
     0
  9
$SORTENTS
280
   127
  9
$INDEXCTL
280
     0
  9
$HIDETEXT
280
     1
  9
$XCLIPFRAME
280
     2
  9
$HALOGAP
280
     0
  9
$OBSCOLOR
 70
   257
  9
$OBSLTYPE
280
     0
  9
$INTERSECTIONDISPLAY
280
     0
  9
$INTERSECTIONCOLOR
 70
   257
  9
$DIMASSOC
280
     2
  9
$PROJECTNAME
  1

  9
$CAMERADISPLAY
290
     0
  9
$LENSLENGTH
 40
50.0
  9
$CAMERAHEIGHT
 40
0.0
  9
$STEPSPERSEC
 40
2.0
  9
$STEPSIZE
 40
6.0
  9
$3DDWFPREC
 40
2.0
  9
$PSOLWIDTH
 40
0.25
  9
$PSOLHEIGHT
 40
4.0
  9
$LOFTANG1
 40
1.570796326794897
  9
$LOFTANG2
 40
1.570796326794897
  9
$LOFTMAG1
 40
0.0
  9
$LOFTMAG2
 40
0.0
  9
$LOFTPARAM
 70
     7
  9
$LOFTNORMALS
280
     1
  9
$LATITUDE
 40
37.795
  9
$LONGITUDE
 40
-122.394
  9
$NORTHDIRECTION
 40
0.0
  9
$TIMEZONE
 70
 -8000
  9
$LIGHTGLYPHDISPLAY
280
     1
  9
$TILEMODELIGHTSYNCH
280
     1
  9
$SOLIDHIST
280
     1
  9
$SHOWHIST
280
     1
  9
$DWFFRAME
280
     2
  9
$DGNFRAME
280
     2
  9
$REALWORLDSCALE
290
     1
  9
$INTERFERECOLOR
 62
   256
  9
$CSHADOW
280
     0
  9
$SHADOWPLANELOCATION
 40
0.0
  0
ENDSEC
  0
SECTION
  2
CLASSES
  0
CLASS
  1
ACDBDICTIONARYWDFLT
  2
AcDbDictionaryWithDefault
  3
ObjectDBX Classes
 90
        0
 91
        7
280
     0
281
     0
  0
CLASS
  1
DIMASSOC
  2
AcDbDimAssoc
  3
"AcDbDimAssoc|Product Desc:     AcDim ARX App For Dimension|Company:          Autodesk, Inc.|WEB Address:      www.autodesk.com"
 90
        0
 91
        5
280
     0
281
     0
  0
CLASS
  1
DICTIONARYVAR
  2
AcDbDictionaryVar
  3
ObjectDBX Classes
 90
        0
 91
        5
280
     0
281
     0
  0
CLASS
  1
ACDBPLACEHOLDER
  2
AcDbPlaceHolder
  3
ObjectDBX Classes
 90
        0
 91
        1
280
     0
281
     0
  0
CLASS
  1
LAYOUT
  2
AcDbLayout
  3
ObjectDBX Classes
 90
        0
 91
        1
280
     0
281
     0
  0
CLASS
  1
VISUALSTYLE
  2
AcDbVisualStyle
  3
ObjectDBX Classes
 90
     4095
 91
        7
280
     0
281
     0
  0
CLASS
  1
SCALE
  2
AcDbScale
  3
ObjectDBX Classes
 90
     1153
 91
        7
280
     0
281
     0
  0
CLASS
  1
MATERIAL
  2
AcDbMaterial
  3
ObjectDBX Classes
 90
     1153
 91
        7
280
     0
281
     0
  0
CLASS
  1
TABLESTYLE
  2
AcDbTableStyle
  3
ObjectDBX Classes
 90
     4095
 91
        7
280
     0
281
     0
  0
CLASS
  1
SUN
  2
AcDbSun
  3
SCENEOE
 90
     1153
 91
        7
280
     0
281
     0
  0
CLASS
  1
RASTERVARIABLES
  2
AcDbRasterVariables
  3
ISM
 90
        0
 91
        7
280
     0
281
     0
  0
CLASS
  1
CELLSTYLEMAP
  2
AcDbCellStyleMap
  3
ObjectDBX Classes
 90
     1152
 91
        5
280
     0
281
     0
  0
ENDSEC
  0
SECTION
  2
TABLES
  0
TABLE
  2
VPORT
  5
8
330
0
100
AcDbSymbolTable
 70
     1
  0
VPORT
  5
11D5
330
8
100
AcDbSymbolTableRecord
100
AcDbViewportTableRecord
  2
*Active
 70
     0
 10
0.0
 20
0.0
 11
1.0
 21
1.0
 12
195.0174779358652
 22
162.8471442915112
 13
0.0
 23
0.0
 14
10.0
 24
10.0
 15
10.0
 25
10.0
 16
0.0
 26
0.0
 36
1.0
 17
0.0
 27
0.0
 37
0.0
 40
197.9836642288126
 41
1.762376237623762
 42
50.0
 43
0.0
 44
0.0
 50
0.0
 51
0.0
 71
    16
 72
  1000
 73
     1
 74
     3
 75
     0
 76
     0
 77
     0
 78
     0
281
     0
 65
     1
110
0.0
120
0.0
130
0.0
111
1.0
121
0.0
131
0.0
112
0.0
122
1.0
132
0.0
 79
     0
146
0.0
348
11E8
 60
     3
 61
     5
292
     1
282
     1
141
0.0
142
0.0
 63
   256
361
122D
  0
ENDTAB
  0
TABLE
  2
LTYPE
  5
5
330
0
100
AcDbSymbolTable
 70
     6
  0
LTYPE
  5
14
330
5
100
AcDbSymbolTableRecord
100
AcDbLinetypeTableRecord
  2
ByBlock
 70
     0
  3

 72
    65
 73
     0
 40
0.0
  0
LTYPE
  5
15
330
5
100
AcDbSymbolTableRecord
100
AcDbLinetypeTableRecord
  2
ByLayer
 70
     0
  3

 72
    65
 73
     0
 40
0.0
  0
LTYPE
  5
16
330
5
100
AcDbSymbolTableRecord
100
AcDbLinetypeTableRecord
  2
Continuous
 70
     0
  3
Solid line
 72
    65
 73
     0
 40
0.0
  0
LTYPE
  5
35
330
5
100
AcDbSymbolTableRecord
100
AcDbLinetypeTableRecord
  2
ACAD_ISO08W100
 70
     0
  3
ISO long-dash short-dash ____ __ ____ __ ____ _
 72
    65
 73
     4
 40
36.0
 49
24.0
 74
     0
 49
-3.0
 74
     0
 49
6.0
 74
     0
 49
-3.0
 74
     0
  0
LTYPE
  5
127
330
5
100
AcDbSymbolTableRecord
100
AcDbLinetypeTableRecord
  2
HIDDENX2
 70
     0
  3
Hidden (2x) ____ ____ ____ ____ ____ ____ ____
 72
    65
 73
     2
 40
19.05
 49
12.7
 74
     0
 49
-6.35
 74
     0
  0
LTYPE
  5
5EC
330
5
100
AcDbSymbolTableRecord
100
AcDbLinetypeTableRecord
  2
CENTER
 70
     0
  3
Center ____ _ ____ _ ____ _ ____ _ ____ _ ____
 72
    65
 73
     4
 40
50.8
 49
31.75
 74
     0
 49
-6.35
 74
     0
 49
6.35
 74
     0
 49
-6.35
 74
     0
  0
LTYPE
  5
5ED
330
5
100
AcDbSymbolTableRecord
100
AcDbLinetypeTableRecord
  2
ACAD_ISO02W100
 70
     0
  3
ISO dash __ __ __ __ __ __ __ __ __ __ __ __ __
 72
    65
 73
     2
 40
15.0
 49
12.0
 74
     0
 49
-3.0
 74
     0
  0
LTYPE
  5
605
330
5
100
AcDbSymbolTableRecord
100
AcDbLinetypeTableRecord
  2
DASHED
 70
     0
  3
Dashed __ __ __ __ __ __ __ __ __ __ __ __ __ _
 72
    65
 73
     2
 40
19.05
 49
12.7
 74
     0
 49
-6.35
 74
     0
  0
ENDTAB
  0
TABLE
  2
LAYER
  5
2
102
{ACAD_XDICTIONARY
360
F5E
102
}
330
0
100
AcDbSymbolTable
 70
    11
  0
LAYER
  5
10
330
2
100
AcDbSymbolTableRecord
100
AcDbLayerTableRecord
  2
0
 70
     0
 62
     7
  6
Continuous
370
    -3
390
F
347
1220
348
0
  0
LAYER
  5
2E
330
2
100
AcDbSymbolTableRecord
100
AcDbLayerTableRecord
  2
枠
 70
     0
 62
     1
  6
Continuous
370
    30
390
F
347
1220
348
0
  0
LAYER
  5
2F
330
2
100
AcDbSymbolTableRecord
100
AcDbLayerTableRecord
  2
文字
 70
     0
 62
     7
  6
Continuous
370
    25
390
F
347
1220
348
0
  0
LAYER
  5
36
330
2
100
AcDbSymbolTableRecord
100
AcDbLayerTableRecord
  2
中心線
 70
     0
 62
     7
  6
CENTER
370
    15
390
F
347
1220
348
0
  0
LAYER
  5
52
330
2
100
AcDbSymbolTableRecord
100
AcDbLayerTableRecord
  2
隠れ線
 70
     0
 62
     2
  6
Continuous
290
     0
370
    -3
390
F
347
1220
348
0
  0
LAYER
  5
128
330
2
100
AcDbSymbolTableRecord
100
AcDbLayerTableRecord
  2
実線
 70
     0
 62
     7
  6
Continuous
370
    25
390
F
347
1220
348
0
  0
LAYER
  5
129
330
2
100
AcDbSymbolTableRecord
100
AcDbLayerTableRecord
  2
破線
 70
     0
 62
     7
  6
DASHED
370
    15
390
F
347
1220
348
0
  0
LAYER
  5
778
330
2
100
AcDbSymbolTableRecord
100
AcDbLayerTableRecord
  2
Defpoints
 70
     0
 62
     7
  6
Continuous
290
     0
370
    -3
390
F
347
1220
348
0
  0
LAYER
  5
F64
330
2
100
AcDbSymbolTableRecord
100
AcDbLayerTableRecord
  2
GR1-1
 70
     0
 62
     3
  6
Continuous
370
    -3
390
F
347
1220
348
0
  0
LAYER
  5
F65
330
2
100
AcDbSymbolTableRecord
100
AcDbLayerTableRecord
  2
細線
 70
     0
 62
     7
  6
Continuous
370
     9
390
F
347
1220
348
0
  0
LAYER
  5
F66
330
2
100
AcDbSymbolTableRecord
100
AcDbLayerTableRecord
  2
文字・寸法線
 70
     0
 62
     7
  6
Continuous
370
    13
390
F
347
1220
348
0
  0
ENDTAB
  0
TABLE
  2
STYLE
  5
3
330
0
100
AcDbSymbolTable
 70
     2
  0
STYLE
  5
11
330
3
100
AcDbSymbolTableRecord
100
AcDbTextStyleTableRecord
  2
Standard
 70
     0
 40
0.0
 41
1.0
 50
0.0
 71
     0
 42
3.0
  3
txt.shx
  4
bigfont.shx
  0
STYLE
  5
34
330
3
100
AcDbSymbolTableRecord
100
AcDbTextStyleTableRecord
  2

 70
     1
 40
0.0
 41
1.0
 50
0.0
 71
     0
 42
2.5
  3
ltypeshp.shx
  4

  0
ENDTAB
  0
TABLE
  2
VIEW
  5
6
330
0
100
AcDbSymbolTable
 70
     0
  0
ENDTAB
  0
TABLE
  2
UCS
  5
7
330
0
100
AcDbSymbolTable
 70
     0
  0
ENDTAB
  0
TABLE
  2
APPID
  5
9
330
0
100
AcDbSymbolTable
 70
     1
  0
APPID
  5
12
330
9
100
AcDbSymbolTableRecord
100
AcDbRegAppTableRecord
  2
ACAD
 70
     0
  0
ENDTAB
  0
TABLE
  2
DIMSTYLE
  5
A
330
0
100
AcDbSymbolTable
 70
     1
100
AcDbDimStyleTable
  0
DIMSTYLE
105
29
102
{ACAD_REACTORS
330
D0E
330
D11
330
D14
330
D18
330
D1B
330
D22
330
D25
330
D28
330
D3F
330
D42
330
D49
330
D4D
330
EF2
102
}
330
A
100
AcDbSymbolTableRecord
100
AcDbDimStyleTableRecord
  2
ISO-25
 70
     0
 41
2.5
 42
2.0
 43
3.75
 44
0.5
 73
     0
 74
     0
 77
     1
 78
     8
140
3.0
141
2.5
143
0.03937007874016
147
0.625
171
     3
172
     1
178
     0
271
     2
272
     2
274
     3
283
     0
284
     8
340
11
  0
ENDTAB
  0
TABLE
  2
BLOCK_RECORD
  5
1
330
0
100
AcDbSymbolTable
 70
    15
  0
BLOCK_RECORD
  5
21
330
1
100
AcDbSymbolTableRecord
100
AcDbBlockTableRecord
  2
*Model_Space
340
24
 70
     0
280
     1
281
     0
  0
BLOCK_RECORD
  5
1226
330
1
100
AcDbSymbolTableRecord
100
AcDbBlockTableRecord
  2
*Paper_Space
340
1227
 70
     0
280
     1
281
     0
  0
BLOCK_RECORD
  5
670
330
1
100
AcDbSymbolTableRecord
100
AcDbBlockTableRecord
  2
図面枠A-4無字dwg
340
0
 70
     4
280
     1
281
     0
1001
ACAD
1000
DesignCenter Data
1002
{
1070
     1
1070
     4
1002
}
  0
BLOCK_RECORD
  5
D59
330
1
100
AcDbSymbolTableRecord
100
AcDbBlockTableRecord
  2
*D1
340
0
 70
     0
280
     1
281
     0
  0
BLOCK_RECORD
  5
D67
330
1
100
AcDbSymbolTableRecord
100
AcDbBlockTableRecord
  2
*D2
340
0
 70
     0
280
     1
281
     0
  0
BLOCK_RECORD
  5
D73
330
1
100
AcDbSymbolTableRecord
100
AcDbBlockTableRecord
  2
*D3
340
0
 70
     0
280
     1
281
     0
  0
BLOCK_RECORD
  5
D7F
330
1
100
AcDbSymbolTableRecord
100
AcDbBlockTableRecord
  2
*D4
340
0
 70
     0
280
     1
281
     0
  0
BLOCK_RECORD
  5
D8B
330
1
100
AcDbSymbolTableRecord
100
AcDbBlockTableRecord
  2
*D5
340
0
 70
     0
280
     1
281
     0
  0
BLOCK_RECORD
  5
D97
330
1
100
AcDbSymbolTableRecord
100
AcDbBlockTableRecord
  2
*D6
340
0
 70
     0
280
     1
281
     0
  0
BLOCK_RECORD
  5
DA3
330
1
100
AcDbSymbolTableRecord
100
AcDbBlockTableRecord
  2
*D7
340
0
 70
     0
280
     1
281
     0
  0
BLOCK_RECORD
  5
DB1
330
1
100
AcDbSymbolTableRecord
100
AcDbBlockTableRecord
  2
*D8
340
0
 70
     0
280
     1
281
     0
  0
BLOCK_RECORD
  5
DBD
330
1
100
AcDbSymbolTableRecord
100
AcDbBlockTableRecord
  2
*D9
340
0
 70
     0
280
     1
281
     0
  0
BLOCK_RECORD
  5
DC9
330
1
100
AcDbSymbolTableRecord
100
AcDbBlockTableRecord
  2
*D10
340
0
 70
     0
280
     1
281
     0
  0
BLOCK_RECORD
  5
DD5
330
1
100
AcDbSymbolTableRecord
100
AcDbBlockTableRecord
  2
*D11
340
0
 70
     0
280
     1
281
     0
  0
BLOCK_RECORD
  5
DE1
330
1
100
AcDbSymbolTableRecord
100
AcDbBlockTableRecord
  2
*D12
340
0
 70
     0
280
     1
281
     0
  0
BLOCK_RECORD
  5
F68
330
1
100
AcDbSymbolTableRecord
100
AcDbBlockTableRecord
  2
*D13
340
0
 70
     0
280
     1
281
     0
  0
ENDTAB
  0
ENDSEC
  0
SECTION
  2
BLOCKS
  0
BLOCK
  5
22
330
21
100
AcDbEntity
  8
0
100
AcDbBlockBegin
  2
*Model_Space
 70
     0
 10
0.0
 20
0.0
 30
0.0
  3
*Model_Space
  1
*Model_Space
  0
ENDBLK
  5
23
330
21
100
AcDbEntity
  8
0
100
AcDbBlockEnd
  0
BLOCK
  5
1228
330
1226
100
AcDbEntity
 67
     1
  8
0
100
AcDbBlockBegin
  2
*Paper_Space
 70
     0
 10
0.0
 20
0.0
 30
0.0
  3
*Paper_Space
  1
*Paper_Space
  0
ENDBLK
  5
1229
330
1226
100
AcDbEntity
 67
     1
  8
0
100
AcDbBlockEnd
  0
BLOCK
  5
69D
330
670
100
AcDbEntity
  8
0
370
    30
100
AcDbBlockBegin
  2
図面枠A-4無字dwg
 70
     0
 10
0.0
 20
0.0
 30
0.0
  3
図面枠A-4無字dwg
  1
図面枠A-4無字dwg
  0
LINE
  5
671
330
670
100
AcDbEntity
  8
枠
100
AcDbLine
 10
10.0
 20
10.0
 30
0.0
 11
287.0
 21
10.0
 31
0.0
  0
LINE
  5
672
330
670
100
AcDbEntity
  8
枠
100
AcDbLine
 10
287.0
 20
10.0
 30
0.0
 11
287.0
 21
200.0
 31
0.0
  0
LINE
  5
673
330
670
100
AcDbEntity
  8
枠
100
AcDbLine
 10
237.5
 20
10.0
 30
0.0
 11
237.5
 21
33.10000000000001
 31
0.0
  0
LINE
  5
674
330
670
100
AcDbEntity
  8
枠
100
AcDbLine
 10
212.2
 20
10.0
 30
0.0
 11
212.2
 21
52.90000000000001
 31
0.0
  0
LINE
  5
675
330
670
100
AcDbEntity
  8
枠
100
AcDbLine
 10
138.5
 20
10.0
 30
0.0
 11
138.5
 21
52.90000000000001
 31
0.0
  0
LINE
  5
676
330
670
100
AcDbEntity
  8
枠
100
AcDbLine
 10
138.5
 20
18.8
 30
0.0
 11
287.0
 21
18.8
 31
0.0
  0
LINE
  5
677
330
670
100
AcDbEntity
  8
枠
100
AcDbLine
 10
138.5
 20
25.40000000000001
 30
0.0
 11
287.0
 21
25.40000000000001
 31
0.0
  0
LINE
  5
678
330
670
100
AcDbEntity
  8
枠
100
AcDbLine
 10
138.5
 20
39.7
 30
0.0
 11
287.0
 21
39.7
 31
0.0
  0
LINE
  5
679
330
670
100
AcDbEntity
  8
枠
100
AcDbLine
 10
138.5
 20
40.8
 30
0.0
 11
212.1999999999999
 21
40.8
 31
0.0
  0
LINE
  5
67A
330
670
100
AcDbEntity
  8
枠
100
AcDbLine
 10
138.5
 20
46.3
 30
0.0
 11
287.0
 21
46.3
 31
0.0
  0
LINE
  5
67B
330
670
100
AcDbEntity
  8
枠
100
AcDbLine
 10
138.5
 20
52.90000000000001
 30
0.0
 11
287.0
 21
52.90000000000001
 31
0.0
  0
LINE
  5
67C
330
670
100
AcDbEntity
  8
枠
100
AcDbLine
 10
163.25
 20
18.8
 30
0.0
 11
163.25
 21
39.7
 31
0.0
  0
LINE
  5
67D
330
670
100
AcDbEntity
  8
枠
100
AcDbLine
 10
188.0
 20
25.40000000000001
 30
0.0
 11
188.0
 21
39.7
 31
0.0
  0
LINE
  5
67E
330
670
100
AcDbEntity
  8
枠
100
AcDbLine
 10
188.0
 20
40.8
 30
0.0
 11
188.0
 21
46.3
 31
0.0
  0
LINE
  5
67F
330
670
100
AcDbEntity
  8
枠
100
AcDbLine
 10
163.25
 20
40.8
 30
0.0
 11
163.25
 21
52.90000000000001
 31
0.0
  0
LINE
  5
680
330
670
100
AcDbEntity
  8
枠
100
AcDbLine
 10
212.1999999999999
 20
32.0
 30
0.0
 11
287.0
 21
32.0
 31
0.0
  0
LINE
  5
681
330
670
100
AcDbEntity
  8
枠
100
AcDbLine
 10
212.1999999999999
 20
33.1
 30
0.0
 11
287.0
 21
33.1
 31
0.0
  0
LINE
  5
682
330
670
100
AcDbEntity
  8
枠
100
AcDbLine
 10
237.5
 20
39.7
 30
0.0
 11
237.5
 21
52.90000000000001
 31
0.0
  0
LINE
  5
683
330
670
100
AcDbEntity
  8
枠
100
AcDbLine
 10
262.8
 20
18.8
 30
0.0
 11
262.8
 21
39.7
 31
0.0
  0
MTEXT
  5
684
330
670
100
AcDbEntity
  8
枠
100
AcDbMText
 10
145.8717013484776
 20
50.9248171540208
 30
0.0
 40
2.75
 41
24.75
 46
0.0
 71
     1
 72
     5
  1
品　名
 73
     1
 44
1.0
  0
MTEXT
  5
685
330
670
100
AcDbEntity
  8
枠
100
AcDbMText
 10
219.5717013484775
 20
50.9248171540208
 30
0.0
 40
2.75
 41
24.75
 46
0.0
 71
     1
 72
     5
  1
品　番
 73
     1
 44
1.0
  0
MTEXT
  5
686
330
670
100
AcDbEntity
  8
枠
100
AcDbMText
 10
219.5717013484775
 20
44.3248171540208
 30
0.0
 40
2.75
 41
24.75
 46
0.0
 71
     1
 72
     5
  1
サイズ
 73
     1
 44
1.0
  0
MTEXT
  5
687
330
670
100
AcDbEntity
  8
枠
100
AcDbMText
 10
145.9529263402256
 20
44.77900427738543
 30
0.0
 40
2.75
 41
13.71479298395914
 46
0.0
 71
     1
 72
     5
  1
承　認
 73
     1
 44
1.0
  0
MTEXT
  5
688
330
670
100
AcDbEntity
  8
枠
100
AcDbMText
 10
170.7029263402256
 20
44.77900427738543
 30
0.0
 40
2.75
 41
13.71479298395914
 46
0.0
 71
     1
 72
     5
  1
検　図
 73
     1
 44
1.0
  0
MTEXT
  5
689
330
670
100
AcDbEntity
  8
枠
100
AcDbMText
 10
195.4529263402256
 20
44.77900427738543
 30
0.0
 40
2.75
 41
13.71479298395914
 46
0.0
 71
     1
 72
     5
  1
製　図
 73
     1
 44
1.0
  0
MTEXT
  5
68A
330
670
100
AcDbEntity
  8
枠
100
AcDbMText
 10
145.8717013484776
 20
23.4248171540208
 30
0.0
 40
2.75
 41
24.75
 46
0.0
 71
     1
 72
     5
  1
日　付
 73
     1
 44
1.0
  0
MTEXT
  5
68B
330
670
100
AcDbEntity
  8
枠
100
AcDbMText
 10
219.0357544350354
 20
14.66833848936324
 30
0.0
 40
2.75
 41
24.75
 46
0.0
 71
     1
 72
     5
  1
製品単重
 73
     1
 44
1.0
  0
MTEXT
  5
68C
330
670
100
AcDbEntity
  8
枠
100
AcDbMText
 10
232.9746224249311
 20
37.57180438935425
 30
0.0
 40
2.75
 41
12.98637275453505
 46
0.0
 71
     1
 72
     5
  1
材　質
 73
     1
 44
1.0
  0
MTEXT
  5
68D
330
670
100
AcDbEntity
  8
枠
100
AcDbMText
 10
266.9686959403862
 20
37.69587339271826
 30
0.0
 40
2.75
 41
19.22203116086617
 46
0.0
 71
     1
 72
     5
  1
表面処理
 73
     1
 44
1.0
  0
MTEXT
  5
68E
330
670
100
AcDbEntity
  8
枠
100
AcDbMText
 10
147.2890405381478
 20
15.17428611351522
 30
0.0
 40
3.3
 41
172.2729598878279
 46
0.0
 71
     1
 72
     5
  1
サン・ファスナー部品株式会社
 73
     1
 44
1.0
  0
LINE
  5
68F
330
670
100
AcDbEntity
  8
枠
100
AcDbLine
 10
10.0
 20
10.0
 30
0.0
 11
10.0
 21
200.0
 31
0.0
  0
LINE
  5
690
330
670
100
AcDbEntity
  8
枠
100
AcDbLine
 10
10.0
 20
200.0
 30
0.0
 11
287.0
 21
200.0
 31
0.0
  0
LINE
  5
691
330
670
100
AcDbEntity
  8
枠
100
AcDbLine
 10
10.0
 20
210.0
 30
0.0
 11
287.0
 21
210.0
 31
0.0
  0
LINE
  5
692
330
670
100
AcDbEntity
  8
枠
100
AcDbLine
 10
297.0
 20
10.0
 30
0.0
 11
297.0
 21
200.0
 31
0.0
  0
LINE
  5
693
330
670
100
AcDbEntity
  8
枠
100
AcDbLine
 10
10.0
 20
0.0
 30
0.0
 11
287.0
 21
0.0
 31
0.0
  0
LINE
  5
694
330
670
100
AcDbEntity
  8
枠
100
AcDbLine
 10
0.0
 20
10.0
 30
0.0
 11
0.0
 21
200.0
 31
0.0
  0
LINE
  5
695
330
670
100
AcDbEntity
  8
枠
370
    30
100
AcDbLine
 10
0.0
 20
200.0
 30
0.0
 11
0.0
 21
210.0
 31
0.0
  0
LINE
  5
696
330
670
100
AcDbEntity
  8
枠
370
    30
100
AcDbLine
 10
10.0
 20
210.0
 30
0.0
 11
0.0
 21
210.0
 31
0.0
  0
LINE
  5
697
330
670
100
AcDbEntity
  8
枠
370
    30
100
AcDbLine
 10
287.0
 20
210.0
 30
0.0
 11
297.0000000000001
 21
210.0
 31
0.0
  0
LINE
  5
698
330
670
100
AcDbEntity
  8
枠
370
    30
100
AcDbLine
 10
297.0
 20
200.0
 30
0.0
 11
297.0000000000001
 21
210.0
 31
0.0
  0
LINE
  5
699
330
670
100
AcDbEntity
  8
枠
370
    30
100
AcDbLine
 10
297.0
 20
10.0
 30
0.0
 11
297.0
 21
0.0
 31
0.0
  0
LINE
  5
69A
330
670
100
AcDbEntity
  8
枠
370
    30
100
AcDbLine
 10
287.0
 20
0.0
 30
0.0
 11
297.0
 21
0.0
 31
0.0
  0
LINE
  5
69B
330
670
100
AcDbEntity
  8
枠
370
    30
100
AcDbLine
 10
10.0
 20
0.0
 30
0.0
 11
0.0
 21
0.0
 31
0.0
  0
LINE
  5
69C
330
670
100
AcDbEntity
  8
枠
370
    30
100
AcDbLine
 10
0.0
 20
10.0
 30
0.0
 11
0.0
 21
0.0
 31
0.0
  0
ENDBLK
  5
69E
330
670
100
AcDbEntity
  8
0
370
    30
100
AcDbBlockEnd
  0
BLOCK
  5
D65
330
D59
100
AcDbEntity
  8
0
370
    15
100
AcDbBlockBegin
  2
*D1
 70
     1
 10
0.0
 20
0.0
 30
0.0
  3
*D1
  1
*D1
  0
LINE
  5
1096
330
D59
100
AcDbEntity
  8
文字・寸法線
 62
     0
370
    -2
100
AcDbLine
 10
149.1511089363856
 20
108.6315439579649
 30
0.0
 11
180.4138733187706
 21
108.6315439579649
 31
0.0
  0
LINE
  5
1097
330
D59
100
AcDbEntity
  8
文字・寸法線
 62
     0
370
    -2
100
AcDbLine
 10
149.2842224115741
 20
116.6315439579649
 30
0.0
 11
180.4138733187706
 21
116.6315439579649
 31
0.0
  0
LINE
  5
1098
330
D59
100
AcDbEntity
  8
文字・寸法線
 62
     0
370
    -2
100
AcDbLine
 10
179.9138733187706
 20
111.1315439579649
 30
0.0
 11
179.9138733187706
 21
114.1315439579649
 31
0.0
  0
SOLID
  5
1099
330
D59
100
AcDbEntity
  8
文字・寸法線
 62
     0
100
AcDbTrace
 10
179.497206652104
 20
111.1315439579649
 30
0.0
 11
180.3305399854373
 21
111.1315439579649
 31
0.0
 12
179.9138733187706
 22
108.6315439579649
 32
0.0
 13
179.9138733187706
 23
108.6315439579649
 33
0.0
  0
SOLID
  5
109A
330
D59
100
AcDbEntity
  8
文字・寸法線
 62
     0
100
AcDbTrace
 10
179.497206652104
 20
114.1315439579649
 30
0.0
 11
180.3305399854373
 21
114.1315439579649
 31
0.0
 12
179.9138733187706
 22
116.6315439579649
 32
0.0
 13
179.9138733187706
 23
116.6315439579649
 33
0.0
  0
MTEXT
  5
109B
330
D59
100
AcDbEntity
  8
文字・寸法線
 62
     0
100
AcDbMText
 10
177.7888733187706
 20
112.6315439579649
 30
0.0
 40
3.0
 41
0.0
 46
0.0
 71
     5
 72
     1
  1
8
 11
6.123031769111886E-17
 21
1.0
 31
0.0
 73
     1
 44
1.0
  0
POINT
  5
109C
330
D59
100
AcDbEntity
  8
Defpoints
 62
     0
100
AcDbPoint
 10
147.1511089363856
 20
108.6315439579649
 30
0.0
  0
POINT
  5
109D
330
D59
100
AcDbEntity
  8
Defpoints
 62
     0
100
AcDbPoint
 10
147.2842224115741
 20
116.6315439579649
 30
0.0
  0
POINT
  5
109E
330
D59
100
AcDbEntity
  8
Defpoints
 62
     0
100
AcDbPoint
 10
179.9138733187706
 20
116.6315439579649
 30
0.0
  0
ENDBLK
  5
D66
330
D59
100
AcDbEntity
  8
0
370
    15
100
AcDbBlockEnd
  0
BLOCK
  5
D71
330
D67
100
AcDbEntity
  8
0
370
    15
100
AcDbBlockBegin
  2
*D2
 70
     1
 10
0.0
 20
0.0
 30
0.0
  3
*D2
  1
*D2
  0
LINE
  5
1008
330
D67
100
AcDbEntity
  8
文字・寸法線
 62
     0
370
    -2
100
AcDbLine
 10
219.3614007100131
 20
145.8460788103885
 30
0.0
 11
219.3614007100131
 21
163.1709519907823
 31
0.0
  0
LINE
  5
1009
330
D67
100
AcDbEntity
  8
文字・寸法線
 62
     0
370
    -2
100
AcDbLine
 10
204.3614007100131
 20
115.2210788103885
 30
0.0
 11
204.3614007100131
 21
163.1709519907823
 31
0.0
  0
LINE
  5
100A
330
D67
100
AcDbEntity
  8
文字・寸法線
 62
     0
370
    -2
100
AcDbLine
 10
216.8614007100131
 20
162.6709519907823
 30
0.0
 11
206.8614007100131
 21
162.6709519907823
 31
0.0
  0
SOLID
  5
100B
330
D67
100
AcDbEntity
  8
文字・寸法線
 62
     0
100
AcDbTrace
 10
216.8614007100131
 20
162.2542853241157
 30
0.0
 11
216.8614007100131
 21
163.087618657449
 31
0.0
 12
219.3614007100131
 22
162.6709519907823
 32
0.0
 13
219.3614007100131
 23
162.6709519907823
 33
0.0
  0
SOLID
  5
100C
330
D67
100
AcDbEntity
  8
文字・寸法線
 62
     0
100
AcDbTrace
 10
206.8614007100131
 20
163.087618657449
 30
0.0
 11
206.8614007100131
 21
162.2542853241157
 31
0.0
 12
204.3614007100131
 22
162.6709519907823
 32
0.0
 13
204.3614007100131
 23
162.6709519907823
 33
0.0
  0
MTEXT
  5
100D
330
D67
100
AcDbEntity
  8
文字・寸法線
 62
     0
100
AcDbMText
 10
211.8614007100131
 20
164.7959519907823
 30
0.0
 40
3.0
 41
0.0
 46
0.0
 71
     5
 72
     1
  1
15
 73
     1
 44
1.0
  0
POINT
  5
100E
330
D67
100
AcDbEntity
  8
Defpoints
 62
     0
100
AcDbPoint
 10
219.3614007100131
 20
143.8460788103885
 30
0.0
  0
POINT
  5
100F
330
D67
100
AcDbEntity
  8
Defpoints
 62
     0
100
AcDbPoint
 10
204.3614007100131
 20
113.2210788103885
 30
0.0
  0
POINT
  5
1010
330
D67
100
AcDbEntity
  8
Defpoints
 62
     0
100
AcDbPoint
 10
204.3614007100131
 20
162.6709519907823
 30
0.0
  0
ENDBLK
  5
D72
330
D67
100
AcDbEntity
  8
0
370
    15
100
AcDbBlockEnd
  0
BLOCK
  5
D7D
330
D73
100
AcDbEntity
  8
0
370
    15
100
AcDbBlockBegin
  2
*D3
 70
     1
 10
0.0
 20
0.0
 30
0.0
  3
*D3
  1
*D3
  0
LINE
  5
FFF
330
D73
100
AcDbEntity
  8
文字・寸法線
 62
     0
370
    -2
100
AcDbLine
 10
289.3614007100131
 20
156.6165179170616
 30
0.0
 11
289.3614007100131
 21
163.1709519907823
 31
0.0
  0
LINE
  5
1000
330
D73
100
AcDbEntity
  8
文字・寸法線
 62
     0
370
    -2
100
AcDbLine
 10
219.3614007100131
 20
145.2210788103885
 30
0.0
 11
219.3614007100131
 21
163.1709519907823
 31
0.0
  0
LINE
  5
1001
330
D73
100
AcDbEntity
  8
文字・寸法線
 62
     0
370
    -2
100
AcDbLine
 10
286.8614007100131
 20
162.6709519907823
 30
0.0
 11
221.8614007100131
 21
162.6709519907823
 31
0.0
  0
SOLID
  5
1002
330
D73
100
AcDbEntity
  8
文字・寸法線
 62
     0
100
AcDbTrace
 10
286.8614007100131
 20
162.2542853241157
 30
0.0
 11
286.8614007100131
 21
163.087618657449
 31
0.0
 12
289.3614007100131
 22
162.6709519907823
 32
0.0
 13
289.3614007100131
 23
162.6709519907823
 33
0.0
  0
SOLID
  5
1003
330
D73
100
AcDbEntity
  8
文字・寸法線
 62
     0
100
AcDbTrace
 10
221.8614007100131
 20
163.087618657449
 30
0.0
 11
221.8614007100131
 21
162.2542853241157
 31
0.0
 12
219.3614007100131
 22
162.6709519907823
 32
0.0
 13
219.3614007100131
 23
162.6709519907823
 33
0.0
  0
MTEXT
  5
1004
330
D73
100
AcDbEntity
  8
文字・寸法線
 62
     0
100
AcDbMText
 10
254.3614007100131
 20
164.7959519907823
 30
0.0
 40
3.0
 41
0.0
 46
0.0
 71
     5
 72
     1
  1
70
 73
     1
 44
1.0
  0
POINT
  5
1005
330
D73
100
AcDbEntity
  8
Defpoints
 62
     0
100
AcDbPoint
 10
289.3614007100131
 20
154.6165179170616
 30
0.0
  0
POINT
  5
1006
330
D73
100
AcDbEntity
  8
Defpoints
 62
     0
100
AcDbPoint
 10
219.3614007100131
 20
143.2210788103885
 30
0.0
  0
POINT
  5
1007
330
D73
100
AcDbEntity
  8
Defpoints
 62
     0
100
AcDbPoint
 10
219.3614007100131
 20
162.6709519907823
 30
0.0
  0
ENDBLK
  5
D7E
330
D73
100
AcDbEntity
  8
0
370
    15
100
AcDbBlockEnd
  0
BLOCK
  5
D89
330
D7F
100
AcDbEntity
  8
0
370
    15
100
AcDbBlockBegin
  2
*D4
 70
     1
 10
0.0
 20
0.0
 30
0.0
  3
*D4
  1
*D4
  0
LINE
  5
FF6
330
D7F
100
AcDbEntity
  8
文字・寸法線
 62
     0
370
    -2
100
AcDbLine
 10
324.3614007100131
 20
115.2210788103885
 30
0.0
 11
324.3614007100131
 21
163.1709519907823
 31
0.0
  0
LINE
  5
FF7
330
D7F
100
AcDbEntity
  8
文字・寸法線
 62
     0
370
    -2
100
AcDbLine
 10
289.3614007100131
 20
155.9915179170616
 30
0.0
 11
289.3614007100131
 21
163.1709519907823
 31
0.0
  0
LINE
  5
FF8
330
D7F
100
AcDbEntity
  8
文字・寸法線
 62
     0
370
    -2
100
AcDbLine
 10
321.8614007100131
 20
162.6709519907823
 30
0.0
 11
291.8614007100131
 21
162.6709519907823
 31
0.0
  0
SOLID
  5
FF9
330
D7F
100
AcDbEntity
  8
文字・寸法線
 62
     0
100
AcDbTrace
 10
321.8614007100131
 20
162.2542853241157
 30
0.0
 11
321.8614007100131
 21
163.087618657449
 31
0.0
 12
324.3614007100131
 22
162.6709519907823
 32
0.0
 13
324.3614007100131
 23
162.6709519907823
 33
0.0
  0
SOLID
  5
FFA
330
D7F
100
AcDbEntity
  8
文字・寸法線
 62
     0
100
AcDbTrace
 10
291.8614007100131
 20
163.087618657449
 30
0.0
 11
291.8614007100131
 21
162.2542853241157
 31
0.0
 12
289.3614007100131
 22
162.6709519907823
 32
0.0
 13
289.3614007100131
 23
162.6709519907823
 33
0.0
  0
MTEXT
  5
FFB
330
D7F
100
AcDbEntity
  8
文字・寸法線
 62
     0
100
AcDbMText
 10
306.8614007100131
 20
164.7959519907823
 30
0.0
 40
3.0
 41
0.0
 46
0.0
 71
     5
 72
     1
  1
35
 73
     1
 44
1.0
  0
POINT
  5
FFC
330
D7F
100
AcDbEntity
  8
Defpoints
 62
     0
100
AcDbPoint
 10
324.3614007100131
 20
113.2210788103885
 30
0.0
  0
POINT
  5
FFD
330
D7F
100
AcDbEntity
  8
Defpoints
 62
     0
100
AcDbPoint
 10
289.3614007100131
 20
153.9915179170616
 30
0.0
  0
POINT
  5
FFE
330
D7F
100
AcDbEntity
  8
Defpoints
 62
     0
100
AcDbPoint
 10
289.3614007100131
 20
162.6709519907823
 30
0.0
  0
ENDBLK
  5
D8A
330
D7F
100
AcDbEntity
  8
0
370
    15
100
AcDbBlockEnd
  0
BLOCK
  5
D95
330
D8B
100
AcDbEntity
  8
0
370
    15
100
AcDbBlockBegin
  2
*D5
 70
     1
 10
0.0
 20
0.0
 30
0.0
  3
*D5
  1
*D5
  0
LINE
  5
101A
330
D8B
100
AcDbEntity
  8
文字・寸法線
 62
     0
370
    -2
100
AcDbLine
 10
291.3614007100131
 20
148.2210788103885
 30
0.0
 11
351.5745644736853
 21
148.2210788103885
 31
0.0
  0
LINE
  5
101B
330
D8B
100
AcDbEntity
  8
文字・寸法線
 62
     0
370
    -2
100
AcDbLine
 10
291.3614007100131
 20
78.22107881038848
 30
0.0
 11
351.5745644736853
 21
78.22107881038848
 31
0.0
  0
LINE
  5
101C
330
D8B
100
AcDbEntity
  8
文字・寸法線
 62
     0
370
    -2
100
AcDbLine
 10
351.0745644736853
 20
145.7210788103885
 30
0.0
 11
351.0745644736853
 21
80.72107881038848
 31
0.0
  0
SOLID
  5
101D
330
D8B
100
AcDbEntity
  8
文字・寸法線
 62
     0
100
AcDbTrace
 10
351.4912311403519
 20
145.7210788103885
 30
0.0
 11
350.6578978070186
 21
145.7210788103885
 31
0.0
 12
351.0745644736853
 22
148.2210788103885
 32
0.0
 13
351.0745644736853
 23
148.2210788103885
 33
0.0
  0
SOLID
  5
101E
330
D8B
100
AcDbEntity
  8
文字・寸法線
 62
     0
100
AcDbTrace
 10
350.6578978070186
 20
80.72107881038848
 30
0.0
 11
351.4912311403519
 21
80.72107881038848
 31
0.0
 12
351.0745644736853
 22
78.22107881038848
 32
0.0
 13
351.0745644736853
 23
78.22107881038848
 33
0.0
  0
MTEXT
  5
101F
330
D8B
100
AcDbEntity
  8
文字・寸法線
 62
     0
100
AcDbMText
 10
348.9495644736853
 20
113.2210788103885
 30
0.0
 40
3.0
 41
0.0
 46
0.0
 71
     5
 72
     1
  1
70
 11
0.0
 21
1.0
 31
0.0
 73
     1
 44
1.0
  0
POINT
  5
1020
330
D8B
100
AcDbEntity
  8
Defpoints
 62
     0
100
AcDbPoint
 10
289.3614007100131
 20
148.2210788103885
 30
0.0
  0
POINT
  5
1021
330
D8B
100
AcDbEntity
  8
Defpoints
 62
     0
100
AcDbPoint
 10
289.3614007100131
 20
78.22107881038848
 30
0.0
  0
POINT
  5
1022
330
D8B
100
AcDbEntity
  8
Defpoints
 62
     0
100
AcDbPoint
 10
351.0745644736853
 20
78.22107881038848
 30
0.0
  0
ENDBLK
  5
D96
330
D8B
100
AcDbEntity
  8
0
370
    15
100
AcDbBlockEnd
  0
BLOCK
  5
DA1
330
D97
100
AcDbEntity
  8
0
370
    15
100
AcDbBlockBegin
  2
*D6
 70
     1
 10
0.0
 20
0.0
 30
0.0
  3
*D6
  1
*D6
  0
LINE
  5
1011
330
D97
100
AcDbEntity
  8
文字・寸法線
 62
     0
370
    -2
100
AcDbLine
 10
291.3614007100131
 20
140.2210788103885
 30
0.0
 11
343.5761499097428
 21
140.2210788103885
 31
0.0
  0
LINE
  5
1012
330
D97
100
AcDbEntity
  8
文字・寸法線
 62
     0
370
    -2
100
AcDbLine
 10
291.3614007100131
 20
86.22107881038848
 30
0.0
 11
343.5761499097428
 21
86.22107881038848
 31
0.0
  0
LINE
  5
1013
330
D97
100
AcDbEntity
  8
文字・寸法線
 62
     0
370
    -2
100
AcDbLine
 10
343.0761499097428
 20
137.7210788103885
 30
0.0
 11
343.0761499097428
 21
88.72107881038848
 31
0.0
  0
SOLID
  5
1014
330
D97
100
AcDbEntity
  8
文字・寸法線
 62
     0
100
AcDbTrace
 10
343.4928165764094
 20
137.7210788103885
 30
0.0
 11
342.6594832430761
 21
137.7210788103885
 31
0.0
 12
343.0761499097428
 22
140.2210788103885
 32
0.0
 13
343.0761499097428
 23
140.2210788103885
 33
0.0
  0
SOLID
  5
1015
330
D97
100
AcDbEntity
  8
文字・寸法線
 62
     0
100
AcDbTrace
 10
342.6594832430761
 20
88.72107881038848
 30
0.0
 11
343.4928165764094
 21
88.72107881038848
 31
0.0
 12
343.0761499097428
 22
86.22107881038848
 32
0.0
 13
343.0761499097428
 23
86.22107881038848
 33
0.0
  0
MTEXT
  5
1016
330
D97
100
AcDbEntity
  8
文字・寸法線
 62
     0
100
AcDbMText
 10
340.9511499097428
 20
113.2210788103885
 30
0.0
 40
3.0
 41
0.0
 46
0.0
 71
     5
 72
     1
  1
%%c54
 11
0.0
 21
1.0
 31
0.0
 73
     1
 44
1.0
  0
POINT
  5
1017
330
D97
100
AcDbEntity
  8
Defpoints
 62
     0
100
AcDbPoint
 10
289.3614007100131
 20
140.2210788103885
 30
0.0
  0
POINT
  5
1018
330
D97
100
AcDbEntity
  8
Defpoints
 62
     0
100
AcDbPoint
 10
289.3614007100131
 20
86.22107881038848
 30
0.0
  0
POINT
  5
1019
330
D97
100
AcDbEntity
  8
Defpoints
 62
     0
100
AcDbPoint
 10
343.0761499097428
 20
86.22107881038848
 30
0.0
  0
ENDBLK
  5
DA2
330
D97
100
AcDbEntity
  8
0
370
    15
100
AcDbBlockEnd
  0
BLOCK
  5
DAF
330
DA3
100
AcDbEntity
  8
0
370
    15
100
AcDbBlockBegin
  2
*D7
 70
     1
 10
0.0
 20
0.0
 30
0.0
  3
*D7
  1
*D7
  0
LINE
  5
1078
330
DA3
100
AcDbEntity
  8
文字・寸法線
 62
     0
370
    -2
100
AcDbLine
 10
49.30394300006125
 20
90.13154395796488
 30
0.0
 11
42.13946760063024
 21
90.13154395796488
 31
0.0
  0
LINE
  5
1079
330
DA3
100
AcDbEntity
  8
文字・寸法線
 62
     0
370
    -2
100
AcDbLine
 10
49.30394300006125
 20
88.13154395796488
 30
0.0
 11
42.13946760063024
 21
88.13154395796488
 31
0.0
  0
LINE
  5
107A
330
DA3
100
AcDbEntity
  8
文字・寸法線
 62
     0
370
    -2
100
AcDbLine
 10
42.63946760063024
 20
92.63154395796488
 30
0.0
 11
42.63946760063024
 21
95.13154395796488
 31
0.0
  0
LINE
  5
107B
330
DA3
100
AcDbEntity
  8
文字・寸法線
 62
     0
370
    -2
100
AcDbLine
 10
42.63946760063024
 20
85.63154395796488
 30
0.0
 11
42.63946760063024
 21
83.13154395796488
 31
0.0
  0
MTEXT
  5
107C
330
DA3
100
AcDbEntity
  8
文字・寸法線
 62
     0
100
AcDbMText
 10
39.9603913980452
 20
93.44715293459853
 30
0.0
 40
3.0
 41
0.0
 46
0.0
 71
     5
 72
     1
  1
2
 11
6.123031769111886E-17
 21
1.0
 31
0.0
 73
     1
 44
1.0
  0
LINE
  5
107D
330
DA3
100
AcDbEntity
  8
文字・寸法線
 62
     0
370
    -2
100
AcDbLine
 10
42.63946760063024
 20
90.13154395796488
 30
0.0
 11
42.63946760063024
 21
88.13154395796488
 31
0.0
  0
SOLID
  5
107E
330
DA3
100
AcDbEntity
  8
文字・寸法線
 62
     0
100
AcDbTrace
 10
42.22280093396358
 20
92.63154395796488
 30
0.0
 11
43.0561342672969
 21
92.63154395796488
 31
0.0
 12
42.63946760063024
 22
90.13154395796488
 32
0.0
 13
42.63946760063024
 23
90.13154395796488
 33
0.0
  0
SOLID
  5
107F
330
DA3
100
AcDbEntity
  8
文字・寸法線
 62
     0
100
AcDbTrace
 10
42.22280093396358
 20
85.63154395796488
 30
0.0
 11
43.0561342672969
 21
85.63154395796488
 31
0.0
 12
42.63946760063024
 22
88.13154395796488
 32
0.0
 13
42.63946760063024
 23
88.13154395796488
 33
0.0
  0
POINT
  5
1080
330
DA3
100
AcDbEntity
  8
Defpoints
 62
     0
100
AcDbPoint
 10
51.30394300006125
 20
90.13154395796488
 30
0.0
  0
POINT
  5
1081
330
DA3
100
AcDbEntity
  8
Defpoints
 62
     0
100
AcDbPoint
 10
51.30394300006125
 20
88.13154395796488
 30
0.0
  0
POINT
  5
1082
330
DA3
100
AcDbEntity
  8
Defpoints
 62
     0
100
AcDbPoint
 10
42.63946760063024
 20
88.13154395796488
 30
0.0
  0
ENDBLK
  5
DB0
330
DA3
100
AcDbEntity
  8
0
370
    15
100
AcDbBlockEnd
  0
BLOCK
  5
DBB
330
DB1
100
AcDbEntity
  8
0
370
    15
100
AcDbBlockBegin
  2
*D8
 70
     1
 10
0.0
 20
0.0
 30
0.0
  3
*D8
  1
*D8
  0
LINE
  5
1050
330
DB1
100
AcDbEntity
  8
文字・寸法線
 62
     0
370
    -2
100
AcDbLine
 10
51.30394300006125
 20
86.13154395796488
 30
0.0
 11
51.30394300006125
 21
70.37938465343706
 31
0.0
  0
LINE
  5
1051
330
DB1
100
AcDbEntity
  8
文字・寸法線
 62
     0
370
    -2
100
AcDbLine
 10
171.3039430000613
 20
86.13154395796488
 30
0.0
 11
171.3039430000613
 21
70.37938465343706
 31
0.0
  0
LINE
  5
1052
330
DB1
100
AcDbEntity
  8
文字・寸法線
 62
     0
370
    -2
100
AcDbLine
 10
53.80394300006125
 20
70.87938465343706
 30
0.0
 11
168.8039430000613
 21
70.87938465343706
 31
0.0
  0
SOLID
  5
1053
330
DB1
100
AcDbEntity
  8
文字・寸法線
 62
     0
100
AcDbTrace
 10
53.80394300006125
 20
71.29605132010373
 30
0.0
 11
53.80394300006125
 21
70.46271798677039
 31
0.0
 12
51.30394300006125
 22
70.87938465343706
 32
0.0
 13
51.30394300006125
 23
70.87938465343706
 33
0.0
  0
SOLID
  5
1054
330
DB1
100
AcDbEntity
  8
文字・寸法線
 62
     0
100
AcDbTrace
 10
168.8039430000613
 20
71.29605132010373
 30
0.0
 11
168.8039430000613
 21
70.46271798677039
 31
0.0
 12
171.3039430000613
 22
70.87938465343706
 32
0.0
 13
171.3039430000613
 23
70.87938465343706
 33
0.0
  0
MTEXT
  5
1055
330
DB1
100
AcDbEntity
  8
文字・寸法線
 62
     0
100
AcDbMText
 10
111.3039430000613
 20
73.00438465343706
 30
0.0
 40
3.0
 41
0.0
 46
0.0
 71
     5
 72
     1
  1
120
 73
     1
 44
1.0
  0
POINT
  5
1056
330
DB1
100
AcDbEntity
  8
Defpoints
 62
     0
100
AcDbPoint
 10
51.30394300006125
 20
88.13154395796488
 30
0.0
  0
POINT
  5
1057
330
DB1
100
AcDbEntity
  8
Defpoints
 62
     0
100
AcDbPoint
 10
171.3039430000613
 20
88.13154395796488
 30
0.0
  0
POINT
  5
1058
330
DB1
100
AcDbEntity
  8
Defpoints
 62
     0
100
AcDbPoint
 10
171.3039430000613
 20
70.87938465343706
 30
0.0
  0
ENDBLK
  5
DBC
330
DB1
100
AcDbEntity
  8
0
370
    15
100
AcDbBlockEnd
  0
BLOCK
  5
DC7
330
DBD
100
AcDbEntity
  8
0
370
    15
100
AcDbBlockBegin
  2
*D9
 70
     1
 10
0.0
 20
0.0
 30
0.0
  3
*D9
  1
*D9
  0
LINE
  5
10BA
330
DBD
100
AcDbEntity
  8
文字・寸法線
 62
     0
370
    -2
100
AcDbLine
 10
138.3342224115746
 20
108.6315439579648
 30
0.0
 11
180.4138733187705
 21
108.6315439579648
 31
0.0
  0
LINE
  5
10BB
330
DBD
100
AcDbEntity
  8
文字・寸法線
 62
     0
370
    -2
100
AcDbLine
 10
173.3039430000612
 20
88.13154395796484
 30
0.0
 11
180.4138733187705
 21
88.13154395796484
 31
0.0
  0
LINE
  5
10BC
330
DBD
100
AcDbEntity
  8
文字・寸法線
 62
     0
370
    -2
100
AcDbLine
 10
179.9138733187705
 20
106.1315439579648
 30
0.0
 11
179.9138733187705
 21
90.63154395796484
 31
0.0
  0
SOLID
  5
10BD
330
DBD
100
AcDbEntity
  8
文字・寸法線
 62
     0
100
AcDbTrace
 10
179.4972066521038
 20
106.1315439579648
 30
0.0
 11
180.3305399854371
 21
106.1315439579648
 31
0.0
 12
179.9138733187705
 22
108.6315439579648
 32
0.0
 13
179.9138733187705
 23
108.6315439579648
 33
0.0
  0
SOLID
  5
10BE
330
DBD
100
AcDbEntity
  8
文字・寸法線
 62
     0
100
AcDbTrace
 10
179.4972066521038
 20
90.63154395796484
 30
0.0
 11
180.3305399854371
 21
90.63154395796484
 31
0.0
 12
179.9138733187705
 22
88.13154395796484
 32
0.0
 13
179.9138733187705
 23
88.13154395796484
 33
0.0
  0
MTEXT
  5
10BF
330
DBD
100
AcDbEntity
  8
文字・寸法線
 62
     0
100
AcDbMText
 10
177.7888733187704
 20
98.38154395796487
 30
0.0
 40
3.0
 41
0.0
 46
0.0
 71
     5
 72
     1
  1
20.5
 11
6.123031769111886E-17
 21
1.0
 31
0.0
 73
     1
 44
1.0
  0
POINT
  5
10C0
330
DBD
100
AcDbEntity
  8
Defpoints
 62
     0
100
AcDbPoint
 10
136.3342224115746
 20
108.6315439579648
 30
0.0
  0
POINT
  5
10C1
330
DBD
100
AcDbEntity
  8
Defpoints
 62
     0
100
AcDbPoint
 10
171.3039430000612
 20
88.13154395796484
 30
0.0
  0
POINT
  5
10C2
330
DBD
100
AcDbEntity
  8
Defpoints
 62
     0
100
AcDbPoint
 10
179.9138733187705
 20
88.13154395796484
 30
0.0
  0
ENDBLK
  5
DC8
330
DBD
100
AcDbEntity
  8
0
370
    15
100
AcDbBlockEnd
  0
BLOCK
  5
DD3
330
DC9
100
AcDbEntity
  8
0
370
    15
100
AcDbBlockBegin
  2
*D10
 70
     1
 10
0.0
 20
0.0
 30
0.0
  3
*D10
  1
*D10
  0
LINE
  5
1173
330
DC9
100
AcDbEntity
  8
文字・寸法線
 62
     0
370
    -2
100
AcDbLine
 10
130.334222411574
 20
216.6315439579649
 30
0.0
 11
130.334222411574
 21
227.7038811176336
 31
0.0
  0
LINE
  5
1174
330
DC9
100
AcDbEntity
  8
文字・寸法線
 62
     0
370
    -2
100
AcDbLine
 10
142.334222411574
 20
216.6315439579649
 30
0.0
 11
142.334222411574
 21
227.7038811176336
 31
0.0
  0
LINE
  5
1175
330
DC9
100
AcDbEntity
  8
文字・寸法線
 62
     0
370
    -2
100
AcDbLine
 10
132.834222411574
 20
227.2038811176336
 30
0.0
 11
139.834222411574
 21
227.2038811176336
 31
0.0
  0
SOLID
  5
1176
330
DC9
100
AcDbEntity
  8
文字・寸法線
 62
     0
100
AcDbTrace
 10
132.834222411574
 20
227.6205477843002
 30
0.0
 11
132.834222411574
 21
226.7872144509669
 31
0.0
 12
130.334222411574
 22
227.2038811176336
 32
0.0
 13
130.334222411574
 23
227.2038811176336
 33
0.0
  0
SOLID
  5
1177
330
DC9
100
AcDbEntity
  8
文字・寸法線
 62
     0
100
AcDbTrace
 10
139.834222411574
 20
227.6205477843002
 30
0.0
 11
139.834222411574
 21
226.7872144509669
 31
0.0
 12
142.334222411574
 22
227.2038811176336
 32
0.0
 13
142.334222411574
 23
227.2038811176336
 33
0.0
  0
MTEXT
  5
1178
330
DC9
100
AcDbEntity
  8
文字・寸法線
 62
     0
100
AcDbMText
 10
136.334222411574
 20
229.3288811176336
 30
0.0
 40
3.0
 41
0.0
 46
0.0
 71
     5
 72
     1
  1
M12
 73
     1
 44
1.0
  0
POINT
  5
1179
330
DC9
100
AcDbEntity
  8
Defpoints
 62
     0
100
AcDbPoint
 10
130.334222411574
 20
214.6315439579649
 30
0.0
  0
POINT
  5
117A
330
DC9
100
AcDbEntity
  8
Defpoints
 62
     0
100
AcDbPoint
 10
142.334222411574
 20
214.6315439579649
 30
0.0
  0
POINT
  5
117B
330
DC9
100
AcDbEntity
  8
Defpoints
 62
     0
100
AcDbPoint
 10
142.334222411574
 20
227.2038811176336
 30
0.0
  0
ENDBLK
  5
DD4
330
DC9
100
AcDbEntity
  8
0
370
    15
100
AcDbBlockEnd
  0
BLOCK
  5
DDF
330
DD5
100
AcDbEntity
  8
0
370
    15
100
AcDbBlockBegin
  2
*D11
 70
     1
 10
0.0
 20
0.0
 30
0.0
  3
*D11
  1
*D11
  0
LINE
  5
11C3
330
DD5
100
AcDbEntity
  8
文字・寸法線
 62
     0
370
    -2
100
AcDbLine
 10
142.334222411574
 20
216.6315439579649
 30
0.0
 11
180.4138733187706
 21
216.6315439579649
 31
0.0
  0
LINE
  5
11C4
330
DD5
100
AcDbEntity
  8
文字・寸法線
 62
     0
370
    -2
100
AcDbLine
 10
149.284222411574
 20
116.6315439579649
 30
0.0
 11
180.4138733187706
 21
116.6315439579649
 31
0.0
  0
LINE
  5
11C5
330
DD5
100
AcDbEntity
  8
文字・寸法線
 62
     0
370
    -2
100
AcDbLine
 10
179.9138733187706
 20
214.1315439579649
 30
0.0
 11
179.9138733187706
 21
119.1315439579649
 31
0.0
  0
SOLID
  5
11C6
330
DD5
100
AcDbEntity
  8
文字・寸法線
 62
     0
100
AcDbTrace
 10
180.3305399854373
 20
214.1315439579649
 30
0.0
 11
179.497206652104
 21
214.1315439579649
 31
0.0
 12
179.9138733187706
 22
216.6315439579649
 32
0.0
 13
179.9138733187706
 23
216.6315439579649
 33
0.0
  0
SOLID
  5
11C7
330
DD5
100
AcDbEntity
  8
文字・寸法線
 62
     0
100
AcDbTrace
 10
179.497206652104
 20
119.1315439579649
 30
0.0
 11
180.3305399854373
 21
119.1315439579649
 31
0.0
 12
179.9138733187706
 22
116.6315439579649
 32
0.0
 13
179.9138733187706
 23
116.6315439579649
 33
0.0
  0
MTEXT
  5
11C8
330
DD5
100
AcDbEntity
  8
文字・寸法線
 62
     0
100
AcDbMText
 10
177.7888733187706
 20
166.6315439579649
 30
0.0
 40
3.0
 41
0.0
 46
0.0
 71
     5
 72
     1
  1
150
 11
0.0
 21
1.0
 31
0.0
 73
     1
 44
1.0
  0
POINT
  5
11C9
330
DD5
100
AcDbEntity
  8
Defpoints
 62
     0
100
AcDbPoint
 10
140.334222411574
 20
216.6315439579649
 30
0.0
  0
POINT
  5
11CA
330
DD5
100
AcDbEntity
  8
Defpoints
 62
     0
100
AcDbPoint
 10
147.284222411574
 20
116.6315439579649
 30
0.0
  0
POINT
  5
11CB
330
DD5
100
AcDbEntity
  8
Defpoints
 62
     0
100
AcDbPoint
 10
179.9138733187706
 20
116.6315439579649
 30
0.0
  0
ENDBLK
  5
DE0
330
DD5
100
AcDbEntity
  8
0
370
    15
100
AcDbBlockEnd
  0
BLOCK
  5
DEB
330
DE1
100
AcDbEntity
  8
0
370
    15
100
AcDbBlockBegin
  2
*D12
 70
     1
 10
0.0
 20
0.0
 30
0.0
  3
*D12
  1
*D12
  0
LINE
  5
1023
330
DE1
100
AcDbEntity
  8
文字・寸法線
 62
     0
370
    -2
100
AcDbLine
 10
279.8784225385735
 20
105.7460788103885
 30
0.0
 11
279.8784225385735
 21
65.79632849307369
 31
0.0
  0
LINE
  5
1024
330
DE1
100
AcDbEntity
  8
文字・寸法線
 62
     0
370
    -2
100
AcDbLine
 10
298.8443788814528
 20
105.7460788103885
 30
0.0
 11
298.8443788814528
 21
65.79632849307369
 31
0.0
  0
LINE
  5
1025
330
DE1
100
AcDbEntity
  8
文字・寸法線
 62
     0
370
    -2
100
AcDbLine
 10
282.3784225385735
 20
66.29632849307369
 30
0.0
 11
296.3443788814528
 21
66.29632849307369
 31
0.0
  0
SOLID
  5
1026
330
DE1
100
AcDbEntity
  8
文字・寸法線
 62
     0
100
AcDbTrace
 10
282.3784225385735
 20
66.71299515974036
 30
0.0
 11
282.3784225385735
 21
65.87966182640702
 31
0.0
 12
279.8784225385735
 22
66.29632849307369
 32
0.0
 13
279.8784225385735
 23
66.29632849307369
 33
0.0
  0
SOLID
  5
1027
330
DE1
100
AcDbEntity
  8
文字・寸法線
 62
     0
100
AcDbTrace
 10
296.3443788814528
 20
65.87966182640702
 30
0.0
 11
296.3443788814528
 21
66.71299515974036
 31
0.0
 12
298.8443788814528
 22
66.29632849307369
 32
0.0
 13
298.8443788814528
 23
66.29632849307369
 33
0.0
  0
MTEXT
  5
1028
330
DE1
100
AcDbEntity
  8
文字・寸法線
 62
     0
100
AcDbMText
 10
289.3614007100131
 20
68.42132849307369
 30
0.0
 40
3.0
 41
0.0
 46
0.0
 71
     5
 72
     1
  1
19
 73
     1
 44
1.0
  0
POINT
  5
1029
330
DE1
100
AcDbEntity
  8
Defpoints
 62
     0
100
AcDbPoint
 10
279.8784225385735
 20
107.7460788103885
 30
0.0
  0
POINT
  5
102A
330
DE1
100
AcDbEntity
  8
Defpoints
 62
     0
100
AcDbPoint
 10
298.8443788814528
 20
107.7460788103885
 30
0.0
  0
POINT
  5
102B
330
DE1
100
AcDbEntity
  8
Defpoints
 62
     0
100
AcDbPoint
 10
298.8443788814528
 20
66.29632849307369
 30
0.0
  0
ENDBLK
  5
DEC
330
DE1
100
AcDbEntity
  8
0
370
    15
100
AcDbBlockEnd
  0
BLOCK
  5
F72
330
F68
100
AcDbEntity
  8
0
100
AcDbBlockBegin
  2
*D13
 70
     1
 10
0.0
 20
0.0
 30
0.0
  3
*D13
  1
*D13
  0
LINE
  5
11CC
330
F68
100
AcDbEntity
  8
文字・寸法線
 62
     0
370
    -2
100
AcDbLine
 10
142.334222411574
 20
216.6315439579649
 30
0.0
 11
187.9413908001349
 21
216.6315439579649
 31
0.0
  0
LINE
  5
11CD
330
F68
100
AcDbEntity
  8
文字・寸法線
 62
     0
370
    -2
100
AcDbLine
 10
173.3039430000613
 20
88.13154395796488
 30
0.0
 11
187.9413908001349
 21
88.13154395796488
 31
0.0
  0
LINE
  5
11CE
330
F68
100
AcDbEntity
  8
文字・寸法線
 62
     0
370
    -2
100
AcDbLine
 10
187.4413908001349
 20
214.1315439579649
 30
0.0
 11
187.4413908001349
 21
90.63154395796488
 31
0.0
  0
SOLID
  5
11CF
330
F68
100
AcDbEntity
  8
文字・寸法線
 62
     0
100
AcDbTrace
 10
187.8580574668016
 20
214.1315439579649
 30
0.0
 11
187.0247241334683
 21
214.1315439579649
 31
0.0
 12
187.4413908001349
 22
216.6315439579649
 32
0.0
 13
187.4413908001349
 23
216.6315439579649
 33
0.0
  0
SOLID
  5
11D0
330
F68
100
AcDbEntity
  8
文字・寸法線
 62
     0
100
AcDbTrace
 10
187.0247241334683
 20
90.63154395796488
 30
0.0
 11
187.8580574668016
 21
90.63154395796488
 31
0.0
 12
187.4413908001349
 22
88.13154395796488
 32
0.0
 13
187.4413908001349
 23
88.13154395796488
 33
0.0
  0
MTEXT
  5
11D1
330
F68
100
AcDbEntity
  8
文字・寸法線
 62
     0
100
AcDbMText
 10
185.3163908001349
 20
152.3815439579649
 30
0.0
 40
3.0
 41
0.0
 46
0.0
 71
     5
 72
     1
  1
178.5
 11
0.0
 21
1.0
 31
0.0
 73
     1
 44
1.0
  0
POINT
  5
11D2
330
F68
100
AcDbEntity
  8
Defpoints
 62
     0
100
AcDbPoint
 10
140.334222411574
 20
216.6315439579649
 30
0.0
  0
POINT
  5
11D3
330
F68
100
AcDbEntity
  8
Defpoints
 62
     0
100
AcDbPoint
 10
171.3039430000613
 20
88.13154395796488
 30
0.0
  0
POINT
  5
11D4
330
F68
100
AcDbEntity
  8
Defpoints
 62
     0
100
AcDbPoint
 10
187.4413908001349
 20
88.13154395796488
 30
0.0
  0
ENDBLK
  5
F73
330
F68
100
AcDbEntity
  8
0
100
AcDbBlockEnd
  0
ENDSEC
  0
SECTION
  2
ENTITIES
  0
DIMENSION
  5
D0E
102
{ACAD_XDICTIONARY
360
D0F
102
}
330
21
100
AcDbEntity
  8
文字・寸法線
100
AcDbDimension
280
     0
  2
*D2
 10
204.3614007100131
 20
162.6709519907823
 30
0.0
 11
211.8614007100131
 21
164.7959519907823
 31
0.0
 70
    32
 71
     5
 42
15.0
 73
     0
 74
     0
 75
     0
  3
ISO-25
100
AcDbAlignedDimension
 13
219.3614007100131
 23
143.8460788103885
 33
0.0
 14
204.3614007100131
 24
113.2210788103885
 34
0.0
100
AcDbRotatedDimension
  0
DIMENSION
  5
D11
102
{ACAD_REACTORS
330
D13
102
}
102
{ACAD_XDICTIONARY
360
D12
102
}
330
21
100
AcDbEntity
  8
文字・寸法線
100
AcDbDimension
280
     0
  2
*D3
 10
219.3614007100131
 20
162.6709519907823
 30
0.0
 11
254.3614007100131
 21
164.7959519907823
 31
0.0
 70
    32
 71
     5
 42
70.0
 73
     0
 74
     0
 75
     0
  3
ISO-25
100
AcDbAlignedDimension
 13
289.3614007100131
 23
154.6165179170616
 33
0.0
 14
219.3614007100131
 24
143.2210788103885
 34
0.0
100
AcDbRotatedDimension
  0
DIMENSION
  5
D14
102
{ACAD_REACTORS
330
D16
102
}
102
{ACAD_XDICTIONARY
360
D15
102
}
330
21
100
AcDbEntity
  8
文字・寸法線
100
AcDbDimension
280
     0
  2
*D4
 10
289.3614007100131
 20
162.6709519907823
 30
0.0
 11
306.8614007100131
 21
164.7959519907823
 31
0.0
 70
    32
 71
     5
 42
35.0
 73
     0
 74
     0
 75
     0
  3
ISO-25
100
AcDbAlignedDimension
 13
324.3614007100131
 23
113.2210788103885
 33
0.0
 14
289.3614007100131
 24
153.9915179170616
 34
0.0
100
AcDbRotatedDimension
  0
LINE
  5
D17
102
{ACAD_REACTORS
330
D13
102
}
330
21
100
AcDbEntity
  8
中心線
100
AcDbLine
 10
219.3614007100131
 20
143.2210788103885
 30
0.0
 11
219.3614007100131
 21
83.22107881038848
 31
0.0
  0
DIMENSION
  5
D18
102
{ACAD_REACTORS
330
D1A
102
}
102
{ACAD_XDICTIONARY
360
D19
102
}
330
21
100
AcDbEntity
  8
文字・寸法線
100
AcDbDimension
280
     0
  2
*D5
 10
351.0745644736853
 20
78.22107881038848
 30
0.0
 11
348.9495644736853
 21
113.2210788103885
 31
0.0
 70
    32
 71
     5
 42
70.00000000000004
 73
     0
 74
     0
 75
     0
  3
ISO-25
100
AcDbAlignedDimension
 13
289.3614007100131
 23
148.2210788103885
 33
0.0
 14
289.3614007100131
 24
78.22107881038848
 34
0.0
 50
90.0
100
AcDbRotatedDimension
  0
DIMENSION
  5
D1B
102
{ACAD_REACTORS
330
D1D
102
}
102
{ACAD_XDICTIONARY
360
D1C
102
}
330
21
100
AcDbEntity
  8
文字・寸法線
100
AcDbDimension
280
     0
  2
*D6
 10
343.0761499097428
 20
86.22107881038848
 30
0.0
 11
340.9511499097428
 21
113.2210788103885
 31
0.0
 70
    32
  1
%%c<>
 71
     5
 42
54.00000000000004
 73
     0
 74
     0
 75
     0
  3
ISO-25
100
AcDbAlignedDimension
 13
289.3614007100131
 23
140.2210788103885
 33
0.0
 14
289.3614007100131
 24
86.22107881038848
 34
0.0
 50
90.0
100
AcDbRotatedDimension
  0
LINE
  5
D1E
330
21
100
AcDbEntity
  8
中心線
100
AcDbLine
 10
289.3614007100131
 20
113.2210788103885
 30
0.0
 11
196.7728113340771
 21
113.2210788103885
 31
0.0
  0
LINE
  5
D1F
102
{ACAD_REACTORS
330
D1A
102
}
330
21
100
AcDbEntity
  8
中心線
100
AcDbLine
 10
289.3614007100131
 20
113.2210788103885
 30
0.0
 11
289.3614007100131
 21
73.68261055534761
 31
0.0
  0
LINE
  5
D20
102
{ACAD_REACTORS
330
D1D
330
D1A
330
D16
102
}
330
21
100
AcDbEntity
  8
中心線
100
AcDbLine
 10
289.3614007100131
 20
113.2210788103885
 30
0.0
 11
289.3614007100131
 21
153.9915179170616
 31
0.0
  0
LINE
  5
D21
102
{ACAD_REACTORS
330
D16
102
}
330
21
100
AcDbEntity
  8
中心線
100
AcDbLine
 10
289.3614007100131
 20
113.2210788103885
 30
0.0
 11
333.2705282484869
 21
113.2210788103885
 31
0.0
  0
DIMENSION
  5
D22
102
{ACAD_REACTORS
330
D24
102
}
102
{ACAD_XDICTIONARY
360
D23
102
}
330
21
100
AcDbEntity
  8
文字・寸法線
100
AcDbDimension
280
     0
  2
*D7
 10
42.63946760063024
 20
88.13154395796488
 30
0.0
 11
39.9603913980452
 21
93.44715293459853
 31
0.0
 70
   160
 71
     5
 42
2.0
 73
     0
 74
     0
 75
     0
  3
ISO-25
100
AcDbAlignedDimension
 13
51.30394300006125
 23
90.13154395796488
 33
0.0
 14
51.30394300006125
 24
88.13154395796488
 34
0.0
 50
90.0
100
AcDbRotatedDimension
1001
ACAD
1000
DSTYLE
1002
{
1070
   279
1070
     2
1002
}
  0
DIMENSION
  5
D25
102
{ACAD_REACTORS
330
D27
102
}
102
{ACAD_XDICTIONARY
360
D26
102
}
330
21
100
AcDbEntity
  8
文字・寸法線
100
AcDbDimension
280
     0
  2
*D8
 10
171.3039430000613
 20
70.87938465343706
 30
0.0
 11
111.3039430000613
 21
73.00438465343706
 31
0.0
 70
    32
 71
     5
 42
120.0
 73
     0
 74
     0
 75
     0
  3
ISO-25
100
AcDbAlignedDimension
 13
51.30394300006125
 23
88.13154395796488
 33
0.0
 14
171.3039430000613
 24
88.13154395796488
 34
0.0
100
AcDbRotatedDimension
  0
DIMENSION
  5
D28
102
{ACAD_REACTORS
330
D2A
102
}
102
{ACAD_XDICTIONARY
360
D29
102
}
330
21
100
AcDbEntity
  8
文字・寸法線
100
AcDbDimension
280
     0
  2
*D9
 10
179.9138733187705
 20
88.13154395796484
 30
0.0
 11
177.7888733187704
 21
98.38154395796487
 31
0.0
 70
    32
  1
20.5
 71
     5
 42
20.49999999999999
 73
     0
 74
     0
 75
     0
  3
ISO-25
100
AcDbAlignedDimension
 13
136.3342224115746
 23
108.6315439579648
 33
0.0
 14
171.3039430000612
 24
88.13154395796484
 34
0.0
 50
90.0
100
AcDbRotatedDimension
  0
LINE
  5
D2B
330
21
100
AcDbEntity
  8
実線
100
AcDbLine
 10
127.8842224115741
 20
108.6315439579649
 30
0.0
 11
144.784222411574
 21
108.6315439579649
 31
0.0
  0
ARC
  5
D2C
330
21
100
AcDbEntity
  8
実線
100
AcDbCircle
 10
144.784222411574
 20
112.2565439579649
 30
0.0
 40
3.62500000000001
100
AcDbArc
 50
226.3971810272964
 51
313.602818972704
  0
ARC
  5
D2D
102
{ACAD_REACTORS
330
D2A
102
}
330
21
100
AcDbEntity
  8
実線
100
AcDbCircle
 10
136.334222411574
 20
126.8327939579648
 30
0.0
 40
18.20124999999991
100
AcDbArc
 50
250.9192363903145
 51
289.0807636096853
  0
ARC
  5
D2E
330
21
100
AcDbEntity
  8
実線
100
AcDbCircle
 10
127.8842224115741
 20
112.2565439579649
 30
0.0
 40
3.625
100
AcDbArc
 50
226.3971810272964
 51
313.6028189727034
  0
LINE
  5
D2F
102
{ACAD_REACTORS
330
D2A
330
D27
330
D24
102
}
330
21
100
AcDbEntity
  8
実線
100
AcDbLine
 10
171.3039430000613
 20
88.13154395796488
 30
0.0
 11
51.30394300006125
 21
88.13154395796488
 31
0.0
  0
LINE
  5
D30
102
{ACAD_REACTORS
330
D24
102
}
330
21
100
AcDbEntity
  8
実線
100
AcDbLine
 10
51.30394300006125
 20
90.13154395796488
 30
0.0
 11
51.30394300006125
 21
88.13154395796488
 31
0.0
  0
LINE
  5
D31
102
{ACAD_REACTORS
330
F7E
102
}
330
21
100
AcDbEntity
  8
実線
100
AcDbLine
 10
171.3039430000612
 20
90.13154395796488
 30
0.0
 11
171.3039430000613
 21
88.13154395796488
 31
0.0
  0
LINE
  5
D32
330
21
100
AcDbEntity
  8
実線
100
AcDbLine
 10
107.3441143486161
 20
90.13154395796488
 30
0.0
 11
51.30394300006125
 21
90.13154395796488
 31
0.0
  0
ARC
  5
D33
330
21
100
AcDbEntity
  8
実線
100
AcDbCircle
 10
136.0012098889098
 20
80.18929152579636
 30
0.0
 40
28.44420188290481
100
AcDbArc
 50
89.32919024911546
 51
155.7437195008696
  0
ARC
  5
D34
330
21
100
AcDbEntity
  8
実線
100
AcDbCircle
 10
107.3441143486161
 20
93.13154395796488
 30
0.0
 40
3.0
100
AcDbArc
 50
269.9999999999996
 51
335.2319015012845
  0
ARC
  5
D35
330
21
100
AcDbEntity
  8
実線
100
AcDbCircle
 10
165.3243304745319
 20
93.13154395796488
 30
0.0
 40
3.0
100
AcDbArc
 50
204.7680984987156
 51
270.0000000000004
  0
ARC
  5
D36
102
{ACAD_REACTORS
330
D2A
102
}
330
21
100
AcDbEntity
  8
実線
100
AcDbCircle
 10
136.6672349342382
 20
80.18929152579638
 30
0.0
 40
28.44420188290477
100
AcDbArc
 50
24.25628049913038
 51
90.67080975088456
  0
LINE
  5
D37
330
21
100
AcDbEntity
  8
実線
100
AcDbLine
 10
165.3243304745319
 20
90.13154395796488
 30
0.0
 11
171.3039430000612
 21
90.13154395796488
 31
0.0
  0
LINE
  5
D38
330
21
100
AcDbEntity
  8
実線
100
AcDbLine
 10
107.3441143486161
 20
90.13154395796488
 30
0.0
 11
167.4285929610099
 21
90.13154395796488
 31
0.0
  0
CIRCLE
  5
D39
102
{ACAD_REACTORS
330
D1D
102
}
330
21
100
AcDbEntity
  8
実線
100
AcDbCircle
 10
289.3614007100131
 20
113.2210788103885
 30
0.0
 40
27.0
  0
CIRCLE
  5
D3A
330
21
100
AcDbEntity
  8
実線
100
AcDbCircle
 10
219.3614007100131
 20
113.2210788103885
 30
0.0
 40
7.0
  0
ARC
  5
D3B
102
{ACAD_REACTORS
330
EF5
102
}
330
21
100
AcDbEntity
  8
実線
100
AcDbCircle
 10
219.3614007100131
 20
113.2210788103885
 30
0.0
 40
15.0
100
AcDbArc
 50
99.5595366086951
 51
260.4404633913044
  0
ARC
  5
D3C
102
{ACAD_REACTORS
330
D1A
330
D16
102
}
330
21
100
AcDbEntity
  8
実線
100
AcDbCircle
 10
289.3614007100131
 20
113.2210788103885
 30
0.0
 40
35.0
100
AcDbArc
 50
253.2990352067444
 51
106.7009647932556
  0
LINE
  5
D3D
330
21
100
AcDbEntity
  8
実線
100
AcDbLine
 10
216.8703150752339
 20
98.4293753128127
 30
0.0
 11
279.3032180157152
 21
79.69746085396666
 31
0.0
  0
LINE
  5
D3E
330
21
100
AcDbEntity
  8
実線
100
AcDbLine
 10
216.870315075234
 20
128.0127823079643
 30
0.0
 11
279.3032180157152
 21
146.7446967668103
 31
0.0
  0
DIMENSION
  5
D3F
102
{ACAD_REACTORS
330
D41
102
}
102
{ACAD_XDICTIONARY
360
D40
102
}
330
21
100
AcDbEntity
  8
文字・寸法線
100
AcDbDimension
280
     0
  2
*D10
 10
142.334222411574
 20
227.2038811176336
 30
0.0
 11
136.334222411574
 21
229.3288811176336
 31
0.0
 70
    32
  1
M12
 71
     5
 42
12.0
 73
     0
 74
     0
 75
     0
  3
ISO-25
100
AcDbAlignedDimension
 13
130.334222411574
 23
214.6315439579649
 33
0.0
 14
142.334222411574
 24
214.6315439579649
 34
0.0
100
AcDbRotatedDimension
  0
DIMENSION
  5
D42
102
{ACAD_REACTORS
330
D44
102
}
102
{ACAD_XDICTIONARY
360
D43
102
}
330
21
100
AcDbEntity
  8
文字・寸法線
100
AcDbDimension
280
     0
  2
*D11
 10
179.9138733187706
 20
116.6315439579649
 30
0.0
 11
177.7888733187706
 21
166.6315439579649
 31
0.0
 70
    32
  1
150
 71
     5
 42
100.0
 73
     0
 74
     0
 75
     0
  3
ISO-25
100
AcDbAlignedDimension
 13
140.334222411574
 23
216.6315439579649
 33
0.0
 14
147.284222411574
 24
116.6315439579649
 34
0.0
 50
90.0
100
AcDbRotatedDimension
  0
LINE
  5
D45
102
{ACAD_REACTORS
330
D44
102
}
330
21
100
AcDbEntity
  8
実線
370
    15
100
AcDbLine
 10
140.334222411574
 20
216.6315439579649
 30
0.0
 11
140.334222411574
 21
177.9807437873484
 31
0.0
  0
LINE
  5
D46
330
21
100
AcDbEntity
  8
実線
370
    15
100
AcDbLine
 10
132.334222411574
 20
216.6315439579649
 30
0.0
 11
132.334222411574
 21
170.4628843343039
 31
0.0
  0
LINE
  5
D47
102
{ACAD_REACTORS
330
D41
102
}
330
21
100
AcDbEntity
  8
実線
370
    20
100
AcDbLine
 10
130.334222411574
 20
214.6315439579649
 30
0.0
 11
142.334222411574
 21
214.6315439579649
 31
0.0
  0
LWPOLYLINE
  5
D48
330
21
100
AcDbEntity
  8
実線
100
AcDbPolyline
 90
        4
 70
     0
 43
0.0
 10
130.334222411574
 20
125.8561096422482
 10
130.334222411574
 20
116.6315439579649
 10
142.334222411574
 20
116.6315439579649
 10
142.334222411574
 20
125.8562594292126
  0
DIMENSION
  5
D49
102
{ACAD_REACTORS
330
D4B
102
}
102
{ACAD_XDICTIONARY
360
D4A
102
}
330
21
100
AcDbEntity
  8
文字・寸法線
100
AcDbDimension
280
     0
  2
*D12
 10
298.8443788814528
 20
66.29632849307369
 30
0.0
 11
289.3614007100131
 21
66.29632849307369
 31
0.0
 70
   160
  1
19
 71
     5
 42
18.96595634287922
 73
     0
 74
     0
 75
     0
  3
ISO-25
100
AcDbAlignedDimension
 13
279.8784225385735
 23
107.7460788103885
 33
0.0
 14
298.8443788814528
 24
107.7460788103885
 34
0.0
100
AcDbRotatedDimension
  0
LINE
  5
D4C
330
21
100
AcDbEntity
  8
中心線
100
AcDbLine
 10
136.334222411574
 20
81.52168655268122
 30
0.0
 11
136.334222411574
 21
221.9261417802662
 31
0.0
  0
DIMENSION
  5
D4D
330
21
100
AcDbEntity
  8
文字・寸法線
100
AcDbDimension
280
     0
  2
*D1
 10
179.9138733187706
 20
116.6315439579649
 30
0.0
 11
177.7888733187706
 21
112.6315439579649
 31
0.0
 70
    32
  1
8
 71
     5
 42
7.999999999999972
 73
     0
 74
     0
 75
     0
  3
ISO-25
100
AcDbAlignedDimension
 13
147.1511089363856
 23
108.6315439579649
 33
0.0
 14
147.2842224115741
 24
116.6315439579649
 34
0.0
 50
90.0
100
AcDbRotatedDimension
  0
CIRCLE
  5
D4E
330
21
100
AcDbEntity
  8
実線
370
    20
100
AcDbCircle
 10
289.3614007100131
 20
113.2210788103885
 30
0.0
 40
5.15
  0
CIRCLE
  5
D4F
330
21
100
AcDbEntity
  8
実線
100
AcDbCircle
 10
289.3614007100131
 20
113.2210788103885
 30
0.0
 40
6.0
  0
LWPOLYLINE
  5
D50
102
{ACAD_REACTORS
330
D4B
102
}
330
21
100
AcDbEntity
  8
実線
100
AcDbPolyline
 90
        6
 70
     1
 43
0.0
 10
279.8784225385735
 20
107.7460788103885
 10
289.3614007100131
 20
102.2710788103885
 10
298.8443788814528
 20
107.7460788103885
 10
298.8443788814528
 20
118.6960788103884
 10
289.3614007100131
 20
124.1710788103885
 10
279.8784225385735
 20
118.6960788103885
  0
LINE
  5
D51
330
21
100
AcDbEntity
  8
実線
100
AcDbLine
 10
125.3842224115741
 20
110.6315439579649
 30
0.0
 11
125.3842224115741
 21
109.6315439579649
 31
0.0
  0
LINE
  5
D52
330
21
100
AcDbEntity
  8
実線
100
AcDbLine
 10
147.284222411574
 20
110.6315439579649
 30
0.0
 11
147.2842224115741
 21
109.6315439579649
 31
0.0
  0
LINE
  5
D53
330
21
100
AcDbEntity
  8
実線
100
AcDbLine
 10
147.2842224115741
 20
109.6315439579649
 30
0.0
 11
147.284222411574
 21
110.6315439579649
 31
0.0
  0
LINE
  5
D54
330
21
100
AcDbEntity
  8
実線
100
AcDbLine
 10
130.3842224115741
 20
116.6315439579649
 30
0.0
 11
130.3842224115741
 21
109.6315439579649
 31
0.0
  0
LINE
  5
D55
330
21
100
AcDbEntity
  8
実線
100
AcDbLine
 10
142.284222411574
 20
116.6315439579649
 30
0.0
 11
142.284222411574
 21
109.6315439579649
 31
0.0
  0
LWPOLYLINE
  5
D56
102
{ACAD_REACTORS
330
D44
102
}
330
21
100
AcDbEntity
  8
実線
100
AcDbPolyline
 90
        4
 70
     0
 43
0.0
 10
147.284222411574
 20
110.6315439579649
 10
147.284222411574
 20
116.6315439579649
 10
125.3842224115741
 20
116.6315439579649
 10
125.3842224115741
 20
110.6315439579649
  0
LEADER
  5
EF2
102
{ACAD_REACTORS
330
EF5
102
}
102
{ACAD_XDICTIONARY
360
EF4
102
}
330
21
100
AcDbEntity
  8
文字・寸法線
100
AcDbLeader
  3
ISO-25
 73
     0
 40
3.0
 41
7.0
 76
     3
 10
219.3614007100131
 20
113.2210788103885
 30
0.0
 10
207.0030513578973
 20
87.11937654280213
 30
0.0
 10
205.3886120190812
 20
87.11937654280213
 30
0.0
340
EF3
1001
ACAD
1000
DSTYLE
1002
{
1070
   147
1040
0.625
1070
    77
1070
     1
1002
}
  0
MTEXT
  5
EF3
102
{ACAD_REACTORS
330
EF2
102
}
330
21
100
AcDbEntity
  8
文字・寸法線
100
AcDbMText
 10
204.7636120190812
 20
87.74437654280213
 30
0.0
 40
3.0
 41
0.0
 46
0.0
 71
     9
 72
     1
  1
%%c14
 73
     1
 44
1.0
  0
LINE
  5
115C
330
21
100
AcDbEntity
  8
実線
370
    15
100
AcDbLine
 10
132.334222411574
 20
125.8561346067423
 30
0.0
 11
132.334222411574
 21
116.6315439579649
 31
0.0
  0
LINE
  5
115D
330
21
100
AcDbEntity
  8
実線
370
    15
100
AcDbLine
 10
140.334222411574
 20
125.8562344647186
 30
0.0
 11
140.334222411574
 21
116.6315439579649
 31
0.0
  0
LWPOLYLINE
  5
115E
102
{ACAD_REACTORS
330
F7E
102
}
330
21
100
AcDbEntity
  8
実線
100
AcDbPolyline
 90
        2
 70
     0
 43
0.0
 10
142.334222411574
 20
125.3577065978581
 10
142.334222411574
 20
177.1487876018235
  0
LINE
  5
1190
330
21
100
AcDbEntity
  8
実線
100
AcDbLine
 10
146.0949830766353
 20
183.3943174151682
 30
0.0
 11
126.2545640173207
 21
164.749632167989
 31
0.0
  0
LINE
  5
1191
330
21
100
AcDbEntity
  8
実線
100
AcDbLine
 10
146.0949830766353
 20
180.6828963663822
 30
0.0
 11
126.2545640173207
 21
162.038211119203
 31
0.0
  0
LWPOLYLINE
  5
1192
102
{ACAD_REACTORS
330
F7E
102
}
330
21
100
AcDbEntity
  8
実線
100
AcDbPolyline
 90
        2
 70
     0
 43
0.0
 10
130.334222411574
 20
165.8719984222568
 10
130.334222411574
 20
125.8561096422482
  0
LINE
  5
1193
330
21
100
AcDbEntity
  8
実線
370
    15
100
AcDbLine
 10
132.334222411574
 20
167.7514632855178
 30
0.0
 11
132.334222411574
 21
125.8561346067423
 31
0.0
  0
LINE
  5
1194
330
21
100
AcDbEntity
  8
実線
370
    15
100
AcDbLine
 10
140.334222411574
 20
175.2693227385623
 30
0.0
 11
140.334222411574
 21
125.8562344647186
 31
0.0
  0
LWPOLYLINE
  5
1195
102
{ACAD_REACTORS
330
F7E
102
}
330
21
100
AcDbEntity
  8
実線
100
AcDbPolyline
 90
        6
 70
     0
 43
0.0
 10
142.334222411574
 20
179.8602086506095
 10
142.334222411574
 20
214.6315439579649
 10
140.334222411574
 20
216.6315439579649
 10
132.334222411574
 20
216.6315439579649
 10
130.334222411574
 20
214.6315439579649
 10
130.334222411574
 20
168.5834194710428
  0
MTEXT
  5
1263
330
21
100
AcDbEntity
  8
文字・寸法線
 62
     0
100
AcDbMText
 10
92.53554739457988
 20
253.8979600899488
 30
0.0
 40
6.0
 41
0.0
 46
6.0
 71
     9
 72
     1
  1
{\fＭＳ ゴシック|b0|i0|c0|p0;S-D M12X150}
 73
     1
 44
1.0
1001
ACAD
1000
ACAD_MTEXT_DEFINED_HEIGHT_BEGIN
1070
    46
1040
6.0
1000
ACAD_MTEXT_DEFINED_HEIGHT_END
  0
VIEWPORT
  5
122A
330
1226
100
AcDbEntity
 67
     1
  8
0
100
AcDbViewport
 10
203.7291666666666
 20
142.1694444444444
 30
0.0
 40
488.9499999999999
 41
341.2066666666665
 68
     1
 69
     1
 12
203.7291666666666
 22
142.1694444444444
 13
0.0
 23
0.0
 14
0.5
 24
0.5
 15
0.0
 25
0.0
 16
0.0
 26
0.0
 36
1.0
 17
0.0
 27
0.0
 37
0.0
 42
50.0
 43
0.0
 44
0.0
 45
341.2066666666665
 50
0.0
 51
0.0
 72
   100
 90
   557152
  1

281
     0
 71
     1
 74
     0
110
0.0
120
0.0
130
0.0
111
1.0
121
0.0
131
0.0
112
0.0
122
1.0
132
0.0
 79
     0
146
0.0
170
     0
 61
     5
348
11E8
292
     1
282
     1
141
0.0
142
0.0
 63
   256
361
122C
  0
VIEWPORT
  5
122B
330
1226
100
AcDbEntity
 67
     1
  8
0
100
AcDbViewport
 10
203.7291666666666
 20
142.1694444444444
 30
0.0
 40
325.9666666666666
 41
227.471111111111
 68
     2
 69
     2
 12
220.8591334722594
 22
132.1901932081553
 13
0.0
 23
0.0
 14
0.5
 24
0.5
 15
0.0
 25
0.0
 16
0.0
 26
0.0
 36
1.0
 17
0.0
 27
0.0
 37
0.0
 42
50.0
 43
0.0
 44
0.0
 45
273.1967005607848
 50
0.0
 51
0.0
 72
   100
 90
   557152
  1

281
     0
 71
     1
 74
     0
110
0.0
120
0.0
130
0.0
111
1.0
121
0.0
131
0.0
112
0.0
122
1.0
132
0.0
 79
     0
146
0.0
170
     0
 61
     5
348
11E8
292
     1
282
     1
141
0.0
142
0.0
 63
   256
  0
ENDSEC
  0
SECTION
  2
OBJECTS
  0
DICTIONARY
  5
C
330
0
100
AcDbDictionary
281
     1
  3
ACAD_COLOR
350
1C
  3
ACAD_DETAILVIEWSTYLE
350
1235
  3
ACAD_GROUP
350
D
  3
ACAD_IMAGE_VARS
350
1225
  3
ACAD_LAYOUT
350
1A
  3
ACAD_MATERIAL
350
1B
  3
ACAD_MLEADERSTYLE
350
1233
  3
ACAD_MLINESTYLE
350
17
  3
ACAD_PLOTSETTINGS
350
19
  3
ACAD_PLOTSTYLENAME
350
E
  3
ACAD_SCALELIST
350
11FC
  3
ACAD_SECTIONVIEWSTYLE
350
1236
  3
ACAD_TABLESTYLE
350
1221
  3
ACAD_VISUALSTYLE
350
11E3
  3
AcadDim
350
657
  3
ACDB_RECOMPOSE_DATA
350
1266
  3
AcDbVariableDictionary
350
11BA
  3
APPDATA
350
1223
  0
SUN
  5
122D
330
11D5
100
AcDbSun
 90
        1
290
     0
 63
     7
421
 16777215
 40
1.0
291
     1
 91
  2455826
 92
 54000000
292
     0
 70
     2
 71
   256
280
     1
  0
DICTIONARY
  5
F5E
330
2
100
AcDbDictionary
280
     1
281
     1
  3
ACAD_LAYERSTATES
360
F5F
  0
DICTIONARY
  5
D0F
330
D0E
100
AcDbDictionary
280
     1
281
     1
  0
DICTIONARY
  5
D12
330
D11
100
AcDbDictionary
280
     1
281
     1
  3
ACAD_DIMASSOC
360
D13
  0
DICTIONARY
  5
D15
330
D14
100
AcDbDictionary
280
     1
281
     1
  3
ACAD_DIMASSOC
360
D16
  0
DICTIONARY
  5
D19
330
D18
100
AcDbDictionary
280
     1
281
     1
  3
ACAD_DIMASSOC
360
D1A
  0
DICTIONARY
  5
D1C
330
D1B
100
AcDbDictionary
280
     1
281
     1
  3
ACAD_DIMASSOC
360
D1D
  0
DICTIONARY
  5
D23
330
D22
100
AcDbDictionary
280
     1
281
     1
  3
ACAD_DIMASSOC
360
D24
  0
DICTIONARY
  5
D26
330
D25
100
AcDbDictionary
280
     1
281
     1
  3
ACAD_DIMASSOC
360
D27
  0
DICTIONARY
  5
D29
330
D28
100
AcDbDictionary
280
     1
281
     1
  3
ACAD_DIMASSOC
360
D2A
  0
DICTIONARY
  5
D40
330
D3F
100
AcDbDictionary
280
     1
281
     1
  3
ACAD_DIMASSOC
360
D41
  0
DICTIONARY
  5
D43
330
D42
100
AcDbDictionary
280
     1
281
     1
  3
ACAD_DIMASSOC
360
D44
  0
DICTIONARY
  5
D4A
330
D49
100
AcDbDictionary
280
     1
281
     1
  3
ACAD_DIMASSOC
360
D4B
  0
DICTIONARY
  5
EF4
330
EF2
100
AcDbDictionary
280
     1
281
     1
  3
ACAD_DIMASSOC
360
EF5
  0
SUN
  5
122C
330
122A
100
AcDbSun
 90
        1
290
     0
 63
     7
421
 16777215
 40
1.0
291
     1
 91
  2455826
 92
 54000000
292
     0
 70
     2
 71
   256
280
     1
  0
DICTIONARY
  5
1C
102
{ACAD_REACTORS
330
C
102
}
330
C
100
AcDbDictionary
281
     1
  0
DICTIONARY
  5
1235
102
{ACAD_REACTORS
330
C
102
}
330
C
100
AcDbDictionary
281
     1
  0
DICTIONARY
  5
D
102
{ACAD_REACTORS
330
C
102
}
330
C
100
AcDbDictionary
281
     1
  0
RASTERVARIABLES
  5
1225
102
{ACAD_REACTORS
330
C
102
}
330
C
100
AcDbRasterVariables
 90
        0
 70
     1
 71
     1
 72
     1
  0
DICTIONARY
  5
1A
102
{ACAD_REACTORS
330
C
102
}
330
C
100
AcDbDictionary
281
     1
  3
Model
350
24
  3
Sheet1
350
1227
  0
DICTIONARY
  5
1B
102
{ACAD_REACTORS
330
C
102
}
330
C
100
AcDbDictionary
281
     1
  3
ByBlock
350
121F
  3
ByLayer
350
121E
  3
Global
350
1220
  0
DICTIONARY
  5
1233
102
{ACAD_REACTORS
330
C
102
}
330
C
100
AcDbDictionary
281
     1
  0
DICTIONARY
  5
17
102
{ACAD_REACTORS
330
C
102
}
330
C
100
AcDbDictionary
281
     1
  3
Standard
350
18
  0
DICTIONARY
  5
19
102
{ACAD_REACTORS
330
C
102
}
330
C
100
AcDbDictionary
281
     1
  0
ACDBDICTIONARYWDFLT
  5
E
102
{ACAD_REACTORS
330
C
102
}
330
C
100
AcDbDictionary
281
     1
  3
Normal
350
F
100
AcDbDictionaryWithDefault
340
F
  0
DICTIONARY
  5
11FC
102
{ACAD_REACTORS
330
C
102
}
330
C
100
AcDbDictionary
281
     1
  3
A0
350
11FD
  3
A1
350
11FE
  3
A2
350
11FF
  3
A3
350
1200
  3
A4
350
1201
  3
A5
350
1202
  3
A6
350
1203
  3
A7
350
1204
  3
A8
350
1205
  3
A9
350
1206
  3
B0
350
1207
  3
B1
350
1208
  3
B2
350
1209
  3
B3
350
120A
  3
B4
350
120B
  3
B5
350
120C
  3
B6
350
120D
  3
B7
350
120E
  3
B8
350
120F
  3
B9
350
1210
  3
C0
350
1211
  3
C1
350
1212
  3
C2
350
1213
  3
C3
350
1214
  3
C4
350
1215
  3
C5
350
1216
  3
C6
350
1217
  3
C7
350
1218
  3
C8
350
1219
  3
C9
350
121A
  3
D0
350
121B
  3
D1
350
121C
  3
D2
350
121D
  0
DICTIONARY
  5
1236
102
{ACAD_REACTORS
330
C
102
}
330
C
100
AcDbDictionary
281
     1
  0
DICTIONARY
  5
1221
102
{ACAD_REACTORS
330
C
102
}
330
C
100
AcDbDictionary
281
     1
  3
Standard
350
1222
  0
DICTIONARY
  5
11E3
102
{ACAD_REACTORS
330
C
102
}
330
C
100
AcDbDictionary
281
     1
  3
2dWireframe
350
11E8
  3
Basic
350
11EB
  3
Brighten
350
11EF
  3
ColorChange
350
11F3
  3
Conceptual
350
11ED
  3
Dim
350
11EE
  3
EdgeColorOff
350
11F6
  3
Facepattern
350
11F2
  3
Flat
350
11E4
  3
FlatWithEdges
350
11E5
  3
Gouraud
350
11E6
  3
GouraudWithEdges
350
11E7
  3
Hidden
350
11EA
  3
JitterOff
350
11F4
  3
Linepattern
350
11F1
  3
OverhangOff
350
11F5
  3
Realistic
350
11EC
  3
Shaded
350
11FB
  3
Shaded with edges
350
11FA
  3
Shades of Gray
350
11F7
  3
Sketchy
350
11F8
  3
Thicken
350
11F0
  3
Wireframe
350
11E9
  3
X-Ray
350
11F9
  0
XRECORD
  5
657
102
{ACAD_REACTORS
330
C
102
}
330
C
100
AcDbXrecord
280
     1
 90
   990106
  3

 60
     0
 61
     0
 62
     4
 63
     4
 64
     1
 65
     0
 66
     0
 67
     3
 68
     1
 69
     0
 70
     0
 71
     0
 72
     0
 40
0.0
170
     2
340
EF3
  0
XRECORD
  5
1266
102
{ACAD_REACTORS
330
C
102
}
330
C
100
AcDbXrecord
280
     1
 90
        1
330
1222
  0
DICTIONARY
  5
11BA
102
{ACAD_REACTORS
330
C
102
}
330
C
100
AcDbDictionary
281
     1
  3
CANNOSCALE
350
122E
  3
CTABLESTYLE
350
1232
  3
DIMASSOC
350
11BC
  3
HIDETEXT
350
11BB
  3
MSLTSCALE
350
1234
  3
PROJECTNAME
350
11BD
  0
DICTIONARY
  5
1223
102
{ACAD_REACTORS
330
C
102
}
330
C
100
AcDbDictionary
281
     1
  0
DICTIONARY
  5
F5F
102
{ACAD_REACTORS
330
F5E
102
}
330
F5E
100
AcDbDictionary
281
     1
  3
画層
350
F60
  0
DIMASSOC
  5
D13
102
{ACAD_REACTORS
330
D12
102
}
330
D12
100
AcDbDimAssoc
330
D11
 90
        2
 70
     0
 71
     0
  1
AcDbOsnapPointRef
 72
    13
331
D17
 73
     2
 91
        0
 40
0.0
 10
0.0
 20
0.0
 30
2.000000000000000E+50
 75
     0
  0
DIMASSOC
  5
D16
102
{ACAD_REACTORS
330
D15
102
}
330
D15
100
AcDbDimAssoc
330
D14
 90
        3
 70
     0
 71
     0
  1
AcDbOsnapPointRef
 72
     6
331
D21
 73
     2
 91
        0
 40
0.7971007843262793
 10
0.0
 20
0.0
 30
0.0
332
D3C
 74
     2
 92
        0
 75
     0
  1
AcDbOsnapPointRef
 72
     1
331
D20
 73
     2
 91
        0
 40
1.0
 10
0.0
 20
0.0
 30
2.000000000000000E+50
 75
     0
  0
DIMASSOC
  5
D1A
102
{ACAD_REACTORS
330
D19
102
}
330
D19
100
AcDbDimAssoc
330
D18
 90
        3
 70
     0
 71
     0
  1
AcDbOsnapPointRef
 72
     6
331
D20
 73
     2
 91
        0
 40
0.8584651224487634
 10
0.0
 20
0.0
 30
0.0
332
D3C
 74
     2
 92
        0
 75
     0
  1
AcDbOsnapPointRef
 72
     6
331
D1F
 73
     2
 91
        0
 40
0.8852138574067738
 10
0.0
 20
0.0
 30
0.0
332
D3C
 74
     2
 92
        0
 75
     0
  0
DIMASSOC
  5
D1D
102
{ACAD_REACTORS
330
D1C
102
}
330
D1C
100
AcDbDimAssoc
330
D1B
 90
        1
 70
     0
 71
     0
  1
AcDbOsnapPointRef
 72
     6
331
D20
 73
     2
 91
        0
 40
0.6622445230319032
 10
0.0
 20
0.0
 30
0.0
332
D39
 74
     2
 92
        0
 75
     0
  0
DIMASSOC
  5
D24
102
{ACAD_REACTORS
330
D23
102
}
330
D23
100
AcDbDimAssoc
330
D22
 90
        3
 70
     0
 71
     0
  1
AcDbOsnapPointRef
 72
    13
331
D30
 73
     2
 91
        0
 40
0.0
 10
0.0
 20
0.0
 30
2.000000000000000E+50
 75
     0
  1
AcDbOsnapPointRef
 72
     1
331
D2F
 73
     2
 91
        0
 40
1.0
 10
0.0
 20
0.0
 30
2.000000000000000E+50
 75
     0
  0
DIMASSOC
  5
D27
102
{ACAD_REACTORS
330
D26
102
}
330
D26
100
AcDbDimAssoc
330
D25
 90
        3
 70
     0
 71
     0
  1
AcDbOsnapPointRef
 72
     1
331
D2F
 73
     2
 91
        0
 40
1.0
 10
0.0
 20
0.0
 30
2.000000000000000E+50
 75
     0
  1
AcDbOsnapPointRef
 72
    13
331
D2F
 73
     2
 91
        0
 40
0.0
 10
0.0
 20
0.0
 30
2.000000000000000E+50
 75
     0
  0
DIMASSOC
  5
D2A
102
{ACAD_REACTORS
330
D29
102
}
330
D29
100
AcDbDimAssoc
330
D28
 90
        3
 70
     0
 71
     0
  1
AcDbOsnapPointRef
 72
     6
331
D2D
 73
     2
 91
        0
 40
4.712388980384723
 10
0.0
 20
0.0
 30
0.0
332
D36
 74
     2
 92
        0
 75
     0
  1
AcDbOsnapPointRef
 72
    13
331
D2F
 73
     2
 91
        0
 40
0.0
 10
0.0
 20
0.0
 30
2.000000000000000E+50
 75
     0
  0
DIMASSOC
  5
D41
102
{ACAD_REACTORS
330
D40
102
}
330
D40
100
AcDbDimAssoc
330
D3F
 90
        3
 70
     0
 71
     0
  1
AcDbOsnapPointRef
 72
    13
331
D47
 73
     2
 91
        0
 40
0.0
 10
0.0
 20
0.0
 30
2.000000000000000E+50
 75
     0
  1
AcDbOsnapPointRef
 72
     1
331
D47
 73
     2
 91
        0
 40
1.0
 10
0.0
 20
0.0
 30
2.000000000000000E+50
 75
     0
  0
DIMASSOC
  5
D44
102
{ACAD_REACTORS
330
D43
102
}
330
D43
100
AcDbDimAssoc
330
D42
 90
        3
 70
     0
 71
     0
  1
AcDbOsnapPointRef
 72
    13
331
D45
 73
     2
 91
        0
 40
0.0
 10
0.0
 20
0.0
 30
2.000000000000000E+50
 75
     0
  1
AcDbOsnapPointRef
 72
     1
331
D56
 73
     2
 91
        1
 40
1.0
 10
0.0
 20
0.0
 30
2.000000000000000E+50
 75
     0
  0
DIMASSOC
  5
D4B
102
{ACAD_REACTORS
330
D4A
102
}
330
D4A
100
AcDbDimAssoc
330
D49
 90
        3
 70
     0
 71
     0
  1
AcDbOsnapPointRef
 72
    13
331
D50
 73
     2
 91
        1
 40
0.0
 10
0.0
 20
0.0
 30
2.000000000000000E+50
 75
     0
  1
AcDbOsnapPointRef
 72
     1
331
D50
 73
     2
 91
        2
 40
1.0
 10
0.0
 20
0.0
 30
2.000000000000000E+50
 75
     0
  0
DIMASSOC
  5
EF5
102
{ACAD_REACTORS
330
EF4
102
}
330
EF4
100
AcDbDimAssoc
330
EF2
 90
        1
 70
     0
 71
     0
  1
AcDbOsnapPointRef
 72
     3
331
D3B
 73
     2
 91
        0
 40
1.737641715581558
 10
0.0
 20
0.0
 30
0.0
 75
     0
  0
LAYOUT
  5
24
102
{ACAD_REACTORS
330
1A
102
}
330
1A
100
AcDbPlotSettings
  1

  2
\\NEC\EPSON
  4
A4
  6

 40
3.757083177566528
 41
14.7637300491333
 42
3.757080078125
 43
3.757080078125
 44
209.9733276367188
 45
296.9683227539062
 46
10.0
 47
5.0
 48
0.0
 49
0.0
140
0.0
141
0.0
142
1.0
143
1.1
 70
 11936
 72
     1
 73
     1
 74
     1
  7

 75
     0
 76
     0
 77
     2
 78
   180
147
0.9090909090909091
148
0.025633200973175
149
0.0181263349739993
100
AcDbLayout
  1
Model
 70
     1
 71
     0
 10
0.0
 20
0.0
 11
12.0
 21
9.0
 12
0.0
 22
0.0
 32
0.0
 14
38.4603913980452
 24
65.79632849307369
 34
0.0
 15
351.5745644736853
 25
259.8979600899488
 35
0.0
146
0.0
 13
0.0
 23
0.0
 33
0.0
 16
1.0
 26
0.0
 36
0.0
 17
0.0
 27
1.0
 37
0.0
 76
     0
330
21
331
11D5
  0
LAYOUT
  5
1227
102
{ACAD_REACTORS
330
1A
102
}
330
1A
100
AcDbPlotSettings
  1

  2
none_device
  4
iso-a3
  6

 40
6.35
 41
6.35
 42
6.35
 43
6.35
 44
297.0388888888888
 45
420.1583333333333
 46
0.0
 47
0.0
 48
0.0
 49
0.0
140
0.0
141
0.0
142
1.0
143
1.0
 70
   688
 72
     1
 73
     1
 74
     5
  7

 75
    16
 76
     0
 77
     2
 78
   300
147
1.0
148
0.0
149
0.0
100
AcDbLayout
  1
Sheet1
 70
     1
 71
     1
 10
0.0
 20
0.0
 11
0.0
 21
0.0
 12
0.0
 22
0.0
 32
0.0
 14
0.0
 24
0.0
 34
0.0
 15
0.0
 25
0.0
 35
0.0
146
0.0
 13
0.0
 23
0.0
 33
0.0
 16
1.0
 26
0.0
 36
0.0
 17
0.0
 27
1.0
 37
0.0
 76
     0
330
1226
331
122A
  0
MATERIAL
  5
121F
102
{ACAD_REACTORS
330
1B
102
}
330
1B
100
AcDbMaterial
  1
ByBlock
 72
     1
 94
      127
  0
MATERIAL
  5
121E
102
{ACAD_REACTORS
330
1B
102
}
330
1B
100
AcDbMaterial
  1
ByLayer
 72
     1
 94
      127
  0
MATERIAL
  5
1220
102
{ACAD_REACTORS
330
1B
102
}
330
1B
100
AcDbMaterial
  1
Global
 72
     1
 94
      127
  0
MLINESTYLE
  5
18
102
{ACAD_REACTORS
330
17
102
}
330
17
100
AcDbMlineStyle
  2
STANDARD
 70
     0
  3

 62
   256
 51
90.0
 52
90.0
 71
     2
 49
0.5
 62
   256
  6
BYLAYER
 49
-0.5
 62
   256
  6
BYLAYER
  0
ACDBPLACEHOLDER
  5
F
102
{ACAD_REACTORS
330
E
102
}
330
E
  0
SCALE
  5
11FD
102
{ACAD_REACTORS
330
11FC
102
}
330
11FC
100
AcDbScale
 70
     0
300
1:1
140
1.0
141
1.0
290
     1
  0
SCALE
  5
11FE
102
{ACAD_REACTORS
330
11FC
102
}
330
11FC
100
AcDbScale
 70
     0
300
1:2
140
1.0
141
2.0
290
     0
  0
SCALE
  5
11FF
102
{ACAD_REACTORS
330
11FC
102
}
330
11FC
100
AcDbScale
 70
     0
300
1:4
140
1.0
141
4.0
290
     0
  0
SCALE
  5
1200
102
{ACAD_REACTORS
330
11FC
102
}
330
11FC
100
AcDbScale
 70
     0
300
1:5
140
1.0
141
5.0
290
     0
  0
SCALE
  5
1201
102
{ACAD_REACTORS
330
11FC
102
}
330
11FC
100
AcDbScale
 70
     0
300
1:8
140
1.0
141
8.0
290
     0
  0
SCALE
  5
1202
102
{ACAD_REACTORS
330
11FC
102
}
330
11FC
100
AcDbScale
 70
     0
300
1:10
140
1.0
141
10.0
290
     0
  0
SCALE
  5
1203
102
{ACAD_REACTORS
330
11FC
102
}
330
11FC
100
AcDbScale
 70
     0
300
1:16
140
1.0
141
16.0
290
     0
  0
SCALE
  5
1204
102
{ACAD_REACTORS
330
11FC
102
}
330
11FC
100
AcDbScale
 70
     0
300
1:20
140
1.0
141
20.0
290
     0
  0
SCALE
  5
1205
102
{ACAD_REACTORS
330
11FC
102
}
330
11FC
100
AcDbScale
 70
     0
300
1:30
140
1.0
141
30.0
290
     0
  0
SCALE
  5
1206
102
{ACAD_REACTORS
330
11FC
102
}
330
11FC
100
AcDbScale
 70
     0
300
1:40
140
1.0
141
40.0
290
     0
  0
SCALE
  5
1207
102
{ACAD_REACTORS
330
11FC
102
}
330
11FC
100
AcDbScale
 70
     0
300
1:50
140
1.0
141
50.0
290
     0
  0
SCALE
  5
1208
102
{ACAD_REACTORS
330
11FC
102
}
330
11FC
100
AcDbScale
 70
     0
300
1:100
140
1.0
141
100.0
290
     0
  0
SCALE
  5
1209
102
{ACAD_REACTORS
330
11FC
102
}
330
11FC
100
AcDbScale
 70
     0
300
2:1
140
2.0
141
1.0
290
     0
  0
SCALE
  5
120A
102
{ACAD_REACTORS
330
11FC
102
}
330
11FC
100
AcDbScale
 70
     0
300
4:1
140
4.0
141
1.0
290
     0
  0
SCALE
  5
120B
102
{ACAD_REACTORS
330
11FC
102
}
330
11FC
100
AcDbScale
 70
     0
300
8:1
140
8.0
141
1.0
290
     0
  0
SCALE
  5
120C
102
{ACAD_REACTORS
330
11FC
102
}
330
11FC
100
AcDbScale
 70
     0
300
10:1
140
10.0
141
1.0
290
     0
  0
SCALE
  5
120D
102
{ACAD_REACTORS
330
11FC
102
}
330
11FC
100
AcDbScale
 70
     0
300
100:1
140
100.0
141
1.0
290
     0
  0
SCALE
  5
120E
102
{ACAD_REACTORS
330
11FC
102
}
330
11FC
100
AcDbScale
 70
     0
300
1/128" = 1'-0"
140
0.0078125
141
12.0
290
     0
  0
SCALE
  5
120F
102
{ACAD_REACTORS
330
11FC
102
}
330
11FC
100
AcDbScale
 70
     0
300
1/64" = 1'-0"
140
0.015625
141
12.0
290
     0
  0
SCALE
  5
1210
102
{ACAD_REACTORS
330
11FC
102
}
330
11FC
100
AcDbScale
 70
     0
300
1/32" = 1'-0"
140
0.03125
141
12.0
290
     0
  0
SCALE
  5
1211
102
{ACAD_REACTORS
330
11FC
102
}
330
11FC
100
AcDbScale
 70
     0
300
1/16" = 1'-0"
140
0.0625
141
12.0
290
     0
  0
SCALE
  5
1212
102
{ACAD_REACTORS
330
11FC
102
}
330
11FC
100
AcDbScale
 70
     0
300
3/32" = 1'-0"
140
0.09375
141
12.0
290
     0
  0
SCALE
  5
1213
102
{ACAD_REACTORS
330
11FC
102
}
330
11FC
100
AcDbScale
 70
     0
300
1/8" = 1'-0"
140
0.125
141
12.0
290
     0
  0
SCALE
  5
1214
102
{ACAD_REACTORS
330
11FC
102
}
330
11FC
100
AcDbScale
 70
     0
300
3/16" = 1'-0"
140
0.1875
141
12.0
290
     0
  0
SCALE
  5
1215
102
{ACAD_REACTORS
330
11FC
102
}
330
11FC
100
AcDbScale
 70
     0
300
1/4" = 1'-0"
140
0.25
141
12.0
290
     0
  0
SCALE
  5
1216
102
{ACAD_REACTORS
330
11FC
102
}
330
11FC
100
AcDbScale
 70
     0
300
3/8" = 1'-0"
140
0.375
141
12.0
290
     0
  0
SCALE
  5
1217
102
{ACAD_REACTORS
330
11FC
102
}
330
11FC
100
AcDbScale
 70
     0
300
1/2" = 1'-0"
140
0.5
141
12.0
290
     0
  0
SCALE
  5
1218
102
{ACAD_REACTORS
330
11FC
102
}
330
11FC
100
AcDbScale
 70
     0
300
3/4" = 1'-0"
140
0.75
141
12.0
290
     0
  0
SCALE
  5
1219
102
{ACAD_REACTORS
330
11FC
102
}
330
11FC
100
AcDbScale
 70
     0
300
1" = 1'-0"
140
1.0
141
12.0
290
     0
  0
SCALE
  5
121A
102
{ACAD_REACTORS
330
11FC
102
}
330
11FC
100
AcDbScale
 70
     0
300
1-1/2" = 1'-0"
140
1.5
141
12.0
290
     0
  0
SCALE
  5
121B
102
{ACAD_REACTORS
330
11FC
102
}
330
11FC
100
AcDbScale
 70
     0
300
3" = 1'-0"
140
3.0
141
12.0
290
     0
  0
SCALE
  5
121C
102
{ACAD_REACTORS
330
11FC
102
}
330
11FC
100
AcDbScale
 70
     0
300
6" = 1'-0"
140
6.0
141
12.0
290
     0
  0
SCALE
  5
121D
102
{ACAD_REACTORS
330
11FC
102
}
330
11FC
100
AcDbScale
 70
     0
300
1'-0" = 1'-0"
140
12.0
141
12.0
290
     0
  0
TABLESTYLE
  5
1222
102
{ACAD_REACTORS
330
1221
102
}
102
{ACAD_XDICTIONARY
360
1264
102
}
330
1221
100
AcDbTableStyle
  3
Standard
 70
     0
 71
     0
 40
0.06
 41
0.06
280
     0
281
     0
  7
Standard
140
4.5
170
     2
 62
     0
 63
   257
283
     0
 90
        4
 91
        0
  1

274
    -2
284
     1
 64
     0
275
    -2
285
     1
 65
     0
276
    -2
286
     1
 66
     0
277
    -2
287
     1
 67
     0
278
    -2
288
     1
 68
     0
279
    -2
289
     1
 69
     0
  7
Standard
140
6.0
170
     5
 62
     0
 63
   257
283
     0
 90
        4
 91
        0
  1

274
    -2
284
     1
 64
     0
275
    -2
285
     1
 65
     0
276
    -2
286
     1
 66
     0
277
    -2
287
     1
 67
     0
278
    -2
288
     1
 68
     0
279
    -2
289
     1
 69
     0
  7
Standard
140
4.5
170
     5
 62
     0
 63
   257
283
     0
 90
        4
 91
        0
  1

274
    -2
284
     1
 64
     0
275
    -2
285
     1
 65
     0
276
    -2
286
     1
 66
     0
277
    -2
287
     1
 67
     0
278
    -2
288
     1
 68
     0
279
    -2
289
     1
 69
     0
  0
VISUALSTYLE
  5
11E8
102
{ACAD_REACTORS
330
11E3
102
}
330
11E3
100
AcDbVisualStyle
  2
2dWireframe
 70
     4
177
     3
291
     0
 70
    58
 90
        0
176
     1
 90
        2
176
     1
 90
        0
176
     1
 90
        0
176
     1
 40
0.6
176
     1
 40
30.0
176
     1
 62
     7
420
 16777215
176
     1
 90
        1
176
     1
 90
        4
176
     1
 62
     7
176
     1
 62
   257
176
     1
 90
        1
176
     1
 90
        1
176
     1
 40
1.0
176
     1
 90
        0
176
     1
 62
   257
176
     1
 40
1.0
176
     1
 90
        1
176
     1
 90
        6
176
     1
 90
        2
176
     1
 62
     7
176
     1
 90
        5
176
     1
 90
        0
176
     1
 90
        0
176
     1
290
     0
176
     1
 90
        1
176
     1
 40
0.0
176
     1
 90
        0
176
     1
290
     1
176
     1
290
     1
176
     1
290
     0
176
     1
290
     0
176
     1
290
     0
176
     1
290
     0
176
     1
290
     0
176
     1
290
     0
176
     1
290
     0
176
     1
 90
       50
176
     1
 40
0.0
176
     1
 40
1.0
176
     1
 90
        0
176
     1
 62
    18
420
        0
176
     1
 90
       50
176
     1
 90
        3
176
     1
 62
     5
420
      255
176
     1
290
     0
176
     1
 90
       50
176
     1
 90
       50
176
     1
 90
       50
176
     1
290
     0
176
     1
 90
       50
176
     1
 62
   256
176
     0
 40
1.0
176
     0
 90
        2
176
     1
  1
strokes_ogs.tif
176
     1
290
     0
176
     1
 40
1.0
176
     1
 40
1.0
176
     1
  0
VISUALSTYLE
  5
11EB
102
{ACAD_REACTORS
330
11E3
102
}
330
11E3
100
AcDbVisualStyle
  2
Basic
 70
     7
177
     3
291
     1
 70
    58
 90
        1
176
     1
 90
        0
176
     1
 90
        1
176
     1
 90
        0
176
     1
 40
0.6
176
     1
 40
30.0
176
     1
 62
     7
420
 16777215
176
     1
 90
        0
176
     1
 90
        4
176
     1
 62
     7
176
     1
 62
   257
176
     1
 90
        1
176
     1
 90
        1
176
     1
 40
1.0
176
     1
 90
        8
176
     1
 62
     7
176
     1
 40
1.0
176
     1
 90
        1
176
     1
 90
        6
176
     1
 90
        2
176
     1
 62
     7
176
     1
 90
        5
176
     1
 90
        0
176
     1
 90
        0
176
     1
290
     0
176
     1
 90
        1
176
     1
 40
0.0
176
     1
 90
        0
176
     1
290
     0
176
     1
290
     1
176
     1
290
     1
176
     1
290
     0
176
     1
290
     0
176
     1
290
     0
176
     1
290
     0
176
     1
290
     0
176
     1
290
     0
176
     1
 90
       50
176
     1
 40
0.0
176
     1
 40
1.0
176
     1
 90
        0
176
     1
 62
    18
420
        0
176
     1
 90
       50
176
     1
 90
        3
176
     1
 62
     5
420
      255
176
     1
290
     0
176
     1
 90
       50
176
     1
 90
       50
176
     1
 90
       50
176
     1
290
     0
176
     1
 90
       50
176
     1
 62
   256
176
     0
 40
1.0
176
     0
 90
        2
176
     1
  1
strokes_ogs.tif
176
     1
290
     0
176
     1
 40
1.0
176
     1
 40
1.0
176
     1
  0
VISUALSTYLE
  5
11EF
102
{ACAD_REACTORS
330
11E3
102
}
330
11E3
100
AcDbVisualStyle
  2
Brighten
 70
    12
177
     3
291
     1
 70
    58
 90
        2
176
     1
 90
        2
176
     1
 90
        0
176
     1
 90
        0
176
     1
 40
0.6
176
     1
 40
30.0
176
     1
 62
     7
420
 16777215
176
     1
 90
        1
176
     1
 90
        4
176
     1
 62
     7
176
     1
 62
   257
176
     1
 90
        1
176
     1
 90
        1
176
     1
 40
1.0
176
     1
 90
        8
176
     1
 62
     7
176
     1
 40
1.0
176
     1
 90
        1
176
     1
 90
        6
176
     1
 90
        2
176
     1
 62
     7
176
     1
 90
        5
176
     1
 90
        0
176
     1
 90
        0
176
     1
290
     0
176
     1
 90
        1
176
     1
 40
50.0
176
     1
 90
        0
176
     1
290
     0
176
     1
290
     1
176
     1
290
     1
176
     1
290
     0
176
     1
290
     0
176
     1
290
     0
176
     1
290
     0
176
     1
290
     0
176
     1
290
     0
176
     1
 90
       50
176
     1
 40
0.0
176
     1
 40
1.0
176
     1
 90
        0
176
     1
 62
    18
420
        0
176
     1
 90
       50
176
     1
 90
        3
176
     1
 62
     5
420
      255
176
     1
290
     0
176
     1
 90
       50
176
     1
 90
       50
176
     1
 90
       50
176
     1
290
     0
176
     1
 90
       50
176
     1
 62
   256
176
     0
 40
1.0
176
     0
 90
        2
176
     1
  1
strokes_ogs.tif
176
     1
290
     0
176
     1
 40
1.0
176
     1
 40
1.0
176
     1
  0
VISUALSTYLE
  5
11F3
102
{ACAD_REACTORS
330
11E3
102
}
330
11E3
100
AcDbVisualStyle
  2
ColorChange
 70
    16
177
     3
291
     1
 70
    58
 90
        2
176
     1
 90
        2
176
     1
 90
        3
176
     1
 90
        0
176
     1
 40
0.6
176
     1
 40
30.0
176
     1
 62
     8
420
  8421504
176
     1
 90
        1
176
     1
 90
        4
176
     1
 62
     7
176
     1
 62
   257
176
     1
 90
        1
176
     1
 90
        1
176
     1
 40
1.0
176
     1
 90
        8
176
     1
 62
     8
420
  8421504
176
     1
 40
1.0
176
     1
 90
        1
176
     1
 90
        6
176
     1
 90
        2
176
     1
 62
     7
176
     1
 90
        5
176
     1
 90
        0
176
     1
 90
        0
176
     1
290
     0
176
     1
 90
        1
176
     1
 40
0.0
176
     1
 90
        0
176
     1
290
     0
176
     1
290
     1
176
     1
290
     1
176
     1
290
     0
176
     1
290
     0
176
     1
290
     0
176
     1
290
     0
176
     1
290
     0
176
     1
290
     0
176
     1
 90
       50
176
     1
 40
0.0
176
     1
 40
1.0
176
     1
 90
        0
176
     1
 62
    18
420
        0
176
     1
 90
       50
176
     1
 90
        3
176
     1
 62
     5
420
      255
176
     1
290
     0
176
     1
 90
       50
176
     1
 90
       50
176
     1
 90
       50
176
     1
290
     0
176
     1
 90
       50
176
     1
 62
   256
176
     0
 40
1.0
176
     0
 90
        2
176
     1
  1
strokes_ogs.tif
176
     1
290
     0
176
     1
 40
1.0
176
     1
 40
1.0
176
     1
  0
VISUALSTYLE
  5
11ED
102
{ACAD_REACTORS
330
11E3
102
}
330
11E3
100
AcDbVisualStyle
  2
Conceptual
 70
     9
177
     3
291
     0
 70
    58
 90
        3
176
     1
 90
        2
176
     1
 90
        0
176
     1
 90
        0
176
     1
 40
0.6
176
     1
 40
30.0
176
     1
 62
     7
420
 16777215
176
     1
 90
        2
176
     1
 90
        2
176
     1
 62
     7
176
     1
 62
   257
176
     1
 90
        1
176
     1
 90
        1
176
     1
 40
179.0
176
     1
 90
        8
176
     1
 62
     7
176
     1
 40
1.0
176
     1
 90
        1
176
     1
 90
        6
176
     1
 90
        2
176
     1
 62
     7
176
     1
 90
        3
176
     1
 90
        0
176
     1
 90
        0
176
     1
290
     0
176
     1
 90
        1
176
     1
 40
0.0
176
     1
 90
        0
176
     1
290
     0
176
     1
290
     1
176
     1
290
     1
176
     1
290
     0
176
     1
290
     0
176
     1
290
     0
176
     1
290
     0
176
     1
290
     0
176
     1
290
     0
176
     1
 90
       50
176
     1
 40
0.0
176
     1
 40
1.0
176
     1
 90
        0
176
     1
 62
    18
420
        0
176
     1
 90
       50
176
     1
 90
        3
176
     1
 62
     5
420
      255
176
     1
290
     0
176
     1
 90
       50
176
     1
 90
       50
176
     1
 90
       50
176
     1
290
     0
176
     1
 90
       50
176
     1
 62
   256
176
     0
 40
1.0
176
     0
 90
        2
176
     1
  1
strokes_ogs.tif
176
     1
290
     0
176
     1
 40
1.0
176
     1
 40
1.0
176
     1
  0
VISUALSTYLE
  5
11EE
102
{ACAD_REACTORS
330
11E3
102
}
330
11E3
100
AcDbVisualStyle
  2
Dim
 70
    11
177
     3
291
     1
 70
    58
 90
        2
176
     1
 90
        2
176
     1
 90
        0
176
     1
 90
        0
176
     1
 40
0.6
176
     1
 40
30.0
176
     1
 62
     7
420
 16777215
176
     1
 90
        1
176
     1
 90
        4
176
     1
 62
     7
176
     1
 62
   257
176
     1
 90
        1
176
     1
 90
        1
176
     1
 40
1.0
176
     1
 90
        8
176
     1
 62
     7
176
     1
 40
1.0
176
     1
 90
        1
176
     1
 90
        6
176
     1
 90
        2
176
     1
 62
     7
176
     1
 90
        5
176
     1
 90
        0
176
     1
 90
        0
176
     1
290
     0
176
     1
 90
        1
176
     1
 40
-50.0
176
     1
 90
        0
176
     1
290
     0
176
     1
290
     1
176
     1
290
     1
176
     1
290
     0
176
     1
290
     0
176
     1
290
     0
176
     1
290
     0
176
     1
290
     0
176
     1
290
     0
176
     1
 90
       50
176
     1
 40
0.0
176
     1
 40
1.0
176
     1
 90
        0
176
     1
 62
    18
420
        0
176
     1
 90
       50
176
     1
 90
        3
176
     1
 62
     5
420
      255
176
     1
290
     0
176
     1
 90
       50
176
     1
 90
       50
176
     1
 90
       50
176
     1
290
     0
176
     1
 90
       50
176
     1
 62
   256
176
     0
 40
1.0
176
     0
 90
        2
176
     1
  1
strokes_ogs.tif
176
     1
290
     0
176
     1
 40
1.0
176
     1
 40
1.0
176
     1
  0
VISUALSTYLE
  5
11F6
102
{ACAD_REACTORS
330
11E3
102
}
330
11E3
100
AcDbVisualStyle
  2
EdgeColorOff
 70
    22
177
     3
291
     1
 70
    58
 90
        2
176
     0
 90
        2
176
     0
 90
        0
176
     0
 90
        0
176
     0
 40
0.6
176
     0
 40
30.0
176
     0
 62
     7
420
 16777215
176
     0
 90
        1
176
     0
 90
        4
176
     0
 62
     7
176
     0
 62
   257
176
     0
 90
        1
176
     0
 90
        1
176
     0
 40
1.0
176
     0
 90
        8
176
     2
 62
     7
176
     0
 40
1.0
176
     0
 90
        1
176
     0
 90
        6
176
     0
 90
        2
176
     0
 62
     7
176
     0
 90
        5
176
     0
 90
        0
176
     0
 90
        0
176
     0
290
     0
176
     0
 90
        1
176
     0
 40
0.0
176
     0
 90
        0
176
     0
290
     0
176
     0
290
     1
176
     0
290
     1
176
     0
290
     0
176
     0
290
     0
176
     0
290
     0
176
     0
290
     0
176
     0
290
     0
176
     0
290
     0
176
     0
 90
       50
176
     0
 40
0.0
176
     0
 40
1.0
176
     0
 90
        0
176
     0
 62
    18
420
        0
176
     0
 90
       50
176
     0
 90
        3
176
     0
 62
     5
420
      255
176
     0
290
     0
176
     0
 90
       50
176
     0
 90
       50
176
     0
 90
       50
176
     0
290
     0
176
     0
 90
       50
176
     0
 62
   256
176
     0
 40
1.0
176
     0
 90
        2
176
     0
  1
strokes_ogs.tif
176
     0
290
     0
176
     0
 40
1.0
176
     0
 40
1.0
176
     0
  0
VISUALSTYLE
  5
11F2
102
{ACAD_REACTORS
330
11E3
102
}
330
11E3
100
AcDbVisualStyle
  2
Facepattern
 70
    15
177
     3
291
     1
 70
    58
 90
        2
176
     1
 90
        2
176
     1
 90
        0
176
     1
 90
        0
176
     1
 40
0.6
176
     1
 40
30.0
176
     1
 62
     7
420
 16777215
176
     1
 90
        1
176
     1
 90
        4
176
     1
 62
     7
176
     1
 62
   257
176
     1
 90
        1
176
     1
 90
        1
176
     1
 40
1.0
176
     1
 90
        8
176
     1
 62
     7
176
     1
 40
1.0
176
     1
 90
        1
176
     1
 90
        6
176
     1
 90
        2
176
     1
 62
     7
176
     1
 90
        5
176
     1
 90
        0
176
     1
 90
        0
176
     1
290
     0
176
     1
 90
        1
176
     1
 40
0.0
176
     1
 90
        0
176
     1
290
     0
176
     1
290
     1
176
     1
290
     1
176
     1
290
     0
176
     1
290
     0
176
     1
290
     0
176
     1
290
     0
176
     1
290
     0
176
     1
290
     0
176
     1
 90
       50
176
     1
 40
0.0
176
     1
 40
1.0
176
     1
 90
        0
176
     1
 62
    18
420
        0
176
     1
 90
       50
176
     1
 90
        3
176
     1
 62
     5
420
      255
176
     1
290
     0
176
     1
 90
       50
176
     1
 90
       50
176
     1
 90
       50
176
     1
290
     0
176
     1
 90
       50
176
     1
 62
   256
176
     0
 40
1.0
176
     0
 90
        2
176
     1
  1
strokes_ogs.tif
176
     1
290
     0
176
     1
 40
1.0
176
     1
 40
1.0
176
     1
  0
VISUALSTYLE
  5
11E4
102
{ACAD_REACTORS
330
11E3
102
}
330
11E3
100
AcDbVisualStyle
  2
Flat
 70
     0
177
     3
291
     1
 70
    58
 90
        2
176
     1
 90
        1
176
     1
 90
        1
176
     1
 90
        2
176
     1
 40
0.6
176
     1
 40
30.0
176
     1
 62
     7
420
 16777215
176
     1
 90
        0
176
     1
 90
        0
176
     1
 62
     7
176
     1
 62
   257
176
     1
 90
        1
176
     1
 90
        1
176
     1
 40
1.0
176
     1
 90
        8
176
     1
 62
     7
176
     1
 40
1.0
176
     1
 90
        1
176
     1
 90
        6
176
     1
 90
        2
176
     1
 62
     7
176
     1
 90
        5
176
     1
 90
        0
176
     1
 90
        0
176
     1
290
     0
176
     1
 90
       13
176
     1
 40
0.0
176
     1
 90
        0
176
     1
290
     0
176
     1
290
     1
176
     1
290
     1
176
     1
290
     0
176
     1
290
     0
176
     1
290
     0
176
     1
290
     0
176
     1
290
     0
176
     1
290
     0
176
     1
 90
       50
176
     1
 40
0.0
176
     1
 40
1.0
176
     1
 90
        0
176
     1
 62
    18
420
        0
176
     1
 90
       50
176
     1
 90
        3
176
     1
 62
     5
420
      255
176
     1
290
     0
176
     1
 90
       50
176
     1
 90
       50
176
     1
 90
       50
176
     1
290
     0
176
     1
 90
       50
176
     1
 62
   256
176
     0
 40
1.0
176
     0
 90
        2
176
     1
  1
strokes_ogs.tif
176
     1
290
     0
176
     1
 40
1.0
176
     1
 40
1.0
176
     1
  0
VISUALSTYLE
  5
11E5
102
{ACAD_REACTORS
330
11E3
102
}
330
11E3
100
AcDbVisualStyle
  2
FlatWithEdges
 70
     1
177
     3
291
     1
 70
    58
 90
        2
176
     1
 90
        1
176
     1
 90
        1
176
     1
 90
        2
176
     1
 40
0.6
176
     1
 40
30.0
176
     1
 62
     7
420
 16777215
176
     1
 90
        1
176
     1
 90
        0
176
     1
 62
     7
176
     1
 62
   257
176
     1
 90
        1
176
     1
 90
        1
176
     1
 40
1.0
176
     1
 90
        0
176
     1
 62
   257
176
     1
 40
1.0
176
     1
 90
        1
176
     1
 90
        6
176
     1
 90
        2
176
     1
 62
     7
176
     1
 90
        5
176
     1
 90
        0
176
     1
 90
        0
176
     1
290
     0
176
     1
 90
       13
176
     1
 40
0.0
176
     1
 90
        0
176
     1
290
     0
176
     1
290
     1
176
     1
290
     1
176
     1
290
     0
176
     1
290
     0
176
     1
290
     0
176
     1
290
     0
176
     1
290
     0
176
     1
290
     0
176
     1
 90
       50
176
     1
 40
0.0
176
     1
 40
1.0
176
     1
 90
        0
176
     1
 62
    18
420
        0
176
     1
 90
       50
176
     1
 90
        3
176
     1
 62
     5
420
      255
176
     1
290
     0
176
     1
 90
       50
176
     1
 90
       50
176
     1
 90
       50
176
     1
290
     0
176
     1
 90
       50
176
     1
 62
   256
176
     0
 40
1.0
176
     0
 90
        2
176
     1
  1
strokes_ogs.tif
176
     1
290
     0
176
     1
 40
1.0
176
     1
 40
1.0
176
     1
  0
VISUALSTYLE
  5
11E6
102
{ACAD_REACTORS
330
11E3
102
}
330
11E3
100
AcDbVisualStyle
  2
Gouraud
 70
     2
177
     3
291
     1
 70
    58
 90
        2
176
     1
 90
        2
176
     1
 90
        1
176
     1
 90
        2
176
     1
 40
0.6
176
     1
 40
30.0
176
     1
 62
     7
420
 16777215
176
     1
 90
        0
176
     1
 90
        0
176
     1
 62
     7
176
     1
 62
   257
176
     1
 90
        1
176
     1
 90
        1
176
     1
 40
1.0
176
     1
 90
        0
176
     1
 62
     7
176
     1
 40
1.0
176
     1
 90
        1
176
     1
 90
        6
176
     1
 90
        2
176
     1
 62
     7
176
     1
 90
        5
176
     1
 90
        0
176
     1
 90
        0
176
     1
290
     0
176
     1
 90
       13
176
     1
 40
0.0
176
     1
 90
        0
176
     1
290
     0
176
     1
290
     1
176
     1
290
     1
176
     1
290
     0
176
     1
290
     0
176
     1
290
     0
176
     1
290
     0
176
     1
290
     0
176
     1
290
     0
176
     1
 90
       50
176
     1
 40
0.0
176
     1
 40
1.0
176
     1
 90
        0
176
     1
 62
    18
420
        0
176
     1
 90
       50
176
     1
 90
        3
176
     1
 62
     5
420
      255
176
     1
290
     0
176
     1
 90
       50
176
     1
 90
       50
176
     1
 90
       50
176
     1
290
     0
176
     1
 90
       50
176
     1
 62
   256
176
     0
 40
1.0
176
     0
 90
        2
176
     1
  1
strokes_ogs.tif
176
     1
290
     0
176
     1
 40
1.0
176
     1
 40
1.0
176
     1
  0
VISUALSTYLE
  5
11E7
102
{ACAD_REACTORS
330
11E3
102
}
330
11E3
100
AcDbVisualStyle
  2
GouraudWithEdges
 70
     3
177
     3
291
     1
 70
    58
 90
        2
176
     1
 90
        2
176
     1
 90
        1
176
     1
 90
        2
176
     1
 40
0.6
176
     1
 40
30.0
176
     1
 62
     7
420
 16777215
176
     1
 90
        1
176
     1
 90
        0
176
     1
 62
     7
176
     1
 62
   257
176
     1
 90
        1
176
     1
 90
        1
176
     1
 40
1.0
176
     1
 90
        0
176
     1
 62
   257
176
     1
 40
1.0
176
     1
 90
        1
176
     1
 90
        6
176
     1
 90
        2
176
     1
 62
     7
176
     1
 90
        5
176
     1
 90
        0
176
     1
 90
        0
176
     1
290
     0
176
     1
 90
       13
176
     1
 40
0.0
176
     1
 90
        0
176
     1
290
     0
176
     1
290
     1
176
     1
290
     1
176
     1
290
     0
176
     1
290
     0
176
     1
290
     0
176
     1
290
     0
176
     1
290
     0
176
     1
290
     0
176
     1
 90
       50
176
     1
 40
0.0
176
     1
 40
1.0
176
     1
 90
        0
176
     1
 62
    18
420
        0
176
     1
 90
       50
176
     1
 90
        3
176
     1
 62
     5
420
      255
176
     1
290
     0
176
     1
 90
       50
176
     1
 90
       50
176
     1
 90
       50
176
     1
290
     0
176
     1
 90
       50
176
     1
 62
   256
176
     0
 40
1.0
176
     0
 90
        2
176
     1
  1
strokes_ogs.tif
176
     1
290
     0
176
     1
 40
1.0
176
     1
 40
1.0
176
     1
  0
VISUALSTYLE
  5
11EA
102
{ACAD_REACTORS
330
11E3
102
}
330
11E3
100
AcDbVisualStyle
  2
Hidden
 70
     6
177
     3
291
     0
 70
    58
 90
        1
176
     1
 90
        2
176
     1
 90
        2
176
     1
 90
        0
176
     1
 40
0.6
176
     1
 40
30.0
176
     1
 62
     7
420
 16777215
176
     1
 90
        2
176
     1
 90
        2
176
     1
 62
     7
176
     1
 62
   257
176
     1
 90
        2
176
     1
 90
        1
176
     1
 40
40.0
176
     1
 90
        0
176
     1
 62
   257
176
     1
 40
1.0
176
     1
 90
        1
176
     1
 90
        6
176
     1
 90
        2
176
     1
 62
     7
176
     1
 90
        3
176
     1
 90
        0
176
     1
 90
        0
176
     1
290
     0
176
     1
 90
        1
176
     1
 40
0.0
176
     1
 90
        0
176
     1
290
     0
176
     1
290
     1
176
     1
290
     1
176
     1
290
     0
176
     1
290
     0
176
     1
290
     0
176
     1
290
     0
176
     1
290
     0
176
     1
290
     0
176
     1
 90
       50
176
     1
 40
0.0
176
     1
 40
1.0
176
     1
 90
        0
176
     1
 62
    18
420
        0
176
     1
 90
       50
176
     1
 90
        3
176
     1
 62
     5
420
      255
176
     1
290
     0
176
     1
 90
       50
176
     1
 90
       50
176
     1
 90
       50
176
     1
290
     0
176
     1
 90
       50
176
     1
 62
   256
176
     0
 40
1.0
176
     0
 90
        2
176
     1
  1
strokes_ogs.tif
176
     1
290
     0
176
     1
 40
1.0
176
     1
 40
1.0
176
     1
  0
VISUALSTYLE
  5
11F4
102
{ACAD_REACTORS
330
11E3
102
}
330
11E3
100
AcDbVisualStyle
  2
JitterOff
 70
    20
177
     3
291
     1
 70
    58
 90
        2
176
     0
 90
        2
176
     0
 90
        0
176
     0
 90
        0
176
     0
 40
0.6
176
     0
 40
30.0
176
     0
 62
     7
420
 16777215
176
     0
 90
        1
176
     0
 90
        4
176
     0
 62
     7
176
     0
 62
   257
176
     0
 90
        1
176
     0
 90
        1
176
     0
 40
1.0
176
     0
 90
       10
176
     2
 62
     7
176
     0
 40
1.0
176
     0
 90
        1
176
     0
 90
        6
176
     0
 90
        2
176
     0
 62
     7
176
     0
 90
        5
176
     0
 90
        0
176
     0
 90
        0
176
     0
290
     0
176
     0
 90
        1
176
     0
 40
0.0
176
     0
 90
        0
176
     0
290
     0
176
     0
290
     1
176
     0
290
     1
176
     0
290
     0
176
     0
290
     0
176
     0
290
     0
176
     0
290
     0
176
     0
290
     0
176
     0
290
     0
176
     0
 90
       50
176
     0
 40
0.0
176
     0
 40
1.0
176
     0
 90
        0
176
     0
 62
    18
420
        0
176
     0
 90
       50
176
     0
 90
        3
176
     0
 62
     5
420
      255
176
     0
290
     0
176
     0
 90
       50
176
     0
 90
       50
176
     0
 90
       50
176
     0
290
     0
176
     0
 90
       50
176
     0
 62
   256
176
     0
 40
1.0
176
     0
 90
        2
176
     0
  1
strokes_ogs.tif
176
     0
290
     0
176
     0
 40
1.0
176
     0
 40
1.0
176
     0
  0
VISUALSTYLE
  5
11F1
102
{ACAD_REACTORS
330
11E3
102
}
330
11E3
100
AcDbVisualStyle
  2
Linepattern
 70
    14
177
     3
291
     1
 70
    58
 90
        2
176
     1
 90
        2
176
     1
 90
        0
176
     1
 90
        0
176
     1
 40
0.6
176
     1
 40
30.0
176
     1
 62
     7
420
 16777215
176
     1
 90
        1
176
     1
 90
        4
176
     1
 62
     7
176
     1
 62
   257
176
     1
 90
        7
176
     1
 90
        7
176
     1
 40
1.0
176
     1
 90
        8
176
     1
 62
     7
176
     1
 40
1.0
176
     1
 90
        1
176
     1
 90
        6
176
     1
 90
        2
176
     1
 62
     7
176
     1
 90
        5
176
     1
 90
        0
176
     1
 90
        0
176
     1
290
     0
176
     1
 90
        1
176
     1
 40
0.0
176
     1
 90
        0
176
     1
290
     0
176
     1
290
     1
176
     1
290
     1
176
     1
290
     0
176
     1
290
     0
176
     1
290
     0
176
     1
290
     0
176
     1
290
     0
176
     1
290
     0
176
     1
 90
       50
176
     1
 40
0.0
176
     1
 40
1.0
176
     1
 90
        0
176
     1
 62
    18
420
        0
176
     1
 90
       50
176
     1
 90
        3
176
     1
 62
     5
420
      255
176
     1
290
     0
176
     1
 90
       50
176
     1
 90
       50
176
     1
 90
       50
176
     1
290
     0
176
     1
 90
       50
176
     1
 62
   256
176
     0
 40
1.0
176
     0
 90
        2
176
     1
  1
strokes_ogs.tif
176
     1
290
     0
176
     1
 40
1.0
176
     1
 40
1.0
176
     1
  0
VISUALSTYLE
  5
11F5
102
{ACAD_REACTORS
330
11E3
102
}
330
11E3
100
AcDbVisualStyle
  2
OverhangOff
 70
    21
177
     3
291
     1
 70
    58
 90
        2
176
     0
 90
        2
176
     0
 90
        0
176
     0
 90
        0
176
     0
 40
0.6
176
     0
 40
30.0
176
     0
 62
     7
420
 16777215
176
     0
 90
        1
176
     0
 90
        4
176
     0
 62
     7
176
     0
 62
   257
176
     0
 90
        1
176
     0
 90
        1
176
     0
 40
1.0
176
     0
 90
        9
176
     2
 62
     7
176
     0
 40
1.0
176
     0
 90
        1
176
     0
 90
        6
176
     0
 90
        2
176
     0
 62
     7
176
     0
 90
        5
176
     0
 90
        0
176
     0
 90
        0
176
     0
290
     0
176
     0
 90
        1
176
     0
 40
0.0
176
     0
 90
        0
176
     0
290
     0
176
     0
290
     1
176
     0
290
     1
176
     0
290
     0
176
     0
290
     0
176
     0
290
     0
176
     0
290
     0
176
     0
290
     0
176
     0
290
     0
176
     0
 90
       50
176
     0
 40
0.0
176
     0
 40
1.0
176
     0
 90
        0
176
     0
 62
    18
420
        0
176
     0
 90
       50
176
     0
 90
        3
176
     0
 62
     5
420
      255
176
     0
290
     0
176
     0
 90
       50
176
     0
 90
       50
176
     0
 90
       50
176
     0
290
     0
176
     0
 90
       50
176
     0
 62
   256
176
     0
 40
1.0
176
     0
 90
        2
176
     0
  1
strokes_ogs.tif
176
     0
290
     0
176
     0
 40
1.0
176
     0
 40
1.0
176
     0
  0
VISUALSTYLE
  5
11EC
102
{ACAD_REACTORS
330
11E3
102
}
330
11E3
100
AcDbVisualStyle
  2
Realistic
 70
     8
177
     3
291
     0
 70
    58
 90
        2
176
     1
 90
        3
176
     1
 90
        0
176
     1
 90
        2
176
     1
 40
0.6
176
     1
 40
30.0
176
     1
 62
     7
420
 16777215
176
     1
 90
        0
176
     1
 90
        0
176
     1
 62
     7
176
     1
 62
   257
176
     1
 90
        1
176
     1
 90
        1
176
     1
 40
1.0
176
     1
 90
        8
176
     1
 62
   257
176
     1
 40
1.0
176
     1
 90
        1
176
     1
 90
        6
176
     1
 90
        2
176
     1
 62
     7
176
     1
 90
        3
176
     1
 90
        0
176
     1
 90
        0
176
     1
290
     0
176
     1
 90
       13
176
     1
 40
0.0
176
     1
 90
        0
176
     1
290
     0
176
     1
290
     1
176
     1
290
     1
176
     1
290
     0
176
     1
290
     0
176
     1
290
     0
176
     1
290
     0
176
     1
290
     0
176
     1
290
     0
176
     1
 90
       50
176
     1
 40
0.0
176
     1
 40
1.0
176
     1
 90
        0
176
     1
 62
    18
420
        0
176
     1
 90
       50
176
     1
 90
        3
176
     1
 62
     5
420
      255
176
     1
290
     0
176
     1
 90
       50
176
     1
 90
       50
176
     1
 90
       50
176
     1
290
     0
176
     1
 90
       50
176
     1
 62
   256
176
     0
 40
1.0
176
     0
 90
        2
176
     1
  1
strokes_ogs.tif
176
     1
290
     0
176
     1
 40
1.0
176
     1
 40
1.0
176
     1
  0
VISUALSTYLE
  5
11FB
102
{ACAD_REACTORS
330
11E3
102
}
330
11E3
100
AcDbVisualStyle
  2
Shaded
 70
    27
177
     3
291
     0
 70
    58
 90
        2
176
     1
 90
        2
176
     1
 90
        1
176
     1
 90
        2
176
     1
 40
0.6
176
     1
 40
30.0
176
     1
 62
     7
420
 16777215
176
     1
 90
        0
176
     1
 90
        4
176
     1
 62
     7
176
     1
 62
   257
176
     1
 90
        1
176
     1
 90
        1
176
     1
 40
1.0
176
     1
 90
        8
176
     1
 62
   257
176
     1
 40
1.0
176
     1
 90
        1
176
     1
 90
        6
176
     1
 90
        2
176
     1
 62
     8
420
  7895160
176
     1
 90
        3
176
     1
 90
        0
176
     1
 90
        0
176
     1
290
     0
176
     1
 90
        5
176
     1
 40
0.0
176
     1
 90
        0
176
     1
290
     0
176
     1
290
     1
176
     1
290
     1
176
     1
290
     0
176
     1
290
     0
176
     1
290
     0
176
     1
290
     0
176
     1
290
     0
176
     1
290
     0
176
     1
 90
       50
176
     1
 40
0.0
176
     1
 40
1.0
176
     1
 90
        0
176
     1
 62
    18
420
        0
176
     1
 90
       50
176
     1
 90
        3
176
     1
 62
     5
420
      255
176
     1
290
     0
176
     1
 90
       50
176
     1
 90
       50
176
     1
 90
       50
176
     1
290
     0
176
     1
 90
       50
176
     1
 62
   256
176
     0
 40
1.0
176
     0
 90
        2
176
     1
  1
strokes_ogs.tif
176
     1
290
     0
176
     1
 40
1.0
176
     1
 40
1.0
176
     1
  0
VISUALSTYLE
  5
11FA
102
{ACAD_REACTORS
330
11E3
102
}
330
11E3
100
AcDbVisualStyle
  2
Shaded with edges
 70
    26
177
     3
291
     0
 70
    58
 90
        2
176
     1
 90
        2
176
     1
 90
        1
176
     1
 90
        2
176
     1
 40
0.6
176
     1
 40
30.0
176
     1
 62
     7
420
 16777215
176
     1
 90
        1
176
     1
 90
       10
176
     1
 62
     7
176
     1
 62
   257
176
     1
 90
        2
176
     1
 90
        1
176
     1
 40
1.0
176
     1
 90
        8
176
     1
 62
   257
176
     1
 40
1.0
176
     1
 90
        1
176
     1
 90
        6
176
     1
 90
        2
176
     1
 62
     7
176
     1
 90
        3
176
     1
 90
        0
176
     1
 90
        0
176
     1
290
     0
176
     1
 90
        5
176
     1
 40
0.0
176
     1
 90
        0
176
     1
290
     0
176
     1
290
     1
176
     1
290
     1
176
     1
290
     0
176
     1
290
     0
176
     1
290
     0
176
     1
290
     0
176
     1
290
     0
176
     1
290
     0
176
     1
 90
       50
176
     1
 40
0.0
176
     1
 40
1.0
176
     1
 90
        0
176
     1
 62
    18
420
        0
176
     1
 90
       50
176
     1
 90
        3
176
     1
 62
     5
420
      255
176
     1
290
     0
176
     1
 90
       50
176
     1
 90
       50
176
     1
 90
       50
176
     1
290
     0
176
     1
 90
       50
176
     1
 62
   256
176
     0
 40
1.0
176
     0
 90
        2
176
     1
  1
strokes_ogs.tif
176
     1
290
     0
176
     1
 40
1.0
176
     1
 40
1.0
176
     1
  0
VISUALSTYLE
  5
11F7
102
{ACAD_REACTORS
330
11E3
102
}
330
11E3
100
AcDbVisualStyle
  2
Shades of Gray
 70
    23
177
     3
291
     0
 70
    58
 90
        2
176
     1
 90
        2
176
     1
 90
        3
176
     1
 90
        0
176
     1
 40
0.6
176
     1
 40
30.0
176
     1
 62
     7
420
 16777215
176
     1
 90
        2
176
     1
 90
        2
176
     1
 62
     7
176
     1
 62
     7
176
     1
 90
        1
176
     1
 90
        1
176
     1
 40
40.0
176
     1
 90
        8
176
     1
 62
     7
176
     1
 40
1.0
176
     1
 90
        1
176
     1
 90
        6
176
     1
 90
        2
176
     1
 62
     7
176
     1
 90
        3
176
     1
 90
        0
176
     1
 90
        0
176
     1
290
     0
176
     1
 90
        1
176
     1
 40
0.0
176
     1
 90
        0
176
     1
290
     0
176
     1
290
     1
176
     1
290
     1
176
     1
290
     0
176
     1
290
     0
176
     1
290
     0
176
     1
290
     0
176
     1
290
     0
176
     1
290
     0
176
     1
 90
       50
176
     1
 40
0.0
176
     1
 40
1.0
176
     1
 90
        0
176
     1
 62
    18
420
        0
176
     1
 90
       50
176
     1
 90
        3
176
     1
 62
     5
420
      255
176
     1
290
     0
176
     1
 90
       50
176
     1
 90
       50
176
     1
 90
       50
176
     1
290
     0
176
     1
 90
       50
176
     1
 62
   256
176
     0
 40
1.0
176
     0
 90
        2
176
     1
  1
strokes_ogs.tif
176
     1
290
     0
176
     1
 40
1.0
176
     1
 40
1.0
176
     1
  0
VISUALSTYLE
  5
11F8
102
{ACAD_REACTORS
330
11E3
102
}
330
11E3
100
AcDbVisualStyle
  2
Sketchy
 70
    24
177
     3
291
     0
 70
    58
 90
        1
176
     1
 90
        2
176
     1
 90
        2
176
     1
 90
        0
176
     1
 40
0.6
176
     1
 40
30.0
176
     1
 62
     7
420
 16777215
176
     1
 90
        2
176
     1
 90
        2
176
     1
 62
     7
176
     1
 62
     7
176
     1
 90
        1
176
     1
 90
        1
176
     1
 40
40.0
176
     1
 90
       11
176
     1
 62
     7
176
     1
 40
1.0
176
     1
 90
        1
176
     1
 90
        6
176
     1
 90
        2
176
     1
 62
     7
176
     1
 90
        6
176
     1
 90
        0
176
     1
 90
        0
176
     1
290
     0
176
     1
 90
        1
176
     1
 40
0.0
176
     1
 90
        0
176
     1
290
     0
176
     1
290
     1
176
     1
290
     1
176
     1
290
     0
176
     1
290
     0
176
     1
290
     0
176
     1
290
     0
176
     1
290
     0
176
     1
290
     0
176
     1
 90
       50
176
     1
 40
0.0
176
     1
 40
1.0
176
     1
 90
        0
176
     1
 62
    18
420
        0
176
     1
 90
       50
176
     1
 90
        3
176
     1
 62
     5
420
      255
176
     1
290
     0
176
     1
 90
       50
176
     1
 90
       50
176
     1
 90
       50
176
     1
290
     0
176
     1
 90
       50
176
     1
 62
   256
176
     0
 40
1.0
176
     0
 90
        2
176
     1
  1
strokes_ogs.tif
176
     1
290
     0
176
     1
 40
1.0
176
     1
 40
1.0
176
     1
  0
VISUALSTYLE
  5
11F0
102
{ACAD_REACTORS
330
11E3
102
}
330
11E3
100
AcDbVisualStyle
  2
Thicken
 70
    13
177
     3
291
     1
 70
    58
 90
        2
176
     1
 90
        2
176
     1
 90
        0
176
     1
 90
        0
176
     1
 40
0.6
176
     1
 40
30.0
176
     1
 62
     7
420
 16777215
176
     1
 90
        1
176
     1
 90
        4
176
     1
 62
     7
176
     1
 62
   257
176
     1
 90
        1
176
     1
 90
        1
176
     1
 40
1.0
176
     1
 90
       12
176
     1
 62
     7
176
     1
 40
1.0
176
     1
 90
        1
176
     1
 90
        6
176
     1
 90
        2
176
     1
 62
     7
176
     1
 90
        5
176
     1
 90
        0
176
     1
 90
        0
176
     1
290
     0
176
     1
 90
        1
176
     1
 40
0.0
176
     1
 90
        0
176
     1
290
     0
176
     1
290
     1
176
     1
290
     1
176
     1
290
     0
176
     1
290
     0
176
     1
290
     0
176
     1
290
     0
176
     1
290
     0
176
     1
290
     0
176
     1
 90
       50
176
     1
 40
0.0
176
     1
 40
1.0
176
     1
 90
        0
176
     1
 62
    18
420
        0
176
     1
 90
       50
176
     1
 90
        3
176
     1
 62
     5
420
      255
176
     1
290
     0
176
     1
 90
       50
176
     1
 90
       50
176
     1
 90
       50
176
     1
290
     0
176
     1
 90
       50
176
     1
 62
   256
176
     0
 40
1.0
176
     0
 90
        2
176
     1
  1
strokes_ogs.tif
176
     1
290
     0
176
     1
 40
1.0
176
     1
 40
1.0
176
     1
  0
VISUALSTYLE
  5
11E9
102
{ACAD_REACTORS
330
11E3
102
}
330
11E3
100
AcDbVisualStyle
  2
Wireframe
 70
     5
177
     3
291
     0
 70
    58
 90
        0
176
     1
 90
        2
176
     1
 90
        0
176
     1
 90
        0
176
     1
 40
0.6
176
     1
 40
30.0
176
     1
 62
     7
420
 16777215
176
     1
 90
        1
176
     1
 90
        4
176
     1
 62
     7
176
     1
 62
   257
176
     1
 90
        1
176
     1
 90
        1
176
     1
 40
1.0
176
     1
 90
        0
176
     1
 62
   257
176
     1
 40
1.0
176
     1
 90
        1
176
     1
 90
        6
176
     1
 90
        2
176
     1
 62
     7
176
     1
 90
        3
176
     1
 90
        0
176
     1
 90
        0
176
     1
290
     0
176
     1
 90
        1
176
     1
 40
0.0
176
     1
 90
        0
176
     1
290
     0
176
     1
290
     1
176
     1
290
     1
176
     1
290
     0
176
     1
290
     0
176
     1
290
     0
176
     1
290
     0
176
     1
290
     0
176
     1
290
     0
176
     1
 90
       50
176
     1
 40
0.0
176
     1
 40
1.0
176
     1
 90
        0
176
     1
 62
    18
420
        0
176
     1
 90
       50
176
     1
 90
        3
176
     1
 62
     5
420
      255
176
     1
290
     0
176
     1
 90
       50
176
     1
 90
       50
176
     1
 90
       50
176
     1
290
     0
176
     1
 90
       50
176
     1
 62
   256
176
     0
 40
1.0
176
     0
 90
        2
176
     1
  1
strokes_ogs.tif
176
     1
290
     0
176
     1
 40
1.0
176
     1
 40
1.0
176
     1
  0
VISUALSTYLE
  5
11F9
102
{ACAD_REACTORS
330
11E3
102
}
330
11E3
100
AcDbVisualStyle
  2
X-Ray
 70
    25
177
     3
291
     0
 70
    58
 90
        2
176
     1
 90
        2
176
     1
 90
        1
176
     1
 90
        1
176
     1
 40
0.5
176
     1
 40
30.0
176
     1
 62
     7
420
 16777215
176
     1
 90
        1
176
     1
 90
        0
176
     1
 62
     7
176
     1
 62
   257
176
     1
 90
        1
176
     1
 90
        1
176
     1
 40
1.0
176
     1
 90
        8
176
     1
 62
     7
176
     1
 40
1.0
176
     1
 90
        1
176
     1
 90
        6
176
     1
 90
        2
176
     1
 62
     7
176
     1
 90
        3
176
     1
 90
        0
176
     1
 90
        0
176
     1
290
     0
176
     1
 90
       13
176
     1
 40
0.0
176
     1
 90
        0
176
     1
290
     0
176
     1
290
     1
176
     1
290
     1
176
     1
290
     0
176
     1
290
     0
176
     1
290
     0
176
     1
290
     0
176
     1
290
     0
176
     1
290
     0
176
     1
 90
       50
176
     1
 40
0.0
176
     1
 40
1.0
176
     1
 90
        0
176
     1
 62
    18
420
        0
176
     1
 90
       50
176
     1
 90
        3
176
     1
 62
     5
420
      255
176
     1
290
     0
176
     1
 90
       50
176
     1
 90
       50
176
     1
 90
       50
176
     1
290
     0
176
     1
 90
       50
176
     1
 62
   256
176
     0
 40
1.0
176
     0
 90
        2
176
     1
  1
strokes_ogs.tif
176
     1
290
     0
176
     1
 40
1.0
176
     1
 40
1.0
176
     1
  0
DICTIONARYVAR
  5
122E
102
{ACAD_REACTORS
330
11BA
102
}
330
11BA
100
DictionaryVariables
280
     0
  1
1:1
  0
DICTIONARYVAR
  5
1232
102
{ACAD_REACTORS
330
11BA
102
}
330
11BA
100
DictionaryVariables
280
     0
  1
Standard
  0
DICTIONARYVAR
  5
11BC
102
{ACAD_REACTORS
330
11BA
102
}
330
11BA
100
DictionaryVariables
280
     0
  1
2
  0
DICTIONARYVAR
  5
11BB
102
{ACAD_REACTORS
330
11BA
102
}
330
11BA
100
DictionaryVariables
280
     0
  1
1
  0
DICTIONARYVAR
  5
1234
102
{ACAD_REACTORS
330
11BA
102
}
330
11BA
100
DictionaryVariables
280
     0
  1
0
  0
DICTIONARYVAR
  5
11BD
102
{ACAD_REACTORS
330
11BA
102
}
330
11BA
100
DictionaryVariables
280
     0
  1

  0
XRECORD
  5
F60
102
{ACAD_REACTORS
330
F5F
102
}
330
F5F
100
AcDbXrecord
280
     1
 91
      484
330
2E
 90
        8
 62
     1
370
    30
331
16
  1
色_1
330
F66
 90
        8
 62
     7
370
    13
331
16
  1
色_7
330
2F
 90
        8
 62
     7
370
    25
331
16
  1
色_7
330
129
 90
        8
 62
     7
370
    15
331
605
  1
色_7
330
36
 90
        8
 62
     7
370
    15
331
5EC
  1
色_7
330
128
 90
        8
 62
     7
370
    25
331
16
  1
色_7
330
F65
 90
        8
 62
     7
370
     9
331
16
  1
色_7
330
52
 90
        0
 62
     2
370
    -3
331
16
  1
色_2
330
F64
 90
        8
 62
     3
370
    -3
331
16
  1
色_3
330
778
 90
        0
 62
     7
370
    -3
331
16
  1
色_7
330
10
 90
        8
 62
     7
370
    -3
331
16
  0
DICTIONARY
  5
1264
330
1222
100
AcDbDictionary
280
     1
281
     1
  3
ACAD_ROUNDTRIP_2008_TABLESTYLE_CELLSTYLEMAP
360
1265
  0
CELLSTYLEMAP
  5
1265
102
{ACAD_REACTORS
330
1264
102
}
330
1264
100
AcDbCellStyleMap
 90
        3
300
CELLSTYLE
  1
TABLEFORMAT_BEGIN
 90
        5
170
     1
 91
        0
 92
        0
 62
   257
 93
        1
300
CONTENTFORMAT
  1
CONTENTFORMAT_BEGIN
 90
        0
 91
        0
 92
        4
 93
        0
300

 40
0.0
140
1.0
 94
        5
 62
     0
340
11
144
6.0
309
CONTENTFORMAT_END
171
     1
301
MARGIN
  1
CELLMARGIN_BEGIN
 40
1.5
 40
1.5
 40
1.5
 40
1.5
 40
1.5
 40
1.5
309
CELLMARGIN_END
 94
        6
 95
        1
302
GRIDFORMAT
  1
GRIDFORMAT_BEGIN
 90
        0
 91
        1
 62
     0
 92
       -2
340
14
 93
        0
 40
0.045
309
GRIDFORMAT_END
 95
        2
302
GRIDFORMAT
  1
GRIDFORMAT_BEGIN
 90
        0
 91
        1
 62
     0
 92
       -2
340
14
 93
        0
 40
0.045
309
GRIDFORMAT_END
 95
        4
302
GRIDFORMAT
  1
GRIDFORMAT_BEGIN
 90
        0
 91
        1
 62
     0
 92
       -2
340
14
 93
        0
 40
0.045
309
GRIDFORMAT_END
 95
        8
302
GRIDFORMAT
  1
GRIDFORMAT_BEGIN
 90
        0
 91
        1
 62
     0
 92
       -2
340
14
 93
        0
 40
0.045
309
GRIDFORMAT_END
 95
       16
302
GRIDFORMAT
  1
GRIDFORMAT_BEGIN
 90
        0
 91
        1
 62
     0
 92
       -2
340
14
 93
        0
 40
0.045
309
GRIDFORMAT_END
 95
       32
302
GRIDFORMAT
  1
GRIDFORMAT_BEGIN
 90
        0
 91
        1
 62
     0
 92
       -2
340
14
 93
        0
 40
0.045
309
GRIDFORMAT_END
309
TABLEFORMAT_END
  1
CELLSTYLE_BEGIN
 90
        1
 91
        1
300
_TITLE
309
CELLSTYLE_END
300
CELLSTYLE
  1
TABLEFORMAT_BEGIN
 90
        5
170
     1
 91
        0
 92
        0
 62
   257
 93
        1
300
CONTENTFORMAT
  1
CONTENTFORMAT_BEGIN
 90
        0
 91
        0
 92
        4
 93
        0
300

 40
0.0
140
1.0
 94
        5
 62
     0
340
11
144
4.5
309
CONTENTFORMAT_END
171
     1
301
MARGIN
  1
CELLMARGIN_BEGIN
 40
1.5
 40
1.5
 40
1.5
 40
1.5
 40
1.5
 40
1.5
309
CELLMARGIN_END
 94
        6
 95
        1
302
GRIDFORMAT
  1
GRIDFORMAT_BEGIN
 90
        0
 91
        1
 62
     0
 92
       -2
340
14
 93
        0
 40
0.045
309
GRIDFORMAT_END
 95
        2
302
GRIDFORMAT
  1
GRIDFORMAT_BEGIN
 90
        0
 91
        1
 62
     0
 92
       -2
340
14
 93
        0
 40
0.045
309
GRIDFORMAT_END
 95
        4
302
GRIDFORMAT
  1
GRIDFORMAT_BEGIN
 90
        0
 91
        1
 62
     0
 92
       -2
340
14
 93
        0
 40
0.045
309
GRIDFORMAT_END
 95
        8
302
GRIDFORMAT
  1
GRIDFORMAT_BEGIN
 90
        0
 91
        1
 62
     0
 92
       -2
340
14
 93
        0
 40
0.045
309
GRIDFORMAT_END
 95
       16
302
GRIDFORMAT
  1
GRIDFORMAT_BEGIN
 90
        0
 91
        1
 62
     0
 92
       -2
340
14
 93
        0
 40
0.045
309
GRIDFORMAT_END
 95
       32
302
GRIDFORMAT
  1
GRIDFORMAT_BEGIN
 90
        0
 91
        1
 62
     0
 92
       -2
340
14
 93
        0
 40
0.045
309
GRIDFORMAT_END
309
TABLEFORMAT_END
  1
CELLSTYLE_BEGIN
 90
        2
 91
        1
300
_HEADER
309
CELLSTYLE_END
300
CELLSTYLE
  1
TABLEFORMAT_BEGIN
 90
        5
170
     1
 91
        0
 92
        0
 62
   257
 93
        1
300
CONTENTFORMAT
  1
CONTENTFORMAT_BEGIN
 90
        0
 91
        0
 92
        4
 93
        0
300

 40
0.0
140
1.0
 94
        2
 62
     0
340
11
144
4.5
309
CONTENTFORMAT_END
171
     1
301
MARGIN
  1
CELLMARGIN_BEGIN
 40
1.5
 40
1.5
 40
1.5
 40
1.5
 40
1.5
 40
1.5
309
CELLMARGIN_END
 94
        6
 95
        1
302
GRIDFORMAT
  1
GRIDFORMAT_BEGIN
 90
        0
 91
        1
 62
     0
 92
       -2
340
14
 93
        0
 40
0.045
309
GRIDFORMAT_END
 95
        2
302
GRIDFORMAT
  1
GRIDFORMAT_BEGIN
 90
        0
 91
        1
 62
     0
 92
       -2
340
14
 93
        0
 40
0.045
309
GRIDFORMAT_END
 95
        4
302
GRIDFORMAT
  1
GRIDFORMAT_BEGIN
 90
        0
 91
        1
 62
     0
 92
       -2
340
14
 93
        0
 40
0.045
309
GRIDFORMAT_END
 95
        8
302
GRIDFORMAT
  1
GRIDFORMAT_BEGIN
 90
        0
 91
        1
 62
     0
 92
       -2
340
14
 93
        0
 40
0.045
309
GRIDFORMAT_END
 95
       16
302
GRIDFORMAT
  1
GRIDFORMAT_BEGIN
 90
        0
 91
        1
 62
     0
 92
       -2
340
14
 93
        0
 40
0.045
309
GRIDFORMAT_END
 95
       32
302
GRIDFORMAT
  1
GRIDFORMAT_BEGIN
 90
        0
 91
        1
 62
     0
 92
       -2
340
14
 93
        0
 40
0.045
309
GRIDFORMAT_END
309
TABLEFORMAT_END
  1
CELLSTYLE_BEGIN
 90
        3
 91
        2
300
_DATA
309
CELLSTYLE_END
  0
ENDSEC
  0
EOF
