  0
SECTION
  2
HEADER
  9
$ACADVER
  1
AC1027
  9
$ACADMAINTVER
 70
     8
  9
$DWGCODEPAGE
  3
ANSI_932
  9
$REQUIREDVERSIONS
160
                 0
  9
$LASTSAVEDBY
  1
Yasu
  9
$INSBASE
 10
0.0
 20
0.0
 30
0.0
  9
$EXTMIN
 10
38.66846360861359
 20
70.37938465343706
 30
0.0
  9
$EXTMAX
 10
365.4536294171108
 20
265.6970328864952
 30
0.0
  9
$LIMMIN
 10
0.0
 20
0.0
  9
$LIMMAX
 10
420.0
 20
297.0
  9
$ORTHOMODE
 70
     0
  9
$REGENMODE
 70
     1
  9
$FILLMODE
 70
     1
  9
$QTEXTMODE
 70
     0
  9
$MIRRTEXT
 70
     0
  9
$LTSCALE
 40
0.2
  9
$ATTMODE
 70
     1
  9
$TEXTSIZE
 40
3.0
  9
$TRACEWID
 40
1.0
  9
$TEXTSTYLE
  7
Standard
  9
$CLAYER
  8
実線
  9
$CELTYPE
  6
ByLayer
  9
$CECOLOR
 62
   256
  9
$CELTSCALE
 40
1.0
  9
$DISPSILH
 70
     0
  9
$DIMSCALE
 40
1.0
  9
$DIMASZ
 40
2.5
  9
$DIMEXO
 40
2.0
  9
$DIMDLI
 40
3.75
  9
$DIMRND
 40
0.0
  9
$DIMDLE
 40
0.0
  9
$DIMEXE
 40
0.5
  9
$DIMTP
 40
0.0
  9
$DIMTM
 40
0.0
  9
$DIMTXT
 40
3.0
  9
$DIMCEN
 40
2.5
  9
$DIMTSZ
 40
0.0
  9
$DIMTOL
 70
     0
  9
$DIMLIM
 70
     0
  9
$DIMTIH
 70
     0
  9
$DIMTOH
 70
     0
  9
$DIMSE1
 70
     0
  9
$DIMSE2
 70
     0
  9
$DIMTAD
 70
     1
  9
$DIMZIN
 70
     8
  9
$DIMBLK
  1

  9
$DIMASO
 70
     1
  9
$DIMSHO
 70
     1
  9
$DIMPOST
  1

  9
$DIMAPOST
  1

  9
$DIMALT
 70
     0
  9
$DIMALTD
 70
     3
  9
$DIMALTF
 40
0.03937007874016
  9
$DIMLFAC
 40
1.0
  9
$DIMTOFL
 70
     1
  9
$DIMTVP
 40
0.0
  9
$DIMTIX
 70
     0
  9
$DIMSOXD
 70
     0
  9
$DIMSAH
 70
     0
  9
$DIMBLK1
  1

  9
$DIMBLK2
  1

  9
$DIMSTYLE
  2
ISO-25
  9
$DIMCLRD
 70
     0
  9
$DIMCLRE
 70
     0
  9
$DIMCLRT
 70
     0
  9
$DIMTFAC
 40
1.0
  9
$DIMGAP
 40
0.625
  9
$DIMJUST
 70
     0
  9
$DIMSD1
 70
     0
  9
$DIMSD2
 70
     0
  9
$DIMTOLJ
 70
     0
  9
$DIMTZIN
 70
     8
  9
$DIMALTZ
 70
     0
  9
$DIMALTTZ
 70
     0
  9
$DIMUPT
 70
     0
  9
$DIMDEC
 70
     2
  9
$DIMTDEC
 70
     2
  9
$DIMALTU
 70
     2
  9
$DIMALTTD
 70
     3
  9
$DIMTXSTY
  7
Standard
  9
$DIMAUNIT
 70
     0
  9
$DIMADEC
 70
     0
  9
$DIMALTRND
 40
0.0
  9
$DIMAZIN
 70
     0
  9
$DIMDSEP
 70
    46
  9
$DIMATFIT
 70
     3
  9
$DIMFRAC
 70
     0
  9
$DIMLDRBLK
  1

  9
$DIMLUNIT
 70
     2
  9
$DIMLWD
 70
    -2
  9
$DIMLWE
 70
    -2
  9
$DIMTMOVE
 70
     0
  9
$DIMFXL
 40
1.0
  9
$DIMFXLON
 70
     0
  9
$DIMJOGANG
 40
0.7853981633974483
  9
$DIMTFILL
 70
     0
  9
$DIMTFILLCLR
 70
     0
  9
$DIMARCSYM
 70
     0
  9
$DIMLTYPE
  6

  9
$DIMLTEX1
  6

  9
$DIMLTEX2
  6

  9
$DIMTXTDIRECTION
 70
     0
  9
$LUNITS
 70
     2
  9
$LUPREC
 70
     4
  9
$SKETCHINC
 40
1.0
  9
$FILLETRAD
 40
3.0
  9
$AUNITS
 70
     0
  9
$AUPREC
 70
     0
  9
$MENU
  1
.
  9
$ELEVATION
 40
0.0
  9
$PELEVATION
 40
0.0
  9
$THICKNESS
 40
0.0
  9
$LIMCHECK
 70
     0
  9
$CHAMFERA
 40
0.0
  9
$CHAMFERB
 40
0.0
  9
$CHAMFERC
 40
0.0
  9
$CHAMFERD
 40
0.0
  9
$SKPOLY
 70
     0
  9
$TDCREATE
 40
2452936.788310359
  9
$TDUCREATE
 40
2452936.413310359
  9
$TDUPDATE
 40
2456721.045240069
  9
$TDUUPDATE
 40
2456720.670240069
  9
$TDINDWG
 40
0.5951927894
  9
$TDUSRTIMER
 40
2456720.669717535
  9
$USRTIMER
 70
     1
  9
$ANGBASE
 50
0.0
  9
$ANGDIR
 70
     0
  9
$PDMODE
 70
     0
  9
$PDSIZE
 40
0.0
  9
$PLINEWID
 40
0.0
  9
$SPLFRAME
 70
     0
  9
$SPLINETYPE
 70
     6
  9
$SPLINESEGS
 70
     8
  9
$HANDSEED
  5
13FB
  9
$SURFTAB1
 70
     6
  9
$SURFTAB2
 70
     6
  9
$SURFTYPE
 70
     6
  9
$SURFU
 70
     6
  9
$SURFV
 70
     6
  9
$UCSBASE
  2

  9
$UCSNAME
  2

  9
$UCSORG
 10
0.0
 20
0.0
 30
0.0
  9
$UCSXDIR
 10
1.0
 20
0.0
 30
0.0
  9
$UCSYDIR
 10
0.0
 20
1.0
 30
0.0
  9
$UCSORTHOREF
  2

  9
$UCSORTHOVIEW
 70
     0
  9
$UCSORGTOP
 10
0.0
 20
0.0
 30
0.0
  9
$UCSORGBOTTOM
 10
0.0
 20
0.0
 30
0.0
  9
$UCSORGLEFT
 10
0.0
 20
0.0
 30
0.0
  9
$UCSORGRIGHT
 10
0.0
 20
0.0
 30
0.0
  9
$UCSORGFRONT
 10
0.0
 20
0.0
 30
0.0
  9
$UCSORGBACK
 10
0.0
 20
0.0
 30
0.0
  9
$PUCSBASE
  2

  9
$PUCSNAME
  2

  9
$PUCSORG
 10
0.0
 20
0.0
 30
0.0
  9
$PUCSXDIR
 10
1.0
 20
0.0
 30
0.0
  9
$PUCSYDIR
 10
0.0
 20
1.0
 30
0.0
  9
$PUCSORTHOREF
  2

  9
$PUCSORTHOVIEW
 70
     0
  9
$PUCSORGTOP
 10
0.0
 20
0.0
 30
0.0
  9
$PUCSORGBOTTOM
 10
0.0
 20
0.0
 30
0.0
  9
$PUCSORGLEFT
 10
0.0
 20
0.0
 30
0.0
  9
$PUCSORGRIGHT
 10
0.0
 20
0.0
 30
0.0
  9
$PUCSORGFRONT
 10
0.0
 20
0.0
 30
0.0
  9
$PUCSORGBACK
 10
0.0
 20
0.0
 30
0.0
  9
$USERI1
 70
     0
  9
$USERI2
 70
     0
  9
$USERI3
 70
     0
  9
$USERI4
 70
     0
  9
$USERI5
 70
     0
  9
$USERR1
 40
0.0
  9
$USERR2
 40
0.0
  9
$USERR3
 40
0.0
  9
$USERR4
 40
0.0
  9
$USERR5
 40
0.0
  9
$WORLDVIEW
 70
     1
  9
$SHADEDGE
 70
     3
  9
$SHADEDIF
 70
    70
  9
$TILEMODE
 70
     1
  9
$MAXACTVP
 70
    64
  9
$PINSBASE
 10
0.0
 20
0.0
 30
0.0
  9
$PLIMCHECK
 70
     0
  9
$PEXTMIN
 10
0.0
 20
0.0
 30
0.0
  9
$PEXTMAX
 10
0.0
 20
0.0
 30
0.0
  9
$PLIMMIN
 10
-6.35
 20
-6.35
  9
$PLIMMAX
 10
413.8083333333333
 20
290.6888888888888
  9
$UNITMODE
 70
     0
  9
$VISRETAIN
 70
     1
  9
$PLINEGEN
 70
     0
  9
$PSLTSCALE
 70
     1
  9
$TREEDEPTH
 70
  3020
  9
$CMLSTYLE
  2
Standard
  9
$CMLJUST
 70
     0
  9
$CMLSCALE
 40
20.0
  9
$PROXYGRAPHICS
 70
     1
  9
$MEASUREMENT
 70
     1
  9
$CELWEIGHT
370
    -1
  9
$ENDCAPS
280
     0
  9
$JOINSTYLE
280
     0
  9
$LWDISPLAY
290
     0
  9
$INSUNITS
 70
     4
  9
$HYPERLINKBASE
  1

  9
$STYLESHEET
  1

  9
$XEDIT
290
     1
  9
$CEPSNTYPE
380
     0
  9
$PSTYLEMODE
290
     1
  9
$FINGERPRINTGUID
  2
{86E58535-AB5B-4AFE-AB1B-6758AAB7EA7D}
  9
$VERSIONGUID
  2
{F3A4D89B-3D8E-408D-8E50-EEAB3AE6E05A}
  9
$EXTNAMES
290
     1
  9
$PSVPSCALE
 40
0.0
  9
$OLESTARTUP
290
     0
  9
$SORTENTS
280
   127
  9
$INDEXCTL
280
     0
  9
$HIDETEXT
280
     1
  9
$XCLIPFRAME
280
     2
  9
$HALOGAP
280
     0
  9
$OBSCOLOR
 70
   257
  9
$OBSLTYPE
280
     0
  9
$INTERSECTIONDISPLAY
280
     0
  9
$INTERSECTIONCOLOR
 70
   257
  9
$DIMASSOC
280
     2
  9
$PROJECTNAME
  1

  9
$CAMERADISPLAY
290
     0
  9
$LENSLENGTH
 40
50.0
  9
$CAMERAHEIGHT
 40
0.0
  9
$STEPSPERSEC
 40
2.0
  9
$STEPSIZE
 40
6.0
  9
$3DDWFPREC
 40
2.0
  9
$PSOLWIDTH
 40
0.25
  9
$PSOLHEIGHT
 40
4.0
  9
$LOFTANG1
 40
1.570796326794897
  9
$LOFTANG2
 40
1.570796326794897
  9
$LOFTMAG1
 40
0.0
  9
$LOFTMAG2
 40
0.0
  9
$LOFTPARAM
 70
     7
  9
$LOFTNORMALS
280
     1
  9
$LATITUDE
 40
37.795
  9
$LONGITUDE
 40
-122.394
  9
$NORTHDIRECTION
 40
0.0
  9
$TIMEZONE
 70
 -8000
  9
$LIGHTGLYPHDISPLAY
280
     1
  9
$TILEMODELIGHTSYNCH
280
     1
  9
$SOLIDHIST
280
     1
  9
$SHOWHIST
280
     1
  9
$DWFFRAME
280
     2
  9
$DGNFRAME
280
     2
  9
$REALWORLDSCALE
290
     1
  9
$INTERFERECOLOR
 62
   256
  9
$CSHADOW
280
     0
  9
$SHADOWPLANELOCATION
 40
0.0
  0
ENDSEC
  0
SECTION
  2
CLASSES
  0
CLASS
  1
ACDBDICTIONARYWDFLT
  2
AcDbDictionaryWithDefault
  3
ObjectDBX Classes
 90
        0
 91
        5
280
     0
281
     0
  0
CLASS
  1
DIMASSOC
  2
AcDbDimAssoc
  3
"AcDbDimAssoc|Product Desc:     AcDim ARX App For Dimension|Company:          Autodesk, Inc.|WEB Address:      www.autodesk.com"
 90
        0
 91
        4
280
     0
281
     0
  0
CLASS
  1
DICTIONARYVAR
  2
AcDbDictionaryVar
  3
ObjectDBX Classes
 90
        0
 91
        4
280
     0
281
     0
  0
CLASS
  1
ACDBPLACEHOLDER
  2
AcDbPlaceHolder
  3
ObjectDBX Classes
 90
        0
 91
        1
280
     0
281
     0
  0
CLASS
  1
LAYOUT
  2
AcDbLayout
  3
ObjectDBX Classes
 90
        0
 91
        1
280
     0
281
     0
  0
CLASS
  1
VISUALSTYLE
  2
AcDbVisualStyle
  3
ObjectDBX Classes
 90
     4095
 91
        5
280
     0
281
     0
  0
CLASS
  1
SCALE
  2
AcDbScale
  3
ObjectDBX Classes
 90
     1153
 91
        5
280
     0
281
     0
  0
CLASS
  1
MATERIAL
  2
AcDbMaterial
  3
ObjectDBX Classes
 90
     1153
 91
        5
280
     0
281
     0
  0
CLASS
  1
TABLESTYLE
  2
AcDbTableStyle
  3
ObjectDBX Classes
 90
     4095
 91
        5
280
     0
281
     0
  0
CLASS
  1
SUN
  2
AcDbSun
  3
SCENEOE
 90
     1153
 91
        5
280
     0
281
     0
  0
CLASS
  1
RASTERVARIABLES
  2
AcDbRasterVariables
  3
ISM
 90
        0
 91
        5
280
     0
281
     0
  0
CLASS
  1
CELLSTYLEMAP
  2
AcDbCellStyleMap
  3
ObjectDBX Classes
 90
     1152
 91
        4
280
     0
281
     0
  0
ENDSEC
  0
SECTION
  2
TABLES
  0
TABLE
  2
VPORT
  5
8
330
0
100
AcDbSymbolTable
 70
     1
  0
VPORT
  5
1357
330
8
100
AcDbSymbolTableRecord
100
AcDbViewportTableRecord
  2
*Active
 70
     0
 10
0.0
 20
0.0
 11
1.0
 21
1.0
 12
202.0610465128622
 22
168.0382087699661
 13
0.0
 23
0.0
 14
10.0
 24
10.0
 15
10.0
 25
10.0
 16
0.0
 26
0.0
 36
1.0
 17
0.0
 27
0.0
 37
0.0
 40
199.2240011977193
 41
1.762376237623762
 42
50.0
 43
0.0
 44
0.0
 50
0.0
 51
0.0
 71
    16
 72
  1000
 73
     1
 74
     3
 75
     0
 76
     0
 77
     0
 78
     0
281
     0
 65
     1
110
0.0
120
0.0
130
0.0
111
1.0
121
0.0
131
0.0
112
0.0
122
1.0
132
0.0
 79
     0
146
0.0
348
137F
 60
     3
 61
     5
292
     1
282
     1
141
0.0
142
0.0
 63
   256
361
13C4
  0
ENDTAB
  0
TABLE
  2
LTYPE
  5
5
330
0
100
AcDbSymbolTable
 70
     6
  0
LTYPE
  5
14
330
5
100
AcDbSymbolTableRecord
100
AcDbLinetypeTableRecord
  2
ByBlock
 70
     0
  3

 72
    65
 73
     0
 40
0.0
  0
LTYPE
  5
15
330
5
100
AcDbSymbolTableRecord
100
AcDbLinetypeTableRecord
  2
ByLayer
 70
     0
  3

 72
    65
 73
     0
 40
0.0
  0
LTYPE
  5
16
330
5
100
AcDbSymbolTableRecord
100
AcDbLinetypeTableRecord
  2
Continuous
 70
     0
  3
Solid line
 72
    65
 73
     0
 40
0.0
  0
LTYPE
  5
35
330
5
100
AcDbSymbolTableRecord
100
AcDbLinetypeTableRecord
  2
ACAD_ISO08W100
 70
     0
  3
ISO long-dash short-dash ____ __ ____ __ ____ _
 72
    65
 73
     4
 40
36.0
 49
24.0
 74
     0
 49
-3.0
 74
     0
 49
6.0
 74
     0
 49
-3.0
 74
     0
  0
LTYPE
  5
127
330
5
100
AcDbSymbolTableRecord
100
AcDbLinetypeTableRecord
  2
HIDDENX2
 70
     0
  3
Hidden (2x) ____ ____ ____ ____ ____ ____ ____
 72
    65
 73
     2
 40
19.05
 49
12.7
 74
     0
 49
-6.35
 74
     0
  0
LTYPE
  5
5EC
330
5
100
AcDbSymbolTableRecord
100
AcDbLinetypeTableRecord
  2
CENTER
 70
     0
  3
Center ____ _ ____ _ ____ _ ____ _ ____ _ ____
 72
    65
 73
     4
 40
50.8
 49
31.75
 74
     0
 49
-6.35
 74
     0
 49
6.35
 74
     0
 49
-6.35
 74
     0
  0
LTYPE
  5
5ED
330
5
100
AcDbSymbolTableRecord
100
AcDbLinetypeTableRecord
  2
ACAD_ISO02W100
 70
     0
  3
ISO dash __ __ __ __ __ __ __ __ __ __ __ __ __
 72
    65
 73
     2
 40
15.0
 49
12.0
 74
     0
 49
-3.0
 74
     0
  0
LTYPE
  5
605
330
5
100
AcDbSymbolTableRecord
100
AcDbLinetypeTableRecord
  2
DASHED
 70
     0
  3
Dashed __ __ __ __ __ __ __ __ __ __ __ __ __ _
 72
    65
 73
     2
 40
19.05
 49
12.7
 74
     0
 49
-6.35
 74
     0
  0
ENDTAB
  0
TABLE
  2
LAYER
  5
2
102
{ACAD_XDICTIONARY
360
1140
102
}
330
0
100
AcDbSymbolTable
 70
    11
  0
LAYER
  5
10
330
2
100
AcDbSymbolTableRecord
100
AcDbLayerTableRecord
  2
0
 70
     0
 62
     7
  6
Continuous
370
    -3
390
F
347
13B7
348
0
  0
LAYER
  5
2E
330
2
100
AcDbSymbolTableRecord
100
AcDbLayerTableRecord
  2
枠
 70
     0
 62
     1
  6
Continuous
370
    30
390
F
347
13B7
348
0
  0
LAYER
  5
2F
330
2
100
AcDbSymbolTableRecord
100
AcDbLayerTableRecord
  2
文字
 70
     0
 62
     7
  6
Continuous
370
    25
390
F
347
13B7
348
0
  0
LAYER
  5
36
330
2
100
AcDbSymbolTableRecord
100
AcDbLayerTableRecord
  2
中心線
 70
     0
 62
     7
  6
CENTER
370
    15
390
F
347
13B7
348
0
  0
LAYER
  5
52
330
2
100
AcDbSymbolTableRecord
100
AcDbLayerTableRecord
  2
隠れ線
 70
     0
 62
     2
  6
Continuous
290
     0
370
    -3
390
F
347
13B7
348
0
  0
LAYER
  5
128
330
2
100
AcDbSymbolTableRecord
100
AcDbLayerTableRecord
  2
実線
 70
     0
 62
     7
  6
Continuous
370
    25
390
F
347
13B7
348
0
  0
LAYER
  5
129
330
2
100
AcDbSymbolTableRecord
100
AcDbLayerTableRecord
  2
破線
 70
     0
 62
     7
  6
DASHED
370
    15
390
F
347
13B7
348
0
  0
LAYER
  5
778
330
2
100
AcDbSymbolTableRecord
100
AcDbLayerTableRecord
  2
Defpoints
 70
     0
 62
     7
  6
Continuous
290
     0
370
    -3
390
F
347
13B7
348
0
  0
LAYER
  5
1160
330
2
100
AcDbSymbolTableRecord
100
AcDbLayerTableRecord
  2
GR1-1
 70
     0
 62
     3
  6
Continuous
370
    -3
390
F
347
13B7
348
0
  0
LAYER
  5
1161
330
2
100
AcDbSymbolTableRecord
100
AcDbLayerTableRecord
  2
細線
 70
     0
 62
     7
  6
Continuous
370
     9
390
F
347
13B7
348
0
  0
LAYER
  5
1162
330
2
100
AcDbSymbolTableRecord
100
AcDbLayerTableRecord
  2
文字・寸法線
 70
     0
 62
     7
  6
Continuous
370
    13
390
F
347
13B7
348
0
  0
ENDTAB
  0
TABLE
  2
STYLE
  5
3
330
0
100
AcDbSymbolTable
 70
     2
  0
STYLE
  5
11
330
3
100
AcDbSymbolTableRecord
100
AcDbTextStyleTableRecord
  2
Standard
 70
     0
 40
0.0
 41
1.0
 50
0.0
 71
     0
 42
3.0
  3
txt.shx
  4
bigfont.shx
  0
STYLE
  5
34
330
3
100
AcDbSymbolTableRecord
100
AcDbTextStyleTableRecord
  2

 70
     1
 40
0.0
 41
1.0
 50
0.0
 71
     0
 42
2.5
  3
ltypeshp.shx
  4

  0
ENDTAB
  0
TABLE
  2
VIEW
  5
6
330
0
100
AcDbSymbolTable
 70
     0
  0
ENDTAB
  0
TABLE
  2
UCS
  5
7
330
0
100
AcDbSymbolTable
 70
     0
  0
ENDTAB
  0
TABLE
  2
APPID
  5
9
330
0
100
AcDbSymbolTable
 70
     1
  0
APPID
  5
12
330
9
100
AcDbSymbolTableRecord
100
AcDbRegAppTableRecord
  2
ACAD
 70
     0
  0
ENDTAB
  0
TABLE
  2
DIMSTYLE
  5
A
330
0
100
AcDbSymbolTable
 70
     1
100
AcDbDimStyleTable
  0
DIMSTYLE
105
29
102
{ACAD_REACTORS
330
D0E
330
D11
330
D14
330
D18
330
D1B
330
D22
330
D25
330
100A
330
1029
330
102E
330
105B
330
1101
330
EF2
102
}
330
A
100
AcDbSymbolTableRecord
100
AcDbDimStyleTableRecord
  2
ISO-25
 70
     0
 41
2.5
 42
2.0
 43
3.75
 44
0.5
 73
     0
 74
     0
 77
     1
 78
     8
140
3.0
141
2.5
143
0.03937007874016
147
0.625
171
     3
172
     1
178
     0
271
     2
272
     2
274
     3
283
     0
284
     8
340
11
  0
ENDTAB
  0
TABLE
  2
BLOCK_RECORD
  5
1
330
0
100
AcDbSymbolTable
 70
    15
  0
BLOCK_RECORD
  5
21
330
1
100
AcDbSymbolTableRecord
100
AcDbBlockTableRecord
  2
*Model_Space
340
24
 70
     0
280
     1
281
     0
  0
BLOCK_RECORD
  5
13BD
330
1
100
AcDbSymbolTableRecord
100
AcDbBlockTableRecord
  2
*Paper_Space
340
13BE
 70
     0
280
     1
281
     0
  0
BLOCK_RECORD
  5
670
330
1
100
AcDbSymbolTableRecord
100
AcDbBlockTableRecord
  2
図面枠A-4無字dwg
340
0
 70
     4
280
     1
281
     0
1001
ACAD
1000
DesignCenter Data
1002
{
1070
     1
1070
     4
1002
}
  0
BLOCK_RECORD
  5
D67
330
1
100
AcDbSymbolTableRecord
100
AcDbBlockTableRecord
  2
*D1
340
0
 70
     0
280
     1
281
     0
  0
BLOCK_RECORD
  5
D73
330
1
100
AcDbSymbolTableRecord
100
AcDbBlockTableRecord
  2
*D2
340
0
 70
     0
280
     1
281
     0
  0
BLOCK_RECORD
  5
D7F
330
1
100
AcDbSymbolTableRecord
100
AcDbBlockTableRecord
  2
*D3
340
0
 70
     0
280
     1
281
     0
  0
BLOCK_RECORD
  5
D8B
330
1
100
AcDbSymbolTableRecord
100
AcDbBlockTableRecord
  2
*D4
340
0
 70
     0
280
     1
281
     0
  0
BLOCK_RECORD
  5
D97
330
1
100
AcDbSymbolTableRecord
100
AcDbBlockTableRecord
  2
*D5
340
0
 70
     0
280
     1
281
     0
  0
BLOCK_RECORD
  5
DA3
330
1
100
AcDbSymbolTableRecord
100
AcDbBlockTableRecord
  2
*D6
340
0
 70
     0
280
     1
281
     0
  0
BLOCK_RECORD
  5
DB1
330
1
100
AcDbSymbolTableRecord
100
AcDbBlockTableRecord
  2
*D7
340
0
 70
     0
280
     1
281
     0
  0
BLOCK_RECORD
  5
1089
330
1
100
AcDbSymbolTableRecord
100
AcDbBlockTableRecord
  2
*D8
340
0
 70
     0
280
     1
281
     0
  0
BLOCK_RECORD
  5
10AD
330
1
100
AcDbSymbolTableRecord
100
AcDbBlockTableRecord
  2
*D9
340
0
 70
     0
280
     1
281
     0
  0
BLOCK_RECORD
  5
10B9
330
1
100
AcDbSymbolTableRecord
100
AcDbBlockTableRecord
  2
*D10
340
0
 70
     0
280
     1
281
     0
  0
BLOCK_RECORD
  5
10C5
330
1
100
AcDbSymbolTableRecord
100
AcDbBlockTableRecord
  2
*D11
340
0
 70
     0
280
     1
281
     0
  0
BLOCK_RECORD
  5
1102
330
1
100
AcDbSymbolTableRecord
100
AcDbBlockTableRecord
  2
*D12
340
0
 70
     0
280
     1
281
     0
  0
BLOCK_RECORD
  5
1240
330
1
100
AcDbSymbolTableRecord
100
AcDbBlockTableRecord
  2
*D13
340
0
 70
     0
280
     1
281
     0
  0
ENDTAB
  0
ENDSEC
  0
SECTION
  2
BLOCKS
  0
BLOCK
  5
22
330
21
100
AcDbEntity
  8
0
100
AcDbBlockBegin
  2
*Model_Space
 70
     0
 10
0.0
 20
0.0
 30
0.0
  3
*Model_Space
  1
*Model_Space
  0
ENDBLK
  5
23
330
21
100
AcDbEntity
  8
0
100
AcDbBlockEnd
  0
BLOCK
  5
13BF
330
13BD
100
AcDbEntity
 67
     1
  8
0
100
AcDbBlockBegin
  2
*Paper_Space
 70
     0
 10
0.0
 20
0.0
 30
0.0
  3
*Paper_Space
  1
*Paper_Space
  0
ENDBLK
  5
13C0
330
13BD
100
AcDbEntity
 67
     1
  8
0
100
AcDbBlockEnd
  0
BLOCK
  5
69D
330
670
100
AcDbEntity
  8
0
370
    30
100
AcDbBlockBegin
  2
図面枠A-4無字dwg
 70
     0
 10
0.0
 20
0.0
 30
0.0
  3
図面枠A-4無字dwg
  1
図面枠A-4無字dwg
  0
LINE
  5
671
330
670
100
AcDbEntity
  8
枠
100
AcDbLine
 10
10.0
 20
10.0
 30
0.0
 11
287.0
 21
10.0
 31
0.0
  0
LINE
  5
672
330
670
100
AcDbEntity
  8
枠
100
AcDbLine
 10
287.0
 20
10.0
 30
0.0
 11
287.0
 21
200.0
 31
0.0
  0
LINE
  5
673
330
670
100
AcDbEntity
  8
枠
100
AcDbLine
 10
237.5
 20
10.0
 30
0.0
 11
237.5
 21
33.10000000000001
 31
0.0
  0
LINE
  5
674
330
670
100
AcDbEntity
  8
枠
100
AcDbLine
 10
212.2
 20
10.0
 30
0.0
 11
212.2
 21
52.90000000000001
 31
0.0
  0
LINE
  5
675
330
670
100
AcDbEntity
  8
枠
100
AcDbLine
 10
138.5
 20
10.0
 30
0.0
 11
138.5
 21
52.90000000000001
 31
0.0
  0
LINE
  5
676
330
670
100
AcDbEntity
  8
枠
100
AcDbLine
 10
138.5
 20
18.8
 30
0.0
 11
287.0
 21
18.8
 31
0.0
  0
LINE
  5
677
330
670
100
AcDbEntity
  8
枠
100
AcDbLine
 10
138.5
 20
25.40000000000001
 30
0.0
 11
287.0
 21
25.40000000000001
 31
0.0
  0
LINE
  5
678
330
670
100
AcDbEntity
  8
枠
100
AcDbLine
 10
138.5
 20
39.7
 30
0.0
 11
287.0
 21
39.7
 31
0.0
  0
LINE
  5
679
330
670
100
AcDbEntity
  8
枠
100
AcDbLine
 10
138.5
 20
40.8
 30
0.0
 11
212.1999999999999
 21
40.8
 31
0.0
  0
LINE
  5
67A
330
670
100
AcDbEntity
  8
枠
100
AcDbLine
 10
138.5
 20
46.3
 30
0.0
 11
287.0
 21
46.3
 31
0.0
  0
LINE
  5
67B
330
670
100
AcDbEntity
  8
枠
100
AcDbLine
 10
138.5
 20
52.90000000000001
 30
0.0
 11
287.0
 21
52.90000000000001
 31
0.0
  0
LINE
  5
67C
330
670
100
AcDbEntity
  8
枠
100
AcDbLine
 10
163.25
 20
18.8
 30
0.0
 11
163.25
 21
39.7
 31
0.0
  0
LINE
  5
67D
330
670
100
AcDbEntity
  8
枠
100
AcDbLine
 10
188.0
 20
25.40000000000001
 30
0.0
 11
188.0
 21
39.7
 31
0.0
  0
LINE
  5
67E
330
670
100
AcDbEntity
  8
枠
100
AcDbLine
 10
188.0
 20
40.8
 30
0.0
 11
188.0
 21
46.3
 31
0.0
  0
LINE
  5
67F
330
670
100
AcDbEntity
  8
枠
100
AcDbLine
 10
163.25
 20
40.8
 30
0.0
 11
163.25
 21
52.90000000000001
 31
0.0
  0
LINE
  5
680
330
670
100
AcDbEntity
  8
枠
100
AcDbLine
 10
212.1999999999999
 20
32.0
 30
0.0
 11
287.0
 21
32.0
 31
0.0
  0
LINE
  5
681
330
670
100
AcDbEntity
  8
枠
100
AcDbLine
 10
212.1999999999999
 20
33.1
 30
0.0
 11
287.0
 21
33.1
 31
0.0
  0
LINE
  5
682
330
670
100
AcDbEntity
  8
枠
100
AcDbLine
 10
237.5
 20
39.7
 30
0.0
 11
237.5
 21
52.90000000000001
 31
0.0
  0
LINE
  5
683
330
670
100
AcDbEntity
  8
枠
100
AcDbLine
 10
262.8
 20
18.8
 30
0.0
 11
262.8
 21
39.7
 31
0.0
  0
MTEXT
  5
684
330
670
100
AcDbEntity
  8
枠
100
AcDbMText
 10
145.8717013484776
 20
50.9248171540208
 30
0.0
 40
2.75
 41
24.75
 46
0.0
 71
     1
 72
     5
  1
品　名
 73
     1
 44
1.0
  0
MTEXT
  5
685
330
670
100
AcDbEntity
  8
枠
100
AcDbMText
 10
219.5717013484775
 20
50.9248171540208
 30
0.0
 40
2.75
 41
24.75
 46
0.0
 71
     1
 72
     5
  1
品　番
 73
     1
 44
1.0
  0
MTEXT
  5
686
330
670
100
AcDbEntity
  8
枠
100
AcDbMText
 10
219.5717013484775
 20
44.3248171540208
 30
0.0
 40
2.75
 41
24.75
 46
0.0
 71
     1
 72
     5
  1
サイズ
 73
     1
 44
1.0
  0
MTEXT
  5
687
330
670
100
AcDbEntity
  8
枠
100
AcDbMText
 10
145.9529263402256
 20
44.77900427738543
 30
0.0
 40
2.75
 41
13.71479298395914
 46
0.0
 71
     1
 72
     5
  1
承　認
 73
     1
 44
1.0
  0
MTEXT
  5
688
330
670
100
AcDbEntity
  8
枠
100
AcDbMText
 10
170.7029263402256
 20
44.77900427738543
 30
0.0
 40
2.75
 41
13.71479298395914
 46
0.0
 71
     1
 72
     5
  1
検　図
 73
     1
 44
1.0
  0
MTEXT
  5
689
330
670
100
AcDbEntity
  8
枠
100
AcDbMText
 10
195.4529263402256
 20
44.77900427738543
 30
0.0
 40
2.75
 41
13.71479298395914
 46
0.0
 71
     1
 72
     5
  1
製　図
 73
     1
 44
1.0
  0
MTEXT
  5
68A
330
670
100
AcDbEntity
  8
枠
100
AcDbMText
 10
145.8717013484776
 20
23.4248171540208
 30
0.0
 40
2.75
 41
24.75
 46
0.0
 71
     1
 72
     5
  1
日　付
 73
     1
 44
1.0
  0
MTEXT
  5
68B
330
670
100
AcDbEntity
  8
枠
100
AcDbMText
 10
219.0357544350354
 20
14.66833848936324
 30
0.0
 40
2.75
 41
24.75
 46
0.0
 71
     1
 72
     5
  1
製品単重
 73
     1
 44
1.0
  0
MTEXT
  5
68C
330
670
100
AcDbEntity
  8
枠
100
AcDbMText
 10
232.9746224249311
 20
37.57180438935425
 30
0.0
 40
2.75
 41
12.98637275453505
 46
0.0
 71
     1
 72
     5
  1
材　質
 73
     1
 44
1.0
  0
MTEXT
  5
68D
330
670
100
AcDbEntity
  8
枠
100
AcDbMText
 10
266.9686959403862
 20
37.69587339271826
 30
0.0
 40
2.75
 41
19.22203116086617
 46
0.0
 71
     1
 72
     5
  1
表面処理
 73
     1
 44
1.0
  0
MTEXT
  5
68E
330
670
100
AcDbEntity
  8
枠
100
AcDbMText
 10
147.2890405381478
 20
15.17428611351522
 30
0.0
 40
3.3
 41
172.2729598878279
 46
0.0
 71
     1
 72
     5
  1
サン・ファスナー部品株式会社
 73
     1
 44
1.0
  0
LINE
  5
68F
330
670
100
AcDbEntity
  8
枠
100
AcDbLine
 10
10.0
 20
10.0
 30
0.0
 11
10.0
 21
200.0
 31
0.0
  0
LINE
  5
690
330
670
100
AcDbEntity
  8
枠
100
AcDbLine
 10
10.0
 20
200.0
 30
0.0
 11
287.0
 21
200.0
 31
0.0
  0
LINE
  5
691
330
670
100
AcDbEntity
  8
枠
100
AcDbLine
 10
10.0
 20
210.0
 30
0.0
 11
287.0
 21
210.0
 31
0.0
  0
LINE
  5
692
330
670
100
AcDbEntity
  8
枠
100
AcDbLine
 10
297.0
 20
10.0
 30
0.0
 11
297.0
 21
200.0
 31
0.0
  0
LINE
  5
693
330
670
100
AcDbEntity
  8
枠
100
AcDbLine
 10
10.0
 20
0.0
 30
0.0
 11
287.0
 21
0.0
 31
0.0
  0
LINE
  5
694
330
670
100
AcDbEntity
  8
枠
100
AcDbLine
 10
0.0
 20
10.0
 30
0.0
 11
0.0
 21
200.0
 31
0.0
  0
LINE
  5
695
330
670
100
AcDbEntity
  8
枠
370
    30
100
AcDbLine
 10
0.0
 20
200.0
 30
0.0
 11
0.0
 21
210.0
 31
0.0
  0
LINE
  5
696
330
670
100
AcDbEntity
  8
枠
370
    30
100
AcDbLine
 10
10.0
 20
210.0
 30
0.0
 11
0.0
 21
210.0
 31
0.0
  0
LINE
  5
697
330
670
100
AcDbEntity
  8
枠
370
    30
100
AcDbLine
 10
287.0
 20
210.0
 30
0.0
 11
297.0000000000001
 21
210.0
 31
0.0
  0
LINE
  5
698
330
670
100
AcDbEntity
  8
枠
370
    30
100
AcDbLine
 10
297.0
 20
200.0
 30
0.0
 11
297.0000000000001
 21
210.0
 31
0.0
  0
LINE
  5
699
330
670
100
AcDbEntity
  8
枠
370
    30
100
AcDbLine
 10
297.0
 20
10.0
 30
0.0
 11
297.0
 21
0.0
 31
0.0
  0
LINE
  5
69A
330
670
100
AcDbEntity
  8
枠
370
    30
100
AcDbLine
 10
287.0
 20
0.0
 30
0.0
 11
297.0
 21
0.0
 31
0.0
  0
LINE
  5
69B
330
670
100
AcDbEntity
  8
枠
370
    30
100
AcDbLine
 10
10.0
 20
0.0
 30
0.0
 11
0.0
 21
0.0
 31
0.0
  0
LINE
  5
69C
330
670
100
AcDbEntity
  8
枠
370
    30
100
AcDbLine
 10
0.0
 20
10.0
 30
0.0
 11
0.0
 21
0.0
 31
0.0
  0
ENDBLK
  5
69E
330
670
100
AcDbEntity
  8
0
370
    30
100
AcDbBlockEnd
  0
BLOCK
  5
D71
330
D67
100
AcDbEntity
  8
0
370
    15
100
AcDbBlockBegin
  2
*D1
 70
     1
 10
0.0
 20
0.0
 30
0.0
  3
*D1
  1
*D3
  0
LINE
  5
121B
330
D67
100
AcDbEntity
  8
文字・寸法線
 62
     0
370
    -2
100
AcDbLine
 10
233.2404656534387
 20
155.2047192192657
 30
0.0
 11
233.2404656534387
 21
172.5295923996595
 31
0.0
  0
LINE
  5
121C
330
D67
100
AcDbEntity
  8
文字・寸法線
 62
     0
370
    -2
100
AcDbLine
 10
218.2404656534387
 20
124.5797192192657
 30
0.0
 11
218.2404656534387
 21
172.5295923996595
 31
0.0
  0
LINE
  5
121D
330
D67
100
AcDbEntity
  8
文字・寸法線
 62
     0
370
    -2
100
AcDbLine
 10
230.7404656534387
 20
172.0295923996595
 30
0.0
 11
220.7404656534387
 21
172.0295923996595
 31
0.0
  0
SOLID
  5
121E
330
D67
100
AcDbEntity
  8
文字・寸法線
 62
     0
100
AcDbTrace
 10
230.7404656534387
 20
171.6129257329928
 30
0.0
 11
230.7404656534387
 21
172.4462590663261
 31
0.0
 12
233.2404656534387
 22
172.0295923996595
 32
0.0
 13
233.2404656534387
 23
172.0295923996595
 33
0.0
  0
SOLID
  5
121F
330
D67
100
AcDbEntity
  8
文字・寸法線
 62
     0
100
AcDbTrace
 10
220.7404656534387
 20
172.4462590663261
 30
0.0
 11
220.7404656534387
 21
171.6129257329928
 31
0.0
 12
218.2404656534387
 22
172.0295923996595
 32
0.0
 13
218.2404656534387
 23
172.0295923996595
 33
0.0
  0
MTEXT
  5
1220
330
D67
100
AcDbEntity
  8
文字・寸法線
 62
     0
100
AcDbMText
 10
225.7404656534387
 20
174.1545923996595
 30
0.0
 40
3.0
 41
0.0
 46
0.0
 71
     5
 72
     1
  1
15
 73
     1
 44
1.0
  0
POINT
  5
1221
330
D67
100
AcDbEntity
  8
Defpoints
 62
     0
100
AcDbPoint
 10
233.2404656534387
 20
153.2047192192657
 30
0.0
  0
POINT
  5
1222
330
D67
100
AcDbEntity
  8
Defpoints
 62
     0
100
AcDbPoint
 10
218.2404656534387
 20
122.5797192192657
 30
0.0
  0
POINT
  5
1223
330
D67
100
AcDbEntity
  8
Defpoints
 62
     0
100
AcDbPoint
 10
218.2404656534387
 20
172.0295923996595
 30
0.0
  0
ENDBLK
  5
D72
330
D67
100
AcDbEntity
  8
0
370
    15
100
AcDbBlockEnd
  0
BLOCK
  5
D7D
330
D73
100
AcDbEntity
  8
0
370
    15
100
AcDbBlockBegin
  2
*D2
 70
     1
 10
0.0
 20
0.0
 30
0.0
  3
*D2
  1
*D4
  0
LINE
  5
1212
330
D73
100
AcDbEntity
  8
文字・寸法線
 62
     0
370
    -2
100
AcDbLine
 10
303.2404656534387
 20
165.9751583259388
 30
0.0
 11
303.2404656534387
 21
172.5295923996595
 31
0.0
  0
LINE
  5
1213
330
D73
100
AcDbEntity
  8
文字・寸法線
 62
     0
370
    -2
100
AcDbLine
 10
233.2404656534387
 20
154.5797192192657
 30
0.0
 11
233.2404656534387
 21
172.5295923996595
 31
0.0
  0
LINE
  5
1214
330
D73
100
AcDbEntity
  8
文字・寸法線
 62
     0
370
    -2
100
AcDbLine
 10
300.7404656534387
 20
172.0295923996595
 30
0.0
 11
235.7404656534387
 21
172.0295923996595
 31
0.0
  0
SOLID
  5
1215
330
D73
100
AcDbEntity
  8
文字・寸法線
 62
     0
100
AcDbTrace
 10
300.7404656534387
 20
171.6129257329928
 30
0.0
 11
300.7404656534387
 21
172.4462590663261
 31
0.0
 12
303.2404656534387
 22
172.0295923996595
 32
0.0
 13
303.2404656534387
 23
172.0295923996595
 33
0.0
  0
SOLID
  5
1216
330
D73
100
AcDbEntity
  8
文字・寸法線
 62
     0
100
AcDbTrace
 10
235.7404656534387
 20
172.4462590663261
 30
0.0
 11
235.7404656534387
 21
171.6129257329928
 31
0.0
 12
233.2404656534387
 22
172.0295923996595
 32
0.0
 13
233.2404656534387
 23
172.0295923996595
 33
0.0
  0
MTEXT
  5
1217
330
D73
100
AcDbEntity
  8
文字・寸法線
 62
     0
100
AcDbMText
 10
268.2404656534387
 20
174.1545923996595
 30
0.0
 40
3.0
 41
0.0
 46
0.0
 71
     5
 72
     1
  1
70
 73
     1
 44
1.0
  0
POINT
  5
1218
330
D73
100
AcDbEntity
  8
Defpoints
 62
     0
100
AcDbPoint
 10
303.2404656534387
 20
163.9751583259388
 30
0.0
  0
POINT
  5
1219
330
D73
100
AcDbEntity
  8
Defpoints
 62
     0
100
AcDbPoint
 10
233.2404656534387
 20
152.5797192192657
 30
0.0
  0
POINT
  5
121A
330
D73
100
AcDbEntity
  8
Defpoints
 62
     0
100
AcDbPoint
 10
233.2404656534387
 20
172.0295923996595
 30
0.0
  0
ENDBLK
  5
D7E
330
D73
100
AcDbEntity
  8
0
370
    15
100
AcDbBlockEnd
  0
BLOCK
  5
D89
330
D7F
100
AcDbEntity
  8
0
370
    15
100
AcDbBlockBegin
  2
*D3
 70
     1
 10
0.0
 20
0.0
 30
0.0
  3
*D3
  1
*D5
  0
LINE
  5
1209
330
D7F
100
AcDbEntity
  8
文字・寸法線
 62
     0
370
    -2
100
AcDbLine
 10
338.2404656534387
 20
124.5797192192657
 30
0.0
 11
338.2404656534387
 21
172.5295923996595
 31
0.0
  0
LINE
  5
120A
330
D7F
100
AcDbEntity
  8
文字・寸法線
 62
     0
370
    -2
100
AcDbLine
 10
303.2404656534387
 20
165.3501583259388
 30
0.0
 11
303.2404656534387
 21
172.5295923996595
 31
0.0
  0
LINE
  5
120B
330
D7F
100
AcDbEntity
  8
文字・寸法線
 62
     0
370
    -2
100
AcDbLine
 10
335.7404656534387
 20
172.0295923996595
 30
0.0
 11
305.7404656534387
 21
172.0295923996595
 31
0.0
  0
SOLID
  5
120C
330
D7F
100
AcDbEntity
  8
文字・寸法線
 62
     0
100
AcDbTrace
 10
335.7404656534387
 20
171.6129257329928
 30
0.0
 11
335.7404656534387
 21
172.4462590663261
 31
0.0
 12
338.2404656534387
 22
172.0295923996595
 32
0.0
 13
338.2404656534387
 23
172.0295923996595
 33
0.0
  0
SOLID
  5
120D
330
D7F
100
AcDbEntity
  8
文字・寸法線
 62
     0
100
AcDbTrace
 10
305.7404656534387
 20
172.4462590663261
 30
0.0
 11
305.7404656534387
 21
171.6129257329928
 31
0.0
 12
303.2404656534387
 22
172.0295923996595
 32
0.0
 13
303.2404656534387
 23
172.0295923996595
 33
0.0
  0
MTEXT
  5
120E
330
D7F
100
AcDbEntity
  8
文字・寸法線
 62
     0
100
AcDbMText
 10
320.7404656534387
 20
174.1545923996595
 30
0.0
 40
3.0
 41
0.0
 46
0.0
 71
     5
 72
     1
  1
35
 73
     1
 44
1.0
  0
POINT
  5
120F
330
D7F
100
AcDbEntity
  8
Defpoints
 62
     0
100
AcDbPoint
 10
338.2404656534387
 20
122.5797192192657
 30
0.0
  0
POINT
  5
1210
330
D7F
100
AcDbEntity
  8
Defpoints
 62
     0
100
AcDbPoint
 10
303.2404656534387
 20
163.3501583259388
 30
0.0
  0
POINT
  5
1211
330
D7F
100
AcDbEntity
  8
Defpoints
 62
     0
100
AcDbPoint
 10
303.2404656534387
 20
172.0295923996595
 30
0.0
  0
ENDBLK
  5
D8A
330
D7F
100
AcDbEntity
  8
0
370
    15
100
AcDbBlockEnd
  0
BLOCK
  5
D95
330
D8B
100
AcDbEntity
  8
0
370
    15
100
AcDbBlockBegin
  2
*D4
 70
     1
 10
0.0
 20
0.0
 30
0.0
  3
*D4
  1
*D6
  0
LINE
  5
122D
330
D8B
100
AcDbEntity
  8
文字・寸法線
 62
     0
370
    -2
100
AcDbLine
 10
305.2404656534387
 20
157.5797192192657
 30
0.0
 11
365.4536294171108
 21
157.5797192192657
 31
0.0
  0
LINE
  5
122E
330
D8B
100
AcDbEntity
  8
文字・寸法線
 62
     0
370
    -2
100
AcDbLine
 10
305.2404656534387
 20
87.57971921926566
 30
0.0
 11
365.4536294171108
 21
87.57971921926566
 31
0.0
  0
LINE
  5
122F
330
D8B
100
AcDbEntity
  8
文字・寸法線
 62
     0
370
    -2
100
AcDbLine
 10
364.9536294171108
 20
155.0797192192657
 30
0.0
 11
364.9536294171108
 21
90.07971921926566
 31
0.0
  0
SOLID
  5
1230
330
D8B
100
AcDbEntity
  8
文字・寸法線
 62
     0
100
AcDbTrace
 10
365.3702960837775
 20
155.0797192192657
 30
0.0
 11
364.5369627504442
 21
155.0797192192657
 31
0.0
 12
364.9536294171108
 22
157.5797192192657
 32
0.0
 13
364.9536294171108
 23
157.5797192192657
 33
0.0
  0
SOLID
  5
1231
330
D8B
100
AcDbEntity
  8
文字・寸法線
 62
     0
100
AcDbTrace
 10
364.5369627504442
 20
90.07971921926566
 30
0.0
 11
365.3702960837775
 21
90.07971921926566
 31
0.0
 12
364.9536294171108
 22
87.57971921926566
 32
0.0
 13
364.9536294171108
 23
87.57971921926566
 33
0.0
  0
MTEXT
  5
1232
330
D8B
100
AcDbEntity
  8
文字・寸法線
 62
     0
100
AcDbMText
 10
362.8286294171108
 20
122.5797192192657
 30
0.0
 40
3.0
 41
0.0
 46
0.0
 71
     5
 72
     1
  1
70
 11
0.0
 21
1.0
 31
0.0
 73
     1
 44
1.0
  0
POINT
  5
1233
330
D8B
100
AcDbEntity
  8
Defpoints
 62
     0
100
AcDbPoint
 10
303.2404656534387
 20
157.5797192192657
 30
0.0
  0
POINT
  5
1234
330
D8B
100
AcDbEntity
  8
Defpoints
 62
     0
100
AcDbPoint
 10
303.2404656534387
 20
87.57971921926566
 30
0.0
  0
POINT
  5
1235
330
D8B
100
AcDbEntity
  8
Defpoints
 62
     0
100
AcDbPoint
 10
364.9536294171108
 20
87.57971921926566
 30
0.0
  0
ENDBLK
  5
D96
330
D8B
100
AcDbEntity
  8
0
370
    15
100
AcDbBlockEnd
  0
BLOCK
  5
DA1
330
D97
100
AcDbEntity
  8
0
370
    15
100
AcDbBlockBegin
  2
*D5
 70
     1
 10
0.0
 20
0.0
 30
0.0
  3
*D5
  1
*D7
  0
LINE
  5
1224
330
D97
100
AcDbEntity
  8
文字・寸法線
 62
     0
370
    -2
100
AcDbLine
 10
305.2404656534387
 20
149.5797192192657
 30
0.0
 11
357.4552148531683
 21
149.5797192192657
 31
0.0
  0
LINE
  5
1225
330
D97
100
AcDbEntity
  8
文字・寸法線
 62
     0
370
    -2
100
AcDbLine
 10
305.2404656534387
 20
95.57971921926566
 30
0.0
 11
357.4552148531683
 21
95.57971921926566
 31
0.0
  0
LINE
  5
1226
330
D97
100
AcDbEntity
  8
文字・寸法線
 62
     0
370
    -2
100
AcDbLine
 10
356.9552148531683
 20
147.0797192192657
 30
0.0
 11
356.9552148531683
 21
98.07971921926566
 31
0.0
  0
SOLID
  5
1227
330
D97
100
AcDbEntity
  8
文字・寸法線
 62
     0
100
AcDbTrace
 10
357.371881519835
 20
147.0797192192657
 30
0.0
 11
356.5385481865017
 21
147.0797192192657
 31
0.0
 12
356.9552148531683
 22
149.5797192192657
 32
0.0
 13
356.9552148531683
 23
149.5797192192657
 33
0.0
  0
SOLID
  5
1228
330
D97
100
AcDbEntity
  8
文字・寸法線
 62
     0
100
AcDbTrace
 10
356.5385481865017
 20
98.07971921926566
 30
0.0
 11
357.371881519835
 21
98.07971921926566
 31
0.0
 12
356.9552148531683
 22
95.57971921926566
 32
0.0
 13
356.9552148531683
 23
95.57971921926566
 33
0.0
  0
MTEXT
  5
1229
330
D97
100
AcDbEntity
  8
文字・寸法線
 62
     0
100
AcDbMText
 10
354.8302148531683
 20
122.5797192192657
 30
0.0
 40
3.0
 41
0.0
 46
0.0
 71
     5
 72
     1
  1
%%c54
 11
0.0
 21
1.0
 31
0.0
 73
     1
 44
1.0
  0
POINT
  5
122A
330
D97
100
AcDbEntity
  8
Defpoints
 62
     0
100
AcDbPoint
 10
303.2404656534387
 20
149.5797192192657
 30
0.0
  0
POINT
  5
122B
330
D97
100
AcDbEntity
  8
Defpoints
 62
     0
100
AcDbPoint
 10
303.2404656534387
 20
95.57971921926566
 30
0.0
  0
POINT
  5
122C
330
D97
100
AcDbEntity
  8
Defpoints
 62
     0
100
AcDbPoint
 10
356.9552148531683
 20
95.57971921926566
 30
0.0
  0
ENDBLK
  5
DA2
330
D97
100
AcDbEntity
  8
0
370
    15
100
AcDbBlockEnd
  0
BLOCK
  5
DAF
330
DA3
100
AcDbEntity
  8
0
370
    15
100
AcDbBlockBegin
  2
*D6
 70
     1
 10
0.0
 20
0.0
 30
0.0
  3
*D6
  1
*D8
  0
LINE
  5
127B
330
DA3
100
AcDbEntity
  8
文字・寸法線
 62
     0
370
    -2
100
AcDbLine
 10
49.30394300006125
 20
90.13154395796488
 30
0.0
 11
42.13946760063024
 21
90.13154395796488
 31
0.0
  0
LINE
  5
127C
330
DA3
100
AcDbEntity
  8
文字・寸法線
 62
     0
370
    -2
100
AcDbLine
 10
49.30394300006125
 20
88.13154395796488
 30
0.0
 11
42.13946760063024
 21
88.13154395796488
 31
0.0
  0
LINE
  5
127D
330
DA3
100
AcDbEntity
  8
文字・寸法線
 62
     0
370
    -2
100
AcDbLine
 10
42.63946760063024
 20
92.63154395796488
 30
0.0
 11
42.63946760063024
 21
95.13154395796488
 31
0.0
  0
LINE
  5
127E
330
DA3
100
AcDbEntity
  8
文字・寸法線
 62
     0
370
    -2
100
AcDbLine
 10
42.63946760063024
 20
85.63154395796488
 30
0.0
 11
42.63946760063024
 21
83.13154395796488
 31
0.0
  0
MTEXT
  5
127F
330
DA3
100
AcDbEntity
  8
文字・寸法線
 62
     0
100
AcDbMText
 10
40.16846360861359
 20
94.95567635554926
 30
0.0
 40
3.0
 41
0.0
 46
0.0
 71
     5
 72
     1
  1
2
 11
6.123031769111886E-17
 21
1.0
 31
0.0
 73
     1
 44
1.0
  0
LINE
  5
1280
330
DA3
100
AcDbEntity
  8
文字・寸法線
 62
     0
370
    -2
100
AcDbLine
 10
42.63946760063024
 20
90.13154395796488
 30
0.0
 11
42.63946760063024
 21
88.13154395796488
 31
0.0
  0
SOLID
  5
1281
330
DA3
100
AcDbEntity
  8
文字・寸法線
 62
     0
100
AcDbTrace
 10
42.22280093396358
 20
92.63154395796488
 30
0.0
 11
43.0561342672969
 21
92.63154395796488
 31
0.0
 12
42.63946760063024
 22
90.13154395796488
 32
0.0
 13
42.63946760063024
 23
90.13154395796488
 33
0.0
  0
SOLID
  5
1282
330
DA3
100
AcDbEntity
  8
文字・寸法線
 62
     0
100
AcDbTrace
 10
42.22280093396358
 20
85.63154395796488
 30
0.0
 11
43.0561342672969
 21
85.63154395796488
 31
0.0
 12
42.63946760063024
 22
88.13154395796488
 32
0.0
 13
42.63946760063024
 23
88.13154395796488
 33
0.0
  0
POINT
  5
1283
330
DA3
100
AcDbEntity
  8
Defpoints
 62
     0
100
AcDbPoint
 10
51.30394300006125
 20
90.13154395796488
 30
0.0
  0
POINT
  5
1284
330
DA3
100
AcDbEntity
  8
Defpoints
 62
     0
100
AcDbPoint
 10
51.30394300006125
 20
88.13154395796488
 30
0.0
  0
POINT
  5
1285
330
DA3
100
AcDbEntity
  8
Defpoints
 62
     0
100
AcDbPoint
 10
42.63946760063024
 20
88.13154395796488
 30
0.0
  0
ENDBLK
  5
DB0
330
DA3
100
AcDbEntity
  8
0
370
    15
100
AcDbBlockEnd
  0
BLOCK
  5
DBB
330
DB1
100
AcDbEntity
  8
0
370
    15
100
AcDbBlockBegin
  2
*D7
 70
     1
 10
0.0
 20
0.0
 30
0.0
  3
*D7
  1
*D9
  0
LINE
  5
11F5
330
DB1
100
AcDbEntity
  8
文字・寸法線
 62
     0
370
    -2
100
AcDbLine
 10
51.30394300006125
 20
86.13154395796488
 30
0.0
 11
51.30394300006125
 21
70.37938465343706
 31
0.0
  0
LINE
  5
11F6
330
DB1
100
AcDbEntity
  8
文字・寸法線
 62
     0
370
    -2
100
AcDbLine
 10
171.3039430000613
 20
86.13154395796488
 30
0.0
 11
171.3039430000613
 21
70.37938465343706
 31
0.0
  0
LINE
  5
11F7
330
DB1
100
AcDbEntity
  8
文字・寸法線
 62
     0
370
    -2
100
AcDbLine
 10
53.80394300006125
 20
70.87938465343706
 30
0.0
 11
168.8039430000613
 21
70.87938465343706
 31
0.0
  0
SOLID
  5
11F8
330
DB1
100
AcDbEntity
  8
文字・寸法線
 62
     0
100
AcDbTrace
 10
53.80394300006125
 20
71.29605132010373
 30
0.0
 11
53.80394300006125
 21
70.46271798677039
 31
0.0
 12
51.30394300006125
 22
70.87938465343706
 32
0.0
 13
51.30394300006125
 23
70.87938465343706
 33
0.0
  0
SOLID
  5
11F9
330
DB1
100
AcDbEntity
  8
文字・寸法線
 62
     0
100
AcDbTrace
 10
168.8039430000613
 20
71.29605132010373
 30
0.0
 11
168.8039430000613
 21
70.46271798677039
 31
0.0
 12
171.3039430000613
 22
70.87938465343706
 32
0.0
 13
171.3039430000613
 23
70.87938465343706
 33
0.0
  0
MTEXT
  5
11FA
330
DB1
100
AcDbEntity
  8
文字・寸法線
 62
     0
100
AcDbMText
 10
111.3039430000613
 20
73.00438465343706
 30
0.0
 40
3.0
 41
0.0
 46
0.0
 71
     5
 72
     1
  1
120
 73
     1
 44
1.0
  0
POINT
  5
11FB
330
DB1
100
AcDbEntity
  8
Defpoints
 62
     0
100
AcDbPoint
 10
51.30394300006125
 20
88.13154395796488
 30
0.0
  0
POINT
  5
11FC
330
DB1
100
AcDbEntity
  8
Defpoints
 62
     0
100
AcDbPoint
 10
171.3039430000613
 20
88.13154395796488
 30
0.0
  0
POINT
  5
11FD
330
DB1
100
AcDbEntity
  8
Defpoints
 62
     0
100
AcDbPoint
 10
171.3039430000613
 20
70.87938465343706
 30
0.0
  0
ENDBLK
  5
DBC
330
DB1
100
AcDbEntity
  8
0
370
    15
100
AcDbBlockEnd
  0
BLOCK
  5
1093
330
1089
100
AcDbEntity
  8
0
100
AcDbBlockBegin
  2
*D8
 70
     1
 10
0.0
 20
0.0
 30
0.0
  3
*D8
  1
*D23
  0
LINE
  5
11EC
330
1089
100
AcDbEntity
  8
文字・寸法線
 62
     0
370
    -2
100
AcDbLine
 10
152.184222411574
 20
118.1315439579648
 30
0.0
 11
187.0573544393507
 21
118.1315439579648
 31
0.0
  0
LINE
  5
11ED
330
1089
100
AcDbEntity
  8
文字・寸法線
 62
     0
370
    -2
100
AcDbLine
 10
148.7062919655352
 20
108.1315428012578
 30
0.0
 11
187.0573544393507
 21
108.1315428012578
 31
0.0
  0
LINE
  5
11EE
330
1089
100
AcDbEntity
  8
文字・寸法線
 62
     0
370
    -2
100
AcDbLine
 10
186.5573544393507
 20
115.6315439579648
 30
0.0
 11
186.5573544393507
 21
110.6315428012578
 31
0.0
  0
SOLID
  5
11EF
330
1089
100
AcDbEntity
  8
文字・寸法線
 62
     0
100
AcDbTrace
 10
186.1406877726841
 20
115.6315439579648
 30
0.0
 11
186.9740211060174
 21
115.6315439579648
 31
0.0
 12
186.5573544393507
 22
118.1315439579648
 32
0.0
 13
186.5573544393507
 23
118.1315439579648
 33
0.0
  0
SOLID
  5
11F0
330
1089
100
AcDbEntity
  8
文字・寸法線
 62
     0
100
AcDbTrace
 10
186.1406877726841
 20
110.6315428012578
 30
0.0
 11
186.9740211060174
 21
110.6315428012578
 31
0.0
 12
186.5573544393507
 22
108.1315428012578
 32
0.0
 13
186.5573544393507
 23
108.1315428012578
 33
0.0
  0
MTEXT
  5
11F1
330
1089
100
AcDbEntity
  8
文字・寸法線
 62
     0
100
AcDbMText
 10
184.4323544393507
 20
113.1315433796113
 30
0.0
 40
3.0
 41
0.0
 46
0.0
 71
     5
 72
     1
  1
10
 11
6.123031769111886E-17
 21
1.0
 31
0.0
 73
     1
 44
1.0
  0
POINT
  5
11F2
330
1089
100
AcDbEntity
  8
Defpoints
 62
     0
100
AcDbPoint
 10
150.184222411574
 20
118.1315439579648
 30
0.0
  0
POINT
  5
11F3
330
1089
100
AcDbEntity
  8
Defpoints
 62
     0
100
AcDbPoint
 10
146.7062919655352
 20
108.1315428012578
 30
0.0
  0
POINT
  5
11F4
330
1089
100
AcDbEntity
  8
Defpoints
 62
     0
100
AcDbPoint
 10
186.5573544393507
 20
108.1315428012578
 30
0.0
  0
ENDBLK
  5
1094
330
1089
100
AcDbEntity
  8
0
100
AcDbBlockEnd
  0
BLOCK
  5
10B7
330
10AD
100
AcDbEntity
  8
0
100
AcDbBlockBegin
  2
*D9
 70
     1
 10
0.0
 20
0.0
 30
0.0
  3
*D9
  1
*D26
  0
LINE
  5
1345
330
10AD
100
AcDbEntity
  8
文字・寸法線
 62
     0
370
    -2
100
AcDbLine
 10
144.334222411574
 20
218.1315439579648
 30
0.0
 11
187.0573544393507
 21
218.1315439579648
 31
0.0
  0
LINE
  5
1346
330
10AD
100
AcDbEntity
  8
文字・寸法線
 62
     0
370
    -2
100
AcDbLine
 10
152.184222411574
 20
118.1315439579648
 30
0.0
 11
187.0573544393507
 21
118.1315439579648
 31
0.0
  0
LINE
  5
1347
330
10AD
100
AcDbEntity
  8
文字・寸法線
 62
     0
370
    -2
100
AcDbLine
 10
186.5573544393507
 20
215.6315439579648
 30
0.0
 11
186.5573544393507
 21
120.6315439579648
 31
0.0
  0
SOLID
  5
1348
330
10AD
100
AcDbEntity
  8
文字・寸法線
 62
     0
100
AcDbTrace
 10
186.1406877726841
 20
215.6315439579648
 30
0.0
 11
186.9740211060174
 21
215.6315439579648
 31
0.0
 12
186.5573544393507
 22
218.1315439579648
 32
0.0
 13
186.5573544393507
 23
218.1315439579648
 33
0.0
  0
SOLID
  5
1349
330
10AD
100
AcDbEntity
  8
文字・寸法線
 62
     0
100
AcDbTrace
 10
186.1406877726841
 20
120.6315439579648
 30
0.0
 11
186.9740211060174
 21
120.6315439579648
 31
0.0
 12
186.5573544393507
 22
118.1315439579648
 32
0.0
 13
186.5573544393507
 23
118.1315439579648
 33
0.0
  0
MTEXT
  5
134A
330
10AD
100
AcDbEntity
  8
文字・寸法線
 62
     0
100
AcDbMText
 10
184.4323544393507
 20
168.1315439579649
 30
0.0
 40
3.0
 41
0.0
 46
0.0
 71
     5
 72
     1
  1
180
 11
6.123031769111886E-17
 21
1.0
 31
0.0
 73
     1
 44
1.0
  0
POINT
  5
134B
330
10AD
100
AcDbEntity
  8
Defpoints
 62
     0
100
AcDbPoint
 10
142.334222411574
 20
218.1315439579648
 30
0.0
  0
POINT
  5
134C
330
10AD
100
AcDbEntity
  8
Defpoints
 62
     0
100
AcDbPoint
 10
150.184222411574
 20
118.1315439579648
 30
0.0
  0
POINT
  5
134D
330
10AD
100
AcDbEntity
  8
Defpoints
 62
     0
100
AcDbPoint
 10
186.5573544393507
 20
118.1315439579648
 30
0.0
  0
ENDBLK
  5
10B8
330
10AD
100
AcDbEntity
  8
0
100
AcDbBlockEnd
  0
BLOCK
  5
10C3
330
10B9
100
AcDbEntity
  8
0
100
AcDbBlockBegin
  2
*D10
 70
     1
 10
0.0
 20
0.0
 30
0.0
  3
*D10
  1
*D27
  0
LINE
  5
1236
330
10B9
100
AcDbEntity
  8
文字・寸法線
 62
     0
370
    -2
100
AcDbLine
 10
291.2460138110242
 20
113.6547192192657
 30
0.0
 11
291.2460138110242
 21
72.33323890458291
 31
0.0
  0
LINE
  5
1237
330
10B9
100
AcDbEntity
  8
文字・寸法線
 62
     0
370
    -2
100
AcDbLine
 10
315.2349174958533
 20
113.6547192192657
 30
0.0
 11
315.2349174958533
 21
72.33323890458291
 31
0.0
  0
LINE
  5
1238
330
10B9
100
AcDbEntity
  8
文字・寸法線
 62
     0
370
    -2
100
AcDbLine
 10
293.7460138110242
 20
72.83323890458291
 30
0.0
 11
312.7349174958533
 21
72.83323890458291
 31
0.0
  0
SOLID
  5
1239
330
10B9
100
AcDbEntity
  8
文字・寸法線
 62
     0
100
AcDbTrace
 10
293.7460138110242
 20
73.24990557124958
 30
0.0
 11
293.7460138110242
 21
72.41657223791624
 31
0.0
 12
291.2460138110242
 22
72.83323890458291
 32
0.0
 13
291.2460138110242
 23
72.83323890458291
 33
0.0
  0
SOLID
  5
123A
330
10B9
100
AcDbEntity
  8
文字・寸法線
 62
     0
100
AcDbTrace
 10
312.7349174958533
 20
72.41657223791624
 30
0.0
 11
312.7349174958533
 21
73.24990557124958
 31
0.0
 12
315.2349174958533
 22
72.83323890458291
 32
0.0
 13
315.2349174958533
 23
72.83323890458291
 33
0.0
  0
MTEXT
  5
123B
330
10B9
100
AcDbEntity
  8
文字・寸法線
 62
     0
100
AcDbMText
 10
303.2404656534387
 20
74.95823890458291
 30
0.0
 40
3.0
 41
0.0
 46
0.0
 71
     5
 72
     1
  1
24
 73
     1
 44
1.0
  0
POINT
  5
123C
330
10B9
100
AcDbEntity
  8
Defpoints
 62
     0
100
AcDbPoint
 10
291.2460138110242
 20
115.6547192192657
 30
0.0
  0
POINT
  5
123D
330
10B9
100
AcDbEntity
  8
Defpoints
 62
     0
100
AcDbPoint
 10
315.2349174958533
 20
115.6547192192657
 30
0.0
  0
POINT
  5
123E
330
10B9
100
AcDbEntity
  8
Defpoints
 62
     0
100
AcDbPoint
 10
315.2349174958533
 20
72.83323890458291
 30
0.0
  0
ENDBLK
  5
10C4
330
10B9
100
AcDbEntity
  8
0
100
AcDbBlockEnd
  0
BLOCK
  5
10CF
330
10C5
100
AcDbEntity
  8
0
100
AcDbBlockBegin
  2
*D11
 70
     1
 10
0.0
 20
0.0
 30
0.0
  3
*D11
  1
*D28
  0
LINE
  5
12BD
330
10C5
100
AcDbEntity
  8
文字・寸法線
 62
     0
370
    -2
100
AcDbLine
 10
128.334222411574
 20
218.1315439579648
 30
0.0
 11
128.334222411574
 21
231.5239609810678
 31
0.0
  0
LINE
  5
12BE
330
10C5
100
AcDbEntity
  8
文字・寸法線
 62
     0
370
    -2
100
AcDbLine
 10
144.334222411574
 20
218.1315439579648
 30
0.0
 11
144.334222411574
 21
231.5239609810678
 31
0.0
  0
LINE
  5
12BF
330
10C5
100
AcDbEntity
  8
文字・寸法線
 62
     0
370
    -2
100
AcDbLine
 10
130.834222411574
 20
231.0239609810678
 30
0.0
 11
141.834222411574
 21
231.0239609810678
 31
0.0
  0
SOLID
  5
12C0
330
10C5
100
AcDbEntity
  8
文字・寸法線
 62
     0
100
AcDbTrace
 10
130.834222411574
 20
231.4406276477345
 30
0.0
 11
130.834222411574
 21
230.6072943144012
 31
0.0
 12
128.334222411574
 22
231.0239609810678
 32
0.0
 13
128.334222411574
 23
231.0239609810678
 33
0.0
  0
SOLID
  5
12C1
330
10C5
100
AcDbEntity
  8
文字・寸法線
 62
     0
100
AcDbTrace
 10
141.834222411574
 20
231.4406276477345
 30
0.0
 11
141.834222411574
 21
230.6072943144012
 31
0.0
 12
144.334222411574
 22
231.0239609810678
 32
0.0
 13
144.334222411574
 23
231.0239609810678
 33
0.0
  0
MTEXT
  5
12C2
330
10C5
100
AcDbEntity
  8
文字・寸法線
 62
     0
100
AcDbMText
 10
136.334222411574
 20
233.1489609810678
 30
0.0
 40
3.0
 41
0.0
 46
0.0
 71
     5
 72
     1
  1
M16
 73
     1
 44
1.0
  0
POINT
  5
12C3
330
10C5
100
AcDbEntity
  8
Defpoints
 62
     0
100
AcDbPoint
 10
128.334222411574
 20
216.1315439579648
 30
0.0
  0
POINT
  5
12C4
330
10C5
100
AcDbEntity
  8
Defpoints
 62
     0
100
AcDbPoint
 10
144.334222411574
 20
216.1315439579648
 30
0.0
  0
POINT
  5
12C5
330
10C5
100
AcDbEntity
  8
Defpoints
 62
     0
100
AcDbPoint
 10
144.334222411574
 20
231.0239609810678
 30
0.0
  0
ENDBLK
  5
10D0
330
10C5
100
AcDbEntity
  8
0
100
AcDbBlockEnd
  0
BLOCK
  5
110C
330
1102
100
AcDbEntity
  8
0
100
AcDbBlockBegin
  2
*D12
 70
     1
 10
0.0
 20
0.0
 30
0.0
  3
*D12
  1
*D30
  0
LINE
  5
11DA
330
1102
100
AcDbEntity
  8
文字・寸法線
 62
     0
370
    -2
100
AcDbLine
 10
150.7062919655352
 20
108.1315428012578
 30
0.0
 11
187.0573544393507
 21
108.1315428012578
 31
0.0
  0
LINE
  5
11DB
330
1102
100
AcDbEntity
  8
文字・寸法線
 62
     0
370
    -2
100
AcDbLine
 10
173.3039430000613
 20
88.13154395796488
 30
0.0
 11
187.0573544393507
 21
88.13154395796488
 31
0.0
  0
LINE
  5
11DC
330
1102
100
AcDbEntity
  8
文字・寸法線
 62
     0
370
    -2
100
AcDbLine
 10
186.5573544393507
 20
105.6315428012578
 30
0.0
 11
186.5573544393507
 21
90.63154395796488
 31
0.0
  0
SOLID
  5
11DD
330
1102
100
AcDbEntity
  8
文字・寸法線
 62
     0
100
AcDbTrace
 10
186.1406877726841
 20
105.6315428012578
 30
0.0
 11
186.9740211060174
 21
105.6315428012578
 31
0.0
 12
186.5573544393507
 22
108.1315428012578
 32
0.0
 13
186.5573544393507
 23
108.1315428012578
 33
0.0
  0
SOLID
  5
11DE
330
1102
100
AcDbEntity
  8
文字・寸法線
 62
     0
100
AcDbTrace
 10
186.1406877726841
 20
90.63154395796488
 30
0.0
 11
186.9740211060174
 21
90.63154395796488
 31
0.0
 12
186.5573544393507
 22
88.13154395796488
 32
0.0
 13
186.5573544393507
 23
88.13154395796488
 33
0.0
  0
MTEXT
  5
11DF
330
1102
100
AcDbEntity
  8
文字・寸法線
 62
     0
100
AcDbMText
 10
184.4323544393507
 20
98.13154337961136
 30
0.0
 40
3.0
 41
0.0
 46
0.0
 71
     5
 72
     1
  1
20
 11
6.123031769111886E-17
 21
1.0
 31
0.0
 73
     1
 44
1.0
  0
POINT
  5
11E0
330
1102
100
AcDbEntity
  8
Defpoints
 62
     0
100
AcDbPoint
 10
148.7062919655352
 20
108.1315428012578
 30
0.0
  0
POINT
  5
11E1
330
1102
100
AcDbEntity
  8
Defpoints
 62
     0
100
AcDbPoint
 10
171.3039430000613
 20
88.13154395796488
 30
0.0
  0
POINT
  5
11E2
330
1102
100
AcDbEntity
  8
Defpoints
 62
     0
100
AcDbPoint
 10
186.5573544393507
 20
88.13154395796488
 30
0.0
  0
ENDBLK
  5
110D
330
1102
100
AcDbEntity
  8
0
100
AcDbBlockEnd
  0
BLOCK
  5
124A
330
1240
100
AcDbEntity
  8
0
100
AcDbBlockBegin
  2
*D13
 70
     1
 10
0.0
 20
0.0
 30
0.0
  3
*D13
  1
*D32
  0
LINE
  5
134E
330
1240
100
AcDbEntity
  8
文字・寸法線
 62
     0
370
    -2
100
AcDbLine
 10
144.334222411574
 20
218.1315439579648
 30
0.0
 11
193.9128323306871
 21
218.1315439579648
 31
0.0
  0
LINE
  5
134F
330
1240
100
AcDbEntity
  8
文字・寸法線
 62
     0
370
    -2
100
AcDbLine
 10
173.3039430000613
 20
88.13154395796488
 30
0.0
 11
193.912832330687
 21
88.13154395796488
 31
0.0
  0
LINE
  5
1350
330
1240
100
AcDbEntity
  8
文字・寸法線
 62
     0
370
    -2
100
AcDbLine
 10
193.4128323306871
 20
215.6315439579648
 30
0.0
 11
193.412832330687
 21
90.63154395796488
 31
0.0
  0
SOLID
  5
1351
330
1240
100
AcDbEntity
  8
文字・寸法線
 62
     0
100
AcDbTrace
 10
192.9961656640204
 20
215.6315439579648
 30
0.0
 11
193.8294989973537
 21
215.6315439579648
 31
0.0
 12
193.4128323306871
 22
218.1315439579648
 32
0.0
 13
193.4128323306871
 23
218.1315439579648
 33
0.0
  0
SOLID
  5
1352
330
1240
100
AcDbEntity
  8
文字・寸法線
 62
     0
100
AcDbTrace
 10
192.9961656640204
 20
90.63154395796488
 30
0.0
 11
193.8294989973537
 21
90.63154395796488
 31
0.0
 12
193.412832330687
 22
88.13154395796488
 32
0.0
 13
193.412832330687
 23
88.13154395796488
 33
0.0
  0
MTEXT
  5
1353
330
1240
100
AcDbEntity
  8
文字・寸法線
 62
     0
100
AcDbMText
 10
191.287832330687
 20
153.1315439579649
 30
0.0
 40
3.0
 41
0.0
 46
0.0
 71
     5
 72
     1
  1
210
 11
6.123031769111886E-17
 21
1.0
 31
0.0
 73
     1
 44
1.0
  0
POINT
  5
1354
330
1240
100
AcDbEntity
  8
Defpoints
 62
     0
100
AcDbPoint
 10
142.334222411574
 20
218.1315439579648
 30
0.0
  0
POINT
  5
1355
330
1240
100
AcDbEntity
  8
Defpoints
 62
     0
100
AcDbPoint
 10
171.3039430000613
 20
88.13154395796488
 30
0.0
  0
POINT
  5
1356
330
1240
100
AcDbEntity
  8
Defpoints
 62
     0
100
AcDbPoint
 10
193.412832330687
 20
88.13154395796488
 30
0.0
  0
ENDBLK
  5
124B
330
1240
100
AcDbEntity
  8
0
100
AcDbBlockEnd
  0
ENDSEC
  0
SECTION
  2
ENTITIES
  0
DIMENSION
  5
D0E
102
{ACAD_XDICTIONARY
360
D0F
102
}
330
21
100
AcDbEntity
  8
文字・寸法線
100
AcDbDimension
280
     0
  2
*D1
 10
218.2404656534387
 20
172.0295923996595
 30
0.0
 11
225.7404656534387
 21
174.1545923996595
 31
0.0
 70
    32
 71
     5
 42
15.0
 73
     0
 74
     0
 75
     0
  3
ISO-25
100
AcDbAlignedDimension
 13
233.2404656534387
 23
153.2047192192657
 33
0.0
 14
218.2404656534387
 24
122.5797192192657
 34
0.0
100
AcDbRotatedDimension
  0
DIMENSION
  5
D11
102
{ACAD_REACTORS
330
D13
102
}
102
{ACAD_XDICTIONARY
360
D12
102
}
330
21
100
AcDbEntity
  8
文字・寸法線
100
AcDbDimension
280
     0
  2
*D2
 10
233.2404656534387
 20
172.0295923996595
 30
0.0
 11
268.2404656534387
 21
174.1545923996595
 31
0.0
 70
    32
 71
     5
 42
70.0
 73
     0
 74
     0
 75
     0
  3
ISO-25
100
AcDbAlignedDimension
 13
303.2404656534387
 23
163.9751583259388
 33
0.0
 14
233.2404656534387
 24
152.5797192192657
 34
0.0
100
AcDbRotatedDimension
  0
DIMENSION
  5
D14
102
{ACAD_REACTORS
330
D16
102
}
102
{ACAD_XDICTIONARY
360
D15
102
}
330
21
100
AcDbEntity
  8
文字・寸法線
100
AcDbDimension
280
     0
  2
*D3
 10
303.2404656534387
 20
172.0295923996595
 30
0.0
 11
320.7404656534387
 21
174.1545923996595
 31
0.0
 70
    32
 71
     5
 42
35.0
 73
     0
 74
     0
 75
     0
  3
ISO-25
100
AcDbAlignedDimension
 13
338.2404656534387
 23
122.5797192192657
 33
0.0
 14
303.2404656534387
 24
163.3501583259388
 34
0.0
100
AcDbRotatedDimension
  0
LINE
  5
D17
102
{ACAD_REACTORS
330
D13
102
}
330
21
100
AcDbEntity
  8
中心線
100
AcDbLine
 10
233.2404656534387
 20
152.5797192192657
 30
0.0
 11
233.2404656534387
 21
92.57971921926566
 31
0.0
  0
DIMENSION
  5
D18
102
{ACAD_REACTORS
330
D1A
102
}
102
{ACAD_XDICTIONARY
360
D19
102
}
330
21
100
AcDbEntity
  8
文字・寸法線
100
AcDbDimension
280
     0
  2
*D4
 10
364.9536294171108
 20
87.57971921926566
 30
0.0
 11
362.8286294171108
 21
122.5797192192657
 31
0.0
 70
    32
 71
     5
 42
70.00000000000003
 73
     0
 74
     0
 75
     0
  3
ISO-25
100
AcDbAlignedDimension
 13
303.2404656534387
 23
157.5797192192657
 33
0.0
 14
303.2404656534387
 24
87.57971921926566
 34
0.0
 50
90.0
100
AcDbRotatedDimension
  0
DIMENSION
  5
D1B
102
{ACAD_REACTORS
330
D1D
102
}
102
{ACAD_XDICTIONARY
360
D1C
102
}
330
21
100
AcDbEntity
  8
文字・寸法線
100
AcDbDimension
280
     0
  2
*D5
 10
356.9552148531683
 20
95.57971921926566
 30
0.0
 11
354.8302148531683
 21
122.5797192192657
 31
0.0
 70
    32
  1
%%c<>
 71
     5
 42
54.00000000000003
 73
     0
 74
     0
 75
     0
  3
ISO-25
100
AcDbAlignedDimension
 13
303.2404656534387
 23
149.5797192192657
 33
0.0
 14
303.2404656534387
 24
95.57971921926566
 34
0.0
 50
90.0
100
AcDbRotatedDimension
  0
LINE
  5
D1E
330
21
100
AcDbEntity
  8
中心線
100
AcDbLine
 10
303.2404656534387
 20
122.5797192192657
 30
0.0
 11
210.6518762775027
 21
122.5797192192657
 31
0.0
  0
LINE
  5
D1F
102
{ACAD_REACTORS
330
D1A
102
}
330
21
100
AcDbEntity
  8
中心線
100
AcDbLine
 10
303.2404656534387
 20
122.5797192192657
 30
0.0
 11
303.2404656534387
 21
83.04125096422479
 31
0.0
  0
LINE
  5
D20
102
{ACAD_REACTORS
330
D1D
330
D1A
330
D16
102
}
330
21
100
AcDbEntity
  8
中心線
100
AcDbLine
 10
303.2404656534387
 20
122.5797192192657
 30
0.0
 11
303.2404656534387
 21
163.3501583259388
 31
0.0
  0
LINE
  5
D21
102
{ACAD_REACTORS
330
D16
102
}
330
21
100
AcDbEntity
  8
中心線
100
AcDbLine
 10
303.2404656534387
 20
122.5797192192657
 30
0.0
 11
347.1495931919125
 21
122.5797192192657
 31
0.0
  0
DIMENSION
  5
D22
102
{ACAD_REACTORS
330
D24
102
}
102
{ACAD_XDICTIONARY
360
D23
102
}
330
21
100
AcDbEntity
  8
文字・寸法線
100
AcDbDimension
280
     0
  2
*D6
 10
42.63946760063024
 20
88.13154395796488
 30
0.0
 11
40.16846360861359
 21
94.95567635554926
 31
0.0
 70
   160
 71
     5
 42
2.0
 73
     0
 74
     0
 75
     0
  3
ISO-25
100
AcDbAlignedDimension
 13
51.30394300006125
 23
90.13154395796488
 33
0.0
 14
51.30394300006125
 24
88.13154395796488
 34
0.0
 50
90.0
100
AcDbRotatedDimension
1001
ACAD
1000
DSTYLE
1002
{
1070
   279
1070
     2
1002
}
  0
DIMENSION
  5
D25
102
{ACAD_REACTORS
330
D27
102
}
102
{ACAD_XDICTIONARY
360
D26
102
}
330
21
100
AcDbEntity
  8
文字・寸法線
100
AcDbDimension
280
     0
  2
*D7
 10
171.3039430000613
 20
70.87938465343706
 30
0.0
 11
111.3039430000613
 21
73.00438465343706
 31
0.0
 70
    32
 71
     5
 42
120.0
 73
     0
 74
     0
 75
     0
  3
ISO-25
100
AcDbAlignedDimension
 13
51.30394300006125
 23
88.13154395796488
 33
0.0
 14
171.3039430000613
 24
88.13154395796488
 34
0.0
100
AcDbRotatedDimension
  0
LINE
  5
D2F
102
{ACAD_REACTORS
330
D27
330
D24
102
}
330
21
100
AcDbEntity
  8
実線
100
AcDbLine
 10
171.3039430000613
 20
88.13154395796488
 30
0.0
 11
51.30394300006125
 21
88.13154395796488
 31
0.0
  0
LINE
  5
D30
102
{ACAD_REACTORS
330
D24
102
}
330
21
100
AcDbEntity
  8
実線
100
AcDbLine
 10
51.30394300006125
 20
90.13154395796488
 30
0.0
 11
51.30394300006125
 21
88.13154395796488
 31
0.0
  0
LINE
  5
D31
102
{ACAD_REACTORS
330
1118
330
1256
102
}
330
21
100
AcDbEntity
  8
実線
100
AcDbLine
 10
171.3039430000613
 20
90.13154395796488
 30
0.0
 11
171.3039430000613
 21
88.13154395796488
 31
0.0
  0
LINE
  5
D32
330
21
100
AcDbEntity
  8
実線
100
AcDbLine
 10
107.3441143486161
 20
90.13154395796488
 30
0.0
 11
51.30394300006125
 21
90.13154395796488
 31
0.0
  0
ARC
  5
D33
330
21
100
AcDbEntity
  8
実線
100
AcDbCircle
 10
135.4924517202399
 20
80.14419999496596
 30
0.0
 40
28.0
100
AcDbArc
 50
88.27724371764174
 51
155.2319015012844
  0
ARC
  5
D34
330
21
100
AcDbEntity
  8
実線
100
AcDbCircle
 10
107.3441143486161
 20
93.13154395796488
 30
0.0
 40
3.0
100
AcDbArc
 50
269.9999999999996
 51
335.2319015012845
  0
ARC
  5
D35
330
21
100
AcDbEntity
  8
実線
100
AcDbCircle
 10
165.3243304745319
 20
93.13154395796488
 30
0.0
 40
3.0
100
AcDbArc
 50
204.7680984987156
 51
270.0000000000004
  0
ARC
  5
D36
330
21
100
AcDbEntity
  8
実線
100
AcDbCircle
 10
137.175993102908
 20
80.14419999496596
 30
0.0
 40
28.0
100
AcDbArc
 50
24.76809849871562
 51
91.72275628235826
  0
LINE
  5
D37
330
21
100
AcDbEntity
  8
実線
100
AcDbLine
 10
165.3243304745319
 20
90.13154395796488
 30
0.0
 11
171.334222411574
 21
90.13154395796488
 31
0.0
  0
LINE
  5
D38
330
21
100
AcDbEntity
  8
実線
100
AcDbLine
 10
107.3441143486161
 20
90.13154395796488
 30
0.0
 11
167.4285929610099
 21
90.13154395796488
 31
0.0
  0
CIRCLE
  5
D39
102
{ACAD_REACTORS
330
D1D
102
}
330
21
100
AcDbEntity
  8
実線
100
AcDbCircle
 10
303.2404656534387
 20
122.5797192192657
 30
0.0
 40
27.0
  0
CIRCLE
  5
D3A
330
21
100
AcDbEntity
  8
実線
100
AcDbCircle
 10
233.2404656534387
 20
122.5797192192657
 30
0.0
 40
7.0
  0
ARC
  5
D3B
102
{ACAD_REACTORS
330
EF5
102
}
330
21
100
AcDbEntity
  8
実線
100
AcDbCircle
 10
233.2404656534387
 20
122.5797192192657
 30
0.0
 40
15.0
100
AcDbArc
 50
99.55953660869511
 51
260.4404633913044
  0
ARC
  5
D3C
102
{ACAD_REACTORS
330
D1A
330
D16
102
}
330
21
100
AcDbEntity
  8
実線
100
AcDbCircle
 10
303.2404656534387
 20
122.5797192192657
 30
0.0
 40
35.0
100
AcDbArc
 50
253.2990352067444
 51
106.7009647932556
  0
LINE
  5
D3D
330
21
100
AcDbEntity
  8
実線
100
AcDbLine
 10
230.7493800186595
 20
107.7880157216899
 30
0.0
 11
293.1822829591408
 21
89.05610126284384
 31
0.0
  0
LINE
  5
D3E
330
21
100
AcDbEntity
  8
実線
100
AcDbLine
 10
230.7493800186596
 20
137.3714227168415
 30
0.0
 11
293.1822829591408
 21
156.1033371756875
 31
0.0
  0
LEADER
  5
EF2
102
{ACAD_REACTORS
330
EF5
102
}
102
{ACAD_XDICTIONARY
360
EF4
102
}
330
21
100
AcDbEntity
  8
文字・寸法線
100
AcDbLeader
  3
ISO-25
 73
     0
 40
3.0
 41
7.0
 76
     3
 10
233.2404656534387
 20
122.5797192192657
 30
0.0
 10
220.8821163013229
 20
96.47801695167931
 30
0.0
 10
219.2676769625068
 20
96.47801695167931
 30
0.0
340
EF3
1001
ACAD
1000
DSTYLE
1002
{
1070
   147
1040
0.625
1070
    77
1070
     1
1002
}
  0
MTEXT
  5
EF3
102
{ACAD_REACTORS
330
EF2
102
}
330
21
100
AcDbEntity
  8
文字・寸法線
100
AcDbMText
 10
218.6426769625068
 20
97.10301695167931
 30
0.0
 40
3.0
 41
0.0
 46
0.0
 71
     9
 72
     1
  1
%%c14
 73
     1
 44
1.0
  0
DIMENSION
  5
100A
102
{ACAD_REACTORS
330
100C
102
}
102
{ACAD_XDICTIONARY
360
100B
102
}
330
21
100
AcDbEntity
  8
文字・寸法線
100
AcDbDimension
280
     0
  2
*D8
 10
186.5573544393507
 20
108.1315428012578
 30
0.0
 11
184.4323544393507
 21
113.1315433796113
 31
0.0
 70
    32
 71
     5
 42
10.00000115670701
 73
     0
 74
     0
 75
     0
  3
ISO-25
100
AcDbAlignedDimension
 13
150.184222411574
 23
118.1315439579648
 33
0.0
 14
146.7062919655352
 24
108.1315428012578
 34
0.0
 50
90.0
100
AcDbRotatedDimension
  0
LINE
  5
1016
330
21
100
AcDbEntity
  8
中心線
100
AcDbLine
 10
136.334222411574
 20
225.40011734334
 30
0.0
 11
136.334222411574
 21
76.8940940639389
 31
0.0
  0
LINE
  5
1017
330
21
100
AcDbEntity
  8
実線
100
AcDbLine
 10
126.7472399830196
 20
108.1315428012578
 30
0.0
 11
145.9212048401285
 21
108.1315428012578
 31
0.0
  0
DIMENSION
  5
1029
102
{ACAD_REACTORS
330
102B
102
}
102
{ACAD_XDICTIONARY
360
102A
102
}
330
21
100
AcDbEntity
  8
文字・寸法線
100
AcDbDimension
280
     0
  2
*D9
 10
186.5573544393507
 20
118.1315439579648
 30
0.0
 11
184.4323544393507
 21
168.1315439579649
 31
0.0
 70
    32
  1
180
 71
     5
 42
100.0
 73
     0
 74
     0
 75
     0
  3
ISO-25
100
AcDbAlignedDimension
 13
142.334222411574
 23
218.1315439579648
 33
0.0
 14
150.184222411574
 24
118.1315439579648
 34
0.0
 50
90.0
100
AcDbRotatedDimension
  0
DIMENSION
  5
102E
102
{ACAD_REACTORS
330
1030
102
}
102
{ACAD_XDICTIONARY
360
102F
102
}
330
21
100
AcDbEntity
  8
文字・寸法線
100
AcDbDimension
280
     0
  2
*D10
 10
315.2349174958533
 20
72.83323890458291
 30
0.0
 11
303.2404656534387
 21
74.95823890458291
 31
0.0
 70
    32
  1
24
 71
     5
 42
23.98890368482904
 73
     0
 74
     0
 75
     0
  3
ISO-25
100
AcDbAlignedDimension
 13
291.2460138110242
 23
115.6547192192657
 33
0.0
 14
315.2349174958533
 24
115.6547192192657
 34
0.0
100
AcDbRotatedDimension
  0
DIMENSION
  5
105B
102
{ACAD_REACTORS
330
105D
102
}
102
{ACAD_XDICTIONARY
360
105C
102
}
330
21
100
AcDbEntity
  8
文字・寸法線
100
AcDbDimension
280
     0
  2
*D11
 10
144.334222411574
 20
231.0239609810678
 30
0.0
 11
136.334222411574
 21
233.1489609810678
 31
0.0
 70
    32
  1
M16
 71
     5
 42
16.0
 73
     0
 74
     0
 75
     0
  3
ISO-25
100
AcDbAlignedDimension
 13
128.334222411574
 23
216.1315439579648
 33
0.0
 14
144.334222411574
 24
216.1315439579648
 34
0.0
100
AcDbRotatedDimension
  0
LINE
  5
1061
102
{ACAD_REACTORS
330
105D
102
}
330
21
100
AcDbEntity
  8
実線
370
    20
100
AcDbLine
 10
128.334222411574
 20
216.1315439579648
 30
0.0
 11
144.334222411574
 21
216.1315439579648
 31
0.0
  0
LINE
  5
1062
102
{ACAD_REACTORS
330
100C
102
}
330
21
100
AcDbEntity
  8
実線
100
AcDbLine
 10
125.984222411574
 20
108.1315428012578
 30
0.0
 11
146.7062919655348
 21
108.1315428012578
 31
0.0
  0
CIRCLE
  5
1063
330
21
100
AcDbEntity
  8
実線
370
    20
100
AcDbCircle
 10
303.2404656534387
 20
122.5797192192657
 30
0.0
 40
7.0
  0
CIRCLE
  5
1064
330
21
100
AcDbEntity
  8
実線
100
AcDbCircle
 10
303.2404656534387
 20
122.5797192192657
 30
0.0
 40
8.0
  0
LWPOLYLINE
  5
1065
102
{ACAD_REACTORS
330
1030
102
}
330
21
100
AcDbEntity
  8
実線
100
AcDbPolyline
 90
        6
 70
     1
 43
0.0
 10
315.2349174958533
 20
129.5047192192656
 10
303.2404656534387
 20
136.4297192192657
 10
291.2460138110242
 20
129.5047192192657
 10
291.2460138110242
 20
115.6547192192657
 10
303.2404656534387
 20
108.7297192192656
 10
315.2349174958533
 20
115.6547192192657
  0
LINE
  5
1066
102
{ACAD_REACTORS
330
102B
102
}
330
21
100
AcDbEntity
  8
実線
370
    15
100
AcDbLine
 10
142.334222411574
 20
218.1315439579648
 30
0.0
 11
142.334222411574
 21
182.3117023025397
 31
0.0
  0
LINE
  5
1067
330
21
100
AcDbEntity
  8
実線
370
    15
100
AcDbLine
 10
130.334222411574
 20
218.1315439579648
 30
0.0
 11
130.334222411574
 21
173.5764213054609
 31
0.0
  0
LWPOLYLINE
  5
1068
330
21
100
AcDbEntity
  8
実線
100
AcDbPolyline
 90
        4
 70
     0
 43
0.0
 10
128.334222411574
 20
129.2643436336543
 10
128.334222411574
 20
118.1315439579648
 10
144.334222411574
 20
118.1315439579648
 10
144.334222411574
 20
129.2643436336543
  0
ARC
  5
1069
102
{ACAD_REACTORS
330
100C
102
}
330
21
100
AcDbEntity
  8
実線
100
AcDbCircle
 10
146.684222411574
 20
114.7562927624648
 30
0.0
 40
6.624786722131047
100
AcDbArc
 50
238.108060454902
 51
301.8919395450987
  0
ARC
  5
106A
330
21
100
AcDbEntity
  8
実線
100
AcDbCircle
 10
136.334222411574
 20
132.0927939579647
 30
0.0
 40
23.96124999999989
100
AcDbArc
 50
253.3886475888884
 51
286.6113524111124
  0
ARC
  5
106B
330
21
100
AcDbEntity
  8
実線
100
AcDbCircle
 10
125.984222411574
 20
114.7565362947891
 30
0.0
 40
6.624993493531275
100
AcDbArc
 50
238.1091731852514
 51
301.8908268147486
  0
LINE
  5
106C
330
21
100
AcDbEntity
  8
実線
100
AcDbLine
 10
143.184222411574
 20
118.1315439579648
 30
0.0
 11
143.184222411574
 21
109.1315439579648
 31
0.0
  0
LINE
  5
106D
330
21
100
AcDbEntity
  8
実線
100
AcDbLine
 10
129.484222411574
 20
118.1315439579648
 30
0.0
 11
129.484222411574
 21
109.1315439579648
 31
0.0
  0
LWPOLYLINE
  5
106E
102
{ACAD_REACTORS
330
102B
330
100C
102
}
330
21
100
AcDbEntity
  8
実線
100
AcDbPolyline
 90
        4
 70
     0
 43
0.0
 10
150.184222411574
 20
109.1315439579648
 10
150.184222411574
 20
118.1315439579648
 10
122.484222411574
 20
118.1315439579648
 10
122.484222411574
 20
109.1315439579648
  0
DIMENSION
  5
1101
102
{ACAD_REACTORS
330
1118
102
}
102
{ACAD_XDICTIONARY
360
110E
102
}
330
21
100
AcDbEntity
  8
文字・寸法線
100
AcDbDimension
280
     0
  2
*D12
 10
186.5573544393507
 20
88.13154395796488
 30
0.0
 11
184.4323544393507
 21
98.13154337961136
 31
0.0
 70
    32
  1
20
 71
     5
 42
19.99999884329291
 73
     0
 74
     0
 75
     0
  3
ISO-25
100
AcDbAlignedDimension
 13
148.7062919655352
 23
108.1315428012578
 33
0.0
 14
171.3039430000613
 24
88.13154395796488
 34
0.0
 50
90.0
100
AcDbRotatedDimension
  0
LINE
  5
126C
330
21
100
AcDbEntity
  8
実線
370
    15
100
AcDbLine
 10
130.334222411574
 20
129.2643436336543
 30
0.0
 11
130.334222411574
 21
118.1315439579648
 31
0.0
  0
LINE
  5
126D
330
21
100
AcDbEntity
  8
実線
370
    15
100
AcDbLine
 10
142.334222411574
 20
129.2643436336543
 30
0.0
 11
142.334222411574
 21
118.1315439579648
 31
0.0
  0
LWPOLYLINE
  5
126E
102
{ACAD_REACTORS
330
1256
102
}
330
21
100
AcDbEntity
  8
実線
100
AcDbPolyline
 90
        2
 70
     0
 43
0.0
 10
144.334222411574
 20
129.2643436336543
 10
144.334222411574
 20
180.6849493266441
  0
LINE
  5
12E3
330
21
100
AcDbEntity
  8
実線
100
AcDbLine
 10
148.339110197973
 20
186.6829008167165
 30
0.0
 11
124.8673817156928
 21
169.5968888350619
 31
0.0
  0
LINE
  5
12E4
330
21
100
AcDbEntity
  8
実線
100
AcDbLine
 10
148.339110197973
 20
183.6002676746411
 30
0.0
 11
124.8673817156928
 21
166.5142556929865
 31
0.0
  0
LWPOLYLINE
  5
12E5
102
{ACAD_REACTORS
330
1256
102
}
330
21
100
AcDbEntity
  8
実線
100
AcDbPolyline
 90
        2
 70
     0
 43
0.0
 10
128.334222411574
 20
169.0379079972057
 10
128.334222411574
 20
129.2643436336543
  0
LINE
  5
12E6
330
21
100
AcDbEntity
  8
実線
370
    15
100
AcDbLine
 10
130.334222411574
 20
170.4937881633855
 30
0.0
 11
130.334222411574
 21
129.2643436336543
 31
0.0
  0
LINE
  5
12E7
330
21
100
AcDbEntity
  8
実線
370
    15
100
AcDbLine
 10
142.334222411574
 20
179.2290691604642
 30
0.0
 11
142.334222411574
 21
128.6942492593674
 31
0.0
  0
LWPOLYLINE
  5
12E8
102
{ACAD_REACTORS
330
1256
102
}
330
21
100
AcDbEntity
  8
実線
100
AcDbPolyline
 90
        6
 70
     0
 43
0.0
 10
144.334222411574
 20
183.7675824687195
 10
144.334222411574
 20
216.1315439579648
 10
142.334222411574
 20
218.1315439579648
 10
130.334222411574
 20
218.1315439579648
 10
128.334222411574
 20
216.1315439579648
 10
128.334222411574
 20
172.1205411392812
  0
MTEXT
  5
13F7
330
21
100
AcDbEntity
  8
文字・寸法線
 62
     0
100
AcDbMText
 10
92.25792669596598
 20
259.6970328864952
 30
0.0
 40
6.0
 41
0.0
 46
6.0
 71
     9
 72
     1
  1
{\fＭＳ ゴシック|b0|i0|c0|p0;S-D M16X180}
 73
     1
 44
1.0
1001
ACAD
1000
ACAD_MTEXT_DEFINED_HEIGHT_BEGIN
1070
    46
1040
6.0
1000
ACAD_MTEXT_DEFINED_HEIGHT_END
  0
VIEWPORT
  5
13C1
330
13BD
100
AcDbEntity
 67
     1
  8
0
100
AcDbViewport
 10
203.7291666666666
 20
142.1694444444444
 30
0.0
 40
488.9499999999999
 41
341.2066666666665
 68
     1
 69
     1
 12
203.7291666666666
 22
142.1694444444444
 13
0.0
 23
0.0
 14
0.5
 24
0.5
 15
0.0
 25
0.0
 16
0.0
 26
0.0
 36
1.0
 17
0.0
 27
0.0
 37
0.0
 42
50.0
 43
0.0
 44
0.0
 45
341.2066666666665
 50
0.0
 51
0.0
 72
   100
 90
   557152
  1

281
     0
 71
     1
 74
     0
110
0.0
120
0.0
130
0.0
111
1.0
121
0.0
131
0.0
112
0.0
122
1.0
132
0.0
 79
     0
146
0.0
170
     0
 61
     5
348
137F
292
     1
282
     1
141
0.0
142
0.0
 63
   256
361
13C3
  0
VIEWPORT
  5
13C2
330
13BD
100
AcDbEntity
 67
     1
  8
0
100
AcDbViewport
 10
203.7291666666666
 20
142.1694444444444
 30
0.0
 40
325.9666666666666
 41
227.471111111111
 68
     2
 69
     2
 12
220.8591334722594
 22
134.1002331398724
 13
0.0
 23
0.0
 14
0.5
 24
0.5
 15
0.0
 25
0.0
 16
0.0
 26
0.0
 36
1.0
 17
0.0
 27
0.0
 37
0.0
 42
50.0
 43
0.0
 44
0.0
 45
273.1967005607848
 50
0.0
 51
0.0
 72
   100
 90
   557152
  1

281
     0
 71
     1
 74
     0
110
0.0
120
0.0
130
0.0
111
1.0
121
0.0
131
0.0
112
0.0
122
1.0
132
0.0
 79
     0
146
0.0
170
     0
 61
     5
348
137F
292
     1
282
     1
141
0.0
142
0.0
 63
   256
  0
ENDSEC
  0
SECTION
  2
OBJECTS
  0
DICTIONARY
  5
C
330
0
100
AcDbDictionary
281
     1
  3
ACAD_COLOR
350
1C
  3
ACAD_DETAILVIEWSTYLE
350
13CC
  3
ACAD_GROUP
350
D
  3
ACAD_IMAGE_VARS
350
13BC
  3
ACAD_LAYOUT
350
1A
  3
ACAD_MATERIAL
350
1B
  3
ACAD_MLEADERSTYLE
350
13CA
  3
ACAD_MLINESTYLE
350
17
  3
ACAD_PLOTSETTINGS
350
19
  3
ACAD_PLOTSTYLENAME
350
E
  3
ACAD_SCALELIST
350
1393
  3
ACAD_SECTIONVIEWSTYLE
350
13CD
  3
ACAD_TABLESTYLE
350
13B8
  3
ACAD_VISUALSTYLE
350
137A
  3
AcadDim
350
657
  3
ACDB_RECOMPOSE_DATA
350
13FA
  3
AcDbVariableDictionary
350
1376
  3
APPDATA
350
13BA
  0
SUN
  5
13C4
330
1357
100
AcDbSun
 90
        1
290
     0
 63
     7
421
 16777215
 40
1.0
291
     1
 91
  2455826
 92
 54000000
292
     0
 70
     2
 71
   256
280
     1
  0
DICTIONARY
  5
1140
330
2
100
AcDbDictionary
280
     1
281
     1
  3
ACAD_LAYERFILTERS
360
1157
  3
ACAD_LAYERSTATES
360
1141
  0
DICTIONARY
  5
D0F
330
D0E
100
AcDbDictionary
280
     1
281
     1
  0
DICTIONARY
  5
D12
330
D11
100
AcDbDictionary
280
     1
281
     1
  3
ACAD_DIMASSOC
360
D13
  0
DICTIONARY
  5
D15
330
D14
100
AcDbDictionary
280
     1
281
     1
  3
ACAD_DIMASSOC
360
D16
  0
DICTIONARY
  5
D19
330
D18
100
AcDbDictionary
280
     1
281
     1
  3
ACAD_DIMASSOC
360
D1A
  0
DICTIONARY
  5
D1C
330
D1B
100
AcDbDictionary
280
     1
281
     1
  3
ACAD_DIMASSOC
360
D1D
  0
DICTIONARY
  5
D23
330
D22
100
AcDbDictionary
280
     1
281
     1
  3
ACAD_DIMASSOC
360
D24
  0
DICTIONARY
  5
D26
330
D25
100
AcDbDictionary
280
     1
281
     1
  3
ACAD_DIMASSOC
360
D27
  0
DICTIONARY
  5
EF4
330
EF2
100
AcDbDictionary
280
     1
281
     1
  3
ACAD_DIMASSOC
360
EF5
  0
DICTIONARY
  5
100B
330
100A
100
AcDbDictionary
280
     1
281
     1
  3
ACAD_DIMASSOC
360
100C
  0
DICTIONARY
  5
102A
330
1029
100
AcDbDictionary
280
     1
281
     1
  3
ACAD_DIMASSOC
360
102B
  0
DICTIONARY
  5
102F
330
102E
100
AcDbDictionary
280
     1
281
     1
  3
ACAD_DIMASSOC
360
1030
  0
DICTIONARY
  5
105C
330
105B
100
AcDbDictionary
280
     1
281
     1
  3
ACAD_DIMASSOC
360
105D
  0
DICTIONARY
  5
110E
330
1101
100
AcDbDictionary
280
     1
281
     1
  3
ACAD_DIMASSOC
360
1118
  0
SUN
  5
13C3
330
13C1
100
AcDbSun
 90
        1
290
     0
 63
     7
421
 16777215
 40
1.0
291
     1
 91
  2455826
 92
 54000000
292
     0
 70
     2
 71
   256
280
     1
  0
DICTIONARY
  5
1C
102
{ACAD_REACTORS
330
C
102
}
330
C
100
AcDbDictionary
281
     1
  0
DICTIONARY
  5
13CC
102
{ACAD_REACTORS
330
C
102
}
330
C
100
AcDbDictionary
281
     1
  0
DICTIONARY
  5
D
102
{ACAD_REACTORS
330
C
102
}
330
C
100
AcDbDictionary
281
     1
  0
RASTERVARIABLES
  5
13BC
102
{ACAD_REACTORS
330
C
102
}
330
C
100
AcDbRasterVariables
 90
        0
 70
     1
 71
     1
 72
     1
  0
DICTIONARY
  5
1A
102
{ACAD_REACTORS
330
C
102
}
330
C
100
AcDbDictionary
281
     1
  3
Model
350
24
  3
Sheet1
350
13BE
  0
DICTIONARY
  5
1B
102
{ACAD_REACTORS
330
C
102
}
330
C
100
AcDbDictionary
281
     1
  3
ByBlock
350
13B6
  3
ByLayer
350
13B5
  3
Global
350
13B7
  0
DICTIONARY
  5
13CA
102
{ACAD_REACTORS
330
C
102
}
330
C
100
AcDbDictionary
281
     1
  0
DICTIONARY
  5
17
102
{ACAD_REACTORS
330
C
102
}
330
C
100
AcDbDictionary
281
     1
  3
Standard
350
18
  0
DICTIONARY
  5
19
102
{ACAD_REACTORS
330
C
102
}
330
C
100
AcDbDictionary
281
     1
  0
ACDBDICTIONARYWDFLT
  5
E
102
{ACAD_REACTORS
330
C
102
}
330
C
100
AcDbDictionary
281
     1
  3
Normal
350
F
100
AcDbDictionaryWithDefault
340
F
  0
DICTIONARY
  5
1393
102
{ACAD_REACTORS
330
C
102
}
330
C
100
AcDbDictionary
281
     1
  3
A0
350
1394
  3
A1
350
1395
  3
A2
350
1396
  3
A3
350
1397
  3
A4
350
1398
  3
A5
350
1399
  3
A6
350
139A
  3
A7
350
139B
  3
A8
350
139C
  3
A9
350
139D
  3
B0
350
139E
  3
B1
350
139F
  3
B2
350
13A0
  3
B3
350
13A1
  3
B4
350
13A2
  3
B5
350
13A3
  3
B6
350
13A4
  3
B7
350
13A5
  3
B8
350
13A6
  3
B9
350
13A7
  3
C0
350
13A8
  3
C1
350
13A9
  3
C2
350
13AA
  3
C3
350
13AB
  3
C4
350
13AC
  3
C5
350
13AD
  3
C6
350
13AE
  3
C7
350
13AF
  3
C8
350
13B0
  3
C9
350
13B1
  3
D0
350
13B2
  3
D1
350
13B3
  3
D2
350
13B4
  0
DICTIONARY
  5
13CD
102
{ACAD_REACTORS
330
C
102
}
330
C
100
AcDbDictionary
281
     1
  0
DICTIONARY
  5
13B8
102
{ACAD_REACTORS
330
C
102
}
330
C
100
AcDbDictionary
281
     1
  3
Standard
350
13B9
  0
DICTIONARY
  5
137A
102
{ACAD_REACTORS
330
C
102
}
330
C
100
AcDbDictionary
281
     1
  3
2dWireframe
350
137F
  3
Basic
350
1382
  3
Brighten
350
1386
  3
ColorChange
350
138A
  3
Conceptual
350
1384
  3
Dim
350
1385
  3
EdgeColorOff
350
138D
  3
Facepattern
350
1389
  3
Flat
350
137B
  3
FlatWithEdges
350
137C
  3
Gouraud
350
137D
  3
GouraudWithEdges
350
137E
  3
Hidden
350
1381
  3
JitterOff
350
138B
  3
Linepattern
350
1388
  3
OverhangOff
350
138C
  3
Realistic
350
1383
  3
Shaded
350
1392
  3
Shaded with edges
350
1391
  3
Shades of Gray
350
138E
  3
Sketchy
350
138F
  3
Thicken
350
1387
  3
Wireframe
350
1380
  3
X-Ray
350
1390
  0
XRECORD
  5
657
102
{ACAD_REACTORS
330
C
102
}
330
C
100
AcDbXrecord
280
     1
 90
   990106
  3

 60
     0
 61
     0
 62
     4
 63
     4
 64
     1
 65
     0
 66
     0
 67
     3
 68
     1
 69
     0
 70
     0
 71
     0
 72
     0
 40
0.0
170
     2
340
EF3
  0
XRECORD
  5
13FA
102
{ACAD_REACTORS
330
C
102
}
330
C
100
AcDbXrecord
280
     1
 90
        1
330
13B9
  0
DICTIONARY
  5
1376
102
{ACAD_REACTORS
330
C
102
}
330
C
100
AcDbDictionary
281
     1
  3
CANNOSCALE
350
13C5
  3
CTABLESTYLE
350
13C9
  3
DIMASSOC
350
1378
  3
HIDETEXT
350
1377
  3
MSLTSCALE
350
13CB
  3
PROJECTNAME
350
1379
  0
DICTIONARY
  5
13BA
102
{ACAD_REACTORS
330
C
102
}
330
C
100
AcDbDictionary
281
     1
  0
DICTIONARY
  5
1157
102
{ACAD_REACTORS
330
1140
102
}
330
1140
100
AcDbDictionary
281
     1
  0
DICTIONARY
  5
1141
102
{ACAD_REACTORS
330
1140
102
}
330
1140
100
AcDbDictionary
281
     1
  3
画層
350
115C
  0
DIMASSOC
  5
D13
102
{ACAD_REACTORS
330
D12
102
}
330
D12
100
AcDbDimAssoc
330
D11
 90
        2
 70
     0
 71
     0
  1
AcDbOsnapPointRef
 72
    13
331
D17
 73
     2
 91
        0
 40
0.0
 10
0.0
 20
0.0
 30
2.000000000000000E+50
 75
     0
  0
DIMASSOC
  5
D16
102
{ACAD_REACTORS
330
D15
102
}
330
D15
100
AcDbDimAssoc
330
D14
 90
        3
 70
     0
 71
     0
  1
AcDbOsnapPointRef
 72
     6
331
D21
 73
     2
 91
        0
 40
0.7971007843262793
 10
0.0
 20
0.0
 30
0.0
332
D3C
 74
     2
 92
        0
 75
     0
  1
AcDbOsnapPointRef
 72
     1
331
D20
 73
     2
 91
        0
 40
1.0
 10
0.0
 20
0.0
 30
2.000000000000000E+50
 75
     0
  0
DIMASSOC
  5
D1A
102
{ACAD_REACTORS
330
D19
102
}
330
D19
100
AcDbDimAssoc
330
D18
 90
        3
 70
     0
 71
     0
  1
AcDbOsnapPointRef
 72
     6
331
D20
 73
     2
 91
        0
 40
0.8584651224487634
 10
0.0
 20
0.0
 30
0.0
332
D3C
 74
     2
 92
        0
 75
     0
  1
AcDbOsnapPointRef
 72
     6
331
D1F
 73
     2
 91
        0
 40
0.8852138574067738
 10
0.0
 20
0.0
 30
0.0
332
D3C
 74
     2
 92
        0
 75
     0
  0
DIMASSOC
  5
D1D
102
{ACAD_REACTORS
330
D1C
102
}
330
D1C
100
AcDbDimAssoc
330
D1B
 90
        1
 70
     0
 71
     0
  1
AcDbOsnapPointRef
 72
     6
331
D20
 73
     2
 91
        0
 40
0.6622445230319032
 10
0.0
 20
0.0
 30
0.0
332
D39
 74
     2
 92
        0
 75
     0
  0
DIMASSOC
  5
D24
102
{ACAD_REACTORS
330
D23
102
}
330
D23
100
AcDbDimAssoc
330
D22
 90
        3
 70
     0
 71
     0
  1
AcDbOsnapPointRef
 72
    13
331
D30
 73
     2
 91
        0
 40
0.0
 10
0.0
 20
0.0
 30
2.000000000000000E+50
 75
     0
  1
AcDbOsnapPointRef
 72
     1
331
D2F
 73
     2
 91
        0
 40
1.0
 10
0.0
 20
0.0
 30
2.000000000000000E+50
 75
     0
  0
DIMASSOC
  5
D27
102
{ACAD_REACTORS
330
D26
102
}
330
D26
100
AcDbDimAssoc
330
D25
 90
        3
 70
     0
 71
     0
  1
AcDbOsnapPointRef
 72
     1
331
D2F
 73
     2
 91
        0
 40
1.0
 10
0.0
 20
0.0
 30
2.000000000000000E+50
 75
     0
  1
AcDbOsnapPointRef
 72
    13
331
D2F
 73
     2
 91
        0
 40
0.0
 10
0.0
 20
0.0
 30
2.000000000000000E+50
 75
     0
  0
DIMASSOC
  5
EF5
102
{ACAD_REACTORS
330
EF4
102
}
330
EF4
100
AcDbDimAssoc
330
EF2
 90
        1
 70
     0
 71
     0
  1
AcDbOsnapPointRef
 72
     3
331
D3B
 73
     2
 91
        0
 40
1.737641715581558
 10
0.0
 20
0.0
 30
0.0
 75
     0
  0
DIMASSOC
  5
100C
102
{ACAD_REACTORS
330
100B
102
}
330
100B
100
AcDbDimAssoc
330
100A
 90
        3
 70
     0
 71
     0
  1
AcDbOsnapPointRef
 72
     1
331
106E
 73
     2
 91
        1
 40
1.0
 10
0.0
 20
0.0
 30
2.000000000000000E+50
 75
     0
  1
AcDbOsnapPointRef
 72
     6
331
1062
 73
     2
 91
        0
 40
1.0
 10
0.0
 20
0.0
 30
0.0
332
1069
 74
     2
 92
        0
 75
     0
  0
DIMASSOC
  5
102B
102
{ACAD_REACTORS
330
102A
102
}
330
102A
100
AcDbDimAssoc
330
1029
 90
        3
 70
     0
 71
     0
  1
AcDbOsnapPointRef
 72
    13
331
1066
 73
     2
 91
        0
 40
0.0
 10
0.0
 20
0.0
 30
2.000000000000000E+50
 75
     0
  1
AcDbOsnapPointRef
 72
     1
331
106E
 73
     2
 91
        1
 40
1.0
 10
0.0
 20
0.0
 30
2.000000000000000E+50
 75
     0
  0
DIMASSOC
  5
1030
102
{ACAD_REACTORS
330
102F
102
}
330
102F
100
AcDbDimAssoc
330
102E
 90
        3
 70
     0
 71
     0
  1
AcDbOsnapPointRef
 72
     1
331
1065
 73
     2
 91
        3
 40
1.0
 10
0.0
 20
0.0
 30
2.000000000000000E+50
 75
     0
  1
AcDbOsnapPointRef
 72
     1
331
1065
 73
     2
 91
        5
 40
1.0
 10
0.0
 20
0.0
 30
2.000000000000000E+50
 75
     0
  0
DIMASSOC
  5
105D
102
{ACAD_REACTORS
330
105C
102
}
330
105C
100
AcDbDimAssoc
330
105B
 90
        1
 70
     0
 71
     0
  1
AcDbOsnapPointRef
 72
    13
331
1061
 73
     2
 91
        0
 40
0.0
 10
0.0
 20
0.0
 30
2.000000000000000E+50
 75
     0
  0
DIMASSOC
  5
1118
102
{ACAD_REACTORS
330
110E
102
}
330
110E
100
AcDbDimAssoc
330
1101
 90
        2
 70
     0
 71
     0
  1
AcDbOsnapPointRef
 72
     1
331
D31
 73
     2
 91
        0
 40
1.0
 10
0.0
 20
0.0
 30
2.000000000000000E+50
 75
     0
  0
LAYOUT
  5
24
102
{ACAD_REACTORS
330
1A
102
}
330
1A
100
AcDbPlotSettings
  1

  2
\\NEC\EPSON
  4
A4
  6

 40
3.757083177566528
 41
14.7637300491333
 42
3.757080078125
 43
3.757080078125
 44
209.9733276367188
 45
296.9683227539062
 46
10.0
 47
5.0
 48
0.0
 49
0.0
140
0.0
141
0.0
142
1.0
143
1.1
 70
 11936
 72
     1
 73
     1
 74
     1
  7

 75
     0
 76
     0
 77
     2
 78
   180
147
0.9090909090909091
148
0.025633200973175
149
0.0181263349739993
100
AcDbLayout
  1
Model
 70
     1
 71
     0
 10
0.0
 20
0.0
 11
12.0
 21
9.0
 12
0.0
 22
0.0
 32
0.0
 14
38.66846360861359
 24
70.37938465343706
 34
0.0
 15
365.4536294171108
 25
265.6970328864952
 35
0.0
146
0.0
 13
0.0
 23
0.0
 33
0.0
 16
1.0
 26
0.0
 36
0.0
 17
0.0
 27
1.0
 37
0.0
 76
     0
330
21
331
1357
  0
LAYOUT
  5
13BE
102
{ACAD_REACTORS
330
1A
102
}
330
1A
100
AcDbPlotSettings
  1

  2
none_device
  4
iso-a3
  6

 40
6.35
 41
6.35
 42
6.35
 43
6.35
 44
297.0388888888888
 45
420.1583333333333
 46
0.0
 47
0.0
 48
0.0
 49
0.0
140
0.0
141
0.0
142
1.0
143
1.0
 70
   688
 72
     1
 73
     1
 74
     5
  7

 75
    16
 76
     0
 77
     2
 78
   300
147
1.0
148
0.0
149
0.0
100
AcDbLayout
  1
Sheet1
 70
     1
 71
     1
 10
0.0
 20
0.0
 11
0.0
 21
0.0
 12
0.0
 22
0.0
 32
0.0
 14
0.0
 24
0.0
 34
0.0
 15
0.0
 25
0.0
 35
0.0
146
0.0
 13
0.0
 23
0.0
 33
0.0
 16
1.0
 26
0.0
 36
0.0
 17
0.0
 27
1.0
 37
0.0
 76
     0
330
13BD
331
13C1
  0
MATERIAL
  5
13B6
102
{ACAD_REACTORS
330
1B
102
}
330
1B
100
AcDbMaterial
  1
ByBlock
 72
     1
 94
      127
  0
MATERIAL
  5
13B5
102
{ACAD_REACTORS
330
1B
102
}
330
1B
100
AcDbMaterial
  1
ByLayer
 72
     1
 94
      127
  0
MATERIAL
  5
13B7
102
{ACAD_REACTORS
330
1B
102
}
330
1B
100
AcDbMaterial
  1
Global
 72
     1
 94
      127
  0
MLINESTYLE
  5
18
102
{ACAD_REACTORS
330
17
102
}
330
17
100
AcDbMlineStyle
  2
STANDARD
 70
     0
  3

 62
   256
 51
90.0
 52
90.0
 71
     2
 49
0.5
 62
   256
  6
BYLAYER
 49
-0.5
 62
   256
  6
BYLAYER
  0
ACDBPLACEHOLDER
  5
F
102
{ACAD_REACTORS
330
E
102
}
330
E
  0
SCALE
  5
1394
102
{ACAD_REACTORS
330
1393
102
}
330
1393
100
AcDbScale
 70
     0
300
1:1
140
1.0
141
1.0
290
     1
  0
SCALE
  5
1395
102
{ACAD_REACTORS
330
1393
102
}
330
1393
100
AcDbScale
 70
     0
300
1:2
140
1.0
141
2.0
290
     0
  0
SCALE
  5
1396
102
{ACAD_REACTORS
330
1393
102
}
330
1393
100
AcDbScale
 70
     0
300
1:4
140
1.0
141
4.0
290
     0
  0
SCALE
  5
1397
102
{ACAD_REACTORS
330
1393
102
}
330
1393
100
AcDbScale
 70
     0
300
1:5
140
1.0
141
5.0
290
     0
  0
SCALE
  5
1398
102
{ACAD_REACTORS
330
1393
102
}
330
1393
100
AcDbScale
 70
     0
300
1:8
140
1.0
141
8.0
290
     0
  0
SCALE
  5
1399
102
{ACAD_REACTORS
330
1393
102
}
330
1393
100
AcDbScale
 70
     0
300
1:10
140
1.0
141
10.0
290
     0
  0
SCALE
  5
139A
102
{ACAD_REACTORS
330
1393
102
}
330
1393
100
AcDbScale
 70
     0
300
1:16
140
1.0
141
16.0
290
     0
  0
SCALE
  5
139B
102
{ACAD_REACTORS
330
1393
102
}
330
1393
100
AcDbScale
 70
     0
300
1:20
140
1.0
141
20.0
290
     0
  0
SCALE
  5
139C
102
{ACAD_REACTORS
330
1393
102
}
330
1393
100
AcDbScale
 70
     0
300
1:30
140
1.0
141
30.0
290
     0
  0
SCALE
  5
139D
102
{ACAD_REACTORS
330
1393
102
}
330
1393
100
AcDbScale
 70
     0
300
1:40
140
1.0
141
40.0
290
     0
  0
SCALE
  5
139E
102
{ACAD_REACTORS
330
1393
102
}
330
1393
100
AcDbScale
 70
     0
300
1:50
140
1.0
141
50.0
290
     0
  0
SCALE
  5
139F
102
{ACAD_REACTORS
330
1393
102
}
330
1393
100
AcDbScale
 70
     0
300
1:100
140
1.0
141
100.0
290
     0
  0
SCALE
  5
13A0
102
{ACAD_REACTORS
330
1393
102
}
330
1393
100
AcDbScale
 70
     0
300
2:1
140
2.0
141
1.0
290
     0
  0
SCALE
  5
13A1
102
{ACAD_REACTORS
330
1393
102
}
330
1393
100
AcDbScale
 70
     0
300
4:1
140
4.0
141
1.0
290
     0
  0
SCALE
  5
13A2
102
{ACAD_REACTORS
330
1393
102
}
330
1393
100
AcDbScale
 70
     0
300
8:1
140
8.0
141
1.0
290
     0
  0
SCALE
  5
13A3
102
{ACAD_REACTORS
330
1393
102
}
330
1393
100
AcDbScale
 70
     0
300
10:1
140
10.0
141
1.0
290
     0
  0
SCALE
  5
13A4
102
{ACAD_REACTORS
330
1393
102
}
330
1393
100
AcDbScale
 70
     0
300
100:1
140
100.0
141
1.0
290
     0
  0
SCALE
  5
13A5
102
{ACAD_REACTORS
330
1393
102
}
330
1393
100
AcDbScale
 70
     0
300
1/128" = 1'-0"
140
0.0078125
141
12.0
290
     0
  0
SCALE
  5
13A6
102
{ACAD_REACTORS
330
1393
102
}
330
1393
100
AcDbScale
 70
     0
300
1/64" = 1'-0"
140
0.015625
141
12.0
290
     0
  0
SCALE
  5
13A7
102
{ACAD_REACTORS
330
1393
102
}
330
1393
100
AcDbScale
 70
     0
300
1/32" = 1'-0"
140
0.03125
141
12.0
290
     0
  0
SCALE
  5
13A8
102
{ACAD_REACTORS
330
1393
102
}
330
1393
100
AcDbScale
 70
     0
300
1/16" = 1'-0"
140
0.0625
141
12.0
290
     0
  0
SCALE
  5
13A9
102
{ACAD_REACTORS
330
1393
102
}
330
1393
100
AcDbScale
 70
     0
300
3/32" = 1'-0"
140
0.09375
141
12.0
290
     0
  0
SCALE
  5
13AA
102
{ACAD_REACTORS
330
1393
102
}
330
1393
100
AcDbScale
 70
     0
300
1/8" = 1'-0"
140
0.125
141
12.0
290
     0
  0
SCALE
  5
13AB
102
{ACAD_REACTORS
330
1393
102
}
330
1393
100
AcDbScale
 70
     0
300
3/16" = 1'-0"
140
0.1875
141
12.0
290
     0
  0
SCALE
  5
13AC
102
{ACAD_REACTORS
330
1393
102
}
330
1393
100
AcDbScale
 70
     0
300
1/4" = 1'-0"
140
0.25
141
12.0
290
     0
  0
SCALE
  5
13AD
102
{ACAD_REACTORS
330
1393
102
}
330
1393
100
AcDbScale
 70
     0
300
3/8" = 1'-0"
140
0.375
141
12.0
290
     0
  0
SCALE
  5
13AE
102
{ACAD_REACTORS
330
1393
102
}
330
1393
100
AcDbScale
 70
     0
300
1/2" = 1'-0"
140
0.5
141
12.0
290
     0
  0
SCALE
  5
13AF
102
{ACAD_REACTORS
330
1393
102
}
330
1393
100
AcDbScale
 70
     0
300
3/4" = 1'-0"
140
0.75
141
12.0
290
     0
  0
SCALE
  5
13B0
102
{ACAD_REACTORS
330
1393
102
}
330
1393
100
AcDbScale
 70
     0
300
1" = 1'-0"
140
1.0
141
12.0
290
     0
  0
SCALE
  5
13B1
102
{ACAD_REACTORS
330
1393
102
}
330
1393
100
AcDbScale
 70
     0
300
1-1/2" = 1'-0"
140
1.5
141
12.0
290
     0
  0
SCALE
  5
13B2
102
{ACAD_REACTORS
330
1393
102
}
330
1393
100
AcDbScale
 70
     0
300
3" = 1'-0"
140
3.0
141
12.0
290
     0
  0
SCALE
  5
13B3
102
{ACAD_REACTORS
330
1393
102
}
330
1393
100
AcDbScale
 70
     0
300
6" = 1'-0"
140
6.0
141
12.0
290
     0
  0
SCALE
  5
13B4
102
{ACAD_REACTORS
330
1393
102
}
330
1393
100
AcDbScale
 70
     0
300
1'-0" = 1'-0"
140
12.0
141
12.0
290
     0
  0
TABLESTYLE
  5
13B9
102
{ACAD_REACTORS
330
13B8
102
}
102
{ACAD_XDICTIONARY
360
13F8
102
}
330
13B8
100
AcDbTableStyle
  3
Standard
 70
     0
 71
     0
 40
0.06
 41
0.06
280
     0
281
     0
  7
Standard
140
4.5
170
     2
 62
     0
 63
   257
283
     0
 90
        4
 91
        0
  1

274
    -2
284
     1
 64
     0
275
    -2
285
     1
 65
     0
276
    -2
286
     1
 66
     0
277
    -2
287
     1
 67
     0
278
    -2
288
     1
 68
     0
279
    -2
289
     1
 69
     0
  7
Standard
140
6.0
170
     5
 62
     0
 63
   257
283
     0
 90
        4
 91
        0
  1

274
    -2
284
     1
 64
     0
275
    -2
285
     1
 65
     0
276
    -2
286
     1
 66
     0
277
    -2
287
     1
 67
     0
278
    -2
288
     1
 68
     0
279
    -2
289
     1
 69
     0
  7
Standard
140
4.5
170
     5
 62
     0
 63
   257
283
     0
 90
        4
 91
        0
  1

274
    -2
284
     1
 64
     0
275
    -2
285
     1
 65
     0
276
    -2
286
     1
 66
     0
277
    -2
287
     1
 67
     0
278
    -2
288
     1
 68
     0
279
    -2
289
     1
 69
     0
  0
VISUALSTYLE
  5
137F
102
{ACAD_REACTORS
330
137A
102
}
330
137A
100
AcDbVisualStyle
  2
2dWireframe
 70
     4
177
     3
291
     0
 70
    58
 90
        0
176
     1
 90
        2
176
     1
 90
        0
176
     1
 90
        0
176
     1
 40
0.6
176
     1
 40
30.0
176
     1
 62
     7
420
 16777215
176
     1
 90
        1
176
     1
 90
        4
176
     1
 62
     7
176
     1
 62
   257
176
     1
 90
        1
176
     1
 90
        1
176
     1
 40
1.0
176
     1
 90
        0
176
     1
 62
   257
176
     1
 40
1.0
176
     1
 90
        1
176
     1
 90
        6
176
     1
 90
        2
176
     1
 62
     7
176
     1
 90
        5
176
     1
 90
        0
176
     1
 90
        0
176
     1
290
     0
176
     1
 90
        1
176
     1
 40
0.0
176
     1
 90
        0
176
     1
290
     1
176
     1
290
     1
176
     1
290
     0
176
     1
290
     0
176
     1
290
     0
176
     1
290
     0
176
     1
290
     0
176
     1
290
     0
176
     1
290
     0
176
     1
 90
       50
176
     1
 40
0.0
176
     1
 40
1.0
176
     1
 90
        0
176
     1
 62
    18
420
        0
176
     1
 90
       50
176
     1
 90
        3
176
     1
 62
     5
420
      255
176
     1
290
     0
176
     1
 90
       50
176
     1
 90
       50
176
     1
 90
       50
176
     1
290
     0
176
     1
 90
       50
176
     1
 62
   256
176
     0
 40
1.0
176
     0
 90
        2
176
     1
  1
strokes_ogs.tif
176
     1
290
     0
176
     1
 40
1.0
176
     1
 40
1.0
176
     1
  0
VISUALSTYLE
  5
1382
102
{ACAD_REACTORS
330
137A
102
}
330
137A
100
AcDbVisualStyle
  2
Basic
 70
     7
177
     3
291
     1
 70
    58
 90
        1
176
     1
 90
        0
176
     1
 90
        1
176
     1
 90
        0
176
     1
 40
0.6
176
     1
 40
30.0
176
     1
 62
     7
420
 16777215
176
     1
 90
        0
176
     1
 90
        4
176
     1
 62
     7
176
     1
 62
   257
176
     1
 90
        1
176
     1
 90
        1
176
     1
 40
1.0
176
     1
 90
        8
176
     1
 62
     7
176
     1
 40
1.0
176
     1
 90
        1
176
     1
 90
        6
176
     1
 90
        2
176
     1
 62
     7
176
     1
 90
        5
176
     1
 90
        0
176
     1
 90
        0
176
     1
290
     0
176
     1
 90
        1
176
     1
 40
0.0
176
     1
 90
        0
176
     1
290
     0
176
     1
290
     1
176
     1
290
     1
176
     1
290
     0
176
     1
290
     0
176
     1
290
     0
176
     1
290
     0
176
     1
290
     0
176
     1
290
     0
176
     1
 90
       50
176
     1
 40
0.0
176
     1
 40
1.0
176
     1
 90
        0
176
     1
 62
    18
420
        0
176
     1
 90
       50
176
     1
 90
        3
176
     1
 62
     5
420
      255
176
     1
290
     0
176
     1
 90
       50
176
     1
 90
       50
176
     1
 90
       50
176
     1
290
     0
176
     1
 90
       50
176
     1
 62
   256
176
     0
 40
1.0
176
     0
 90
        2
176
     1
  1
strokes_ogs.tif
176
     1
290
     0
176
     1
 40
1.0
176
     1
 40
1.0
176
     1
  0
VISUALSTYLE
  5
1386
102
{ACAD_REACTORS
330
137A
102
}
330
137A
100
AcDbVisualStyle
  2
Brighten
 70
    12
177
     3
291
     1
 70
    58
 90
        2
176
     1
 90
        2
176
     1
 90
        0
176
     1
 90
        0
176
     1
 40
0.6
176
     1
 40
30.0
176
     1
 62
     7
420
 16777215
176
     1
 90
        1
176
     1
 90
        4
176
     1
 62
     7
176
     1
 62
   257
176
     1
 90
        1
176
     1
 90
        1
176
     1
 40
1.0
176
     1
 90
        8
176
     1
 62
     7
176
     1
 40
1.0
176
     1
 90
        1
176
     1
 90
        6
176
     1
 90
        2
176
     1
 62
     7
176
     1
 90
        5
176
     1
 90
        0
176
     1
 90
        0
176
     1
290
     0
176
     1
 90
        1
176
     1
 40
50.0
176
     1
 90
        0
176
     1
290
     0
176
     1
290
     1
176
     1
290
     1
176
     1
290
     0
176
     1
290
     0
176
     1
290
     0
176
     1
290
     0
176
     1
290
     0
176
     1
290
     0
176
     1
 90
       50
176
     1
 40
0.0
176
     1
 40
1.0
176
     1
 90
        0
176
     1
 62
    18
420
        0
176
     1
 90
       50
176
     1
 90
        3
176
     1
 62
     5
420
      255
176
     1
290
     0
176
     1
 90
       50
176
     1
 90
       50
176
     1
 90
       50
176
     1
290
     0
176
     1
 90
       50
176
     1
 62
   256
176
     0
 40
1.0
176
     0
 90
        2
176
     1
  1
strokes_ogs.tif
176
     1
290
     0
176
     1
 40
1.0
176
     1
 40
1.0
176
     1
  0
VISUALSTYLE
  5
138A
102
{ACAD_REACTORS
330
137A
102
}
330
137A
100
AcDbVisualStyle
  2
ColorChange
 70
    16
177
     3
291
     1
 70
    58
 90
        2
176
     1
 90
        2
176
     1
 90
        3
176
     1
 90
        0
176
     1
 40
0.6
176
     1
 40
30.0
176
     1
 62
     8
420
  8421504
176
     1
 90
        1
176
     1
 90
        4
176
     1
 62
     7
176
     1
 62
   257
176
     1
 90
        1
176
     1
 90
        1
176
     1
 40
1.0
176
     1
 90
        8
176
     1
 62
     8
420
  8421504
176
     1
 40
1.0
176
     1
 90
        1
176
     1
 90
        6
176
     1
 90
        2
176
     1
 62
     7
176
     1
 90
        5
176
     1
 90
        0
176
     1
 90
        0
176
     1
290
     0
176
     1
 90
        1
176
     1
 40
0.0
176
     1
 90
        0
176
     1
290
     0
176
     1
290
     1
176
     1
290
     1
176
     1
290
     0
176
     1
290
     0
176
     1
290
     0
176
     1
290
     0
176
     1
290
     0
176
     1
290
     0
176
     1
 90
       50
176
     1
 40
0.0
176
     1
 40
1.0
176
     1
 90
        0
176
     1
 62
    18
420
        0
176
     1
 90
       50
176
     1
 90
        3
176
     1
 62
     5
420
      255
176
     1
290
     0
176
     1
 90
       50
176
     1
 90
       50
176
     1
 90
       50
176
     1
290
     0
176
     1
 90
       50
176
     1
 62
   256
176
     0
 40
1.0
176
     0
 90
        2
176
     1
  1
strokes_ogs.tif
176
     1
290
     0
176
     1
 40
1.0
176
     1
 40
1.0
176
     1
  0
VISUALSTYLE
  5
1384
102
{ACAD_REACTORS
330
137A
102
}
330
137A
100
AcDbVisualStyle
  2
Conceptual
 70
     9
177
     3
291
     0
 70
    58
 90
        3
176
     1
 90
        2
176
     1
 90
        0
176
     1
 90
        0
176
     1
 40
0.6
176
     1
 40
30.0
176
     1
 62
     7
420
 16777215
176
     1
 90
        2
176
     1
 90
        2
176
     1
 62
     7
176
     1
 62
   257
176
     1
 90
        1
176
     1
 90
        1
176
     1
 40
179.0
176
     1
 90
        8
176
     1
 62
     7
176
     1
 40
1.0
176
     1
 90
        1
176
     1
 90
        6
176
     1
 90
        2
176
     1
 62
     7
176
     1
 90
        3
176
     1
 90
        0
176
     1
 90
        0
176
     1
290
     0
176
     1
 90
        1
176
     1
 40
0.0
176
     1
 90
        0
176
     1
290
     0
176
     1
290
     1
176
     1
290
     1
176
     1
290
     0
176
     1
290
     0
176
     1
290
     0
176
     1
290
     0
176
     1
290
     0
176
     1
290
     0
176
     1
 90
       50
176
     1
 40
0.0
176
     1
 40
1.0
176
     1
 90
        0
176
     1
 62
    18
420
        0
176
     1
 90
       50
176
     1
 90
        3
176
     1
 62
     5
420
      255
176
     1
290
     0
176
     1
 90
       50
176
     1
 90
       50
176
     1
 90
       50
176
     1
290
     0
176
     1
 90
       50
176
     1
 62
   256
176
     0
 40
1.0
176
     0
 90
        2
176
     1
  1
strokes_ogs.tif
176
     1
290
     0
176
     1
 40
1.0
176
     1
 40
1.0
176
     1
  0
VISUALSTYLE
  5
1385
102
{ACAD_REACTORS
330
137A
102
}
330
137A
100
AcDbVisualStyle
  2
Dim
 70
    11
177
     3
291
     1
 70
    58
 90
        2
176
     1
 90
        2
176
     1
 90
        0
176
     1
 90
        0
176
     1
 40
0.6
176
     1
 40
30.0
176
     1
 62
     7
420
 16777215
176
     1
 90
        1
176
     1
 90
        4
176
     1
 62
     7
176
     1
 62
   257
176
     1
 90
        1
176
     1
 90
        1
176
     1
 40
1.0
176
     1
 90
        8
176
     1
 62
     7
176
     1
 40
1.0
176
     1
 90
        1
176
     1
 90
        6
176
     1
 90
        2
176
     1
 62
     7
176
     1
 90
        5
176
     1
 90
        0
176
     1
 90
        0
176
     1
290
     0
176
     1
 90
        1
176
     1
 40
-50.0
176
     1
 90
        0
176
     1
290
     0
176
     1
290
     1
176
     1
290
     1
176
     1
290
     0
176
     1
290
     0
176
     1
290
     0
176
     1
290
     0
176
     1
290
     0
176
     1
290
     0
176
     1
 90
       50
176
     1
 40
0.0
176
     1
 40
1.0
176
     1
 90
        0
176
     1
 62
    18
420
        0
176
     1
 90
       50
176
     1
 90
        3
176
     1
 62
     5
420
      255
176
     1
290
     0
176
     1
 90
       50
176
     1
 90
       50
176
     1
 90
       50
176
     1
290
     0
176
     1
 90
       50
176
     1
 62
   256
176
     0
 40
1.0
176
     0
 90
        2
176
     1
  1
strokes_ogs.tif
176
     1
290
     0
176
     1
 40
1.0
176
     1
 40
1.0
176
     1
  0
VISUALSTYLE
  5
138D
102
{ACAD_REACTORS
330
137A
102
}
330
137A
100
AcDbVisualStyle
  2
EdgeColorOff
 70
    22
177
     3
291
     1
 70
    58
 90
        2
176
     0
 90
        2
176
     0
 90
        0
176
     0
 90
        0
176
     0
 40
0.6
176
     0
 40
30.0
176
     0
 62
     7
420
 16777215
176
     0
 90
        1
176
     0
 90
        4
176
     0
 62
     7
176
     0
 62
   257
176
     0
 90
        1
176
     0
 90
        1
176
     0
 40
1.0
176
     0
 90
        8
176
     2
 62
     7
176
     0
 40
1.0
176
     0
 90
        1
176
     0
 90
        6
176
     0
 90
        2
176
     0
 62
     7
176
     0
 90
        5
176
     0
 90
        0
176
     0
 90
        0
176
     0
290
     0
176
     0
 90
        1
176
     0
 40
0.0
176
     0
 90
        0
176
     0
290
     0
176
     0
290
     1
176
     0
290
     1
176
     0
290
     0
176
     0
290
     0
176
     0
290
     0
176
     0
290
     0
176
     0
290
     0
176
     0
290
     0
176
     0
 90
       50
176
     0
 40
0.0
176
     0
 40
1.0
176
     0
 90
        0
176
     0
 62
    18
420
        0
176
     0
 90
       50
176
     0
 90
        3
176
     0
 62
     5
420
      255
176
     0
290
     0
176
     0
 90
       50
176
     0
 90
       50
176
     0
 90
       50
176
     0
290
     0
176
     0
 90
       50
176
     0
 62
   256
176
     0
 40
1.0
176
     0
 90
        2
176
     0
  1
strokes_ogs.tif
176
     0
290
     0
176
     0
 40
1.0
176
     0
 40
1.0
176
     0
  0
VISUALSTYLE
  5
1389
102
{ACAD_REACTORS
330
137A
102
}
330
137A
100
AcDbVisualStyle
  2
Facepattern
 70
    15
177
     3
291
     1
 70
    58
 90
        2
176
     1
 90
        2
176
     1
 90
        0
176
     1
 90
        0
176
     1
 40
0.6
176
     1
 40
30.0
176
     1
 62
     7
420
 16777215
176
     1
 90
        1
176
     1
 90
        4
176
     1
 62
     7
176
     1
 62
   257
176
     1
 90
        1
176
     1
 90
        1
176
     1
 40
1.0
176
     1
 90
        8
176
     1
 62
     7
176
     1
 40
1.0
176
     1
 90
        1
176
     1
 90
        6
176
     1
 90
        2
176
     1
 62
     7
176
     1
 90
        5
176
     1
 90
        0
176
     1
 90
        0
176
     1
290
     0
176
     1
 90
        1
176
     1
 40
0.0
176
     1
 90
        0
176
     1
290
     0
176
     1
290
     1
176
     1
290
     1
176
     1
290
     0
176
     1
290
     0
176
     1
290
     0
176
     1
290
     0
176
     1
290
     0
176
     1
290
     0
176
     1
 90
       50
176
     1
 40
0.0
176
     1
 40
1.0
176
     1
 90
        0
176
     1
 62
    18
420
        0
176
     1
 90
       50
176
     1
 90
        3
176
     1
 62
     5
420
      255
176
     1
290
     0
176
     1
 90
       50
176
     1
 90
       50
176
     1
 90
       50
176
     1
290
     0
176
     1
 90
       50
176
     1
 62
   256
176
     0
 40
1.0
176
     0
 90
        2
176
     1
  1
strokes_ogs.tif
176
     1
290
     0
176
     1
 40
1.0
176
     1
 40
1.0
176
     1
  0
VISUALSTYLE
  5
137B
102
{ACAD_REACTORS
330
137A
102
}
330
137A
100
AcDbVisualStyle
  2
Flat
 70
     0
177
     3
291
     1
 70
    58
 90
        2
176
     1
 90
        1
176
     1
 90
        1
176
     1
 90
        2
176
     1
 40
0.6
176
     1
 40
30.0
176
     1
 62
     7
420
 16777215
176
     1
 90
        0
176
     1
 90
        0
176
     1
 62
     7
176
     1
 62
   257
176
     1
 90
        1
176
     1
 90
        1
176
     1
 40
1.0
176
     1
 90
        8
176
     1
 62
     7
176
     1
 40
1.0
176
     1
 90
        1
176
     1
 90
        6
176
     1
 90
        2
176
     1
 62
     7
176
     1
 90
        5
176
     1
 90
        0
176
     1
 90
        0
176
     1
290
     0
176
     1
 90
       13
176
     1
 40
0.0
176
     1
 90
        0
176
     1
290
     0
176
     1
290
     1
176
     1
290
     1
176
     1
290
     0
176
     1
290
     0
176
     1
290
     0
176
     1
290
     0
176
     1
290
     0
176
     1
290
     0
176
     1
 90
       50
176
     1
 40
0.0
176
     1
 40
1.0
176
     1
 90
        0
176
     1
 62
    18
420
        0
176
     1
 90
       50
176
     1
 90
        3
176
     1
 62
     5
420
      255
176
     1
290
     0
176
     1
 90
       50
176
     1
 90
       50
176
     1
 90
       50
176
     1
290
     0
176
     1
 90
       50
176
     1
 62
   256
176
     0
 40
1.0
176
     0
 90
        2
176
     1
  1
strokes_ogs.tif
176
     1
290
     0
176
     1
 40
1.0
176
     1
 40
1.0
176
     1
  0
VISUALSTYLE
  5
137C
102
{ACAD_REACTORS
330
137A
102
}
330
137A
100
AcDbVisualStyle
  2
FlatWithEdges
 70
     1
177
     3
291
     1
 70
    58
 90
        2
176
     1
 90
        1
176
     1
 90
        1
176
     1
 90
        2
176
     1
 40
0.6
176
     1
 40
30.0
176
     1
 62
     7
420
 16777215
176
     1
 90
        1
176
     1
 90
        0
176
     1
 62
     7
176
     1
 62
   257
176
     1
 90
        1
176
     1
 90
        1
176
     1
 40
1.0
176
     1
 90
        0
176
     1
 62
   257
176
     1
 40
1.0
176
     1
 90
        1
176
     1
 90
        6
176
     1
 90
        2
176
     1
 62
     7
176
     1
 90
        5
176
     1
 90
        0
176
     1
 90
        0
176
     1
290
     0
176
     1
 90
       13
176
     1
 40
0.0
176
     1
 90
        0
176
     1
290
     0
176
     1
290
     1
176
     1
290
     1
176
     1
290
     0
176
     1
290
     0
176
     1
290
     0
176
     1
290
     0
176
     1
290
     0
176
     1
290
     0
176
     1
 90
       50
176
     1
 40
0.0
176
     1
 40
1.0
176
     1
 90
        0
176
     1
 62
    18
420
        0
176
     1
 90
       50
176
     1
 90
        3
176
     1
 62
     5
420
      255
176
     1
290
     0
176
     1
 90
       50
176
     1
 90
       50
176
     1
 90
       50
176
     1
290
     0
176
     1
 90
       50
176
     1
 62
   256
176
     0
 40
1.0
176
     0
 90
        2
176
     1
  1
strokes_ogs.tif
176
     1
290
     0
176
     1
 40
1.0
176
     1
 40
1.0
176
     1
  0
VISUALSTYLE
  5
137D
102
{ACAD_REACTORS
330
137A
102
}
330
137A
100
AcDbVisualStyle
  2
Gouraud
 70
     2
177
     3
291
     1
 70
    58
 90
        2
176
     1
 90
        2
176
     1
 90
        1
176
     1
 90
        2
176
     1
 40
0.6
176
     1
 40
30.0
176
     1
 62
     7
420
 16777215
176
     1
 90
        0
176
     1
 90
        0
176
     1
 62
     7
176
     1
 62
   257
176
     1
 90
        1
176
     1
 90
        1
176
     1
 40
1.0
176
     1
 90
        0
176
     1
 62
     7
176
     1
 40
1.0
176
     1
 90
        1
176
     1
 90
        6
176
     1
 90
        2
176
     1
 62
     7
176
     1
 90
        5
176
     1
 90
        0
176
     1
 90
        0
176
     1
290
     0
176
     1
 90
       13
176
     1
 40
0.0
176
     1
 90
        0
176
     1
290
     0
176
     1
290
     1
176
     1
290
     1
176
     1
290
     0
176
     1
290
     0
176
     1
290
     0
176
     1
290
     0
176
     1
290
     0
176
     1
290
     0
176
     1
 90
       50
176
     1
 40
0.0
176
     1
 40
1.0
176
     1
 90
        0
176
     1
 62
    18
420
        0
176
     1
 90
       50
176
     1
 90
        3
176
     1
 62
     5
420
      255
176
     1
290
     0
176
     1
 90
       50
176
     1
 90
       50
176
     1
 90
       50
176
     1
290
     0
176
     1
 90
       50
176
     1
 62
   256
176
     0
 40
1.0
176
     0
 90
        2
176
     1
  1
strokes_ogs.tif
176
     1
290
     0
176
     1
 40
1.0
176
     1
 40
1.0
176
     1
  0
VISUALSTYLE
  5
137E
102
{ACAD_REACTORS
330
137A
102
}
330
137A
100
AcDbVisualStyle
  2
GouraudWithEdges
 70
     3
177
     3
291
     1
 70
    58
 90
        2
176
     1
 90
        2
176
     1
 90
        1
176
     1
 90
        2
176
     1
 40
0.6
176
     1
 40
30.0
176
     1
 62
     7
420
 16777215
176
     1
 90
        1
176
     1
 90
        0
176
     1
 62
     7
176
     1
 62
   257
176
     1
 90
        1
176
     1
 90
        1
176
     1
 40
1.0
176
     1
 90
        0
176
     1
 62
   257
176
     1
 40
1.0
176
     1
 90
        1
176
     1
 90
        6
176
     1
 90
        2
176
     1
 62
     7
176
     1
 90
        5
176
     1
 90
        0
176
     1
 90
        0
176
     1
290
     0
176
     1
 90
       13
176
     1
 40
0.0
176
     1
 90
        0
176
     1
290
     0
176
     1
290
     1
176
     1
290
     1
176
     1
290
     0
176
     1
290
     0
176
     1
290
     0
176
     1
290
     0
176
     1
290
     0
176
     1
290
     0
176
     1
 90
       50
176
     1
 40
0.0
176
     1
 40
1.0
176
     1
 90
        0
176
     1
 62
    18
420
        0
176
     1
 90
       50
176
     1
 90
        3
176
     1
 62
     5
420
      255
176
     1
290
     0
176
     1
 90
       50
176
     1
 90
       50
176
     1
 90
       50
176
     1
290
     0
176
     1
 90
       50
176
     1
 62
   256
176
     0
 40
1.0
176
     0
 90
        2
176
     1
  1
strokes_ogs.tif
176
     1
290
     0
176
     1
 40
1.0
176
     1
 40
1.0
176
     1
  0
VISUALSTYLE
  5
1381
102
{ACAD_REACTORS
330
137A
102
}
330
137A
100
AcDbVisualStyle
  2
Hidden
 70
     6
177
     3
291
     0
 70
    58
 90
        1
176
     1
 90
        2
176
     1
 90
        2
176
     1
 90
        0
176
     1
 40
0.6
176
     1
 40
30.0
176
     1
 62
     7
420
 16777215
176
     1
 90
        2
176
     1
 90
        2
176
     1
 62
     7
176
     1
 62
   257
176
     1
 90
        2
176
     1
 90
        1
176
     1
 40
40.0
176
     1
 90
        0
176
     1
 62
   257
176
     1
 40
1.0
176
     1
 90
        1
176
     1
 90
        6
176
     1
 90
        2
176
     1
 62
     7
176
     1
 90
        3
176
     1
 90
        0
176
     1
 90
        0
176
     1
290
     0
176
     1
 90
        1
176
     1
 40
0.0
176
     1
 90
        0
176
     1
290
     0
176
     1
290
     1
176
     1
290
     1
176
     1
290
     0
176
     1
290
     0
176
     1
290
     0
176
     1
290
     0
176
     1
290
     0
176
     1
290
     0
176
     1
 90
       50
176
     1
 40
0.0
176
     1
 40
1.0
176
     1
 90
        0
176
     1
 62
    18
420
        0
176
     1
 90
       50
176
     1
 90
        3
176
     1
 62
     5
420
      255
176
     1
290
     0
176
     1
 90
       50
176
     1
 90
       50
176
     1
 90
       50
176
     1
290
     0
176
     1
 90
       50
176
     1
 62
   256
176
     0
 40
1.0
176
     0
 90
        2
176
     1
  1
strokes_ogs.tif
176
     1
290
     0
176
     1
 40
1.0
176
     1
 40
1.0
176
     1
  0
VISUALSTYLE
  5
138B
102
{ACAD_REACTORS
330
137A
102
}
330
137A
100
AcDbVisualStyle
  2
JitterOff
 70
    20
177
     3
291
     1
 70
    58
 90
        2
176
     0
 90
        2
176
     0
 90
        0
176
     0
 90
        0
176
     0
 40
0.6
176
     0
 40
30.0
176
     0
 62
     7
420
 16777215
176
     0
 90
        1
176
     0
 90
        4
176
     0
 62
     7
176
     0
 62
   257
176
     0
 90
        1
176
     0
 90
        1
176
     0
 40
1.0
176
     0
 90
       10
176
     2
 62
     7
176
     0
 40
1.0
176
     0
 90
        1
176
     0
 90
        6
176
     0
 90
        2
176
     0
 62
     7
176
     0
 90
        5
176
     0
 90
        0
176
     0
 90
        0
176
     0
290
     0
176
     0
 90
        1
176
     0
 40
0.0
176
     0
 90
        0
176
     0
290
     0
176
     0
290
     1
176
     0
290
     1
176
     0
290
     0
176
     0
290
     0
176
     0
290
     0
176
     0
290
     0
176
     0
290
     0
176
     0
290
     0
176
     0
 90
       50
176
     0
 40
0.0
176
     0
 40
1.0
176
     0
 90
        0
176
     0
 62
    18
420
        0
176
     0
 90
       50
176
     0
 90
        3
176
     0
 62
     5
420
      255
176
     0
290
     0
176
     0
 90
       50
176
     0
 90
       50
176
     0
 90
       50
176
     0
290
     0
176
     0
 90
       50
176
     0
 62
   256
176
     0
 40
1.0
176
     0
 90
        2
176
     0
  1
strokes_ogs.tif
176
     0
290
     0
176
     0
 40
1.0
176
     0
 40
1.0
176
     0
  0
VISUALSTYLE
  5
1388
102
{ACAD_REACTORS
330
137A
102
}
330
137A
100
AcDbVisualStyle
  2
Linepattern
 70
    14
177
     3
291
     1
 70
    58
 90
        2
176
     1
 90
        2
176
     1
 90
        0
176
     1
 90
        0
176
     1
 40
0.6
176
     1
 40
30.0
176
     1
 62
     7
420
 16777215
176
     1
 90
        1
176
     1
 90
        4
176
     1
 62
     7
176
     1
 62
   257
176
     1
 90
        7
176
     1
 90
        7
176
     1
 40
1.0
176
     1
 90
        8
176
     1
 62
     7
176
     1
 40
1.0
176
     1
 90
        1
176
     1
 90
        6
176
     1
 90
        2
176
     1
 62
     7
176
     1
 90
        5
176
     1
 90
        0
176
     1
 90
        0
176
     1
290
     0
176
     1
 90
        1
176
     1
 40
0.0
176
     1
 90
        0
176
     1
290
     0
176
     1
290
     1
176
     1
290
     1
176
     1
290
     0
176
     1
290
     0
176
     1
290
     0
176
     1
290
     0
176
     1
290
     0
176
     1
290
     0
176
     1
 90
       50
176
     1
 40
0.0
176
     1
 40
1.0
176
     1
 90
        0
176
     1
 62
    18
420
        0
176
     1
 90
       50
176
     1
 90
        3
176
     1
 62
     5
420
      255
176
     1
290
     0
176
     1
 90
       50
176
     1
 90
       50
176
     1
 90
       50
176
     1
290
     0
176
     1
 90
       50
176
     1
 62
   256
176
     0
 40
1.0
176
     0
 90
        2
176
     1
  1
strokes_ogs.tif
176
     1
290
     0
176
     1
 40
1.0
176
     1
 40
1.0
176
     1
  0
VISUALSTYLE
  5
138C
102
{ACAD_REACTORS
330
137A
102
}
330
137A
100
AcDbVisualStyle
  2
OverhangOff
 70
    21
177
     3
291
     1
 70
    58
 90
        2
176
     0
 90
        2
176
     0
 90
        0
176
     0
 90
        0
176
     0
 40
0.6
176
     0
 40
30.0
176
     0
 62
     7
420
 16777215
176
     0
 90
        1
176
     0
 90
        4
176
     0
 62
     7
176
     0
 62
   257
176
     0
 90
        1
176
     0
 90
        1
176
     0
 40
1.0
176
     0
 90
        9
176
     2
 62
     7
176
     0
 40
1.0
176
     0
 90
        1
176
     0
 90
        6
176
     0
 90
        2
176
     0
 62
     7
176
     0
 90
        5
176
     0
 90
        0
176
     0
 90
        0
176
     0
290
     0
176
     0
 90
        1
176
     0
 40
0.0
176
     0
 90
        0
176
     0
290
     0
176
     0
290
     1
176
     0
290
     1
176
     0
290
     0
176
     0
290
     0
176
     0
290
     0
176
     0
290
     0
176
     0
290
     0
176
     0
290
     0
176
     0
 90
       50
176
     0
 40
0.0
176
     0
 40
1.0
176
     0
 90
        0
176
     0
 62
    18
420
        0
176
     0
 90
       50
176
     0
 90
        3
176
     0
 62
     5
420
      255
176
     0
290
     0
176
     0
 90
       50
176
     0
 90
       50
176
     0
 90
       50
176
     0
290
     0
176
     0
 90
       50
176
     0
 62
   256
176
     0
 40
1.0
176
     0
 90
        2
176
     0
  1
strokes_ogs.tif
176
     0
290
     0
176
     0
 40
1.0
176
     0
 40
1.0
176
     0
  0
VISUALSTYLE
  5
1383
102
{ACAD_REACTORS
330
137A
102
}
330
137A
100
AcDbVisualStyle
  2
Realistic
 70
     8
177
     3
291
     0
 70
    58
 90
        2
176
     1
 90
        3
176
     1
 90
        0
176
     1
 90
        2
176
     1
 40
0.6
176
     1
 40
30.0
176
     1
 62
     7
420
 16777215
176
     1
 90
        0
176
     1
 90
        0
176
     1
 62
     7
176
     1
 62
   257
176
     1
 90
        1
176
     1
 90
        1
176
     1
 40
1.0
176
     1
 90
        8
176
     1
 62
   257
176
     1
 40
1.0
176
     1
 90
        1
176
     1
 90
        6
176
     1
 90
        2
176
     1
 62
     7
176
     1
 90
        3
176
     1
 90
        0
176
     1
 90
        0
176
     1
290
     0
176
     1
 90
       13
176
     1
 40
0.0
176
     1
 90
        0
176
     1
290
     0
176
     1
290
     1
176
     1
290
     1
176
     1
290
     0
176
     1
290
     0
176
     1
290
     0
176
     1
290
     0
176
     1
290
     0
176
     1
290
     0
176
     1
 90
       50
176
     1
 40
0.0
176
     1
 40
1.0
176
     1
 90
        0
176
     1
 62
    18
420
        0
176
     1
 90
       50
176
     1
 90
        3
176
     1
 62
     5
420
      255
176
     1
290
     0
176
     1
 90
       50
176
     1
 90
       50
176
     1
 90
       50
176
     1
290
     0
176
     1
 90
       50
176
     1
 62
   256
176
     0
 40
1.0
176
     0
 90
        2
176
     1
  1
strokes_ogs.tif
176
     1
290
     0
176
     1
 40
1.0
176
     1
 40
1.0
176
     1
  0
VISUALSTYLE
  5
1392
102
{ACAD_REACTORS
330
137A
102
}
330
137A
100
AcDbVisualStyle
  2
Shaded
 70
    27
177
     3
291
     0
 70
    58
 90
        2
176
     1
 90
        2
176
     1
 90
        1
176
     1
 90
        2
176
     1
 40
0.6
176
     1
 40
30.0
176
     1
 62
     7
420
 16777215
176
     1
 90
        0
176
     1
 90
        4
176
     1
 62
     7
176
     1
 62
   257
176
     1
 90
        1
176
     1
 90
        1
176
     1
 40
1.0
176
     1
 90
        8
176
     1
 62
   257
176
     1
 40
1.0
176
     1
 90
        1
176
     1
 90
        6
176
     1
 90
        2
176
     1
 62
     8
420
  7895160
176
     1
 90
        3
176
     1
 90
        0
176
     1
 90
        0
176
     1
290
     0
176
     1
 90
        5
176
     1
 40
0.0
176
     1
 90
        0
176
     1
290
     0
176
     1
290
     1
176
     1
290
     1
176
     1
290
     0
176
     1
290
     0
176
     1
290
     0
176
     1
290
     0
176
     1
290
     0
176
     1
290
     0
176
     1
 90
       50
176
     1
 40
0.0
176
     1
 40
1.0
176
     1
 90
        0
176
     1
 62
    18
420
        0
176
     1
 90
       50
176
     1
 90
        3
176
     1
 62
     5
420
      255
176
     1
290
     0
176
     1
 90
       50
176
     1
 90
       50
176
     1
 90
       50
176
     1
290
     0
176
     1
 90
       50
176
     1
 62
   256
176
     0
 40
1.0
176
     0
 90
        2
176
     1
  1
strokes_ogs.tif
176
     1
290
     0
176
     1
 40
1.0
176
     1
 40
1.0
176
     1
  0
VISUALSTYLE
  5
1391
102
{ACAD_REACTORS
330
137A
102
}
330
137A
100
AcDbVisualStyle
  2
Shaded with edges
 70
    26
177
     3
291
     0
 70
    58
 90
        2
176
     1
 90
        2
176
     1
 90
        1
176
     1
 90
        2
176
     1
 40
0.6
176
     1
 40
30.0
176
     1
 62
     7
420
 16777215
176
     1
 90
        1
176
     1
 90
       10
176
     1
 62
     7
176
     1
 62
   257
176
     1
 90
        2
176
     1
 90
        1
176
     1
 40
1.0
176
     1
 90
        8
176
     1
 62
   257
176
     1
 40
1.0
176
     1
 90
        1
176
     1
 90
        6
176
     1
 90
        2
176
     1
 62
     7
176
     1
 90
        3
176
     1
 90
        0
176
     1
 90
        0
176
     1
290
     0
176
     1
 90
        5
176
     1
 40
0.0
176
     1
 90
        0
176
     1
290
     0
176
     1
290
     1
176
     1
290
     1
176
     1
290
     0
176
     1
290
     0
176
     1
290
     0
176
     1
290
     0
176
     1
290
     0
176
     1
290
     0
176
     1
 90
       50
176
     1
 40
0.0
176
     1
 40
1.0
176
     1
 90
        0
176
     1
 62
    18
420
        0
176
     1
 90
       50
176
     1
 90
        3
176
     1
 62
     5
420
      255
176
     1
290
     0
176
     1
 90
       50
176
     1
 90
       50
176
     1
 90
       50
176
     1
290
     0
176
     1
 90
       50
176
     1
 62
   256
176
     0
 40
1.0
176
     0
 90
        2
176
     1
  1
strokes_ogs.tif
176
     1
290
     0
176
     1
 40
1.0
176
     1
 40
1.0
176
     1
  0
VISUALSTYLE
  5
138E
102
{ACAD_REACTORS
330
137A
102
}
330
137A
100
AcDbVisualStyle
  2
Shades of Gray
 70
    23
177
     3
291
     0
 70
    58
 90
        2
176
     1
 90
        2
176
     1
 90
        3
176
     1
 90
        0
176
     1
 40
0.6
176
     1
 40
30.0
176
     1
 62
     7
420
 16777215
176
     1
 90
        2
176
     1
 90
        2
176
     1
 62
     7
176
     1
 62
     7
176
     1
 90
        1
176
     1
 90
        1
176
     1
 40
40.0
176
     1
 90
        8
176
     1
 62
     7
176
     1
 40
1.0
176
     1
 90
        1
176
     1
 90
        6
176
     1
 90
        2
176
     1
 62
     7
176
     1
 90
        3
176
     1
 90
        0
176
     1
 90
        0
176
     1
290
     0
176
     1
 90
        1
176
     1
 40
0.0
176
     1
 90
        0
176
     1
290
     0
176
     1
290
     1
176
     1
290
     1
176
     1
290
     0
176
     1
290
     0
176
     1
290
     0
176
     1
290
     0
176
     1
290
     0
176
     1
290
     0
176
     1
 90
       50
176
     1
 40
0.0
176
     1
 40
1.0
176
     1
 90
        0
176
     1
 62
    18
420
        0
176
     1
 90
       50
176
     1
 90
        3
176
     1
 62
     5
420
      255
176
     1
290
     0
176
     1
 90
       50
176
     1
 90
       50
176
     1
 90
       50
176
     1
290
     0
176
     1
 90
       50
176
     1
 62
   256
176
     0
 40
1.0
176
     0
 90
        2
176
     1
  1
strokes_ogs.tif
176
     1
290
     0
176
     1
 40
1.0
176
     1
 40
1.0
176
     1
  0
VISUALSTYLE
  5
138F
102
{ACAD_REACTORS
330
137A
102
}
330
137A
100
AcDbVisualStyle
  2
Sketchy
 70
    24
177
     3
291
     0
 70
    58
 90
        1
176
     1
 90
        2
176
     1
 90
        2
176
     1
 90
        0
176
     1
 40
0.6
176
     1
 40
30.0
176
     1
 62
     7
420
 16777215
176
     1
 90
        2
176
     1
 90
        2
176
     1
 62
     7
176
     1
 62
     7
176
     1
 90
        1
176
     1
 90
        1
176
     1
 40
40.0
176
     1
 90
       11
176
     1
 62
     7
176
     1
 40
1.0
176
     1
 90
        1
176
     1
 90
        6
176
     1
 90
        2
176
     1
 62
     7
176
     1
 90
        6
176
     1
 90
        0
176
     1
 90
        0
176
     1
290
     0
176
     1
 90
        1
176
     1
 40
0.0
176
     1
 90
        0
176
     1
290
     0
176
     1
290
     1
176
     1
290
     1
176
     1
290
     0
176
     1
290
     0
176
     1
290
     0
176
     1
290
     0
176
     1
290
     0
176
     1
290
     0
176
     1
 90
       50
176
     1
 40
0.0
176
     1
 40
1.0
176
     1
 90
        0
176
     1
 62
    18
420
        0
176
     1
 90
       50
176
     1
 90
        3
176
     1
 62
     5
420
      255
176
     1
290
     0
176
     1
 90
       50
176
     1
 90
       50
176
     1
 90
       50
176
     1
290
     0
176
     1
 90
       50
176
     1
 62
   256
176
     0
 40
1.0
176
     0
 90
        2
176
     1
  1
strokes_ogs.tif
176
     1
290
     0
176
     1
 40
1.0
176
     1
 40
1.0
176
     1
  0
VISUALSTYLE
  5
1387
102
{ACAD_REACTORS
330
137A
102
}
330
137A
100
AcDbVisualStyle
  2
Thicken
 70
    13
177
     3
291
     1
 70
    58
 90
        2
176
     1
 90
        2
176
     1
 90
        0
176
     1
 90
        0
176
     1
 40
0.6
176
     1
 40
30.0
176
     1
 62
     7
420
 16777215
176
     1
 90
        1
176
     1
 90
        4
176
     1
 62
     7
176
     1
 62
   257
176
     1
 90
        1
176
     1
 90
        1
176
     1
 40
1.0
176
     1
 90
       12
176
     1
 62
     7
176
     1
 40
1.0
176
     1
 90
        1
176
     1
 90
        6
176
     1
 90
        2
176
     1
 62
     7
176
     1
 90
        5
176
     1
 90
        0
176
     1
 90
        0
176
     1
290
     0
176
     1
 90
        1
176
     1
 40
0.0
176
     1
 90
        0
176
     1
290
     0
176
     1
290
     1
176
     1
290
     1
176
     1
290
     0
176
     1
290
     0
176
     1
290
     0
176
     1
290
     0
176
     1
290
     0
176
     1
290
     0
176
     1
 90
       50
176
     1
 40
0.0
176
     1
 40
1.0
176
     1
 90
        0
176
     1
 62
    18
420
        0
176
     1
 90
       50
176
     1
 90
        3
176
     1
 62
     5
420
      255
176
     1
290
     0
176
     1
 90
       50
176
     1
 90
       50
176
     1
 90
       50
176
     1
290
     0
176
     1
 90
       50
176
     1
 62
   256
176
     0
 40
1.0
176
     0
 90
        2
176
     1
  1
strokes_ogs.tif
176
     1
290
     0
176
     1
 40
1.0
176
     1
 40
1.0
176
     1
  0
VISUALSTYLE
  5
1380
102
{ACAD_REACTORS
330
137A
102
}
330
137A
100
AcDbVisualStyle
  2
Wireframe
 70
     5
177
     3
291
     0
 70
    58
 90
        0
176
     1
 90
        2
176
     1
 90
        0
176
     1
 90
        0
176
     1
 40
0.6
176
     1
 40
30.0
176
     1
 62
     7
420
 16777215
176
     1
 90
        1
176
     1
 90
        4
176
     1
 62
     7
176
     1
 62
   257
176
     1
 90
        1
176
     1
 90
        1
176
     1
 40
1.0
176
     1
 90
        0
176
     1
 62
   257
176
     1
 40
1.0
176
     1
 90
        1
176
     1
 90
        6
176
     1
 90
        2
176
     1
 62
     7
176
     1
 90
        3
176
     1
 90
        0
176
     1
 90
        0
176
     1
290
     0
176
     1
 90
        1
176
     1
 40
0.0
176
     1
 90
        0
176
     1
290
     0
176
     1
290
     1
176
     1
290
     1
176
     1
290
     0
176
     1
290
     0
176
     1
290
     0
176
     1
290
     0
176
     1
290
     0
176
     1
290
     0
176
     1
 90
       50
176
     1
 40
0.0
176
     1
 40
1.0
176
     1
 90
        0
176
     1
 62
    18
420
        0
176
     1
 90
       50
176
     1
 90
        3
176
     1
 62
     5
420
      255
176
     1
290
     0
176
     1
 90
       50
176
     1
 90
       50
176
     1
 90
       50
176
     1
290
     0
176
     1
 90
       50
176
     1
 62
   256
176
     0
 40
1.0
176
     0
 90
        2
176
     1
  1
strokes_ogs.tif
176
     1
290
     0
176
     1
 40
1.0
176
     1
 40
1.0
176
     1
  0
VISUALSTYLE
  5
1390
102
{ACAD_REACTORS
330
137A
102
}
330
137A
100
AcDbVisualStyle
  2
X-Ray
 70
    25
177
     3
291
     0
 70
    58
 90
        2
176
     1
 90
        2
176
     1
 90
        1
176
     1
 90
        1
176
     1
 40
0.5
176
     1
 40
30.0
176
     1
 62
     7
420
 16777215
176
     1
 90
        1
176
     1
 90
        0
176
     1
 62
     7
176
     1
 62
   257
176
     1
 90
        1
176
     1
 90
        1
176
     1
 40
1.0
176
     1
 90
        8
176
     1
 62
     7
176
     1
 40
1.0
176
     1
 90
        1
176
     1
 90
        6
176
     1
 90
        2
176
     1
 62
     7
176
     1
 90
        3
176
     1
 90
        0
176
     1
 90
        0
176
     1
290
     0
176
     1
 90
       13
176
     1
 40
0.0
176
     1
 90
        0
176
     1
290
     0
176
     1
290
     1
176
     1
290
     1
176
     1
290
     0
176
     1
290
     0
176
     1
290
     0
176
     1
290
     0
176
     1
290
     0
176
     1
290
     0
176
     1
 90
       50
176
     1
 40
0.0
176
     1
 40
1.0
176
     1
 90
        0
176
     1
 62
    18
420
        0
176
     1
 90
       50
176
     1
 90
        3
176
     1
 62
     5
420
      255
176
     1
290
     0
176
     1
 90
       50
176
     1
 90
       50
176
     1
 90
       50
176
     1
290
     0
176
     1
 90
       50
176
     1
 62
   256
176
     0
 40
1.0
176
     0
 90
        2
176
     1
  1
strokes_ogs.tif
176
     1
290
     0
176
     1
 40
1.0
176
     1
 40
1.0
176
     1
  0
DICTIONARYVAR
  5
13C5
102
{ACAD_REACTORS
330
1376
102
}
330
1376
100
DictionaryVariables
280
     0
  1
1:1
  0
DICTIONARYVAR
  5
13C9
102
{ACAD_REACTORS
330
1376
102
}
330
1376
100
DictionaryVariables
280
     0
  1
Standard
  0
DICTIONARYVAR
  5
1378
102
{ACAD_REACTORS
330
1376
102
}
330
1376
100
DictionaryVariables
280
     0
  1
2
  0
DICTIONARYVAR
  5
1377
102
{ACAD_REACTORS
330
1376
102
}
330
1376
100
DictionaryVariables
280
     0
  1
1
  0
DICTIONARYVAR
  5
13CB
102
{ACAD_REACTORS
330
1376
102
}
330
1376
100
DictionaryVariables
280
     0
  1
0
  0
DICTIONARYVAR
  5
1379
102
{ACAD_REACTORS
330
1376
102
}
330
1376
100
DictionaryVariables
280
     0
  1

  0
XRECORD
  5
115C
102
{ACAD_REACTORS
330
1141
102
}
330
1141
100
AcDbXrecord
280
     1
 91
      484
330
2E
 90
        8
 62
     1
370
    30
331
16
  1
色_1
330
1162
 90
        8
 62
     7
370
    13
331
16
  1
色_7
330
2F
 90
        8
 62
     7
370
    25
331
16
  1
色_7
330
129
 90
        8
 62
     7
370
    15
331
605
  1
色_7
330
36
 90
        8
 62
     7
370
    15
331
5EC
  1
色_7
330
128
 90
        8
 62
     7
370
    25
331
16
  1
色_7
330
1161
 90
        8
 62
     7
370
     9
331
16
  1
色_7
330
52
 90
        0
 62
     2
370
    -3
331
16
  1
色_2
330
1160
 90
        8
 62
     3
370
    -3
331
16
  1
色_3
330
778
 90
        0
 62
     7
370
    -3
331
16
  1
色_7
330
10
 90
        8
 62
     7
370
    -3
331
16
  0
DICTIONARY
  5
13F8
330
13B9
100
AcDbDictionary
280
     1
281
     1
  3
ACAD_ROUNDTRIP_2008_TABLESTYLE_CELLSTYLEMAP
360
13F9
  0
CELLSTYLEMAP
  5
13F9
102
{ACAD_REACTORS
330
13F8
102
}
330
13F8
100
AcDbCellStyleMap
 90
        3
300
CELLSTYLE
  1
TABLEFORMAT_BEGIN
 90
        5
170
     1
 91
        0
 92
        0
 62
   257
 93
        1
300
CONTENTFORMAT
  1
CONTENTFORMAT_BEGIN
 90
        0
 91
        0
 92
        4
 93
        0
300

 40
0.0
140
1.0
 94
        5
 62
     0
340
11
144
6.0
309
CONTENTFORMAT_END
171
     1
301
MARGIN
  1
CELLMARGIN_BEGIN
 40
1.5
 40
1.5
 40
1.5
 40
1.5
 40
1.5
 40
1.5
309
CELLMARGIN_END
 94
        6
 95
        1
302
GRIDFORMAT
  1
GRIDFORMAT_BEGIN
 90
        0
 91
        1
 62
     0
 92
       -2
340
14
 93
        0
 40
0.045
309
GRIDFORMAT_END
 95
        2
302
GRIDFORMAT
  1
GRIDFORMAT_BEGIN
 90
        0
 91
        1
 62
     0
 92
       -2
340
14
 93
        0
 40
0.045
309
GRIDFORMAT_END
 95
        4
302
GRIDFORMAT
  1
GRIDFORMAT_BEGIN
 90
        0
 91
        1
 62
     0
 92
       -2
340
14
 93
        0
 40
0.045
309
GRIDFORMAT_END
 95
        8
302
GRIDFORMAT
  1
GRIDFORMAT_BEGIN
 90
        0
 91
        1
 62
     0
 92
       -2
340
14
 93
        0
 40
0.045
309
GRIDFORMAT_END
 95
       16
302
GRIDFORMAT
  1
GRIDFORMAT_BEGIN
 90
        0
 91
        1
 62
     0
 92
       -2
340
14
 93
        0
 40
0.045
309
GRIDFORMAT_END
 95
       32
302
GRIDFORMAT
  1
GRIDFORMAT_BEGIN
 90
        0
 91
        1
 62
     0
 92
       -2
340
14
 93
        0
 40
0.045
309
GRIDFORMAT_END
309
TABLEFORMAT_END
  1
CELLSTYLE_BEGIN
 90
        1
 91
        1
300
_TITLE
309
CELLSTYLE_END
300
CELLSTYLE
  1
TABLEFORMAT_BEGIN
 90
        5
170
     1
 91
        0
 92
        0
 62
   257
 93
        1
300
CONTENTFORMAT
  1
CONTENTFORMAT_BEGIN
 90
        0
 91
        0
 92
        4
 93
        0
300

 40
0.0
140
1.0
 94
        5
 62
     0
340
11
144
4.5
309
CONTENTFORMAT_END
171
     1
301
MARGIN
  1
CELLMARGIN_BEGIN
 40
1.5
 40
1.5
 40
1.5
 40
1.5
 40
1.5
 40
1.5
309
CELLMARGIN_END
 94
        6
 95
        1
302
GRIDFORMAT
  1
GRIDFORMAT_BEGIN
 90
        0
 91
        1
 62
     0
 92
       -2
340
14
 93
        0
 40
0.045
309
GRIDFORMAT_END
 95
        2
302
GRIDFORMAT
  1
GRIDFORMAT_BEGIN
 90
        0
 91
        1
 62
     0
 92
       -2
340
14
 93
        0
 40
0.045
309
GRIDFORMAT_END
 95
        4
302
GRIDFORMAT
  1
GRIDFORMAT_BEGIN
 90
        0
 91
        1
 62
     0
 92
       -2
340
14
 93
        0
 40
0.045
309
GRIDFORMAT_END
 95
        8
302
GRIDFORMAT
  1
GRIDFORMAT_BEGIN
 90
        0
 91
        1
 62
     0
 92
       -2
340
14
 93
        0
 40
0.045
309
GRIDFORMAT_END
 95
       16
302
GRIDFORMAT
  1
GRIDFORMAT_BEGIN
 90
        0
 91
        1
 62
     0
 92
       -2
340
14
 93
        0
 40
0.045
309
GRIDFORMAT_END
 95
       32
302
GRIDFORMAT
  1
GRIDFORMAT_BEGIN
 90
        0
 91
        1
 62
     0
 92
       -2
340
14
 93
        0
 40
0.045
309
GRIDFORMAT_END
309
TABLEFORMAT_END
  1
CELLSTYLE_BEGIN
 90
        2
 91
        1
300
_HEADER
309
CELLSTYLE_END
300
CELLSTYLE
  1
TABLEFORMAT_BEGIN
 90
        5
170
     1
 91
        0
 92
        0
 62
   257
 93
        1
300
CONTENTFORMAT
  1
CONTENTFORMAT_BEGIN
 90
        0
 91
        0
 92
        4
 93
        0
300

 40
0.0
140
1.0
 94
        2
 62
     0
340
11
144
4.5
309
CONTENTFORMAT_END
171
     1
301
MARGIN
  1
CELLMARGIN_BEGIN
 40
1.5
 40
1.5
 40
1.5
 40
1.5
 40
1.5
 40
1.5
309
CELLMARGIN_END
 94
        6
 95
        1
302
GRIDFORMAT
  1
GRIDFORMAT_BEGIN
 90
        0
 91
        1
 62
     0
 92
       -2
340
14
 93
        0
 40
0.045
309
GRIDFORMAT_END
 95
        2
302
GRIDFORMAT
  1
GRIDFORMAT_BEGIN
 90
        0
 91
        1
 62
     0
 92
       -2
340
14
 93
        0
 40
0.045
309
GRIDFORMAT_END
 95
        4
302
GRIDFORMAT
  1
GRIDFORMAT_BEGIN
 90
        0
 91
        1
 62
     0
 92
       -2
340
14
 93
        0
 40
0.045
309
GRIDFORMAT_END
 95
        8
302
GRIDFORMAT
  1
GRIDFORMAT_BEGIN
 90
        0
 91
        1
 62
     0
 92
       -2
340
14
 93
        0
 40
0.045
309
GRIDFORMAT_END
 95
       16
302
GRIDFORMAT
  1
GRIDFORMAT_BEGIN
 90
        0
 91
        1
 62
     0
 92
       -2
340
14
 93
        0
 40
0.045
309
GRIDFORMAT_END
 95
       32
302
GRIDFORMAT
  1
GRIDFORMAT_BEGIN
 90
        0
 91
        1
 62
     0
 92
       -2
340
14
 93
        0
 40
0.045
309
GRIDFORMAT_END
309
TABLEFORMAT_END
  1
CELLSTYLE_BEGIN
 90
        3
 91
        2
300
_DATA
309
CELLSTYLE_END
  0
ENDSEC
  0
EOF
