  0
SECTION
  2
HEADER
  9
$ACADVER
  1
AC1027
  9
$ACADMAINTVER
 70
     8
  9
$DWGCODEPAGE
  3
ANSI_932
  9
$REQUIREDVERSIONS
160
                 0
  9
$LASTSAVEDBY
  1
Yasu
  9
$INSBASE
 10
0.0
 20
0.0
 30
0.0
  9
$EXTMIN
 10
38.91252621778449
 20
54.62144221697378
 30
0.0
  9
$EXTMAX
 10
370.1768024177838
 20
253.4943712681111
 30
0.0
  9
$LIMMIN
 10
0.0
 20
0.0
  9
$LIMMAX
 10
420.0
 20
297.0
  9
$ORTHOMODE
 70
     1
  9
$REGENMODE
 70
     1
  9
$FILLMODE
 70
     1
  9
$QTEXTMODE
 70
     0
  9
$MIRRTEXT
 70
     0
  9
$LTSCALE
 40
0.2
  9
$ATTMODE
 70
     1
  9
$TEXTSIZE
 40
3.0
  9
$TRACEWID
 40
1.0
  9
$TEXTSTYLE
  7
Standard
  9
$CLAYER
  8
文字・寸法線
  9
$CELTYPE
  6
ByLayer
  9
$CECOLOR
 62
   256
  9
$CELTSCALE
 40
1.0
  9
$DISPSILH
 70
     0
  9
$DIMSCALE
 40
1.0
  9
$DIMASZ
 40
2.5
  9
$DIMEXO
 40
2.0
  9
$DIMDLI
 40
3.75
  9
$DIMRND
 40
0.0
  9
$DIMDLE
 40
0.0
  9
$DIMEXE
 40
0.5
  9
$DIMTP
 40
0.0
  9
$DIMTM
 40
0.0
  9
$DIMTXT
 40
3.0
  9
$DIMCEN
 40
2.5
  9
$DIMTSZ
 40
0.0
  9
$DIMTOL
 70
     0
  9
$DIMLIM
 70
     0
  9
$DIMTIH
 70
     0
  9
$DIMTOH
 70
     0
  9
$DIMSE1
 70
     0
  9
$DIMSE2
 70
     0
  9
$DIMTAD
 70
     1
  9
$DIMZIN
 70
     8
  9
$DIMBLK
  1

  9
$DIMASO
 70
     1
  9
$DIMSHO
 70
     1
  9
$DIMPOST
  1

  9
$DIMAPOST
  1

  9
$DIMALT
 70
     0
  9
$DIMALTD
 70
     3
  9
$DIMALTF
 40
0.03937007874016
  9
$DIMLFAC
 40
1.0
  9
$DIMTOFL
 70
     1
  9
$DIMTVP
 40
0.0
  9
$DIMTIX
 70
     0
  9
$DIMSOXD
 70
     0
  9
$DIMSAH
 70
     0
  9
$DIMBLK1
  1

  9
$DIMBLK2
  1

  9
$DIMSTYLE
  2
ISO-25
  9
$DIMCLRD
 70
     0
  9
$DIMCLRE
 70
     0
  9
$DIMCLRT
 70
     0
  9
$DIMTFAC
 40
1.0
  9
$DIMGAP
 40
0.625
  9
$DIMJUST
 70
     0
  9
$DIMSD1
 70
     0
  9
$DIMSD2
 70
     0
  9
$DIMTOLJ
 70
     0
  9
$DIMTZIN
 70
     8
  9
$DIMALTZ
 70
     0
  9
$DIMALTTZ
 70
     0
  9
$DIMUPT
 70
     0
  9
$DIMDEC
 70
     2
  9
$DIMTDEC
 70
     2
  9
$DIMALTU
 70
     2
  9
$DIMALTTD
 70
     3
  9
$DIMTXSTY
  7
Standard
  9
$DIMAUNIT
 70
     0
  9
$DIMADEC
 70
     0
  9
$DIMALTRND
 40
0.0
  9
$DIMAZIN
 70
     0
  9
$DIMDSEP
 70
    46
  9
$DIMATFIT
 70
     3
  9
$DIMFRAC
 70
     0
  9
$DIMLDRBLK
  1

  9
$DIMLUNIT
 70
     2
  9
$DIMLWD
 70
    -2
  9
$DIMLWE
 70
    -2
  9
$DIMTMOVE
 70
     0
  9
$DIMFXL
 40
1.0
  9
$DIMFXLON
 70
     0
  9
$DIMJOGANG
 40
0.7853981633974483
  9
$DIMTFILL
 70
     0
  9
$DIMTFILLCLR
 70
     0
  9
$DIMARCSYM
 70
     0
  9
$DIMLTYPE
  6

  9
$DIMLTEX1
  6

  9
$DIMLTEX2
  6

  9
$DIMTXTDIRECTION
 70
     0
  9
$LUNITS
 70
     2
  9
$LUPREC
 70
     4
  9
$SKETCHINC
 40
1.0
  9
$FILLETRAD
 40
3.0
  9
$AUNITS
 70
     0
  9
$AUPREC
 70
     0
  9
$MENU
  1
.
  9
$ELEVATION
 40
0.0
  9
$PELEVATION
 40
0.0
  9
$THICKNESS
 40
0.0
  9
$LIMCHECK
 70
     0
  9
$CHAMFERA
 40
0.0
  9
$CHAMFERB
 40
0.0
  9
$CHAMFERC
 40
0.0
  9
$CHAMFERD
 40
0.0
  9
$SKPOLY
 70
     0
  9
$TDCREATE
 40
2452936.788310359
  9
$TDUCREATE
 40
2452936.413310359
  9
$TDUPDATE
 40
2456738.992809942
  9
$TDUUPDATE
 40
2456738.617809942
  9
$TDINDWG
 40
0.5955145023
  9
$TDUSRTIMER
 40
2456738.616003102
  9
$USRTIMER
 70
     1
  9
$ANGBASE
 50
0.0
  9
$ANGDIR
 70
     0
  9
$PDMODE
 70
     0
  9
$PDSIZE
 40
0.0
  9
$PLINEWID
 40
0.0
  9
$SPLFRAME
 70
     0
  9
$SPLINETYPE
 70
     6
  9
$SPLINESEGS
 70
     8
  9
$HANDSEED
  5
1825
  9
$SURFTAB1
 70
     6
  9
$SURFTAB2
 70
     6
  9
$SURFTYPE
 70
     6
  9
$SURFU
 70
     6
  9
$SURFV
 70
     6
  9
$UCSBASE
  2

  9
$UCSNAME
  2

  9
$UCSORG
 10
0.0
 20
0.0
 30
0.0
  9
$UCSXDIR
 10
1.0
 20
0.0
 30
0.0
  9
$UCSYDIR
 10
0.0
 20
1.0
 30
0.0
  9
$UCSORTHOREF
  2

  9
$UCSORTHOVIEW
 70
     0
  9
$UCSORGTOP
 10
0.0
 20
0.0
 30
0.0
  9
$UCSORGBOTTOM
 10
0.0
 20
0.0
 30
0.0
  9
$UCSORGLEFT
 10
0.0
 20
0.0
 30
0.0
  9
$UCSORGRIGHT
 10
0.0
 20
0.0
 30
0.0
  9
$UCSORGFRONT
 10
0.0
 20
0.0
 30
0.0
  9
$UCSORGBACK
 10
0.0
 20
0.0
 30
0.0
  9
$PUCSBASE
  2

  9
$PUCSNAME
  2

  9
$PUCSORG
 10
0.0
 20
0.0
 30
0.0
  9
$PUCSXDIR
 10
1.0
 20
0.0
 30
0.0
  9
$PUCSYDIR
 10
0.0
 20
1.0
 30
0.0
  9
$PUCSORTHOREF
  2

  9
$PUCSORTHOVIEW
 70
     0
  9
$PUCSORGTOP
 10
0.0
 20
0.0
 30
0.0
  9
$PUCSORGBOTTOM
 10
0.0
 20
0.0
 30
0.0
  9
$PUCSORGLEFT
 10
0.0
 20
0.0
 30
0.0
  9
$PUCSORGRIGHT
 10
0.0
 20
0.0
 30
0.0
  9
$PUCSORGFRONT
 10
0.0
 20
0.0
 30
0.0
  9
$PUCSORGBACK
 10
0.0
 20
0.0
 30
0.0
  9
$USERI1
 70
     0
  9
$USERI2
 70
     0
  9
$USERI3
 70
     0
  9
$USERI4
 70
     0
  9
$USERI5
 70
     0
  9
$USERR1
 40
0.0
  9
$USERR2
 40
0.0
  9
$USERR3
 40
0.0
  9
$USERR4
 40
0.0
  9
$USERR5
 40
0.0
  9
$WORLDVIEW
 70
     1
  9
$SHADEDGE
 70
     3
  9
$SHADEDIF
 70
    70
  9
$TILEMODE
 70
     1
  9
$MAXACTVP
 70
    64
  9
$PINSBASE
 10
0.0
 20
0.0
 30
0.0
  9
$PLIMCHECK
 70
     0
  9
$PEXTMIN
 10
-5.525240261438626
 20
-6.247834374882018
 30
-0.0015258207003583
  9
$PEXTMAX
 10
291.4952842091178
 20
203.7737893840998
 30
0.0000000349246037
  9
$PLIMMIN
 10
0.0
 20
0.0
  9
$PLIMMAX
 10
0.0
 20
0.0
  9
$UNITMODE
 70
     0
  9
$VISRETAIN
 70
     1
  9
$PLINEGEN
 70
     0
  9
$PSLTSCALE
 70
     0
  9
$TREEDEPTH
 70
  3020
  9
$CMLSTYLE
  2
Standard
  9
$CMLJUST
 70
     0
  9
$CMLSCALE
 40
20.0
  9
$PROXYGRAPHICS
 70
     1
  9
$MEASUREMENT
 70
     1
  9
$CELWEIGHT
370
    -1
  9
$ENDCAPS
280
     0
  9
$JOINSTYLE
280
     0
  9
$LWDISPLAY
290
     0
  9
$INSUNITS
 70
     4
  9
$HYPERLINKBASE
  1

  9
$STYLESHEET
  1

  9
$XEDIT
290
     1
  9
$CEPSNTYPE
380
     0
  9
$PSTYLEMODE
290
     1
  9
$FINGERPRINTGUID
  2
{86E58535-AB5B-4AFE-AB1B-6758AAB7EA7D}
  9
$VERSIONGUID
  2
{7A4A5A27-155F-44E5-A832-E6A5DF8DD09C}
  9
$EXTNAMES
290
     1
  9
$PSVPSCALE
 40
0.0
  9
$OLESTARTUP
290
     0
  9
$SORTENTS
280
   127
  9
$INDEXCTL
280
     0
  9
$HIDETEXT
280
     1
  9
$XCLIPFRAME
280
     0
  9
$HALOGAP
280
     0
  9
$OBSCOLOR
 70
   257
  9
$OBSLTYPE
280
     0
  9
$INTERSECTIONDISPLAY
280
     0
  9
$INTERSECTIONCOLOR
 70
   257
  9
$DIMASSOC
280
     2
  9
$PROJECTNAME
  1

  9
$CAMERADISPLAY
290
     0
  9
$LENSLENGTH
 40
50.0
  9
$CAMERAHEIGHT
 40
0.0
  9
$STEPSPERSEC
 40
2.0
  9
$STEPSIZE
 40
6.0
  9
$3DDWFPREC
 40
2.0
  9
$PSOLWIDTH
 40
0.25
  9
$PSOLHEIGHT
 40
4.0
  9
$LOFTANG1
 40
1.570796326794897
  9
$LOFTANG2
 40
1.570796326794897
  9
$LOFTMAG1
 40
0.0
  9
$LOFTMAG2
 40
0.0
  9
$LOFTPARAM
 70
     7
  9
$LOFTNORMALS
280
     1
  9
$LATITUDE
 40
37.795
  9
$LONGITUDE
 40
-122.394
  9
$NORTHDIRECTION
 40
0.0
  9
$TIMEZONE
 70
 -8000
  9
$LIGHTGLYPHDISPLAY
280
     1
  9
$TILEMODELIGHTSYNCH
280
     1
  9
$SOLIDHIST
280
     1
  9
$SHOWHIST
280
     1
  9
$DWFFRAME
280
     2
  9
$DGNFRAME
280
     2
  9
$REALWORLDSCALE
290
     1
  9
$INTERFERECOLOR
 62
   256
  9
$CSHADOW
280
     0
  9
$SHADOWPLANELOCATION
 40
0.0
  0
ENDSEC
  0
SECTION
  2
CLASSES
  0
CLASS
  1
ACDBDICTIONARYWDFLT
  2
AcDbDictionaryWithDefault
  3
ObjectDBX Classes
 90
        0
 91
        7
280
     0
281
     0
  0
CLASS
  1
DIMASSOC
  2
AcDbDimAssoc
  3
"AcDbDimAssoc|Product Desc:     AcDim ARX App For Dimension|Company:          Autodesk, Inc.|WEB Address:      www.autodesk.com"
 90
        0
 91
        5
280
     0
281
     0
  0
CLASS
  1
DICTIONARYVAR
  2
AcDbDictionaryVar
  3
ObjectDBX Classes
 90
        0
 91
        5
280
     0
281
     0
  0
CLASS
  1
ACDBPLACEHOLDER
  2
AcDbPlaceHolder
  3
ObjectDBX Classes
 90
        0
 91
        1
280
     0
281
     0
  0
CLASS
  1
LAYOUT
  2
AcDbLayout
  3
ObjectDBX Classes
 90
        0
 91
        1
280
     0
281
     0
  0
CLASS
  1
VISUALSTYLE
  2
AcDbVisualStyle
  3
ObjectDBX Classes
 90
     4095
 91
        7
280
     0
281
     0
  0
CLASS
  1
SCALE
  2
AcDbScale
  3
ObjectDBX Classes
 90
     1153
 91
        7
280
     0
281
     0
  0
CLASS
  1
MATERIAL
  2
AcDbMaterial
  3
ObjectDBX Classes
 90
     1153
 91
        7
280
     0
281
     0
  0
CLASS
  1
TABLESTYLE
  2
AcDbTableStyle
  3
ObjectDBX Classes
 90
     4095
 91
        7
280
     0
281
     0
  0
CLASS
  1
SUN
  2
AcDbSun
  3
SCENEOE
 90
     1153
 91
        7
280
     0
281
     0
  0
CLASS
  1
RASTERVARIABLES
  2
AcDbRasterVariables
  3
ISM
 90
        0
 91
        7
280
     0
281
     0
  0
CLASS
  1
CELLSTYLEMAP
  2
AcDbCellStyleMap
  3
ObjectDBX Classes
 90
     1152
 91
        5
280
     0
281
     0
  0
ENDSEC
  0
SECTION
  2
TABLES
  0
TABLE
  2
VPORT
  5
8
330
0
100
AcDbSymbolTable
 70
     1
  0
VPORT
  5
178F
330
8
100
AcDbSymbolTableRecord
100
AcDbViewportTableRecord
  2
*Active
 70
     0
 10
0.0
 20
0.0
 11
1.0
 21
1.0
 12
204.5446643177841
 22
154.0579067425425
 13
0.0
 23
0.0
 14
10.0
 24
10.0
 15
10.0
 25
10.0
 16
0.0
 26
0.0
 36
1.0
 17
0.0
 27
0.0
 37
0.0
 40
202.8503876321601
 41
1.762376237623763
 42
50.0
 43
0.0
 44
0.0
 50
0.0
 51
0.0
 71
    16
 72
  1000
 73
     1
 74
     3
 75
     0
 76
     0
 77
     0
 78
     0
281
     0
 65
     1
110
0.0
120
0.0
130
0.0
111
1.0
121
0.0
131
0.0
112
0.0
122
1.0
132
0.0
 79
     0
146
0.0
348
17A8
 60
     3
 61
     5
292
     1
282
     1
141
0.0
142
0.0
 63
   256
361
17E6
  0
ENDTAB
  0
TABLE
  2
LTYPE
  5
5
330
0
100
AcDbSymbolTable
 70
     6
  0
LTYPE
  5
14
330
5
100
AcDbSymbolTableRecord
100
AcDbLinetypeTableRecord
  2
ByBlock
 70
     0
  3

 72
    65
 73
     0
 40
0.0
  0
LTYPE
  5
15
330
5
100
AcDbSymbolTableRecord
100
AcDbLinetypeTableRecord
  2
ByLayer
 70
     0
  3

 72
    65
 73
     0
 40
0.0
  0
LTYPE
  5
16
330
5
100
AcDbSymbolTableRecord
100
AcDbLinetypeTableRecord
  2
Continuous
 70
     0
  3
Solid line
 72
    65
 73
     0
 40
0.0
  0
LTYPE
  5
35
330
5
100
AcDbSymbolTableRecord
100
AcDbLinetypeTableRecord
  2
ACAD_ISO08W100
 70
     0
  3
ISO long-dash short-dash ____ __ ____ __ ____ _
 72
    65
 73
     4
 40
36.0
 49
24.0
 74
     0
 49
-3.0
 74
     0
 49
6.0
 74
     0
 49
-3.0
 74
     0
  0
LTYPE
  5
127
330
5
100
AcDbSymbolTableRecord
100
AcDbLinetypeTableRecord
  2
HIDDENX2
 70
     0
  3
Hidden (2x) ____ ____ ____ ____ ____ ____ ____
 72
    65
 73
     2
 40
19.05
 49
12.7
 74
     0
 49
-6.35
 74
     0
  0
LTYPE
  5
5EC
330
5
100
AcDbSymbolTableRecord
100
AcDbLinetypeTableRecord
  2
CENTER
 70
     0
  3
Center ____ _ ____ _ ____ _ ____ _ ____ _ ____
 72
    65
 73
     4
 40
50.8
 49
31.75
 74
     0
 49
-6.35
 74
     0
 49
6.35
 74
     0
 49
-6.35
 74
     0
  0
LTYPE
  5
5ED
330
5
100
AcDbSymbolTableRecord
100
AcDbLinetypeTableRecord
  2
ACAD_ISO02W100
 70
     0
  3
ISO dash __ __ __ __ __ __ __ __ __ __ __ __ __
 72
    65
 73
     2
 40
15.0
 49
12.0
 74
     0
 49
-3.0
 74
     0
  0
LTYPE
  5
605
330
5
100
AcDbSymbolTableRecord
100
AcDbLinetypeTableRecord
  2
DASHED
 70
     0
  3
Dashed __ __ __ __ __ __ __ __ __ __ __ __ __ _
 72
    65
 73
     2
 40
19.05
 49
12.7
 74
     0
 49
-6.35
 74
     0
  0
ENDTAB
  0
TABLE
  2
LAYER
  5
2
102
{ACAD_XDICTIONARY
360
1546
102
}
330
0
100
AcDbSymbolTable
 70
    11
  0
LAYER
  5
10
330
2
100
AcDbSymbolTableRecord
100
AcDbLayerTableRecord
  2
0
 70
     0
 62
     7
  6
Continuous
370
    -3
390
F
347
17E0
348
0
  0
LAYER
  5
2E
330
2
100
AcDbSymbolTableRecord
100
AcDbLayerTableRecord
  2
枠
 70
     0
 62
     1
  6
Continuous
370
    30
390
F
347
17E0
348
0
  0
LAYER
  5
2F
330
2
100
AcDbSymbolTableRecord
100
AcDbLayerTableRecord
  2
文字
 70
     0
 62
     7
  6
Continuous
370
    25
390
F
347
17E0
348
0
  0
LAYER
  5
36
330
2
100
AcDbSymbolTableRecord
100
AcDbLayerTableRecord
  2
中心線
 70
     0
 62
     7
  6
CENTER
370
    15
390
F
347
17E0
348
0
  0
LAYER
  5
52
330
2
100
AcDbSymbolTableRecord
100
AcDbLayerTableRecord
  2
隠れ線
 70
     0
 62
     2
  6
Continuous
290
     0
370
    -3
390
F
347
17E0
348
0
  0
LAYER
  5
128
330
2
100
AcDbSymbolTableRecord
100
AcDbLayerTableRecord
  2
実線
 70
     0
 62
     7
  6
Continuous
370
    25
390
F
347
17E0
348
0
  0
LAYER
  5
129
330
2
100
AcDbSymbolTableRecord
100
AcDbLayerTableRecord
  2
破線
 70
     0
 62
     7
  6
DASHED
370
    15
390
F
347
17E0
348
0
  0
LAYER
  5
778
330
2
100
AcDbSymbolTableRecord
100
AcDbLayerTableRecord
  2
Defpoints
 70
     0
 62
     7
  6
Continuous
290
     0
370
    -3
390
F
347
17E0
348
0
  0
LAYER
  5
1571
330
2
100
AcDbSymbolTableRecord
100
AcDbLayerTableRecord
  2
GR1-1
 70
     0
 62
     3
  6
Continuous
370
    -3
390
F
347
17E0
348
0
  0
LAYER
  5
1572
330
2
100
AcDbSymbolTableRecord
100
AcDbLayerTableRecord
  2
細線
 70
     0
 62
     7
  6
Continuous
370
     9
390
F
347
17E0
348
0
  0
LAYER
  5
1573
330
2
100
AcDbSymbolTableRecord
100
AcDbLayerTableRecord
  2
文字・寸法線
 70
     0
 62
     7
  6
Continuous
370
    13
390
F
347
17E0
348
0
  0
ENDTAB
  0
TABLE
  2
STYLE
  5
3
330
0
100
AcDbSymbolTable
 70
     2
  0
STYLE
  5
11
330
3
100
AcDbSymbolTableRecord
100
AcDbTextStyleTableRecord
  2
Standard
 70
     0
 40
0.0
 41
1.0
 50
0.0
 71
     0
 42
3.0
  3
txt.shx
  4
bigfont.shx
  0
STYLE
  5
34
330
3
100
AcDbSymbolTableRecord
100
AcDbTextStyleTableRecord
  2

 70
     1
 40
0.0
 41
1.0
 50
0.0
 71
     0
 42
2.5
  3
ltypeshp.shx
  4

  0
ENDTAB
  0
TABLE
  2
VIEW
  5
6
330
0
100
AcDbSymbolTable
 70
     0
  0
ENDTAB
  0
TABLE
  2
UCS
  5
7
330
0
100
AcDbSymbolTable
 70
     0
  0
ENDTAB
  0
TABLE
  2
APPID
  5
9
330
0
100
AcDbSymbolTable
 70
     1
  0
APPID
  5
12
330
9
100
AcDbSymbolTableRecord
100
AcDbRegAppTableRecord
  2
ACAD
 70
     0
  0
ENDTAB
  0
TABLE
  2
DIMSTYLE
  5
A
330
0
100
AcDbSymbolTable
 70
     1
100
AcDbDimStyleTable
  0
DIMSTYLE
105
29
102
{ACAD_REACTORS
330
D0E
330
D11
330
D14
330
D18
330
D1B
330
D22
330
D25
330
1405
330
140B
330
1419
330
1420
330
1508
330
EF2
102
}
330
A
100
AcDbSymbolTableRecord
100
AcDbDimStyleTableRecord
  2
ISO-25
 70
     0
 41
2.5
 42
2.0
 43
3.75
 44
0.5
 73
     0
 74
     0
 77
     1
 78
     8
140
3.0
141
2.5
143
0.03937007874016
147
0.625
171
     3
172
     1
178
     0
271
     2
272
     2
274
     3
283
     0
284
     8
340
11
  0
ENDTAB
  0
TABLE
  2
BLOCK_RECORD
  5
1
330
0
100
AcDbSymbolTable
 70
    15
  0
BLOCK_RECORD
  5
21
330
1
100
AcDbSymbolTableRecord
100
AcDbBlockTableRecord
  2
*Model_Space
340
24
 70
     0
280
     1
281
     0
  0
BLOCK_RECORD
  5
17E7
330
1
100
AcDbSymbolTableRecord
100
AcDbBlockTableRecord
  2
*Paper_Space
340
17E8
 70
     0
280
     1
281
     0
  0
BLOCK_RECORD
  5
670
330
1
100
AcDbSymbolTableRecord
100
AcDbBlockTableRecord
  2
図面枠A-4無字dwg
340
0
 70
     4
280
     1
281
     0
1001
ACAD
1000
DesignCenter Data
1002
{
1070
     1
1070
     4
1002
}
  0
BLOCK_RECORD
  5
D67
330
1
100
AcDbSymbolTableRecord
100
AcDbBlockTableRecord
  2
*D1
340
0
 70
     0
280
     1
281
     0
  0
BLOCK_RECORD
  5
D73
330
1
100
AcDbSymbolTableRecord
100
AcDbBlockTableRecord
  2
*D2
340
0
 70
     0
280
     1
281
     0
  0
BLOCK_RECORD
  5
D7F
330
1
100
AcDbSymbolTableRecord
100
AcDbBlockTableRecord
  2
*D3
340
0
 70
     0
280
     1
281
     0
  0
BLOCK_RECORD
  5
D8B
330
1
100
AcDbSymbolTableRecord
100
AcDbBlockTableRecord
  2
*D4
340
0
 70
     0
280
     1
281
     0
  0
BLOCK_RECORD
  5
D97
330
1
100
AcDbSymbolTableRecord
100
AcDbBlockTableRecord
  2
*D5
340
0
 70
     0
280
     1
281
     0
  0
BLOCK_RECORD
  5
DA3
330
1
100
AcDbSymbolTableRecord
100
AcDbBlockTableRecord
  2
*D6
340
0
 70
     0
280
     1
281
     0
  0
BLOCK_RECORD
  5
DB1
330
1
100
AcDbSymbolTableRecord
100
AcDbBlockTableRecord
  2
*D7
340
0
 70
     0
280
     1
281
     0
  0
BLOCK_RECORD
  5
1481
330
1
100
AcDbSymbolTableRecord
100
AcDbBlockTableRecord
  2
*D8
340
0
 70
     0
280
     1
281
     0
  0
BLOCK_RECORD
  5
148D
330
1
100
AcDbSymbolTableRecord
100
AcDbBlockTableRecord
  2
*D9
340
0
 70
     0
280
     1
281
     0
  0
BLOCK_RECORD
  5
1499
330
1
100
AcDbSymbolTableRecord
100
AcDbBlockTableRecord
  2
*D10
340
0
 70
     0
280
     1
281
     0
  0
BLOCK_RECORD
  5
14A5
330
1
100
AcDbSymbolTableRecord
100
AcDbBlockTableRecord
  2
*D11
340
0
 70
     0
280
     1
281
     0
  0
BLOCK_RECORD
  5
1509
330
1
100
AcDbSymbolTableRecord
100
AcDbBlockTableRecord
  2
*D12
340
0
 70
     0
280
     1
281
     0
  0
BLOCK_RECORD
  5
153B
330
1
100
AcDbSymbolTableRecord
100
AcDbBlockTableRecord
  2
A$C44547450
340
0
 70
     0
280
     1
281
     0
  0
BLOCK_RECORD
  5
166C
330
1
100
AcDbSymbolTableRecord
100
AcDbBlockTableRecord
  2
*D14
340
0
 70
     0
280
     1
281
     0
  0
ENDTAB
  0
ENDSEC
  0
SECTION
  2
BLOCKS
  0
BLOCK
  5
22
330
21
100
AcDbEntity
  8
0
100
AcDbBlockBegin
  2
*Model_Space
 70
     0
 10
0.0
 20
0.0
 30
0.0
  3
*Model_Space
  1
*Model_Space
  0
ENDBLK
  5
23
330
21
100
AcDbEntity
  8
0
100
AcDbBlockEnd
  0
BLOCK
  5
17E9
330
17E7
100
AcDbEntity
 67
     1
  8
0
100
AcDbBlockBegin
  2
*Paper_Space
 70
     0
 10
0.0
 20
0.0
 30
0.0
  3
*Paper_Space
  1
*Paper_Space
  0
ENDBLK
  5
17EA
330
17E7
100
AcDbEntity
 67
     1
  8
0
100
AcDbBlockEnd
  0
BLOCK
  5
69D
330
670
100
AcDbEntity
  8
0
370
    30
100
AcDbBlockBegin
  2
図面枠A-4無字dwg
 70
     0
 10
0.0
 20
0.0
 30
0.0
  3
図面枠A-4無字dwg
  1
図面枠A-4無字dwg
  0
LINE
  5
671
330
670
100
AcDbEntity
  8
枠
100
AcDbLine
 10
10.0
 20
10.0
 30
0.0
 11
287.0
 21
10.0
 31
0.0
  0
LINE
  5
672
330
670
100
AcDbEntity
  8
枠
100
AcDbLine
 10
287.0
 20
10.0
 30
0.0
 11
287.0
 21
200.0
 31
0.0
  0
LINE
  5
673
330
670
100
AcDbEntity
  8
枠
100
AcDbLine
 10
237.5
 20
10.0
 30
0.0
 11
237.5
 21
33.10000000000001
 31
0.0
  0
LINE
  5
674
330
670
100
AcDbEntity
  8
枠
100
AcDbLine
 10
212.2
 20
10.0
 30
0.0
 11
212.2
 21
52.90000000000001
 31
0.0
  0
LINE
  5
675
330
670
100
AcDbEntity
  8
枠
100
AcDbLine
 10
138.5
 20
10.0
 30
0.0
 11
138.5
 21
52.90000000000001
 31
0.0
  0
LINE
  5
676
330
670
100
AcDbEntity
  8
枠
100
AcDbLine
 10
138.5
 20
18.8
 30
0.0
 11
287.0
 21
18.8
 31
0.0
  0
LINE
  5
677
330
670
100
AcDbEntity
  8
枠
100
AcDbLine
 10
138.5
 20
25.40000000000001
 30
0.0
 11
287.0
 21
25.40000000000001
 31
0.0
  0
LINE
  5
678
330
670
100
AcDbEntity
  8
枠
100
AcDbLine
 10
138.5
 20
39.7
 30
0.0
 11
287.0
 21
39.7
 31
0.0
  0
LINE
  5
679
330
670
100
AcDbEntity
  8
枠
100
AcDbLine
 10
138.5
 20
40.8
 30
0.0
 11
212.1999999999999
 21
40.8
 31
0.0
  0
LINE
  5
67A
330
670
100
AcDbEntity
  8
枠
100
AcDbLine
 10
138.5
 20
46.3
 30
0.0
 11
287.0
 21
46.3
 31
0.0
  0
LINE
  5
67B
330
670
100
AcDbEntity
  8
枠
100
AcDbLine
 10
138.5
 20
52.90000000000001
 30
0.0
 11
287.0
 21
52.90000000000001
 31
0.0
  0
LINE
  5
67C
330
670
100
AcDbEntity
  8
枠
100
AcDbLine
 10
163.25
 20
18.8
 30
0.0
 11
163.25
 21
39.7
 31
0.0
  0
LINE
  5
67D
330
670
100
AcDbEntity
  8
枠
100
AcDbLine
 10
188.0
 20
25.40000000000001
 30
0.0
 11
188.0
 21
39.7
 31
0.0
  0
LINE
  5
67E
330
670
100
AcDbEntity
  8
枠
100
AcDbLine
 10
188.0
 20
40.8
 30
0.0
 11
188.0
 21
46.3
 31
0.0
  0
LINE
  5
67F
330
670
100
AcDbEntity
  8
枠
100
AcDbLine
 10
163.25
 20
40.8
 30
0.0
 11
163.25
 21
52.90000000000001
 31
0.0
  0
LINE
  5
680
330
670
100
AcDbEntity
  8
枠
100
AcDbLine
 10
212.1999999999999
 20
32.0
 30
0.0
 11
287.0
 21
32.0
 31
0.0
  0
LINE
  5
681
330
670
100
AcDbEntity
  8
枠
100
AcDbLine
 10
212.1999999999999
 20
33.1
 30
0.0
 11
287.0
 21
33.1
 31
0.0
  0
LINE
  5
682
330
670
100
AcDbEntity
  8
枠
100
AcDbLine
 10
237.5
 20
39.7
 30
0.0
 11
237.5
 21
52.90000000000001
 31
0.0
  0
LINE
  5
683
330
670
100
AcDbEntity
  8
枠
100
AcDbLine
 10
262.8
 20
18.8
 30
0.0
 11
262.8
 21
39.7
 31
0.0
  0
MTEXT
  5
684
330
670
100
AcDbEntity
  8
枠
100
AcDbMText
 10
145.8717013484776
 20
50.9248171540208
 30
0.0
 40
2.75
 41
24.75
 46
0.0
 71
     1
 72
     5
  1
品　名
 73
     1
 44
1.0
  0
MTEXT
  5
685
330
670
100
AcDbEntity
  8
枠
100
AcDbMText
 10
219.5717013484775
 20
50.9248171540208
 30
0.0
 40
2.75
 41
24.75
 46
0.0
 71
     1
 72
     5
  1
品　番
 73
     1
 44
1.0
  0
MTEXT
  5
686
330
670
100
AcDbEntity
  8
枠
100
AcDbMText
 10
219.5717013484775
 20
44.3248171540208
 30
0.0
 40
2.75
 41
24.75
 46
0.0
 71
     1
 72
     5
  1
サイズ
 73
     1
 44
1.0
  0
MTEXT
  5
687
330
670
100
AcDbEntity
  8
枠
100
AcDbMText
 10
145.9529263402256
 20
44.77900427738543
 30
0.0
 40
2.75
 41
13.71479298395914
 46
0.0
 71
     1
 72
     5
  1
承　認
 73
     1
 44
1.0
  0
MTEXT
  5
688
330
670
100
AcDbEntity
  8
枠
100
AcDbMText
 10
170.7029263402256
 20
44.77900427738543
 30
0.0
 40
2.75
 41
13.71479298395914
 46
0.0
 71
     1
 72
     5
  1
検　図
 73
     1
 44
1.0
  0
MTEXT
  5
689
330
670
100
AcDbEntity
  8
枠
100
AcDbMText
 10
195.4529263402256
 20
44.77900427738543
 30
0.0
 40
2.75
 41
13.71479298395914
 46
0.0
 71
     1
 72
     5
  1
製　図
 73
     1
 44
1.0
  0
MTEXT
  5
68A
330
670
100
AcDbEntity
  8
枠
100
AcDbMText
 10
145.8717013484776
 20
23.4248171540208
 30
0.0
 40
2.75
 41
24.75
 46
0.0
 71
     1
 72
     5
  1
日　付
 73
     1
 44
1.0
  0
MTEXT
  5
68B
330
670
100
AcDbEntity
  8
枠
100
AcDbMText
 10
219.0357544350354
 20
14.66833848936324
 30
0.0
 40
2.75
 41
24.75
 46
0.0
 71
     1
 72
     5
  1
製品単重
 73
     1
 44
1.0
  0
MTEXT
  5
68C
330
670
100
AcDbEntity
  8
枠
100
AcDbMText
 10
232.9746224249311
 20
37.57180438935425
 30
0.0
 40
2.75
 41
12.98637275453505
 46
0.0
 71
     1
 72
     5
  1
材　質
 73
     1
 44
1.0
  0
MTEXT
  5
68D
330
670
100
AcDbEntity
  8
枠
100
AcDbMText
 10
266.9686959403862
 20
37.69587339271826
 30
0.0
 40
2.75
 41
19.22203116086617
 46
0.0
 71
     1
 72
     5
  1
表面処理
 73
     1
 44
1.0
  0
MTEXT
  5
68E
330
670
100
AcDbEntity
  8
枠
100
AcDbMText
 10
147.2890405381478
 20
15.17428611351522
 30
0.0
 40
3.3
 41
172.2729598878279
 46
0.0
 71
     1
 72
     5
  1
サン・ファスナー部品株式会社
 73
     1
 44
1.0
  0
LINE
  5
68F
330
670
100
AcDbEntity
  8
枠
100
AcDbLine
 10
10.0
 20
10.0
 30
0.0
 11
10.0
 21
200.0
 31
0.0
  0
LINE
  5
690
330
670
100
AcDbEntity
  8
枠
100
AcDbLine
 10
10.0
 20
200.0
 30
0.0
 11
287.0
 21
200.0
 31
0.0
  0
LINE
  5
691
330
670
100
AcDbEntity
  8
枠
100
AcDbLine
 10
10.0
 20
210.0
 30
0.0
 11
287.0
 21
210.0
 31
0.0
  0
LINE
  5
692
330
670
100
AcDbEntity
  8
枠
100
AcDbLine
 10
297.0
 20
10.0
 30
0.0
 11
297.0
 21
200.0
 31
0.0
  0
LINE
  5
693
330
670
100
AcDbEntity
  8
枠
100
AcDbLine
 10
10.0
 20
0.0
 30
0.0
 11
287.0
 21
0.0
 31
0.0
  0
LINE
  5
694
330
670
100
AcDbEntity
  8
枠
100
AcDbLine
 10
0.0
 20
10.0
 30
0.0
 11
0.0
 21
200.0
 31
0.0
  0
LINE
  5
695
330
670
100
AcDbEntity
  8
枠
370
    30
100
AcDbLine
 10
0.0
 20
200.0
 30
0.0
 11
0.0
 21
210.0
 31
0.0
  0
LINE
  5
696
330
670
100
AcDbEntity
  8
枠
370
    30
100
AcDbLine
 10
10.0
 20
210.0
 30
0.0
 11
0.0
 21
210.0
 31
0.0
  0
LINE
  5
697
330
670
100
AcDbEntity
  8
枠
370
    30
100
AcDbLine
 10
287.0
 20
210.0
 30
0.0
 11
297.0000000000001
 21
210.0
 31
0.0
  0
LINE
  5
698
330
670
100
AcDbEntity
  8
枠
370
    30
100
AcDbLine
 10
297.0
 20
200.0
 30
0.0
 11
297.0000000000001
 21
210.0
 31
0.0
  0
LINE
  5
699
330
670
100
AcDbEntity
  8
枠
370
    30
100
AcDbLine
 10
297.0
 20
10.0
 30
0.0
 11
297.0
 21
0.0
 31
0.0
  0
LINE
  5
69A
330
670
100
AcDbEntity
  8
枠
370
    30
100
AcDbLine
 10
287.0
 20
0.0
 30
0.0
 11
297.0
 21
0.0
 31
0.0
  0
LINE
  5
69B
330
670
100
AcDbEntity
  8
枠
370
    30
100
AcDbLine
 10
10.0
 20
0.0
 30
0.0
 11
0.0
 21
0.0
 31
0.0
  0
LINE
  5
69C
330
670
100
AcDbEntity
  8
枠
370
    30
100
AcDbLine
 10
0.0
 20
10.0
 30
0.0
 11
0.0
 21
0.0
 31
0.0
  0
ENDBLK
  5
69E
330
670
100
AcDbEntity
  8
0
370
    30
100
AcDbBlockEnd
  0
BLOCK
  5
D71
330
D67
100
AcDbEntity
  8
0
370
    15
100
AcDbBlockBegin
  2
*D1
 70
     1
 10
0.0
 20
0.0
 30
0.0
  3
*D1
  1
*D1
  0
LINE
  5
176A
330
D67
100
AcDbEntity
  8
文字・寸法線
 62
     0
370
    -2
100
AcDbLine
 10
237.9636386541117
 20
135.7611956143528
 30
0.0
 11
237.9636386541117
 21
153.0860687947466
 31
0.0
  0
LINE
  5
176B
330
D67
100
AcDbEntity
  8
文字・寸法線
 62
     0
370
    -2
100
AcDbLine
 10
222.9636386541117
 20
105.1361956143528
 30
0.0
 11
222.9636386541117
 21
153.0860687947466
 31
0.0
  0
LINE
  5
176C
330
D67
100
AcDbEntity
  8
文字・寸法線
 62
     0
370
    -2
100
AcDbLine
 10
235.4636386541117
 20
152.5860687947466
 30
0.0
 11
225.4636386541117
 21
152.5860687947466
 31
0.0
  0
SOLID
  5
176D
330
D67
100
AcDbEntity
  8
文字・寸法線
 62
     0
100
AcDbTrace
 10
235.4636386541117
 20
152.16940212808
 30
0.0
 11
235.4636386541117
 21
153.0027354614133
 31
0.0
 12
237.9636386541117
 22
152.5860687947466
 32
0.0
 13
237.9636386541117
 23
152.5860687947466
 33
0.0
  0
SOLID
  5
176E
330
D67
100
AcDbEntity
  8
文字・寸法線
 62
     0
100
AcDbTrace
 10
225.4636386541117
 20
153.0027354614133
 30
0.0
 11
225.4636386541117
 21
152.16940212808
 31
0.0
 12
222.9636386541117
 22
152.5860687947466
 32
0.0
 13
222.9636386541117
 23
152.5860687947466
 33
0.0
  0
MTEXT
  5
176F
330
D67
100
AcDbEntity
  8
文字・寸法線
 62
     0
100
AcDbMText
 10
230.4636386541117
 20
154.7110687947466
 30
0.0
 40
3.0
 41
0.0
 46
0.0
 71
     5
 72
     1
  1
15
 73
     1
 44
1.0
  0
POINT
  5
1770
330
D67
100
AcDbEntity
  8
Defpoints
 62
     0
100
AcDbPoint
 10
237.9636386541117
 20
133.7611956143528
 30
0.0
  0
POINT
  5
1771
330
D67
100
AcDbEntity
  8
Defpoints
 62
     0
100
AcDbPoint
 10
222.9636386541117
 20
103.1361956143528
 30
0.0
  0
POINT
  5
1772
330
D67
100
AcDbEntity
  8
Defpoints
 62
     0
100
AcDbPoint
 10
222.9636386541117
 20
152.5860687947466
 30
0.0
  0
ENDBLK
  5
D72
330
D67
100
AcDbEntity
  8
0
370
    15
100
AcDbBlockEnd
  0
BLOCK
  5
D7D
330
D73
100
AcDbEntity
  8
0
370
    15
100
AcDbBlockBegin
  2
*D2
 70
     1
 10
0.0
 20
0.0
 30
0.0
  3
*D2
  1
*D2
  0
LINE
  5
1761
330
D73
100
AcDbEntity
  8
文字・寸法線
 62
     0
370
    -2
100
AcDbLine
 10
307.9636386541117
 20
146.5316347210259
 30
0.0
 11
307.9636386541117
 21
153.0860687947466
 31
0.0
  0
LINE
  5
1762
330
D73
100
AcDbEntity
  8
文字・寸法線
 62
     0
370
    -2
100
AcDbLine
 10
237.9636386541117
 20
135.1361956143528
 30
0.0
 11
237.9636386541117
 21
153.0860687947466
 31
0.0
  0
LINE
  5
1763
330
D73
100
AcDbEntity
  8
文字・寸法線
 62
     0
370
    -2
100
AcDbLine
 10
305.4636386541117
 20
152.5860687947466
 30
0.0
 11
240.4636386541117
 21
152.5860687947466
 31
0.0
  0
SOLID
  5
1764
330
D73
100
AcDbEntity
  8
文字・寸法線
 62
     0
100
AcDbTrace
 10
305.4636386541117
 20
152.16940212808
 30
0.0
 11
305.4636386541117
 21
153.0027354614133
 31
0.0
 12
307.9636386541117
 22
152.5860687947466
 32
0.0
 13
307.9636386541117
 23
152.5860687947466
 33
0.0
  0
SOLID
  5
1765
330
D73
100
AcDbEntity
  8
文字・寸法線
 62
     0
100
AcDbTrace
 10
240.4636386541117
 20
153.0027354614133
 30
0.0
 11
240.4636386541117
 21
152.16940212808
 31
0.0
 12
237.9636386541117
 22
152.5860687947466
 32
0.0
 13
237.9636386541117
 23
152.5860687947466
 33
0.0
  0
MTEXT
  5
1766
330
D73
100
AcDbEntity
  8
文字・寸法線
 62
     0
100
AcDbMText
 10
272.9636386541117
 20
154.7110687947466
 30
0.0
 40
3.0
 41
0.0
 46
0.0
 71
     5
 72
     1
  1
70
 73
     1
 44
1.0
  0
POINT
  5
1767
330
D73
100
AcDbEntity
  8
Defpoints
 62
     0
100
AcDbPoint
 10
307.9636386541117
 20
144.5316347210259
 30
0.0
  0
POINT
  5
1768
330
D73
100
AcDbEntity
  8
Defpoints
 62
     0
100
AcDbPoint
 10
237.9636386541117
 20
133.1361956143528
 30
0.0
  0
POINT
  5
1769
330
D73
100
AcDbEntity
  8
Defpoints
 62
     0
100
AcDbPoint
 10
237.9636386541117
 20
152.5860687947466
 30
0.0
  0
ENDBLK
  5
D7E
330
D73
100
AcDbEntity
  8
0
370
    15
100
AcDbBlockEnd
  0
BLOCK
  5
D89
330
D7F
100
AcDbEntity
  8
0
370
    15
100
AcDbBlockBegin
  2
*D3
 70
     1
 10
0.0
 20
0.0
 30
0.0
  3
*D3
  1
*D3
  0
LINE
  5
1758
330
D7F
100
AcDbEntity
  8
文字・寸法線
 62
     0
370
    -2
100
AcDbLine
 10
342.9636386541117
 20
105.1361956143528
 30
0.0
 11
342.9636386541117
 21
153.0860687947466
 31
0.0
  0
LINE
  5
1759
330
D7F
100
AcDbEntity
  8
文字・寸法線
 62
     0
370
    -2
100
AcDbLine
 10
307.9636386541117
 20
145.9066347210259
 30
0.0
 11
307.9636386541117
 21
153.0860687947466
 31
0.0
  0
LINE
  5
175A
330
D7F
100
AcDbEntity
  8
文字・寸法線
 62
     0
370
    -2
100
AcDbLine
 10
340.4636386541117
 20
152.5860687947466
 30
0.0
 11
310.4636386541117
 21
152.5860687947466
 31
0.0
  0
SOLID
  5
175B
330
D7F
100
AcDbEntity
  8
文字・寸法線
 62
     0
100
AcDbTrace
 10
340.4636386541117
 20
152.16940212808
 30
0.0
 11
340.4636386541117
 21
153.0027354614133
 31
0.0
 12
342.9636386541117
 22
152.5860687947466
 32
0.0
 13
342.9636386541117
 23
152.5860687947466
 33
0.0
  0
SOLID
  5
175C
330
D7F
100
AcDbEntity
  8
文字・寸法線
 62
     0
100
AcDbTrace
 10
310.4636386541117
 20
153.0027354614133
 30
0.0
 11
310.4636386541117
 21
152.16940212808
 31
0.0
 12
307.9636386541117
 22
152.5860687947466
 32
0.0
 13
307.9636386541117
 23
152.5860687947466
 33
0.0
  0
MTEXT
  5
175D
330
D7F
100
AcDbEntity
  8
文字・寸法線
 62
     0
100
AcDbMText
 10
325.4636386541117
 20
154.7110687947466
 30
0.0
 40
3.0
 41
0.0
 46
0.0
 71
     5
 72
     1
  1
35
 73
     1
 44
1.0
  0
POINT
  5
175E
330
D7F
100
AcDbEntity
  8
Defpoints
 62
     0
100
AcDbPoint
 10
342.9636386541117
 20
103.1361956143528
 30
0.0
  0
POINT
  5
175F
330
D7F
100
AcDbEntity
  8
Defpoints
 62
     0
100
AcDbPoint
 10
307.9636386541117
 20
143.9066347210259
 30
0.0
  0
POINT
  5
1760
330
D7F
100
AcDbEntity
  8
Defpoints
 62
     0
100
AcDbPoint
 10
307.9636386541117
 20
152.5860687947466
 30
0.0
  0
ENDBLK
  5
D8A
330
D7F
100
AcDbEntity
  8
0
370
    15
100
AcDbBlockEnd
  0
BLOCK
  5
D95
330
D8B
100
AcDbEntity
  8
0
370
    15
100
AcDbBlockBegin
  2
*D4
 70
     1
 10
0.0
 20
0.0
 30
0.0
  3
*D4
  1
*D4
  0
LINE
  5
174F
330
D8B
100
AcDbEntity
  8
文字・寸法線
 62
     0
370
    -2
100
AcDbLine
 10
309.9636386541117
 20
138.1361956143528
 30
0.0
 11
370.1768024177838
 21
138.1361956143528
 31
0.0
  0
LINE
  5
1750
330
D8B
100
AcDbEntity
  8
文字・寸法線
 62
     0
370
    -2
100
AcDbLine
 10
309.9636386541117
 20
68.1361956143528
 30
0.0
 11
370.1768024177838
 21
68.1361956143528
 31
0.0
  0
LINE
  5
1751
330
D8B
100
AcDbEntity
  8
文字・寸法線
 62
     0
370
    -2
100
AcDbLine
 10
369.6768024177838
 20
135.6361956143528
 30
0.0
 11
369.6768024177838
 21
70.6361956143528
 31
0.0
  0
SOLID
  5
1752
330
D8B
100
AcDbEntity
  8
文字・寸法線
 62
     0
100
AcDbTrace
 10
370.0934690844505
 20
135.6361956143528
 30
0.0
 11
369.2601357511172
 21
135.6361956143528
 31
0.0
 12
369.6768024177838
 22
138.1361956143528
 32
0.0
 13
369.6768024177838
 23
138.1361956143528
 33
0.0
  0
SOLID
  5
1753
330
D8B
100
AcDbEntity
  8
文字・寸法線
 62
     0
100
AcDbTrace
 10
369.2601357511172
 20
70.6361956143528
 30
0.0
 11
370.0934690844505
 21
70.6361956143528
 31
0.0
 12
369.6768024177838
 22
68.1361956143528
 32
0.0
 13
369.6768024177838
 23
68.1361956143528
 33
0.0
  0
MTEXT
  5
1754
330
D8B
100
AcDbEntity
  8
文字・寸法線
 62
     0
100
AcDbMText
 10
367.5518024177838
 20
103.1361956143528
 30
0.0
 40
3.0
 41
0.0
 46
0.0
 71
     5
 72
     1
  1
70
 11
0.0
 21
1.0
 31
0.0
 73
     1
 44
1.0
  0
POINT
  5
1755
330
D8B
100
AcDbEntity
  8
Defpoints
 62
     0
100
AcDbPoint
 10
307.9636386541117
 20
138.1361956143528
 30
0.0
  0
POINT
  5
1756
330
D8B
100
AcDbEntity
  8
Defpoints
 62
     0
100
AcDbPoint
 10
307.9636386541117
 20
68.1361956143528
 30
0.0
  0
POINT
  5
1757
330
D8B
100
AcDbEntity
  8
Defpoints
 62
     0
100
AcDbPoint
 10
369.6768024177838
 20
68.1361956143528
 30
0.0
  0
ENDBLK
  5
D96
330
D8B
100
AcDbEntity
  8
0
370
    15
100
AcDbBlockEnd
  0
BLOCK
  5
DA1
330
D97
100
AcDbEntity
  8
0
370
    15
100
AcDbBlockBegin
  2
*D5
 70
     1
 10
0.0
 20
0.0
 30
0.0
  3
*D5
  1
*D5
  0
LINE
  5
1746
330
D97
100
AcDbEntity
  8
文字・寸法線
 62
     0
370
    -2
100
AcDbLine
 10
309.9636386541117
 20
130.1361956143528
 30
0.0
 11
362.1783878538413
 21
130.1361956143528
 31
0.0
  0
LINE
  5
1747
330
D97
100
AcDbEntity
  8
文字・寸法線
 62
     0
370
    -2
100
AcDbLine
 10
309.9636386541117
 20
76.1361956143528
 30
0.0
 11
362.1783878538413
 21
76.1361956143528
 31
0.0
  0
LINE
  5
1748
330
D97
100
AcDbEntity
  8
文字・寸法線
 62
     0
370
    -2
100
AcDbLine
 10
361.6783878538413
 20
127.6361956143528
 30
0.0
 11
361.6783878538413
 21
78.6361956143528
 31
0.0
  0
SOLID
  5
1749
330
D97
100
AcDbEntity
  8
文字・寸法線
 62
     0
100
AcDbTrace
 10
362.095054520508
 20
127.6361956143528
 30
0.0
 11
361.2617211871747
 21
127.6361956143528
 31
0.0
 12
361.6783878538413
 22
130.1361956143528
 32
0.0
 13
361.6783878538413
 23
130.1361956143528
 33
0.0
  0
SOLID
  5
174A
330
D97
100
AcDbEntity
  8
文字・寸法線
 62
     0
100
AcDbTrace
 10
361.2617211871747
 20
78.6361956143528
 30
0.0
 11
362.095054520508
 21
78.6361956143528
 31
0.0
 12
361.6783878538413
 22
76.1361956143528
 32
0.0
 13
361.6783878538413
 23
76.1361956143528
 33
0.0
  0
MTEXT
  5
174B
330
D97
100
AcDbEntity
  8
文字・寸法線
 62
     0
100
AcDbMText
 10
359.5533878538413
 20
103.1361956143528
 30
0.0
 40
3.0
 41
0.0
 46
0.0
 71
     5
 72
     1
  1
%%c54
 11
0.0
 21
1.0
 31
0.0
 73
     1
 44
1.0
  0
POINT
  5
174C
330
D97
100
AcDbEntity
  8
Defpoints
 62
     0
100
AcDbPoint
 10
307.9636386541117
 20
130.1361956143528
 30
0.0
  0
POINT
  5
174D
330
D97
100
AcDbEntity
  8
Defpoints
 62
     0
100
AcDbPoint
 10
307.9636386541117
 20
76.1361956143528
 30
0.0
  0
POINT
  5
174E
330
D97
100
AcDbEntity
  8
Defpoints
 62
     0
100
AcDbPoint
 10
361.6783878538413
 20
76.1361956143528
 30
0.0
  0
ENDBLK
  5
DA2
330
D97
100
AcDbEntity
  8
0
370
    15
100
AcDbBlockEnd
  0
BLOCK
  5
DAF
330
DA3
100
AcDbEntity
  8
0
370
    15
100
AcDbBlockBegin
  2
*D6
 70
     1
 10
0.0
 20
0.0
 30
0.0
  3
*D6
  1
*D6
  0
LINE
  5
173B
330
DA3
100
AcDbEntity
  8
文字・寸法線
 62
     0
370
    -2
100
AcDbLine
 10
49.30394300006125
 20
79.04666076192922
 30
0.0
 11
42.13946760063024
 21
79.04666076192922
 31
0.0
  0
LINE
  5
173C
330
DA3
100
AcDbEntity
  8
文字・寸法線
 62
     0
370
    -2
100
AcDbLine
 10
49.30394300006125
 20
77.04666076192922
 30
0.0
 11
42.13946760063024
 21
77.04666076192922
 31
0.0
  0
LINE
  5
173D
330
DA3
100
AcDbEntity
  8
文字・寸法線
 62
     0
370
    -2
100
AcDbLine
 10
42.63946760063024
 20
79.04666076192922
 30
0.0
 11
42.63946760063024
 21
77.04666076192922
 31
0.0
  0
LINE
  5
173E
330
DA3
100
AcDbEntity
  8
文字・寸法線
 62
     0
370
    -2
100
AcDbLine
 10
42.63946760063024
 20
81.54666076192922
 30
0.0
 11
42.63946760063024
 21
84.04666076192922
 31
0.0
  0
LINE
  5
173F
330
DA3
100
AcDbEntity
  8
文字・寸法線
 62
     0
370
    -2
100
AcDbLine
 10
42.63946760063024
 20
74.54666076192922
 30
0.0
 11
42.63946760063024
 21
72.04666076192922
 31
0.0
  0
SOLID
  5
1740
330
DA3
100
AcDbEntity
  8
文字・寸法線
 62
     0
100
AcDbTrace
 10
42.22280093396358
 20
81.54666076192922
 30
0.0
 11
43.0561342672969
 21
81.54666076192922
 31
0.0
 12
42.63946760063024
 22
79.04666076192922
 32
0.0
 13
42.63946760063024
 23
79.04666076192922
 33
0.0
  0
SOLID
  5
1741
330
DA3
100
AcDbEntity
  8
文字・寸法線
 62
     0
100
AcDbTrace
 10
43.0561342672969
 20
74.54666076192922
 30
0.0
 11
42.22280093396358
 21
74.54666076192922
 31
0.0
 12
42.63946760063024
 22
77.04666076192922
 32
0.0
 13
42.63946760063024
 23
77.04666076192922
 33
0.0
  0
MTEXT
  5
1742
330
DA3
100
AcDbEntity
  8
文字・寸法線
 62
     0
100
AcDbMText
 10
40.41252621778449
 20
83.62134035435793
 30
0.0
 40
3.0
 41
0.0
 46
0.0
 71
     5
 72
     1
  1
2
 11
0.0
 21
1.0
 31
0.0
 73
     1
 44
1.0
  0
POINT
  5
1743
330
DA3
100
AcDbEntity
  8
Defpoints
 62
     0
100
AcDbPoint
 10
51.30394300006125
 20
79.04666076192922
 30
0.0
  0
POINT
  5
1744
330
DA3
100
AcDbEntity
  8
Defpoints
 62
     0
100
AcDbPoint
 10
51.30394300006125
 20
77.04666076192922
 30
0.0
  0
POINT
  5
1745
330
DA3
100
AcDbEntity
  8
Defpoints
 62
     0
100
AcDbPoint
 10
42.63946760063024
 20
77.04666076192922
 30
0.0
  0
ENDBLK
  5
DB0
330
DA3
100
AcDbEntity
  8
0
370
    15
100
AcDbBlockEnd
  0
BLOCK
  5
DBB
330
DB1
100
AcDbEntity
  8
0
370
    15
100
AcDbBlockBegin
  2
*D7
 70
     1
 10
0.0
 20
0.0
 30
0.0
  3
*D7
  1
*D7
  0
LINE
  5
1732
330
DB1
100
AcDbEntity
  8
文字・寸法線
 62
     0
370
    -2
100
AcDbLine
 10
51.30394300006125
 20
75.04666076192922
 30
0.0
 11
51.30394300006125
 21
59.2945014574014
 31
0.0
  0
LINE
  5
1733
330
DB1
100
AcDbEntity
  8
文字・寸法線
 62
     0
370
    -2
100
AcDbLine
 10
171.3039430000613
 20
75.04666076192922
 30
0.0
 11
171.3039430000613
 21
59.2945014574014
 31
0.0
  0
LINE
  5
1734
330
DB1
100
AcDbEntity
  8
文字・寸法線
 62
     0
370
    -2
100
AcDbLine
 10
53.80394300006125
 20
59.7945014574014
 30
0.0
 11
168.8039430000613
 21
59.7945014574014
 31
0.0
  0
SOLID
  5
1735
330
DB1
100
AcDbEntity
  8
文字・寸法線
 62
     0
100
AcDbTrace
 10
53.80394300006125
 20
60.21116812406807
 30
0.0
 11
53.80394300006125
 21
59.37783479073474
 31
0.0
 12
51.30394300006125
 22
59.7945014574014
 32
0.0
 13
51.30394300006125
 23
59.7945014574014
 33
0.0
  0
SOLID
  5
1736
330
DB1
100
AcDbEntity
  8
文字・寸法線
 62
     0
100
AcDbTrace
 10
168.8039430000613
 20
59.37783479073474
 30
0.0
 11
168.8039430000613
 21
60.21116812406807
 31
0.0
 12
171.3039430000613
 22
59.7945014574014
 32
0.0
 13
171.3039430000613
 23
59.7945014574014
 33
0.0
  0
MTEXT
  5
1737
330
DB1
100
AcDbEntity
  8
文字・寸法線
 62
     0
100
AcDbMText
 10
111.3039430000613
 20
61.9195014574014
 30
0.0
 40
3.0
 41
0.0
 46
0.0
 71
     5
 72
     1
  1
120
 73
     1
 44
1.0
  0
POINT
  5
1738
330
DB1
100
AcDbEntity
  8
Defpoints
 62
     0
100
AcDbPoint
 10
51.30394300006125
 20
77.04666076192922
 30
0.0
  0
POINT
  5
1739
330
DB1
100
AcDbEntity
  8
Defpoints
 62
     0
100
AcDbPoint
 10
171.3039430000613
 20
77.04666076192922
 30
0.0
  0
POINT
  5
173A
330
DB1
100
AcDbEntity
  8
Defpoints
 62
     0
100
AcDbPoint
 10
171.3039430000613
 20
59.7945014574014
 30
0.0
  0
ENDBLK
  5
DBC
330
DB1
100
AcDbEntity
  8
0
370
    15
100
AcDbBlockEnd
  0
BLOCK
  5
148B
330
1481
100
AcDbEntity
  8
0
100
AcDbBlockBegin
  2
*D8
 70
     1
 10
0.0
 20
0.0
 30
0.0
  3
*D8
  1
*D8
  0
LINE
  5
1729
330
1481
100
AcDbEntity
  8
文字・寸法線
 62
     0
370
    -2
100
AcDbLine
 10
292.981399168641
 20
92.48619561435288
 30
0.0
 11
292.981399168641
 21
54.62144221697378
 31
0.0
  0
LINE
  5
172A
330
1481
100
AcDbEntity
  8
文字・寸法線
 62
     0
370
    -2
100
AcDbLine
 10
322.9458781395825
 20
92.48619561435282
 30
0.0
 11
322.9458781395825
 21
54.62144221697378
 31
0.0
  0
LINE
  5
172B
330
1481
100
AcDbEntity
  8
文字・寸法線
 62
     0
370
    -2
100
AcDbLine
 10
295.481399168641
 20
55.12144221697378
 30
0.0
 11
320.4458781395825
 21
55.12144221697378
 31
0.0
  0
SOLID
  5
172C
330
1481
100
AcDbEntity
  8
文字・寸法線
 62
     0
100
AcDbTrace
 10
295.481399168641
 20
55.53810888364045
 30
0.0
 11
295.481399168641
 21
54.70477555030712
 31
0.0
 12
292.981399168641
 22
55.12144221697378
 32
0.0
 13
292.981399168641
 23
55.12144221697378
 33
0.0
  0
SOLID
  5
172D
330
1481
100
AcDbEntity
  8
文字・寸法線
 62
     0
100
AcDbTrace
 10
320.4458781395825
 20
54.70477555030712
 30
0.0
 11
320.4458781395825
 21
55.53810888364045
 31
0.0
 12
322.9458781395825
 22
55.12144221697378
 32
0.0
 13
322.9458781395825
 23
55.12144221697378
 33
0.0
  0
MTEXT
  5
172E
330
1481
100
AcDbEntity
  8
文字・寸法線
 62
     0
100
AcDbMText
 10
307.9636386541117
 20
57.24644221697378
 30
0.0
 40
3.0
 41
0.0
 46
0.0
 71
     5
 72
     1
  1
30
 73
     1
 44
1.0
  0
POINT
  5
172F
330
1481
100
AcDbEntity
  8
Defpoints
 62
     0
100
AcDbPoint
 10
292.981399168641
 20
94.48619561435288
 30
0.0
  0
POINT
  5
1730
330
1481
100
AcDbEntity
  8
Defpoints
 62
     0
100
AcDbPoint
 10
322.9458781395825
 20
94.48619561435282
 30
0.0
  0
POINT
  5
1731
330
1481
100
AcDbEntity
  8
Defpoints
 62
     0
100
AcDbPoint
 10
322.9458781395825
 20
55.12144221697378
 30
0.0
  0
ENDBLK
  5
148C
330
1481
100
AcDbEntity
  8
0
100
AcDbBlockEnd
  0
BLOCK
  5
1497
330
148D
100
AcDbEntity
  8
0
100
AcDbBlockBegin
  2
*D9
 70
     1
 10
0.0
 20
0.0
 30
0.0
  3
*D9
  1
*D9
  0
LINE
  5
1720
330
148D
100
AcDbEntity
  8
文字・寸法線
 62
     0
370
    -2
100
AcDbLine
 10
146.3342662109403
 20
210.0466607618786
 30
0.0
 11
187.057398238717
 21
210.0466607618786
 31
0.0
  0
LINE
  5
1721
330
148D
100
AcDbEntity
  8
文字・寸法線
 62
     0
370
    -2
100
AcDbLine
 10
156.2592662109404
 20
110.0466607618786
 30
0.0
 11
187.057398238717
 21
110.0466607618786
 31
0.0
  0
LINE
  5
1722
330
148D
100
AcDbEntity
  8
文字・寸法線
 62
     0
370
    -2
100
AcDbLine
 10
186.557398238717
 20
207.5466607618786
 30
0.0
 11
186.557398238717
 21
112.5466607618786
 31
0.0
  0
SOLID
  5
1723
330
148D
100
AcDbEntity
  8
文字・寸法線
 62
     0
100
AcDbTrace
 10
186.1407315720504
 20
207.5466607618786
 30
0.0
 11
186.9740649053837
 21
207.5466607618786
 31
0.0
 12
186.557398238717
 22
210.0466607618786
 32
0.0
 13
186.557398238717
 23
210.0466607618786
 33
0.0
  0
SOLID
  5
1724
330
148D
100
AcDbEntity
  8
文字・寸法線
 62
     0
100
AcDbTrace
 10
186.1407315720504
 20
112.5466607618786
 30
0.0
 11
186.9740649053837
 21
112.5466607618786
 31
0.0
 12
186.557398238717
 22
110.0466607618786
 32
0.0
 13
186.557398238717
 23
110.0466607618786
 33
0.0
  0
MTEXT
  5
1725
330
148D
100
AcDbEntity
  8
文字・寸法線
 62
     0
100
AcDbMText
 10
184.432398238717
 20
160.0466607618786
 30
0.0
 40
3.0
 41
0.0
 46
0.0
 71
     5
 72
     1
  1
100
 11
6.123031769111886E-17
 21
1.0
 31
0.0
 73
     1
 44
1.0
  0
POINT
  5
1726
330
148D
100
AcDbEntity
  8
Defpoints
 62
     0
100
AcDbPoint
 10
144.3342662109403
 20
210.0466607618786
 30
0.0
  0
POINT
  5
1727
330
148D
100
AcDbEntity
  8
Defpoints
 62
     0
100
AcDbPoint
 10
154.2592662109404
 20
110.0466607618786
 30
0.0
  0
POINT
  5
1728
330
148D
100
AcDbEntity
  8
Defpoints
 62
     0
100
AcDbPoint
 10
186.557398238717
 20
110.0466607618786
 30
0.0
  0
ENDBLK
  5
1498
330
148D
100
AcDbEntity
  8
0
100
AcDbBlockEnd
  0
BLOCK
  5
14A3
330
1499
100
AcDbEntity
  8
0
100
AcDbBlockBegin
  2
*D10
 70
     1
 10
0.0
 20
0.0
 30
0.0
  3
*D10
  1
*D10
  0
LINE
  5
1717
330
1499
100
AcDbEntity
  8
文字・寸法線
 62
     0
370
    -2
100
AcDbLine
 10
155.6342662109404
 20
110.0466607618786
 30
0.0
 11
187.057398238717
 21
110.0466607618786
 31
0.0
  0
LINE
  5
1718
330
1499
100
AcDbEntity
  8
文字・寸法線
 62
     0
370
    -2
100
AcDbLine
 10
155.6342662109404
 20
97.04666076187863
 30
0.0
 11
187.057398238717
 21
97.04666076187861
 31
0.0
  0
LINE
  5
1719
330
1499
100
AcDbEntity
  8
文字・寸法線
 62
     0
370
    -2
100
AcDbLine
 10
186.557398238717
 20
107.5466607618786
 30
0.0
 11
186.557398238717
 21
99.54666076187861
 31
0.0
  0
SOLID
  5
171A
330
1499
100
AcDbEntity
  8
文字・寸法線
 62
     0
100
AcDbTrace
 10
186.1407315720504
 20
107.5466607618786
 30
0.0
 11
186.9740649053837
 21
107.5466607618786
 31
0.0
 12
186.557398238717
 22
110.0466607618786
 32
0.0
 13
186.557398238717
 23
110.0466607618786
 33
0.0
  0
SOLID
  5
171B
330
1499
100
AcDbEntity
  8
文字・寸法線
 62
     0
100
AcDbTrace
 10
186.1407315720504
 20
99.54666076187861
 30
0.0
 11
186.9740649053837
 21
99.54666076187861
 31
0.0
 12
186.557398238717
 22
97.04666076187861
 32
0.0
 13
186.557398238717
 23
97.04666076187861
 33
0.0
  0
MTEXT
  5
171C
330
1499
100
AcDbEntity
  8
文字・寸法線
 62
     0
100
AcDbMText
 10
184.432398238717
 20
103.5466607618786
 30
0.0
 40
3.0
 41
0.0
 46
0.0
 71
     5
 72
     1
  1
13
 11
6.123031769111886E-17
 21
1.0
 31
0.0
 73
     1
 44
1.0
  0
POINT
  5
171D
330
1499
100
AcDbEntity
  8
Defpoints
 62
     0
100
AcDbPoint
 10
153.6342662109404
 20
110.0466607618786
 30
0.0
  0
POINT
  5
171E
330
1499
100
AcDbEntity
  8
Defpoints
 62
     0
100
AcDbPoint
 10
153.6342662109404
 20
97.04666076187863
 30
0.0
  0
POINT
  5
171F
330
1499
100
AcDbEntity
  8
Defpoints
 62
     0
100
AcDbPoint
 10
186.557398238717
 20
97.04666076187861
 30
0.0
  0
ENDBLK
  5
14A4
330
1499
100
AcDbEntity
  8
0
100
AcDbBlockEnd
  0
BLOCK
  5
14AF
330
14A5
100
AcDbEntity
  8
0
100
AcDbBlockBegin
  2
*D11
 70
     1
 10
0.0
 20
0.0
 30
0.0
  3
*D11
  1
*D11
  0
LINE
  5
170E
330
14A5
100
AcDbEntity
  8
文字・寸法線
 62
     0
370
    -2
100
AcDbLine
 10
126.3342662109403
 20
210.0466607618786
 30
0.0
 11
126.3342662109403
 21
224.0369122442195
 31
0.0
  0
LINE
  5
170F
330
14A5
100
AcDbEntity
  8
文字・寸法線
 62
     0
370
    -2
100
AcDbLine
 10
146.3342662109403
 20
210.0466607618786
 30
0.0
 11
146.3342662109403
 21
224.0369122442195
 31
0.0
  0
LINE
  5
1710
330
14A5
100
AcDbEntity
  8
文字・寸法線
 62
     0
370
    -2
100
AcDbLine
 10
128.8342662109403
 20
223.5369122442195
 30
0.0
 11
143.8342662109403
 21
223.5369122442195
 31
0.0
  0
SOLID
  5
1711
330
14A5
100
AcDbEntity
  8
文字・寸法線
 62
     0
100
AcDbTrace
 10
128.8342662109403
 20
223.9535789108861
 30
0.0
 11
128.8342662109403
 21
223.1202455775528
 31
0.0
 12
126.3342662109403
 22
223.5369122442195
 32
0.0
 13
126.3342662109403
 23
223.5369122442195
 33
0.0
  0
SOLID
  5
1712
330
14A5
100
AcDbEntity
  8
文字・寸法線
 62
     0
100
AcDbTrace
 10
143.8342662109403
 20
223.9535789108861
 30
0.0
 11
143.8342662109403
 21
223.1202455775528
 31
0.0
 12
146.3342662109403
 22
223.5369122442195
 32
0.0
 13
146.3342662109403
 23
223.5369122442195
 33
0.0
  0
MTEXT
  5
1713
330
14A5
100
AcDbEntity
  8
文字・寸法線
 62
     0
100
AcDbMText
 10
136.3342662109403
 20
225.6619122442195
 30
0.0
 40
3.0
 41
0.0
 46
0.0
 71
     5
 72
     1
  1
{\fArial|b0|i0|c0|p32;M}20
 73
     1
 44
1.0
  0
POINT
  5
1714
330
14A5
100
AcDbEntity
  8
Defpoints
 62
     0
100
AcDbPoint
 10
126.3342662109403
 20
208.0466607618786
 30
0.0
  0
POINT
  5
1715
330
14A5
100
AcDbEntity
  8
Defpoints
 62
     0
100
AcDbPoint
 10
146.3342662109403
 20
208.0466607618786
 30
0.0
  0
POINT
  5
1716
330
14A5
100
AcDbEntity
  8
Defpoints
 62
     0
100
AcDbPoint
 10
146.3342662109403
 20
223.5369122442195
 30
0.0
  0
ENDBLK
  5
14B0
330
14A5
100
AcDbEntity
  8
0
100
AcDbBlockEnd
  0
BLOCK
  5
1513
330
1509
100
AcDbEntity
  8
0
100
AcDbBlockBegin
  2
*D12
 70
     1
 10
0.0
 20
0.0
 30
0.0
  3
*D12
  1
*D12
  0
LINE
  5
1705
330
1509
100
AcDbEntity
  8
文字・寸法線
 62
     0
370
    -2
100
AcDbLine
 10
157.6342662109404
 20
97.04666076187863
 30
0.0
 11
187.057398238717
 21
97.04666076187863
 31
0.0
  0
LINE
  5
1706
330
1509
100
AcDbEntity
  8
文字・寸法線
 62
     0
370
    -2
100
AcDbLine
 10
173.3039430000613
 20
77.04666076192922
 30
0.0
 11
187.057398238717
 21
77.04666076192922
 31
0.0
  0
LINE
  5
1707
330
1509
100
AcDbEntity
  8
文字・寸法線
 62
     0
370
    -2
100
AcDbLine
 10
186.557398238717
 20
94.54666076187863
 30
0.0
 11
186.557398238717
 21
79.54666076192922
 31
0.0
  0
SOLID
  5
1708
330
1509
100
AcDbEntity
  8
文字・寸法線
 62
     0
100
AcDbTrace
 10
186.9740649053837
 20
94.54666076187863
 30
0.0
 11
186.1407315720504
 21
94.54666076187863
 31
0.0
 12
186.557398238717
 22
97.04666076187863
 32
0.0
 13
186.557398238717
 23
97.04666076187863
 33
0.0
  0
SOLID
  5
1709
330
1509
100
AcDbEntity
  8
文字・寸法線
 62
     0
100
AcDbTrace
 10
186.1407315720504
 20
79.54666076192922
 30
0.0
 11
186.9740649053837
 21
79.54666076192922
 31
0.0
 12
186.557398238717
 22
77.04666076192922
 32
0.0
 13
186.557398238717
 23
77.04666076192922
 33
0.0
  0
MTEXT
  5
170A
330
1509
100
AcDbEntity
  8
文字・寸法線
 62
     0
100
AcDbMText
 10
184.432398238717
 20
87.04666076190392
 30
0.0
 40
3.0
 41
0.0
 46
0.0
 71
     5
 72
     1
  1
20
 11
0.0
 21
1.0
 31
0.0
 73
     1
 44
1.0
  0
POINT
  5
170B
330
1509
100
AcDbEntity
  8
Defpoints
 62
     0
100
AcDbPoint
 10
155.6342662109404
 20
97.04666076187863
 30
0.0
  0
POINT
  5
170C
330
1509
100
AcDbEntity
  8
Defpoints
 62
     0
100
AcDbPoint
 10
171.3039430000613
 20
77.04666076192922
 30
0.0
  0
POINT
  5
170D
330
1509
100
AcDbEntity
  8
Defpoints
 62
     0
100
AcDbPoint
 10
186.557398238717
 20
77.04666076192922
 30
0.0
  0
ENDBLK
  5
1514
330
1509
100
AcDbEntity
  8
0
100
AcDbBlockEnd
  0
BLOCK
  5
1544
330
153B
100
AcDbEntity
  8
0
100
AcDbBlockBegin
  2
A$C44547450
 70
     0
 10
0.0
 20
0.0
 30
0.0
  3
A$C44547450
  1
A$C44547450
  0
LINE
  5
153C
330
153B
100
AcDbEntity
  8
実線
100
AcDbLine
 10
-9.586982428554435
 20
11.13279967568948
 30
0.0
 11
9.586982428554435
 21
11.13279967568951
 31
0.0
  0
LINE
  5
153D
330
153B
100
AcDbEntity
  8
実線
100
AcDbLine
 10
-10.35000000000001
 20
11.13279967568951
 30
0.0
 11
10.3720695539608
 21
11.13279967568951
 31
0.0
  0
ARC
  5
153E
330
153B
100
AcDbEntity
  8
実線
100
AcDbCircle
 10
10.34999999999995
 20
17.75754963689648
 30
0.0
 40
6.624786722131047
100
AcDbArc
 50
238.1080604549013
 51
301.8919395450987
  0
ARC
  5
153F
330
153B
100
AcDbEntity
  8
実線
100
AcDbCircle
 10
-0.0000000000000142
 20
35.09405083239642
 30
0.0
 40
23.96124999999989
100
AcDbArc
 50
253.3886475888884
 51
286.6113524111116
  0
ARC
  5
1540
330
153B
100
AcDbEntity
  8
実線
100
AcDbCircle
 10
-10.35000000000001
 20
17.75779316922079
 30
0.0
 40
6.624993493531275
100
AcDbArc
 50
238.1091731852506
 51
301.8908268147494
  0
LINE
  5
1541
330
153B
100
AcDbEntity
  8
実線
100
AcDbLine
 10
6.84999999999998
 20
24.13280083239653
 30
0.0
 11
6.84999999999998
 21
12.13280083239653
 31
0.0
  0
LINE
  5
1542
330
153B
100
AcDbEntity
  8
実線
100
AcDbLine
 10
-6.850000000000009
 20
24.13280083239653
 30
0.0
 11
-6.850000000000009
 21
12.13280083239653
 31
0.0
  0
LWPOLYLINE
  5
1543
330
153B
100
AcDbEntity
  8
実線
100
AcDbPolyline
 90
        4
 70
     0
 43
0.0
 10
13.84999999999998
 20
12.13280083239654
 10
13.84999999999998
 20
24.13280083239653
 10
-13.85000000000001
 20
24.13280083239653
 10
-13.85000000000001
 20
12.13280083239653
  0
ENDBLK
  5
1545
330
153B
100
AcDbEntity
  8
0
100
AcDbBlockEnd
  0
BLOCK
  5
1676
330
166C
100
AcDbEntity
  8
0
100
AcDbBlockBegin
  2
*D14
 70
     1
 10
0.0
 20
0.0
 30
0.0
  3
*D14
  1
*D14
  0
LINE
  5
16FC
330
166C
100
AcDbEntity
  8
文字・寸法線
 62
     0
370
    -2
100
AcDbLine
 10
146.3342662109403
 20
210.0466607618786
 30
0.0
 11
194.1474658596049
 21
210.0466607618786
 31
0.0
  0
LINE
  5
16FD
330
166C
100
AcDbEntity
  8
文字・寸法線
 62
     0
370
    -2
100
AcDbLine
 10
173.3039430000613
 20
78.04666076192922
 30
0.0
 11
194.1474658596048
 21
78.04666076192922
 31
0.0
  0
LINE
  5
16FE
330
166C
100
AcDbEntity
  8
文字・寸法線
 62
     0
370
    -2
100
AcDbLine
 10
193.6474658596049
 20
207.5466607618786
 30
0.0
 11
193.6474658596048
 21
80.54666076192922
 31
0.0
  0
SOLID
  5
16FF
330
166C
100
AcDbEntity
  8
文字・寸法線
 62
     0
100
AcDbTrace
 10
193.2307991929382
 20
207.5466607618786
 30
0.0
 11
194.0641325262715
 21
207.5466607618786
 31
0.0
 12
193.6474658596049
 22
210.0466607618786
 32
0.0
 13
193.6474658596049
 23
210.0466607618786
 33
0.0
  0
SOLID
  5
1700
330
166C
100
AcDbEntity
  8
文字・寸法線
 62
     0
100
AcDbTrace
 10
193.2307991929382
 20
80.54666076192922
 30
0.0
 11
194.0641325262715
 21
80.54666076192922
 31
0.0
 12
193.6474658596048
 22
78.04666076192922
 32
0.0
 13
193.6474658596048
 23
78.04666076192922
 33
0.0
  0
MTEXT
  5
1701
330
166C
100
AcDbEntity
  8
文字・寸法線
 62
     0
100
AcDbMText
 10
191.5224658596048
 20
144.046660761904
 30
0.0
 40
3.0
 41
0.0
 46
0.0
 71
     5
 72
     1
  1
132
 11
6.123031769111886E-17
 21
1.0
 31
0.0
 73
     1
 44
1.0
  0
POINT
  5
1702
330
166C
100
AcDbEntity
  8
Defpoints
 62
     0
100
AcDbPoint
 10
144.3342662109403
 20
210.0466607618786
 30
0.0
  0
POINT
  5
1703
330
166C
100
AcDbEntity
  8
Defpoints
 62
     0
100
AcDbPoint
 10
171.3039430000613
 20
78.04666076192922
 30
0.0
  0
POINT
  5
1704
330
166C
100
AcDbEntity
  8
Defpoints
 62
     0
100
AcDbPoint
 10
193.6474658596048
 20
78.04666076192922
 30
0.0
  0
ENDBLK
  5
1677
330
166C
100
AcDbEntity
  8
0
100
AcDbBlockEnd
  0
ENDSEC
  0
SECTION
  2
ENTITIES
  0
DIMENSION
  5
D0E
102
{ACAD_XDICTIONARY
360
D0F
102
}
330
21
100
AcDbEntity
  8
文字・寸法線
100
AcDbDimension
280
     0
  2
*D1
 10
222.9636386541117
 20
152.5860687947466
 30
0.0
 11
230.4636386541117
 21
154.7110687947466
 31
0.0
 70
    32
 71
     5
 42
15.0
 73
     0
 74
     0
 75
     0
  3
ISO-25
100
AcDbAlignedDimension
 13
237.9636386541117
 23
133.7611956143528
 33
0.0
 14
222.9636386541117
 24
103.1361956143528
 34
0.0
100
AcDbRotatedDimension
  0
DIMENSION
  5
D11
102
{ACAD_REACTORS
330
D13
102
}
102
{ACAD_XDICTIONARY
360
D12
102
}
330
21
100
AcDbEntity
  8
文字・寸法線
100
AcDbDimension
280
     0
  2
*D2
 10
237.9636386541117
 20
152.5860687947466
 30
0.0
 11
272.9636386541117
 21
154.7110687947466
 31
0.0
 70
    32
 71
     5
 42
70.0
 73
     0
 74
     0
 75
     0
  3
ISO-25
100
AcDbAlignedDimension
 13
307.9636386541117
 23
144.5316347210259
 33
0.0
 14
237.9636386541117
 24
133.1361956143528
 34
0.0
100
AcDbRotatedDimension
  0
DIMENSION
  5
D14
102
{ACAD_REACTORS
330
D16
102
}
102
{ACAD_XDICTIONARY
360
D15
102
}
330
21
100
AcDbEntity
  8
文字・寸法線
100
AcDbDimension
280
     0
  2
*D3
 10
307.9636386541117
 20
152.5860687947466
 30
0.0
 11
325.4636386541117
 21
154.7110687947466
 31
0.0
 70
    32
 71
     5
 42
35.0
 73
     0
 74
     0
 75
     0
  3
ISO-25
100
AcDbAlignedDimension
 13
342.9636386541117
 23
103.1361956143528
 33
0.0
 14
307.9636386541117
 24
143.9066347210259
 34
0.0
100
AcDbRotatedDimension
  0
LINE
  5
D17
102
{ACAD_REACTORS
330
D13
102
}
330
21
100
AcDbEntity
  8
中心線
100
AcDbLine
 10
237.9636386541117
 20
133.1361956143528
 30
0.0
 11
237.9636386541117
 21
73.1361956143528
 31
0.0
  0
DIMENSION
  5
D18
102
{ACAD_REACTORS
330
D1A
102
}
102
{ACAD_XDICTIONARY
360
D19
102
}
330
21
100
AcDbEntity
  8
文字・寸法線
100
AcDbDimension
280
     0
  2
*D4
 10
369.6768024177838
 20
68.1361956143528
 30
0.0
 11
367.5518024177838
 21
103.1361956143528
 31
0.0
 70
    32
 71
     5
 42
70.0
 73
     0
 74
     0
 75
     0
  3
ISO-25
100
AcDbAlignedDimension
 13
307.9636386541117
 23
138.1361956143528
 33
0.0
 14
307.9636386541117
 24
68.1361956143528
 34
0.0
 50
90.0
100
AcDbRotatedDimension
  0
DIMENSION
  5
D1B
102
{ACAD_REACTORS
330
D1D
102
}
102
{ACAD_XDICTIONARY
360
D1C
102
}
330
21
100
AcDbEntity
  8
文字・寸法線
100
AcDbDimension
280
     0
  2
*D5
 10
361.6783878538413
 20
76.1361956143528
 30
0.0
 11
359.5533878538413
 21
103.1361956143528
 31
0.0
 70
    32
  1
%%c<>
 71
     5
 42
54.0
 73
     0
 74
     0
 75
     0
  3
ISO-25
100
AcDbAlignedDimension
 13
307.9636386541117
 23
130.1361956143528
 33
0.0
 14
307.9636386541117
 24
76.1361956143528
 34
0.0
 50
90.0
100
AcDbRotatedDimension
  0
LINE
  5
D1E
330
21
100
AcDbEntity
  8
中心線
100
AcDbLine
 10
307.9636386541117
 20
103.1361956143528
 30
0.0
 11
215.3750492781757
 21
103.1361956143528
 31
0.0
  0
LINE
  5
D1F
102
{ACAD_REACTORS
330
D1A
102
}
330
21
100
AcDbEntity
  8
中心線
100
AcDbLine
 10
307.9636386541117
 20
103.1361956143528
 30
0.0
 11
307.9636386541117
 21
63.59772735931193
 31
0.0
  0
LINE
  5
D20
102
{ACAD_REACTORS
330
D1D
330
D1A
330
D16
102
}
330
21
100
AcDbEntity
  8
中心線
100
AcDbLine
 10
307.9636386541117
 20
103.1361956143528
 30
0.0
 11
307.9636386541117
 21
143.9066347210259
 31
0.0
  0
LINE
  5
D21
102
{ACAD_REACTORS
330
D16
102
}
330
21
100
AcDbEntity
  8
中心線
100
AcDbLine
 10
307.9636386541117
 20
103.1361956143528
 30
0.0
 11
351.8727661925855
 21
103.1361956143528
 31
0.0
  0
DIMENSION
  5
D22
102
{ACAD_REACTORS
330
D24
102
}
102
{ACAD_XDICTIONARY
360
D23
102
}
330
21
100
AcDbEntity
  8
文字・寸法線
100
AcDbDimension
280
     0
  2
*D6
 10
42.63946760063024
 20
77.04666076192922
 30
0.0
 11
40.41252621778449
 21
83.62134035435793
 31
0.0
 70
   160
 71
     5
 42
2.0
 73
     0
 74
     0
 75
     0
  3
ISO-25
100
AcDbAlignedDimension
 13
51.30394300006125
 23
79.04666076192922
 33
0.0
 14
51.30394300006125
 24
77.04666076192922
 34
0.0
 50
90.0
100
AcDbRotatedDimension
1001
ACAD
1000
DSTYLE
1002
{
1070
   279
1070
     2
1002
}
  0
DIMENSION
  5
D25
102
{ACAD_REACTORS
330
D27
102
}
102
{ACAD_XDICTIONARY
360
D26
102
}
330
21
100
AcDbEntity
  8
文字・寸法線
100
AcDbDimension
280
     0
  2
*D7
 10
171.3039430000613
 20
59.7945014574014
 30
0.0
 11
111.3039430000613
 21
61.9195014574014
 31
0.0
 70
    32
 71
     5
 42
120.0000000000001
 73
     0
 74
     0
 75
     0
  3
ISO-25
100
AcDbAlignedDimension
 13
51.30394300006125
 23
77.04666076192922
 33
0.0
 14
171.3039430000613
 24
77.04666076192922
 34
0.0
100
AcDbRotatedDimension
  0
LINE
  5
D2F
102
{ACAD_REACTORS
330
D27
330
D24
102
}
330
21
100
AcDbEntity
  8
実線
100
AcDbLine
 10
171.3039430000613
 20
77.04666076192922
 30
0.0
 11
51.30394300006125
 21
77.04666076192922
 31
0.0
  0
LINE
  5
D30
102
{ACAD_REACTORS
330
D24
102
}
330
21
100
AcDbEntity
  8
実線
100
AcDbLine
 10
51.30394300006125
 20
79.04666076192922
 30
0.0
 11
51.30394300006125
 21
77.04666076192922
 31
0.0
  0
LINE
  5
D31
102
{ACAD_REACTORS
102
}
330
21
100
AcDbEntity
  8
実線
100
AcDbLine
 10
171.3039430000613
 20
79.04666076192922
 30
0.0
 11
171.3039430000613
 21
77.04666076192922
 31
0.0
  0
LINE
  5
D32
330
21
100
AcDbEntity
  8
実線
100
AcDbLine
 10
107.3441143486161
 20
79.04666076192922
 30
0.0
 11
51.30394300006125
 21
79.04666076192922
 31
0.0
  0
ARC
  5
D33
330
21
100
AcDbEntity
  8
実線
100
AcDbCircle
 10
134.6110281777795
 20
71.72401887647067
 30
0.0
 40
26.163749448437
100
AcDbArc
 50
104.5674587025413
 51
159.7264647479525
  0
ARC
  5
D34
330
21
100
AcDbEntity
  8
実線
100
AcDbCircle
 10
107.3441143486161
 20
82.04666076192922
 30
0.0
 40
3.0
100
AcDbArc
 50
269.9999999999996
 51
335.2319015012845
  0
ARC
  5
D35
330
21
100
AcDbEntity
  8
実線
100
AcDbCircle
 10
165.3243304745319
 20
82.04666076192922
 30
0.0
 40
3.0
100
AcDbArc
 50
204.7680984987156
 51
270.0000000000004
  0
ARC
  5
D36
330
21
100
AcDbEntity
  8
実線
100
AcDbCircle
 10
138.0574166453682
 20
71.72401887647027
 30
0.0
 40
26.16374944843746
100
AcDbArc
 50
20.27353525204802
 51
75.43254129745829
  0
LINE
  5
D37
330
21
100
AcDbEntity
  8
実線
100
AcDbLine
 10
165.3243304745319
 20
79.04666076192922
 30
0.0
 11
171.334222411574
 21
79.04666076192922
 31
0.0
  0
LINE
  5
D38
330
21
100
AcDbEntity
  8
実線
100
AcDbLine
 10
107.3441143486161
 20
79.04666076192922
 30
0.0
 11
167.4285929610099
 21
79.04666076192922
 31
0.0
  0
CIRCLE
  5
D39
102
{ACAD_REACTORS
330
D1D
102
}
330
21
100
AcDbEntity
  8
実線
100
AcDbCircle
 10
307.9636386541117
 20
103.1361956143528
 30
0.0
 40
27.0
  0
CIRCLE
  5
D3A
330
21
100
AcDbEntity
  8
実線
100
AcDbCircle
 10
237.9636386541117
 20
103.1361956143528
 30
0.0
 40
7.0
  0
ARC
  5
D3B
102
{ACAD_REACTORS
330
EF5
102
}
330
21
100
AcDbEntity
  8
実線
100
AcDbCircle
 10
237.9636386541117
 20
103.1361956143528
 30
0.0
 40
15.0
100
AcDbArc
 50
99.55953660869511
 51
260.4404633913044
  0
ARC
  5
D3C
102
{ACAD_REACTORS
330
D1A
330
D16
102
}
330
21
100
AcDbEntity
  8
実線
100
AcDbCircle
 10
307.9636386541117
 20
103.1361956143528
 30
0.0
 40
35.0
100
AcDbArc
 50
253.2990352067444
 51
106.7009647932556
  0
LINE
  5
D3D
330
21
100
AcDbEntity
  8
実線
100
AcDbLine
 10
235.4725530193325
 20
88.34449211677702
 30
0.0
 11
297.9054559598138
 21
69.61257765793098
 31
0.0
  0
LINE
  5
D3E
330
21
100
AcDbEntity
  8
実線
100
AcDbLine
 10
235.4725530193326
 20
117.9278991119286
 30
0.0
 11
297.9054559598138
 21
136.6598135707746
 31
0.0
  0
LEADER
  5
EF2
102
{ACAD_REACTORS
330
EF5
102
}
102
{ACAD_XDICTIONARY
360
EF4
102
}
330
21
100
AcDbEntity
  8
文字・寸法線
100
AcDbLeader
  3
ISO-25
 73
     0
 40
3.0
 41
7.0
 76
     3
 10
237.9636386541117
 20
103.1361956143528
 30
0.0
 10
225.6052893019959
 20
77.03449334676645
 30
0.0
 10
223.9908499631798
 20
77.03449334676645
 30
0.0
340
EF3
1001
ACAD
1000
DSTYLE
1002
{
1070
   147
1040
0.625
1070
    77
1070
     1
1002
}
  0
MTEXT
  5
EF3
102
{ACAD_REACTORS
330
EF2
102
}
330
21
100
AcDbEntity
  8
文字・寸法線
100
AcDbMText
 10
223.3658499631798
 20
77.65949334676645
 30
0.0
 40
3.0
 41
0.0
 46
0.0
 71
     9
 72
     1
  1
%%c14
 73
     1
 44
1.0
  0
DIMENSION
  5
1405
102
{ACAD_REACTORS
330
1407
102
}
102
{ACAD_XDICTIONARY
360
1406
102
}
330
21
100
AcDbEntity
  8
文字・寸法線
100
AcDbDimension
280
     0
  2
*D8
 10
322.9458781395825
 20
55.12144221697378
 30
0.0
 11
307.9636386541117
 21
57.24644221697378
 31
0.0
 70
    32
  1
30
 71
     5
 42
29.96447897094157
 73
     0
 74
     0
 75
     0
  3
ISO-25
100
AcDbAlignedDimension
 13
292.981399168641
 23
94.48619561435288
 33
0.0
 14
322.9458781395825
 24
94.48619561435282
 34
0.0
100
AcDbRotatedDimension
  0
LWPOLYLINE
  5
1408
102
{ACAD_REACTORS
330
1407
102
}
330
21
100
AcDbEntity
  8
実線
100
AcDbPolyline
 90
        6
 70
     1
 43
0.0
 10
322.9458781395825
 20
111.7861956143529
 10
307.9636386541117
 20
120.4361956143529
 10
292.981399168641
 20
111.7861956143529
 10
292.981399168641
 20
94.48619561435288
 10
307.9636386541117
 20
85.83619561435285
 10
322.9458781395825
 20
94.48619561435282
  0
CIRCLE
  5
1409
330
21
100
AcDbEntity
  8
実線
370
    20
100
AcDbCircle
 10
307.9636386541117
 20
103.1361956143528
 30
0.0
 40
8.0
  0
CIRCLE
  5
140A
330
21
100
AcDbEntity
  8
実線
100
AcDbCircle
 10
307.9636386541117
 20
103.1361956143528
 30
0.0
 40
10.0
  0
DIMENSION
  5
140B
102
{ACAD_REACTORS
330
140D
102
}
102
{ACAD_XDICTIONARY
360
140C
102
}
330
21
100
AcDbEntity
  8
文字・寸法線
100
AcDbDimension
280
     0
  2
*D9
 10
186.557398238717
 20
110.0466607618786
 30
0.0
 11
184.432398238717
 21
160.0466607618786
 31
0.0
 70
    32
 71
     5
 42
100.0000000000001
 73
     0
 74
     0
 75
     0
  3
ISO-25
100
AcDbAlignedDimension
 13
144.3342662109403
 23
210.0466607618786
 33
0.0
 14
154.2592662109404
 24
110.0466607618786
 34
0.0
 50
90.0
100
AcDbRotatedDimension
  0
LINE
  5
140E
330
21
100
AcDbEntity
  8
実線
370
    20
100
AcDbLine
 10
128.3342662109403
 20
152.0466607618787
 30
0.0
 11
128.3342662109403
 21
149.2182336371325
 31
0.0
  0
LINE
  5
140F
330
21
100
AcDbEntity
  8
実線
370
    20
100
AcDbLine
 10
144.3342662109403
 20
168.0466607618786
 30
0.0
 11
144.3342662109403
 21
165.2182336371324
 31
0.0
  0
LINE
  5
1410
330
21
100
AcDbEntity
  8
実線
100
AcDbLine
 10
146.3342662109403
 20
170.0466607618786
 30
0.0
 11
146.3342662109403
 21
121.8615838167409
 31
0.0
  0
LINE
  5
1411
330
21
100
AcDbEntity
  8
実線
100
AcDbLine
 10
126.3342662109403
 20
150.0466607618787
 30
0.0
 11
126.3342662109403
 21
147.2182336371325
 31
0.0
  0
LINE
  5
1412
330
21
100
AcDbEntity
  8
中心線
100
AcDbLine
 10
136.3342662109403
 20
71.98900545718573
 30
0.0
 11
136.3342662109403
 21
217.1416123071651
 31
0.0
  0
ARC
  5
1413
330
21
100
AcDbEntity
  8
実線
100
AcDbCircle
 10
136.3342662109404
 20
134.9579107618786
 30
0.0
 40
37.91124999999995
100
AcDbArc
 50
256.8109699355427
 51
283.1890300644557
  0
ARC
  5
1414
330
21
100
AcDbEntity
  8
実線
100
AcDbCircle
 10
149.3092662109404
 20
106.8994732618787
 30
0.0
 40
9.852812500000026
100
AcDbArc
 50
243.9623951404288
 51
296.0376048595698
  0
LINE
  5
1415
330
21
100
AcDbEntity
  8
実線
100
AcDbLine
 10
144.9842662109403
 20
110.0466607618786
 30
0.0
 11
144.9842662109403
 21
98.04666076187863
 31
0.0
  0
LWPOLYLINE
  5
1416
102
{ACAD_REACTORS
330
141B
102
}
330
21
100
AcDbEntity
  8
実線
100
AcDbPolyline
 90
        4
 70
     0
 43
0.0
 10
153.6342662109404
 20
98.04666076187863
 10
153.6342662109404
 20
110.0466607618786
 10
119.0342662109404
 20
110.0466607618786
 10
119.0342662109404
 20
98.04666076187863
  0
ARC
  5
1417
330
21
100
AcDbEntity
  8
実線
100
AcDbCircle
 10
123.3592662109403
 20
106.8994732618786
 30
0.0
 40
9.852812499999981
100
AcDbArc
 50
243.9623951404288
 51
296.0376048595698
  0
LINE
  5
1418
330
21
100
AcDbEntity
  8
実線
100
AcDbLine
 10
127.6842662109403
 20
110.0466607618786
 30
0.0
 11
127.6842662109403
 21
98.04666076187863
 31
0.0
  0
DIMENSION
  5
1419
102
{ACAD_REACTORS
330
141B
102
}
102
{ACAD_XDICTIONARY
360
141A
102
}
330
21
100
AcDbEntity
  8
文字・寸法線
100
AcDbDimension
280
     0
  2
*D10
 10
186.557398238717
 20
97.04666076187861
 30
0.0
 11
184.432398238717
 21
103.5466607618786
 31
0.0
 70
    32
 71
     5
 42
13.0
 73
     0
 74
     0
 75
     0
  3
ISO-25
100
AcDbAlignedDimension
 13
153.6342662109404
 23
110.0466607618786
 33
0.0
 14
153.6342662109404
 24
97.04666076187863
 34
0.0
 50
90.0
100
AcDbRotatedDimension
  0
LWPOLYLINE
  5
141C
102
{ACAD_REACTORS
330
140D
102
}
330
21
100
AcDbEntity
  8
実線
100
AcDbPolyline
 90
        6
 70
     0
 43
0.0
 10
146.3342662109403
 20
170.0466607618786
 10
146.3342662109403
 20
208.0466607618786
 10
144.3342662109403
 20
210.0466607618786
 10
128.3342662109403
 20
210.0466607618786
 10
126.3342662109403
 20
208.0466607618786
 10
126.3342662109403
 20
121.861692179821
  0
LINE
  5
141D
102
{ACAD_REACTORS
330
1422
102
}
330
21
100
AcDbEntity
  8
実線
370
    20
100
AcDbLine
 10
126.3342662109403
 20
208.0466607618786
 30
0.0
 11
146.3342662109403
 21
208.0466607618786
 31
0.0
  0
LINE
  5
141E
330
21
100
AcDbEntity
  8
実線
370
    15
100
AcDbLine
 10
128.3342662109403
 20
210.0466607618786
 30
0.0
 11
128.3342662109403
 21
121.861681343513
 31
0.0
  0
LINE
  5
141F
102
{ACAD_REACTORS
102
}
330
21
100
AcDbEntity
  8
実線
370
    15
100
AcDbLine
 10
144.3342662109403
 20
210.0466607618786
 30
0.0
 11
144.3342662109403
 21
121.8615946530489
 31
0.0
  0
DIMENSION
  5
1420
102
{ACAD_REACTORS
330
1422
102
}
102
{ACAD_XDICTIONARY
360
1421
102
}
330
21
100
AcDbEntity
  8
文字・寸法線
100
AcDbDimension
280
     0
  2
*D11
 10
146.3342662109403
 20
223.5369122442195
 30
0.0
 11
136.3342662109403
 21
225.6619122442195
 31
0.0
 70
    32
  1
{\fArial|b0|i0|c0|p32;M}<>
 71
     5
 42
20.0
 73
     0
 74
     0
 75
     0
  3
ISO-25
100
AcDbAlignedDimension
 13
126.3342662109403
 23
208.0466607618786
 33
0.0
 14
146.3342662109403
 24
208.0466607618786
 34
0.0
100
AcDbRotatedDimension
  0
LINE
  5
1426
330
21
100
AcDbEntity
  8
実線
100
AcDbLine
 10
124.9942662109403
 20
97.04667386312997
 30
0.0
 11
147.675586922656
 21
97.04664765910144
 31
0.0
  0
LINE
  5
1433
330
21
100
AcDbEntity
  8
実線
100
AcDbLine
 10
126.7472837823859
 20
97.04666076187857
 30
0.0
 11
145.9212486394948
 21
97.04666076187863
 31
0.0
  0
DIMENSION
  5
1508
102
{ACAD_XDICTIONARY
360
1515
102
}
330
21
100
AcDbEntity
  8
文字・寸法線
100
AcDbDimension
280
     0
  2
*D12
 10
186.557398238717
 20
77.04666076192922
 30
0.0
 11
184.432398238717
 21
87.04666076190392
 31
0.0
 70
    32
 71
     5
 42
19.99999999994941
 73
     0
 74
     0
 75
     0
  3
ISO-25
100
AcDbAlignedDimension
 13
155.6342662109404
 23
97.04666076187863
 33
0.0
 14
171.3039430000613
 24
77.04666076192922
 34
0.0
 50
90.0
100
AcDbRotatedDimension
  0
LWPOLYLINE
  5
1667
102
{ACAD_REACTORS
330
140D
102
}
330
21
100
AcDbEntity
  8
実線
100
AcDbPolyline
 90
        2
 70
     0
 43
0.0
 10
126.3342662109403
 20
121.861692179821
 10
126.3342662109403
 20
110.0466607618786
  0
LINE
  5
1668
330
21
100
AcDbEntity
  8
実線
370
    15
100
AcDbLine
 10
128.3342662109403
 20
121.861681343513
 30
0.0
 11
128.3342662109403
 21
110.0466607618786
 31
0.0
  0
LINE
  5
1669
330
21
100
AcDbEntity
  8
実線
370
    15
100
AcDbLine
 10
144.3342662109403
 20
121.8615946530489
 30
0.0
 11
144.3342662109403
 21
110.0466607618786
 31
0.0
  0
LINE
  5
166A
330
21
100
AcDbEntity
  8
実線
100
AcDbLine
 10
146.3342662109403
 20
121.8615838167409
 30
0.0
 11
146.3342662109403
 21
110.0466607618786
 31
0.0
  0
MTEXT
  5
181E
330
21
100
AcDbEntity
  8
文字・寸法線
 62
     0
100
AcDbMText
 10
90.5790887159994
 20
247.4943712681111
 30
0.0
 40
6.0
 41
0.0
 46
6.0
 71
     9
 72
     1
  1
{\fＭＳ ゴシック|b0|i0|c0|p0;S-D M20X100}
 73
     1
 44
1.0
1001
ACAD
1000
ACAD_MTEXT_DEFINED_HEIGHT_BEGIN
1070
    46
1040
6.0
1000
ACAD_MTEXT_DEFINED_HEIGHT_END
  0
ENDSEC
  0
SECTION
  2
OBJECTS
  0
DICTIONARY
  5
C
330
0
100
AcDbDictionary
281
     1
  3
ACAD_COLOR
350
1C
  3
ACAD_DETAILVIEWSTYLE
350
17F3
  3
ACAD_GROUP
350
D
  3
ACAD_IMAGE_VARS
350
17E5
  3
ACAD_LAYOUT
350
1A
  3
ACAD_MATERIAL
350
1B
  3
ACAD_MLEADERSTYLE
350
17F0
  3
ACAD_MLINESTYLE
350
17
  3
ACAD_PLOTSETTINGS
350
19
  3
ACAD_PLOTSTYLENAME
350
E
  3
ACAD_SCALELIST
350
17BC
  3
ACAD_SECTIONVIEWSTYLE
350
17F4
  3
ACAD_TABLESTYLE
350
17E1
  3
ACAD_VISUALSTYLE
350
17A3
  3
AcadDim
350
657
  3
ACDB_RECOMPOSE_DATA
350
1824
  3
AcDbVariableDictionary
350
1785
  3
APPDATA
350
17E3
  0
SUN
  5
17E6
330
178F
100
AcDbSun
 90
        1
290
     0
 63
     7
421
 16777215
 40
1.0
291
     1
 91
  2455826
 92
 54000000
292
     0
 70
     2
 71
   256
280
     1
  0
DICTIONARY
  5
1546
330
2
100
AcDbDictionary
280
     1
281
     1
  3
ACAD_LAYERFILTERS
360
1568
  3
ACAD_LAYERSTATES
360
1547
  0
DICTIONARY
  5
D0F
330
D0E
100
AcDbDictionary
280
     1
281
     1
  0
DICTIONARY
  5
D12
330
D11
100
AcDbDictionary
280
     1
281
     1
  3
ACAD_DIMASSOC
360
D13
  0
DICTIONARY
  5
D15
330
D14
100
AcDbDictionary
280
     1
281
     1
  3
ACAD_DIMASSOC
360
D16
  0
DICTIONARY
  5
D19
330
D18
100
AcDbDictionary
280
     1
281
     1
  3
ACAD_DIMASSOC
360
D1A
  0
DICTIONARY
  5
D1C
330
D1B
100
AcDbDictionary
280
     1
281
     1
  3
ACAD_DIMASSOC
360
D1D
  0
DICTIONARY
  5
D23
330
D22
100
AcDbDictionary
280
     1
281
     1
  3
ACAD_DIMASSOC
360
D24
  0
DICTIONARY
  5
D26
330
D25
100
AcDbDictionary
280
     1
281
     1
  3
ACAD_DIMASSOC
360
D27
  0
DICTIONARY
  5
EF4
330
EF2
100
AcDbDictionary
280
     1
281
     1
  3
ACAD_DIMASSOC
360
EF5
  0
DICTIONARY
  5
1406
330
1405
100
AcDbDictionary
280
     1
281
     1
  3
ACAD_DIMASSOC
360
1407
  0
DICTIONARY
  5
140C
330
140B
100
AcDbDictionary
280
     1
281
     1
  3
ACAD_DIMASSOC
360
140D
  0
DICTIONARY
  5
141A
330
1419
100
AcDbDictionary
280
     1
281
     1
  3
ACAD_DIMASSOC
360
141B
  0
DICTIONARY
  5
1421
330
1420
100
AcDbDictionary
280
     1
281
     1
  3
ACAD_DIMASSOC
360
1422
  0
DICTIONARY
  5
1515
330
1508
100
AcDbDictionary
280
     1
281
     1
  0
DICTIONARY
  5
1C
102
{ACAD_REACTORS
330
C
102
}
330
C
100
AcDbDictionary
281
     1
  0
DICTIONARY
  5
17F3
102
{ACAD_REACTORS
330
C
102
}
330
C
100
AcDbDictionary
281
     1
  0
DICTIONARY
  5
D
102
{ACAD_REACTORS
330
C
102
}
330
C
100
AcDbDictionary
281
     1
  0
RASTERVARIABLES
  5
17E5
102
{ACAD_REACTORS
330
C
102
}
330
C
100
AcDbRasterVariables
 90
        0
 70
     1
 71
     1
 72
     1
  0
DICTIONARY
  5
1A
102
{ACAD_REACTORS
330
C
102
}
330
C
100
AcDbDictionary
281
     1
  3
Model
350
24
  3
Sheet1
350
17E8
  0
DICTIONARY
  5
1B
102
{ACAD_REACTORS
330
C
102
}
330
C
100
AcDbDictionary
281
     1
  3
ByBlock
350
17DF
  3
ByLayer
350
17DE
  3
Global
350
17E0
  0
DICTIONARY
  5
17F0
102
{ACAD_REACTORS
330
C
102
}
330
C
100
AcDbDictionary
281
     1
  0
DICTIONARY
  5
17
102
{ACAD_REACTORS
330
C
102
}
330
C
100
AcDbDictionary
281
     1
  3
Standard
350
18
  0
DICTIONARY
  5
19
102
{ACAD_REACTORS
330
C
102
}
330
C
100
AcDbDictionary
281
     1
  0
ACDBDICTIONARYWDFLT
  5
E
102
{ACAD_REACTORS
330
C
102
}
330
C
100
AcDbDictionary
281
     1
  3
Normal
350
F
100
AcDbDictionaryWithDefault
340
F
  0
DICTIONARY
  5
17BC
102
{ACAD_REACTORS
330
C
102
}
330
C
100
AcDbDictionary
281
     1
  3
A0
350
17BD
  3
A1
350
17BE
  3
A2
350
17BF
  3
A3
350
17C0
  3
A4
350
17C1
  3
A5
350
17C2
  3
A6
350
17C3
  3
A7
350
17C4
  3
A8
350
17C5
  3
A9
350
17C6
  3
B0
350
17C7
  3
B1
350
17C8
  3
B2
350
17C9
  3
B3
350
17CA
  3
B4
350
17CB
  3
B5
350
17CC
  3
B6
350
17CD
  3
B7
350
17CE
  3
B8
350
17CF
  3
B9
350
17D0
  3
C0
350
17D1
  3
C1
350
17D2
  3
C2
350
17D3
  3
C3
350
17D4
  3
C4
350
17D5
  3
C5
350
17D6
  3
C6
350
17D7
  3
C7
350
17D8
  3
C8
350
17D9
  3
C9
350
17DA
  3
D0
350
17DB
  3
D1
350
17DC
  3
D2
350
17DD
  0
DICTIONARY
  5
17F4
102
{ACAD_REACTORS
330
C
102
}
330
C
100
AcDbDictionary
281
     1
  0
DICTIONARY
  5
17E1
102
{ACAD_REACTORS
330
C
102
}
330
C
100
AcDbDictionary
281
     1
  3
Standard
350
17E2
  0
DICTIONARY
  5
17A3
102
{ACAD_REACTORS
330
C
102
}
330
C
100
AcDbDictionary
281
     1
  3
2dWireframe
350
17A8
  3
Basic
350
17AB
  3
Brighten
350
17AF
  3
ColorChange
350
17B3
  3
Conceptual
350
17AD
  3
Dim
350
17AE
  3
EdgeColorOff
350
17B6
  3
Facepattern
350
17B2
  3
Flat
350
17A4
  3
FlatWithEdges
350
17A5
  3
Gouraud
350
17A6
  3
GouraudWithEdges
350
17A7
  3
Hidden
350
17AA
  3
JitterOff
350
17B4
  3
Linepattern
350
17B1
  3
OverhangOff
350
17B5
  3
Realistic
350
17AC
  3
Shaded
350
17BB
  3
Shaded with edges
350
17BA
  3
Shades of Gray
350
17B7
  3
Sketchy
350
17B8
  3
Thicken
350
17B0
  3
Wireframe
350
17A9
  3
X-Ray
350
17B9
  0
XRECORD
  5
657
102
{ACAD_REACTORS
330
C
102
}
330
C
100
AcDbXrecord
280
     1
 90
   990106
  3

 60
     0
 61
     0
 62
     4
 63
     4
 64
     1
 65
     0
 66
     0
 67
     3
 68
     1
 69
     0
 70
     0
 71
     0
 72
     0
 40
0.0
170
     2
340
EF3
  0
XRECORD
  5
1824
102
{ACAD_REACTORS
330
C
102
}
330
C
100
AcDbXrecord
280
     1
 90
        1
330
17E2
  0
DICTIONARY
  5
1785
102
{ACAD_REACTORS
330
C
102
}
330
C
100
AcDbDictionary
281
     1
  3
CANNOSCALE
350
17EB
  3
CTABLESTYLE
350
17EF
  3
DIMASSOC
350
1787
  3
HIDETEXT
350
1786
  3
MSLTSCALE
350
17F1
  3
PROJECTNAME
350
1788
  3
XCLIPFRAME
350
17F2
  0
DICTIONARY
  5
17E3
102
{ACAD_REACTORS
330
C
102
}
330
C
100
AcDbDictionary
281
     1
  0
DICTIONARY
  5
1568
102
{ACAD_REACTORS
330
1546
102
}
330
1546
100
AcDbDictionary
281
     1
  0
DICTIONARY
  5
1547
102
{ACAD_REACTORS
330
1546
102
}
330
1546
100
AcDbDictionary
281
     1
  3
画層
350
156D
  0
DIMASSOC
  5
D13
102
{ACAD_REACTORS
330
D12
102
}
330
D12
100
AcDbDimAssoc
330
D11
 90
        2
 70
     0
 71
     0
  1
AcDbOsnapPointRef
 72
    13
331
D17
 73
     2
 91
        0
 40
0.0
 10
0.0
 20
0.0
 30
2.000000000000000E+50
 75
     0
  0
DIMASSOC
  5
D16
102
{ACAD_REACTORS
330
D15
102
}
330
D15
100
AcDbDimAssoc
330
D14
 90
        3
 70
     0
 71
     0
  1
AcDbOsnapPointRef
 72
     6
331
D21
 73
     2
 91
        0
 40
0.7971007843262793
 10
0.0
 20
0.0
 30
0.0
332
D3C
 74
     2
 92
        0
 75
     0
  1
AcDbOsnapPointRef
 72
     1
331
D20
 73
     2
 91
        0
 40
1.0
 10
0.0
 20
0.0
 30
2.000000000000000E+50
 75
     0
  0
DIMASSOC
  5
D1A
102
{ACAD_REACTORS
330
D19
102
}
330
D19
100
AcDbDimAssoc
330
D18
 90
        3
 70
     0
 71
     0
  1
AcDbOsnapPointRef
 72
     6
331
D20
 73
     2
 91
        0
 40
0.8584651224487634
 10
0.0
 20
0.0
 30
0.0
332
D3C
 74
     2
 92
        0
 75
     0
  1
AcDbOsnapPointRef
 72
     6
331
D1F
 73
     2
 91
        0
 40
0.8852138574067738
 10
0.0
 20
0.0
 30
0.0
332
D3C
 74
     2
 92
        0
 75
     0
  0
DIMASSOC
  5
D1D
102
{ACAD_REACTORS
330
D1C
102
}
330
D1C
100
AcDbDimAssoc
330
D1B
 90
        1
 70
     0
 71
     0
  1
AcDbOsnapPointRef
 72
     6
331
D20
 73
     2
 91
        0
 40
0.6622445230319032
 10
0.0
 20
0.0
 30
0.0
332
D39
 74
     2
 92
        0
 75
     0
  0
DIMASSOC
  5
D24
102
{ACAD_REACTORS
330
D23
102
}
330
D23
100
AcDbDimAssoc
330
D22
 90
        3
 70
     0
 71
     0
  1
AcDbOsnapPointRef
 72
    13
331
D30
 73
     2
 91
        0
 40
0.0
 10
0.0
 20
0.0
 30
2.000000000000000E+50
 75
     0
  1
AcDbOsnapPointRef
 72
     1
331
D2F
 73
     2
 91
        0
 40
1.0
 10
0.0
 20
0.0
 30
2.000000000000000E+50
 75
     0
  0
DIMASSOC
  5
D27
102
{ACAD_REACTORS
330
D26
102
}
330
D26
100
AcDbDimAssoc
330
D25
 90
        3
 70
     0
 71
     0
  1
AcDbOsnapPointRef
 72
     1
331
D2F
 73
     2
 91
        0
 40
1.0
 10
0.0
 20
0.0
 30
2.000000000000000E+50
 75
     0
  1
AcDbOsnapPointRef
 72
    13
331
D2F
 73
     2
 91
        0
 40
0.0
 10
0.0
 20
0.0
 30
2.000000000000000E+50
 75
     0
  0
DIMASSOC
  5
EF5
102
{ACAD_REACTORS
330
EF4
102
}
330
EF4
100
AcDbDimAssoc
330
EF2
 90
        1
 70
     0
 71
     0
  1
AcDbOsnapPointRef
 72
     3
331
D3B
 73
     2
 91
        0
 40
1.737641715581558
 10
0.0
 20
0.0
 30
0.0
 75
     0
  0
DIMASSOC
  5
1407
102
{ACAD_REACTORS
330
1406
102
}
330
1406
100
AcDbDimAssoc
330
1405
 90
        3
 70
     0
 71
     0
  1
AcDbOsnapPointRef
 72
     1
331
1408
 73
     2
 91
        3
 40
1.0
 10
0.0
 20
0.0
 30
2.000000000000000E+50
 75
     0
  1
AcDbOsnapPointRef
 72
     1
331
1408
 73
     2
 91
        5
 40
1.0
 10
0.0
 20
0.0
 30
2.000000000000000E+50
 75
     0
  0
DIMASSOC
  5
140D
102
{ACAD_REACTORS
330
140C
102
}
330
140C
100
AcDbDimAssoc
330
140B
 90
        1
 70
     0
 71
     0
  1
AcDbOsnapPointRef
 72
     1
331
141C
 73
     2
 91
        2
 40
0.9999999999999999
 10
0.0
 20
0.0
 30
2.000000000000000E+50
 75
     0
  0
DIMASSOC
  5
141B
102
{ACAD_REACTORS
330
141A
102
}
330
141A
100
AcDbDimAssoc
330
1419
 90
        1
 70
     0
 71
     0
  1
AcDbOsnapPointRef
 72
     1
331
1416
 73
     2
 91
        1
 40
1.0
 10
0.0
 20
0.0
 30
2.000000000000000E+50
 75
     0
  0
DIMASSOC
  5
1422
102
{ACAD_REACTORS
330
1421
102
}
330
1421
100
AcDbDimAssoc
330
1420
 90
        3
 70
     0
 71
     0
  1
AcDbOsnapPointRef
 72
    13
331
141D
 73
     2
 91
        0
 40
0.0
 10
0.0
 20
0.0
 30
2.000000000000000E+50
 75
     0
  1
AcDbOsnapPointRef
 72
     1
331
141D
 73
     2
 91
        0
 40
1.0
 10
0.0
 20
0.0
 30
2.000000000000000E+50
 75
     0
  0
LAYOUT
  5
24
102
{ACAD_REACTORS
330
1A
102
}
330
1A
100
AcDbPlotSettings
  1

  2
\\NEC\EPSON
  4
A4
  6

 40
3.757083177566528
 41
14.7637300491333
 42
3.757080078125
 43
3.757080078125
 44
209.9733276367188
 45
296.9683227539062
 46
10.0
 47
5.0
 48
0.0
 49
0.0
140
0.0
141
0.0
142
1.0
143
1.1
 70
 11936
 72
     1
 73
     1
 74
     1
  7

 75
     0
 76
     0
 77
     2
 78
   180
147
0.9090909090909091
148
0.025633200973175
149
0.0181263349739993
100
AcDbLayout
  1
Model
 70
     1
 71
     0
 10
0.0
 20
0.0
 11
12.0
 21
9.0
 12
0.0
 22
0.0
 32
0.0
 14
38.91252621778449
 24
54.62144221697378
 34
0.0
 15
370.1768024177838
 25
253.4943712681111
 35
0.0
146
0.0
 13
0.0
 23
0.0
 33
0.0
 16
1.0
 26
0.0
 36
0.0
 17
0.0
 27
1.0
 37
0.0
 76
     0
330
21
331
178F
  0
LAYOUT
  5
17E8
102
{ACAD_REACTORS
330
1A
102
}
330
1A
100
AcDbPlotSettings
  1

  2
none_device
  4

  6

 40
0.0
 41
0.0
 42
0.0
 43
0.0
 44
0.0
 45
0.0
 46
0.0
 47
0.0
 48
0.0
 49
0.0
140
0.0
141
0.0
142
1.0
143
1.0
 70
   688
 72
     1
 73
     0
 74
     5
  7

 75
    16
 76
     0
 77
     2
 78
   300
147
1.0
148
0.0
149
0.0
100
AcDbLayout
  1
Sheet1
 70
     1
 71
     1
 10
0.0
 20
0.0
 11
0.0
 21
0.0
 12
0.0
 22
0.0
 32
0.0
 14
0.0
 24
0.0
 34
0.0
 15
0.0
 25
0.0
 35
0.0
146
0.0
 13
0.0
 23
0.0
 33
0.0
 16
1.0
 26
0.0
 36
0.0
 17
0.0
 27
1.0
 37
0.0
 76
     0
330
17E7
  0
MATERIAL
  5
17DF
102
{ACAD_REACTORS
330
1B
102
}
330
1B
100
AcDbMaterial
  1
ByBlock
 72
     1
 94
      127
  0
MATERIAL
  5
17DE
102
{ACAD_REACTORS
330
1B
102
}
330
1B
100
AcDbMaterial
  1
ByLayer
 72
     1
 94
      127
  0
MATERIAL
  5
17E0
102
{ACAD_REACTORS
330
1B
102
}
330
1B
100
AcDbMaterial
  1
Global
 72
     1
 94
      127
  0
MLINESTYLE
  5
18
102
{ACAD_REACTORS
330
17
102
}
330
17
100
AcDbMlineStyle
  2
STANDARD
 70
     0
  3

 62
   256
 51
90.0
 52
90.0
 71
     2
 49
0.5
 62
   256
  6
BYLAYER
 49
-0.5
 62
   256
  6
BYLAYER
  0
ACDBPLACEHOLDER
  5
F
102
{ACAD_REACTORS
330
E
102
}
330
E
  0
SCALE
  5
17BD
102
{ACAD_REACTORS
330
17BC
102
}
330
17BC
100
AcDbScale
 70
     0
300
1:1
140
1.0
141
1.0
290
     1
  0
SCALE
  5
17BE
102
{ACAD_REACTORS
330
17BC
102
}
330
17BC
100
AcDbScale
 70
     0
300
1:2
140
1.0
141
2.0
290
     0
  0
SCALE
  5
17BF
102
{ACAD_REACTORS
330
17BC
102
}
330
17BC
100
AcDbScale
 70
     0
300
1:4
140
1.0
141
4.0
290
     0
  0
SCALE
  5
17C0
102
{ACAD_REACTORS
330
17BC
102
}
330
17BC
100
AcDbScale
 70
     0
300
1:5
140
1.0
141
5.0
290
     0
  0
SCALE
  5
17C1
102
{ACAD_REACTORS
330
17BC
102
}
330
17BC
100
AcDbScale
 70
     0
300
1:8
140
1.0
141
8.0
290
     0
  0
SCALE
  5
17C2
102
{ACAD_REACTORS
330
17BC
102
}
330
17BC
100
AcDbScale
 70
     0
300
1:10
140
1.0
141
10.0
290
     0
  0
SCALE
  5
17C3
102
{ACAD_REACTORS
330
17BC
102
}
330
17BC
100
AcDbScale
 70
     0
300
1:16
140
1.0
141
16.0
290
     0
  0
SCALE
  5
17C4
102
{ACAD_REACTORS
330
17BC
102
}
330
17BC
100
AcDbScale
 70
     0
300
1:20
140
1.0
141
20.0
290
     0
  0
SCALE
  5
17C5
102
{ACAD_REACTORS
330
17BC
102
}
330
17BC
100
AcDbScale
 70
     0
300
1:30
140
1.0
141
30.0
290
     0
  0
SCALE
  5
17C6
102
{ACAD_REACTORS
330
17BC
102
}
330
17BC
100
AcDbScale
 70
     0
300
1:40
140
1.0
141
40.0
290
     0
  0
SCALE
  5
17C7
102
{ACAD_REACTORS
330
17BC
102
}
330
17BC
100
AcDbScale
 70
     0
300
1:50
140
1.0
141
50.0
290
     0
  0
SCALE
  5
17C8
102
{ACAD_REACTORS
330
17BC
102
}
330
17BC
100
AcDbScale
 70
     0
300
1:100
140
1.0
141
100.0
290
     0
  0
SCALE
  5
17C9
102
{ACAD_REACTORS
330
17BC
102
}
330
17BC
100
AcDbScale
 70
     0
300
2:1
140
2.0
141
1.0
290
     0
  0
SCALE
  5
17CA
102
{ACAD_REACTORS
330
17BC
102
}
330
17BC
100
AcDbScale
 70
     0
300
4:1
140
4.0
141
1.0
290
     0
  0
SCALE
  5
17CB
102
{ACAD_REACTORS
330
17BC
102
}
330
17BC
100
AcDbScale
 70
     0
300
8:1
140
8.0
141
1.0
290
     0
  0
SCALE
  5
17CC
102
{ACAD_REACTORS
330
17BC
102
}
330
17BC
100
AcDbScale
 70
     0
300
10:1
140
10.0
141
1.0
290
     0
  0
SCALE
  5
17CD
102
{ACAD_REACTORS
330
17BC
102
}
330
17BC
100
AcDbScale
 70
     0
300
100:1
140
100.0
141
1.0
290
     0
  0
SCALE
  5
17CE
102
{ACAD_REACTORS
330
17BC
102
}
330
17BC
100
AcDbScale
 70
     0
300
1/128" = 1'-0"
140
0.0078125
141
12.0
290
     0
  0
SCALE
  5
17CF
102
{ACAD_REACTORS
330
17BC
102
}
330
17BC
100
AcDbScale
 70
     0
300
1/64" = 1'-0"
140
0.015625
141
12.0
290
     0
  0
SCALE
  5
17D0
102
{ACAD_REACTORS
330
17BC
102
}
330
17BC
100
AcDbScale
 70
     0
300
1/32" = 1'-0"
140
0.03125
141
12.0
290
     0
  0
SCALE
  5
17D1
102
{ACAD_REACTORS
330
17BC
102
}
330
17BC
100
AcDbScale
 70
     0
300
1/16" = 1'-0"
140
0.0625
141
12.0
290
     0
  0
SCALE
  5
17D2
102
{ACAD_REACTORS
330
17BC
102
}
330
17BC
100
AcDbScale
 70
     0
300
3/32" = 1'-0"
140
0.09375
141
12.0
290
     0
  0
SCALE
  5
17D3
102
{ACAD_REACTORS
330
17BC
102
}
330
17BC
100
AcDbScale
 70
     0
300
1/8" = 1'-0"
140
0.125
141
12.0
290
     0
  0
SCALE
  5
17D4
102
{ACAD_REACTORS
330
17BC
102
}
330
17BC
100
AcDbScale
 70
     0
300
3/16" = 1'-0"
140
0.1875
141
12.0
290
     0
  0
SCALE
  5
17D5
102
{ACAD_REACTORS
330
17BC
102
}
330
17BC
100
AcDbScale
 70
     0
300
1/4" = 1'-0"
140
0.25
141
12.0
290
     0
  0
SCALE
  5
17D6
102
{ACAD_REACTORS
330
17BC
102
}
330
17BC
100
AcDbScale
 70
     0
300
3/8" = 1'-0"
140
0.375
141
12.0
290
     0
  0
SCALE
  5
17D7
102
{ACAD_REACTORS
330
17BC
102
}
330
17BC
100
AcDbScale
 70
     0
300
1/2" = 1'-0"
140
0.5
141
12.0
290
     0
  0
SCALE
  5
17D8
102
{ACAD_REACTORS
330
17BC
102
}
330
17BC
100
AcDbScale
 70
     0
300
3/4" = 1'-0"
140
0.75
141
12.0
290
     0
  0
SCALE
  5
17D9
102
{ACAD_REACTORS
330
17BC
102
}
330
17BC
100
AcDbScale
 70
     0
300
1" = 1'-0"
140
1.0
141
12.0
290
     0
  0
SCALE
  5
17DA
102
{ACAD_REACTORS
330
17BC
102
}
330
17BC
100
AcDbScale
 70
     0
300
1-1/2" = 1'-0"
140
1.5
141
12.0
290
     0
  0
SCALE
  5
17DB
102
{ACAD_REACTORS
330
17BC
102
}
330
17BC
100
AcDbScale
 70
     0
300
3" = 1'-0"
140
3.0
141
12.0
290
     0
  0
SCALE
  5
17DC
102
{ACAD_REACTORS
330
17BC
102
}
330
17BC
100
AcDbScale
 70
     0
300
6" = 1'-0"
140
6.0
141
12.0
290
     0
  0
SCALE
  5
17DD
102
{ACAD_REACTORS
330
17BC
102
}
330
17BC
100
AcDbScale
 70
     0
300
1'-0" = 1'-0"
140
12.0
141
12.0
290
     0
  0
TABLESTYLE
  5
17E2
102
{ACAD_REACTORS
330
17E1
102
}
102
{ACAD_XDICTIONARY
360
1822
102
}
330
17E1
100
AcDbTableStyle
  3
Standard
 70
     0
 71
     0
 40
0.06
 41
0.06
280
     0
281
     0
  7
Standard
140
4.5
170
     2
 62
     0
 63
   257
283
     0
 90
        4
 91
        0
  1

274
    -2
284
     1
 64
     0
275
    -2
285
     1
 65
     0
276
    -2
286
     1
 66
     0
277
    -2
287
     1
 67
     0
278
    -2
288
     1
 68
     0
279
    -2
289
     1
 69
     0
  7
Standard
140
6.0
170
     5
 62
     0
 63
   257
283
     0
 90
        4
 91
        0
  1

274
    -2
284
     1
 64
     0
275
    -2
285
     1
 65
     0
276
    -2
286
     1
 66
     0
277
    -2
287
     1
 67
     0
278
    -2
288
     1
 68
     0
279
    -2
289
     1
 69
     0
  7
Standard
140
4.5
170
     5
 62
     0
 63
   257
283
     0
 90
        4
 91
        0
  1

274
    -2
284
     1
 64
     0
275
    -2
285
     1
 65
     0
276
    -2
286
     1
 66
     0
277
    -2
287
     1
 67
     0
278
    -2
288
     1
 68
     0
279
    -2
289
     1
 69
     0
  0
VISUALSTYLE
  5
17A8
102
{ACAD_REACTORS
330
17A3
102
}
330
17A3
100
AcDbVisualStyle
  2
2dWireframe
 70
     4
177
     3
291
     0
 70
    58
 90
        0
176
     1
 90
        2
176
     1
 90
        0
176
     1
 90
        0
176
     1
 40
0.6
176
     1
 40
30.0
176
     1
 62
     7
420
 16777215
176
     1
 90
        1
176
     1
 90
        4
176
     1
 62
     7
176
     1
 62
   257
176
     1
 90
        1
176
     1
 90
        1
176
     1
 40
1.0
176
     1
 90
        0
176
     1
 62
   257
176
     1
 40
1.0
176
     1
 90
        1
176
     1
 90
        6
176
     1
 90
        2
176
     1
 62
     7
176
     1
 90
        5
176
     1
 90
        0
176
     1
 90
        0
176
     1
290
     0
176
     1
 90
        1
176
     1
 40
0.0
176
     1
 90
        0
176
     1
290
     1
176
     1
290
     1
176
     1
290
     0
176
     1
290
     0
176
     1
290
     0
176
     1
290
     0
176
     1
290
     0
176
     1
290
     0
176
     1
290
     0
176
     1
 90
       50
176
     1
 40
0.0
176
     1
 40
1.0
176
     1
 90
        0
176
     1
 62
    18
420
        0
176
     1
 90
       50
176
     1
 90
        3
176
     1
 62
     5
420
      255
176
     1
290
     0
176
     1
 90
       50
176
     1
 90
       50
176
     1
 90
       50
176
     1
290
     0
176
     1
 90
       50
176
     1
 62
   256
176
     0
 40
1.0
176
     0
 90
        2
176
     1
  1
strokes_ogs.tif
176
     1
290
     0
176
     1
 40
1.0
176
     1
 40
1.0
176
     1
  0
VISUALSTYLE
  5
17AB
102
{ACAD_REACTORS
330
17A3
102
}
330
17A3
100
AcDbVisualStyle
  2
Basic
 70
     7
177
     3
291
     1
 70
    58
 90
        1
176
     1
 90
        0
176
     1
 90
        1
176
     1
 90
        0
176
     1
 40
0.6
176
     1
 40
30.0
176
     1
 62
     7
420
 16777215
176
     1
 90
        0
176
     1
 90
        4
176
     1
 62
     7
176
     1
 62
   257
176
     1
 90
        1
176
     1
 90
        1
176
     1
 40
1.0
176
     1
 90
        8
176
     1
 62
     7
176
     1
 40
1.0
176
     1
 90
        1
176
     1
 90
        6
176
     1
 90
        2
176
     1
 62
     7
176
     1
 90
        5
176
     1
 90
        0
176
     1
 90
        0
176
     1
290
     0
176
     1
 90
        1
176
     1
 40
0.0
176
     1
 90
        0
176
     1
290
     0
176
     1
290
     1
176
     1
290
     1
176
     1
290
     0
176
     1
290
     0
176
     1
290
     0
176
     1
290
     0
176
     1
290
     0
176
     1
290
     0
176
     1
 90
       50
176
     1
 40
0.0
176
     1
 40
1.0
176
     1
 90
        0
176
     1
 62
    18
420
        0
176
     1
 90
       50
176
     1
 90
        3
176
     1
 62
     5
420
      255
176
     1
290
     0
176
     1
 90
       50
176
     1
 90
       50
176
     1
 90
       50
176
     1
290
     0
176
     1
 90
       50
176
     1
 62
   256
176
     0
 40
1.0
176
     0
 90
        2
176
     1
  1
strokes_ogs.tif
176
     1
290
     0
176
     1
 40
1.0
176
     1
 40
1.0
176
     1
  0
VISUALSTYLE
  5
17AF
102
{ACAD_REACTORS
330
17A3
102
}
330
17A3
100
AcDbVisualStyle
  2
Brighten
 70
    12
177
     3
291
     1
 70
    58
 90
        2
176
     1
 90
        2
176
     1
 90
        0
176
     1
 90
        0
176
     1
 40
0.6
176
     1
 40
30.0
176
     1
 62
     7
420
 16777215
176
     1
 90
        1
176
     1
 90
        4
176
     1
 62
     7
176
     1
 62
   257
176
     1
 90
        1
176
     1
 90
        1
176
     1
 40
1.0
176
     1
 90
        8
176
     1
 62
     7
176
     1
 40
1.0
176
     1
 90
        1
176
     1
 90
        6
176
     1
 90
        2
176
     1
 62
     7
176
     1
 90
        5
176
     1
 90
        0
176
     1
 90
        0
176
     1
290
     0
176
     1
 90
        1
176
     1
 40
50.0
176
     1
 90
        0
176
     1
290
     0
176
     1
290
     1
176
     1
290
     1
176
     1
290
     0
176
     1
290
     0
176
     1
290
     0
176
     1
290
     0
176
     1
290
     0
176
     1
290
     0
176
     1
 90
       50
176
     1
 40
0.0
176
     1
 40
1.0
176
     1
 90
        0
176
     1
 62
    18
420
        0
176
     1
 90
       50
176
     1
 90
        3
176
     1
 62
     5
420
      255
176
     1
290
     0
176
     1
 90
       50
176
     1
 90
       50
176
     1
 90
       50
176
     1
290
     0
176
     1
 90
       50
176
     1
 62
   256
176
     0
 40
1.0
176
     0
 90
        2
176
     1
  1
strokes_ogs.tif
176
     1
290
     0
176
     1
 40
1.0
176
     1
 40
1.0
176
     1
  0
VISUALSTYLE
  5
17B3
102
{ACAD_REACTORS
330
17A3
102
}
330
17A3
100
AcDbVisualStyle
  2
ColorChange
 70
    16
177
     3
291
     1
 70
    58
 90
        2
176
     1
 90
        2
176
     1
 90
        3
176
     1
 90
        0
176
     1
 40
0.6
176
     1
 40
30.0
176
     1
 62
     8
420
  8421504
176
     1
 90
        1
176
     1
 90
        4
176
     1
 62
     7
176
     1
 62
   257
176
     1
 90
        1
176
     1
 90
        1
176
     1
 40
1.0
176
     1
 90
        8
176
     1
 62
     8
420
  8421504
176
     1
 40
1.0
176
     1
 90
        1
176
     1
 90
        6
176
     1
 90
        2
176
     1
 62
     7
176
     1
 90
        5
176
     1
 90
        0
176
     1
 90
        0
176
     1
290
     0
176
     1
 90
        1
176
     1
 40
0.0
176
     1
 90
        0
176
     1
290
     0
176
     1
290
     1
176
     1
290
     1
176
     1
290
     0
176
     1
290
     0
176
     1
290
     0
176
     1
290
     0
176
     1
290
     0
176
     1
290
     0
176
     1
 90
       50
176
     1
 40
0.0
176
     1
 40
1.0
176
     1
 90
        0
176
     1
 62
    18
420
        0
176
     1
 90
       50
176
     1
 90
        3
176
     1
 62
     5
420
      255
176
     1
290
     0
176
     1
 90
       50
176
     1
 90
       50
176
     1
 90
       50
176
     1
290
     0
176
     1
 90
       50
176
     1
 62
   256
176
     0
 40
1.0
176
     0
 90
        2
176
     1
  1
strokes_ogs.tif
176
     1
290
     0
176
     1
 40
1.0
176
     1
 40
1.0
176
     1
  0
VISUALSTYLE
  5
17AD
102
{ACAD_REACTORS
330
17A3
102
}
330
17A3
100
AcDbVisualStyle
  2
Conceptual
 70
     9
177
     3
291
     0
 70
    58
 90
        3
176
     1
 90
        2
176
     1
 90
        0
176
     1
 90
        0
176
     1
 40
0.6
176
     1
 40
30.0
176
     1
 62
     7
420
 16777215
176
     1
 90
        2
176
     1
 90
        2
176
     1
 62
     7
176
     1
 62
   257
176
     1
 90
        1
176
     1
 90
        1
176
     1
 40
179.0
176
     1
 90
        8
176
     1
 62
     7
176
     1
 40
1.0
176
     1
 90
        1
176
     1
 90
        6
176
     1
 90
        2
176
     1
 62
     7
176
     1
 90
        3
176
     1
 90
        0
176
     1
 90
        0
176
     1
290
     0
176
     1
 90
        1
176
     1
 40
0.0
176
     1
 90
        0
176
     1
290
     0
176
     1
290
     1
176
     1
290
     1
176
     1
290
     0
176
     1
290
     0
176
     1
290
     0
176
     1
290
     0
176
     1
290
     0
176
     1
290
     0
176
     1
 90
       50
176
     1
 40
0.0
176
     1
 40
1.0
176
     1
 90
        0
176
     1
 62
    18
420
        0
176
     1
 90
       50
176
     1
 90
        3
176
     1
 62
     5
420
      255
176
     1
290
     0
176
     1
 90
       50
176
     1
 90
       50
176
     1
 90
       50
176
     1
290
     0
176
     1
 90
       50
176
     1
 62
   256
176
     0
 40
1.0
176
     0
 90
        2
176
     1
  1
strokes_ogs.tif
176
     1
290
     0
176
     1
 40
1.0
176
     1
 40
1.0
176
     1
  0
VISUALSTYLE
  5
17AE
102
{ACAD_REACTORS
330
17A3
102
}
330
17A3
100
AcDbVisualStyle
  2
Dim
 70
    11
177
     3
291
     1
 70
    58
 90
        2
176
     1
 90
        2
176
     1
 90
        0
176
     1
 90
        0
176
     1
 40
0.6
176
     1
 40
30.0
176
     1
 62
     7
420
 16777215
176
     1
 90
        1
176
     1
 90
        4
176
     1
 62
     7
176
     1
 62
   257
176
     1
 90
        1
176
     1
 90
        1
176
     1
 40
1.0
176
     1
 90
        8
176
     1
 62
     7
176
     1
 40
1.0
176
     1
 90
        1
176
     1
 90
        6
176
     1
 90
        2
176
     1
 62
     7
176
     1
 90
        5
176
     1
 90
        0
176
     1
 90
        0
176
     1
290
     0
176
     1
 90
        1
176
     1
 40
-50.0
176
     1
 90
        0
176
     1
290
     0
176
     1
290
     1
176
     1
290
     1
176
     1
290
     0
176
     1
290
     0
176
     1
290
     0
176
     1
290
     0
176
     1
290
     0
176
     1
290
     0
176
     1
 90
       50
176
     1
 40
0.0
176
     1
 40
1.0
176
     1
 90
        0
176
     1
 62
    18
420
        0
176
     1
 90
       50
176
     1
 90
        3
176
     1
 62
     5
420
      255
176
     1
290
     0
176
     1
 90
       50
176
     1
 90
       50
176
     1
 90
       50
176
     1
290
     0
176
     1
 90
       50
176
     1
 62
   256
176
     0
 40
1.0
176
     0
 90
        2
176
     1
  1
strokes_ogs.tif
176
     1
290
     0
176
     1
 40
1.0
176
     1
 40
1.0
176
     1
  0
VISUALSTYLE
  5
17B6
102
{ACAD_REACTORS
330
17A3
102
}
330
17A3
100
AcDbVisualStyle
  2
EdgeColorOff
 70
    22
177
     3
291
     1
 70
    58
 90
        2
176
     0
 90
        2
176
     0
 90
        0
176
     0
 90
        0
176
     0
 40
0.6
176
     0
 40
30.0
176
     0
 62
     7
420
 16777215
176
     0
 90
        1
176
     0
 90
        4
176
     0
 62
     7
176
     0
 62
   257
176
     0
 90
        1
176
     0
 90
        1
176
     0
 40
1.0
176
     0
 90
        8
176
     2
 62
     7
176
     0
 40
1.0
176
     0
 90
        1
176
     0
 90
        6
176
     0
 90
        2
176
     0
 62
     7
176
     0
 90
        5
176
     0
 90
        0
176
     0
 90
        0
176
     0
290
     0
176
     0
 90
        1
176
     0
 40
0.0
176
     0
 90
        0
176
     0
290
     0
176
     0
290
     1
176
     0
290
     1
176
     0
290
     0
176
     0
290
     0
176
     0
290
     0
176
     0
290
     0
176
     0
290
     0
176
     0
290
     0
176
     0
 90
       50
176
     0
 40
0.0
176
     0
 40
1.0
176
     0
 90
        0
176
     0
 62
    18
420
        0
176
     0
 90
       50
176
     0
 90
        3
176
     0
 62
     5
420
      255
176
     0
290
     0
176
     0
 90
       50
176
     0
 90
       50
176
     0
 90
       50
176
     0
290
     0
176
     0
 90
       50
176
     0
 62
   256
176
     0
 40
1.0
176
     0
 90
        2
176
     0
  1
strokes_ogs.tif
176
     0
290
     0
176
     0
 40
1.0
176
     0
 40
1.0
176
     0
  0
VISUALSTYLE
  5
17B2
102
{ACAD_REACTORS
330
17A3
102
}
330
17A3
100
AcDbVisualStyle
  2
Facepattern
 70
    15
177
     3
291
     1
 70
    58
 90
        2
176
     1
 90
        2
176
     1
 90
        0
176
     1
 90
        0
176
     1
 40
0.6
176
     1
 40
30.0
176
     1
 62
     7
420
 16777215
176
     1
 90
        1
176
     1
 90
        4
176
     1
 62
     7
176
     1
 62
   257
176
     1
 90
        1
176
     1
 90
        1
176
     1
 40
1.0
176
     1
 90
        8
176
     1
 62
     7
176
     1
 40
1.0
176
     1
 90
        1
176
     1
 90
        6
176
     1
 90
        2
176
     1
 62
     7
176
     1
 90
        5
176
     1
 90
        0
176
     1
 90
        0
176
     1
290
     0
176
     1
 90
        1
176
     1
 40
0.0
176
     1
 90
        0
176
     1
290
     0
176
     1
290
     1
176
     1
290
     1
176
     1
290
     0
176
     1
290
     0
176
     1
290
     0
176
     1
290
     0
176
     1
290
     0
176
     1
290
     0
176
     1
 90
       50
176
     1
 40
0.0
176
     1
 40
1.0
176
     1
 90
        0
176
     1
 62
    18
420
        0
176
     1
 90
       50
176
     1
 90
        3
176
     1
 62
     5
420
      255
176
     1
290
     0
176
     1
 90
       50
176
     1
 90
       50
176
     1
 90
       50
176
     1
290
     0
176
     1
 90
       50
176
     1
 62
   256
176
     0
 40
1.0
176
     0
 90
        2
176
     1
  1
strokes_ogs.tif
176
     1
290
     0
176
     1
 40
1.0
176
     1
 40
1.0
176
     1
  0
VISUALSTYLE
  5
17A4
102
{ACAD_REACTORS
330
17A3
102
}
330
17A3
100
AcDbVisualStyle
  2
Flat
 70
     0
177
     3
291
     1
 70
    58
 90
        2
176
     1
 90
        1
176
     1
 90
        1
176
     1
 90
        2
176
     1
 40
0.6
176
     1
 40
30.0
176
     1
 62
     7
420
 16777215
176
     1
 90
        0
176
     1
 90
        0
176
     1
 62
     7
176
     1
 62
   257
176
     1
 90
        1
176
     1
 90
        1
176
     1
 40
1.0
176
     1
 90
        8
176
     1
 62
     7
176
     1
 40
1.0
176
     1
 90
        1
176
     1
 90
        6
176
     1
 90
        2
176
     1
 62
     7
176
     1
 90
        5
176
     1
 90
        0
176
     1
 90
        0
176
     1
290
     0
176
     1
 90
       13
176
     1
 40
0.0
176
     1
 90
        0
176
     1
290
     0
176
     1
290
     1
176
     1
290
     1
176
     1
290
     0
176
     1
290
     0
176
     1
290
     0
176
     1
290
     0
176
     1
290
     0
176
     1
290
     0
176
     1
 90
       50
176
     1
 40
0.0
176
     1
 40
1.0
176
     1
 90
        0
176
     1
 62
    18
420
        0
176
     1
 90
       50
176
     1
 90
        3
176
     1
 62
     5
420
      255
176
     1
290
     0
176
     1
 90
       50
176
     1
 90
       50
176
     1
 90
       50
176
     1
290
     0
176
     1
 90
       50
176
     1
 62
   256
176
     0
 40
1.0
176
     0
 90
        2
176
     1
  1
strokes_ogs.tif
176
     1
290
     0
176
     1
 40
1.0
176
     1
 40
1.0
176
     1
  0
VISUALSTYLE
  5
17A5
102
{ACAD_REACTORS
330
17A3
102
}
330
17A3
100
AcDbVisualStyle
  2
FlatWithEdges
 70
     1
177
     3
291
     1
 70
    58
 90
        2
176
     1
 90
        1
176
     1
 90
        1
176
     1
 90
        2
176
     1
 40
0.6
176
     1
 40
30.0
176
     1
 62
     7
420
 16777215
176
     1
 90
        1
176
     1
 90
        0
176
     1
 62
     7
176
     1
 62
   257
176
     1
 90
        1
176
     1
 90
        1
176
     1
 40
1.0
176
     1
 90
        0
176
     1
 62
   257
176
     1
 40
1.0
176
     1
 90
        1
176
     1
 90
        6
176
     1
 90
        2
176
     1
 62
     7
176
     1
 90
        5
176
     1
 90
        0
176
     1
 90
        0
176
     1
290
     0
176
     1
 90
       13
176
     1
 40
0.0
176
     1
 90
        0
176
     1
290
     0
176
     1
290
     1
176
     1
290
     1
176
     1
290
     0
176
     1
290
     0
176
     1
290
     0
176
     1
290
     0
176
     1
290
     0
176
     1
290
     0
176
     1
 90
       50
176
     1
 40
0.0
176
     1
 40
1.0
176
     1
 90
        0
176
     1
 62
    18
420
        0
176
     1
 90
       50
176
     1
 90
        3
176
     1
 62
     5
420
      255
176
     1
290
     0
176
     1
 90
       50
176
     1
 90
       50
176
     1
 90
       50
176
     1
290
     0
176
     1
 90
       50
176
     1
 62
   256
176
     0
 40
1.0
176
     0
 90
        2
176
     1
  1
strokes_ogs.tif
176
     1
290
     0
176
     1
 40
1.0
176
     1
 40
1.0
176
     1
  0
VISUALSTYLE
  5
17A6
102
{ACAD_REACTORS
330
17A3
102
}
330
17A3
100
AcDbVisualStyle
  2
Gouraud
 70
     2
177
     3
291
     1
 70
    58
 90
        2
176
     1
 90
        2
176
     1
 90
        1
176
     1
 90
        2
176
     1
 40
0.6
176
     1
 40
30.0
176
     1
 62
     7
420
 16777215
176
     1
 90
        0
176
     1
 90
        0
176
     1
 62
     7
176
     1
 62
   257
176
     1
 90
        1
176
     1
 90
        1
176
     1
 40
1.0
176
     1
 90
        0
176
     1
 62
     7
176
     1
 40
1.0
176
     1
 90
        1
176
     1
 90
        6
176
     1
 90
        2
176
     1
 62
     7
176
     1
 90
        5
176
     1
 90
        0
176
     1
 90
        0
176
     1
290
     0
176
     1
 90
       13
176
     1
 40
0.0
176
     1
 90
        0
176
     1
290
     0
176
     1
290
     1
176
     1
290
     1
176
     1
290
     0
176
     1
290
     0
176
     1
290
     0
176
     1
290
     0
176
     1
290
     0
176
     1
290
     0
176
     1
 90
       50
176
     1
 40
0.0
176
     1
 40
1.0
176
     1
 90
        0
176
     1
 62
    18
420
        0
176
     1
 90
       50
176
     1
 90
        3
176
     1
 62
     5
420
      255
176
     1
290
     0
176
     1
 90
       50
176
     1
 90
       50
176
     1
 90
       50
176
     1
290
     0
176
     1
 90
       50
176
     1
 62
   256
176
     0
 40
1.0
176
     0
 90
        2
176
     1
  1
strokes_ogs.tif
176
     1
290
     0
176
     1
 40
1.0
176
     1
 40
1.0
176
     1
  0
VISUALSTYLE
  5
17A7
102
{ACAD_REACTORS
330
17A3
102
}
330
17A3
100
AcDbVisualStyle
  2
GouraudWithEdges
 70
     3
177
     3
291
     1
 70
    58
 90
        2
176
     1
 90
        2
176
     1
 90
        1
176
     1
 90
        2
176
     1
 40
0.6
176
     1
 40
30.0
176
     1
 62
     7
420
 16777215
176
     1
 90
        1
176
     1
 90
        0
176
     1
 62
     7
176
     1
 62
   257
176
     1
 90
        1
176
     1
 90
        1
176
     1
 40
1.0
176
     1
 90
        0
176
     1
 62
   257
176
     1
 40
1.0
176
     1
 90
        1
176
     1
 90
        6
176
     1
 90
        2
176
     1
 62
     7
176
     1
 90
        5
176
     1
 90
        0
176
     1
 90
        0
176
     1
290
     0
176
     1
 90
       13
176
     1
 40
0.0
176
     1
 90
        0
176
     1
290
     0
176
     1
290
     1
176
     1
290
     1
176
     1
290
     0
176
     1
290
     0
176
     1
290
     0
176
     1
290
     0
176
     1
290
     0
176
     1
290
     0
176
     1
 90
       50
176
     1
 40
0.0
176
     1
 40
1.0
176
     1
 90
        0
176
     1
 62
    18
420
        0
176
     1
 90
       50
176
     1
 90
        3
176
     1
 62
     5
420
      255
176
     1
290
     0
176
     1
 90
       50
176
     1
 90
       50
176
     1
 90
       50
176
     1
290
     0
176
     1
 90
       50
176
     1
 62
   256
176
     0
 40
1.0
176
     0
 90
        2
176
     1
  1
strokes_ogs.tif
176
     1
290
     0
176
     1
 40
1.0
176
     1
 40
1.0
176
     1
  0
VISUALSTYLE
  5
17AA
102
{ACAD_REACTORS
330
17A3
102
}
330
17A3
100
AcDbVisualStyle
  2
Hidden
 70
     6
177
     3
291
     0
 70
    58
 90
        1
176
     1
 90
        2
176
     1
 90
        2
176
     1
 90
        0
176
     1
 40
0.6
176
     1
 40
30.0
176
     1
 62
     7
420
 16777215
176
     1
 90
        2
176
     1
 90
        2
176
     1
 62
     7
176
     1
 62
   257
176
     1
 90
        2
176
     1
 90
        1
176
     1
 40
40.0
176
     1
 90
        0
176
     1
 62
   257
176
     1
 40
1.0
176
     1
 90
        1
176
     1
 90
        6
176
     1
 90
        2
176
     1
 62
     7
176
     1
 90
        3
176
     1
 90
        0
176
     1
 90
        0
176
     1
290
     0
176
     1
 90
        1
176
     1
 40
0.0
176
     1
 90
        0
176
     1
290
     0
176
     1
290
     1
176
     1
290
     1
176
     1
290
     0
176
     1
290
     0
176
     1
290
     0
176
     1
290
     0
176
     1
290
     0
176
     1
290
     0
176
     1
 90
       50
176
     1
 40
0.0
176
     1
 40
1.0
176
     1
 90
        0
176
     1
 62
    18
420
        0
176
     1
 90
       50
176
     1
 90
        3
176
     1
 62
     5
420
      255
176
     1
290
     0
176
     1
 90
       50
176
     1
 90
       50
176
     1
 90
       50
176
     1
290
     0
176
     1
 90
       50
176
     1
 62
   256
176
     0
 40
1.0
176
     0
 90
        2
176
     1
  1
strokes_ogs.tif
176
     1
290
     0
176
     1
 40
1.0
176
     1
 40
1.0
176
     1
  0
VISUALSTYLE
  5
17B4
102
{ACAD_REACTORS
330
17A3
102
}
330
17A3
100
AcDbVisualStyle
  2
JitterOff
 70
    20
177
     3
291
     1
 70
    58
 90
        2
176
     0
 90
        2
176
     0
 90
        0
176
     0
 90
        0
176
     0
 40
0.6
176
     0
 40
30.0
176
     0
 62
     7
420
 16777215
176
     0
 90
        1
176
     0
 90
        4
176
     0
 62
     7
176
     0
 62
   257
176
     0
 90
        1
176
     0
 90
        1
176
     0
 40
1.0
176
     0
 90
       10
176
     2
 62
     7
176
     0
 40
1.0
176
     0
 90
        1
176
     0
 90
        6
176
     0
 90
        2
176
     0
 62
     7
176
     0
 90
        5
176
     0
 90
        0
176
     0
 90
        0
176
     0
290
     0
176
     0
 90
        1
176
     0
 40
0.0
176
     0
 90
        0
176
     0
290
     0
176
     0
290
     1
176
     0
290
     1
176
     0
290
     0
176
     0
290
     0
176
     0
290
     0
176
     0
290
     0
176
     0
290
     0
176
     0
290
     0
176
     0
 90
       50
176
     0
 40
0.0
176
     0
 40
1.0
176
     0
 90
        0
176
     0
 62
    18
420
        0
176
     0
 90
       50
176
     0
 90
        3
176
     0
 62
     5
420
      255
176
     0
290
     0
176
     0
 90
       50
176
     0
 90
       50
176
     0
 90
       50
176
     0
290
     0
176
     0
 90
       50
176
     0
 62
   256
176
     0
 40
1.0
176
     0
 90
        2
176
     0
  1
strokes_ogs.tif
176
     0
290
     0
176
     0
 40
1.0
176
     0
 40
1.0
176
     0
  0
VISUALSTYLE
  5
17B1
102
{ACAD_REACTORS
330
17A3
102
}
330
17A3
100
AcDbVisualStyle
  2
Linepattern
 70
    14
177
     3
291
     1
 70
    58
 90
        2
176
     1
 90
        2
176
     1
 90
        0
176
     1
 90
        0
176
     1
 40
0.6
176
     1
 40
30.0
176
     1
 62
     7
420
 16777215
176
     1
 90
        1
176
     1
 90
        4
176
     1
 62
     7
176
     1
 62
   257
176
     1
 90
        7
176
     1
 90
        7
176
     1
 40
1.0
176
     1
 90
        8
176
     1
 62
     7
176
     1
 40
1.0
176
     1
 90
        1
176
     1
 90
        6
176
     1
 90
        2
176
     1
 62
     7
176
     1
 90
        5
176
     1
 90
        0
176
     1
 90
        0
176
     1
290
     0
176
     1
 90
        1
176
     1
 40
0.0
176
     1
 90
        0
176
     1
290
     0
176
     1
290
     1
176
     1
290
     1
176
     1
290
     0
176
     1
290
     0
176
     1
290
     0
176
     1
290
     0
176
     1
290
     0
176
     1
290
     0
176
     1
 90
       50
176
     1
 40
0.0
176
     1
 40
1.0
176
     1
 90
        0
176
     1
 62
    18
420
        0
176
     1
 90
       50
176
     1
 90
        3
176
     1
 62
     5
420
      255
176
     1
290
     0
176
     1
 90
       50
176
     1
 90
       50
176
     1
 90
       50
176
     1
290
     0
176
     1
 90
       50
176
     1
 62
   256
176
     0
 40
1.0
176
     0
 90
        2
176
     1
  1
strokes_ogs.tif
176
     1
290
     0
176
     1
 40
1.0
176
     1
 40
1.0
176
     1
  0
VISUALSTYLE
  5
17B5
102
{ACAD_REACTORS
330
17A3
102
}
330
17A3
100
AcDbVisualStyle
  2
OverhangOff
 70
    21
177
     3
291
     1
 70
    58
 90
        2
176
     0
 90
        2
176
     0
 90
        0
176
     0
 90
        0
176
     0
 40
0.6
176
     0
 40
30.0
176
     0
 62
     7
420
 16777215
176
     0
 90
        1
176
     0
 90
        4
176
     0
 62
     7
176
     0
 62
   257
176
     0
 90
        1
176
     0
 90
        1
176
     0
 40
1.0
176
     0
 90
        9
176
     2
 62
     7
176
     0
 40
1.0
176
     0
 90
        1
176
     0
 90
        6
176
     0
 90
        2
176
     0
 62
     7
176
     0
 90
        5
176
     0
 90
        0
176
     0
 90
        0
176
     0
290
     0
176
     0
 90
        1
176
     0
 40
0.0
176
     0
 90
        0
176
     0
290
     0
176
     0
290
     1
176
     0
290
     1
176
     0
290
     0
176
     0
290
     0
176
     0
290
     0
176
     0
290
     0
176
     0
290
     0
176
     0
290
     0
176
     0
 90
       50
176
     0
 40
0.0
176
     0
 40
1.0
176
     0
 90
        0
176
     0
 62
    18
420
        0
176
     0
 90
       50
176
     0
 90
        3
176
     0
 62
     5
420
      255
176
     0
290
     0
176
     0
 90
       50
176
     0
 90
       50
176
     0
 90
       50
176
     0
290
     0
176
     0
 90
       50
176
     0
 62
   256
176
     0
 40
1.0
176
     0
 90
        2
176
     0
  1
strokes_ogs.tif
176
     0
290
     0
176
     0
 40
1.0
176
     0
 40
1.0
176
     0
  0
VISUALSTYLE
  5
17AC
102
{ACAD_REACTORS
330
17A3
102
}
330
17A3
100
AcDbVisualStyle
  2
Realistic
 70
     8
177
     3
291
     0
 70
    58
 90
        2
176
     1
 90
        3
176
     1
 90
        0
176
     1
 90
        2
176
     1
 40
0.6
176
     1
 40
30.0
176
     1
 62
     7
420
 16777215
176
     1
 90
        0
176
     1
 90
        0
176
     1
 62
     7
176
     1
 62
   257
176
     1
 90
        1
176
     1
 90
        1
176
     1
 40
1.0
176
     1
 90
        8
176
     1
 62
   257
176
     1
 40
1.0
176
     1
 90
        1
176
     1
 90
        6
176
     1
 90
        2
176
     1
 62
     7
176
     1
 90
        3
176
     1
 90
        0
176
     1
 90
        0
176
     1
290
     0
176
     1
 90
       13
176
     1
 40
0.0
176
     1
 90
        0
176
     1
290
     0
176
     1
290
     1
176
     1
290
     1
176
     1
290
     0
176
     1
290
     0
176
     1
290
     0
176
     1
290
     0
176
     1
290
     0
176
     1
290
     0
176
     1
 90
       50
176
     1
 40
0.0
176
     1
 40
1.0
176
     1
 90
        0
176
     1
 62
    18
420
        0
176
     1
 90
       50
176
     1
 90
        3
176
     1
 62
     5
420
      255
176
     1
290
     0
176
     1
 90
       50
176
     1
 90
       50
176
     1
 90
       50
176
     1
290
     0
176
     1
 90
       50
176
     1
 62
   256
176
     0
 40
1.0
176
     0
 90
        2
176
     1
  1
strokes_ogs.tif
176
     1
290
     0
176
     1
 40
1.0
176
     1
 40
1.0
176
     1
  0
VISUALSTYLE
  5
17BB
102
{ACAD_REACTORS
330
17A3
102
}
330
17A3
100
AcDbVisualStyle
  2
Shaded
 70
    27
177
     3
291
     0
 70
    58
 90
        2
176
     1
 90
        2
176
     1
 90
        1
176
     1
 90
        2
176
     1
 40
0.6
176
     1
 40
30.0
176
     1
 62
     7
420
 16777215
176
     1
 90
        0
176
     1
 90
        4
176
     1
 62
     7
176
     1
 62
   257
176
     1
 90
        1
176
     1
 90
        1
176
     1
 40
1.0
176
     1
 90
        8
176
     1
 62
   257
176
     1
 40
1.0
176
     1
 90
        1
176
     1
 90
        6
176
     1
 90
        2
176
     1
 62
     8
420
  7895160
176
     1
 90
        3
176
     1
 90
        0
176
     1
 90
        0
176
     1
290
     0
176
     1
 90
        5
176
     1
 40
0.0
176
     1
 90
        0
176
     1
290
     0
176
     1
290
     1
176
     1
290
     1
176
     1
290
     0
176
     1
290
     0
176
     1
290
     0
176
     1
290
     0
176
     1
290
     0
176
     1
290
     0
176
     1
 90
       50
176
     1
 40
0.0
176
     1
 40
1.0
176
     1
 90
        0
176
     1
 62
    18
420
        0
176
     1
 90
       50
176
     1
 90
        3
176
     1
 62
     5
420
      255
176
     1
290
     0
176
     1
 90
       50
176
     1
 90
       50
176
     1
 90
       50
176
     1
290
     0
176
     1
 90
       50
176
     1
 62
   256
176
     0
 40
1.0
176
     0
 90
        2
176
     1
  1
strokes_ogs.tif
176
     1
290
     0
176
     1
 40
1.0
176
     1
 40
1.0
176
     1
  0
VISUALSTYLE
  5
17BA
102
{ACAD_REACTORS
330
17A3
102
}
330
17A3
100
AcDbVisualStyle
  2
Shaded with edges
 70
    26
177
     3
291
     0
 70
    58
 90
        2
176
     1
 90
        2
176
     1
 90
        1
176
     1
 90
        2
176
     1
 40
0.6
176
     1
 40
30.0
176
     1
 62
     7
420
 16777215
176
     1
 90
        1
176
     1
 90
       10
176
     1
 62
     7
176
     1
 62
   257
176
     1
 90
        2
176
     1
 90
        1
176
     1
 40
1.0
176
     1
 90
        8
176
     1
 62
   257
176
     1
 40
1.0
176
     1
 90
        1
176
     1
 90
        6
176
     1
 90
        2
176
     1
 62
     7
176
     1
 90
        3
176
     1
 90
        0
176
     1
 90
        0
176
     1
290
     0
176
     1
 90
        5
176
     1
 40
0.0
176
     1
 90
        0
176
     1
290
     0
176
     1
290
     1
176
     1
290
     1
176
     1
290
     0
176
     1
290
     0
176
     1
290
     0
176
     1
290
     0
176
     1
290
     0
176
     1
290
     0
176
     1
 90
       50
176
     1
 40
0.0
176
     1
 40
1.0
176
     1
 90
        0
176
     1
 62
    18
420
        0
176
     1
 90
       50
176
     1
 90
        3
176
     1
 62
     5
420
      255
176
     1
290
     0
176
     1
 90
       50
176
     1
 90
       50
176
     1
 90
       50
176
     1
290
     0
176
     1
 90
       50
176
     1
 62
   256
176
     0
 40
1.0
176
     0
 90
        2
176
     1
  1
strokes_ogs.tif
176
     1
290
     0
176
     1
 40
1.0
176
     1
 40
1.0
176
     1
  0
VISUALSTYLE
  5
17B7
102
{ACAD_REACTORS
330
17A3
102
}
330
17A3
100
AcDbVisualStyle
  2
Shades of Gray
 70
    23
177
     3
291
     0
 70
    58
 90
        2
176
     1
 90
        2
176
     1
 90
        3
176
     1
 90
        0
176
     1
 40
0.6
176
     1
 40
30.0
176
     1
 62
     7
420
 16777215
176
     1
 90
        2
176
     1
 90
        2
176
     1
 62
     7
176
     1
 62
     7
176
     1
 90
        1
176
     1
 90
        1
176
     1
 40
40.0
176
     1
 90
        8
176
     1
 62
     7
176
     1
 40
1.0
176
     1
 90
        1
176
     1
 90
        6
176
     1
 90
        2
176
     1
 62
     7
176
     1
 90
        3
176
     1
 90
        0
176
     1
 90
        0
176
     1
290
     0
176
     1
 90
        1
176
     1
 40
0.0
176
     1
 90
        0
176
     1
290
     0
176
     1
290
     1
176
     1
290
     1
176
     1
290
     0
176
     1
290
     0
176
     1
290
     0
176
     1
290
     0
176
     1
290
     0
176
     1
290
     0
176
     1
 90
       50
176
     1
 40
0.0
176
     1
 40
1.0
176
     1
 90
        0
176
     1
 62
    18
420
        0
176
     1
 90
       50
176
     1
 90
        3
176
     1
 62
     5
420
      255
176
     1
290
     0
176
     1
 90
       50
176
     1
 90
       50
176
     1
 90
       50
176
     1
290
     0
176
     1
 90
       50
176
     1
 62
   256
176
     0
 40
1.0
176
     0
 90
        2
176
     1
  1
strokes_ogs.tif
176
     1
290
     0
176
     1
 40
1.0
176
     1
 40
1.0
176
     1
  0
VISUALSTYLE
  5
17B8
102
{ACAD_REACTORS
330
17A3
102
}
330
17A3
100
AcDbVisualStyle
  2
Sketchy
 70
    24
177
     3
291
     0
 70
    58
 90
        1
176
     1
 90
        2
176
     1
 90
        2
176
     1
 90
        0
176
     1
 40
0.6
176
     1
 40
30.0
176
     1
 62
     7
420
 16777215
176
     1
 90
        2
176
     1
 90
        2
176
     1
 62
     7
176
     1
 62
     7
176
     1
 90
        1
176
     1
 90
        1
176
     1
 40
40.0
176
     1
 90
       11
176
     1
 62
     7
176
     1
 40
1.0
176
     1
 90
        1
176
     1
 90
        6
176
     1
 90
        2
176
     1
 62
     7
176
     1
 90
        6
176
     1
 90
        0
176
     1
 90
        0
176
     1
290
     0
176
     1
 90
        1
176
     1
 40
0.0
176
     1
 90
        0
176
     1
290
     0
176
     1
290
     1
176
     1
290
     1
176
     1
290
     0
176
     1
290
     0
176
     1
290
     0
176
     1
290
     0
176
     1
290
     0
176
     1
290
     0
176
     1
 90
       50
176
     1
 40
0.0
176
     1
 40
1.0
176
     1
 90
        0
176
     1
 62
    18
420
        0
176
     1
 90
       50
176
     1
 90
        3
176
     1
 62
     5
420
      255
176
     1
290
     0
176
     1
 90
       50
176
     1
 90
       50
176
     1
 90
       50
176
     1
290
     0
176
     1
 90
       50
176
     1
 62
   256
176
     0
 40
1.0
176
     0
 90
        2
176
     1
  1
strokes_ogs.tif
176
     1
290
     0
176
     1
 40
1.0
176
     1
 40
1.0
176
     1
  0
VISUALSTYLE
  5
17B0
102
{ACAD_REACTORS
330
17A3
102
}
330
17A3
100
AcDbVisualStyle
  2
Thicken
 70
    13
177
     3
291
     1
 70
    58
 90
        2
176
     1
 90
        2
176
     1
 90
        0
176
     1
 90
        0
176
     1
 40
0.6
176
     1
 40
30.0
176
     1
 62
     7
420
 16777215
176
     1
 90
        1
176
     1
 90
        4
176
     1
 62
     7
176
     1
 62
   257
176
     1
 90
        1
176
     1
 90
        1
176
     1
 40
1.0
176
     1
 90
       12
176
     1
 62
     7
176
     1
 40
1.0
176
     1
 90
        1
176
     1
 90
        6
176
     1
 90
        2
176
     1
 62
     7
176
     1
 90
        5
176
     1
 90
        0
176
     1
 90
        0
176
     1
290
     0
176
     1
 90
        1
176
     1
 40
0.0
176
     1
 90
        0
176
     1
290
     0
176
     1
290
     1
176
     1
290
     1
176
     1
290
     0
176
     1
290
     0
176
     1
290
     0
176
     1
290
     0
176
     1
290
     0
176
     1
290
     0
176
     1
 90
       50
176
     1
 40
0.0
176
     1
 40
1.0
176
     1
 90
        0
176
     1
 62
    18
420
        0
176
     1
 90
       50
176
     1
 90
        3
176
     1
 62
     5
420
      255
176
     1
290
     0
176
     1
 90
       50
176
     1
 90
       50
176
     1
 90
       50
176
     1
290
     0
176
     1
 90
       50
176
     1
 62
   256
176
     0
 40
1.0
176
     0
 90
        2
176
     1
  1
strokes_ogs.tif
176
     1
290
     0
176
     1
 40
1.0
176
     1
 40
1.0
176
     1
  0
VISUALSTYLE
  5
17A9
102
{ACAD_REACTORS
330
17A3
102
}
330
17A3
100
AcDbVisualStyle
  2
Wireframe
 70
     5
177
     3
291
     0
 70
    58
 90
        0
176
     1
 90
        2
176
     1
 90
        0
176
     1
 90
        0
176
     1
 40
0.6
176
     1
 40
30.0
176
     1
 62
     7
420
 16777215
176
     1
 90
        1
176
     1
 90
        4
176
     1
 62
     7
176
     1
 62
   257
176
     1
 90
        1
176
     1
 90
        1
176
     1
 40
1.0
176
     1
 90
        0
176
     1
 62
   257
176
     1
 40
1.0
176
     1
 90
        1
176
     1
 90
        6
176
     1
 90
        2
176
     1
 62
     7
176
     1
 90
        3
176
     1
 90
        0
176
     1
 90
        0
176
     1
290
     0
176
     1
 90
        1
176
     1
 40
0.0
176
     1
 90
        0
176
     1
290
     0
176
     1
290
     1
176
     1
290
     1
176
     1
290
     0
176
     1
290
     0
176
     1
290
     0
176
     1
290
     0
176
     1
290
     0
176
     1
290
     0
176
     1
 90
       50
176
     1
 40
0.0
176
     1
 40
1.0
176
     1
 90
        0
176
     1
 62
    18
420
        0
176
     1
 90
       50
176
     1
 90
        3
176
     1
 62
     5
420
      255
176
     1
290
     0
176
     1
 90
       50
176
     1
 90
       50
176
     1
 90
       50
176
     1
290
     0
176
     1
 90
       50
176
     1
 62
   256
176
     0
 40
1.0
176
     0
 90
        2
176
     1
  1
strokes_ogs.tif
176
     1
290
     0
176
     1
 40
1.0
176
     1
 40
1.0
176
     1
  0
VISUALSTYLE
  5
17B9
102
{ACAD_REACTORS
330
17A3
102
}
330
17A3
100
AcDbVisualStyle
  2
X-Ray
 70
    25
177
     3
291
     0
 70
    58
 90
        2
176
     1
 90
        2
176
     1
 90
        1
176
     1
 90
        1
176
     1
 40
0.5
176
     1
 40
30.0
176
     1
 62
     7
420
 16777215
176
     1
 90
        1
176
     1
 90
        0
176
     1
 62
     7
176
     1
 62
   257
176
     1
 90
        1
176
     1
 90
        1
176
     1
 40
1.0
176
     1
 90
        8
176
     1
 62
     7
176
     1
 40
1.0
176
     1
 90
        1
176
     1
 90
        6
176
     1
 90
        2
176
     1
 62
     7
176
     1
 90
        3
176
     1
 90
        0
176
     1
 90
        0
176
     1
290
     0
176
     1
 90
       13
176
     1
 40
0.0
176
     1
 90
        0
176
     1
290
     0
176
     1
290
     1
176
     1
290
     1
176
     1
290
     0
176
     1
290
     0
176
     1
290
     0
176
     1
290
     0
176
     1
290
     0
176
     1
290
     0
176
     1
 90
       50
176
     1
 40
0.0
176
     1
 40
1.0
176
     1
 90
        0
176
     1
 62
    18
420
        0
176
     1
 90
       50
176
     1
 90
        3
176
     1
 62
     5
420
      255
176
     1
290
     0
176
     1
 90
       50
176
     1
 90
       50
176
     1
 90
       50
176
     1
290
     0
176
     1
 90
       50
176
     1
 62
   256
176
     0
 40
1.0
176
     0
 90
        2
176
     1
  1
strokes_ogs.tif
176
     1
290
     0
176
     1
 40
1.0
176
     1
 40
1.0
176
     1
  0
DICTIONARYVAR
  5
17EB
102
{ACAD_REACTORS
330
1785
102
}
330
1785
100
DictionaryVariables
280
     0
  1
1:1
  0
DICTIONARYVAR
  5
17EF
102
{ACAD_REACTORS
330
1785
102
}
330
1785
100
DictionaryVariables
280
     0
  1
Standard
  0
DICTIONARYVAR
  5
1787
102
{ACAD_REACTORS
330
1785
102
}
330
1785
100
DictionaryVariables
280
     0
  1
2
  0
DICTIONARYVAR
  5
1786
102
{ACAD_REACTORS
330
1785
102
}
330
1785
100
DictionaryVariables
280
     0
  1
1
  0
DICTIONARYVAR
  5
17F1
102
{ACAD_REACTORS
330
1785
102
}
330
1785
100
DictionaryVariables
280
     0
  1
0
  0
DICTIONARYVAR
  5
1788
102
{ACAD_REACTORS
330
1785
102
}
330
1785
100
DictionaryVariables
280
     0
  1

  0
DICTIONARYVAR
  5
17F2
102
{ACAD_REACTORS
330
1785
102
}
330
1785
100
DictionaryVariables
280
     0
  1
0
  0
XRECORD
  5
156D
102
{ACAD_REACTORS
330
1547
102
}
330
1547
100
AcDbXrecord
280
     1
 91
      484
330
2E
 90
        8
 62
     1
370
    30
331
16
  1
色_1
330
1573
 90
        8
 62
     7
370
    13
331
16
  1
色_7
330
2F
 90
        8
 62
     7
370
    25
331
16
  1
色_7
330
129
 90
        8
 62
     7
370
    15
331
605
  1
色_7
330
36
 90
        8
 62
     7
370
    15
331
5EC
  1
色_7
330
128
 90
        8
 62
     7
370
    25
331
16
  1
色_7
330
1572
 90
        8
 62
     7
370
     9
331
16
  1
色_7
330
52
 90
        0
 62
     2
370
    -3
331
16
  1
色_2
330
1571
 90
        8
 62
     3
370
    -3
331
16
  1
色_3
330
778
 90
        0
 62
     7
370
    -3
331
16
  1
色_7
330
10
 90
        8
 62
     7
370
    -3
331
16
  0
DICTIONARY
  5
1822
330
17E2
100
AcDbDictionary
280
     1
281
     1
  3
ACAD_ROUNDTRIP_2008_TABLESTYLE_CELLSTYLEMAP
360
1823
  0
CELLSTYLEMAP
  5
1823
102
{ACAD_REACTORS
330
1822
102
}
330
1822
100
AcDbCellStyleMap
 90
        3
300
CELLSTYLE
  1
TABLEFORMAT_BEGIN
 90
        5
170
     1
 91
        0
 92
        0
 62
   257
 93
        1
300
CONTENTFORMAT
  1
CONTENTFORMAT_BEGIN
 90
        0
 91
        0
 92
        4
 93
        0
300

 40
0.0
140
1.0
 94
        5
 62
     0
340
11
144
6.0
309
CONTENTFORMAT_END
171
     1
301
MARGIN
  1
CELLMARGIN_BEGIN
 40
1.5
 40
1.5
 40
1.5
 40
1.5
 40
1.5
 40
1.5
309
CELLMARGIN_END
 94
        6
 95
        1
302
GRIDFORMAT
  1
GRIDFORMAT_BEGIN
 90
        0
 91
        1
 62
     0
 92
       -2
340
14
 93
        0
 40
0.045
309
GRIDFORMAT_END
 95
        2
302
GRIDFORMAT
  1
GRIDFORMAT_BEGIN
 90
        0
 91
        1
 62
     0
 92
       -2
340
14
 93
        0
 40
0.045
309
GRIDFORMAT_END
 95
        4
302
GRIDFORMAT
  1
GRIDFORMAT_BEGIN
 90
        0
 91
        1
 62
     0
 92
       -2
340
14
 93
        0
 40
0.045
309
GRIDFORMAT_END
 95
        8
302
GRIDFORMAT
  1
GRIDFORMAT_BEGIN
 90
        0
 91
        1
 62
     0
 92
       -2
340
14
 93
        0
 40
0.045
309
GRIDFORMAT_END
 95
       16
302
GRIDFORMAT
  1
GRIDFORMAT_BEGIN
 90
        0
 91
        1
 62
     0
 92
       -2
340
14
 93
        0
 40
0.045
309
GRIDFORMAT_END
 95
       32
302
GRIDFORMAT
  1
GRIDFORMAT_BEGIN
 90
        0
 91
        1
 62
     0
 92
       -2
340
14
 93
        0
 40
0.045
309
GRIDFORMAT_END
309
TABLEFORMAT_END
  1
CELLSTYLE_BEGIN
 90
        1
 91
        1
300
_TITLE
309
CELLSTYLE_END
300
CELLSTYLE
  1
TABLEFORMAT_BEGIN
 90
        5
170
     1
 91
        0
 92
        0
 62
   257
 93
        1
300
CONTENTFORMAT
  1
CONTENTFORMAT_BEGIN
 90
        0
 91
        0
 92
        4
 93
        0
300

 40
0.0
140
1.0
 94
        5
 62
     0
340
11
144
4.5
309
CONTENTFORMAT_END
171
     1
301
MARGIN
  1
CELLMARGIN_BEGIN
 40
1.5
 40
1.5
 40
1.5
 40
1.5
 40
1.5
 40
1.5
309
CELLMARGIN_END
 94
        6
 95
        1
302
GRIDFORMAT
  1
GRIDFORMAT_BEGIN
 90
        0
 91
        1
 62
     0
 92
       -2
340
14
 93
        0
 40
0.045
309
GRIDFORMAT_END
 95
        2
302
GRIDFORMAT
  1
GRIDFORMAT_BEGIN
 90
        0
 91
        1
 62
     0
 92
       -2
340
14
 93
        0
 40
0.045
309
GRIDFORMAT_END
 95
        4
302
GRIDFORMAT
  1
GRIDFORMAT_BEGIN
 90
        0
 91
        1
 62
     0
 92
       -2
340
14
 93
        0
 40
0.045
309
GRIDFORMAT_END
 95
        8
302
GRIDFORMAT
  1
GRIDFORMAT_BEGIN
 90
        0
 91
        1
 62
     0
 92
       -2
340
14
 93
        0
 40
0.045
309
GRIDFORMAT_END
 95
       16
302
GRIDFORMAT
  1
GRIDFORMAT_BEGIN
 90
        0
 91
        1
 62
     0
 92
       -2
340
14
 93
        0
 40
0.045
309
GRIDFORMAT_END
 95
       32
302
GRIDFORMAT
  1
GRIDFORMAT_BEGIN
 90
        0
 91
        1
 62
     0
 92
       -2
340
14
 93
        0
 40
0.045
309
GRIDFORMAT_END
309
TABLEFORMAT_END
  1
CELLSTYLE_BEGIN
 90
        2
 91
        1
300
_HEADER
309
CELLSTYLE_END
300
CELLSTYLE
  1
TABLEFORMAT_BEGIN
 90
        5
170
     1
 91
        0
 92
        0
 62
   257
 93
        1
300
CONTENTFORMAT
  1
CONTENTFORMAT_BEGIN
 90
        0
 91
        0
 92
        4
 93
        0
300

 40
0.0
140
1.0
 94
        2
 62
     0
340
11
144
4.5
309
CONTENTFORMAT_END
171
     1
301
MARGIN
  1
CELLMARGIN_BEGIN
 40
1.5
 40
1.5
 40
1.5
 40
1.5
 40
1.5
 40
1.5
309
CELLMARGIN_END
 94
        6
 95
        1
302
GRIDFORMAT
  1
GRIDFORMAT_BEGIN
 90
        0
 91
        1
 62
     0
 92
       -2
340
14
 93
        0
 40
0.045
309
GRIDFORMAT_END
 95
        2
302
GRIDFORMAT
  1
GRIDFORMAT_BEGIN
 90
        0
 91
        1
 62
     0
 92
       -2
340
14
 93
        0
 40
0.045
309
GRIDFORMAT_END
 95
        4
302
GRIDFORMAT
  1
GRIDFORMAT_BEGIN
 90
        0
 91
        1
 62
     0
 92
       -2
340
14
 93
        0
 40
0.045
309
GRIDFORMAT_END
 95
        8
302
GRIDFORMAT
  1
GRIDFORMAT_BEGIN
 90
        0
 91
        1
 62
     0
 92
       -2
340
14
 93
        0
 40
0.045
309
GRIDFORMAT_END
 95
       16
302
GRIDFORMAT
  1
GRIDFORMAT_BEGIN
 90
        0
 91
        1
 62
     0
 92
       -2
340
14
 93
        0
 40
0.045
309
GRIDFORMAT_END
 95
       32
302
GRIDFORMAT
  1
GRIDFORMAT_BEGIN
 90
        0
 91
        1
 62
     0
 92
       -2
340
14
 93
        0
 40
0.045
309
GRIDFORMAT_END
309
TABLEFORMAT_END
  1
CELLSTYLE_BEGIN
 90
        3
 91
        2
300
_DATA
309
CELLSTYLE_END
  0
ENDSEC
  0
EOF
