  0
SECTION
  2
HEADER
  9
$ACADVER
  1
AC1027
  9
$ACADMAINTVER
 70
     8
  9
$DWGCODEPAGE
  3
ANSI_932
  9
$REQUIREDVERSIONS
160
                 0
  9
$LASTSAVEDBY
  1
Yasu
  9
$INSBASE
 10
0.0
 20
0.0
 30
0.0
  9
$EXTMIN
 10
28.15201959047172
 20
42.80129815722236
 30
0.0
  9
$EXTMAX
 10
304.6000705113507
 20
209.5184349199509
 30
0.0
  9
$LIMMIN
 10
0.0
 20
0.0
  9
$LIMMAX
 10
12.0
 20
9.0
  9
$ORTHOMODE
 70
     0
  9
$REGENMODE
 70
     1
  9
$FILLMODE
 70
     1
  9
$QTEXTMODE
 70
     0
  9
$MIRRTEXT
 70
     0
  9
$LTSCALE
 40
1.0
  9
$ATTMODE
 70
     1
  9
$TEXTSIZE
 40
0.2
  9
$TRACEWID
 40
0.05
  9
$TEXTSTYLE
  7
Standard
  9
$CLAYER
  8
0
  9
$CELTYPE
  6
ByLayer
  9
$CECOLOR
 62
   256
  9
$CELTSCALE
 40
1.0
  9
$DISPSILH
 70
     0
  9
$DIMSCALE
 40
1.0
  9
$DIMASZ
 40
0.18
  9
$DIMEXO
 40
0.0625
  9
$DIMDLI
 40
0.38
  9
$DIMRND
 40
0.0
  9
$DIMDLE
 40
0.0
  9
$DIMEXE
 40
0.18
  9
$DIMTP
 40
0.0
  9
$DIMTM
 40
0.0
  9
$DIMTXT
 40
0.18
  9
$DIMCEN
 40
0.09
  9
$DIMTSZ
 40
0.0
  9
$DIMTOL
 70
     0
  9
$DIMLIM
 70
     0
  9
$DIMTIH
 70
     1
  9
$DIMTOH
 70
     1
  9
$DIMSE1
 70
     0
  9
$DIMSE2
 70
     0
  9
$DIMTAD
 70
     0
  9
$DIMZIN
 70
     0
  9
$DIMBLK
  1

  9
$DIMASO
 70
     1
  9
$DIMSHO
 70
     1
  9
$DIMPOST
  1

  9
$DIMAPOST
  1

  9
$DIMALT
 70
     0
  9
$DIMALTD
 70
     2
  9
$DIMALTF
 40
25.4
  9
$DIMLFAC
 40
1.0
  9
$DIMTOFL
 70
     0
  9
$DIMTVP
 40
0.0
  9
$DIMTIX
 70
     0
  9
$DIMSOXD
 70
     0
  9
$DIMSAH
 70
     0
  9
$DIMBLK1
  1

  9
$DIMBLK2
  1

  9
$DIMSTYLE
  2
Standard
  9
$DIMCLRD
 70
     0
  9
$DIMCLRE
 70
     0
  9
$DIMCLRT
 70
     0
  9
$DIMTFAC
 40
1.0
  9
$DIMGAP
 40
0.09
  9
$DIMJUST
 70
     0
  9
$DIMSD1
 70
     0
  9
$DIMSD2
 70
     0
  9
$DIMTOLJ
 70
     1
  9
$DIMTZIN
 70
     0
  9
$DIMALTZ
 70
     0
  9
$DIMALTTZ
 70
     0
  9
$DIMUPT
 70
     0
  9
$DIMDEC
 70
     4
  9
$DIMTDEC
 70
     4
  9
$DIMALTU
 70
     2
  9
$DIMALTTD
 70
     2
  9
$DIMTXSTY
  7
Standard
  9
$DIMAUNIT
 70
     0
  9
$DIMADEC
 70
     0
  9
$DIMALTRND
 40
0.0
  9
$DIMAZIN
 70
     0
  9
$DIMDSEP
 70
    46
  9
$DIMATFIT
 70
     3
  9
$DIMFRAC
 70
     0
  9
$DIMLDRBLK
  1

  9
$DIMLUNIT
 70
     2
  9
$DIMLWD
 70
    -2
  9
$DIMLWE
 70
    -2
  9
$DIMTMOVE
 70
     0
  9
$DIMFXL
 40
1.0
  9
$DIMFXLON
 70
     0
  9
$DIMJOGANG
 40
0.7853981633974483
  9
$DIMTFILL
 70
     0
  9
$DIMTFILLCLR
 70
     0
  9
$DIMARCSYM
 70
     0
  9
$DIMLTYPE
  6

  9
$DIMLTEX1
  6

  9
$DIMLTEX2
  6

  9
$DIMTXTDIRECTION
 70
     0
  9
$LUNITS
 70
     2
  9
$LUPREC
 70
     4
  9
$SKETCHINC
 40
0.1
  9
$FILLETRAD
 40
0.0
  9
$AUNITS
 70
     0
  9
$AUPREC
 70
     0
  9
$MENU
  1
.
  9
$ELEVATION
 40
0.0
  9
$PELEVATION
 40
0.0
  9
$THICKNESS
 40
0.0
  9
$LIMCHECK
 70
     0
  9
$CHAMFERA
 40
0.0
  9
$CHAMFERB
 40
0.0
  9
$CHAMFERC
 40
0.0
  9
$CHAMFERD
 40
0.0
  9
$SKPOLY
 70
     0
  9
$TDCREATE
 40
2452643.438384271
  9
$TDUCREATE
 40
2452643.063384271
  9
$TDUPDATE
 40
2456721.058125787
  9
$TDUUPDATE
 40
2456720.683125787
  9
$TDINDWG
 40
0.0002919792
  9
$TDUSRTIMER
 40
2456720.682833935
  9
$USRTIMER
 70
     1
  9
$ANGBASE
 50
0.0
  9
$ANGDIR
 70
     0
  9
$PDMODE
 70
     0
  9
$PDSIZE
 40
0.0
  9
$PLINEWID
 40
0.0
  9
$SPLFRAME
 70
     0
  9
$SPLINETYPE
 70
     6
  9
$SPLINESEGS
 70
     8
  9
$HANDSEED
  5
3CF
  9
$SURFTAB1
 70
     6
  9
$SURFTAB2
 70
     6
  9
$SURFTYPE
 70
     6
  9
$SURFU
 70
     6
  9
$SURFV
 70
     6
  9
$UCSBASE
  2

  9
$UCSNAME
  2

  9
$UCSORG
 10
0.0
 20
0.0
 30
0.0
  9
$UCSXDIR
 10
1.0
 20
0.0
 30
0.0
  9
$UCSYDIR
 10
0.0
 20
1.0
 30
0.0
  9
$UCSORTHOREF
  2

  9
$UCSORTHOVIEW
 70
     0
  9
$UCSORGTOP
 10
0.0
 20
0.0
 30
0.0
  9
$UCSORGBOTTOM
 10
0.0
 20
0.0
 30
0.0
  9
$UCSORGLEFT
 10
0.0
 20
0.0
 30
0.0
  9
$UCSORGRIGHT
 10
0.0
 20
0.0
 30
0.0
  9
$UCSORGFRONT
 10
0.0
 20
0.0
 30
0.0
  9
$UCSORGBACK
 10
0.0
 20
0.0
 30
0.0
  9
$PUCSBASE
  2

  9
$PUCSNAME
  2

  9
$PUCSORG
 10
0.0
 20
0.0
 30
0.0
  9
$PUCSXDIR
 10
1.0
 20
0.0
 30
0.0
  9
$PUCSYDIR
 10
0.0
 20
1.0
 30
0.0
  9
$PUCSORTHOREF
  2

  9
$PUCSORTHOVIEW
 70
     0
  9
$PUCSORGTOP
 10
0.0
 20
0.0
 30
0.0
  9
$PUCSORGBOTTOM
 10
0.0
 20
0.0
 30
0.0
  9
$PUCSORGLEFT
 10
0.0
 20
0.0
 30
0.0
  9
$PUCSORGRIGHT
 10
0.0
 20
0.0
 30
0.0
  9
$PUCSORGFRONT
 10
0.0
 20
0.0
 30
0.0
  9
$PUCSORGBACK
 10
0.0
 20
0.0
 30
0.0
  9
$USERI1
 70
     0
  9
$USERI2
 70
     0
  9
$USERI3
 70
     0
  9
$USERI4
 70
     0
  9
$USERI5
 70
     0
  9
$USERR1
 40
0.0
  9
$USERR2
 40
0.0
  9
$USERR3
 40
0.0
  9
$USERR4
 40
0.0
  9
$USERR5
 40
0.0
  9
$WORLDVIEW
 70
     1
  9
$SHADEDGE
 70
     3
  9
$SHADEDIF
 70
    70
  9
$TILEMODE
 70
     1
  9
$MAXACTVP
 70
    64
  9
$PINSBASE
 10
0.0
 20
0.0
 30
0.0
  9
$PLIMCHECK
 70
     0
  9
$PEXTMIN
 10
0.0
 20
0.0
 30
0.0
  9
$PEXTMAX
 10
0.0
 20
0.0
 30
0.0
  9
$PLIMMIN
 10
0.0
 20
0.0
  9
$PLIMMAX
 10
0.0
 20
0.0
  9
$UNITMODE
 70
     0
  9
$VISRETAIN
 70
     1
  9
$PLINEGEN
 70
     0
  9
$PSLTSCALE
 70
     1
  9
$TREEDEPTH
 70
  3020
  9
$CMLSTYLE
  2
Standard
  9
$CMLJUST
 70
     0
  9
$CMLSCALE
 40
1.0
  9
$PROXYGRAPHICS
 70
     1
  9
$MEASUREMENT
 70
     0
  9
$CELWEIGHT
370
    -1
  9
$ENDCAPS
280
     0
  9
$JOINSTYLE
280
     0
  9
$LWDISPLAY
290
     0
  9
$INSUNITS
 70
     1
  9
$HYPERLINKBASE
  1

  9
$STYLESHEET
  1

  9
$XEDIT
290
     1
  9
$CEPSNTYPE
380
     0
  9
$PSTYLEMODE
290
     1
  9
$FINGERPRINTGUID
  2
{FDEAD576-A652-11D2-9A35-0060089B3A3F}
  9
$VERSIONGUID
  2
{FBC2AE19-5C5C-49EC-81BC-71B1A3362A02}
  9
$EXTNAMES
290
     1
  9
$PSVPSCALE
 40
0.0
  9
$OLESTARTUP
290
     0
  9
$SORTENTS
280
   127
  9
$INDEXCTL
280
     0
  9
$HIDETEXT
280
     1
  9
$XCLIPFRAME
280
     0
  9
$HALOGAP
280
     0
  9
$OBSCOLOR
 70
   257
  9
$OBSLTYPE
280
     0
  9
$INTERSECTIONDISPLAY
280
     0
  9
$INTERSECTIONCOLOR
 70
   257
  9
$DIMASSOC
280
     2
  9
$PROJECTNAME
  1

  9
$CAMERADISPLAY
290
     0
  9
$LENSLENGTH
 40
50.0
  9
$CAMERAHEIGHT
 40
0.0
  9
$STEPSPERSEC
 40
2.0
  9
$STEPSIZE
 40
6.0
  9
$3DDWFPREC
 40
2.0
  9
$PSOLWIDTH
 40
0.25
  9
$PSOLHEIGHT
 40
4.0
  9
$LOFTANG1
 40
1.570796326794897
  9
$LOFTANG2
 40
1.570796326794897
  9
$LOFTMAG1
 40
0.0
  9
$LOFTMAG2
 40
0.0
  9
$LOFTPARAM
 70
     7
  9
$LOFTNORMALS
280
     1
  9
$LATITUDE
 40
37.795
  9
$LONGITUDE
 40
-122.394
  9
$NORTHDIRECTION
 40
0.0
  9
$TIMEZONE
 70
 -8000
  9
$LIGHTGLYPHDISPLAY
280
     1
  9
$TILEMODELIGHTSYNCH
280
     1
  9
$CMATERIAL
347
96
  9
$SOLIDHIST
280
     1
  9
$SHOWHIST
280
     1
  9
$DWFFRAME
280
     2
  9
$DGNFRAME
280
     0
  9
$REALWORLDSCALE
290
     1
  9
$INTERFERECOLOR
 62
     1
  9
$CSHADOW
280
     0
  9
$SHADOWPLANELOCATION
 40
0.0
  0
ENDSEC
  0
SECTION
  2
CLASSES
  0
CLASS
  1
ACDBDICTIONARYWDFLT
  2
AcDbDictionaryWithDefault
  3
ObjectDBX Classes
 90
        0
 91
        5
280
     0
281
     0
  0
CLASS
  1
ACDBPLACEHOLDER
  2
AcDbPlaceHolder
  3
ObjectDBX Classes
 90
        0
 91
        1
280
     0
281
     0
  0
CLASS
  1
LAYOUT
  2
AcDbLayout
  3
ObjectDBX Classes
 90
        0
 91
        1
280
     0
281
     0
  0
CLASS
  1
DICTIONARYVAR
  2
AcDbDictionaryVar
  3
ObjectDBX Classes
 90
        0
 91
        4
280
     0
281
     0
  0
CLASS
  1
TABLESTYLE
  2
AcDbTableStyle
  3
ObjectDBX Classes
 90
     4095
 91
        5
280
     0
281
     0
  0
CLASS
  1
MATERIAL
  2
AcDbMaterial
  3
ObjectDBX Classes
 90
     1153
 91
        5
280
     0
281
     0
  0
CLASS
  1
VISUALSTYLE
  2
AcDbVisualStyle
  3
ObjectDBX Classes
 90
     4095
 91
        5
280
     0
281
     0
  0
CLASS
  1
SCALE
  2
AcDbScale
  3
ObjectDBX Classes
 90
     1153
 91
        5
280
     0
281
     0
  0
CLASS
  1
CELLSTYLEMAP
  2
AcDbCellStyleMap
  3
ObjectDBX Classes
 90
     1152
 91
        4
280
     0
281
     0
  0
CLASS
  1
RASTERVARIABLES
  2
AcDbRasterVariables
  3
ISM
 90
        0
 91
        5
280
     0
281
     0
  0
CLASS
  1
SUN
  2
AcDbSun
  3
SCENEOE
 90
     1153
 91
        5
280
     0
281
     0
  0
CLASS
  1
DIMASSOC
  2
AcDbDimAssoc
  3
"AcDbDimAssoc|Product Desc:     AcDim ARX App For Dimension|Company:          Autodesk, Inc.|WEB Address:      www.autodesk.com"
 90
        0
 91
        4
280
     0
281
     0
  0
ENDSEC
  0
SECTION
  2
TABLES
  0
TABLE
  2
VPORT
  5
8
330
0
100
AcDbSymbolTable
 70
     1
  0
VPORT
  5
94
330
8
100
AcDbSymbolTableRecord
100
AcDbViewportTableRecord
  2
*Active
 70
     0
 10
0.0
 20
0.0
 11
1.0
 21
1.0
 12
194.045638616891
 22
145.6985694964487
 13
0.0
 23
0.0
 14
0.5
 24
0.5
 15
0.5
 25
0.5
 16
0.0
 26
0.0
 36
1.0
 17
-27.66959356597982
 27
-19.53870295786204
 37
0.0
 40
170.0514794979831
 41
1.762376237623762
 42
50.0
 43
0.0
 44
0.0
 50
0.0
 51
0.0
 71
    16
 72
  1000
 73
     1
 74
     3
 75
     0
 76
     0
 77
     0
 78
     0
281
     0
 65
     1
110
0.0
120
0.0
130
0.0
111
1.0
121
0.0
131
0.0
112
0.0
122
1.0
132
0.0
 79
     0
146
0.0
348
9F
 60
     2
 61
     5
292
     1
282
     1
141
0.0
142
0.0
 63
   250
421
  3355443
361
ED
  0
ENDTAB
  0
TABLE
  2
LTYPE
  5
5
330
0
100
AcDbSymbolTable
 70
     2
  0
LTYPE
  5
14
330
5
100
AcDbSymbolTableRecord
100
AcDbLinetypeTableRecord
  2
ByBlock
 70
     0
  3

 72
    65
 73
     0
 40
0.0
  0
LTYPE
  5
15
330
5
100
AcDbSymbolTableRecord
100
AcDbLinetypeTableRecord
  2
ByLayer
 70
     0
  3

 72
    65
 73
     0
 40
0.0
  0
LTYPE
  5
16
330
5
100
AcDbSymbolTableRecord
100
AcDbLinetypeTableRecord
  2
Continuous
 70
     0
  3
Solid line
 72
    65
 73
     0
 40
0.0
  0
LTYPE
  5
128
330
5
100
AcDbSymbolTableRecord
100
AcDbLinetypeTableRecord
  2
CENTER
 70
     0
  3
Center ____ _ ____ _ ____ _ ____ _ ____ _ ____
 72
    65
 73
     4
 40
50.8
 49
31.75
 74
     0
 49
-6.35
 74
     0
 49
6.35
 74
     0
 49
-6.35
 74
     0
  0
ENDTAB
  0
TABLE
  2
LAYER
  5
2
330
0
100
AcDbSymbolTable
 70
     6
  0
LAYER
  5
10
330
2
100
AcDbSymbolTableRecord
100
AcDbLayerTableRecord
  2
0
 70
     0
 62
     7
  6
Continuous
370
    -3
390
F
347
98
348
0
  0
LAYER
  5
125
330
2
100
AcDbSymbolTableRecord
100
AcDbLayerTableRecord
  2
Defpoints
 70
     0
 62
     7
  6
Continuous
290
     0
370
    -3
390
F
347
98
348
0
  0
LAYER
  5
126
330
2
100
AcDbSymbolTableRecord
100
AcDbLayerTableRecord
  2
中心線
 70
     0
 62
     7
  6
CENTER
370
    15
390
F
347
98
348
0
  0
LAYER
  5
129
330
2
100
AcDbSymbolTableRecord
100
AcDbLayerTableRecord
  2
実線
 70
     0
 62
     7
  6
Continuous
370
    25
390
F
347
98
348
0
  0
LAYER
  5
12A
330
2
100
AcDbSymbolTableRecord
100
AcDbLayerTableRecord
  2
文字・寸法線
 70
     0
 62
     7
  6
Continuous
370
    13
390
F
347
98
348
0
  0
LAYER
  5
31A
330
2
100
AcDbSymbolTableRecord
100
AcDbLayerTableRecord
  2
文字
 70
     0
 62
     7
  6
Continuous
370
    18
390
F
347
98
348
0
  0
ENDTAB
  0
TABLE
  2
STYLE
  5
3
330
0
100
AcDbSymbolTable
 70
     1
  0
STYLE
  5
11
330
3
100
AcDbSymbolTableRecord
100
AcDbTextStyleTableRecord
  2
Standard
 70
     0
 40
0.0
 41
1.0
 50
0.0
 71
     0
 42
0.2
  3
arial.ttf
  4

1001
ACAD
1000
Arial
1071
        0
  0
ENDTAB
  0
TABLE
  2
VIEW
  5
6
330
0
100
AcDbSymbolTable
 70
     0
  0
ENDTAB
  0
TABLE
  2
UCS
  5
7
330
0
100
AcDbSymbolTable
 70
     0
  0
ENDTAB
  0
TABLE
  2
APPID
  5
9
330
0
100
AcDbSymbolTable
 70
     1
  0
APPID
  5
12
330
9
100
AcDbSymbolTableRecord
100
AcDbRegAppTableRecord
  2
ACAD
 70
     0
  0
ENDTAB
  0
TABLE
  2
DIMSTYLE
  5
A
330
0
100
AcDbSymbolTable
 70
     2
100
AcDbDimStyleTable
  0
DIMSTYLE
105
27
330
A
100
AcDbSymbolTableRecord
100
AcDbDimStyleTableRecord
  2
Standard
 70
     0
178
     0
340
11
  0
DIMSTYLE
105
12B
102
{ACAD_REACTORS
330
230
330
232
330
235
330
238
330
23B
330
23E
330
249
330
24C
330
24F
330
263
330
26A
330
26C
330
393
102
}
330
A
100
AcDbSymbolTableRecord
100
AcDbDimStyleTableRecord
  2
ISO-25
 70
     0
 41
2.5
 42
2.0
 43
3.75
 44
0.5
 73
     0
 74
     0
 77
     1
 78
     8
140
3.0
141
2.5
143
0.03937007874016
147
0.625
171
     3
172
     1
178
     0
271
     2
272
     2
274
     3
283
     0
284
     8
340
11
  0
ENDTAB
  0
TABLE
  2
BLOCK_RECORD
  5
1
330
0
100
AcDbSymbolTable
 70
    30
  0
BLOCK_RECORD
  5
1F
330
1
100
AcDbSymbolTableRecord
100
AcDbBlockTableRecord
  2
*Model_Space
340
22
 70
     0
280
     1
281
     0
  0
BLOCK_RECORD
  5
58
330
1
100
AcDbSymbolTableRecord
100
AcDbBlockTableRecord
  2
*Paper_Space
340
59
 70
     0
280
     1
281
     0
  0
BLOCK_RECORD
  5
5D
330
1
100
AcDbSymbolTableRecord
100
AcDbBlockTableRecord
  2
*Paper_Space0
340
5E
 70
     0
280
     1
281
     0
  0
BLOCK_RECORD
  5
14B
330
1
100
AcDbSymbolTableRecord
100
AcDbBlockTableRecord
  2
*D1
340
0
 70
     0
280
     1
281
     0
  0
BLOCK_RECORD
  5
15E
330
1
100
AcDbSymbolTableRecord
100
AcDbBlockTableRecord
  2
*D2
340
0
 70
     0
280
     1
281
     0
  0
BLOCK_RECORD
  5
16D
330
1
100
AcDbSymbolTableRecord
100
AcDbBlockTableRecord
  2
*D3
340
0
 70
     0
280
     1
281
     0
  0
BLOCK_RECORD
  5
17C
330
1
100
AcDbSymbolTableRecord
100
AcDbBlockTableRecord
  2
*D4
340
0
 70
     0
280
     1
281
     0
  0
BLOCK_RECORD
  5
18B
330
1
100
AcDbSymbolTableRecord
100
AcDbBlockTableRecord
  2
*D5
340
0
 70
     0
280
     1
281
     0
  0
BLOCK_RECORD
  5
19F
330
1
100
AcDbSymbolTableRecord
100
AcDbBlockTableRecord
  2
*D6
340
0
 70
     0
280
     1
281
     0
  0
BLOCK_RECORD
  5
1AE
330
1
100
AcDbSymbolTableRecord
100
AcDbBlockTableRecord
  2
*D7
340
0
 70
     0
280
     1
281
     0
  0
BLOCK_RECORD
  5
1BD
330
1
100
AcDbSymbolTableRecord
100
AcDbBlockTableRecord
  2
*D8
340
0
 70
     0
280
     1
281
     0
  0
BLOCK_RECORD
  5
1CC
330
1
100
AcDbSymbolTableRecord
100
AcDbBlockTableRecord
  2
*D9
340
0
 70
     0
280
     1
281
     0
  0
BLOCK_RECORD
  5
1EE
330
1
100
AcDbSymbolTableRecord
100
AcDbBlockTableRecord
  2
*D10
340
0
 70
     0
280
     1
281
     0
  0
BLOCK_RECORD
  5
1FF
330
1
100
AcDbSymbolTableRecord
100
AcDbBlockTableRecord
  2
*D11
340
0
 70
     0
280
     1
281
     0
  0
BLOCK_RECORD
  5
20D
330
1
100
AcDbSymbolTableRecord
100
AcDbBlockTableRecord
  2
*D12
340
0
 70
     0
280
     1
281
     0
  0
BLOCK_RECORD
  5
281
330
1
100
AcDbSymbolTableRecord
100
AcDbBlockTableRecord
  2
*D13
340
0
 70
     0
280
     1
281
     0
  0
BLOCK_RECORD
  5
28D
330
1
100
AcDbSymbolTableRecord
100
AcDbBlockTableRecord
  2
*D14
340
0
 70
     0
280
     1
281
     0
  0
BLOCK_RECORD
  5
299
330
1
100
AcDbSymbolTableRecord
100
AcDbBlockTableRecord
  2
*D15
340
0
 70
     0
280
     1
281
     0
  0
BLOCK_RECORD
  5
2A5
330
1
100
AcDbSymbolTableRecord
100
AcDbBlockTableRecord
  2
*D16
340
0
 70
     0
280
     1
281
     0
  0
BLOCK_RECORD
  5
2B1
330
1
100
AcDbSymbolTableRecord
100
AcDbBlockTableRecord
  2
*D17
340
0
 70
     0
280
     1
281
     0
  0
BLOCK_RECORD
  5
2BD
330
1
100
AcDbSymbolTableRecord
100
AcDbBlockTableRecord
  2
*D18
340
0
 70
     0
280
     1
281
     0
  0
BLOCK_RECORD
  5
2C9
330
1
100
AcDbSymbolTableRecord
100
AcDbBlockTableRecord
  2
*D19
340
0
 70
     0
280
     1
281
     0
  0
BLOCK_RECORD
  5
2D5
330
1
100
AcDbSymbolTableRecord
100
AcDbBlockTableRecord
  2
*D20
340
0
 70
     0
280
     1
281
     0
  0
BLOCK_RECORD
  5
2E1
330
1
100
AcDbSymbolTableRecord
100
AcDbBlockTableRecord
  2
*D21
340
0
 70
     0
280
     1
281
     0
  0
BLOCK_RECORD
  5
2EF
330
1
100
AcDbSymbolTableRecord
100
AcDbBlockTableRecord
  2
*D22
340
0
 70
     0
280
     1
281
     0
  0
BLOCK_RECORD
  5
2FB
330
1
100
AcDbSymbolTableRecord
100
AcDbBlockTableRecord
  2
*D23
340
0
 70
     0
280
     1
281
     0
  0
BLOCK_RECORD
  5
307
330
1
100
AcDbSymbolTableRecord
100
AcDbBlockTableRecord
  2
*D24
340
0
 70
     0
280
     1
281
     0
  0
BLOCK_RECORD
  5
33E
330
1
100
AcDbSymbolTableRecord
100
AcDbBlockTableRecord
  2
*D25
340
0
 70
     0
280
     1
281
     0
  0
BLOCK_RECORD
  5
350
330
1
100
AcDbSymbolTableRecord
100
AcDbBlockTableRecord
  2
*D26
340
0
 70
     0
280
     1
281
     0
  0
BLOCK_RECORD
  5
384
330
1
100
AcDbSymbolTableRecord
100
AcDbBlockTableRecord
  2
*D27
340
0
 70
     0
280
     1
281
     0
  0
BLOCK_RECORD
  5
396
330
1
100
AcDbSymbolTableRecord
100
AcDbBlockTableRecord
  2
*D28
340
0
 70
     0
280
     1
281
     0
  0
ENDTAB
  0
ENDSEC
  0
SECTION
  2
BLOCKS
  0
BLOCK
  5
20
330
1F
100
AcDbEntity
  8
0
100
AcDbBlockBegin
  2
*Model_Space
 70
     0
 10
0.0
 20
0.0
 30
0.0
  3
*Model_Space
  1
*Model_Space
  0
ENDBLK
  5
21
330
1F
100
AcDbEntity
  8
0
100
AcDbBlockEnd
  0
BLOCK
  5
5A
330
58
100
AcDbEntity
 67
     1
  8
0
100
AcDbBlockBegin
  2
*Paper_Space
 70
     0
 10
0.0
 20
0.0
 30
0.0
  3
*Paper_Space
  1
*Paper_Space
  0
ENDBLK
  5
5B
330
58
100
AcDbEntity
 67
     1
  8
0
100
AcDbBlockEnd
  0
BLOCK
  5
5F
330
5D
100
AcDbEntity
  8
0
100
AcDbBlockBegin
  2
*Paper_Space0
 70
     0
 10
0.0
 20
0.0
 30
0.0
  3
*Paper_Space0
  1
*Paper_Space0
  0
ENDBLK
  5
60
330
5D
100
AcDbEntity
  8
0
100
AcDbBlockEnd
  0
BLOCK
  5
14C
330
14B
100
AcDbEntity
  8
0
100
AcDbBlockBegin
  2
*D1
 70
     1
 10
0.0
 20
0.0
 30
0.0
  3
*D1
  1
*D2
  0
LINE
  5
14D
330
14B
100
AcDbEntity
  8
文字・寸法線
 62
     0
370
    -2
100
AcDbLine
 10
290.2336159611101
 20
85.16915245415818
 30
0.0
 11
332.935911766718
 21
85.16915245415818
 31
0.0
  0
LINE
  5
14E
330
14B
100
AcDbEntity
  8
文字・寸法線
 62
     0
370
    -2
100
AcDbLine
 10
290.2336159611101
 20
35.16915245415815
 30
0.0
 11
332.935911766718
 21
35.16915245415815
 31
0.0
  0
LINE
  5
14F
330
14B
100
AcDbEntity
  8
文字・寸法線
 62
     0
370
    -2
100
AcDbLine
 10
332.435911766718
 20
82.66915245415818
 30
0.0
 11
332.435911766718
 21
37.66915245415815
 31
0.0
  0
SOLID
  5
150
330
14B
100
AcDbEntity
  8
文字・寸法線
 62
     0
100
AcDbTrace
 10
332.8525784333847
 20
82.66915245415818
 30
0.0
 11
332.0192451000514
 21
82.66915245415818
 31
0.0
 12
332.435911766718
 22
85.16915245415818
 32
0.0
 13
332.435911766718
 23
85.16915245415818
 33
0.0
  0
SOLID
  5
151
330
14B
100
AcDbEntity
  8
文字・寸法線
 62
     0
100
AcDbTrace
 10
332.0192451000514
 20
37.66915245415815
 30
0.0
 11
332.8525784333847
 21
37.66915245415815
 31
0.0
 12
332.435911766718
 22
35.16915245415815
 32
0.0
 13
332.435911766718
 23
35.16915245415815
 33
0.0
  0
MTEXT
  5
152
330
14B
100
AcDbEntity
  8
文字・寸法線
 62
     0
100
AcDbMText
 10
330.2802159959131
 20
60.16915245415817
 30
0.0
 40
3.0
 41
0.0
 46
0.0
 71
     5
 72
     1
  1
50
 11
0.0
 21
1.0
 31
0.0
 73
     1
 44
1.0
  0
POINT
  5
153
330
14B
100
AcDbEntity
  8
Defpoints
 62
     0
100
AcDbPoint
 10
288.2336159611101
 20
85.16915245415818
 30
0.0
  0
POINT
  5
154
330
14B
100
AcDbEntity
  8
Defpoints
 62
     0
100
AcDbPoint
 10
288.2336159611101
 20
35.16915245415815
 30
0.0
  0
POINT
  5
155
330
14B
100
AcDbEntity
  8
Defpoints
 62
     0
100
AcDbPoint
 10
332.435911766718
 20
35.16915245415815
 30
0.0
  0
ENDBLK
  5
156
330
14B
100
AcDbEntity
  8
0
100
AcDbBlockEnd
  0
BLOCK
  5
15F
330
15E
100
AcDbEntity
  8
0
100
AcDbBlockBegin
  2
*D2
 70
     1
 10
0.0
 20
0.0
 30
0.0
  3
*D2
  1
*D3
  0
LINE
  5
160
330
15E
100
AcDbEntity
  8
文字・寸法線
 62
     0
370
    -2
100
AcDbLine
 10
228.2336159611101
 20
105.8548963825642
 30
0.0
 11
228.2336159611101
 21
104.3548963825642
 31
0.0
  0
LINE
  5
161
330
15E
100
AcDbEntity
  8
文字・寸法線
 62
     0
370
    -2
100
AcDbLine
 10
213.23361596111
 20
62.16915245415822
 30
0.0
 11
213.23361596111
 21
104.3548963825642
 31
0.0
  0
LINE
  5
162
330
15E
100
AcDbEntity
  8
文字・寸法線
 62
     0
370
    -2
100
AcDbLine
 10
225.7336159611101
 20
103.8548963825642
 30
0.0
 11
215.73361596111
 21
103.8548963825642
 31
0.0
  0
SOLID
  5
163
330
15E
100
AcDbEntity
  8
文字・寸法線
 62
     0
100
AcDbTrace
 10
225.7336159611101
 20
103.4382297158975
 30
0.0
 11
225.7336159611101
 21
104.2715630492309
 31
0.0
 12
228.2336159611101
 22
103.8548963825642
 32
0.0
 13
228.2336159611101
 23
103.8548963825642
 33
0.0
  0
SOLID
  5
164
330
15E
100
AcDbEntity
  8
文字・寸法線
 62
     0
100
AcDbTrace
 10
215.73361596111
 20
104.2715630492309
 30
0.0
 11
215.73361596111
 21
103.4382297158975
 31
0.0
 12
213.23361596111
 22
103.8548963825642
 32
0.0
 13
213.23361596111
 23
103.8548963825642
 33
0.0
  0
MTEXT
  5
165
330
15E
100
AcDbEntity
  8
文字・寸法線
 62
     0
100
AcDbMText
 10
220.7336159611101
 20
106.0105921533691
 30
0.0
 40
3.0
 41
0.0
 46
0.0
 71
     5
 72
     1
  1
15
 73
     1
 44
1.0
  0
POINT
  5
166
330
15E
100
AcDbEntity
  8
Defpoints
 62
     0
100
AcDbPoint
 10
228.2336159611101
 20
103.8548963825642
 30
0.0
  0
POINT
  5
167
330
15E
100
AcDbEntity
  8
Defpoints
 62
     0
100
AcDbPoint
 10
213.23361596111
 20
60.16915245415822
 30
0.0
  0
POINT
  5
168
330
15E
100
AcDbEntity
  8
Defpoints
 62
     0
100
AcDbPoint
 10
213.23361596111
 20
103.8548963825642
 30
0.0
  0
ENDBLK
  5
169
330
15E
100
AcDbEntity
  8
0
100
AcDbBlockEnd
  0
BLOCK
  5
16E
330
16D
100
AcDbEntity
  8
0
100
AcDbBlockBegin
  2
*D3
 70
     1
 10
0.0
 20
0.0
 30
0.0
  3
*D3
  1
*D4
  0
LINE
  5
16F
330
16D
100
AcDbEntity
  8
文字・寸法線
 62
     0
370
    -2
100
AcDbLine
 10
288.2336159611101
 20
94.4308345921047
 30
0.0
 11
288.2336159611101
 21
104.3548963825642
 31
0.0
  0
LINE
  5
170
330
16D
100
AcDbEntity
  8
文字・寸法線
 62
     0
370
    -2
100
AcDbLine
 10
228.2336159611101
 20
93.8058345921047
 30
0.0
 11
228.2336159611101
 21
104.3548963825642
 31
0.0
  0
LINE
  5
171
330
16D
100
AcDbEntity
  8
文字・寸法線
 62
     0
370
    -2
100
AcDbLine
 10
285.7336159611101
 20
103.8548963825642
 30
0.0
 11
230.7336159611101
 21
103.8548963825642
 31
0.0
  0
SOLID
  5
172
330
16D
100
AcDbEntity
  8
文字・寸法線
 62
     0
100
AcDbTrace
 10
285.7336159611101
 20
103.4382297158975
 30
0.0
 11
285.7336159611101
 21
104.2715630492309
 31
0.0
 12
288.2336159611101
 22
103.8548963825642
 32
0.0
 13
288.2336159611101
 23
103.8548963825642
 33
0.0
  0
SOLID
  5
173
330
16D
100
AcDbEntity
  8
文字・寸法線
 62
     0
100
AcDbTrace
 10
230.7336159611101
 20
104.2715630492309
 30
0.0
 11
230.7336159611101
 21
103.4382297158975
 31
0.0
 12
228.2336159611101
 22
103.8548963825642
 32
0.0
 13
228.2336159611101
 23
103.8548963825642
 33
0.0
  0
MTEXT
  5
174
330
16D
100
AcDbEntity
  8
文字・寸法線
 62
     0
100
AcDbMText
 10
258.2336159611101
 20
106.0105921533691
 30
0.0
 40
3.0
 41
0.0
 46
0.0
 71
     5
 72
     1
  1
60
 73
     1
 44
1.0
  0
POINT
  5
175
330
16D
100
AcDbEntity
  8
Defpoints
 62
     0
100
AcDbPoint
 10
288.2336159611101
 20
92.4308345921047
 30
0.0
  0
POINT
  5
176
330
16D
100
AcDbEntity
  8
Defpoints
 62
     0
100
AcDbPoint
 10
228.2336159611101
 20
91.8058345921047
 30
0.0
  0
POINT
  5
177
330
16D
100
AcDbEntity
  8
Defpoints
 62
     0
100
AcDbPoint
 10
228.2336159611101
 20
103.8548963825642
 30
0.0
  0
ENDBLK
  5
178
330
16D
100
AcDbEntity
  8
0
100
AcDbBlockEnd
  0
BLOCK
  5
17D
330
17C
100
AcDbEntity
  8
0
100
AcDbBlockBegin
  2
*D4
 70
     1
 10
0.0
 20
0.0
 30
0.0
  3
*D4
  1
*D5
  0
LINE
  5
17E
330
17C
100
AcDbEntity
  8
文字・寸法線
 62
     0
370
    -2
100
AcDbLine
 10
313.2336159611101
 20
62.16915245415822
 30
0.0
 11
313.2336159611101
 21
104.3548963825642
 31
0.0
  0
LINE
  5
17F
330
17C
100
AcDbEntity
  8
文字・寸法線
 62
     0
370
    -2
100
AcDbLine
 10
288.2336159611101
 20
93.8058345921047
 30
0.0
 11
288.2336159611101
 21
104.3548963825642
 31
0.0
  0
LINE
  5
180
330
17C
100
AcDbEntity
  8
文字・寸法線
 62
     0
370
    -2
100
AcDbLine
 10
310.7336159611101
 20
103.8548963825642
 30
0.0
 11
290.7336159611101
 21
103.8548963825642
 31
0.0
  0
SOLID
  5
181
330
17C
100
AcDbEntity
  8
文字・寸法線
 62
     0
100
AcDbTrace
 10
310.7336159611101
 20
103.4382297158975
 30
0.0
 11
310.7336159611101
 21
104.2715630492309
 31
0.0
 12
313.2336159611101
 22
103.8548963825642
 32
0.0
 13
313.2336159611101
 23
103.8548963825642
 33
0.0
  0
SOLID
  5
182
330
17C
100
AcDbEntity
  8
文字・寸法線
 62
     0
100
AcDbTrace
 10
290.7336159611101
 20
104.2715630492309
 30
0.0
 11
290.7336159611101
 21
103.4382297158975
 31
0.0
 12
288.2336159611101
 22
103.8548963825642
 32
0.0
 13
288.2336159611101
 23
103.8548963825642
 33
0.0
  0
MTEXT
  5
183
330
17C
100
AcDbEntity
  8
文字・寸法線
 62
     0
100
AcDbMText
 10
300.7336159611101
 20
106.0105921533691
 30
0.0
 40
3.0
 41
0.0
 46
0.0
 71
     5
 72
     1
  1
25
 73
     1
 44
1.0
  0
POINT
  5
184
330
17C
100
AcDbEntity
  8
Defpoints
 62
     0
100
AcDbPoint
 10
313.2336159611101
 20
60.16915245415822
 30
0.0
  0
POINT
  5
185
330
17C
100
AcDbEntity
  8
Defpoints
 62
     0
100
AcDbPoint
 10
288.2336159611101
 20
91.8058345921047
 30
0.0
  0
POINT
  5
186
330
17C
100
AcDbEntity
  8
Defpoints
 62
     0
100
AcDbPoint
 10
288.2336159611101
 20
103.8548963825642
 30
0.0
  0
ENDBLK
  5
187
330
17C
100
AcDbEntity
  8
0
100
AcDbBlockEnd
  0
BLOCK
  5
18C
330
18B
100
AcDbEntity
  8
0
100
AcDbBlockBegin
  2
*D5
 70
     1
 10
0.0
 20
0.0
 30
0.0
  3
*D5
  1
*D6
  0
LINE
  5
18D
330
18B
100
AcDbEntity
  8
文字・寸法線
 62
     0
370
    -2
100
AcDbLine
 10
290.2336159611101
 20
42.63939054939625
 30
0.0
 11
325.3923222752171
 21
42.63939054939625
 31
0.0
  0
LINE
  5
18E
330
18B
100
AcDbEntity
  8
文字・寸法線
 62
     0
370
    -2
100
AcDbLine
 10
290.2336159611099
 20
77.6989143589201
 30
0.0
 11
325.3923222752171
 21
77.6989143589201
 31
0.0
  0
LINE
  5
18F
330
18B
100
AcDbEntity
  8
文字・寸法線
 62
     0
370
    -2
100
AcDbLine
 10
324.8923222752171
 20
45.13939054939625
 30
0.0
 11
324.8923222752171
 21
75.1989143589201
 31
0.0
  0
SOLID
  5
190
330
18B
100
AcDbEntity
  8
文字・寸法線
 62
     0
100
AcDbTrace
 10
324.4756556085504
 20
45.13939054939625
 30
0.0
 11
325.3089889418838
 21
45.13939054939625
 31
0.0
 12
324.8923222752171
 22
42.63939054939625
 32
0.0
 13
324.8923222752171
 23
42.63939054939625
 33
0.0
  0
SOLID
  5
191
330
18B
100
AcDbEntity
  8
文字・寸法線
 62
     0
100
AcDbTrace
 10
325.3089889418838
 20
75.1989143589201
 30
0.0
 11
324.4756556085504
 21
75.1989143589201
 31
0.0
 12
324.8923222752171
 22
77.6989143589201
 32
0.0
 13
324.8923222752171
 23
77.6989143589201
 33
0.0
  0
MTEXT
  5
192
330
18B
100
AcDbEntity
  8
文字・寸法線
 62
     0
100
AcDbMText
 10
322.7366265044122
 20
60.16915245415818
 30
0.0
 40
3.0
 41
0.0
 46
0.0
 71
     5
 72
     1
  1
35
 11
0.0
 21
1.0
 31
0.0
 73
     1
 44
1.0
  0
POINT
  5
193
330
18B
100
AcDbEntity
  8
Defpoints
 62
     0
100
AcDbPoint
 10
288.2336159611101
 20
42.63939054939625
 30
0.0
  0
POINT
  5
194
330
18B
100
AcDbEntity
  8
Defpoints
 62
     0
100
AcDbPoint
 10
288.2336159611099
 20
77.6989143589201
 30
0.0
  0
POINT
  5
195
330
18B
100
AcDbEntity
  8
Defpoints
 62
     0
100
AcDbPoint
 10
324.8923222752171
 20
77.6989143589201
 30
0.0
  0
ENDBLK
  5
196
330
18B
100
AcDbEntity
  8
0
100
AcDbBlockEnd
  0
BLOCK
  5
1A0
330
19F
100
AcDbEntity
  8
0
100
AcDbBlockBegin
  2
*D6
 70
     1
 10
0.0
 20
0.0
 30
0.0
  3
*D6
  1
*D7
  0
LINE
  5
1A1
330
19F
100
AcDbEntity
  8
文字・寸法線
 62
     0
370
    -2
100
AcDbLine
 10
121.0645709122596
 20
48.23437861763227
 30
0.0
 11
122.5645709122596
 21
48.23437861763227
 31
0.0
  0
LINE
  5
1A2
330
19F
100
AcDbEntity
  8
文字・寸法線
 62
     0
370
    -2
100
AcDbLine
 10
89.65623915977143
 20
98.23437861763227
 30
0.0
 11
123.5645709122596
 21
98.23437861763227
 31
0.0
  0
LINE
  5
1A3
330
19F
100
AcDbEntity
  8
文字・寸法線
 62
     0
370
    -2
100
AcDbLine
 10
123.0645709122596
 20
50.73437861763227
 30
0.0
 11
123.0645709122596
 21
95.73437861763227
 31
0.0
  0
SOLID
  5
1A4
330
19F
100
AcDbEntity
  8
文字・寸法線
 62
     0
100
AcDbTrace
 10
122.6479042455929
 20
50.73437861763227
 30
0.0
 11
123.4812375789263
 21
50.73437861763227
 31
0.0
 12
123.0645709122596
 22
48.23437861763227
 32
0.0
 13
123.0645709122596
 23
48.23437861763227
 33
0.0
  0
SOLID
  5
1A5
330
19F
100
AcDbEntity
  8
文字・寸法線
 62
     0
100
AcDbTrace
 10
123.4812375789263
 20
95.73437861763227
 30
0.0
 11
122.6479042455929
 21
95.73437861763227
 31
0.0
 12
123.0645709122596
 22
98.23437861763227
 32
0.0
 13
123.0645709122596
 23
98.23437861763227
 33
0.0
  0
MTEXT
  5
1A6
330
19F
100
AcDbEntity
  8
文字・寸法線
 62
     0
100
AcDbMText
 10
120.9088751414547
 20
73.23437861763227
 30
0.0
 40
3.0
 41
0.0
 46
0.0
 71
     5
 72
     1
  1
50
 11
0.0
 21
1.0
 31
0.0
 73
     1
 44
1.0
  0
POINT
  5
1A7
330
19F
100
AcDbEntity
  8
Defpoints
 62
     0
100
AcDbPoint
 10
123.0645709122596
 20
48.23437861763227
 30
0.0
  0
POINT
  5
1A8
330
19F
100
AcDbEntity
  8
Defpoints
 62
     0
100
AcDbPoint
 10
87.65623915977143
 20
98.23437861763227
 30
0.0
  0
POINT
  5
1A9
330
19F
100
AcDbEntity
  8
Defpoints
 62
     0
100
AcDbPoint
 10
123.0645709122596
 20
98.23437861763227
 30
0.0
  0
ENDBLK
  5
1AA
330
19F
100
AcDbEntity
  8
0
100
AcDbBlockEnd
  0
BLOCK
  5
1AF
330
1AE
100
AcDbEntity
  8
0
100
AcDbBlockBegin
  2
*D7
 70
     1
 10
0.0
 20
0.0
 30
0.0
  3
*D7
  1
*D8
  0
LINE
  5
1B0
330
1AE
100
AcDbEntity
  8
文字・寸法線
 62
     0
370
    -2
100
AcDbLine
 10
93.93353104931981
 20
41.23437861763227
 30
0.0
 11
123.5645709122596
 21
41.23437861763227
 31
0.0
  0
LINE
  5
1B1
330
1AE
100
AcDbEntity
  8
文字・寸法線
 62
     0
370
    -2
100
AcDbLine
 10
96.45623915977143
 20
48.23437861763227
 30
0.0
 11
123.5645709122596
 21
48.23437861763227
 31
0.0
  0
LINE
  5
1B2
330
1AE
100
AcDbEntity
  8
文字・寸法線
 62
     0
370
    -2
100
AcDbLine
 10
123.0645709122596
 20
43.73437861763227
 30
0.0
 11
123.0645709122596
 21
45.73437861763227
 31
0.0
  0
SOLID
  5
1B3
330
1AE
100
AcDbEntity
  8
文字・寸法線
 62
     0
100
AcDbTrace
 10
122.6479042455929
 20
43.73437861763227
 30
0.0
 11
123.4812375789262
 21
43.73437861763227
 31
0.0
 12
123.0645709122596
 22
41.23437861763227
 32
0.0
 13
123.0645709122596
 23
41.23437861763227
 33
0.0
  0
SOLID
  5
1B4
330
1AE
100
AcDbEntity
  8
文字・寸法線
 62
     0
100
AcDbTrace
 10
123.4812375789262
 20
45.73437861763227
 30
0.0
 11
122.6479042455929
 21
45.73437861763227
 31
0.0
 12
123.0645709122596
 22
48.23437861763227
 32
0.0
 13
123.0645709122596
 23
48.23437861763227
 33
0.0
  0
MTEXT
  5
1B5
330
1AE
100
AcDbEntity
  8
文字・寸法線
 62
     0
100
AcDbMText
 10
120.9395709122596
 20
44.73437861763227
 30
0.0
 40
3.0
 41
0.0
 46
0.0
 71
     5
 72
     1
  1
7
 11
0.0
 21
1.0
 31
0.0
 73
     1
 44
1.0
  0
POINT
  5
1B6
330
1AE
100
AcDbEntity
  8
Defpoints
 62
     0
100
AcDbPoint
 10
91.93353104931981
 20
41.23437861763227
 30
0.0
  0
POINT
  5
1B7
330
1AE
100
AcDbEntity
  8
Defpoints
 62
     0
100
AcDbPoint
 10
94.45623915977143
 20
48.23437861763227
 30
0.0
  0
POINT
  5
1B8
330
1AE
100
AcDbEntity
  8
Defpoints
 62
     0
100
AcDbPoint
 10
123.0645709122596
 20
48.23437861763227
 30
0.0
  0
ENDBLK
  5
1B9
330
1AE
100
AcDbEntity
  8
0
100
AcDbBlockEnd
  0
BLOCK
  5
1BE
330
1BD
100
AcDbEntity
  8
0
100
AcDbBlockBegin
  2
*D8
 70
     1
 10
0.0
 20
0.0
 30
0.0
  3
*D8
  1
*D9
  0
LINE
  5
1BF
330
1BD
100
AcDbEntity
  8
文字・寸法線
 62
     0
370
    -2
100
AcDbLine
 10
111.6562391597714
 20
24.85937861763227
 30
0.0
 11
123.5645709122596
 21
24.85937861763227
 31
0.0
  0
LINE
  5
1C0
330
1BD
100
AcDbEntity
  8
文字・寸法線
 62
     0
370
    -2
100
AcDbLine
 10
93.96904750591683
 20
41.23437861763229
 30
0.0
 11
123.5645709122596
 21
41.23437861763229
 31
0.0
  0
LINE
  5
1C1
330
1BD
100
AcDbEntity
  8
文字・寸法線
 62
     0
370
    -2
100
AcDbLine
 10
123.0645709122596
 20
27.35937861763227
 30
0.0
 11
123.0645709122596
 21
38.73437861763229
 31
0.0
  0
SOLID
  5
1C2
330
1BD
100
AcDbEntity
  8
文字・寸法線
 62
     0
100
AcDbTrace
 10
122.6479042455929
 20
27.35937861763227
 30
0.0
 11
123.4812375789263
 21
27.35937861763227
 31
0.0
 12
123.0645709122596
 22
24.85937861763227
 32
0.0
 13
123.0645709122596
 23
24.85937861763227
 33
0.0
  0
SOLID
  5
1C3
330
1BD
100
AcDbEntity
  8
文字・寸法線
 62
     0
100
AcDbTrace
 10
123.4812375789263
 20
38.73437861763229
 30
0.0
 11
122.6479042455929
 21
38.73437861763229
 31
0.0
 12
123.0645709122596
 22
41.23437861763229
 32
0.0
 13
123.0645709122596
 23
41.23437861763229
 33
0.0
  0
MTEXT
  5
1C4
330
1BD
100
AcDbEntity
  8
文字・寸法線
 62
     0
100
AcDbMText
 10
120.9334317580986
 20
33.04687861763228
 30
0.0
 40
3.0
 41
0.0
 46
0.0
 71
     5
 72
     1
  1
17
 11
0.0
 21
1.0
 31
0.0
 73
     1
 44
1.0
  0
POINT
  5
1C5
330
1BD
100
AcDbEntity
  8
Defpoints
 62
     0
100
AcDbPoint
 10
109.6562391597714
 20
24.85937861763227
 30
0.0
  0
POINT
  5
1C6
330
1BD
100
AcDbEntity
  8
Defpoints
 62
     0
100
AcDbPoint
 10
91.96904750591683
 20
41.23437861763229
 30
0.0
  0
POINT
  5
1C7
330
1BD
100
AcDbEntity
  8
Defpoints
 62
     0
100
AcDbPoint
 10
123.0645709122596
 20
41.23437861763229
 30
0.0
  0
ENDBLK
  5
1C8
330
1BD
100
AcDbEntity
  8
0
100
AcDbBlockEnd
  0
BLOCK
  5
1CD
330
1CC
100
AcDbEntity
  8
0
100
AcDbBlockBegin
  2
*D9
 70
     1
 10
0.0
 20
0.0
 30
0.0
  3
*D9
  1
*D10
  0
LINE
  5
1CE
330
1CC
100
AcDbEntity
  8
文字・寸法線
 62
     0
370
    -2
100
AcDbLine
 10
7.656239159771403
 20
24.85937861763233
 30
0.0
 11
3.125000000000014
 21
24.85937861763233
 31
0.0
  0
LINE
  5
1CF
330
1CC
100
AcDbEntity
  8
文字・寸法線
 62
     0
370
    -2
100
AcDbLine
 10
7.656239159771403
 20
26.85937861763233
 30
0.0
 11
3.125000000000014
 21
26.85937861763233
 31
0.0
  0
LINE
  5
1D0
330
1CC
100
AcDbEntity
  8
文字・寸法線
 62
     0
370
    -2
100
AcDbLine
 10
3.625000000000014
 20
29.35937861763233
 30
0.0
 11
3.625000000000014
 21
35.10255733523124
 31
0.0
  0
LINE
  5
1D1
330
1CC
100
AcDbEntity
  8
文字・寸法線
 62
     0
370
    -2
100
AcDbLine
 10
3.625000000000014
 20
24.85937861763233
 30
0.0
 11
3.625000000000014
 21
26.85937861763233
 31
0.0
  0
LINE
  5
1D2
330
1CC
100
AcDbEntity
  8
文字・寸法線
 62
     0
370
    -2
100
AcDbLine
 10
3.625000000000014
 20
22.35937861763233
 30
0.0
 11
3.625000000000014
 21
19.85937861763233
 31
0.0
  0
SOLID
  5
1D3
330
1CC
100
AcDbEntity
  8
文字・寸法線
 62
     0
100
AcDbTrace
 10
4.041666666666681
 20
22.35937861763233
 30
0.0
 11
3.208333333333348
 21
22.35937861763233
 31
0.0
 12
3.625000000000014
 22
24.85937861763233
 32
0.0
 13
3.625000000000014
 23
24.85937861763233
 33
0.0
  0
SOLID
  5
1D4
330
1CC
100
AcDbEntity
  8
文字・寸法線
 62
     0
100
AcDbTrace
 10
3.208333333333348
 20
29.35937861763233
 30
0.0
 11
4.041666666666681
 21
29.35937861763233
 31
0.0
 12
3.625000000000014
 22
26.85937861763233
 32
0.0
 13
3.625000000000014
 23
26.85937861763233
 33
0.0
  0
MTEXT
  5
1D5
330
1CC
100
AcDbEntity
  8
文字・寸法線
 62
     0
100
AcDbMText
 10
1.493860845839031
 20
33.48096797643178
 30
0.0
 40
3.0
 41
0.0
 46
0.0
 71
     5
 72
     1
  1
2
 11
0.0
 21
1.0
 31
0.0
 73
     1
 44
1.0
  0
POINT
  5
1D6
330
1CC
100
AcDbEntity
  8
Defpoints
 62
     0
100
AcDbPoint
 10
9.656239159771403
 20
24.85937861763233
 30
0.0
  0
POINT
  5
1D7
330
1CC
100
AcDbEntity
  8
Defpoints
 62
     0
100
AcDbPoint
 10
9.656239159771403
 20
26.85937861763233
 30
0.0
  0
POINT
  5
1D8
330
1CC
100
AcDbEntity
  8
Defpoints
 62
     0
100
AcDbPoint
 10
3.625000000000014
 20
26.85937861763233
 30
0.0
  0
ENDBLK
  5
1D9
330
1CC
100
AcDbEntity
  8
0
100
AcDbBlockEnd
  0
BLOCK
  5
1EF
330
1EE
100
AcDbEntity
  8
0
100
AcDbBlockBegin
  2
*D10
 70
     1
 10
0.0
 20
0.0
 30
0.0
  3
*D10
  1
*D11
  0
LINE
  5
1F0
330
1EE
100
AcDbEntity
  8
文字・寸法線
 62
     0
370
    -2
100
AcDbLine
 10
109.6562391597714
 20
22.85937861763227
 30
0.0
 11
109.6562391597714
 21
0.0
 31
0.0
  0
LINE
  5
1F1
330
1EE
100
AcDbEntity
  8
文字・寸法線
 62
     0
370
    -2
100
AcDbLine
 10
9.656239159771403
 20
22.85937861763233
 30
0.0
 11
9.656239159771403
 21
0.0
 31
0.0
  0
LINE
  5
1F2
330
1EE
100
AcDbEntity
  8
文字・寸法線
 62
     0
370
    -2
100
AcDbLine
 10
107.1562391597714
 20
0.5
 30
0.0
 11
12.1562391597714
 21
0.5
 31
0.0
  0
SOLID
  5
1F3
330
1EE
100
AcDbEntity
  8
文字・寸法線
 62
     0
100
AcDbTrace
 10
107.1562391597714
 20
0.0833333333333333
 30
0.0
 11
107.1562391597714
 21
0.9166666666666667
 31
0.0
 12
109.6562391597714
 22
0.5
 32
0.0
 13
109.6562391597714
 23
0.5
 33
0.0
  0
SOLID
  5
1F4
330
1EE
100
AcDbEntity
  8
文字・寸法線
 62
     0
100
AcDbTrace
 10
12.1562391597714
 20
0.9166666666666667
 30
0.0
 11
12.1562391597714
 21
0.0833333333333333
 31
0.0
 12
9.656239159771403
 22
0.5
 32
0.0
 13
9.656239159771403
 23
0.5
 33
0.0
  0
MTEXT
  5
1F5
330
1EE
100
AcDbEntity
  8
文字・寸法線
 62
     0
100
AcDbMText
 10
59.6562391597714
 20
2.655695770804911
 30
0.0
 40
3.0
 41
0.0
 46
0.0
 71
     5
 72
     1
  1
100
 73
     1
 44
1.0
  0
POINT
  5
1F6
330
1EE
100
AcDbEntity
  8
Defpoints
 62
     0
100
AcDbPoint
 10
109.6562391597714
 20
24.85937861763227
 30
0.0
  0
POINT
  5
1F7
330
1EE
100
AcDbEntity
  8
Defpoints
 62
     0
100
AcDbPoint
 10
9.656239159771403
 20
24.85937861763233
 30
0.0
  0
POINT
  5
1F8
330
1EE
100
AcDbEntity
  8
Defpoints
 62
     0
100
AcDbPoint
 10
9.656239159771403
 20
0.5
 30
0.0
  0
ENDBLK
  5
1F9
330
1EE
100
AcDbEntity
  8
0
100
AcDbBlockEnd
  0
BLOCK
  5
200
330
1FF
100
AcDbEntity
  8
0
100
AcDbBlockBegin
  2
*D11
 70
     1
 10
0.0
 20
0.0
 30
0.0
  3
*D11
  1
*D12
  0
LINE
  5
201
330
1FF
100
AcDbEntity
  8
文字・寸法線
 62
     0
370
    -2
100
AcDbLine
 10
79.65623915977143
 20
98.23437861763227
 30
0.0
 11
79.65623915977143
 21
113.4081028340554
 31
0.0
  0
LINE
  5
202
330
1FF
100
AcDbEntity
  8
文字・寸法線
 62
     0
370
    -2
100
AcDbLine
 10
89.65623915977143
 20
98.23437861763227
 30
0.0
 11
89.65623915977143
 21
113.4081028340554
 31
0.0
  0
LINE
  5
203
330
1FF
100
AcDbEntity
  8
文字・寸法線
 62
     0
370
    -2
100
AcDbLine
 10
82.15623915977143
 20
112.9081028340554
 30
0.0
 11
87.15623915977143
 21
112.9081028340554
 31
0.0
  0
SOLID
  5
204
330
1FF
100
AcDbEntity
  8
文字・寸法線
 62
     0
100
AcDbTrace
 10
82.15623915977143
 20
113.3247695007221
 30
0.0
 11
82.15623915977143
 21
112.4914361673887
 31
0.0
 12
79.65623915977143
 22
112.9081028340554
 32
0.0
 13
79.65623915977143
 23
112.9081028340554
 33
0.0
  0
SOLID
  5
205
330
1FF
100
AcDbEntity
  8
文字・寸法線
 62
     0
100
AcDbTrace
 10
87.15623915977143
 20
112.4914361673887
 30
0.0
 11
87.15623915977143
 21
113.3247695007221
 31
0.0
 12
89.65623915977143
 22
112.9081028340554
 32
0.0
 13
89.65623915977143
 23
112.9081028340554
 33
0.0
  0
MTEXT
  5
206
330
1FF
100
AcDbEntity
  8
文字・寸法線
 62
     0
100
AcDbMText
 10
84.65623915977143
 20
115.0637986048603
 30
0.0
 40
3.0
 41
0.0
 46
0.0
 71
     5
 72
     1
  1
M10
 73
     1
 44
1.0
  0
POINT
  5
207
330
1FF
100
AcDbEntity
  8
Defpoints
 62
     0
100
AcDbPoint
 10
79.65623915977143
 20
96.23437861763227
 30
0.0
  0
POINT
  5
208
330
1FF
100
AcDbEntity
  8
Defpoints
 62
     0
100
AcDbPoint
 10
89.65623915977143
 20
96.23437861763227
 30
0.0
  0
POINT
  5
209
330
1FF
100
AcDbEntity
  8
Defpoints
 62
     0
100
AcDbPoint
 10
89.65623915977143
 20
112.9081028340554
 30
0.0
  0
ENDBLK
  5
20A
330
1FF
100
AcDbEntity
  8
0
100
AcDbBlockEnd
  0
BLOCK
  5
20E
330
20D
100
AcDbEntity
  8
0
100
AcDbBlockBegin
  2
*D12
 70
     1
 10
0.0
 20
0.0
 30
0.0
  3
*D12
  1
*D13
  0
LINE
  5
20F
330
20D
100
AcDbEntity
  8
文字・寸法線
 62
     0
370
    -2
100
AcDbLine
 10
279.7465670040226
 20
53.26915245415819
 30
0.0
 11
279.7465670040226
 21
22.51816396620552
 31
0.0
  0
LINE
  5
210
330
20D
100
AcDbEntity
  8
文字・寸法線
 62
     0
370
    -2
100
AcDbLine
 10
296.7206649181976
 20
53.26915245415819
 30
0.0
 11
296.7206649181976
 21
22.51816396620552
 31
0.0
  0
LINE
  5
211
330
20D
100
AcDbEntity
  8
文字・寸法線
 62
     0
370
    -2
100
AcDbLine
 10
282.2465670040226
 20
23.01816396620552
 30
0.0
 11
294.2206649181976
 21
23.01816396620552
 31
0.0
  0
SOLID
  5
212
330
20D
100
AcDbEntity
  8
文字・寸法線
 62
     0
100
AcDbTrace
 10
282.2465670040226
 20
23.43483063287219
 30
0.0
 11
282.2465670040226
 21
22.60149729953885
 31
0.0
 12
279.7465670040226
 22
23.01816396620552
 32
0.0
 13
279.7465670040226
 23
23.01816396620552
 33
0.0
  0
SOLID
  5
213
330
20D
100
AcDbEntity
  8
文字・寸法線
 62
     0
100
AcDbTrace
 10
294.2206649181976
 20
22.60149729953885
 30
0.0
 11
294.2206649181976
 21
23.43483063287219
 31
0.0
 12
296.7206649181976
 22
23.01816396620552
 32
0.0
 13
296.7206649181976
 23
23.01816396620552
 33
0.0
  0
MTEXT
  5
214
330
20D
100
AcDbEntity
  8
文字・寸法線
 62
     0
100
AcDbMText
 10
288.3047342167689
 20
25.1493031203665
 30
0.0
 40
3.0
 41
0.0
 46
0.0
 71
     5
 72
     1
  1
17
 73
     1
 44
1.0
  0
POINT
  5
215
330
20D
100
AcDbEntity
  8
Defpoints
 62
     0
100
AcDbPoint
 10
279.7465670040226
 20
55.26915245415819
 30
0.0
  0
POINT
  5
216
330
20D
100
AcDbEntity
  8
Defpoints
 62
     0
100
AcDbPoint
 10
296.7206649181976
 20
55.26915245415819
 30
0.0
  0
POINT
  5
217
330
20D
100
AcDbEntity
  8
Defpoints
 62
     0
100
AcDbPoint
 10
296.7206649181976
 20
23.01816396620552
 30
0.0
  0
ENDBLK
  5
218
330
20D
100
AcDbEntity
  8
0
100
AcDbBlockEnd
  0
BLOCK
  5
282
330
281
100
AcDbEntity
  8
0
100
AcDbBlockBegin
  2
*D13
 70
     1
 10
0.0
 20
0.0
 30
0.0
  3
*D13
  1
*D14
  0
LINE
  5
284
330
281
100
AcDbEntity
  8
文字・寸法線
 62
     0
370
    -2
100
AcDbLine
 10
261.8977747057428
 20
127.9704506113805
 30
0.0
 11
304.6000705113507
 21
127.9704506113805
 31
0.0
  0
LINE
  5
285
330
281
100
AcDbEntity
  8
文字・寸法線
 62
     0
370
    -2
100
AcDbLine
 10
261.8977747057428
 20
77.9704506113805
 30
0.0
 11
304.6000705113507
 21
77.9704506113805
 31
0.0
  0
LINE
  5
286
330
281
100
AcDbEntity
  8
文字・寸法線
 62
     0
370
    -2
100
AcDbLine
 10
304.1000705113507
 20
125.4704506113805
 30
0.0
 11
304.1000705113507
 21
80.4704506113805
 31
0.0
  0
SOLID
  5
287
330
281
100
AcDbEntity
  8
文字・寸法線
 62
     0
100
AcDbTrace
 10
304.5167371780174
 20
125.4704506113805
 30
0.0
 11
303.683403844684
 21
125.4704506113805
 31
0.0
 12
304.1000705113507
 22
127.9704506113805
 32
0.0
 13
304.1000705113507
 23
127.9704506113805
 33
0.0
  0
SOLID
  5
288
330
281
100
AcDbEntity
  8
文字・寸法線
 62
     0
100
AcDbTrace
 10
303.683403844684
 20
80.4704506113805
 30
0.0
 11
304.5167371780174
 21
80.4704506113805
 31
0.0
 12
304.1000705113507
 22
77.9704506113805
 32
0.0
 13
304.1000705113507
 23
77.9704506113805
 33
0.0
  0
MTEXT
  5
289
330
281
100
AcDbEntity
  8
文字・寸法線
 62
     0
100
AcDbMText
 10
301.9443747405458
 20
102.9704506113805
 30
0.0
 40
3.0
 41
0.0
 46
0.0
 71
     5
 72
     1
  1
50
 11
0.0
 21
1.0
 31
0.0
 73
     1
 44
1.0
  0
POINT
  5
28A
330
281
100
AcDbEntity
  8
Defpoints
 62
     0
100
AcDbPoint
 10
259.8977747057428
 20
127.9704506113805
 30
0.0
  0
POINT
  5
28B
330
281
100
AcDbEntity
  8
Defpoints
 62
     0
100
AcDbPoint
 10
259.8977747057428
 20
77.9704506113805
 30
0.0
  0
POINT
  5
28C
330
281
100
AcDbEntity
  8
Defpoints
 62
     0
100
AcDbPoint
 10
304.1000705113507
 20
77.9704506113805
 30
0.0
  0
ENDBLK
  5
283
330
281
100
AcDbEntity
  8
0
100
AcDbBlockEnd
  0
BLOCK
  5
28E
330
28D
100
AcDbEntity
  8
0
100
AcDbBlockBegin
  2
*D14
 70
     1
 10
0.0
 20
0.0
 30
0.0
  3
*D14
  1
*D15
  0
LINE
  5
290
330
28D
100
AcDbEntity
  8
文字・寸法線
 62
     0
370
    -2
100
AcDbLine
 10
199.8977747057428
 20
148.6561945397866
 30
0.0
 11
199.8977747057428
 21
147.1561945397866
 31
0.0
  0
LINE
  5
291
330
28D
100
AcDbEntity
  8
文字・寸法線
 62
     0
370
    -2
100
AcDbLine
 10
184.8977747057427
 20
104.9704506113806
 30
0.0
 11
184.8977747057427
 21
147.1561945397866
 31
0.0
  0
LINE
  5
292
330
28D
100
AcDbEntity
  8
文字・寸法線
 62
     0
370
    -2
100
AcDbLine
 10
197.3977747057428
 20
146.6561945397866
 30
0.0
 11
187.3977747057427
 21
146.6561945397866
 31
0.0
  0
SOLID
  5
293
330
28D
100
AcDbEntity
  8
文字・寸法線
 62
     0
100
AcDbTrace
 10
197.3977747057428
 20
146.23952787312
 30
0.0
 11
197.3977747057428
 21
147.0728612064533
 31
0.0
 12
199.8977747057428
 22
146.6561945397866
 32
0.0
 13
199.8977747057428
 23
146.6561945397866
 33
0.0
  0
SOLID
  5
294
330
28D
100
AcDbEntity
  8
文字・寸法線
 62
     0
100
AcDbTrace
 10
187.3977747057427
 20
147.0728612064533
 30
0.0
 11
187.3977747057427
 21
146.23952787312
 31
0.0
 12
184.8977747057427
 22
146.6561945397866
 32
0.0
 13
184.8977747057427
 23
146.6561945397866
 33
0.0
  0
MTEXT
  5
295
330
28D
100
AcDbEntity
  8
文字・寸法線
 62
     0
100
AcDbMText
 10
192.3977747057427
 20
148.8118903105915
 30
0.0
 40
3.0
 41
0.0
 46
0.0
 71
     5
 72
     1
  1
15
 73
     1
 44
1.0
  0
POINT
  5
296
330
28D
100
AcDbEntity
  8
Defpoints
 62
     0
100
AcDbPoint
 10
199.8977747057428
 20
146.6561945397866
 30
0.0
  0
POINT
  5
297
330
28D
100
AcDbEntity
  8
Defpoints
 62
     0
100
AcDbPoint
 10
184.8977747057427
 20
102.9704506113806
 30
0.0
  0
POINT
  5
298
330
28D
100
AcDbEntity
  8
Defpoints
 62
     0
100
AcDbPoint
 10
184.8977747057427
 20
146.6561945397866
 30
0.0
  0
ENDBLK
  5
28F
330
28D
100
AcDbEntity
  8
0
100
AcDbBlockEnd
  0
BLOCK
  5
29A
330
299
100
AcDbEntity
  8
0
100
AcDbBlockBegin
  2
*D15
 70
     1
 10
0.0
 20
0.0
 30
0.0
  3
*D15
  1
*D16
  0
LINE
  5
29C
330
299
100
AcDbEntity
  8
文字・寸法線
 62
     0
370
    -2
100
AcDbLine
 10
259.8977747057428
 20
137.2321327493271
 30
0.0
 11
259.8977747057428
 21
147.1561945397866
 31
0.0
  0
LINE
  5
29D
330
299
100
AcDbEntity
  8
文字・寸法線
 62
     0
370
    -2
100
AcDbLine
 10
199.8977747057428
 20
136.6071327493271
 30
0.0
 11
199.8977747057428
 21
147.1561945397866
 31
0.0
  0
LINE
  5
29E
330
299
100
AcDbEntity
  8
文字・寸法線
 62
     0
370
    -2
100
AcDbLine
 10
257.3977747057428
 20
146.6561945397866
 30
0.0
 11
202.3977747057428
 21
146.6561945397866
 31
0.0
  0
SOLID
  5
29F
330
299
100
AcDbEntity
  8
文字・寸法線
 62
     0
100
AcDbTrace
 10
257.3977747057428
 20
146.23952787312
 30
0.0
 11
257.3977747057428
 21
147.0728612064533
 31
0.0
 12
259.8977747057428
 22
146.6561945397866
 32
0.0
 13
259.8977747057428
 23
146.6561945397866
 33
0.0
  0
SOLID
  5
2A0
330
299
100
AcDbEntity
  8
文字・寸法線
 62
     0
100
AcDbTrace
 10
202.3977747057428
 20
147.0728612064533
 30
0.0
 11
202.3977747057428
 21
146.23952787312
 31
0.0
 12
199.8977747057428
 22
146.6561945397866
 32
0.0
 13
199.8977747057428
 23
146.6561945397866
 33
0.0
  0
MTEXT
  5
2A1
330
299
100
AcDbEntity
  8
文字・寸法線
 62
     0
100
AcDbMText
 10
229.8977747057428
 20
148.8118903105915
 30
0.0
 40
3.0
 41
0.0
 46
0.0
 71
     5
 72
     1
  1
60
 73
     1
 44
1.0
  0
POINT
  5
2A2
330
299
100
AcDbEntity
  8
Defpoints
 62
     0
100
AcDbPoint
 10
259.8977747057428
 20
135.2321327493271
 30
0.0
  0
POINT
  5
2A3
330
299
100
AcDbEntity
  8
Defpoints
 62
     0
100
AcDbPoint
 10
199.8977747057428
 20
134.6071327493271
 30
0.0
  0
POINT
  5
2A4
330
299
100
AcDbEntity
  8
Defpoints
 62
     0
100
AcDbPoint
 10
199.8977747057428
 20
146.6561945397866
 30
0.0
  0
ENDBLK
  5
29B
330
299
100
AcDbEntity
  8
0
100
AcDbBlockEnd
  0
BLOCK
  5
2A6
330
2A5
100
AcDbEntity
  8
0
100
AcDbBlockBegin
  2
*D16
 70
     1
 10
0.0
 20
0.0
 30
0.0
  3
*D16
  1
*D17
  0
LINE
  5
2A8
330
2A5
100
AcDbEntity
  8
文字・寸法線
 62
     0
370
    -2
100
AcDbLine
 10
284.8977747057428
 20
104.9704506113806
 30
0.0
 11
284.8977747057428
 21
147.1561945397866
 31
0.0
  0
LINE
  5
2A9
330
2A5
100
AcDbEntity
  8
文字・寸法線
 62
     0
370
    -2
100
AcDbLine
 10
259.8977747057428
 20
136.6071327493271
 30
0.0
 11
259.8977747057428
 21
147.1561945397866
 31
0.0
  0
LINE
  5
2AA
330
2A5
100
AcDbEntity
  8
文字・寸法線
 62
     0
370
    -2
100
AcDbLine
 10
282.3977747057428
 20
146.6561945397866
 30
0.0
 11
262.3977747057428
 21
146.6561945397866
 31
0.0
  0
SOLID
  5
2AB
330
2A5
100
AcDbEntity
  8
文字・寸法線
 62
     0
100
AcDbTrace
 10
282.3977747057428
 20
146.23952787312
 30
0.0
 11
282.3977747057428
 21
147.0728612064533
 31
0.0
 12
284.8977747057428
 22
146.6561945397866
 32
0.0
 13
284.8977747057428
 23
146.6561945397866
 33
0.0
  0
SOLID
  5
2AC
330
2A5
100
AcDbEntity
  8
文字・寸法線
 62
     0
100
AcDbTrace
 10
262.3977747057428
 20
147.0728612064533
 30
0.0
 11
262.3977747057428
 21
146.23952787312
 31
0.0
 12
259.8977747057428
 22
146.6561945397866
 32
0.0
 13
259.8977747057428
 23
146.6561945397866
 33
0.0
  0
MTEXT
  5
2AD
330
2A5
100
AcDbEntity
  8
文字・寸法線
 62
     0
100
AcDbMText
 10
272.3977747057428
 20
148.8118903105915
 30
0.0
 40
3.0
 41
0.0
 46
0.0
 71
     5
 72
     1
  1
25
 73
     1
 44
1.0
  0
POINT
  5
2AE
330
2A5
100
AcDbEntity
  8
Defpoints
 62
     0
100
AcDbPoint
 10
284.8977747057428
 20
102.9704506113806
 30
0.0
  0
POINT
  5
2AF
330
2A5
100
AcDbEntity
  8
Defpoints
 62
     0
100
AcDbPoint
 10
259.8977747057428
 20
134.6071327493271
 30
0.0
  0
POINT
  5
2B0
330
2A5
100
AcDbEntity
  8
Defpoints
 62
     0
100
AcDbPoint
 10
259.8977747057428
 20
146.6561945397866
 30
0.0
  0
ENDBLK
  5
2A7
330
2A5
100
AcDbEntity
  8
0
100
AcDbBlockEnd
  0
BLOCK
  5
2B2
330
2B1
100
AcDbEntity
  8
0
100
AcDbBlockBegin
  2
*D17
 70
     1
 10
0.0
 20
0.0
 30
0.0
  3
*D17
  1
*D18
  0
LINE
  5
2B4
330
2B1
100
AcDbEntity
  8
文字・寸法線
 62
     0
370
    -2
100
AcDbLine
 10
261.8977747057428
 20
85.4406887066186
 30
0.0
 11
297.0564810198498
 21
85.4406887066186
 31
0.0
  0
LINE
  5
2B5
330
2B1
100
AcDbEntity
  8
文字・寸法線
 62
     0
370
    -2
100
AcDbLine
 10
261.8977747057426
 20
120.5002125161425
 30
0.0
 11
297.0564810198498
 21
120.5002125161425
 31
0.0
  0
LINE
  5
2B6
330
2B1
100
AcDbEntity
  8
文字・寸法線
 62
     0
370
    -2
100
AcDbLine
 10
296.5564810198498
 20
87.9406887066186
 30
0.0
 11
296.5564810198498
 21
118.0002125161425
 31
0.0
  0
SOLID
  5
2B7
330
2B1
100
AcDbEntity
  8
文字・寸法線
 62
     0
100
AcDbTrace
 10
296.1398143531831
 20
87.9406887066186
 30
0.0
 11
296.9731476865165
 21
87.9406887066186
 31
0.0
 12
296.5564810198498
 22
85.4406887066186
 32
0.0
 13
296.5564810198498
 23
85.4406887066186
 33
0.0
  0
SOLID
  5
2B8
330
2B1
100
AcDbEntity
  8
文字・寸法線
 62
     0
100
AcDbTrace
 10
296.9731476865165
 20
118.0002125161425
 30
0.0
 11
296.1398143531831
 21
118.0002125161425
 31
0.0
 12
296.5564810198498
 22
120.5002125161425
 32
0.0
 13
296.5564810198498
 23
120.5002125161425
 33
0.0
  0
MTEXT
  5
2B9
330
2B1
100
AcDbEntity
  8
文字・寸法線
 62
     0
100
AcDbMText
 10
294.4007852490449
 20
102.9704506113806
 30
0.0
 40
3.0
 41
0.0
 46
0.0
 71
     5
 72
     1
  1
35
 11
0.0
 21
1.0
 31
0.0
 73
     1
 44
1.0
  0
POINT
  5
2BA
330
2B1
100
AcDbEntity
  8
Defpoints
 62
     0
100
AcDbPoint
 10
259.8977747057428
 20
85.4406887066186
 30
0.0
  0
POINT
  5
2BB
330
2B1
100
AcDbEntity
  8
Defpoints
 62
     0
100
AcDbPoint
 10
259.8977747057426
 20
120.5002125161425
 30
0.0
  0
POINT
  5
2BC
330
2B1
100
AcDbEntity
  8
Defpoints
 62
     0
100
AcDbPoint
 10
296.5564810198498
 20
120.5002125161425
 30
0.0
  0
ENDBLK
  5
2B3
330
2B1
100
AcDbEntity
  8
0
100
AcDbBlockEnd
  0
BLOCK
  5
2BE
330
2BD
100
AcDbEntity
  8
0
100
AcDbBlockBegin
  2
*D18
 70
     1
 10
0.0
 20
0.0
 30
0.0
  3
*D18
  1
*D19
  0
LINE
  5
2C0
330
2BD
100
AcDbEntity
  8
文字・寸法線
 62
     0
370
    -2
100
AcDbLine
 10
149.2287296568923
 20
91.03567677485464
 30
0.0
 11
150.7287296568923
 21
91.03567677485464
 31
0.0
  0
LINE
  5
2C1
330
2BD
100
AcDbEntity
  8
文字・寸法線
 62
     0
370
    -2
100
AcDbLine
 10
117.8203979044041
 20
141.0356767748546
 30
0.0
 11
151.7287296568923
 21
141.0356767748546
 31
0.0
  0
LINE
  5
2C2
330
2BD
100
AcDbEntity
  8
文字・寸法線
 62
     0
370
    -2
100
AcDbLine
 10
151.2287296568923
 20
93.53567677485464
 30
0.0
 11
151.2287296568923
 21
138.5356767748546
 31
0.0
  0
SOLID
  5
2C3
330
2BD
100
AcDbEntity
  8
文字・寸法線
 62
     0
100
AcDbTrace
 10
150.8120629902256
 20
93.53567677485464
 30
0.0
 11
151.6453963235589
 21
93.53567677485464
 31
0.0
 12
151.2287296568923
 22
91.03567677485464
 32
0.0
 13
151.2287296568923
 23
91.03567677485464
 33
0.0
  0
SOLID
  5
2C4
330
2BD
100
AcDbEntity
  8
文字・寸法線
 62
     0
100
AcDbTrace
 10
151.6453963235589
 20
138.5356767748546
 30
0.0
 11
150.8120629902256
 21
138.5356767748546
 31
0.0
 12
151.2287296568923
 22
141.0356767748546
 32
0.0
 13
151.2287296568923
 23
141.0356767748546
 33
0.0
  0
MTEXT
  5
2C5
330
2BD
100
AcDbEntity
  8
文字・寸法線
 62
     0
100
AcDbMText
 10
149.0730338860873
 20
116.0356767748546
 30
0.0
 40
3.0
 41
0.0
 46
0.0
 71
     5
 72
     1
  1
50
 11
0.0
 21
1.0
 31
0.0
 73
     1
 44
1.0
  0
POINT
  5
2C6
330
2BD
100
AcDbEntity
  8
Defpoints
 62
     0
100
AcDbPoint
 10
151.2287296568923
 20
91.03567677485464
 30
0.0
  0
POINT
  5
2C7
330
2BD
100
AcDbEntity
  8
Defpoints
 62
     0
100
AcDbPoint
 10
115.8203979044041
 20
141.0356767748546
 30
0.0
  0
POINT
  5
2C8
330
2BD
100
AcDbEntity
  8
Defpoints
 62
     0
100
AcDbPoint
 10
151.2287296568923
 20
141.0356767748546
 30
0.0
  0
ENDBLK
  5
2BF
330
2BD
100
AcDbEntity
  8
0
100
AcDbBlockEnd
  0
BLOCK
  5
2CA
330
2C9
100
AcDbEntity
  8
0
100
AcDbBlockBegin
  2
*D19
 70
     1
 10
0.0
 20
0.0
 30
0.0
  3
*D19
  1
*D20
  0
LINE
  5
2CC
330
2C9
100
AcDbEntity
  8
文字・寸法線
 62
     0
370
    -2
100
AcDbLine
 10
122.0976897939525
 20
84.03567677485464
 30
0.0
 11
151.7287296568923
 21
84.03567677485464
 31
0.0
  0
LINE
  5
2CD
330
2C9
100
AcDbEntity
  8
文字・寸法線
 62
     0
370
    -2
100
AcDbLine
 10
124.6203979044041
 20
91.03567677485464
 30
0.0
 11
151.7287296568923
 21
91.03567677485464
 31
0.0
  0
LINE
  5
2CE
330
2C9
100
AcDbEntity
  8
文字・寸法線
 62
     0
370
    -2
100
AcDbLine
 10
151.2287296568923
 20
86.53567677485464
 30
0.0
 11
151.2287296568923
 21
88.53567677485464
 31
0.0
  0
SOLID
  5
2CF
330
2C9
100
AcDbEntity
  8
文字・寸法線
 62
     0
100
AcDbTrace
 10
150.8120629902256
 20
86.53567677485464
 30
0.0
 11
151.6453963235589
 21
86.53567677485464
 31
0.0
 12
151.2287296568923
 22
84.03567677485464
 32
0.0
 13
151.2287296568923
 23
84.03567677485464
 33
0.0
  0
SOLID
  5
2D0
330
2C9
100
AcDbEntity
  8
文字・寸法線
 62
     0
100
AcDbTrace
 10
151.6453963235589
 20
88.53567677485464
 30
0.0
 11
150.8120629902256
 21
88.53567677485464
 31
0.0
 12
151.2287296568923
 22
91.03567677485464
 32
0.0
 13
151.2287296568923
 23
91.03567677485464
 33
0.0
  0
MTEXT
  5
2D1
330
2C9
100
AcDbEntity
  8
文字・寸法線
 62
     0
100
AcDbMText
 10
149.1037296568923
 20
87.53567677485464
 30
0.0
 40
3.0
 41
0.0
 46
0.0
 71
     5
 72
     1
  1
7
 11
0.0
 21
1.0
 31
0.0
 73
     1
 44
1.0
  0
POINT
  5
2D2
330
2C9
100
AcDbEntity
  8
Defpoints
 62
     0
100
AcDbPoint
 10
120.0976897939525
 20
84.03567677485464
 30
0.0
  0
POINT
  5
2D3
330
2C9
100
AcDbEntity
  8
Defpoints
 62
     0
100
AcDbPoint
 10
122.6203979044041
 20
91.03567677485464
 30
0.0
  0
POINT
  5
2D4
330
2C9
100
AcDbEntity
  8
Defpoints
 62
     0
100
AcDbPoint
 10
151.2287296568923
 20
91.03567677485464
 30
0.0
  0
ENDBLK
  5
2CB
330
2C9
100
AcDbEntity
  8
0
100
AcDbBlockEnd
  0
BLOCK
  5
2D6
330
2D5
100
AcDbEntity
  8
0
100
AcDbBlockBegin
  2
*D20
 70
     1
 10
0.0
 20
0.0
 30
0.0
  3
*D20
  1
*D21
  0
LINE
  5
2D8
330
2D5
100
AcDbEntity
  8
文字・寸法線
 62
     0
370
    -2
100
AcDbLine
 10
139.8203979044041
 20
67.66067677485464
 30
0.0
 11
151.7287296568923
 21
67.66067677485464
 31
0.0
  0
LINE
  5
2D9
330
2D5
100
AcDbEntity
  8
文字・寸法線
 62
     0
370
    -2
100
AcDbLine
 10
122.1332062505495
 20
84.03567677485464
 30
0.0
 11
151.7287296568923
 21
84.03567677485464
 31
0.0
  0
LINE
  5
2DA
330
2D5
100
AcDbEntity
  8
文字・寸法線
 62
     0
370
    -2
100
AcDbLine
 10
151.2287296568923
 20
70.16067677485464
 30
0.0
 11
151.2287296568923
 21
81.53567677485464
 31
0.0
  0
SOLID
  5
2DB
330
2D5
100
AcDbEntity
  8
文字・寸法線
 62
     0
100
AcDbTrace
 10
150.8120629902256
 20
70.16067677485464
 30
0.0
 11
151.6453963235589
 21
70.16067677485464
 31
0.0
 12
151.2287296568923
 22
67.66067677485464
 32
0.0
 13
151.2287296568923
 23
67.66067677485464
 33
0.0
  0
SOLID
  5
2DC
330
2D5
100
AcDbEntity
  8
文字・寸法線
 62
     0
100
AcDbTrace
 10
151.6453963235589
 20
81.53567677485464
 30
0.0
 11
150.8120629902256
 21
81.53567677485464
 31
0.0
 12
151.2287296568923
 22
84.03567677485464
 32
0.0
 13
151.2287296568923
 23
84.03567677485464
 33
0.0
  0
MTEXT
  5
2DD
330
2D5
100
AcDbEntity
  8
文字・寸法線
 62
     0
100
AcDbMText
 10
149.0975905027313
 20
75.84817677485464
 30
0.0
 40
3.0
 41
0.0
 46
0.0
 71
     5
 72
     1
  1
17
 11
0.0
 21
1.0
 31
0.0
 73
     1
 44
1.0
  0
POINT
  5
2DE
330
2D5
100
AcDbEntity
  8
Defpoints
 62
     0
100
AcDbPoint
 10
137.8203979044041
 20
67.66067677485464
 30
0.0
  0
POINT
  5
2DF
330
2D5
100
AcDbEntity
  8
Defpoints
 62
     0
100
AcDbPoint
 10
120.1332062505495
 20
84.03567677485464
 30
0.0
  0
POINT
  5
2E0
330
2D5
100
AcDbEntity
  8
Defpoints
 62
     0
100
AcDbPoint
 10
151.2287296568923
 20
84.03567677485464
 30
0.0
  0
ENDBLK
  5
2D7
330
2D5
100
AcDbEntity
  8
0
100
AcDbBlockEnd
  0
BLOCK
  5
2E2
330
2E1
100
AcDbEntity
  8
0
100
AcDbBlockBegin
  2
*D21
 70
     1
 10
0.0
 20
0.0
 30
0.0
  3
*D21
  1
*D22
  0
LINE
  5
2E4
330
2E1
100
AcDbEntity
  8
文字・寸法線
 62
     0
370
    -2
100
AcDbLine
 10
35.82039790440409
 20
67.66067677485469
 30
0.0
 11
31.2891587446327
 21
67.66067677485469
 31
0.0
  0
LINE
  5
2E5
330
2E1
100
AcDbEntity
  8
文字・寸法線
 62
     0
370
    -2
100
AcDbLine
 10
35.82039790440409
 20
69.66067677485469
 30
0.0
 11
31.2891587446327
 21
69.66067677485469
 31
0.0
  0
LINE
  5
2E6
330
2E1
100
AcDbEntity
  8
文字・寸法線
 62
     0
370
    -2
100
AcDbLine
 10
31.7891587446327
 20
72.16067677485469
 30
0.0
 11
31.7891587446327
 21
77.9038554924536
 31
0.0
  0
LINE
  5
2E7
330
2E1
100
AcDbEntity
  8
文字・寸法線
 62
     0
370
    -2
100
AcDbLine
 10
31.7891587446327
 20
67.66067677485469
 30
0.0
 11
31.7891587446327
 21
69.66067677485469
 31
0.0
  0
LINE
  5
2E8
330
2E1
100
AcDbEntity
  8
文字・寸法線
 62
     0
370
    -2
100
AcDbLine
 10
31.7891587446327
 20
65.16067677485469
 30
0.0
 11
31.7891587446327
 21
62.66067677485469
 31
0.0
  0
SOLID
  5
2E9
330
2E1
100
AcDbEntity
  8
文字・寸法線
 62
     0
100
AcDbTrace
 10
32.20582541129937
 20
65.16067677485469
 30
0.0
 11
31.37249207796603
 21
65.16067677485469
 31
0.0
 12
31.7891587446327
 22
67.66067677485469
 32
0.0
 13
31.7891587446327
 23
67.66067677485469
 33
0.0
  0
SOLID
  5
2EA
330
2E1
100
AcDbEntity
  8
文字・寸法線
 62
     0
100
AcDbTrace
 10
31.37249207796603
 20
72.16067677485469
 30
0.0
 11
32.20582541129937
 21
72.16067677485469
 31
0.0
 12
31.7891587446327
 22
69.66067677485469
 32
0.0
 13
31.7891587446327
 23
69.66067677485469
 33
0.0
  0
MTEXT
  5
2EB
330
2E1
100
AcDbEntity
  8
文字・寸法線
 62
     0
100
AcDbMText
 10
29.65801959047172
 20
76.28226613365415
 30
0.0
 40
3.0
 41
0.0
 46
0.0
 71
     5
 72
     1
  1
2
 11
0.0
 21
1.0
 31
0.0
 73
     1
 44
1.0
  0
POINT
  5
2EC
330
2E1
100
AcDbEntity
  8
Defpoints
 62
     0
100
AcDbPoint
 10
37.82039790440409
 20
67.66067677485469
 30
0.0
  0
POINT
  5
2ED
330
2E1
100
AcDbEntity
  8
Defpoints
 62
     0
100
AcDbPoint
 10
37.82039790440409
 20
69.66067677485469
 30
0.0
  0
POINT
  5
2EE
330
2E1
100
AcDbEntity
  8
Defpoints
 62
     0
100
AcDbPoint
 10
31.7891587446327
 20
69.66067677485469
 30
0.0
  0
ENDBLK
  5
2E3
330
2E1
100
AcDbEntity
  8
0
100
AcDbBlockEnd
  0
BLOCK
  5
2F0
330
2EF
100
AcDbEntity
  8
0
100
AcDbBlockBegin
  2
*D22
 70
     1
 10
0.0
 20
0.0
 30
0.0
  3
*D22
  1
*D23
  0
LINE
  5
2F2
330
2EF
100
AcDbEntity
  8
文字・寸法線
 62
     0
370
    -2
100
AcDbLine
 10
137.8203979044041
 20
65.66067677485464
 30
0.0
 11
137.8203979044041
 21
42.80129815722236
 31
0.0
  0
LINE
  5
2F3
330
2EF
100
AcDbEntity
  8
文字・寸法線
 62
     0
370
    -2
100
AcDbLine
 10
37.82039790440409
 20
65.66067677485469
 30
0.0
 11
37.82039790440409
 21
42.80129815722236
 31
0.0
  0
LINE
  5
2F4
330
2EF
100
AcDbEntity
  8
文字・寸法線
 62
     0
370
    -2
100
AcDbLine
 10
135.3203979044041
 20
43.30129815722236
 30
0.0
 11
40.32039790440409
 21
43.30129815722236
 31
0.0
  0
SOLID
  5
2F5
330
2EF
100
AcDbEntity
  8
文字・寸法線
 62
     0
100
AcDbTrace
 10
135.3203979044041
 20
42.88463149055569
 30
0.0
 11
135.3203979044041
 21
43.71796482388902
 31
0.0
 12
137.8203979044041
 22
43.30129815722236
 32
0.0
 13
137.8203979044041
 23
43.30129815722236
 33
0.0
  0
SOLID
  5
2F6
330
2EF
100
AcDbEntity
  8
文字・寸法線
 62
     0
100
AcDbTrace
 10
40.32039790440409
 20
43.71796482388902
 30
0.0
 11
40.32039790440409
 21
42.88463149055569
 31
0.0
 12
37.82039790440409
 22
43.30129815722236
 32
0.0
 13
37.82039790440409
 23
43.30129815722236
 33
0.0
  0
MTEXT
  5
2F7
330
2EF
100
AcDbEntity
  8
文字・寸法線
 62
     0
100
AcDbMText
 10
87.8203979044041
 20
45.45699392802727
 30
0.0
 40
3.0
 41
0.0
 46
0.0
 71
     5
 72
     1
  1
100
 73
     1
 44
1.0
  0
POINT
  5
2F8
330
2EF
100
AcDbEntity
  8
Defpoints
 62
     0
100
AcDbPoint
 10
137.8203979044041
 20
67.66067677485464
 30
0.0
  0
POINT
  5
2F9
330
2EF
100
AcDbEntity
  8
Defpoints
 62
     0
100
AcDbPoint
 10
37.82039790440409
 20
67.66067677485469
 30
0.0
  0
POINT
  5
2FA
330
2EF
100
AcDbEntity
  8
Defpoints
 62
     0
100
AcDbPoint
 10
37.82039790440409
 20
43.30129815722236
 30
0.0
  0
ENDBLK
  5
2F1
330
2EF
100
AcDbEntity
  8
0
100
AcDbBlockEnd
  0
BLOCK
  5
2FC
330
2FB
100
AcDbEntity
  8
0
100
AcDbBlockBegin
  2
*D23
 70
     1
 10
0.0
 20
0.0
 30
0.0
  3
*D23
  1
*D24
  0
LINE
  5
2FE
330
2FB
100
AcDbEntity
  8
文字・寸法線
 62
     0
370
    -2
100
AcDbLine
 10
107.8203979044041
 20
163.8495440592952
 30
0.0
 11
107.8203979044041
 21
179.0232682757184
 31
0.0
  0
LINE
  5
2FF
330
2FB
100
AcDbEntity
  8
文字・寸法線
 62
     0
370
    -2
100
AcDbLine
 10
117.8203979044041
 20
163.8495440592952
 30
0.0
 11
117.8203979044041
 21
179.0232682757184
 31
0.0
  0
LINE
  5
300
330
2FB
100
AcDbEntity
  8
文字・寸法線
 62
     0
370
    -2
100
AcDbLine
 10
110.3203979044041
 20
178.5232682757184
 30
0.0
 11
115.3203979044041
 21
178.5232682757184
 31
0.0
  0
SOLID
  5
301
330
2FB
100
AcDbEntity
  8
文字・寸法線
 62
     0
100
AcDbTrace
 10
110.3203979044041
 20
178.9399349423851
 30
0.0
 11
110.3203979044041
 21
178.1066016090518
 31
0.0
 12
107.8203979044041
 22
178.5232682757184
 32
0.0
 13
107.8203979044041
 23
178.5232682757184
 33
0.0
  0
SOLID
  5
302
330
2FB
100
AcDbEntity
  8
文字・寸法線
 62
     0
100
AcDbTrace
 10
115.3203979044041
 20
178.1066016090518
 30
0.0
 11
115.3203979044041
 21
178.9399349423851
 31
0.0
 12
117.8203979044041
 22
178.5232682757184
 32
0.0
 13
117.8203979044041
 23
178.5232682757184
 33
0.0
  0
MTEXT
  5
303
330
2FB
100
AcDbEntity
  8
文字・寸法線
 62
     0
100
AcDbMText
 10
112.8203979044041
 20
180.6789640465233
 30
0.0
 40
3.0
 41
0.0
 46
0.0
 71
     5
 72
     1
  1
M10
 73
     1
 44
1.0
  0
POINT
  5
304
330
2FB
100
AcDbEntity
  8
Defpoints
 62
     0
100
AcDbPoint
 10
107.8203979044041
 20
161.8495440592952
 30
0.0
  0
POINT
  5
305
330
2FB
100
AcDbEntity
  8
Defpoints
 62
     0
100
AcDbPoint
 10
117.8203979044041
 20
161.8495440592952
 30
0.0
  0
POINT
  5
306
330
2FB
100
AcDbEntity
  8
Defpoints
 62
     0
100
AcDbPoint
 10
117.8203979044041
 20
178.5232682757184
 30
0.0
  0
ENDBLK
  5
2FD
330
2FB
100
AcDbEntity
  8
0
100
AcDbBlockEnd
  0
BLOCK
  5
308
330
307
100
AcDbEntity
  8
0
100
AcDbBlockBegin
  2
*D24
 70
     1
 10
0.0
 20
0.0
 30
0.0
  3
*D24
  1
*D25
  0
LINE
  5
30A
330
307
100
AcDbEntity
  8
文字・寸法線
 62
     0
370
    -2
100
AcDbLine
 10
251.4107257486553
 20
96.07045061138055
 30
0.0
 11
251.4107257486553
 21
65.31946212342788
 31
0.0
  0
LINE
  5
30B
330
307
100
AcDbEntity
  8
文字・寸法線
 62
     0
370
    -2
100
AcDbLine
 10
268.3848236628303
 20
96.07045061138055
 30
0.0
 11
268.3848236628303
 21
65.31946212342788
 31
0.0
  0
LINE
  5
30C
330
307
100
AcDbEntity
  8
文字・寸法線
 62
     0
370
    -2
100
AcDbLine
 10
253.9107257486553
 20
65.81946212342788
 30
0.0
 11
265.8848236628303
 21
65.81946212342788
 31
0.0
  0
SOLID
  5
30D
330
307
100
AcDbEntity
  8
文字・寸法線
 62
     0
100
AcDbTrace
 10
253.9107257486553
 20
66.23612879009455
 30
0.0
 11
253.9107257486553
 21
65.40279545676121
 31
0.0
 12
251.4107257486553
 22
65.81946212342788
 32
0.0
 13
251.4107257486553
 23
65.81946212342788
 33
0.0
  0
SOLID
  5
30E
330
307
100
AcDbEntity
  8
文字・寸法線
 62
     0
100
AcDbTrace
 10
265.8848236628303
 20
65.40279545676121
 30
0.0
 11
265.8848236628303
 21
66.23612879009455
 31
0.0
 12
268.3848236628303
 22
65.81946212342788
 32
0.0
 13
268.3848236628303
 23
65.81946212342788
 33
0.0
  0
MTEXT
  5
30F
330
307
100
AcDbEntity
  8
文字・寸法線
 62
     0
100
AcDbMText
 10
259.9688929614016
 20
67.95060127758886
 30
0.0
 40
3.0
 41
0.0
 46
0.0
 71
     5
 72
     1
  1
17
 73
     1
 44
1.0
  0
POINT
  5
310
330
307
100
AcDbEntity
  8
Defpoints
 62
     0
100
AcDbPoint
 10
251.4107257486553
 20
98.07045061138055
 30
0.0
  0
POINT
  5
311
330
307
100
AcDbEntity
  8
Defpoints
 62
     0
100
AcDbPoint
 10
268.3848236628303
 20
98.07045061138055
 30
0.0
  0
POINT
  5
312
330
307
100
AcDbEntity
  8
Defpoints
 62
     0
100
AcDbPoint
 10
268.3848236628303
 20
65.81946212342788
 30
0.0
  0
ENDBLK
  5
309
330
307
100
AcDbEntity
  8
0
100
AcDbBlockEnd
  0
BLOCK
  5
33F
330
33E
100
AcDbEntity
  8
0
100
AcDbBlockBegin
  2
*D25
 70
     1
 10
0.0
 20
0.0
 30
0.0
  3
*D25
  1
*D25
  0
LINE
  5
340
330
33E
100
AcDbEntity
  8
文字
 62
     0
370
    -2
100
AcDbLine
 10
2.0
 20
74.99999999999994
 30
0.0
 11
38.07965090719659
 21
74.99999999999994
 31
0.0
  0
LINE
  5
341
330
33E
100
AcDbEntity
  8
文字
 62
     0
370
    -2
100
AcDbLine
 10
6.919720588487074
 20
-0.0000000000000001
 30
0.0
 11
38.07965090719659
 21
-0.000000000000002
 31
0.0
  0
LINE
  5
342
330
33E
100
AcDbEntity
  8
文字
 62
     0
370
    -2
100
AcDbLine
 10
37.57965090719659
 20
72.49999999999994
 30
0.0
 11
37.57965090719659
 21
2.499999999999998
 31
0.0
  0
SOLID
  5
343
330
33E
100
AcDbEntity
  8
文字
 62
     0
100
AcDbTrace
 10
37.99631757386326
 20
72.49999999999994
 30
0.0
 11
37.16298424052993
 21
72.49999999999994
 31
0.0
 12
37.57965090719659
 22
74.99999999999994
 32
0.0
 13
37.57965090719659
 23
74.99999999999994
 33
0.0
  0
SOLID
  5
344
330
33E
100
AcDbEntity
  8
文字
 62
     0
100
AcDbTrace
 10
37.16298424052992
 20
2.499999999999998
 30
0.0
 11
37.99631757386325
 21
2.499999999999998
 31
0.0
 12
37.57965090719659
 22
-0.000000000000002
 32
0.0
 13
37.57965090719659
 23
-0.000000000000002
 33
0.0
  0
MTEXT
  5
345
330
33E
100
AcDbEntity
  8
文字
 62
     0
100
AcDbMText
 10
35.43009429055267
 20
37.49999999999997
 30
0.0
 40
3.0
 41
0.0
 46
0.0
 71
     5
 72
     1
  1
75
 11
9.473903143468009E-17
 21
1.0
 31
0.0
 73
     1
 44
1.0
  0
POINT
  5
346
330
33E
100
AcDbEntity
  8
Defpoints
 62
     0
100
AcDbPoint
 10
0.0
 20
74.99999999999994
 30
0.0
  0
POINT
  5
347
330
33E
100
AcDbEntity
  8
Defpoints
 62
     0
100
AcDbPoint
 10
4.919720588487074
 20
0.0
 30
0.0
  0
POINT
  5
348
330
33E
100
AcDbEntity
  8
Defpoints
 62
     0
100
AcDbPoint
 10
37.57965090719659
 20
-0.000000000000002
 30
0.0
  0
ENDBLK
  5
349
330
33E
100
AcDbEntity
  8
0
100
AcDbBlockEnd
  0
BLOCK
  5
351
330
350
100
AcDbEntity
  8
0
100
AcDbBlockBegin
  2
*D26
 70
     1
 10
0.0
 20
0.0
 30
0.0
  3
*D26
  1
*D27
  0
LINE
  5
353
330
350
100
AcDbEntity
  8
文字
 62
     0
370
    -2
100
AcDbLine
 10
126.6203979044041
 20
166.0356767748546
 30
0.0
 11
162.7000488116007
 21
166.0356767748546
 31
0.0
  0
LINE
  5
354
330
350
100
AcDbEntity
  8
文字
 62
     0
370
    -2
100
AcDbLine
 10
131.5401184928912
 20
91.03567677485464
 30
0.0
 11
162.7000488116007
 21
91.03567677485464
 31
0.0
  0
LINE
  5
355
330
350
100
AcDbEntity
  8
文字
 62
     0
370
    -2
100
AcDbLine
 10
162.2000488116007
 20
163.5356767748546
 30
0.0
 11
162.2000488116007
 21
93.53567677485464
 31
0.0
  0
SOLID
  5
356
330
350
100
AcDbEntity
  8
文字
 62
     0
100
AcDbTrace
 10
162.6167154782673
 20
163.5356767748546
 30
0.0
 11
161.783382144934
 21
163.5356767748546
 31
0.0
 12
162.2000488116007
 22
166.0356767748546
 32
0.0
 13
162.2000488116007
 23
166.0356767748546
 33
0.0
  0
SOLID
  5
357
330
350
100
AcDbEntity
  8
文字
 62
     0
100
AcDbTrace
 10
161.783382144934
 20
93.53567677485464
 30
0.0
 11
162.6167154782673
 21
93.53567677485464
 31
0.0
 12
162.2000488116007
 22
91.03567677485464
 32
0.0
 13
162.2000488116007
 23
91.03567677485464
 33
0.0
  0
MTEXT
  5
358
330
350
100
AcDbEntity
  8
文字
 62
     0
100
AcDbMText
 10
160.0504921949567
 20
128.5356767748546
 30
0.0
 40
3.0
 41
0.0
 46
0.0
 71
     5
 72
     1
  1
75
 11
0.0
 21
1.0
 31
0.0
 73
     1
 44
1.0
  0
POINT
  5
359
330
350
100
AcDbEntity
  8
Defpoints
 62
     0
100
AcDbPoint
 10
124.6203979044041
 20
166.0356767748546
 30
0.0
  0
POINT
  5
35A
330
350
100
AcDbEntity
  8
Defpoints
 62
     0
100
AcDbPoint
 10
129.5401184928912
 20
91.03567677485464
 30
0.0
  0
POINT
  5
35B
330
350
100
AcDbEntity
  8
Defpoints
 62
     0
100
AcDbPoint
 10
162.2000488116007
 20
91.03567677485464
 30
0.0
  0
ENDBLK
  5
352
330
350
100
AcDbEntity
  8
0
100
AcDbBlockEnd
  0
BLOCK
  5
385
330
384
100
AcDbEntity
  8
0
100
AcDbBlockBegin
  2
*D27
 70
     1
 10
0.0
 20
0.0
 30
0.0
  3
*D27
  1
*D25
  0
LINE
  5
386
330
384
100
AcDbEntity
  8
文字
 62
     0
370
    -2
100
AcDbLine
 10
2.0
 20
74.99999999999994
 30
0.0
 11
38.07965090719659
 21
74.99999999999994
 31
0.0
  0
LINE
  5
387
330
384
100
AcDbEntity
  8
文字
 62
     0
370
    -2
100
AcDbLine
 10
6.919720588487074
 20
-0.0000000000000001
 30
0.0
 11
38.07965090719659
 21
-0.000000000000002
 31
0.0
  0
LINE
  5
388
330
384
100
AcDbEntity
  8
文字
 62
     0
370
    -2
100
AcDbLine
 10
37.57965090719659
 20
72.49999999999994
 30
0.0
 11
37.57965090719659
 21
2.499999999999998
 31
0.0
  0
SOLID
  5
389
330
384
100
AcDbEntity
  8
文字
 62
     0
100
AcDbTrace
 10
37.99631757386326
 20
72.49999999999994
 30
0.0
 11
37.16298424052993
 21
72.49999999999994
 31
0.0
 12
37.57965090719659
 22
74.99999999999994
 32
0.0
 13
37.57965090719659
 23
74.99999999999994
 33
0.0
  0
SOLID
  5
38A
330
384
100
AcDbEntity
  8
文字
 62
     0
100
AcDbTrace
 10
37.16298424052992
 20
2.499999999999998
 30
0.0
 11
37.99631757386325
 21
2.499999999999998
 31
0.0
 12
37.57965090719659
 22
-0.000000000000002
 32
0.0
 13
37.57965090719659
 23
-0.000000000000002
 33
0.0
  0
MTEXT
  5
38B
330
384
100
AcDbEntity
  8
文字
 62
     0
100
AcDbMText
 10
35.43009429055267
 20
37.49999999999997
 30
0.0
 40
3.0
 41
0.0
 46
0.0
 71
     5
 72
     1
  1
75
 11
9.473903143468009E-17
 21
1.0
 31
0.0
 73
     1
 44
1.0
  0
POINT
  5
38C
330
384
100
AcDbEntity
  8
Defpoints
 62
     0
100
AcDbPoint
 10
0.0
 20
74.99999999999994
 30
0.0
  0
POINT
  5
38D
330
384
100
AcDbEntity
  8
Defpoints
 62
     0
100
AcDbPoint
 10
4.919720588487074
 20
0.0
 30
0.0
  0
POINT
  5
38E
330
384
100
AcDbEntity
  8
Defpoints
 62
     0
100
AcDbPoint
 10
37.57965090719659
 20
-0.000000000000002
 30
0.0
  0
ENDBLK
  5
38F
330
384
100
AcDbEntity
  8
0
100
AcDbBlockEnd
  0
BLOCK
  5
397
330
396
100
AcDbEntity
  8
0
100
AcDbBlockBegin
  2
*D28
 70
     1
 10
0.0
 20
0.0
 30
0.0
  3
*D28
  1
*D30
  0
LINE
  5
399
330
396
100
AcDbEntity
  8
文字
 62
     0
370
    -2
100
AcDbLine
 10
114.8203979044041
 20
166.0356767748546
 30
0.0
 11
151.7287296568923
 21
166.0356767748546
 31
0.0
  0
LINE
  5
39A
330
396
100
AcDbEntity
  8
文字
 62
     0
370
    -2
100
AcDbLine
 10
119.7401184928912
 20
91.03567677485464
 30
0.0
 11
151.7287296568923
 21
91.03567677485464
 31
0.0
  0
LINE
  5
39B
330
396
100
AcDbEntity
  8
文字
 62
     0
370
    -2
100
AcDbLine
 10
151.2287296568923
 20
163.5356767748546
 30
0.0
 11
151.2287296568923
 21
93.53567677485464
 31
0.0
  0
SOLID
  5
39C
330
396
100
AcDbEntity
  8
文字
 62
     0
100
AcDbTrace
 10
151.645396323559
 20
163.5356767748546
 30
0.0
 11
150.8120629902257
 21
163.5356767748546
 31
0.0
 12
151.2287296568923
 22
166.0356767748546
 32
0.0
 13
151.2287296568923
 23
166.0356767748546
 33
0.0
  0
SOLID
  5
39D
330
396
100
AcDbEntity
  8
文字
 62
     0
100
AcDbTrace
 10
150.8120629902257
 20
93.53567677485464
 30
0.0
 11
151.645396323559
 21
93.53567677485464
 31
0.0
 12
151.2287296568923
 22
91.03567677485464
 32
0.0
 13
151.2287296568923
 23
91.03567677485464
 33
0.0
  0
MTEXT
  5
39E
330
396
100
AcDbEntity
  8
文字
 62
     0
100
AcDbMText
 10
149.0791730402484
 20
128.5356767748546
 30
0.0
 40
3.0
 41
0.0
 46
0.0
 71
     5
 72
     1
  1
75
 11
0.0
 21
1.0
 31
0.0
 73
     1
 44
1.0
  0
POINT
  5
39F
330
396
100
AcDbEntity
  8
Defpoints
 62
     0
100
AcDbPoint
 10
112.8203979044041
 20
166.0356767748546
 30
0.0
  0
POINT
  5
3A0
330
396
100
AcDbEntity
  8
Defpoints
 62
     0
100
AcDbPoint
 10
117.7401184928912
 20
91.03567677485464
 30
0.0
  0
POINT
  5
3A1
330
396
100
AcDbEntity
  8
Defpoints
 62
     0
100
AcDbPoint
 10
151.2287296568923
 20
91.03567677485464
 30
0.0
  0
ENDBLK
  5
398
330
396
100
AcDbEntity
  8
0
100
AcDbBlockEnd
  0
ENDSEC
  0
SECTION
  2
ENTITIES
  0
DIMENSION
  5
230
330
1F
100
AcDbEntity
  8
文字・寸法線
100
AcDbDimension
280
     0
  2
*D13
 10
304.1000705113507
 20
77.9704506113805
 30
0.0
 11
301.9443747405458
 21
102.9704506113805
 31
0.0
 70
    32
 71
     5
 42
50.0
 73
     0
 74
     0
 75
     0
  3
ISO-25
100
AcDbAlignedDimension
 13
259.8977747057428
 23
127.9704506113805
 33
0.0
 14
259.8977747057428
 24
77.9704506113805
 34
0.0
 50
90.0
100
AcDbRotatedDimension
  0
MTEXT
  5
231
102
{ACAD_REACTORS
330
232
102
}
330
1F
100
AcDbEntity
  8
文字・寸法線
100
AcDbMText
 10
214.4563718331963
 20
62.17737343632043
 30
0.0
 40
2.5
 41
0.0
 46
0.0
 71
     7
 72
     1
  1
%%c13
 73
     1
 44
1.0
  0
LEADER
  5
232
102
{ACAD_REACTORS
330
234
102
}
102
{ACAD_XDICTIONARY
360
233
102
}
330
1F
100
AcDbEntity
  8
文字・寸法線
100
AcDbLeader
  3
ISO-25
 73
     0
 74
     0
 40
2.6425
 41
5.635
 76
     3
 10
199.8977747057428
 20
102.9704506113806
 30
0.0
 10
210.5571242174819
 20
61.55237343632043
 30
0.0
 10
213.8313718331963
 20
61.55237343632043
 30
0.0
340
231
1001
ACAD
1000
DSTYLE
1002
{
1070
   147
1040
0.625
1070
    77
1070
     1
1002
}
  0
DIMENSION
  5
235
102
{ACAD_XDICTIONARY
360
236
102
}
330
1F
100
AcDbEntity
  8
文字・寸法線
100
AcDbDimension
280
     0
  2
*D14
 10
184.8977747057427
 20
146.6561945397866
 30
0.0
 11
192.3977747057427
 21
148.8118903105915
 31
0.0
 70
    32
 71
     5
 42
15.00000000000009
 73
     0
 74
     0
 75
     0
  3
ISO-25
100
AcDbAlignedDimension
 13
199.8977747057428
 23
146.6561945397866
 33
0.0
 14
184.8977747057427
 24
102.9704506113806
 34
0.0
100
AcDbRotatedDimension
  0
DIMENSION
  5
238
102
{ACAD_REACTORS
330
23A
102
}
102
{ACAD_XDICTIONARY
360
239
102
}
330
1F
100
AcDbEntity
  8
文字・寸法線
100
AcDbDimension
280
     0
  2
*D15
 10
199.8977747057428
 20
146.6561945397866
 30
0.0
 11
229.8977747057428
 21
148.8118903105915
 31
0.0
 70
    32
 71
     5
 42
60.0
 73
     0
 74
     0
 75
     0
  3
ISO-25
100
AcDbAlignedDimension
 13
259.8977747057428
 23
135.2321327493271
 33
0.0
 14
199.8977747057428
 24
134.6071327493271
 34
0.0
100
AcDbRotatedDimension
  0
DIMENSION
  5
23B
102
{ACAD_REACTORS
330
23D
102
}
102
{ACAD_XDICTIONARY
360
23C
102
}
330
1F
100
AcDbEntity
  8
文字・寸法線
100
AcDbDimension
280
     0
  2
*D16
 10
259.8977747057428
 20
146.6561945397866
 30
0.0
 11
272.3977747057428
 21
148.8118903105915
 31
0.0
 70
    32
 71
     5
 42
25.0
 73
     0
 74
     0
 75
     0
  3
ISO-25
100
AcDbAlignedDimension
 13
284.8977747057428
 23
102.9704506113806
 33
0.0
 14
259.8977747057428
 24
134.6071327493271
 34
0.0
100
AcDbRotatedDimension
  0
DIMENSION
  5
23E
102
{ACAD_REACTORS
330
240
102
}
102
{ACAD_XDICTIONARY
360
23F
102
}
330
1F
100
AcDbEntity
  8
文字・寸法線
100
AcDbDimension
280
     0
  2
*D17
 10
296.5564810198498
 20
120.5002125161425
 30
0.0
 11
294.4007852490449
 21
102.9704506113806
 31
0.0
 70
    32
  1
35
 71
     5
 42
35.0595238095239
 73
     0
 74
     0
 75
     0
  3
ISO-25
100
AcDbAlignedDimension
 13
259.8977747057428
 23
85.4406887066186
 33
0.0
 14
259.8977747057426
 24
120.5002125161425
 34
0.0
 50
90.0
100
AcDbRotatedDimension
  0
ARC
  5
241
102
{ACAD_REACTORS
330
240
102
}
330
1F
100
AcDbEntity
  8
実線
100
AcDbCircle
 10
259.8977747057428
 20
102.9704506113805
 30
0.0
 40
17.52976190476191
100
AcDbArc
 50
270.0
 51
90.0
  0
ARC
  5
242
330
1F
100
AcDbEntity
  8
実線
100
AcDbCircle
 10
234.8977747057427
 20
102.9704506113805
 30
0.0
 40
13.5
100
AcDbArc
 50
98.79741070999106
 51
261.202589290009
  0
LINE
  5
243
330
1F
100
AcDbEntity
  8
実線
100
AcDbLine
 10
259.8977747057428
 20
85.4406887066186
 30
0.0
 11
232.8330688233898
 21
89.62927414079226
 31
0.0
  0
LINE
  5
244
102
{ACAD_REACTORS
330
240
102
}
330
1F
100
AcDbEntity
  8
実線
100
AcDbLine
 10
259.8977747057428
 20
120.5002125161425
 30
0.0
 11
232.8330688233898
 21
116.3116270819688
 31
0.0
  0
LINE
  5
245
102
{ACAD_REACTORS
330
23A
102
}
330
1F
100
AcDbEntity
  8
中心線
100
AcDbLine
 10
199.8977747057428
 20
72.11578052863118
 30
0.0
 11
199.8977747057428
 21
134.6071327493271
 31
0.0
  0
LINE
  5
246
102
{ACAD_REACTORS
330
23D
102
}
330
1F
100
AcDbEntity
  8
中心線
100
AcDbLine
 10
259.8977747057428
 20
72.11578052863118
 30
0.0
 11
259.8977747057428
 21
134.6071327493271
 31
0.0
  0
LINE
  5
247
102
{ACAD_REACTORS
330
23D
102
}
330
1F
100
AcDbEntity
  8
中心線
100
AcDbLine
 10
292.104137162616
 20
102.9704506113806
 30
0.0
 11
177.9490194719398
 21
102.9704506113806
 31
0.0
  0
DIMENSION
  5
249
102
{ACAD_REACTORS
330
24B
102
}
102
{ACAD_XDICTIONARY
360
24A
102
}
330
1F
100
AcDbEntity
  8
文字・寸法線
100
AcDbDimension
280
     0
  2
*D19
 10
151.2287296568923
 20
91.03567677485464
 30
0.0
 11
149.1037296568923
 21
87.53567677485464
 31
0.0
 70
    32
 71
     5
 42
7.0
 73
     0
 74
     0
 75
     0
  3
ISO-25
100
AcDbAlignedDimension
 13
120.0976897939525
 23
84.03567677485464
 33
0.0
 14
122.6203979044041
 24
91.03567677485464
 34
0.0
 50
90.0
100
AcDbRotatedDimension
  0
DIMENSION
  5
24C
102
{ACAD_REACTORS
330
24E
102
}
102
{ACAD_XDICTIONARY
360
24D
102
}
330
1F
100
AcDbEntity
  8
文字・寸法線
100
AcDbDimension
280
     0
  2
*D20
 10
151.2287296568923
 20
84.03567677485464
 30
0.0
 11
149.0975905027313
 21
75.84817677485464
 31
0.0
 70
    32
  1
17
 71
     5
 42
16.375
 73
     0
 74
     0
 75
     0
  3
ISO-25
100
AcDbAlignedDimension
 13
137.8203979044041
 23
67.66067677485464
 33
0.0
 14
120.1332062505495
 24
84.03567677485464
 34
0.0
 50
90.0
100
AcDbRotatedDimension
  0
DIMENSION
  5
24F
102
{ACAD_REACTORS
330
251
102
}
102
{ACAD_XDICTIONARY
360
250
102
}
330
1F
100
AcDbEntity
  8
文字・寸法線
100
AcDbDimension
280
     0
  2
*D21
 10
31.7891587446327
 20
69.66067677485469
 30
0.0
 11
29.65801959047172
 21
76.28226613365415
 31
0.0
 70
    32
 71
     5
 42
2.0
 73
     0
 74
     0
 75
     0
  3
ISO-25
100
AcDbAlignedDimension
 13
37.82039790440409
 23
67.66067677485469
 33
0.0
 14
37.82039790440409
 24
69.66067677485469
 34
0.0
 50
90.0
100
AcDbRotatedDimension
  0
LINE
  5
252
102
{ACAD_REACTORS
330
24E
102
}
330
1F
100
AcDbEntity
  8
実線
370
    30
100
AcDbLine
 10
137.8203979044041
 20
67.66067677485464
 30
0.0
 11
137.8203979044041
 21
69.66067677485464
 31
0.0
  0
LINE
  5
253
330
1F
100
AcDbEntity
  8
実線
100
AcDbLine
 10
137.8203979044041
 20
69.66067677485464
 30
0.0
 11
129.7023409205382
 21
69.66067677485464
 31
0.0
  0
LINE
  5
254
102
{ACAD_REACTORS
330
251
102
}
330
1F
100
AcDbEntity
  8
実線
100
AcDbLine
 10
37.82039790440409
 20
69.66067677485469
 30
0.0
 11
37.82039790440409
 21
67.66067677485469
 31
0.0
  0
LINE
  5
255
102
{ACAD_REACTORS
330
265
102
}
330
1F
100
AcDbEntity
  8
実線
100
AcDbLine
 10
37.82039790440409
 20
67.66067677485469
 30
0.0
 11
137.8203979044041
 21
67.66067677485464
 31
0.0
  0
ARC
  5
256
330
1F
100
AcDbEntity
  8
実線
100
AcDbCircle
 10
129.7023409205382
 20
71.66067677485464
 30
0.0
 40
2.0
100
AcDbArc
 50
186.7563270305883
 51
270.0
  0
LINE
  5
257
330
1F
100
AcDbEntity
  8
実線
100
AcDbLine
 10
76.22817211075333
 20
69.66067677485464
 30
0.0
 11
37.82039790440409
 21
69.66067677485469
 31
0.0
  0
ARC
  5
258
330
1F
100
AcDbEntity
  8
実線
100
AcDbCircle
 10
76.2281721107533
 20
71.66067677485464
 30
0.0
 40
2.0
100
AcDbArc
 50
270.0
 51
302.8326326161804
  0
ARC
  5
259
330
1F
100
AcDbEntity
  8
実線
100
AcDbCircle
 10
76.22817211075325
 20
71.66067677485464
 30
0.0
 40
2.0
100
AcDbArc
 50
270.0
 51
302.8326326161804
  0
ARC
  5
25A
330
1F
100
AcDbEntity
  8
実線
100
AcDbCircle
 10
76.2281721107533
 20
71.66067677485464
 30
0.0
 40
2.0
100
AcDbArc
 50
270.0
 51
302.8326326161804
  0
LINE
  5
25B
330
1F
100
AcDbEntity
  8
実線
100
AcDbLine
 10
129.7023409205382
 20
69.66067677485464
 30
0.0
 11
76.22817211075328
 21
69.66067677485464
 31
0.0
  0
ARC
  5
25C
102
{ACAD_REACTORS
330
23D
102
}
330
1F
100
AcDbEntity
  8
実線
100
AcDbCircle
 10
259.8977747057428
 20
102.9704506113805
 30
0.0
 40
25.0
100
AcDbArc
 50
270.0
 51
90.0
  0
CIRCLE
  5
25D
330
1F
100
AcDbEntity
  8
実線
100
AcDbCircle
 10
199.8977747057428
 20
102.9704506113806
 30
0.0
 40
6.5
  0
ARC
  5
25E
102
{ACAD_REACTORS
330
234
102
}
330
1F
100
AcDbEntity
  8
実線
100
AcDbCircle
 10
199.8977747057428
 20
102.9704506113806
 30
0.0
 40
15.0
100
AcDbArc
 50
99.2775011509513
 51
260.7224988490487
  0
LINE
  5
25F
330
1F
100
AcDbEntity
  8
実線
100
AcDbLine
 10
259.8977747057427
 20
127.9704506113805
 30
0.0
 11
197.4795303385799
 21
117.7742370925713
 31
0.0
  0
LINE
  5
260
330
1F
100
AcDbEntity
  8
実線
100
AcDbLine
 10
259.8977747057427
 20
77.97045061138053
 30
0.0
 11
197.4795303385799
 21
88.16666413018979
 31
0.0
  0
ARC
  5
261
330
1F
100
AcDbEntity
  8
実線
100
AcDbCircle
 10
112.57715466306
 20
34.96722503323402
 30
0.0
 40
49.6940470607017
100
AcDbArc
 50
99.10099458826333
 51
135.2051827062572
  0
ARC
  5
262
330
1F
100
AcDbEntity
  8
実線
100
AcDbCircle
 10
112.8203979044041
 20
69.66067677485464
 30
0.0
 40
15.0
100
AcDbArc
 50
6.756327030588218
 51
73.4021578641336
  0
DIMENSION
  5
263
102
{ACAD_REACTORS
330
265
102
}
102
{ACAD_XDICTIONARY
360
264
102
}
330
1F
100
AcDbEntity
  8
文字・寸法線
100
AcDbDimension
280
     0
  2
*D22
 10
37.82039790440409
 20
43.30129815722236
 30
0.0
 11
87.8203979044041
 21
45.45699392802727
 31
0.0
 70
    32
 71
     5
 42
100.0
 73
     0
 74
     0
 75
     0
  3
ISO-25
100
AcDbAlignedDimension
 13
137.8203979044041
 23
67.66067677485464
 33
0.0
 14
37.82039790440409
 24
67.66067677485469
 34
0.0
100
AcDbRotatedDimension
  0
CIRCLE
  5
266
330
1F
100
AcDbEntity
  8
実線
100
AcDbCircle
 10
259.8977747057428
 20
102.9704506113806
 30
0.0
 40
3.0
  0
LINE
  5
267
330
1F
100
AcDbEntity
  8
実線
370
    15
100
AcDbLine
 10
115.8203979044041
 20
166.0356767748546
 30
0.0
 11
115.8203979044041
 21
94.49811635224013
 31
0.0
  0
LINE
  5
268
330
1F
100
AcDbEntity
  8
実線
370
    15
100
AcDbLine
 10
109.8203979044041
 20
165.9493925478971
 30
0.0
 11
109.8203979044041
 21
95.82476092835282
 31
0.0
  0
LINE
  5
269
330
1F
100
AcDbEntity
  8
実線
370
    20
100
AcDbLine
 10
107.8203979044041
 20
163.8226631937422
 30
0.0
 11
117.8203979044041
 21
163.8226631937422
 31
0.0
  0
DIMENSION
  5
26A
330
1F
100
AcDbEntity
  8
文字・寸法線
100
AcDbDimension
280
     0
  2
*D23
 10
117.8203979044041
 20
178.5232682757184
 30
0.0
 11
112.8203979044041
 21
180.6789640465233
 31
0.0
 70
    32
  1
M10
 71
     5
 42
10.0
 73
     0
 74
     0
 75
     0
  3
ISO-25
100
AcDbAlignedDimension
 13
107.8203979044041
 23
161.8495440592952
 33
0.0
 14
117.8203979044041
 24
161.8495440592952
 34
0.0
100
AcDbRotatedDimension
  0
LWPOLYLINE
  5
26B
330
1F
100
AcDbEntity
  8
実線
100
AcDbPolyline
 90
        4
 70
     0
 43
0.0
 10
107.8203979044041
 20
119.4118321252827
 10
107.8203979044041
 20
91.03567677485464
 10
117.8203979044041
 20
91.03567677485464
 10
117.8203979044041
 20
97.96055592962563
  0
DIMENSION
  5
26C
330
1F
100
AcDbEntity
  8
文字・寸法線
100
AcDbDimension
280
     0
  2
*D24
 10
268.3848236628303
 20
65.81946212342788
 30
0.0
 11
259.9688929614016
 21
65.81946212342788
 31
0.0
 70
   160
  1
17
 71
     5
 42
16.97409791417499
 73
     0
 74
     0
 75
     0
  3
ISO-25
100
AcDbAlignedDimension
 13
251.4107257486553
 23
98.07045061138055
 33
0.0
 14
268.3848236628303
 24
98.07045061138055
 34
0.0
100
AcDbRotatedDimension
  0
CIRCLE
  5
26D
330
1F
100
AcDbEntity
  8
実線
100
AcDbCircle
 10
259.8977747057428
 20
102.9704506113806
 30
0.0
 40
5.0
  0
ARC
  5
26E
102
{ACAD_REACTORS
330
24B
102
}
330
1F
100
AcDbEntity
  8
実線
100
AcDbCircle
 10
120.1154480222502
 20
86.75215710324889
 30
0.0
 40
2.716538372492689
100
AcDbArc
 50
202.7633354902943
 51
337.2366715329327
  0
ARC
  5
26F
330
1F
100
AcDbEntity
  8
実線
100
AcDbCircle
 10
112.8831664276336
 20
91.5766560672437
 30
0.0
 40
7.541240519685672
100
AcDbArc
 50
231.1808662705982
 51
308.8191315053852
  0
ARC
  5
270
330
1F
100
AcDbEntity
  8
実線
100
AcDbCircle
 10
105.5881158995642
 20
86.84709188988896
 30
0.0
 40
2.811861775624425
100
AcDbArc
 50
204.0523260738349
 51
335.9476739261652
  0
LINE
  5
271
330
1F
100
AcDbEntity
  8
実線
100
AcDbLine
 10
120.1332062505486
 20
84.03567677485464
 30
0.0
 11
105.5379990743007
 21
84.03567677485464
 31
0.0
  0
LWPOLYLINE
  5
272
330
1F
100
AcDbEntity
  8
実線
100
AcDbPolyline
 90
        6
 70
     1
 43
0.0
 10
251.4107257486553
 20
98.07045061138055
 10
259.8977747057428
 20
93.17045061138057
 10
268.3848236628303
 20
98.07045061138055
 10
268.3848236628303
 20
107.8704506113806
 10
259.8977747057428
 20
112.7704506113806
 10
251.4107257486553
 20
107.8704506113806
  0
LINE
  5
273
330
1F
100
AcDbEntity
  8
実線
100
AcDbLine
 10
117.6104986505739
 20
91.03567677485464
 30
0.0
 11
117.6104986505739
 21
85.70105919290828
 31
0.0
  0
LINE
  5
274
330
1F
100
AcDbEntity
  8
実線
100
AcDbLine
 10
108.1558338947244
 20
91.03567677485464
 30
0.0
 11
108.1558338947244
 21
85.70105919290839
 31
0.0
  0
LWPOLYLINE
  5
275
102
{ACAD_REACTORS
330
24B
102
}
330
1F
100
AcDbEntity
  8
実線
100
AcDbPolyline
 90
        4
 70
     0
 43
0.0
 10
122.6203979044041
 20
85.70105919290833
 10
122.6203979044041
 20
91.03567677485464
 10
103.0203979044041
 20
91.03567677485464
 10
103.0203979044041
 20
85.70105919290833
  0
LINE
  5
276
330
1F
100
AcDbEntity
  8
中心線
100
AcDbLine
 10
112.8203979044041
 20
60.53544287368035
 30
0.0
 11
112.8203979044041
 21
191.6671071995742
 31
0.0
  0
LINE
  5
27E
330
1F
100
AcDbEntity
  8
実線
100
AcDbLine
 10
109.8203979044041
 20
97.96055592962563
 30
0.0
 11
109.8203979044041
 21
91.03567677485464
 31
0.0
  0
LINE
  5
27F
330
1F
100
AcDbEntity
  8
実線
100
AcDbLine
 10
115.8203979044041
 20
97.96055592962563
 30
0.0
 11
115.8203979044041
 21
91.03567677485464
 31
0.0
  0
LWPOLYLINE
  5
280
330
1F
100
AcDbEntity
  8
実線
100
AcDbPolyline
 90
        6
 70
     0
 43
0.0
 10
117.8203979044041
 20
97.96055592962563
 10
117.8203979044041
 20
163.9493925478971
 10
115.8203979044041
 20
165.9493925478971
 10
109.8203979044041
 20
165.9493925478971
 10
107.8203979044041
 20
163.9493925478971
 10
107.8203979044041
 20
119.4118321252827
  0
DIMENSION
  5
393
102
{ACAD_XDICTIONARY
360
394
102
}
330
1F
100
AcDbEntity
  8
文字
100
AcDbDimension
280
     0
  2
*D28
 10
151.2287296568923
 20
91.03567677485464
 30
0.0
 11
149.0791730402484
 21
128.5356767748546
 31
0.0
 70
    32
 71
     5
 42
74.99999999999994
 73
     0
 74
     0
 75
     0
  3
ISO-25
100
AcDbAlignedDimension
 13
112.8203979044041
 23
166.0356767748546
 33
0.0
 14
117.7401184928912
 24
91.03567677485464
 34
0.0
 50
90.0
100
AcDbRotatedDimension
  0
MTEXT
  5
3CB
330
1F
100
AcDbEntity
  8
文字・寸法線
 62
     0
100
AcDbMText
 10
78.88656238401023
 20
203.5184349199509
 30
0.0
 40
6.0
 41
0.0
 46
6.0
 71
     9
 72
     1
  1
{\fＭＳ ゴシック|b0|i0|c0|p0;S-D1 M10X75}
 73
     1
 44
1.0
1001
ACAD
1000
ACAD_MTEXT_DEFINED_HEIGHT_BEGIN
1070
    46
1040
6.0
1000
ACAD_MTEXT_DEFINED_HEIGHT_END
  0
ENDSEC
  0
SECTION
  2
OBJECTS
  0
DICTIONARY
  5
C
330
0
100
AcDbDictionary
281
     1
  3
ACAD_COLOR
350
73
  3
ACAD_DETAILVIEWSTYLE
350
122
  3
ACAD_GROUP
350
D
  3
ACAD_IMAGE_VARS
350
DC
  3
ACAD_LAYOUT
350
1A
  3
ACAD_MATERIAL
350
72
  3
ACAD_MLEADERSTYLE
350
B5
  3
ACAD_MLINESTYLE
350
17
  3
ACAD_PLOTSETTINGS
350
19
  3
ACAD_PLOTSTYLENAME
350
E
  3
ACAD_SCALELIST
350
B6
  3
ACAD_SECTIONVIEWSTYLE
350
123
  3
ACAD_TABLESTYLE
350
86
  3
ACAD_VISUALSTYLE
350
99
  3
ACDB_RECOMPOSE_DATA
350
3CE
  3
AcDbVariableDictionary
350
66
  3
APPDATA
350
E1
  0
SUN
  5
ED
330
94
100
AcDbSun
 90
        1
290
     0
 63
     7
421
 16777215
 40
1.0
291
     1
 91
  2455826
 92
 54000000
292
     0
 70
     2
 71
   256
280
     1
  0
DICTIONARY
  5
233
330
232
100
AcDbDictionary
280
     1
281
     1
  3
ACAD_DIMASSOC
360
234
  0
DICTIONARY
  5
236
330
235
100
AcDbDictionary
280
     1
281
     1
  0
DICTIONARY
  5
239
330
238
100
AcDbDictionary
280
     1
281
     1
  3
ACAD_DIMASSOC
360
23A
  0
DICTIONARY
  5
23C
330
23B
100
AcDbDictionary
280
     1
281
     1
  3
ACAD_DIMASSOC
360
23D
  0
DICTIONARY
  5
23F
330
23E
100
AcDbDictionary
280
     1
281
     1
  3
ACAD_DIMASSOC
360
240
  0
DICTIONARY
  5
24A
330
249
100
AcDbDictionary
280
     1
281
     1
  3
ACAD_DIMASSOC
360
24B
  0
DICTIONARY
  5
24D
330
24C
100
AcDbDictionary
280
     1
281
     1
  3
ACAD_DIMASSOC
360
24E
  0
DICTIONARY
  5
250
330
24F
100
AcDbDictionary
280
     1
281
     1
  3
ACAD_DIMASSOC
360
251
  0
DICTIONARY
  5
264
330
263
100
AcDbDictionary
280
     1
281
     1
  3
ACAD_DIMASSOC
360
265
  0
DICTIONARY
  5
394
330
393
100
AcDbDictionary
280
     1
281
     1
  0
DICTIONARY
  5
73
102
{ACAD_REACTORS
330
C
102
}
330
C
100
AcDbDictionary
281
     1
  0
DICTIONARY
  5
122
102
{ACAD_REACTORS
330
C
102
}
330
C
100
AcDbDictionary
281
     1
  0
DICTIONARY
  5
D
102
{ACAD_REACTORS
330
C
102
}
330
C
100
AcDbDictionary
281
     1
  0
RASTERVARIABLES
  5
DC
102
{ACAD_REACTORS
330
C
102
}
330
C
100
AcDbRasterVariables
 90
        0
 70
     1
 71
     1
 72
     5
  0
DICTIONARY
  5
1A
102
{ACAD_REACTORS
330
C
102
}
330
C
100
AcDbDictionary
281
     1
  3
Model
350
22
  3
Sheet1
350
59
  3
Sheet2
350
5E
  0
DICTIONARY
  5
72
102
{ACAD_REACTORS
330
C
102
}
330
C
100
AcDbDictionary
281
     1
  3
ByBlock
350
E2
  3
ByLayer
350
96
  3
Global
350
98
  0
DICTIONARY
  5
B5
102
{ACAD_REACTORS
330
C
102
}
330
C
100
AcDbDictionary
281
     1
  0
DICTIONARY
  5
17
102
{ACAD_REACTORS
330
C
102
}
330
C
100
AcDbDictionary
281
     1
  3
Standard
350
18
  0
DICTIONARY
  5
19
102
{ACAD_REACTORS
330
C
102
}
330
C
100
AcDbDictionary
281
     1
  0
ACDBDICTIONARYWDFLT
  5
E
102
{ACAD_REACTORS
330
C
102
}
330
C
100
AcDbDictionary
281
     1
  3
Normal
350
F
100
AcDbDictionaryWithDefault
340
F
  0
DICTIONARY
  5
B6
102
{ACAD_REACTORS
330
C
102
}
330
C
100
AcDbDictionary
281
     1
  3
A0
350
B7
  3
A1
350
B8
  3
A2
350
B9
  3
A3
350
BA
  3
A4
350
BB
  3
A5
350
BC
  3
A6
350
BD
  3
A7
350
BE
  3
A8
350
BF
  3
A9
350
C0
  3
B0
350
C1
  3
B1
350
C2
  3
B2
350
C3
  3
B3
350
C4
  3
B4
350
C5
  3
B5
350
C6
  3
B6
350
C7
  3
B7
350
C8
  3
B8
350
C9
  3
B9
350
CA
  3
C0
350
CB
  3
C1
350
CC
  3
C2
350
CD
  3
C3
350
CE
  3
C4
350
CF
  3
C5
350
D0
  3
C6
350
D1
  3
C7
350
D2
  3
C8
350
D3
  3
C9
350
D4
  3
D0
350
D5
  3
D1
350
D6
  3
D2
350
D7
  0
DICTIONARY
  5
123
102
{ACAD_REACTORS
330
C
102
}
330
C
100
AcDbDictionary
281
     1
  0
DICTIONARY
  5
86
102
{ACAD_REACTORS
330
C
102
}
330
C
100
AcDbDictionary
281
     1
  3
Standard
350
87
  0
DICTIONARY
  5
99
102
{ACAD_REACTORS
330
C
102
}
330
C
100
AcDbDictionary
281
     1
  3
2dWireframe
350
9F
  3
3D Hidden
350
A1
  3
3dWireframe
350
A0
  3
Basic
350
9E
  3
Brighten
350
A5
  3
ColorChange
350
A9
  3
Conceptual
350
A2
  3
Dim
350
A4
  3
EdgeColorOff
350
E7
  3
Facepattern
350
A8
  3
Flat
350
9A
  3
FlatWithEdges
350
9B
  3
Gouraud
350
9C
  3
GouraudWithEdges
350
9D
  3
Hidden
350
E4
  3
JitterOff
350
E5
  3
Linepattern
350
A7
  3
OverhangOff
350
E6
  3
Realistic
350
A3
  3
Shaded
350
EC
  3
Shaded with edges
350
EB
  3
Shades of Gray
350
E8
  3
Sketchy
350
E9
  3
Thicken
350
A6
  3
Wireframe
350
E3
  3
X-Ray
350
EA
  0
XRECORD
  5
3CE
102
{ACAD_REACTORS
330
C
102
}
330
C
100
AcDbXrecord
280
     1
 90
        1
330
87
  0
DICTIONARY
  5
66
102
{ACAD_REACTORS
330
C
102
}
330
C
100
AcDbDictionary
281
     1
  3
CANNOSCALE
350
D8
  3
CTABLESTYLE
350
89
  3
DIMASSOC
350
67
  3
HIDETEXT
350
6B
  3
LIGHTSINBLOCKS
350
DF
  3
XCLIPFRAME
350
E0
  0
DICTIONARY
  5
E1
102
{ACAD_REACTORS
330
C
102
}
330
C
100
AcDbDictionary
281
     1
  0
DIMASSOC
  5
234
102
{ACAD_REACTORS
330
233
102
}
330
233
100
AcDbDimAssoc
330
232
 90
        1
 70
     0
 71
     0
  1
AcDbOsnapPointRef
 72
     3
331
25E
 73
     2
 91
        0
 40
1.73271926823656
 10
0.0
 20
0.0
 30
0.0
 75
     0
  0
DIMASSOC
  5
23A
102
{ACAD_REACTORS
330
239
102
}
330
239
100
AcDbDimAssoc
330
238
 90
        2
 70
     0
 71
     0
  1
AcDbOsnapPointRef
 72
     1
331
245
 73
     2
 91
        0
 40
1.0
 10
0.0
 20
0.0
 30
2.000000000000000E+50
 75
     0
  0
DIMASSOC
  5
23D
102
{ACAD_REACTORS
330
23C
102
}
330
23C
100
AcDbDimAssoc
330
23B
 90
        3
 70
     0
 71
     0
  1
AcDbOsnapPointRef
 72
     6
331
247
 73
     2
 91
        0
 40
0.0631278089204917
 10
0.0
 20
0.0
 30
0.0
332
25C
 74
     2
 92
        0
 75
     0
  1
AcDbOsnapPointRef
 72
     1
331
246
 73
     2
 91
        0
 40
1.0
 10
0.0
 20
0.0
 30
2.000000000000000E+50
 75
     0
  0
DIMASSOC
  5
240
102
{ACAD_REACTORS
330
23F
102
}
330
23F
100
AcDbDimAssoc
330
23E
 90
        3
 70
     0
 71
     0
  1
AcDbOsnapPointRef
 72
    13
331
241
 73
     2
 91
        0
 40
4.71238898038469
 10
0.0
 20
0.0
 30
2.000000000000000E+50
 75
     0
  1
AcDbOsnapPointRef
 72
     6
331
244
 73
     2
 91
        0
 40
0.0000000000000052
 10
0.0
 20
0.0
 30
0.0
332
241
 74
     2
 92
        0
 75
     0
  0
DIMASSOC
  5
24B
102
{ACAD_REACTORS
330
24A
102
}
330
24A
100
AcDbDimAssoc
330
249
 90
        2
 70
     0
 71
     0
  1
AcDbOsnapPointRef
 72
     1
331
275
 73
     2
 91
        1
 40
1.0
 10
0.0
 20
0.0
 30
2.000000000000000E+50
 75
     0
  0
DIMASSOC
  5
24E
102
{ACAD_REACTORS
330
24D
102
}
330
24D
100
AcDbDimAssoc
330
24C
 90
        1
 70
     0
 71
     0
  1
AcDbOsnapPointRef
 72
    13
331
252
 73
     2
 91
        0
 40
0.0
 10
0.0
 20
0.0
 30
2.000000000000000E+50
 75
     0
  0
DIMASSOC
  5
251
102
{ACAD_REACTORS
330
250
102
}
330
250
100
AcDbDimAssoc
330
24F
 90
        3
 70
     0
 71
     0
  1
AcDbOsnapPointRef
 72
     1
331
254
 73
     2
 91
        0
 40
1.0
 10
0.0
 20
0.0
 30
2.000000000000000E+50
 75
     0
  1
AcDbOsnapPointRef
 72
    13
331
254
 73
     2
 91
        0
 40
0.0
 10
0.0
 20
0.0
 30
2.000000000000000E+50
 75
     0
  0
DIMASSOC
  5
265
102
{ACAD_REACTORS
330
264
102
}
330
264
100
AcDbDimAssoc
330
263
 90
        1
 70
     0
 71
     0
  1
AcDbOsnapPointRef
 72
     1
331
255
 73
     2
 91
        0
 40
1.0
 10
0.0
 20
0.0
 30
2.000000000000000E+50
 75
     0
  0
LAYOUT
  5
22
102
{ACAD_REACTORS
330
1A
102
}
330
1A
100
AcDbPlotSettings
  1

  2
none_device
  4
ANSI_A_(8.50_x_11.00_Inches)
  6

 40
6.35
 41
19.05
 42
6.35
 43
19.05
 44
215.9
 45
279.4
 46
11.11250000000003
 47
0.0000000000000142
 48
0.0
 49
0.0
140
0.0
141
0.0
142
1.0
143
1.263157894736842
 70
 11444
 72
     0
 73
     1
 74
     1
  7
monochrome.ctb
 75
     0
 76
     0
 77
     2
 78
   300
147
0.7916666666666665
148
-702.8076765758875
149
-496.2830551296954
100
AcDbLayout
  1
Model
 70
     1
 71
     0
 10
0.0
 20
0.0
 11
12.0
 21
9.0
 12
0.0
 22
0.0
 32
0.0
 14
28.15201959047172
 24
42.80129815722236
 34
0.0
 15
304.6000705113507
 25
209.5184349199509
 35
0.0
146
0.0
 13
0.0
 23
0.0
 33
0.0
 16
1.0
 26
0.0
 36
0.0
 17
0.0
 27
1.0
 37
0.0
 76
     0
330
1F
331
94
  0
LAYOUT
  5
59
102
{ACAD_REACTORS
330
1A
102
}
330
1A
100
AcDbPlotSettings
  1

  2
None
  4

  6

 40
0.0
 41
0.0
 42
0.0
 43
0.0
 44
0.0
 45
0.0
 46
0.0
 47
0.0
 48
0.0
 49
0.0
140
0.0
141
0.0
142
1.0
143
1.0
 70
   688
 72
     0
 73
     0
 74
     5
  7

 75
    16
 76
     0
 77
     2
 78
   300
147
1.0
148
0.0
149
0.0
100
AcDbLayout
  1
Sheet1
 70
     1
 71
     1
 10
0.0
 20
0.0
 11
12.0
 21
9.0
 12
0.0
 22
0.0
 32
0.0
 14
0.0
 24
0.0
 34
0.0
 15
0.0
 25
0.0
 35
0.0
146
0.0
 13
0.0
 23
0.0
 33
0.0
 16
1.0
 26
0.0
 36
0.0
 17
0.0
 27
1.0
 37
0.0
 76
     0
330
58
  0
LAYOUT
  5
5E
102
{ACAD_REACTORS
330
1A
102
}
330
1A
100
AcDbPlotSettings
  1

  2
None
  4

  6

 40
0.0
 41
0.0
 42
0.0
 43
0.0
 44
0.0
 45
0.0
 46
0.0
 47
0.0
 48
0.0
 49
0.0
140
0.0
141
0.0
142
1.0
143
1.0
 70
   688
 72
     0
 73
     0
 74
     5
  7

 75
    16
 76
     0
 77
     2
 78
   300
147
1.0
148
0.0
149
0.0
100
AcDbLayout
  1
Sheet2
 70
     1
 71
     2
 10
0.0
 20
0.0
 11
12.0
 21
9.0
 12
0.0
 22
0.0
 32
0.0
 14
0.0
 24
0.0
 34
0.0
 15
0.0
 25
0.0
 35
0.0
146
0.0
 13
0.0
 23
0.0
 33
0.0
 16
1.0
 26
0.0
 36
0.0
 17
0.0
 27
1.0
 37
0.0
 76
     0
330
5D
  0
MATERIAL
  5
E2
102
{ACAD_REACTORS
330
72
102
}
330
72
100
AcDbMaterial
  1
ByBlock
 72
     1
 94
      127
  0
MATERIAL
  5
96
102
{ACAD_REACTORS
330
72
102
}
330
72
100
AcDbMaterial
  1
ByLayer
 72
     1
 94
       63
  0
MATERIAL
  5
98
102
{ACAD_REACTORS
330
72
102
}
330
72
100
AcDbMaterial
  1
Global
 72
     1
 94
       63
  0
MLINESTYLE
  5
18
102
{ACAD_REACTORS
330
17
102
}
330
17
100
AcDbMlineStyle
  2
STANDARD
 70
     0
  3

 62
   256
 51
90.0
 52
90.0
 71
     2
 49
0.5
 62
   256
  6
BYLAYER
 49
-0.5
 62
   256
  6
BYLAYER
  0
ACDBPLACEHOLDER
  5
F
102
{ACAD_REACTORS
330
E
102
}
330
E
  0
SCALE
  5
B7
102
{ACAD_REACTORS
330
B6
102
}
330
B6
100
AcDbScale
 70
     0
300
1:1
140
1.0
141
1.0
290
     1
  0
SCALE
  5
B8
102
{ACAD_REACTORS
330
B6
102
}
330
B6
100
AcDbScale
 70
     0
300
1:2
140
1.0
141
2.0
290
     0
  0
SCALE
  5
B9
102
{ACAD_REACTORS
330
B6
102
}
330
B6
100
AcDbScale
 70
     0
300
1:4
140
1.0
141
4.0
290
     0
  0
SCALE
  5
BA
102
{ACAD_REACTORS
330
B6
102
}
330
B6
100
AcDbScale
 70
     0
300
1:5
140
1.0
141
5.0
290
     0
  0
SCALE
  5
BB
102
{ACAD_REACTORS
330
B6
102
}
330
B6
100
AcDbScale
 70
     0
300
1:8
140
1.0
141
8.0
290
     0
  0
SCALE
  5
BC
102
{ACAD_REACTORS
330
B6
102
}
330
B6
100
AcDbScale
 70
     0
300
1:10
140
1.0
141
10.0
290
     0
  0
SCALE
  5
BD
102
{ACAD_REACTORS
330
B6
102
}
330
B6
100
AcDbScale
 70
     0
300
1:16
140
1.0
141
16.0
290
     0
  0
SCALE
  5
BE
102
{ACAD_REACTORS
330
B6
102
}
330
B6
100
AcDbScale
 70
     0
300
1:20
140
1.0
141
20.0
290
     0
  0
SCALE
  5
BF
102
{ACAD_REACTORS
330
B6
102
}
330
B6
100
AcDbScale
 70
     0
300
1:30
140
1.0
141
30.0
290
     0
  0
SCALE
  5
C0
102
{ACAD_REACTORS
330
B6
102
}
330
B6
100
AcDbScale
 70
     0
300
1:40
140
1.0
141
40.0
290
     0
  0
SCALE
  5
C1
102
{ACAD_REACTORS
330
B6
102
}
330
B6
100
AcDbScale
 70
     0
300
1:50
140
1.0
141
50.0
290
     0
  0
SCALE
  5
C2
102
{ACAD_REACTORS
330
B6
102
}
330
B6
100
AcDbScale
 70
     0
300
1:100
140
1.0
141
100.0
290
     0
  0
SCALE
  5
C3
102
{ACAD_REACTORS
330
B6
102
}
330
B6
100
AcDbScale
 70
     0
300
2:1
140
2.0
141
1.0
290
     0
  0
SCALE
  5
C4
102
{ACAD_REACTORS
330
B6
102
}
330
B6
100
AcDbScale
 70
     0
300
4:1
140
4.0
141
1.0
290
     0
  0
SCALE
  5
C5
102
{ACAD_REACTORS
330
B6
102
}
330
B6
100
AcDbScale
 70
     0
300
8:1
140
8.0
141
1.0
290
     0
  0
SCALE
  5
C6
102
{ACAD_REACTORS
330
B6
102
}
330
B6
100
AcDbScale
 70
     0
300
10:1
140
10.0
141
1.0
290
     0
  0
SCALE
  5
C7
102
{ACAD_REACTORS
330
B6
102
}
330
B6
100
AcDbScale
 70
     0
300
100:1
140
100.0
141
1.0
290
     0
  0
SCALE
  5
C8
102
{ACAD_REACTORS
330
B6
102
}
330
B6
100
AcDbScale
 70
     0
300
1/128" = 1'-0"
140
0.0078125
141
12.0
290
     0
  0
SCALE
  5
C9
102
{ACAD_REACTORS
330
B6
102
}
330
B6
100
AcDbScale
 70
     0
300
1/64" = 1'-0"
140
0.015625
141
12.0
290
     0
  0
SCALE
  5
CA
102
{ACAD_REACTORS
330
B6
102
}
330
B6
100
AcDbScale
 70
     0
300
1/32" = 1'-0"
140
0.03125
141
12.0
290
     0
  0
SCALE
  5
CB
102
{ACAD_REACTORS
330
B6
102
}
330
B6
100
AcDbScale
 70
     0
300
1/16" = 1'-0"
140
0.0625
141
12.0
290
     0
  0
SCALE
  5
CC
102
{ACAD_REACTORS
330
B6
102
}
330
B6
100
AcDbScale
 70
     0
300
3/32" = 1'-0"
140
0.09375
141
12.0
290
     0
  0
SCALE
  5
CD
102
{ACAD_REACTORS
330
B6
102
}
330
B6
100
AcDbScale
 70
     0
300
1/8" = 1'-0"
140
0.125
141
12.0
290
     0
  0
SCALE
  5
CE
102
{ACAD_REACTORS
330
B6
102
}
330
B6
100
AcDbScale
 70
     0
300
3/16" = 1'-0"
140
0.1875
141
12.0
290
     0
  0
SCALE
  5
CF
102
{ACAD_REACTORS
330
B6
102
}
330
B6
100
AcDbScale
 70
     0
300
1/4" = 1'-0"
140
0.25
141
12.0
290
     0
  0
SCALE
  5
D0
102
{ACAD_REACTORS
330
B6
102
}
330
B6
100
AcDbScale
 70
     0
300
3/8" = 1'-0"
140
0.375
141
12.0
290
     0
  0
SCALE
  5
D1
102
{ACAD_REACTORS
330
B6
102
}
330
B6
100
AcDbScale
 70
     0
300
1/2" = 1'-0"
140
0.5
141
12.0
290
     0
  0
SCALE
  5
D2
102
{ACAD_REACTORS
330
B6
102
}
330
B6
100
AcDbScale
 70
     0
300
3/4" = 1'-0"
140
0.75
141
12.0
290
     0
  0
SCALE
  5
D3
102
{ACAD_REACTORS
330
B6
102
}
330
B6
100
AcDbScale
 70
     0
300
1" = 1'-0"
140
1.0
141
12.0
290
     0
  0
SCALE
  5
D4
102
{ACAD_REACTORS
330
B6
102
}
330
B6
100
AcDbScale
 70
     0
300
1-1/2" = 1'-0"
140
1.5
141
12.0
290
     0
  0
SCALE
  5
D5
102
{ACAD_REACTORS
330
B6
102
}
330
B6
100
AcDbScale
 70
     0
300
3" = 1'-0"
140
3.0
141
12.0
290
     0
  0
SCALE
  5
D6
102
{ACAD_REACTORS
330
B6
102
}
330
B6
100
AcDbScale
 70
     0
300
6" = 1'-0"
140
6.0
141
12.0
290
     0
  0
SCALE
  5
D7
102
{ACAD_REACTORS
330
B6
102
}
330
B6
100
AcDbScale
 70
     0
300
1'-0" = 1'-0"
140
12.0
141
12.0
290
     0
  0
TABLESTYLE
  5
87
102
{ACAD_REACTORS
330
86
102
}
102
{ACAD_XDICTIONARY
360
3CC
102
}
330
86
100
AcDbTableStyle
  3
Standard
 70
     0
 71
     0
 40
0.06
 41
0.06
280
     0
281
     0
  7
Standard
140
0.18
170
     2
 62
     0
 63
   257
283
     0
 90
      512
 91
        0
  1

274
    -2
284
     1
 64
     0
275
    -2
285
     1
 65
     0
276
    -2
286
     1
 66
     0
277
    -2
287
     1
 67
     0
278
    -2
288
     1
 68
     0
279
    -2
289
     1
 69
     0
  7
Standard
140
0.25
170
     5
 62
     0
 63
   257
283
     0
 90
      512
 91
        0
  1

274
    -2
284
     1
 64
     0
275
    -2
285
     1
 65
     0
276
    -2
286
     1
 66
     0
277
    -2
287
     1
 67
     0
278
    -2
288
     1
 68
     0
279
    -2
289
     1
 69
     0
  7
Standard
140
0.18
170
     5
 62
     0
 63
   257
283
     0
 90
      512
 91
        0
  1

274
    -2
284
     1
 64
     0
275
    -2
285
     1
 65
     0
276
    -2
286
     1
 66
     0
277
    -2
287
     1
 67
     0
278
    -2
288
     1
 68
     0
279
    -2
289
     1
 69
     0
  0
VISUALSTYLE
  5
9F
102
{ACAD_REACTORS
330
99
102
}
330
99
100
AcDbVisualStyle
  2
2dWireframe
 70
     4
177
     3
291
     0
 70
    58
 90
        0
176
     1
 90
        2
176
     1
 90
        1
176
     1
 90
        0
176
     1
 40
-0.6
176
     1
 40
-30.0
176
     1
 62
     7
420
 16777215
176
     1
 90
        1
176
     1
 90
        4
176
     1
 62
     7
176
     1
 62
   257
176
     1
 90
        1
176
     1
 90
        1
176
     1
 40
1.0
176
     1
 90
        0
176
     1
 62
   257
176
     1
 40
1.0
176
     1
 90
        1
176
     1
 90
        6
176
     1
 90
        2
176
     1
 62
     7
176
     1
 90
        5
176
     1
 90
        0
176
     1
 90
        0
176
     1
290
     0
176
     1
 90
        1
176
     1
 40
0.0
176
     1
 90
        0
176
     1
290
     1
176
     1
290
     1
176
     1
290
     0
176
     1
290
     0
176
     1
290
     0
176
     1
290
     0
176
     1
290
     0
176
     1
290
     0
176
     1
290
     0
176
     1
 90
       50
176
     1
 40
0.0
176
     1
 40
1.0
176
     1
 90
        0
176
     1
 62
    18
420
        0
176
     1
 90
       50
176
     1
 90
        3
176
     1
 62
     5
420
      255
176
     1
290
     0
176
     1
 90
       50
176
     1
 90
       50
176
     1
 90
       50
176
     1
290
     0
176
     1
 90
       50
176
     1
 62
   256
176
     0
 40
1.0
176
     0
 90
        2
176
     1
  1
strokes_ogs.tif
176
     1
290
     0
176
     1
 40
1.0
176
     1
 40
1.0
176
     1
  0
VISUALSTYLE
  5
A1
102
{ACAD_REACTORS
330
99
102
}
330
99
100
AcDbVisualStyle
  2
3D Hidden
 70
     6
177
     3
291
     0
 70
    58
 90
        1
176
     1
 90
        2
176
     1
 90
        2
176
     1
 90
        0
176
     1
 40
-0.6
176
     1
 40
-30.0
176
     1
 62
     7
420
 16777215
176
     1
 90
        2
176
     1
 90
        2
176
     1
 62
     7
176
     1
 62
   257
176
     1
 90
        2
176
     1
 90
        1
176
     1
 40
40.0
176
     1
 90
        0
176
     1
 62
   257
176
     1
 40
1.0
176
     1
 90
        1
176
     1
 90
        6
176
     1
 90
        2
176
     1
 62
     7
176
     1
 90
        3
176
     1
 90
        0
176
     1
 90
        0
176
     1
290
     0
176
     1
 90
        1
176
     1
 40
0.0
176
     1
 90
        0
176
     1
290
     0
176
     1
290
     1
176
     1
290
     1
176
     1
290
     0
176
     1
290
     0
176
     1
290
     0
176
     1
290
     0
176
     1
290
     0
176
     1
290
     0
176
     1
 90
       50
176
     1
 40
0.0
176
     1
 40
1.0
176
     1
 90
        0
176
     1
 62
    18
420
        0
176
     1
 90
       50
176
     1
 90
        3
176
     1
 62
     5
420
      255
176
     1
290
     0
176
     1
 90
       50
176
     1
 90
       50
176
     1
 90
       50
176
     1
290
     0
176
     1
 90
       50
176
     1
 62
   256
176
     0
 40
1.0
176
     0
 90
        2
176
     1
  1
strokes_ogs.tif
176
     1
290
     0
176
     1
 40
1.0
176
     1
 40
1.0
176
     1
  0
VISUALSTYLE
  5
A0
102
{ACAD_REACTORS
330
99
102
}
330
99
100
AcDbVisualStyle
  2
3dWireframe
 70
     5
177
     3
291
     0
 70
    58
 90
        0
176
     1
 90
        2
176
     1
 90
        1
176
     1
 90
        0
176
     1
 40
-0.6
176
     1
 40
-30.0
176
     1
 62
     7
420
 16777215
176
     1
 90
        1
176
     1
 90
        4
176
     1
 62
     7
176
     1
 62
   257
176
     1
 90
        1
176
     1
 90
        1
176
     1
 40
1.0
176
     1
 90
        0
176
     1
 62
   257
176
     1
 40
1.0
176
     1
 90
        1
176
     1
 90
        6
176
     1
 90
        2
176
     1
 62
     7
176
     1
 90
        5
176
     1
 90
        0
176
     1
 90
        0
176
     1
290
     0
176
     1
 90
        1
176
     1
 40
0.0
176
     1
 90
        0
176
     1
290
     0
176
     1
290
     1
176
     1
290
     1
176
     1
290
     0
176
     1
290
     0
176
     1
290
     0
176
     1
290
     0
176
     1
290
     0
176
     1
290
     0
176
     1
 90
       50
176
     1
 40
0.0
176
     1
 40
1.0
176
     1
 90
        0
176
     1
 62
    18
420
        0
176
     1
 90
       50
176
     1
 90
        3
176
     1
 62
     5
420
      255
176
     1
290
     0
176
     1
 90
       50
176
     1
 90
       50
176
     1
 90
       50
176
     1
290
     0
176
     1
 90
       50
176
     1
 62
   256
176
     0
 40
1.0
176
     0
 90
        2
176
     1
  1
strokes_ogs.tif
176
     1
290
     0
176
     1
 40
1.0
176
     1
 40
1.0
176
     1
  0
VISUALSTYLE
  5
9E
102
{ACAD_REACTORS
330
99
102
}
330
99
100
AcDbVisualStyle
  2
Basic
 70
     7
177
     3
291
     1
 70
    58
 90
        1
176
     1
 90
        0
176
     1
 90
        1
176
     1
 90
        0
176
     1
 40
-0.6
176
     1
 40
-30.0
176
     1
 62
     7
420
 16777215
176
     1
 90
        0
176
     1
 90
        4
176
     1
 62
     7
176
     1
 62
   257
176
     1
 90
        1
176
     1
 90
        1
176
     1
 40
1.0
176
     1
 90
        8
176
     1
 62
     7
176
     1
 40
1.0
176
     1
 90
        1
176
     1
 90
        6
176
     1
 90
        2
176
     1
 62
     7
176
     1
 90
        5
176
     1
 90
        0
176
     1
 90
        0
176
     1
290
     0
176
     1
 90
        1
176
     1
 40
0.0
176
     1
 90
        0
176
     1
290
     0
176
     1
290
     1
176
     1
290
     1
176
     1
290
     0
176
     1
290
     0
176
     1
290
     0
176
     1
290
     0
176
     1
290
     0
176
     1
290
     0
176
     1
 90
       50
176
     1
 40
0.0
176
     1
 40
1.0
176
     1
 90
        0
176
     1
 62
    18
420
        0
176
     1
 90
       50
176
     1
 90
        3
176
     1
 62
     5
420
      255
176
     1
290
     0
176
     1
 90
       50
176
     1
 90
       50
176
     1
 90
       50
176
     1
290
     0
176
     1
 90
       50
176
     1
 62
   256
176
     0
 40
1.0
176
     0
 90
        2
176
     1
  1
strokes_ogs.tif
176
     1
290
     0
176
     1
 40
1.0
176
     1
 40
1.0
176
     1
  0
VISUALSTYLE
  5
A5
102
{ACAD_REACTORS
330
99
102
}
330
99
100
AcDbVisualStyle
  2
Brighten
 70
    12
177
     3
291
     1
 70
    58
 90
        2
176
     1
 90
        2
176
     1
 90
        1
176
     1
 90
        0
176
     1
 40
-0.6
176
     1
 40
-30.0
176
     1
 62
     7
420
 16777215
176
     1
 90
        1
176
     1
 90
        4
176
     1
 62
     7
176
     1
 62
   257
176
     1
 90
        1
176
     1
 90
        1
176
     1
 40
1.0
176
     1
 90
        8
176
     1
 62
     7
176
     1
 40
1.0
176
     1
 90
        1
176
     1
 90
        6
176
     1
 90
        2
176
     1
 62
     7
176
     1
 90
        5
176
     1
 90
        0
176
     1
 90
        0
176
     1
290
     0
176
     1
 90
        1
176
     1
 40
50.0
176
     1
 90
        0
176
     1
290
     0
176
     1
290
     1
176
     1
290
     1
176
     1
290
     0
176
     1
290
     0
176
     1
290
     0
176
     1
290
     0
176
     1
290
     0
176
     1
290
     0
176
     1
 90
       50
176
     1
 40
0.0
176
     1
 40
1.0
176
     1
 90
        0
176
     1
 62
    18
420
        0
176
     1
 90
       50
176
     1
 90
        3
176
     1
 62
     5
420
      255
176
     1
290
     0
176
     1
 90
       50
176
     1
 90
       50
176
     1
 90
       50
176
     1
290
     0
176
     1
 90
       50
176
     1
 62
   256
176
     0
 40
1.0
176
     0
 90
        2
176
     1
  1
strokes_ogs.tif
176
     1
290
     0
176
     1
 40
1.0
176
     1
 40
1.0
176
     1
  0
VISUALSTYLE
  5
A9
102
{ACAD_REACTORS
330
99
102
}
330
99
100
AcDbVisualStyle
  2
ColorChange
 70
    16
177
     3
291
     1
 70
    58
 90
        2
176
     1
 90
        2
176
     1
 90
        3
176
     1
 90
        0
176
     1
 40
-0.6
176
     1
 40
-30.0
176
     1
 62
     8
420
  8421504
176
     1
 90
        1
176
     1
 90
        4
176
     1
 62
     7
176
     1
 62
   257
176
     1
 90
        1
176
     1
 90
        1
176
     1
 40
1.0
176
     1
 90
        8
176
     1
 62
     8
420
  8421504
176
     1
 40
1.0
176
     1
 90
        1
176
     1
 90
        6
176
     1
 90
        2
176
     1
 62
     7
176
     1
 90
        5
176
     1
 90
        0
176
     1
 90
        0
176
     1
290
     0
176
     1
 90
        1
176
     1
 40
0.0
176
     1
 90
        0
176
     1
290
     0
176
     1
290
     1
176
     1
290
     1
176
     1
290
     0
176
     1
290
     0
176
     1
290
     0
176
     1
290
     0
176
     1
290
     0
176
     1
290
     0
176
     1
 90
       50
176
     1
 40
0.0
176
     1
 40
1.0
176
     1
 90
        0
176
     1
 62
    18
420
        0
176
     1
 90
       50
176
     1
 90
        3
176
     1
 62
     5
420
      255
176
     1
290
     0
176
     1
 90
       50
176
     1
 90
       50
176
     1
 90
       50
176
     1
290
     0
176
     1
 90
       50
176
     1
 62
   256
176
     0
 40
1.0
176
     0
 90
        2
176
     1
  1
strokes_ogs.tif
176
     1
290
     0
176
     1
 40
1.0
176
     1
 40
1.0
176
     1
  0
VISUALSTYLE
  5
A2
102
{ACAD_REACTORS
330
99
102
}
330
99
100
AcDbVisualStyle
  2
Conceptual
 70
     9
177
     3
291
     0
 70
    58
 90
        3
176
     1
 90
        2
176
     1
 90
        1
176
     1
 90
        0
176
     1
 40
-0.6
176
     1
 40
-30.0
176
     1
 62
     7
420
 16777215
176
     1
 90
        2
176
     1
 90
        2
176
     1
 62
     7
176
     1
 62
   257
176
     1
 90
        1
176
     1
 90
        1
176
     1
 40
40.0
176
     1
 90
        8
176
     1
 62
     7
176
     1
 40
1.0
176
     1
 90
        1
176
     1
 90
        6
176
     1
 90
        2
176
     1
 62
     7
176
     1
 90
        3
176
     1
 90
        0
176
     1
 90
        0
176
     1
290
     0
176
     1
 90
        1
176
     1
 40
0.0
176
     1
 90
        0
176
     1
290
     0
176
     1
290
     1
176
     1
290
     1
176
     1
290
     0
176
     1
290
     0
176
     1
290
     0
176
     1
290
     0
176
     1
290
     0
176
     1
290
     0
176
     1
 90
       50
176
     1
 40
0.0
176
     1
 40
1.0
176
     1
 90
        0
176
     1
 62
    18
420
        0
176
     1
 90
       50
176
     1
 90
        3
176
     1
 62
     5
420
      255
176
     1
290
     0
176
     1
 90
       50
176
     1
 90
       50
176
     1
 90
       50
176
     1
290
     0
176
     1
 90
       50
176
     1
 62
   256
176
     0
 40
1.0
176
     0
 90
        2
176
     1
  1
strokes_ogs.tif
176
     1
290
     0
176
     1
 40
1.0
176
     1
 40
1.0
176
     1
  0
VISUALSTYLE
  5
A4
102
{ACAD_REACTORS
330
99
102
}
330
99
100
AcDbVisualStyle
  2
Dim
 70
    11
177
     3
291
     1
 70
    58
 90
        2
176
     1
 90
        2
176
     1
 90
        1
176
     1
 90
        0
176
     1
 40
-0.6
176
     1
 40
-30.0
176
     1
 62
     7
420
 16777215
176
     1
 90
        1
176
     1
 90
        4
176
     1
 62
     7
176
     1
 62
   257
176
     1
 90
        1
176
     1
 90
        1
176
     1
 40
1.0
176
     1
 90
        8
176
     1
 62
     7
176
     1
 40
1.0
176
     1
 90
        1
176
     1
 90
        6
176
     1
 90
        2
176
     1
 62
     7
176
     1
 90
        5
176
     1
 90
        0
176
     1
 90
        0
176
     1
290
     0
176
     1
 90
        1
176
     1
 40
-50.0
176
     1
 90
        0
176
     1
290
     0
176
     1
290
     1
176
     1
290
     1
176
     1
290
     0
176
     1
290
     0
176
     1
290
     0
176
     1
290
     0
176
     1
290
     0
176
     1
290
     0
176
     1
 90
       50
176
     1
 40
0.0
176
     1
 40
1.0
176
     1
 90
        0
176
     1
 62
    18
420
        0
176
     1
 90
       50
176
     1
 90
        3
176
     1
 62
     5
420
      255
176
     1
290
     0
176
     1
 90
       50
176
     1
 90
       50
176
     1
 90
       50
176
     1
290
     0
176
     1
 90
       50
176
     1
 62
   256
176
     0
 40
1.0
176
     0
 90
        2
176
     1
  1
strokes_ogs.tif
176
     1
290
     0
176
     1
 40
1.0
176
     1
 40
1.0
176
     1
  0
VISUALSTYLE
  5
E7
102
{ACAD_REACTORS
330
99
102
}
330
99
100
AcDbVisualStyle
  2
EdgeColorOff
 70
    22
177
     3
291
     1
 70
    58
 90
        2
176
     0
 90
        2
176
     0
 90
        0
176
     0
 90
        0
176
     0
 40
0.6
176
     0
 40
30.0
176
     0
 62
     7
420
 16777215
176
     0
 90
        1
176
     0
 90
        4
176
     0
 62
     7
176
     0
 62
   257
176
     0
 90
        1
176
     0
 90
        1
176
     0
 40
1.0
176
     0
 90
        8
176
     2
 62
     7
176
     0
 40
1.0
176
     0
 90
        1
176
     0
 90
        6
176
     0
 90
        2
176
     0
 62
     7
176
     0
 90
        5
176
     0
 90
        0
176
     0
 90
        0
176
     0
290
     0
176
     0
 90
        1
176
     0
 40
0.0
176
     0
 90
        0
176
     0
290
     0
176
     0
290
     1
176
     0
290
     1
176
     0
290
     0
176
     0
290
     0
176
     0
290
     0
176
     0
290
     0
176
     0
290
     0
176
     0
290
     0
176
     0
 90
       50
176
     0
 40
0.0
176
     0
 40
1.0
176
     0
 90
        0
176
     0
 62
    18
420
        0
176
     0
 90
       50
176
     0
 90
        3
176
     0
 62
     5
420
      255
176
     0
290
     0
176
     0
 90
       50
176
     0
 90
       50
176
     0
 90
       50
176
     0
290
     0
176
     0
 90
       50
176
     0
 62
   256
176
     0
 40
1.0
176
     0
 90
        2
176
     0
  1
strokes_ogs.tif
176
     0
290
     0
176
     0
 40
1.0
176
     0
 40
1.0
176
     0
  0
VISUALSTYLE
  5
A8
102
{ACAD_REACTORS
330
99
102
}
330
99
100
AcDbVisualStyle
  2
Facepattern
 70
    15
177
     3
291
     1
 70
    58
 90
        2
176
     1
 90
        2
176
     1
 90
        1
176
     1
 90
        0
176
     1
 40
-0.6
176
     1
 40
-30.0
176
     1
 62
     7
420
 16777215
176
     1
 90
        1
176
     1
 90
        4
176
     1
 62
     7
176
     1
 62
   257
176
     1
 90
        1
176
     1
 90
        1
176
     1
 40
1.0
176
     1
 90
        8
176
     1
 62
     7
176
     1
 40
1.0
176
     1
 90
        1
176
     1
 90
        6
176
     1
 90
        2
176
     1
 62
     7
176
     1
 90
        5
176
     1
 90
        0
176
     1
 90
        0
176
     1
290
     0
176
     1
 90
        1
176
     1
 40
0.0
176
     1
 90
        0
176
     1
290
     0
176
     1
290
     1
176
     1
290
     1
176
     1
290
     0
176
     1
290
     0
176
     1
290
     0
176
     1
290
     0
176
     1
290
     0
176
     1
290
     0
176
     1
 90
       50
176
     1
 40
0.0
176
     1
 40
1.0
176
     1
 90
        0
176
     1
 62
    18
420
        0
176
     1
 90
       50
176
     1
 90
        3
176
     1
 62
     5
420
      255
176
     1
290
     0
176
     1
 90
       50
176
     1
 90
       50
176
     1
 90
       50
176
     1
290
     0
176
     1
 90
       50
176
     1
 62
   256
176
     0
 40
1.0
176
     0
 90
        2
176
     1
  1
strokes_ogs.tif
176
     1
290
     0
176
     1
 40
1.0
176
     1
 40
1.0
176
     1
  0
VISUALSTYLE
  5
9A
102
{ACAD_REACTORS
330
99
102
}
330
99
100
AcDbVisualStyle
  2
Flat
 70
     0
177
     3
291
     1
 70
    58
 90
        2
176
     1
 90
        1
176
     1
 90
        1
176
     1
 90
        2
176
     1
 40
-0.6
176
     1
 40
30.0
176
     1
 62
     7
420
 16777215
176
     1
 90
        0
176
     1
 90
        4
176
     1
 62
     7
176
     1
 62
   257
176
     1
 90
        1
176
     1
 90
        1
176
     1
 40
1.0
176
     1
 90
        8
176
     1
 62
     7
176
     1
 40
1.0
176
     1
 90
        1
176
     1
 90
        6
176
     1
 90
        2
176
     1
 62
     7
176
     1
 90
        5
176
     1
 90
        0
176
     1
 90
        0
176
     1
290
     0
176
     1
 90
        1
176
     1
 40
0.0
176
     1
 90
        0
176
     1
290
     0
176
     1
290
     1
176
     1
290
     1
176
     1
290
     0
176
     1
290
     0
176
     1
290
     0
176
     1
290
     0
176
     1
290
     0
176
     1
290
     0
176
     1
 90
       50
176
     1
 40
0.0
176
     1
 40
1.0
176
     1
 90
        0
176
     1
 62
    18
420
        0
176
     1
 90
       50
176
     1
 90
        3
176
     1
 62
     5
420
      255
176
     1
290
     0
176
     1
 90
       50
176
     1
 90
       50
176
     1
 90
       50
176
     1
290
     0
176
     1
 90
       50
176
     1
 62
   256
176
     0
 40
1.0
176
     0
 90
        2
176
     1
  1
strokes_ogs.tif
176
     1
290
     0
176
     1
 40
1.0
176
     1
 40
1.0
176
     1
  0
VISUALSTYLE
  5
9B
102
{ACAD_REACTORS
330
99
102
}
330
99
100
AcDbVisualStyle
  2
FlatWithEdges
 70
     1
177
     3
291
     1
 70
    58
 90
        2
176
     1
 90
        1
176
     1
 90
        1
176
     1
 90
        2
176
     1
 40
-0.6
176
     1
 40
30.0
176
     1
 62
     7
420
 16777215
176
     1
 90
        1
176
     1
 90
        4
176
     1
 62
     7
176
     1
 62
   257
176
     1
 90
        1
176
     1
 90
        1
176
     1
 40
1.0
176
     1
 90
        0
176
     1
 62
   257
176
     1
 40
1.0
176
     1
 90
        1
176
     1
 90
        6
176
     1
 90
        2
176
     1
 62
     7
176
     1
 90
        5
176
     1
 90
        0
176
     1
 90
        0
176
     1
290
     0
176
     1
 90
        1
176
     1
 40
0.0
176
     1
 90
        0
176
     1
290
     0
176
     1
290
     1
176
     1
290
     1
176
     1
290
     0
176
     1
290
     0
176
     1
290
     0
176
     1
290
     0
176
     1
290
     0
176
     1
290
     0
176
     1
 90
       50
176
     1
 40
0.0
176
     1
 40
1.0
176
     1
 90
        0
176
     1
 62
    18
420
        0
176
     1
 90
       50
176
     1
 90
        3
176
     1
 62
     5
420
      255
176
     1
290
     0
176
     1
 90
       50
176
     1
 90
       50
176
     1
 90
       50
176
     1
290
     0
176
     1
 90
       50
176
     1
 62
   256
176
     0
 40
1.0
176
     0
 90
        2
176
     1
  1
strokes_ogs.tif
176
     1
290
     0
176
     1
 40
1.0
176
     1
 40
1.0
176
     1
  0
VISUALSTYLE
  5
9C
102
{ACAD_REACTORS
330
99
102
}
330
99
100
AcDbVisualStyle
  2
Gouraud
 70
     2
177
     3
291
     1
 70
    58
 90
        2
176
     1
 90
        2
176
     1
 90
        1
176
     1
 90
        2
176
     1
 40
-0.6
176
     1
 40
30.0
176
     1
 62
     7
420
 16777215
176
     1
 90
        0
176
     1
 90
        4
176
     1
 62
     7
176
     1
 62
   257
176
     1
 90
        1
176
     1
 90
        1
176
     1
 40
1.0
176
     1
 90
        0
176
     1
 62
     7
176
     1
 40
1.0
176
     1
 90
        1
176
     1
 90
        6
176
     1
 90
        2
176
     1
 62
     7
176
     1
 90
        5
176
     1
 90
        0
176
     1
 90
        0
176
     1
290
     0
176
     1
 90
        1
176
     1
 40
0.0
176
     1
 90
        0
176
     1
290
     0
176
     1
290
     1
176
     1
290
     1
176
     1
290
     0
176
     1
290
     0
176
     1
290
     0
176
     1
290
     0
176
     1
290
     0
176
     1
290
     0
176
     1
 90
       50
176
     1
 40
0.0
176
     1
 40
1.0
176
     1
 90
        0
176
     1
 62
    18
420
        0
176
     1
 90
       50
176
     1
 90
        3
176
     1
 62
     5
420
      255
176
     1
290
     0
176
     1
 90
       50
176
     1
 90
       50
176
     1
 90
       50
176
     1
290
     0
176
     1
 90
       50
176
     1
 62
   256
176
     0
 40
1.0
176
     0
 90
        2
176
     1
  1
strokes_ogs.tif
176
     1
290
     0
176
     1
 40
1.0
176
     1
 40
1.0
176
     1
  0
VISUALSTYLE
  5
9D
102
{ACAD_REACTORS
330
99
102
}
330
99
100
AcDbVisualStyle
  2
GouraudWithEdges
 70
     3
177
     3
291
     1
 70
    58
 90
        2
176
     1
 90
        2
176
     1
 90
        1
176
     1
 90
        2
176
     1
 40
-0.6
176
     1
 40
30.0
176
     1
 62
     7
420
 16777215
176
     1
 90
        1
176
     1
 90
        4
176
     1
 62
     7
176
     1
 62
   257
176
     1
 90
        1
176
     1
 90
        1
176
     1
 40
1.0
176
     1
 90
        0
176
     1
 62
   257
176
     1
 40
1.0
176
     1
 90
        1
176
     1
 90
        6
176
     1
 90
        2
176
     1
 62
     7
176
     1
 90
        5
176
     1
 90
        0
176
     1
 90
        0
176
     1
290
     0
176
     1
 90
        1
176
     1
 40
0.0
176
     1
 90
        0
176
     1
290
     0
176
     1
290
     1
176
     1
290
     1
176
     1
290
     0
176
     1
290
     0
176
     1
290
     0
176
     1
290
     0
176
     1
290
     0
176
     1
290
     0
176
     1
 90
       50
176
     1
 40
0.0
176
     1
 40
1.0
176
     1
 90
        0
176
     1
 62
    18
420
        0
176
     1
 90
       50
176
     1
 90
        3
176
     1
 62
     5
420
      255
176
     1
290
     0
176
     1
 90
       50
176
     1
 90
       50
176
     1
 90
       50
176
     1
290
     0
176
     1
 90
       50
176
     1
 62
   256
176
     0
 40
1.0
176
     0
 90
        2
176
     1
  1
strokes_ogs.tif
176
     1
290
     0
176
     1
 40
1.0
176
     1
 40
1.0
176
     1
  0
VISUALSTYLE
  5
E4
102
{ACAD_REACTORS
330
99
102
}
330
99
100
AcDbVisualStyle
  2
Hidden
 70
     6
177
     3
291
     0
 70
    58
 90
        1
176
     1
 90
        2
176
     1
 90
        2
176
     1
 90
        0
176
     1
 40
0.6
176
     1
 40
30.0
176
     1
 62
     7
420
 16777215
176
     1
 90
        2
176
     1
 90
        2
176
     1
 62
     7
176
     1
 62
   257
176
     1
 90
        2
176
     1
 90
        1
176
     1
 40
40.0
176
     1
 90
        0
176
     1
 62
   257
176
     1
 40
1.0
176
     1
 90
        1
176
     1
 90
        6
176
     1
 90
        2
176
     1
 62
     7
176
     1
 90
        3
176
     1
 90
        0
176
     1
 90
        0
176
     1
290
     0
176
     1
 90
        1
176
     1
 40
0.0
176
     1
 90
        0
176
     1
290
     0
176
     1
290
     1
176
     1
290
     1
176
     1
290
     0
176
     1
290
     0
176
     1
290
     0
176
     1
290
     0
176
     1
290
     0
176
     1
290
     0
176
     1
 90
       50
176
     1
 40
0.0
176
     1
 40
1.0
176
     1
 90
        0
176
     1
 62
    18
420
        0
176
     1
 90
       50
176
     1
 90
        3
176
     1
 62
     5
420
      255
176
     1
290
     0
176
     1
 90
       50
176
     1
 90
       50
176
     1
 90
       50
176
     1
290
     0
176
     1
 90
       50
176
     1
 62
   256
176
     0
 40
1.0
176
     0
 90
        2
176
     1
  1
strokes_ogs.tif
176
     1
290
     0
176
     1
 40
1.0
176
     1
 40
1.0
176
     1
  0
VISUALSTYLE
  5
E5
102
{ACAD_REACTORS
330
99
102
}
330
99
100
AcDbVisualStyle
  2
JitterOff
 70
    20
177
     3
291
     1
 70
    58
 90
        2
176
     0
 90
        2
176
     0
 90
        0
176
     0
 90
        0
176
     0
 40
0.6
176
     0
 40
30.0
176
     0
 62
     7
420
 16777215
176
     0
 90
        1
176
     0
 90
        4
176
     0
 62
     7
176
     0
 62
   257
176
     0
 90
        1
176
     0
 90
        1
176
     0
 40
1.0
176
     0
 90
       10
176
     2
 62
     7
176
     0
 40
1.0
176
     0
 90
        1
176
     0
 90
        6
176
     0
 90
        2
176
     0
 62
     7
176
     0
 90
        5
176
     0
 90
        0
176
     0
 90
        0
176
     0
290
     0
176
     0
 90
        1
176
     0
 40
0.0
176
     0
 90
        0
176
     0
290
     0
176
     0
290
     1
176
     0
290
     1
176
     0
290
     0
176
     0
290
     0
176
     0
290
     0
176
     0
290
     0
176
     0
290
     0
176
     0
290
     0
176
     0
 90
       50
176
     0
 40
0.0
176
     0
 40
1.0
176
     0
 90
        0
176
     0
 62
    18
420
        0
176
     0
 90
       50
176
     0
 90
        3
176
     0
 62
     5
420
      255
176
     0
290
     0
176
     0
 90
       50
176
     0
 90
       50
176
     0
 90
       50
176
     0
290
     0
176
     0
 90
       50
176
     0
 62
   256
176
     0
 40
1.0
176
     0
 90
        2
176
     0
  1
strokes_ogs.tif
176
     0
290
     0
176
     0
 40
1.0
176
     0
 40
1.0
176
     0
  0
VISUALSTYLE
  5
A7
102
{ACAD_REACTORS
330
99
102
}
330
99
100
AcDbVisualStyle
  2
Linepattern
 70
    14
177
     3
291
     1
 70
    58
 90
        2
176
     1
 90
        2
176
     1
 90
        1
176
     1
 90
        0
176
     1
 40
-0.6
176
     1
 40
-30.0
176
     1
 62
     7
420
 16777215
176
     1
 90
        1
176
     1
 90
        4
176
     1
 62
     7
176
     1
 62
   257
176
     1
 90
        7
176
     1
 90
        7
176
     1
 40
1.0
176
     1
 90
        8
176
     1
 62
     7
176
     1
 40
1.0
176
     1
 90
        1
176
     1
 90
        6
176
     1
 90
        2
176
     1
 62
     7
176
     1
 90
        5
176
     1
 90
        0
176
     1
 90
        0
176
     1
290
     0
176
     1
 90
        1
176
     1
 40
0.0
176
     1
 90
        0
176
     1
290
     0
176
     1
290
     1
176
     1
290
     1
176
     1
290
     0
176
     1
290
     0
176
     1
290
     0
176
     1
290
     0
176
     1
290
     0
176
     1
290
     0
176
     1
 90
       50
176
     1
 40
0.0
176
     1
 40
1.0
176
     1
 90
        0
176
     1
 62
    18
420
        0
176
     1
 90
       50
176
     1
 90
        3
176
     1
 62
     5
420
      255
176
     1
290
     0
176
     1
 90
       50
176
     1
 90
       50
176
     1
 90
       50
176
     1
290
     0
176
     1
 90
       50
176
     1
 62
   256
176
     0
 40
1.0
176
     0
 90
        2
176
     1
  1
strokes_ogs.tif
176
     1
290
     0
176
     1
 40
1.0
176
     1
 40
1.0
176
     1
  0
VISUALSTYLE
  5
E6
102
{ACAD_REACTORS
330
99
102
}
330
99
100
AcDbVisualStyle
  2
OverhangOff
 70
    21
177
     3
291
     1
 70
    58
 90
        2
176
     0
 90
        2
176
     0
 90
        0
176
     0
 90
        0
176
     0
 40
0.6
176
     0
 40
30.0
176
     0
 62
     7
420
 16777215
176
     0
 90
        1
176
     0
 90
        4
176
     0
 62
     7
176
     0
 62
   257
176
     0
 90
        1
176
     0
 90
        1
176
     0
 40
1.0
176
     0
 90
        9
176
     2
 62
     7
176
     0
 40
1.0
176
     0
 90
        1
176
     0
 90
        6
176
     0
 90
        2
176
     0
 62
     7
176
     0
 90
        5
176
     0
 90
        0
176
     0
 90
        0
176
     0
290
     0
176
     0
 90
        1
176
     0
 40
0.0
176
     0
 90
        0
176
     0
290
     0
176
     0
290
     1
176
     0
290
     1
176
     0
290
     0
176
     0
290
     0
176
     0
290
     0
176
     0
290
     0
176
     0
290
     0
176
     0
290
     0
176
     0
 90
       50
176
     0
 40
0.0
176
     0
 40
1.0
176
     0
 90
        0
176
     0
 62
    18
420
        0
176
     0
 90
       50
176
     0
 90
        3
176
     0
 62
     5
420
      255
176
     0
290
     0
176
     0
 90
       50
176
     0
 90
       50
176
     0
 90
       50
176
     0
290
     0
176
     0
 90
       50
176
     0
 62
   256
176
     0
 40
1.0
176
     0
 90
        2
176
     0
  1
strokes_ogs.tif
176
     0
290
     0
176
     0
 40
1.0
176
     0
 40
1.0
176
     0
  0
VISUALSTYLE
  5
A3
102
{ACAD_REACTORS
330
99
102
}
330
99
100
AcDbVisualStyle
  2
Realistic
 70
     8
177
     3
291
     0
 70
    58
 90
        2
176
     1
 90
        2
176
     1
 90
        1
176
     1
 90
        0
176
     1
 40
-0.6
176
     1
 40
-30.0
176
     1
 62
     7
420
 16777215
176
     1
 90
        1
176
     1
 90
        0
176
     1
 62
     7
176
     1
 62
   257
176
     1
 90
        1
176
     1
 90
        1
176
     1
 40
1.0
176
     1
 90
        8
176
     1
 62
     8
420
  7895160
176
     1
 40
1.0
176
     1
 90
        1
176
     1
 90
        6
176
     1
 90
        2
176
     1
 62
     7
176
     1
 90
        5
176
     1
 90
        0
176
     1
 90
        0
176
     1
290
     0
176
     1
 90
       13
176
     1
 40
0.0
176
     1
 90
        0
176
     1
290
     0
176
     1
290
     1
176
     1
290
     1
176
     1
290
     0
176
     1
290
     0
176
     1
290
     0
176
     1
290
     0
176
     1
290
     0
176
     1
290
     0
176
     1
 90
       50
176
     1
 40
0.0
176
     1
 40
1.0
176
     1
 90
        0
176
     1
 62
    18
420
        0
176
     1
 90
       50
176
     1
 90
        3
176
     1
 62
     5
420
      255
176
     1
290
     0
176
     1
 90
       50
176
     1
 90
       50
176
     1
 90
       50
176
     1
290
     0
176
     1
 90
       50
176
     1
 62
   256
176
     0
 40
1.0
176
     0
 90
        2
176
     1
  1
strokes_ogs.tif
176
     1
290
     0
176
     1
 40
1.0
176
     1
 40
1.0
176
     1
  0
VISUALSTYLE
  5
EC
102
{ACAD_REACTORS
330
99
102
}
330
99
100
AcDbVisualStyle
  2
Shaded
 70
    27
177
     3
291
     0
 70
    58
 90
        2
176
     1
 90
        2
176
     1
 90
        1
176
     1
 90
        2
176
     1
 40
0.6
176
     1
 40
30.0
176
     1
 62
     7
420
 16777215
176
     1
 90
        0
176
     1
 90
        4
176
     1
 62
     7
176
     1
 62
   257
176
     1
 90
        1
176
     1
 90
        1
176
     1
 40
1.0
176
     1
 90
        8
176
     1
 62
   257
176
     1
 40
1.0
176
     1
 90
        1
176
     1
 90
        6
176
     1
 90
        2
176
     1
 62
     8
420
  7895160
176
     1
 90
        3
176
     1
 90
        0
176
     1
 90
        0
176
     1
290
     0
176
     1
 90
        5
176
     1
 40
0.0
176
     1
 90
        0
176
     1
290
     0
176
     1
290
     1
176
     1
290
     1
176
     1
290
     0
176
     1
290
     0
176
     1
290
     0
176
     1
290
     0
176
     1
290
     0
176
     1
290
     0
176
     1
 90
       50
176
     1
 40
0.0
176
     1
 40
1.0
176
     1
 90
        0
176
     1
 62
    18
420
        0
176
     1
 90
       50
176
     1
 90
        3
176
     1
 62
     5
420
      255
176
     1
290
     0
176
     1
 90
       50
176
     1
 90
       50
176
     1
 90
       50
176
     1
290
     0
176
     1
 90
       50
176
     1
 62
   256
176
     0
 40
1.0
176
     0
 90
        2
176
     1
  1
strokes_ogs.tif
176
     1
290
     0
176
     1
 40
1.0
176
     1
 40
1.0
176
     1
  0
VISUALSTYLE
  5
EB
102
{ACAD_REACTORS
330
99
102
}
330
99
100
AcDbVisualStyle
  2
Shaded with edges
 70
    26
177
     3
291
     0
 70
    58
 90
        2
176
     1
 90
        2
176
     1
 90
        1
176
     1
 90
        2
176
     1
 40
0.6
176
     1
 40
30.0
176
     1
 62
     7
420
 16777215
176
     1
 90
        1
176
     1
 90
       10
176
     1
 62
     7
176
     1
 62
   257
176
     1
 90
        2
176
     1
 90
        1
176
     1
 40
1.0
176
     1
 90
        8
176
     1
 62
   257
176
     1
 40
1.0
176
     1
 90
        1
176
     1
 90
        6
176
     1
 90
        2
176
     1
 62
     7
176
     1
 90
        3
176
     1
 90
        0
176
     1
 90
        0
176
     1
290
     0
176
     1
 90
        5
176
     1
 40
0.0
176
     1
 90
        0
176
     1
290
     0
176
     1
290
     1
176
     1
290
     1
176
     1
290
     0
176
     1
290
     0
176
     1
290
     0
176
     1
290
     0
176
     1
290
     0
176
     1
290
     0
176
     1
 90
       50
176
     1
 40
0.0
176
     1
 40
1.0
176
     1
 90
        0
176
     1
 62
    18
420
        0
176
     1
 90
       50
176
     1
 90
        3
176
     1
 62
     5
420
      255
176
     1
290
     0
176
     1
 90
       50
176
     1
 90
       50
176
     1
 90
       50
176
     1
290
     0
176
     1
 90
       50
176
     1
 62
   256
176
     0
 40
1.0
176
     0
 90
        2
176
     1
  1
strokes_ogs.tif
176
     1
290
     0
176
     1
 40
1.0
176
     1
 40
1.0
176
     1
  0
VISUALSTYLE
  5
E8
102
{ACAD_REACTORS
330
99
102
}
330
99
100
AcDbVisualStyle
  2
Shades of Gray
 70
    23
177
     3
291
     0
 70
    58
 90
        2
176
     1
 90
        2
176
     1
 90
        3
176
     1
 90
        0
176
     1
 40
0.6
176
     1
 40
30.0
176
     1
 62
     7
420
 16777215
176
     1
 90
        2
176
     1
 90
        2
176
     1
 62
     7
176
     1
 62
     7
176
     1
 90
        1
176
     1
 90
        1
176
     1
 40
40.0
176
     1
 90
        8
176
     1
 62
     7
176
     1
 40
1.0
176
     1
 90
        1
176
     1
 90
        6
176
     1
 90
        2
176
     1
 62
     7
176
     1
 90
        3
176
     1
 90
        0
176
     1
 90
        0
176
     1
290
     0
176
     1
 90
        1
176
     1
 40
0.0
176
     1
 90
        0
176
     1
290
     0
176
     1
290
     1
176
     1
290
     1
176
     1
290
     0
176
     1
290
     0
176
     1
290
     0
176
     1
290
     0
176
     1
290
     0
176
     1
290
     0
176
     1
 90
       50
176
     1
 40
0.0
176
     1
 40
1.0
176
     1
 90
        0
176
     1
 62
    18
420
        0
176
     1
 90
       50
176
     1
 90
        3
176
     1
 62
     5
420
      255
176
     1
290
     0
176
     1
 90
       50
176
     1
 90
       50
176
     1
 90
       50
176
     1
290
     0
176
     1
 90
       50
176
     1
 62
   256
176
     0
 40
1.0
176
     0
 90
        2
176
     1
  1
strokes_ogs.tif
176
     1
290
     0
176
     1
 40
1.0
176
     1
 40
1.0
176
     1
  0
VISUALSTYLE
  5
E9
102
{ACAD_REACTORS
330
99
102
}
330
99
100
AcDbVisualStyle
  2
Sketchy
 70
    24
177
     3
291
     0
 70
    58
 90
        1
176
     1
 90
        2
176
     1
 90
        2
176
     1
 90
        0
176
     1
 40
0.6
176
     1
 40
30.0
176
     1
 62
     7
420
 16777215
176
     1
 90
        2
176
     1
 90
        2
176
     1
 62
     7
176
     1
 62
     7
176
     1
 90
        1
176
     1
 90
        1
176
     1
 40
40.0
176
     1
 90
       11
176
     1
 62
     7
176
     1
 40
1.0
176
     1
 90
        1
176
     1
 90
        6
176
     1
 90
        2
176
     1
 62
     7
176
     1
 90
        6
176
     1
 90
        0
176
     1
 90
        0
176
     1
290
     0
176
     1
 90
        1
176
     1
 40
0.0
176
     1
 90
        0
176
     1
290
     0
176
     1
290
     1
176
     1
290
     1
176
     1
290
     0
176
     1
290
     0
176
     1
290
     0
176
     1
290
     0
176
     1
290
     0
176
     1
290
     0
176
     1
 90
       50
176
     1
 40
0.0
176
     1
 40
1.0
176
     1
 90
        0
176
     1
 62
    18
420
        0
176
     1
 90
       50
176
     1
 90
        3
176
     1
 62
     5
420
      255
176
     1
290
     0
176
     1
 90
       50
176
     1
 90
       50
176
     1
 90
       50
176
     1
290
     0
176
     1
 90
       50
176
     1
 62
   256
176
     0
 40
1.0
176
     0
 90
        2
176
     1
  1
strokes_ogs.tif
176
     1
290
     0
176
     1
 40
1.0
176
     1
 40
1.0
176
     1
  0
VISUALSTYLE
  5
A6
102
{ACAD_REACTORS
330
99
102
}
330
99
100
AcDbVisualStyle
  2
Thicken
 70
    13
177
     3
291
     1
 70
    58
 90
        2
176
     1
 90
        2
176
     1
 90
        1
176
     1
 90
        0
176
     1
 40
-0.6
176
     1
 40
-30.0
176
     1
 62
     7
420
 16777215
176
     1
 90
        1
176
     1
 90
        4
176
     1
 62
     7
176
     1
 62
   257
176
     1
 90
        1
176
     1
 90
        1
176
     1
 40
1.0
176
     1
 90
       12
176
     1
 62
     7
176
     1
 40
1.0
176
     1
 90
        1
176
     1
 90
        6
176
     1
 90
        2
176
     1
 62
     7
176
     1
 90
        5
176
     1
 90
        0
176
     1
 90
        0
176
     1
290
     0
176
     1
 90
        1
176
     1
 40
0.0
176
     1
 90
        0
176
     1
290
     0
176
     1
290
     1
176
     1
290
     1
176
     1
290
     0
176
     1
290
     0
176
     1
290
     0
176
     1
290
     0
176
     1
290
     0
176
     1
290
     0
176
     1
 90
       50
176
     1
 40
0.0
176
     1
 40
1.0
176
     1
 90
        0
176
     1
 62
    18
420
        0
176
     1
 90
       50
176
     1
 90
        3
176
     1
 62
     5
420
      255
176
     1
290
     0
176
     1
 90
       50
176
     1
 90
       50
176
     1
 90
       50
176
     1
290
     0
176
     1
 90
       50
176
     1
 62
   256
176
     0
 40
1.0
176
     0
 90
        2
176
     1
  1
strokes_ogs.tif
176
     1
290
     0
176
     1
 40
1.0
176
     1
 40
1.0
176
     1
  0
VISUALSTYLE
  5
E3
102
{ACAD_REACTORS
330
99
102
}
330
99
100
AcDbVisualStyle
  2
Wireframe
 70
     5
177
     3
291
     0
 70
    58
 90
        0
176
     1
 90
        2
176
     1
 90
        0
176
     1
 90
        0
176
     1
 40
0.6
176
     1
 40
30.0
176
     1
 62
     7
420
 16777215
176
     1
 90
        1
176
     1
 90
        4
176
     1
 62
     7
176
     1
 62
   257
176
     1
 90
        1
176
     1
 90
        1
176
     1
 40
1.0
176
     1
 90
        0
176
     1
 62
   257
176
     1
 40
1.0
176
     1
 90
        1
176
     1
 90
        6
176
     1
 90
        2
176
     1
 62
     7
176
     1
 90
        3
176
     1
 90
        0
176
     1
 90
        0
176
     1
290
     0
176
     1
 90
        1
176
     1
 40
0.0
176
     1
 90
        0
176
     1
290
     0
176
     1
290
     1
176
     1
290
     1
176
     1
290
     0
176
     1
290
     0
176
     1
290
     0
176
     1
290
     0
176
     1
290
     0
176
     1
290
     0
176
     1
 90
       50
176
     1
 40
0.0
176
     1
 40
1.0
176
     1
 90
        0
176
     1
 62
    18
420
        0
176
     1
 90
       50
176
     1
 90
        3
176
     1
 62
     5
420
      255
176
     1
290
     0
176
     1
 90
       50
176
     1
 90
       50
176
     1
 90
       50
176
     1
290
     0
176
     1
 90
       50
176
     1
 62
   256
176
     0
 40
1.0
176
     0
 90
        2
176
     1
  1
strokes_ogs.tif
176
     1
290
     0
176
     1
 40
1.0
176
     1
 40
1.0
176
     1
  0
VISUALSTYLE
  5
EA
102
{ACAD_REACTORS
330
99
102
}
330
99
100
AcDbVisualStyle
  2
X-Ray
 70
    25
177
     3
291
     0
 70
    58
 90
        2
176
     1
 90
        2
176
     1
 90
        1
176
     1
 90
        1
176
     1
 40
0.5
176
     1
 40
30.0
176
     1
 62
     7
420
 16777215
176
     1
 90
        1
176
     1
 90
        0
176
     1
 62
     7
176
     1
 62
   257
176
     1
 90
        1
176
     1
 90
        1
176
     1
 40
1.0
176
     1
 90
        8
176
     1
 62
     7
176
     1
 40
1.0
176
     1
 90
        1
176
     1
 90
        6
176
     1
 90
        2
176
     1
 62
     7
176
     1
 90
        3
176
     1
 90
        0
176
     1
 90
        0
176
     1
290
     0
176
     1
 90
       13
176
     1
 40
0.0
176
     1
 90
        0
176
     1
290
     0
176
     1
290
     1
176
     1
290
     1
176
     1
290
     0
176
     1
290
     0
176
     1
290
     0
176
     1
290
     0
176
     1
290
     0
176
     1
290
     0
176
     1
 90
       50
176
     1
 40
0.0
176
     1
 40
1.0
176
     1
 90
        0
176
     1
 62
    18
420
        0
176
     1
 90
       50
176
     1
 90
        3
176
     1
 62
     5
420
      255
176
     1
290
     0
176
     1
 90
       50
176
     1
 90
       50
176
     1
 90
       50
176
     1
290
     0
176
     1
 90
       50
176
     1
 62
   256
176
     0
 40
1.0
176
     0
 90
        2
176
     1
  1
strokes_ogs.tif
176
     1
290
     0
176
     1
 40
1.0
176
     1
 40
1.0
176
     1
  0
DICTIONARYVAR
  5
D8
102
{ACAD_REACTORS
330
66
102
}
330
66
100
DictionaryVariables
280
     0
  1
1:1
  0
DICTIONARYVAR
  5
89
102
{ACAD_REACTORS
330
66
102
}
330
66
100
DictionaryVariables
280
     0
  1
Standard
  0
DICTIONARYVAR
  5
67
102
{ACAD_REACTORS
330
66
102
}
330
66
100
DictionaryVariables
280
     0
  1
2
  0
DICTIONARYVAR
  5
6B
102
{ACAD_REACTORS
330
66
102
}
330
66
100
DictionaryVariables
280
     0
  1
1
  0
DICTIONARYVAR
  5
DF
102
{ACAD_REACTORS
330
66
102
}
330
66
100
DictionaryVariables
280
     0
  1
0
  0
DICTIONARYVAR
  5
E0
102
{ACAD_REACTORS
330
66
102
}
330
66
100
DictionaryVariables
280
     0
  1
0
  0
DICTIONARY
  5
3CC
330
87
100
AcDbDictionary
280
     1
281
     1
  3
ACAD_ROUNDTRIP_2008_TABLESTYLE_CELLSTYLEMAP
360
3CD
  0
CELLSTYLEMAP
  5
3CD
102
{ACAD_REACTORS
330
3CC
102
}
330
3CC
100
AcDbCellStyleMap
 90
        3
300
CELLSTYLE
  1
TABLEFORMAT_BEGIN
 90
        5
170
     1
 91
        0
 92
    32768
 62
   257
 93
        1
300
CONTENTFORMAT
  1
CONTENTFORMAT_BEGIN
 90
        0
 91
        0
 92
      512
 93
        0
300

 40
0.0
140
1.0
 94
        5
 62
     0
340
11
144
0.25
309
CONTENTFORMAT_END
171
     0
 94
        6
 95
        1
302
GRIDFORMAT
  1
GRIDFORMAT_BEGIN
 90
        0
 91
        1
 62
     0
 92
       -2
340
0
 93
        0
 40
0.045
309
GRIDFORMAT_END
 95
        2
302
GRIDFORMAT
  1
GRIDFORMAT_BEGIN
 90
        0
 91
        1
 62
     0
 92
       -2
340
0
 93
        0
 40
0.045
309
GRIDFORMAT_END
 95
        4
302
GRIDFORMAT
  1
GRIDFORMAT_BEGIN
 90
        0
 91
        1
 62
     0
 92
       -2
340
0
 93
        0
 40
0.045
309
GRIDFORMAT_END
 95
        8
302
GRIDFORMAT
  1
GRIDFORMAT_BEGIN
 90
        0
 91
        1
 62
     0
 92
       -2
340
0
 93
        0
 40
0.045
309
GRIDFORMAT_END
 95
       16
302
GRIDFORMAT
  1
GRIDFORMAT_BEGIN
 90
        0
 91
        1
 62
     0
 92
       -2
340
0
 93
        0
 40
0.045
309
GRIDFORMAT_END
 95
       32
302
GRIDFORMAT
  1
GRIDFORMAT_BEGIN
 90
        0
 91
        1
 62
     0
 92
       -2
340
0
 93
        0
 40
0.045
309
GRIDFORMAT_END
309
TABLEFORMAT_END
  1
CELLSTYLE_BEGIN
 90
        1
 91
        1
300
_TITLE
309
CELLSTYLE_END
300
CELLSTYLE
  1
TABLEFORMAT_BEGIN
 90
        5
170
     1
 91
        0
 92
        0
 62
   257
 93
        1
300
CONTENTFORMAT
  1
CONTENTFORMAT_BEGIN
 90
        0
 91
        0
 92
      512
 93
        0
300

 40
0.0
140
1.0
 94
        5
 62
     0
340
11
144
0.18
309
CONTENTFORMAT_END
171
     0
 94
        6
 95
        1
302
GRIDFORMAT
  1
GRIDFORMAT_BEGIN
 90
        0
 91
        1
 62
     0
 92
       -2
340
0
 93
        0
 40
0.045
309
GRIDFORMAT_END
 95
        2
302
GRIDFORMAT
  1
GRIDFORMAT_BEGIN
 90
        0
 91
        1
 62
     0
 92
       -2
340
0
 93
        0
 40
0.045
309
GRIDFORMAT_END
 95
        4
302
GRIDFORMAT
  1
GRIDFORMAT_BEGIN
 90
        0
 91
        1
 62
     0
 92
       -2
340
0
 93
        0
 40
0.045
309
GRIDFORMAT_END
 95
        8
302
GRIDFORMAT
  1
GRIDFORMAT_BEGIN
 90
        0
 91
        1
 62
     0
 92
       -2
340
0
 93
        0
 40
0.045
309
GRIDFORMAT_END
 95
       16
302
GRIDFORMAT
  1
GRIDFORMAT_BEGIN
 90
        0
 91
        1
 62
     0
 92
       -2
340
0
 93
        0
 40
0.045
309
GRIDFORMAT_END
 95
       32
302
GRIDFORMAT
  1
GRIDFORMAT_BEGIN
 90
        0
 91
        1
 62
     0
 92
       -2
340
0
 93
        0
 40
0.045
309
GRIDFORMAT_END
309
TABLEFORMAT_END
  1
CELLSTYLE_BEGIN
 90
        2
 91
        1
300
_HEADER
309
CELLSTYLE_END
300
CELLSTYLE
  1
TABLEFORMAT_BEGIN
 90
        5
170
     1
 91
        0
 92
        0
 62
   257
 93
        1
300
CONTENTFORMAT
  1
CONTENTFORMAT_BEGIN
 90
        0
 91
        0
 92
      512
 93
        0
300

 40
0.0
140
1.0
 94
        2
 62
     0
340
11
144
0.18
309
CONTENTFORMAT_END
171
     0
 94
        6
 95
        1
302
GRIDFORMAT
  1
GRIDFORMAT_BEGIN
 90
        0
 91
        1
 62
     0
 92
       -2
340
0
 93
        0
 40
0.045
309
GRIDFORMAT_END
 95
        2
302
GRIDFORMAT
  1
GRIDFORMAT_BEGIN
 90
        0
 91
        1
 62
     0
 92
       -2
340
0
 93
        0
 40
0.045
309
GRIDFORMAT_END
 95
        4
302
GRIDFORMAT
  1
GRIDFORMAT_BEGIN
 90
        0
 91
        1
 62
     0
 92
       -2
340
0
 93
        0
 40
0.045
309
GRIDFORMAT_END
 95
        8
302
GRIDFORMAT
  1
GRIDFORMAT_BEGIN
 90
        0
 91
        1
 62
     0
 92
       -2
340
0
 93
        0
 40
0.045
309
GRIDFORMAT_END
 95
       16
302
GRIDFORMAT
  1
GRIDFORMAT_BEGIN
 90
        0
 91
        1
 62
     0
 92
       -2
340
0
 93
        0
 40
0.045
309
GRIDFORMAT_END
 95
       32
302
GRIDFORMAT
  1
GRIDFORMAT_BEGIN
 90
        0
 91
        1
 62
     0
 92
       -2
340
0
 93
        0
 40
0.045
309
GRIDFORMAT_END
309
TABLEFORMAT_END
  1
CELLSTYLE_BEGIN
 90
        3
 91
        2
300
_DATA
309
CELLSTYLE_END
  0
ENDSEC
  0
EOF
