  0
SECTION
  2
HEADER
  9
$ACADVER
  1
AC1027
  9
$ACADMAINTVER
 70
     8
  9
$DWGCODEPAGE
  3
ANSI_932
  9
$REQUIREDVERSIONS
160
                 0
  9
$LASTSAVEDBY
  1
Yasu
  9
$INSBASE
 10
0.0
 20
0.0
 30
0.0
  9
$EXTMIN
 10
28.15201959047172
 20
42.80129815722236
 30
0.0
  9
$EXTMAX
 10
304.6000705113507
 20
228.4526833668353
 30
0.0
  9
$LIMMIN
 10
0.0
 20
0.0
  9
$LIMMAX
 10
12.0
 20
9.0
  9
$ORTHOMODE
 70
     0
  9
$REGENMODE
 70
     1
  9
$FILLMODE
 70
     1
  9
$QTEXTMODE
 70
     0
  9
$MIRRTEXT
 70
     0
  9
$LTSCALE
 40
1.0
  9
$ATTMODE
 70
     1
  9
$TEXTSIZE
 40
0.2
  9
$TRACEWID
 40
0.05
  9
$TEXTSTYLE
  7
Standard
  9
$CLAYER
  8
0
  9
$CELTYPE
  6
ByLayer
  9
$CECOLOR
 62
   256
  9
$CELTSCALE
 40
1.0
  9
$DISPSILH
 70
     0
  9
$DIMSCALE
 40
1.0
  9
$DIMASZ
 40
0.18
  9
$DIMEXO
 40
0.0625
  9
$DIMDLI
 40
0.38
  9
$DIMRND
 40
0.0
  9
$DIMDLE
 40
0.0
  9
$DIMEXE
 40
0.18
  9
$DIMTP
 40
0.0
  9
$DIMTM
 40
0.0
  9
$DIMTXT
 40
0.18
  9
$DIMCEN
 40
0.09
  9
$DIMTSZ
 40
0.0
  9
$DIMTOL
 70
     0
  9
$DIMLIM
 70
     0
  9
$DIMTIH
 70
     1
  9
$DIMTOH
 70
     1
  9
$DIMSE1
 70
     0
  9
$DIMSE2
 70
     0
  9
$DIMTAD
 70
     0
  9
$DIMZIN
 70
     0
  9
$DIMBLK
  1

  9
$DIMASO
 70
     1
  9
$DIMSHO
 70
     1
  9
$DIMPOST
  1

  9
$DIMAPOST
  1

  9
$DIMALT
 70
     0
  9
$DIMALTD
 70
     2
  9
$DIMALTF
 40
25.4
  9
$DIMLFAC
 40
1.0
  9
$DIMTOFL
 70
     0
  9
$DIMTVP
 40
0.0
  9
$DIMTIX
 70
     0
  9
$DIMSOXD
 70
     0
  9
$DIMSAH
 70
     0
  9
$DIMBLK1
  1

  9
$DIMBLK2
  1

  9
$DIMSTYLE
  2
Standard
  9
$DIMCLRD
 70
     0
  9
$DIMCLRE
 70
     0
  9
$DIMCLRT
 70
     0
  9
$DIMTFAC
 40
1.0
  9
$DIMGAP
 40
0.09
  9
$DIMJUST
 70
     0
  9
$DIMSD1
 70
     0
  9
$DIMSD2
 70
     0
  9
$DIMTOLJ
 70
     1
  9
$DIMTZIN
 70
     0
  9
$DIMALTZ
 70
     0
  9
$DIMALTTZ
 70
     0
  9
$DIMUPT
 70
     0
  9
$DIMDEC
 70
     4
  9
$DIMTDEC
 70
     4
  9
$DIMALTU
 70
     2
  9
$DIMALTTD
 70
     2
  9
$DIMTXSTY
  7
Standard
  9
$DIMAUNIT
 70
     0
  9
$DIMADEC
 70
     0
  9
$DIMALTRND
 40
0.0
  9
$DIMAZIN
 70
     0
  9
$DIMDSEP
 70
    46
  9
$DIMATFIT
 70
     3
  9
$DIMFRAC
 70
     0
  9
$DIMLDRBLK
  1

  9
$DIMLUNIT
 70
     2
  9
$DIMLWD
 70
    -2
  9
$DIMLWE
 70
    -2
  9
$DIMTMOVE
 70
     0
  9
$DIMFXL
 40
1.0
  9
$DIMFXLON
 70
     0
  9
$DIMJOGANG
 40
0.7853981633974483
  9
$DIMTFILL
 70
     0
  9
$DIMTFILLCLR
 70
     0
  9
$DIMARCSYM
 70
     0
  9
$DIMLTYPE
  6

  9
$DIMLTEX1
  6

  9
$DIMLTEX2
  6

  9
$DIMTXTDIRECTION
 70
     0
  9
$LUNITS
 70
     2
  9
$LUPREC
 70
     4
  9
$SKETCHINC
 40
0.1
  9
$FILLETRAD
 40
0.0
  9
$AUNITS
 70
     0
  9
$AUPREC
 70
     0
  9
$MENU
  1
.
  9
$ELEVATION
 40
0.0
  9
$PELEVATION
 40
0.0
  9
$THICKNESS
 40
0.0
  9
$LIMCHECK
 70
     0
  9
$CHAMFERA
 40
0.0
  9
$CHAMFERB
 40
0.0
  9
$CHAMFERC
 40
0.0
  9
$CHAMFERD
 40
0.0
  9
$SKPOLY
 70
     0
  9
$TDCREATE
 40
2452643.438384271
  9
$TDUCREATE
 40
2452643.063384271
  9
$TDUPDATE
 40
2456739.002893808
  9
$TDUUPDATE
 40
2456738.627893808
  9
$TDINDWG
 40
0.0012551505
  9
$TDUSRTIMER
 40
2456738.627372419
  9
$USRTIMER
 70
     1
  9
$ANGBASE
 50
0.0
  9
$ANGDIR
 70
     0
  9
$PDMODE
 70
     0
  9
$PDSIZE
 40
0.0
  9
$PLINEWID
 40
0.0
  9
$SPLFRAME
 70
     0
  9
$SPLINETYPE
 70
     6
  9
$SPLINESEGS
 70
     8
  9
$HANDSEED
  5
6F7
  9
$SURFTAB1
 70
     6
  9
$SURFTAB2
 70
     6
  9
$SURFTYPE
 70
     6
  9
$SURFU
 70
     6
  9
$SURFV
 70
     6
  9
$UCSBASE
  2

  9
$UCSNAME
  2

  9
$UCSORG
 10
0.0
 20
0.0
 30
0.0
  9
$UCSXDIR
 10
1.0
 20
0.0
 30
0.0
  9
$UCSYDIR
 10
0.0
 20
1.0
 30
0.0
  9
$UCSORTHOREF
  2

  9
$UCSORTHOVIEW
 70
     0
  9
$UCSORGTOP
 10
0.0
 20
0.0
 30
0.0
  9
$UCSORGBOTTOM
 10
0.0
 20
0.0
 30
0.0
  9
$UCSORGLEFT
 10
0.0
 20
0.0
 30
0.0
  9
$UCSORGRIGHT
 10
0.0
 20
0.0
 30
0.0
  9
$UCSORGFRONT
 10
0.0
 20
0.0
 30
0.0
  9
$UCSORGBACK
 10
0.0
 20
0.0
 30
0.0
  9
$PUCSBASE
  2

  9
$PUCSNAME
  2

  9
$PUCSORG
 10
0.0
 20
0.0
 30
0.0
  9
$PUCSXDIR
 10
1.0
 20
0.0
 30
0.0
  9
$PUCSYDIR
 10
0.0
 20
1.0
 30
0.0
  9
$PUCSORTHOREF
  2

  9
$PUCSORTHOVIEW
 70
     0
  9
$PUCSORGTOP
 10
0.0
 20
0.0
 30
0.0
  9
$PUCSORGBOTTOM
 10
0.0
 20
0.0
 30
0.0
  9
$PUCSORGLEFT
 10
0.0
 20
0.0
 30
0.0
  9
$PUCSORGRIGHT
 10
0.0
 20
0.0
 30
0.0
  9
$PUCSORGFRONT
 10
0.0
 20
0.0
 30
0.0
  9
$PUCSORGBACK
 10
0.0
 20
0.0
 30
0.0
  9
$USERI1
 70
     0
  9
$USERI2
 70
     0
  9
$USERI3
 70
     0
  9
$USERI4
 70
     0
  9
$USERI5
 70
     0
  9
$USERR1
 40
0.0
  9
$USERR2
 40
0.0
  9
$USERR3
 40
0.0
  9
$USERR4
 40
0.0
  9
$USERR5
 40
0.0
  9
$WORLDVIEW
 70
     1
  9
$SHADEDGE
 70
     3
  9
$SHADEDIF
 70
    70
  9
$TILEMODE
 70
     1
  9
$MAXACTVP
 70
    64
  9
$PINSBASE
 10
0.0
 20
0.0
 30
0.0
  9
$PLIMCHECK
 70
     0
  9
$PEXTMIN
 10
0.0
 20
0.0
 30
0.0
  9
$PEXTMAX
 10
0.0
 20
0.0
 30
0.0
  9
$PLIMMIN
 10
0.0
 20
0.0
  9
$PLIMMAX
 10
0.0
 20
0.0
  9
$UNITMODE
 70
     0
  9
$VISRETAIN
 70
     1
  9
$PLINEGEN
 70
     0
  9
$PSLTSCALE
 70
     1
  9
$TREEDEPTH
 70
  3020
  9
$CMLSTYLE
  2
Standard
  9
$CMLJUST
 70
     0
  9
$CMLSCALE
 40
1.0
  9
$PROXYGRAPHICS
 70
     1
  9
$MEASUREMENT
 70
     0
  9
$CELWEIGHT
370
    -1
  9
$ENDCAPS
280
     0
  9
$JOINSTYLE
280
     0
  9
$LWDISPLAY
290
     0
  9
$INSUNITS
 70
     1
  9
$HYPERLINKBASE
  1

  9
$STYLESHEET
  1

  9
$XEDIT
290
     1
  9
$CEPSNTYPE
380
     0
  9
$PSTYLEMODE
290
     1
  9
$FINGERPRINTGUID
  2
{FDEAD576-A652-11D2-9A35-0060089B3A3F}
  9
$VERSIONGUID
  2
{FBC2AE19-5C5C-49EC-81BC-71B1A3362A02}
  9
$EXTNAMES
290
     1
  9
$PSVPSCALE
 40
0.0
  9
$OLESTARTUP
290
     0
  9
$SORTENTS
280
   127
  9
$INDEXCTL
280
     0
  9
$HIDETEXT
280
     1
  9
$XCLIPFRAME
280
     0
  9
$HALOGAP
280
     0
  9
$OBSCOLOR
 70
   257
  9
$OBSLTYPE
280
     0
  9
$INTERSECTIONDISPLAY
280
     0
  9
$INTERSECTIONCOLOR
 70
   257
  9
$DIMASSOC
280
     2
  9
$PROJECTNAME
  1

  9
$CAMERADISPLAY
290
     0
  9
$LENSLENGTH
 40
50.0
  9
$CAMERAHEIGHT
 40
0.0
  9
$STEPSPERSEC
 40
2.0
  9
$STEPSIZE
 40
6.0
  9
$3DDWFPREC
 40
2.0
  9
$PSOLWIDTH
 40
0.25
  9
$PSOLHEIGHT
 40
4.0
  9
$LOFTANG1
 40
1.570796326794897
  9
$LOFTANG2
 40
1.570796326794897
  9
$LOFTMAG1
 40
0.0
  9
$LOFTMAG2
 40
0.0
  9
$LOFTPARAM
 70
     7
  9
$LOFTNORMALS
280
     1
  9
$LATITUDE
 40
37.795
  9
$LONGITUDE
 40
-122.394
  9
$NORTHDIRECTION
 40
0.0
  9
$TIMEZONE
 70
 -8000
  9
$LIGHTGLYPHDISPLAY
280
     1
  9
$TILEMODELIGHTSYNCH
280
     1
  9
$CMATERIAL
347
96
  9
$SOLIDHIST
280
     1
  9
$SHOWHIST
280
     1
  9
$DWFFRAME
280
     2
  9
$DGNFRAME
280
     0
  9
$REALWORLDSCALE
290
     1
  9
$INTERFERECOLOR
 62
     1
  9
$CSHADOW
280
     0
  9
$SHADOWPLANELOCATION
 40
0.0
  0
ENDSEC
  0
SECTION
  2
CLASSES
  0
CLASS
  1
ACDBDICTIONARYWDFLT
  2
AcDbDictionaryWithDefault
  3
ObjectDBX Classes
 90
        0
 91
        7
280
     0
281
     0
  0
CLASS
  1
ACDBPLACEHOLDER
  2
AcDbPlaceHolder
  3
ObjectDBX Classes
 90
        0
 91
        1
280
     0
281
     0
  0
CLASS
  1
LAYOUT
  2
AcDbLayout
  3
ObjectDBX Classes
 90
        0
 91
        1
280
     0
281
     0
  0
CLASS
  1
DICTIONARYVAR
  2
AcDbDictionaryVar
  3
ObjectDBX Classes
 90
        0
 91
        5
280
     0
281
     0
  0
CLASS
  1
TABLESTYLE
  2
AcDbTableStyle
  3
ObjectDBX Classes
 90
     4095
 91
        7
280
     0
281
     0
  0
CLASS
  1
MATERIAL
  2
AcDbMaterial
  3
ObjectDBX Classes
 90
     1153
 91
        7
280
     0
281
     0
  0
CLASS
  1
VISUALSTYLE
  2
AcDbVisualStyle
  3
ObjectDBX Classes
 90
     4095
 91
        7
280
     0
281
     0
  0
CLASS
  1
SCALE
  2
AcDbScale
  3
ObjectDBX Classes
 90
     1153
 91
        7
280
     0
281
     0
  0
CLASS
  1
CELLSTYLEMAP
  2
AcDbCellStyleMap
  3
ObjectDBX Classes
 90
     1152
 91
        5
280
     0
281
     0
  0
CLASS
  1
RASTERVARIABLES
  2
AcDbRasterVariables
  3
ISM
 90
        0
 91
        7
280
     0
281
     0
  0
CLASS
  1
SUN
  2
AcDbSun
  3
SCENEOE
 90
     1153
 91
        7
280
     0
281
     0
  0
CLASS
  1
DIMASSOC
  2
AcDbDimAssoc
  3
"AcDbDimAssoc|Product Desc:     AcDim ARX App For Dimension|Company:          Autodesk, Inc.|WEB Address:      www.autodesk.com"
 90
        0
 91
        5
280
     0
281
     0
  0
ENDSEC
  0
SECTION
  2
TABLES
  0
TABLE
  2
VPORT
  5
8
330
0
100
AcDbSymbolTable
 70
     1
  0
VPORT
  5
94
330
8
100
AcDbSymbolTableRecord
100
AcDbViewportTableRecord
  2
*Active
 70
     0
 10
0.0
 20
0.0
 11
1.0
 21
1.0
 12
194.0456386168912
 22
155.1656937198908
 13
0.0
 23
0.0
 14
0.5
 24
0.5
 15
0.5
 25
0.5
 16
0.0
 26
0.0
 36
1.0
 17
-27.66959356597999
 27
-19.53870295786203
 37
0.0
 40
189.3644129138052
 41
1.762376237623762
 42
50.0
 43
0.0
 44
0.0
 50
0.0
 51
0.0
 71
    16
 72
  1000
 73
     1
 74
     3
 75
     0
 76
     0
 77
     0
 78
     0
281
     0
 65
     1
110
0.0
120
0.0
130
0.0
111
1.0
121
0.0
131
0.0
112
0.0
122
1.0
132
0.0
 79
     0
146
0.0
348
9F
 60
     2
 61
     5
292
     1
282
     1
141
0.0
142
0.0
 63
   250
421
  3355443
361
ED
  0
ENDTAB
  0
TABLE
  2
LTYPE
  5
5
330
0
100
AcDbSymbolTable
 70
     2
  0
LTYPE
  5
14
330
5
100
AcDbSymbolTableRecord
100
AcDbLinetypeTableRecord
  2
ByBlock
 70
     0
  3

 72
    65
 73
     0
 40
0.0
  0
LTYPE
  5
15
330
5
100
AcDbSymbolTableRecord
100
AcDbLinetypeTableRecord
  2
ByLayer
 70
     0
  3

 72
    65
 73
     0
 40
0.0
  0
LTYPE
  5
16
330
5
100
AcDbSymbolTableRecord
100
AcDbLinetypeTableRecord
  2
Continuous
 70
     0
  3
Solid line
 72
    65
 73
     0
 40
0.0
  0
LTYPE
  5
128
330
5
100
AcDbSymbolTableRecord
100
AcDbLinetypeTableRecord
  2
CENTER
 70
     0
  3
Center ____ _ ____ _ ____ _ ____ _ ____ _ ____
 72
    65
 73
     4
 40
50.8
 49
31.75
 74
     0
 49
-6.35
 74
     0
 49
6.35
 74
     0
 49
-6.35
 74
     0
  0
ENDTAB
  0
TABLE
  2
LAYER
  5
2
330
0
100
AcDbSymbolTable
 70
     6
  0
LAYER
  5
10
330
2
100
AcDbSymbolTableRecord
100
AcDbLayerTableRecord
  2
0
 70
     0
 62
     7
  6
Continuous
370
    -3
390
F
347
98
348
0
  0
LAYER
  5
125
330
2
100
AcDbSymbolTableRecord
100
AcDbLayerTableRecord
  2
Defpoints
 70
     0
 62
     7
  6
Continuous
290
     0
370
    -3
390
F
347
98
348
0
  0
LAYER
  5
126
330
2
100
AcDbSymbolTableRecord
100
AcDbLayerTableRecord
  2
中心線
 70
     0
 62
     7
  6
CENTER
370
    15
390
F
347
98
348
0
  0
LAYER
  5
129
330
2
100
AcDbSymbolTableRecord
100
AcDbLayerTableRecord
  2
実線
 70
     0
 62
     7
  6
Continuous
370
    25
390
F
347
98
348
0
  0
LAYER
  5
12A
330
2
100
AcDbSymbolTableRecord
100
AcDbLayerTableRecord
  2
文字・寸法線
 70
     0
 62
     7
  6
Continuous
370
    13
390
F
347
98
348
0
  0
LAYER
  5
31A
330
2
100
AcDbSymbolTableRecord
100
AcDbLayerTableRecord
  2
文字
 70
     0
 62
     7
  6
Continuous
370
    18
390
F
347
98
348
0
  0
ENDTAB
  0
TABLE
  2
STYLE
  5
3
330
0
100
AcDbSymbolTable
 70
     1
  0
STYLE
  5
11
330
3
100
AcDbSymbolTableRecord
100
AcDbTextStyleTableRecord
  2
Standard
 70
     0
 40
0.0
 41
1.0
 50
0.0
 71
     0
 42
0.2
  3
arial.ttf
  4

1001
ACAD
1000
Arial
1071
        0
  0
ENDTAB
  0
TABLE
  2
VIEW
  5
6
330
0
100
AcDbSymbolTable
 70
     0
  0
ENDTAB
  0
TABLE
  2
UCS
  5
7
330
0
100
AcDbSymbolTable
 70
     0
  0
ENDTAB
  0
TABLE
  2
APPID
  5
9
330
0
100
AcDbSymbolTable
 70
     1
  0
APPID
  5
12
330
9
100
AcDbSymbolTableRecord
100
AcDbRegAppTableRecord
  2
ACAD
 70
     0
  0
ENDTAB
  0
TABLE
  2
DIMSTYLE
  5
A
330
0
100
AcDbSymbolTable
 70
     2
100
AcDbDimStyleTable
  0
DIMSTYLE
105
27
330
A
100
AcDbSymbolTableRecord
100
AcDbDimStyleTableRecord
  2
Standard
 70
     0
178
     0
340
11
  0
DIMSTYLE
105
12B
102
{ACAD_REACTORS
330
230
330
232
330
235
330
238
330
23B
330
23E
330
249
330
24C
330
24F
330
263
330
655
330
65F
330
6CD
330
6E2
102
}
330
A
100
AcDbSymbolTableRecord
100
AcDbDimStyleTableRecord
  2
ISO-25
 70
     0
 41
2.5
 42
2.0
 43
3.75
 44
0.5
 73
     0
 74
     0
 77
     1
 78
     8
140
3.0
141
2.5
143
0.03937007874016
147
0.625
171
     3
172
     1
178
     0
271
     2
272
     2
274
     3
283
     0
284
     8
340
11
  0
ENDTAB
  0
TABLE
  2
BLOCK_RECORD
  5
1
330
0
100
AcDbSymbolTable
 70
    50
  0
BLOCK_RECORD
  5
1F
330
1
100
AcDbSymbolTableRecord
100
AcDbBlockTableRecord
  2
*Model_Space
340
22
 70
     0
280
     1
281
     0
  0
BLOCK_RECORD
  5
58
330
1
100
AcDbSymbolTableRecord
100
AcDbBlockTableRecord
  2
*Paper_Space
340
59
 70
     0
280
     1
281
     0
  0
BLOCK_RECORD
  5
5D
330
1
100
AcDbSymbolTableRecord
100
AcDbBlockTableRecord
  2
*Paper_Space0
340
5E
 70
     0
280
     1
281
     0
  0
BLOCK_RECORD
  5
14B
330
1
100
AcDbSymbolTableRecord
100
AcDbBlockTableRecord
  2
*D1
340
0
 70
     0
280
     1
281
     0
  0
BLOCK_RECORD
  5
15E
330
1
100
AcDbSymbolTableRecord
100
AcDbBlockTableRecord
  2
*D2
340
0
 70
     0
280
     1
281
     0
  0
BLOCK_RECORD
  5
16D
330
1
100
AcDbSymbolTableRecord
100
AcDbBlockTableRecord
  2
*D3
340
0
 70
     0
280
     1
281
     0
  0
BLOCK_RECORD
  5
17C
330
1
100
AcDbSymbolTableRecord
100
AcDbBlockTableRecord
  2
*D4
340
0
 70
     0
280
     1
281
     0
  0
BLOCK_RECORD
  5
18B
330
1
100
AcDbSymbolTableRecord
100
AcDbBlockTableRecord
  2
*D5
340
0
 70
     0
280
     1
281
     0
  0
BLOCK_RECORD
  5
19F
330
1
100
AcDbSymbolTableRecord
100
AcDbBlockTableRecord
  2
*D6
340
0
 70
     0
280
     1
281
     0
  0
BLOCK_RECORD
  5
1AE
330
1
100
AcDbSymbolTableRecord
100
AcDbBlockTableRecord
  2
*D7
340
0
 70
     0
280
     1
281
     0
  0
BLOCK_RECORD
  5
1BD
330
1
100
AcDbSymbolTableRecord
100
AcDbBlockTableRecord
  2
*D8
340
0
 70
     0
280
     1
281
     0
  0
BLOCK_RECORD
  5
1CC
330
1
100
AcDbSymbolTableRecord
100
AcDbBlockTableRecord
  2
*D9
340
0
 70
     0
280
     1
281
     0
  0
BLOCK_RECORD
  5
1EE
330
1
100
AcDbSymbolTableRecord
100
AcDbBlockTableRecord
  2
*D10
340
0
 70
     0
280
     1
281
     0
  0
BLOCK_RECORD
  5
1FF
330
1
100
AcDbSymbolTableRecord
100
AcDbBlockTableRecord
  2
*D11
340
0
 70
     0
280
     1
281
     0
  0
BLOCK_RECORD
  5
20D
330
1
100
AcDbSymbolTableRecord
100
AcDbBlockTableRecord
  2
*D12
340
0
 70
     0
280
     1
281
     0
  0
BLOCK_RECORD
  5
281
330
1
100
AcDbSymbolTableRecord
100
AcDbBlockTableRecord
  2
*D13
340
0
 70
     0
280
     1
281
     0
  0
BLOCK_RECORD
  5
28D
330
1
100
AcDbSymbolTableRecord
100
AcDbBlockTableRecord
  2
*D14
340
0
 70
     0
280
     1
281
     0
  0
BLOCK_RECORD
  5
299
330
1
100
AcDbSymbolTableRecord
100
AcDbBlockTableRecord
  2
*D15
340
0
 70
     0
280
     1
281
     0
  0
BLOCK_RECORD
  5
2A5
330
1
100
AcDbSymbolTableRecord
100
AcDbBlockTableRecord
  2
*D16
340
0
 70
     0
280
     1
281
     0
  0
BLOCK_RECORD
  5
2B1
330
1
100
AcDbSymbolTableRecord
100
AcDbBlockTableRecord
  2
*D17
340
0
 70
     0
280
     1
281
     0
  0
BLOCK_RECORD
  5
2BD
330
1
100
AcDbSymbolTableRecord
100
AcDbBlockTableRecord
  2
*D18
340
0
 70
     0
280
     1
281
     0
  0
BLOCK_RECORD
  5
2C9
330
1
100
AcDbSymbolTableRecord
100
AcDbBlockTableRecord
  2
*D19
340
0
 70
     0
280
     1
281
     0
  0
BLOCK_RECORD
  5
2D5
330
1
100
AcDbSymbolTableRecord
100
AcDbBlockTableRecord
  2
*D20
340
0
 70
     0
280
     1
281
     0
  0
BLOCK_RECORD
  5
2E1
330
1
100
AcDbSymbolTableRecord
100
AcDbBlockTableRecord
  2
*D21
340
0
 70
     0
280
     1
281
     0
  0
BLOCK_RECORD
  5
2EF
330
1
100
AcDbSymbolTableRecord
100
AcDbBlockTableRecord
  2
*D22
340
0
 70
     0
280
     1
281
     0
  0
BLOCK_RECORD
  5
2FB
330
1
100
AcDbSymbolTableRecord
100
AcDbBlockTableRecord
  2
*D23
340
0
 70
     0
280
     1
281
     0
  0
BLOCK_RECORD
  5
307
330
1
100
AcDbSymbolTableRecord
100
AcDbBlockTableRecord
  2
*D24
340
0
 70
     0
280
     1
281
     0
  0
BLOCK_RECORD
  5
33E
330
1
100
AcDbSymbolTableRecord
100
AcDbBlockTableRecord
  2
*D25
340
0
 70
     0
280
     1
281
     0
  0
BLOCK_RECORD
  5
350
330
1
100
AcDbSymbolTableRecord
100
AcDbBlockTableRecord
  2
*D26
340
0
 70
     0
280
     1
281
     0
  0
BLOCK_RECORD
  5
384
330
1
100
AcDbSymbolTableRecord
100
AcDbBlockTableRecord
  2
*D27
340
0
 70
     0
280
     1
281
     0
  0
BLOCK_RECORD
  5
396
330
1
100
AcDbSymbolTableRecord
100
AcDbBlockTableRecord
  2
*D28
340
0
 70
     0
280
     1
281
     0
  0
BLOCK_RECORD
  5
3CA
330
1
100
AcDbSymbolTableRecord
100
AcDbBlockTableRecord
  2
*D29
340
0
 70
     0
280
     1
281
     0
  0
BLOCK_RECORD
  5
3E2
330
1
100
AcDbSymbolTableRecord
100
AcDbBlockTableRecord
  2
*D30
340
0
 70
     0
280
     1
281
     0
  0
BLOCK_RECORD
  5
413
330
1
100
AcDbSymbolTableRecord
100
AcDbBlockTableRecord
  2
*D31
340
0
 70
     0
280
     1
281
     0
  0
BLOCK_RECORD
  5
42B
330
1
100
AcDbSymbolTableRecord
100
AcDbBlockTableRecord
  2
*D32
340
0
 70
     0
280
     1
281
     0
  0
BLOCK_RECORD
  5
461
330
1
100
AcDbSymbolTableRecord
100
AcDbBlockTableRecord
  2
*D33
340
0
 70
     0
280
     1
281
     0
  0
BLOCK_RECORD
  5
492
330
1
100
AcDbSymbolTableRecord
100
AcDbBlockTableRecord
  2
*D34
340
0
 70
     0
280
     1
281
     0
  0
BLOCK_RECORD
  5
505
330
1
100
AcDbSymbolTableRecord
100
AcDbBlockTableRecord
  2
*D35
340
0
 70
     0
280
     1
281
     0
  0
BLOCK_RECORD
  5
515
330
1
100
AcDbSymbolTableRecord
100
AcDbBlockTableRecord
  2
*D36
340
0
 70
     0
280
     1
281
     0
  0
BLOCK_RECORD
  5
54B
330
1
100
AcDbSymbolTableRecord
100
AcDbBlockTableRecord
  2
*D37
340
0
 70
     0
280
     1
281
     0
  0
BLOCK_RECORD
  5
55C
330
1
100
AcDbSymbolTableRecord
100
AcDbBlockTableRecord
  2
*D38
340
0
 70
     0
280
     1
281
     0
  0
BLOCK_RECORD
  5
59C
330
1
100
AcDbSymbolTableRecord
100
AcDbBlockTableRecord
  2
*D39
340
0
 70
     0
280
     1
281
     0
  0
BLOCK_RECORD
  5
5AD
330
1
100
AcDbSymbolTableRecord
100
AcDbBlockTableRecord
  2
*D40
340
0
 70
     0
280
     1
281
     0
  0
BLOCK_RECORD
  5
5E5
330
1
100
AcDbSymbolTableRecord
100
AcDbBlockTableRecord
  2
*D41
340
0
 70
     0
280
     1
281
     0
  0
BLOCK_RECORD
  5
5F6
330
1
100
AcDbSymbolTableRecord
100
AcDbBlockTableRecord
  2
*D42
340
0
 70
     0
280
     1
281
     0
  0
BLOCK_RECORD
  5
62B
330
1
100
AcDbSymbolTableRecord
100
AcDbBlockTableRecord
  2
*D43
340
0
 70
     0
280
     1
281
     0
  0
BLOCK_RECORD
  5
643
330
1
100
AcDbSymbolTableRecord
100
AcDbBlockTableRecord
  2
*D44
340
0
 70
     0
280
     1
281
     0
  0
BLOCK_RECORD
  5
665
330
1
100
AcDbSymbolTableRecord
100
AcDbBlockTableRecord
  2
*D45
340
0
 70
     0
280
     1
281
     0
  0
BLOCK_RECORD
  5
671
330
1
100
AcDbSymbolTableRecord
100
AcDbBlockTableRecord
  2
*D46
340
0
 70
     0
280
     1
281
     0
  0
BLOCK_RECORD
  5
6D0
330
1
100
AcDbSymbolTableRecord
100
AcDbBlockTableRecord
  2
*D48
340
0
 70
     0
280
     1
281
     0
  0
BLOCK_RECORD
  5
6E8
330
1
100
AcDbSymbolTableRecord
100
AcDbBlockTableRecord
  2
*D49
340
0
 70
     0
280
     1
281
     0
  0
ENDTAB
  0
ENDSEC
  0
SECTION
  2
BLOCKS
  0
BLOCK
  5
20
330
1F
100
AcDbEntity
  8
0
100
AcDbBlockBegin
  2
*Model_Space
 70
     0
 10
0.0
 20
0.0
 30
0.0
  3
*Model_Space
  1
*Model_Space
  0
ENDBLK
  5
21
330
1F
100
AcDbEntity
  8
0
100
AcDbBlockEnd
  0
BLOCK
  5
5A
330
58
100
AcDbEntity
 67
     1
  8
0
100
AcDbBlockBegin
  2
*Paper_Space
 70
     0
 10
0.0
 20
0.0
 30
0.0
  3
*Paper_Space
  1
*Paper_Space
  0
ENDBLK
  5
5B
330
58
100
AcDbEntity
 67
     1
  8
0
100
AcDbBlockEnd
  0
BLOCK
  5
5F
330
5D
100
AcDbEntity
  8
0
100
AcDbBlockBegin
  2
*Paper_Space0
 70
     0
 10
0.0
 20
0.0
 30
0.0
  3
*Paper_Space0
  1
*Paper_Space0
  0
ENDBLK
  5
60
330
5D
100
AcDbEntity
  8
0
100
AcDbBlockEnd
  0
BLOCK
  5
14C
330
14B
100
AcDbEntity
  8
0
100
AcDbBlockBegin
  2
*D1
 70
     1
 10
0.0
 20
0.0
 30
0.0
  3
*D1
  1
*D2
  0
LINE
  5
14D
330
14B
100
AcDbEntity
  8
文字・寸法線
 62
     0
370
    -2
100
AcDbLine
 10
290.2336159611101
 20
85.16915245415818
 30
0.0
 11
332.935911766718
 21
85.16915245415818
 31
0.0
  0
LINE
  5
14E
330
14B
100
AcDbEntity
  8
文字・寸法線
 62
     0
370
    -2
100
AcDbLine
 10
290.2336159611101
 20
35.16915245415815
 30
0.0
 11
332.935911766718
 21
35.16915245415815
 31
0.0
  0
LINE
  5
14F
330
14B
100
AcDbEntity
  8
文字・寸法線
 62
     0
370
    -2
100
AcDbLine
 10
332.435911766718
 20
82.66915245415818
 30
0.0
 11
332.435911766718
 21
37.66915245415815
 31
0.0
  0
SOLID
  5
150
330
14B
100
AcDbEntity
  8
文字・寸法線
 62
     0
100
AcDbTrace
 10
332.8525784333847
 20
82.66915245415818
 30
0.0
 11
332.0192451000514
 21
82.66915245415818
 31
0.0
 12
332.435911766718
 22
85.16915245415818
 32
0.0
 13
332.435911766718
 23
85.16915245415818
 33
0.0
  0
SOLID
  5
151
330
14B
100
AcDbEntity
  8
文字・寸法線
 62
     0
100
AcDbTrace
 10
332.0192451000514
 20
37.66915245415815
 30
0.0
 11
332.8525784333847
 21
37.66915245415815
 31
0.0
 12
332.435911766718
 22
35.16915245415815
 32
0.0
 13
332.435911766718
 23
35.16915245415815
 33
0.0
  0
MTEXT
  5
152
330
14B
100
AcDbEntity
  8
文字・寸法線
 62
     0
100
AcDbMText
 10
330.2802159959131
 20
60.16915245415817
 30
0.0
 40
3.0
 41
0.0
 46
0.0
 71
     5
 72
     1
  1
50
 11
0.0
 21
1.0
 31
0.0
 73
     1
 44
1.0
  0
POINT
  5
153
330
14B
100
AcDbEntity
  8
Defpoints
 62
     0
100
AcDbPoint
 10
288.2336159611101
 20
85.16915245415818
 30
0.0
  0
POINT
  5
154
330
14B
100
AcDbEntity
  8
Defpoints
 62
     0
100
AcDbPoint
 10
288.2336159611101
 20
35.16915245415815
 30
0.0
  0
POINT
  5
155
330
14B
100
AcDbEntity
  8
Defpoints
 62
     0
100
AcDbPoint
 10
332.435911766718
 20
35.16915245415815
 30
0.0
  0
ENDBLK
  5
156
330
14B
100
AcDbEntity
  8
0
100
AcDbBlockEnd
  0
BLOCK
  5
15F
330
15E
100
AcDbEntity
  8
0
100
AcDbBlockBegin
  2
*D2
 70
     1
 10
0.0
 20
0.0
 30
0.0
  3
*D2
  1
*D3
  0
LINE
  5
160
330
15E
100
AcDbEntity
  8
文字・寸法線
 62
     0
370
    -2
100
AcDbLine
 10
228.2336159611101
 20
105.8548963825642
 30
0.0
 11
228.2336159611101
 21
104.3548963825642
 31
0.0
  0
LINE
  5
161
330
15E
100
AcDbEntity
  8
文字・寸法線
 62
     0
370
    -2
100
AcDbLine
 10
213.23361596111
 20
62.16915245415822
 30
0.0
 11
213.23361596111
 21
104.3548963825642
 31
0.0
  0
LINE
  5
162
330
15E
100
AcDbEntity
  8
文字・寸法線
 62
     0
370
    -2
100
AcDbLine
 10
225.7336159611101
 20
103.8548963825642
 30
0.0
 11
215.73361596111
 21
103.8548963825642
 31
0.0
  0
SOLID
  5
163
330
15E
100
AcDbEntity
  8
文字・寸法線
 62
     0
100
AcDbTrace
 10
225.7336159611101
 20
103.4382297158975
 30
0.0
 11
225.7336159611101
 21
104.2715630492309
 31
0.0
 12
228.2336159611101
 22
103.8548963825642
 32
0.0
 13
228.2336159611101
 23
103.8548963825642
 33
0.0
  0
SOLID
  5
164
330
15E
100
AcDbEntity
  8
文字・寸法線
 62
     0
100
AcDbTrace
 10
215.73361596111
 20
104.2715630492309
 30
0.0
 11
215.73361596111
 21
103.4382297158975
 31
0.0
 12
213.23361596111
 22
103.8548963825642
 32
0.0
 13
213.23361596111
 23
103.8548963825642
 33
0.0
  0
MTEXT
  5
165
330
15E
100
AcDbEntity
  8
文字・寸法線
 62
     0
100
AcDbMText
 10
220.7336159611101
 20
106.0105921533691
 30
0.0
 40
3.0
 41
0.0
 46
0.0
 71
     5
 72
     1
  1
15
 73
     1
 44
1.0
  0
POINT
  5
166
330
15E
100
AcDbEntity
  8
Defpoints
 62
     0
100
AcDbPoint
 10
228.2336159611101
 20
103.8548963825642
 30
0.0
  0
POINT
  5
167
330
15E
100
AcDbEntity
  8
Defpoints
 62
     0
100
AcDbPoint
 10
213.23361596111
 20
60.16915245415822
 30
0.0
  0
POINT
  5
168
330
15E
100
AcDbEntity
  8
Defpoints
 62
     0
100
AcDbPoint
 10
213.23361596111
 20
103.8548963825642
 30
0.0
  0
ENDBLK
  5
169
330
15E
100
AcDbEntity
  8
0
100
AcDbBlockEnd
  0
BLOCK
  5
16E
330
16D
100
AcDbEntity
  8
0
100
AcDbBlockBegin
  2
*D3
 70
     1
 10
0.0
 20
0.0
 30
0.0
  3
*D3
  1
*D4
  0
LINE
  5
16F
330
16D
100
AcDbEntity
  8
文字・寸法線
 62
     0
370
    -2
100
AcDbLine
 10
288.2336159611101
 20
94.4308345921047
 30
0.0
 11
288.2336159611101
 21
104.3548963825642
 31
0.0
  0
LINE
  5
170
330
16D
100
AcDbEntity
  8
文字・寸法線
 62
     0
370
    -2
100
AcDbLine
 10
228.2336159611101
 20
93.8058345921047
 30
0.0
 11
228.2336159611101
 21
104.3548963825642
 31
0.0
  0
LINE
  5
171
330
16D
100
AcDbEntity
  8
文字・寸法線
 62
     0
370
    -2
100
AcDbLine
 10
285.7336159611101
 20
103.8548963825642
 30
0.0
 11
230.7336159611101
 21
103.8548963825642
 31
0.0
  0
SOLID
  5
172
330
16D
100
AcDbEntity
  8
文字・寸法線
 62
     0
100
AcDbTrace
 10
285.7336159611101
 20
103.4382297158975
 30
0.0
 11
285.7336159611101
 21
104.2715630492309
 31
0.0
 12
288.2336159611101
 22
103.8548963825642
 32
0.0
 13
288.2336159611101
 23
103.8548963825642
 33
0.0
  0
SOLID
  5
173
330
16D
100
AcDbEntity
  8
文字・寸法線
 62
     0
100
AcDbTrace
 10
230.7336159611101
 20
104.2715630492309
 30
0.0
 11
230.7336159611101
 21
103.4382297158975
 31
0.0
 12
228.2336159611101
 22
103.8548963825642
 32
0.0
 13
228.2336159611101
 23
103.8548963825642
 33
0.0
  0
MTEXT
  5
174
330
16D
100
AcDbEntity
  8
文字・寸法線
 62
     0
100
AcDbMText
 10
258.2336159611101
 20
106.0105921533691
 30
0.0
 40
3.0
 41
0.0
 46
0.0
 71
     5
 72
     1
  1
60
 73
     1
 44
1.0
  0
POINT
  5
175
330
16D
100
AcDbEntity
  8
Defpoints
 62
     0
100
AcDbPoint
 10
288.2336159611101
 20
92.4308345921047
 30
0.0
  0
POINT
  5
176
330
16D
100
AcDbEntity
  8
Defpoints
 62
     0
100
AcDbPoint
 10
228.2336159611101
 20
91.8058345921047
 30
0.0
  0
POINT
  5
177
330
16D
100
AcDbEntity
  8
Defpoints
 62
     0
100
AcDbPoint
 10
228.2336159611101
 20
103.8548963825642
 30
0.0
  0
ENDBLK
  5
178
330
16D
100
AcDbEntity
  8
0
100
AcDbBlockEnd
  0
BLOCK
  5
17D
330
17C
100
AcDbEntity
  8
0
100
AcDbBlockBegin
  2
*D4
 70
     1
 10
0.0
 20
0.0
 30
0.0
  3
*D4
  1
*D5
  0
LINE
  5
17E
330
17C
100
AcDbEntity
  8
文字・寸法線
 62
     0
370
    -2
100
AcDbLine
 10
313.2336159611101
 20
62.16915245415822
 30
0.0
 11
313.2336159611101
 21
104.3548963825642
 31
0.0
  0
LINE
  5
17F
330
17C
100
AcDbEntity
  8
文字・寸法線
 62
     0
370
    -2
100
AcDbLine
 10
288.2336159611101
 20
93.8058345921047
 30
0.0
 11
288.2336159611101
 21
104.3548963825642
 31
0.0
  0
LINE
  5
180
330
17C
100
AcDbEntity
  8
文字・寸法線
 62
     0
370
    -2
100
AcDbLine
 10
310.7336159611101
 20
103.8548963825642
 30
0.0
 11
290.7336159611101
 21
103.8548963825642
 31
0.0
  0
SOLID
  5
181
330
17C
100
AcDbEntity
  8
文字・寸法線
 62
     0
100
AcDbTrace
 10
310.7336159611101
 20
103.4382297158975
 30
0.0
 11
310.7336159611101
 21
104.2715630492309
 31
0.0
 12
313.2336159611101
 22
103.8548963825642
 32
0.0
 13
313.2336159611101
 23
103.8548963825642
 33
0.0
  0
SOLID
  5
182
330
17C
100
AcDbEntity
  8
文字・寸法線
 62
     0
100
AcDbTrace
 10
290.7336159611101
 20
104.2715630492309
 30
0.0
 11
290.7336159611101
 21
103.4382297158975
 31
0.0
 12
288.2336159611101
 22
103.8548963825642
 32
0.0
 13
288.2336159611101
 23
103.8548963825642
 33
0.0
  0
MTEXT
  5
183
330
17C
100
AcDbEntity
  8
文字・寸法線
 62
     0
100
AcDbMText
 10
300.7336159611101
 20
106.0105921533691
 30
0.0
 40
3.0
 41
0.0
 46
0.0
 71
     5
 72
     1
  1
25
 73
     1
 44
1.0
  0
POINT
  5
184
330
17C
100
AcDbEntity
  8
Defpoints
 62
     0
100
AcDbPoint
 10
313.2336159611101
 20
60.16915245415822
 30
0.0
  0
POINT
  5
185
330
17C
100
AcDbEntity
  8
Defpoints
 62
     0
100
AcDbPoint
 10
288.2336159611101
 20
91.8058345921047
 30
0.0
  0
POINT
  5
186
330
17C
100
AcDbEntity
  8
Defpoints
 62
     0
100
AcDbPoint
 10
288.2336159611101
 20
103.8548963825642
 30
0.0
  0
ENDBLK
  5
187
330
17C
100
AcDbEntity
  8
0
100
AcDbBlockEnd
  0
BLOCK
  5
18C
330
18B
100
AcDbEntity
  8
0
100
AcDbBlockBegin
  2
*D5
 70
     1
 10
0.0
 20
0.0
 30
0.0
  3
*D5
  1
*D6
  0
LINE
  5
18D
330
18B
100
AcDbEntity
  8
文字・寸法線
 62
     0
370
    -2
100
AcDbLine
 10
290.2336159611101
 20
42.63939054939625
 30
0.0
 11
325.3923222752171
 21
42.63939054939625
 31
0.0
  0
LINE
  5
18E
330
18B
100
AcDbEntity
  8
文字・寸法線
 62
     0
370
    -2
100
AcDbLine
 10
290.2336159611099
 20
77.6989143589201
 30
0.0
 11
325.3923222752171
 21
77.6989143589201
 31
0.0
  0
LINE
  5
18F
330
18B
100
AcDbEntity
  8
文字・寸法線
 62
     0
370
    -2
100
AcDbLine
 10
324.8923222752171
 20
45.13939054939625
 30
0.0
 11
324.8923222752171
 21
75.1989143589201
 31
0.0
  0
SOLID
  5
190
330
18B
100
AcDbEntity
  8
文字・寸法線
 62
     0
100
AcDbTrace
 10
324.4756556085504
 20
45.13939054939625
 30
0.0
 11
325.3089889418838
 21
45.13939054939625
 31
0.0
 12
324.8923222752171
 22
42.63939054939625
 32
0.0
 13
324.8923222752171
 23
42.63939054939625
 33
0.0
  0
SOLID
  5
191
330
18B
100
AcDbEntity
  8
文字・寸法線
 62
     0
100
AcDbTrace
 10
325.3089889418838
 20
75.1989143589201
 30
0.0
 11
324.4756556085504
 21
75.1989143589201
 31
0.0
 12
324.8923222752171
 22
77.6989143589201
 32
0.0
 13
324.8923222752171
 23
77.6989143589201
 33
0.0
  0
MTEXT
  5
192
330
18B
100
AcDbEntity
  8
文字・寸法線
 62
     0
100
AcDbMText
 10
322.7366265044122
 20
60.16915245415818
 30
0.0
 40
3.0
 41
0.0
 46
0.0
 71
     5
 72
     1
  1
35
 11
0.0
 21
1.0
 31
0.0
 73
     1
 44
1.0
  0
POINT
  5
193
330
18B
100
AcDbEntity
  8
Defpoints
 62
     0
100
AcDbPoint
 10
288.2336159611101
 20
42.63939054939625
 30
0.0
  0
POINT
  5
194
330
18B
100
AcDbEntity
  8
Defpoints
 62
     0
100
AcDbPoint
 10
288.2336159611099
 20
77.6989143589201
 30
0.0
  0
POINT
  5
195
330
18B
100
AcDbEntity
  8
Defpoints
 62
     0
100
AcDbPoint
 10
324.8923222752171
 20
77.6989143589201
 30
0.0
  0
ENDBLK
  5
196
330
18B
100
AcDbEntity
  8
0
100
AcDbBlockEnd
  0
BLOCK
  5
1A0
330
19F
100
AcDbEntity
  8
0
100
AcDbBlockBegin
  2
*D6
 70
     1
 10
0.0
 20
0.0
 30
0.0
  3
*D6
  1
*D7
  0
LINE
  5
1A1
330
19F
100
AcDbEntity
  8
文字・寸法線
 62
     0
370
    -2
100
AcDbLine
 10
121.0645709122596
 20
48.23437861763227
 30
0.0
 11
122.5645709122596
 21
48.23437861763227
 31
0.0
  0
LINE
  5
1A2
330
19F
100
AcDbEntity
  8
文字・寸法線
 62
     0
370
    -2
100
AcDbLine
 10
89.65623915977143
 20
98.23437861763227
 30
0.0
 11
123.5645709122596
 21
98.23437861763227
 31
0.0
  0
LINE
  5
1A3
330
19F
100
AcDbEntity
  8
文字・寸法線
 62
     0
370
    -2
100
AcDbLine
 10
123.0645709122596
 20
50.73437861763227
 30
0.0
 11
123.0645709122596
 21
95.73437861763227
 31
0.0
  0
SOLID
  5
1A4
330
19F
100
AcDbEntity
  8
文字・寸法線
 62
     0
100
AcDbTrace
 10
122.6479042455929
 20
50.73437861763227
 30
0.0
 11
123.4812375789263
 21
50.73437861763227
 31
0.0
 12
123.0645709122596
 22
48.23437861763227
 32
0.0
 13
123.0645709122596
 23
48.23437861763227
 33
0.0
  0
SOLID
  5
1A5
330
19F
100
AcDbEntity
  8
文字・寸法線
 62
     0
100
AcDbTrace
 10
123.4812375789263
 20
95.73437861763227
 30
0.0
 11
122.6479042455929
 21
95.73437861763227
 31
0.0
 12
123.0645709122596
 22
98.23437861763227
 32
0.0
 13
123.0645709122596
 23
98.23437861763227
 33
0.0
  0
MTEXT
  5
1A6
330
19F
100
AcDbEntity
  8
文字・寸法線
 62
     0
100
AcDbMText
 10
120.9088751414547
 20
73.23437861763227
 30
0.0
 40
3.0
 41
0.0
 46
0.0
 71
     5
 72
     1
  1
50
 11
0.0
 21
1.0
 31
0.0
 73
     1
 44
1.0
  0
POINT
  5
1A7
330
19F
100
AcDbEntity
  8
Defpoints
 62
     0
100
AcDbPoint
 10
123.0645709122596
 20
48.23437861763227
 30
0.0
  0
POINT
  5
1A8
330
19F
100
AcDbEntity
  8
Defpoints
 62
     0
100
AcDbPoint
 10
87.65623915977143
 20
98.23437861763227
 30
0.0
  0
POINT
  5
1A9
330
19F
100
AcDbEntity
  8
Defpoints
 62
     0
100
AcDbPoint
 10
123.0645709122596
 20
98.23437861763227
 30
0.0
  0
ENDBLK
  5
1AA
330
19F
100
AcDbEntity
  8
0
100
AcDbBlockEnd
  0
BLOCK
  5
1AF
330
1AE
100
AcDbEntity
  8
0
100
AcDbBlockBegin
  2
*D7
 70
     1
 10
0.0
 20
0.0
 30
0.0
  3
*D7
  1
*D8
  0
LINE
  5
1B0
330
1AE
100
AcDbEntity
  8
文字・寸法線
 62
     0
370
    -2
100
AcDbLine
 10
93.93353104931981
 20
41.23437861763227
 30
0.0
 11
123.5645709122596
 21
41.23437861763227
 31
0.0
  0
LINE
  5
1B1
330
1AE
100
AcDbEntity
  8
文字・寸法線
 62
     0
370
    -2
100
AcDbLine
 10
96.45623915977143
 20
48.23437861763227
 30
0.0
 11
123.5645709122596
 21
48.23437861763227
 31
0.0
  0
LINE
  5
1B2
330
1AE
100
AcDbEntity
  8
文字・寸法線
 62
     0
370
    -2
100
AcDbLine
 10
123.0645709122596
 20
43.73437861763227
 30
0.0
 11
123.0645709122596
 21
45.73437861763227
 31
0.0
  0
SOLID
  5
1B3
330
1AE
100
AcDbEntity
  8
文字・寸法線
 62
     0
100
AcDbTrace
 10
122.6479042455929
 20
43.73437861763227
 30
0.0
 11
123.4812375789262
 21
43.73437861763227
 31
0.0
 12
123.0645709122596
 22
41.23437861763227
 32
0.0
 13
123.0645709122596
 23
41.23437861763227
 33
0.0
  0
SOLID
  5
1B4
330
1AE
100
AcDbEntity
  8
文字・寸法線
 62
     0
100
AcDbTrace
 10
123.4812375789262
 20
45.73437861763227
 30
0.0
 11
122.6479042455929
 21
45.73437861763227
 31
0.0
 12
123.0645709122596
 22
48.23437861763227
 32
0.0
 13
123.0645709122596
 23
48.23437861763227
 33
0.0
  0
MTEXT
  5
1B5
330
1AE
100
AcDbEntity
  8
文字・寸法線
 62
     0
100
AcDbMText
 10
120.9395709122596
 20
44.73437861763227
 30
0.0
 40
3.0
 41
0.0
 46
0.0
 71
     5
 72
     1
  1
7
 11
0.0
 21
1.0
 31
0.0
 73
     1
 44
1.0
  0
POINT
  5
1B6
330
1AE
100
AcDbEntity
  8
Defpoints
 62
     0
100
AcDbPoint
 10
91.93353104931981
 20
41.23437861763227
 30
0.0
  0
POINT
  5
1B7
330
1AE
100
AcDbEntity
  8
Defpoints
 62
     0
100
AcDbPoint
 10
94.45623915977143
 20
48.23437861763227
 30
0.0
  0
POINT
  5
1B8
330
1AE
100
AcDbEntity
  8
Defpoints
 62
     0
100
AcDbPoint
 10
123.0645709122596
 20
48.23437861763227
 30
0.0
  0
ENDBLK
  5
1B9
330
1AE
100
AcDbEntity
  8
0
100
AcDbBlockEnd
  0
BLOCK
  5
1BE
330
1BD
100
AcDbEntity
  8
0
100
AcDbBlockBegin
  2
*D8
 70
     1
 10
0.0
 20
0.0
 30
0.0
  3
*D8
  1
*D9
  0
LINE
  5
1BF
330
1BD
100
AcDbEntity
  8
文字・寸法線
 62
     0
370
    -2
100
AcDbLine
 10
111.6562391597714
 20
24.85937861763227
 30
0.0
 11
123.5645709122596
 21
24.85937861763227
 31
0.0
  0
LINE
  5
1C0
330
1BD
100
AcDbEntity
  8
文字・寸法線
 62
     0
370
    -2
100
AcDbLine
 10
93.96904750591683
 20
41.23437861763229
 30
0.0
 11
123.5645709122596
 21
41.23437861763229
 31
0.0
  0
LINE
  5
1C1
330
1BD
100
AcDbEntity
  8
文字・寸法線
 62
     0
370
    -2
100
AcDbLine
 10
123.0645709122596
 20
27.35937861763227
 30
0.0
 11
123.0645709122596
 21
38.73437861763229
 31
0.0
  0
SOLID
  5
1C2
330
1BD
100
AcDbEntity
  8
文字・寸法線
 62
     0
100
AcDbTrace
 10
122.6479042455929
 20
27.35937861763227
 30
0.0
 11
123.4812375789263
 21
27.35937861763227
 31
0.0
 12
123.0645709122596
 22
24.85937861763227
 32
0.0
 13
123.0645709122596
 23
24.85937861763227
 33
0.0
  0
SOLID
  5
1C3
330
1BD
100
AcDbEntity
  8
文字・寸法線
 62
     0
100
AcDbTrace
 10
123.4812375789263
 20
38.73437861763229
 30
0.0
 11
122.6479042455929
 21
38.73437861763229
 31
0.0
 12
123.0645709122596
 22
41.23437861763229
 32
0.0
 13
123.0645709122596
 23
41.23437861763229
 33
0.0
  0
MTEXT
  5
1C4
330
1BD
100
AcDbEntity
  8
文字・寸法線
 62
     0
100
AcDbMText
 10
120.9334317580986
 20
33.04687861763228
 30
0.0
 40
3.0
 41
0.0
 46
0.0
 71
     5
 72
     1
  1
17
 11
0.0
 21
1.0
 31
0.0
 73
     1
 44
1.0
  0
POINT
  5
1C5
330
1BD
100
AcDbEntity
  8
Defpoints
 62
     0
100
AcDbPoint
 10
109.6562391597714
 20
24.85937861763227
 30
0.0
  0
POINT
  5
1C6
330
1BD
100
AcDbEntity
  8
Defpoints
 62
     0
100
AcDbPoint
 10
91.96904750591683
 20
41.23437861763229
 30
0.0
  0
POINT
  5
1C7
330
1BD
100
AcDbEntity
  8
Defpoints
 62
     0
100
AcDbPoint
 10
123.0645709122596
 20
41.23437861763229
 30
0.0
  0
ENDBLK
  5
1C8
330
1BD
100
AcDbEntity
  8
0
100
AcDbBlockEnd
  0
BLOCK
  5
1CD
330
1CC
100
AcDbEntity
  8
0
100
AcDbBlockBegin
  2
*D9
 70
     1
 10
0.0
 20
0.0
 30
0.0
  3
*D9
  1
*D10
  0
LINE
  5
1CE
330
1CC
100
AcDbEntity
  8
文字・寸法線
 62
     0
370
    -2
100
AcDbLine
 10
7.656239159771403
 20
24.85937861763233
 30
0.0
 11
3.125000000000014
 21
24.85937861763233
 31
0.0
  0
LINE
  5
1CF
330
1CC
100
AcDbEntity
  8
文字・寸法線
 62
     0
370
    -2
100
AcDbLine
 10
7.656239159771403
 20
26.85937861763233
 30
0.0
 11
3.125000000000014
 21
26.85937861763233
 31
0.0
  0
LINE
  5
1D0
330
1CC
100
AcDbEntity
  8
文字・寸法線
 62
     0
370
    -2
100
AcDbLine
 10
3.625000000000014
 20
29.35937861763233
 30
0.0
 11
3.625000000000014
 21
35.10255733523124
 31
0.0
  0
LINE
  5
1D1
330
1CC
100
AcDbEntity
  8
文字・寸法線
 62
     0
370
    -2
100
AcDbLine
 10
3.625000000000014
 20
24.85937861763233
 30
0.0
 11
3.625000000000014
 21
26.85937861763233
 31
0.0
  0
LINE
  5
1D2
330
1CC
100
AcDbEntity
  8
文字・寸法線
 62
     0
370
    -2
100
AcDbLine
 10
3.625000000000014
 20
22.35937861763233
 30
0.0
 11
3.625000000000014
 21
19.85937861763233
 31
0.0
  0
SOLID
  5
1D3
330
1CC
100
AcDbEntity
  8
文字・寸法線
 62
     0
100
AcDbTrace
 10
4.041666666666681
 20
22.35937861763233
 30
0.0
 11
3.208333333333348
 21
22.35937861763233
 31
0.0
 12
3.625000000000014
 22
24.85937861763233
 32
0.0
 13
3.625000000000014
 23
24.85937861763233
 33
0.0
  0
SOLID
  5
1D4
330
1CC
100
AcDbEntity
  8
文字・寸法線
 62
     0
100
AcDbTrace
 10
3.208333333333348
 20
29.35937861763233
 30
0.0
 11
4.041666666666681
 21
29.35937861763233
 31
0.0
 12
3.625000000000014
 22
26.85937861763233
 32
0.0
 13
3.625000000000014
 23
26.85937861763233
 33
0.0
  0
MTEXT
  5
1D5
330
1CC
100
AcDbEntity
  8
文字・寸法線
 62
     0
100
AcDbMText
 10
1.493860845839031
 20
33.48096797643178
 30
0.0
 40
3.0
 41
0.0
 46
0.0
 71
     5
 72
     1
  1
2
 11
0.0
 21
1.0
 31
0.0
 73
     1
 44
1.0
  0
POINT
  5
1D6
330
1CC
100
AcDbEntity
  8
Defpoints
 62
     0
100
AcDbPoint
 10
9.656239159771403
 20
24.85937861763233
 30
0.0
  0
POINT
  5
1D7
330
1CC
100
AcDbEntity
  8
Defpoints
 62
     0
100
AcDbPoint
 10
9.656239159771403
 20
26.85937861763233
 30
0.0
  0
POINT
  5
1D8
330
1CC
100
AcDbEntity
  8
Defpoints
 62
     0
100
AcDbPoint
 10
3.625000000000014
 20
26.85937861763233
 30
0.0
  0
ENDBLK
  5
1D9
330
1CC
100
AcDbEntity
  8
0
100
AcDbBlockEnd
  0
BLOCK
  5
1EF
330
1EE
100
AcDbEntity
  8
0
100
AcDbBlockBegin
  2
*D10
 70
     1
 10
0.0
 20
0.0
 30
0.0
  3
*D10
  1
*D11
  0
LINE
  5
1F0
330
1EE
100
AcDbEntity
  8
文字・寸法線
 62
     0
370
    -2
100
AcDbLine
 10
109.6562391597714
 20
22.85937861763227
 30
0.0
 11
109.6562391597714
 21
0.0
 31
0.0
  0
LINE
  5
1F1
330
1EE
100
AcDbEntity
  8
文字・寸法線
 62
     0
370
    -2
100
AcDbLine
 10
9.656239159771403
 20
22.85937861763233
 30
0.0
 11
9.656239159771403
 21
0.0
 31
0.0
  0
LINE
  5
1F2
330
1EE
100
AcDbEntity
  8
文字・寸法線
 62
     0
370
    -2
100
AcDbLine
 10
107.1562391597714
 20
0.5
 30
0.0
 11
12.1562391597714
 21
0.5
 31
0.0
  0
SOLID
  5
1F3
330
1EE
100
AcDbEntity
  8
文字・寸法線
 62
     0
100
AcDbTrace
 10
107.1562391597714
 20
0.0833333333333333
 30
0.0
 11
107.1562391597714
 21
0.9166666666666667
 31
0.0
 12
109.6562391597714
 22
0.5
 32
0.0
 13
109.6562391597714
 23
0.5
 33
0.0
  0
SOLID
  5
1F4
330
1EE
100
AcDbEntity
  8
文字・寸法線
 62
     0
100
AcDbTrace
 10
12.1562391597714
 20
0.9166666666666667
 30
0.0
 11
12.1562391597714
 21
0.0833333333333333
 31
0.0
 12
9.656239159771403
 22
0.5
 32
0.0
 13
9.656239159771403
 23
0.5
 33
0.0
  0
MTEXT
  5
1F5
330
1EE
100
AcDbEntity
  8
文字・寸法線
 62
     0
100
AcDbMText
 10
59.6562391597714
 20
2.655695770804911
 30
0.0
 40
3.0
 41
0.0
 46
0.0
 71
     5
 72
     1
  1
100
 73
     1
 44
1.0
  0
POINT
  5
1F6
330
1EE
100
AcDbEntity
  8
Defpoints
 62
     0
100
AcDbPoint
 10
109.6562391597714
 20
24.85937861763227
 30
0.0
  0
POINT
  5
1F7
330
1EE
100
AcDbEntity
  8
Defpoints
 62
     0
100
AcDbPoint
 10
9.656239159771403
 20
24.85937861763233
 30
0.0
  0
POINT
  5
1F8
330
1EE
100
AcDbEntity
  8
Defpoints
 62
     0
100
AcDbPoint
 10
9.656239159771403
 20
0.5
 30
0.0
  0
ENDBLK
  5
1F9
330
1EE
100
AcDbEntity
  8
0
100
AcDbBlockEnd
  0
BLOCK
  5
200
330
1FF
100
AcDbEntity
  8
0
100
AcDbBlockBegin
  2
*D11
 70
     1
 10
0.0
 20
0.0
 30
0.0
  3
*D11
  1
*D12
  0
LINE
  5
201
330
1FF
100
AcDbEntity
  8
文字・寸法線
 62
     0
370
    -2
100
AcDbLine
 10
79.65623915977143
 20
98.23437861763227
 30
0.0
 11
79.65623915977143
 21
113.4081028340554
 31
0.0
  0
LINE
  5
202
330
1FF
100
AcDbEntity
  8
文字・寸法線
 62
     0
370
    -2
100
AcDbLine
 10
89.65623915977143
 20
98.23437861763227
 30
0.0
 11
89.65623915977143
 21
113.4081028340554
 31
0.0
  0
LINE
  5
203
330
1FF
100
AcDbEntity
  8
文字・寸法線
 62
     0
370
    -2
100
AcDbLine
 10
82.15623915977143
 20
112.9081028340554
 30
0.0
 11
87.15623915977143
 21
112.9081028340554
 31
0.0
  0
SOLID
  5
204
330
1FF
100
AcDbEntity
  8
文字・寸法線
 62
     0
100
AcDbTrace
 10
82.15623915977143
 20
113.3247695007221
 30
0.0
 11
82.15623915977143
 21
112.4914361673887
 31
0.0
 12
79.65623915977143
 22
112.9081028340554
 32
0.0
 13
79.65623915977143
 23
112.9081028340554
 33
0.0
  0
SOLID
  5
205
330
1FF
100
AcDbEntity
  8
文字・寸法線
 62
     0
100
AcDbTrace
 10
87.15623915977143
 20
112.4914361673887
 30
0.0
 11
87.15623915977143
 21
113.3247695007221
 31
0.0
 12
89.65623915977143
 22
112.9081028340554
 32
0.0
 13
89.65623915977143
 23
112.9081028340554
 33
0.0
  0
MTEXT
  5
206
330
1FF
100
AcDbEntity
  8
文字・寸法線
 62
     0
100
AcDbMText
 10
84.65623915977143
 20
115.0637986048603
 30
0.0
 40
3.0
 41
0.0
 46
0.0
 71
     5
 72
     1
  1
M10
 73
     1
 44
1.0
  0
POINT
  5
207
330
1FF
100
AcDbEntity
  8
Defpoints
 62
     0
100
AcDbPoint
 10
79.65623915977143
 20
96.23437861763227
 30
0.0
  0
POINT
  5
208
330
1FF
100
AcDbEntity
  8
Defpoints
 62
     0
100
AcDbPoint
 10
89.65623915977143
 20
96.23437861763227
 30
0.0
  0
POINT
  5
209
330
1FF
100
AcDbEntity
  8
Defpoints
 62
     0
100
AcDbPoint
 10
89.65623915977143
 20
112.9081028340554
 30
0.0
  0
ENDBLK
  5
20A
330
1FF
100
AcDbEntity
  8
0
100
AcDbBlockEnd
  0
BLOCK
  5
20E
330
20D
100
AcDbEntity
  8
0
100
AcDbBlockBegin
  2
*D12
 70
     1
 10
0.0
 20
0.0
 30
0.0
  3
*D12
  1
*D13
  0
LINE
  5
20F
330
20D
100
AcDbEntity
  8
文字・寸法線
 62
     0
370
    -2
100
AcDbLine
 10
279.7465670040226
 20
53.26915245415819
 30
0.0
 11
279.7465670040226
 21
22.51816396620552
 31
0.0
  0
LINE
  5
210
330
20D
100
AcDbEntity
  8
文字・寸法線
 62
     0
370
    -2
100
AcDbLine
 10
296.7206649181976
 20
53.26915245415819
 30
0.0
 11
296.7206649181976
 21
22.51816396620552
 31
0.0
  0
LINE
  5
211
330
20D
100
AcDbEntity
  8
文字・寸法線
 62
     0
370
    -2
100
AcDbLine
 10
282.2465670040226
 20
23.01816396620552
 30
0.0
 11
294.2206649181976
 21
23.01816396620552
 31
0.0
  0
SOLID
  5
212
330
20D
100
AcDbEntity
  8
文字・寸法線
 62
     0
100
AcDbTrace
 10
282.2465670040226
 20
23.43483063287219
 30
0.0
 11
282.2465670040226
 21
22.60149729953885
 31
0.0
 12
279.7465670040226
 22
23.01816396620552
 32
0.0
 13
279.7465670040226
 23
23.01816396620552
 33
0.0
  0
SOLID
  5
213
330
20D
100
AcDbEntity
  8
文字・寸法線
 62
     0
100
AcDbTrace
 10
294.2206649181976
 20
22.60149729953885
 30
0.0
 11
294.2206649181976
 21
23.43483063287219
 31
0.0
 12
296.7206649181976
 22
23.01816396620552
 32
0.0
 13
296.7206649181976
 23
23.01816396620552
 33
0.0
  0
MTEXT
  5
214
330
20D
100
AcDbEntity
  8
文字・寸法線
 62
     0
100
AcDbMText
 10
288.3047342167689
 20
25.1493031203665
 30
0.0
 40
3.0
 41
0.0
 46
0.0
 71
     5
 72
     1
  1
17
 73
     1
 44
1.0
  0
POINT
  5
215
330
20D
100
AcDbEntity
  8
Defpoints
 62
     0
100
AcDbPoint
 10
279.7465670040226
 20
55.26915245415819
 30
0.0
  0
POINT
  5
216
330
20D
100
AcDbEntity
  8
Defpoints
 62
     0
100
AcDbPoint
 10
296.7206649181976
 20
55.26915245415819
 30
0.0
  0
POINT
  5
217
330
20D
100
AcDbEntity
  8
Defpoints
 62
     0
100
AcDbPoint
 10
296.7206649181976
 20
23.01816396620552
 30
0.0
  0
ENDBLK
  5
218
330
20D
100
AcDbEntity
  8
0
100
AcDbBlockEnd
  0
BLOCK
  5
282
330
281
100
AcDbEntity
  8
0
100
AcDbBlockBegin
  2
*D13
 70
     1
 10
0.0
 20
0.0
 30
0.0
  3
*D13
  1
*D14
  0
LINE
  5
284
330
281
100
AcDbEntity
  8
文字・寸法線
 62
     0
370
    -2
100
AcDbLine
 10
261.8977747057428
 20
127.9704506113805
 30
0.0
 11
304.6000705113507
 21
127.9704506113805
 31
0.0
  0
LINE
  5
285
330
281
100
AcDbEntity
  8
文字・寸法線
 62
     0
370
    -2
100
AcDbLine
 10
261.8977747057428
 20
77.9704506113805
 30
0.0
 11
304.6000705113507
 21
77.9704506113805
 31
0.0
  0
LINE
  5
286
330
281
100
AcDbEntity
  8
文字・寸法線
 62
     0
370
    -2
100
AcDbLine
 10
304.1000705113507
 20
125.4704506113805
 30
0.0
 11
304.1000705113507
 21
80.4704506113805
 31
0.0
  0
SOLID
  5
287
330
281
100
AcDbEntity
  8
文字・寸法線
 62
     0
100
AcDbTrace
 10
304.5167371780174
 20
125.4704506113805
 30
0.0
 11
303.683403844684
 21
125.4704506113805
 31
0.0
 12
304.1000705113507
 22
127.9704506113805
 32
0.0
 13
304.1000705113507
 23
127.9704506113805
 33
0.0
  0
SOLID
  5
288
330
281
100
AcDbEntity
  8
文字・寸法線
 62
     0
100
AcDbTrace
 10
303.683403844684
 20
80.4704506113805
 30
0.0
 11
304.5167371780174
 21
80.4704506113805
 31
0.0
 12
304.1000705113507
 22
77.9704506113805
 32
0.0
 13
304.1000705113507
 23
77.9704506113805
 33
0.0
  0
MTEXT
  5
289
330
281
100
AcDbEntity
  8
文字・寸法線
 62
     0
100
AcDbMText
 10
301.9443747405458
 20
102.9704506113805
 30
0.0
 40
3.0
 41
0.0
 46
0.0
 71
     5
 72
     1
  1
50
 11
0.0
 21
1.0
 31
0.0
 73
     1
 44
1.0
  0
POINT
  5
28A
330
281
100
AcDbEntity
  8
Defpoints
 62
     0
100
AcDbPoint
 10
259.8977747057428
 20
127.9704506113805
 30
0.0
  0
POINT
  5
28B
330
281
100
AcDbEntity
  8
Defpoints
 62
     0
100
AcDbPoint
 10
259.8977747057428
 20
77.9704506113805
 30
0.0
  0
POINT
  5
28C
330
281
100
AcDbEntity
  8
Defpoints
 62
     0
100
AcDbPoint
 10
304.1000705113507
 20
77.9704506113805
 30
0.0
  0
ENDBLK
  5
283
330
281
100
AcDbEntity
  8
0
100
AcDbBlockEnd
  0
BLOCK
  5
28E
330
28D
100
AcDbEntity
  8
0
100
AcDbBlockBegin
  2
*D14
 70
     1
 10
0.0
 20
0.0
 30
0.0
  3
*D14
  1
*D15
  0
LINE
  5
290
330
28D
100
AcDbEntity
  8
文字・寸法線
 62
     0
370
    -2
100
AcDbLine
 10
199.8977747057428
 20
148.6561945397866
 30
0.0
 11
199.8977747057428
 21
147.1561945397866
 31
0.0
  0
LINE
  5
291
330
28D
100
AcDbEntity
  8
文字・寸法線
 62
     0
370
    -2
100
AcDbLine
 10
184.8977747057427
 20
104.9704506113806
 30
0.0
 11
184.8977747057427
 21
147.1561945397866
 31
0.0
  0
LINE
  5
292
330
28D
100
AcDbEntity
  8
文字・寸法線
 62
     0
370
    -2
100
AcDbLine
 10
197.3977747057428
 20
146.6561945397866
 30
0.0
 11
187.3977747057427
 21
146.6561945397866
 31
0.0
  0
SOLID
  5
293
330
28D
100
AcDbEntity
  8
文字・寸法線
 62
     0
100
AcDbTrace
 10
197.3977747057428
 20
146.23952787312
 30
0.0
 11
197.3977747057428
 21
147.0728612064533
 31
0.0
 12
199.8977747057428
 22
146.6561945397866
 32
0.0
 13
199.8977747057428
 23
146.6561945397866
 33
0.0
  0
SOLID
  5
294
330
28D
100
AcDbEntity
  8
文字・寸法線
 62
     0
100
AcDbTrace
 10
187.3977747057427
 20
147.0728612064533
 30
0.0
 11
187.3977747057427
 21
146.23952787312
 31
0.0
 12
184.8977747057427
 22
146.6561945397866
 32
0.0
 13
184.8977747057427
 23
146.6561945397866
 33
0.0
  0
MTEXT
  5
295
330
28D
100
AcDbEntity
  8
文字・寸法線
 62
     0
100
AcDbMText
 10
192.3977747057427
 20
148.8118903105915
 30
0.0
 40
3.0
 41
0.0
 46
0.0
 71
     5
 72
     1
  1
15
 73
     1
 44
1.0
  0
POINT
  5
296
330
28D
100
AcDbEntity
  8
Defpoints
 62
     0
100
AcDbPoint
 10
199.8977747057428
 20
146.6561945397866
 30
0.0
  0
POINT
  5
297
330
28D
100
AcDbEntity
  8
Defpoints
 62
     0
100
AcDbPoint
 10
184.8977747057427
 20
102.9704506113806
 30
0.0
  0
POINT
  5
298
330
28D
100
AcDbEntity
  8
Defpoints
 62
     0
100
AcDbPoint
 10
184.8977747057427
 20
146.6561945397866
 30
0.0
  0
ENDBLK
  5
28F
330
28D
100
AcDbEntity
  8
0
100
AcDbBlockEnd
  0
BLOCK
  5
29A
330
299
100
AcDbEntity
  8
0
100
AcDbBlockBegin
  2
*D15
 70
     1
 10
0.0
 20
0.0
 30
0.0
  3
*D15
  1
*D16
  0
LINE
  5
29C
330
299
100
AcDbEntity
  8
文字・寸法線
 62
     0
370
    -2
100
AcDbLine
 10
259.8977747057428
 20
137.2321327493271
 30
0.0
 11
259.8977747057428
 21
147.1561945397866
 31
0.0
  0
LINE
  5
29D
330
299
100
AcDbEntity
  8
文字・寸法線
 62
     0
370
    -2
100
AcDbLine
 10
199.8977747057428
 20
136.6071327493271
 30
0.0
 11
199.8977747057428
 21
147.1561945397866
 31
0.0
  0
LINE
  5
29E
330
299
100
AcDbEntity
  8
文字・寸法線
 62
     0
370
    -2
100
AcDbLine
 10
257.3977747057428
 20
146.6561945397866
 30
0.0
 11
202.3977747057428
 21
146.6561945397866
 31
0.0
  0
SOLID
  5
29F
330
299
100
AcDbEntity
  8
文字・寸法線
 62
     0
100
AcDbTrace
 10
257.3977747057428
 20
146.23952787312
 30
0.0
 11
257.3977747057428
 21
147.0728612064533
 31
0.0
 12
259.8977747057428
 22
146.6561945397866
 32
0.0
 13
259.8977747057428
 23
146.6561945397866
 33
0.0
  0
SOLID
  5
2A0
330
299
100
AcDbEntity
  8
文字・寸法線
 62
     0
100
AcDbTrace
 10
202.3977747057428
 20
147.0728612064533
 30
0.0
 11
202.3977747057428
 21
146.23952787312
 31
0.0
 12
199.8977747057428
 22
146.6561945397866
 32
0.0
 13
199.8977747057428
 23
146.6561945397866
 33
0.0
  0
MTEXT
  5
2A1
330
299
100
AcDbEntity
  8
文字・寸法線
 62
     0
100
AcDbMText
 10
229.8977747057428
 20
148.8118903105915
 30
0.0
 40
3.0
 41
0.0
 46
0.0
 71
     5
 72
     1
  1
60
 73
     1
 44
1.0
  0
POINT
  5
2A2
330
299
100
AcDbEntity
  8
Defpoints
 62
     0
100
AcDbPoint
 10
259.8977747057428
 20
135.2321327493271
 30
0.0
  0
POINT
  5
2A3
330
299
100
AcDbEntity
  8
Defpoints
 62
     0
100
AcDbPoint
 10
199.8977747057428
 20
134.6071327493271
 30
0.0
  0
POINT
  5
2A4
330
299
100
AcDbEntity
  8
Defpoints
 62
     0
100
AcDbPoint
 10
199.8977747057428
 20
146.6561945397866
 30
0.0
  0
ENDBLK
  5
29B
330
299
100
AcDbEntity
  8
0
100
AcDbBlockEnd
  0
BLOCK
  5
2A6
330
2A5
100
AcDbEntity
  8
0
100
AcDbBlockBegin
  2
*D16
 70
     1
 10
0.0
 20
0.0
 30
0.0
  3
*D16
  1
*D17
  0
LINE
  5
2A8
330
2A5
100
AcDbEntity
  8
文字・寸法線
 62
     0
370
    -2
100
AcDbLine
 10
284.8977747057428
 20
104.9704506113806
 30
0.0
 11
284.8977747057428
 21
147.1561945397866
 31
0.0
  0
LINE
  5
2A9
330
2A5
100
AcDbEntity
  8
文字・寸法線
 62
     0
370
    -2
100
AcDbLine
 10
259.8977747057428
 20
136.6071327493271
 30
0.0
 11
259.8977747057428
 21
147.1561945397866
 31
0.0
  0
LINE
  5
2AA
330
2A5
100
AcDbEntity
  8
文字・寸法線
 62
     0
370
    -2
100
AcDbLine
 10
282.3977747057428
 20
146.6561945397866
 30
0.0
 11
262.3977747057428
 21
146.6561945397866
 31
0.0
  0
SOLID
  5
2AB
330
2A5
100
AcDbEntity
  8
文字・寸法線
 62
     0
100
AcDbTrace
 10
282.3977747057428
 20
146.23952787312
 30
0.0
 11
282.3977747057428
 21
147.0728612064533
 31
0.0
 12
284.8977747057428
 22
146.6561945397866
 32
0.0
 13
284.8977747057428
 23
146.6561945397866
 33
0.0
  0
SOLID
  5
2AC
330
2A5
100
AcDbEntity
  8
文字・寸法線
 62
     0
100
AcDbTrace
 10
262.3977747057428
 20
147.0728612064533
 30
0.0
 11
262.3977747057428
 21
146.23952787312
 31
0.0
 12
259.8977747057428
 22
146.6561945397866
 32
0.0
 13
259.8977747057428
 23
146.6561945397866
 33
0.0
  0
MTEXT
  5
2AD
330
2A5
100
AcDbEntity
  8
文字・寸法線
 62
     0
100
AcDbMText
 10
272.3977747057428
 20
148.8118903105915
 30
0.0
 40
3.0
 41
0.0
 46
0.0
 71
     5
 72
     1
  1
25
 73
     1
 44
1.0
  0
POINT
  5
2AE
330
2A5
100
AcDbEntity
  8
Defpoints
 62
     0
100
AcDbPoint
 10
284.8977747057428
 20
102.9704506113806
 30
0.0
  0
POINT
  5
2AF
330
2A5
100
AcDbEntity
  8
Defpoints
 62
     0
100
AcDbPoint
 10
259.8977747057428
 20
134.6071327493271
 30
0.0
  0
POINT
  5
2B0
330
2A5
100
AcDbEntity
  8
Defpoints
 62
     0
100
AcDbPoint
 10
259.8977747057428
 20
146.6561945397866
 30
0.0
  0
ENDBLK
  5
2A7
330
2A5
100
AcDbEntity
  8
0
100
AcDbBlockEnd
  0
BLOCK
  5
2B2
330
2B1
100
AcDbEntity
  8
0
100
AcDbBlockBegin
  2
*D17
 70
     1
 10
0.0
 20
0.0
 30
0.0
  3
*D17
  1
*D18
  0
LINE
  5
2B4
330
2B1
100
AcDbEntity
  8
文字・寸法線
 62
     0
370
    -2
100
AcDbLine
 10
261.8977747057428
 20
85.4406887066186
 30
0.0
 11
297.0564810198498
 21
85.4406887066186
 31
0.0
  0
LINE
  5
2B5
330
2B1
100
AcDbEntity
  8
文字・寸法線
 62
     0
370
    -2
100
AcDbLine
 10
261.8977747057426
 20
120.5002125161425
 30
0.0
 11
297.0564810198498
 21
120.5002125161425
 31
0.0
  0
LINE
  5
2B6
330
2B1
100
AcDbEntity
  8
文字・寸法線
 62
     0
370
    -2
100
AcDbLine
 10
296.5564810198498
 20
87.9406887066186
 30
0.0
 11
296.5564810198498
 21
118.0002125161425
 31
0.0
  0
SOLID
  5
2B7
330
2B1
100
AcDbEntity
  8
文字・寸法線
 62
     0
100
AcDbTrace
 10
296.1398143531831
 20
87.9406887066186
 30
0.0
 11
296.9731476865165
 21
87.9406887066186
 31
0.0
 12
296.5564810198498
 22
85.4406887066186
 32
0.0
 13
296.5564810198498
 23
85.4406887066186
 33
0.0
  0
SOLID
  5
2B8
330
2B1
100
AcDbEntity
  8
文字・寸法線
 62
     0
100
AcDbTrace
 10
296.9731476865165
 20
118.0002125161425
 30
0.0
 11
296.1398143531831
 21
118.0002125161425
 31
0.0
 12
296.5564810198498
 22
120.5002125161425
 32
0.0
 13
296.5564810198498
 23
120.5002125161425
 33
0.0
  0
MTEXT
  5
2B9
330
2B1
100
AcDbEntity
  8
文字・寸法線
 62
     0
100
AcDbMText
 10
294.4007852490449
 20
102.9704506113806
 30
0.0
 40
3.0
 41
0.0
 46
0.0
 71
     5
 72
     1
  1
35
 11
0.0
 21
1.0
 31
0.0
 73
     1
 44
1.0
  0
POINT
  5
2BA
330
2B1
100
AcDbEntity
  8
Defpoints
 62
     0
100
AcDbPoint
 10
259.8977747057428
 20
85.4406887066186
 30
0.0
  0
POINT
  5
2BB
330
2B1
100
AcDbEntity
  8
Defpoints
 62
     0
100
AcDbPoint
 10
259.8977747057426
 20
120.5002125161425
 30
0.0
  0
POINT
  5
2BC
330
2B1
100
AcDbEntity
  8
Defpoints
 62
     0
100
AcDbPoint
 10
296.5564810198498
 20
120.5002125161425
 30
0.0
  0
ENDBLK
  5
2B3
330
2B1
100
AcDbEntity
  8
0
100
AcDbBlockEnd
  0
BLOCK
  5
2BE
330
2BD
100
AcDbEntity
  8
0
100
AcDbBlockBegin
  2
*D18
 70
     1
 10
0.0
 20
0.0
 30
0.0
  3
*D18
  1
*D19
  0
LINE
  5
2C0
330
2BD
100
AcDbEntity
  8
文字・寸法線
 62
     0
370
    -2
100
AcDbLine
 10
149.2287296568923
 20
91.03567677485464
 30
0.0
 11
150.7287296568923
 21
91.03567677485464
 31
0.0
  0
LINE
  5
2C1
330
2BD
100
AcDbEntity
  8
文字・寸法線
 62
     0
370
    -2
100
AcDbLine
 10
117.8203979044041
 20
141.0356767748546
 30
0.0
 11
151.7287296568923
 21
141.0356767748546
 31
0.0
  0
LINE
  5
2C2
330
2BD
100
AcDbEntity
  8
文字・寸法線
 62
     0
370
    -2
100
AcDbLine
 10
151.2287296568923
 20
93.53567677485464
 30
0.0
 11
151.2287296568923
 21
138.5356767748546
 31
0.0
  0
SOLID
  5
2C3
330
2BD
100
AcDbEntity
  8
文字・寸法線
 62
     0
100
AcDbTrace
 10
150.8120629902256
 20
93.53567677485464
 30
0.0
 11
151.6453963235589
 21
93.53567677485464
 31
0.0
 12
151.2287296568923
 22
91.03567677485464
 32
0.0
 13
151.2287296568923
 23
91.03567677485464
 33
0.0
  0
SOLID
  5
2C4
330
2BD
100
AcDbEntity
  8
文字・寸法線
 62
     0
100
AcDbTrace
 10
151.6453963235589
 20
138.5356767748546
 30
0.0
 11
150.8120629902256
 21
138.5356767748546
 31
0.0
 12
151.2287296568923
 22
141.0356767748546
 32
0.0
 13
151.2287296568923
 23
141.0356767748546
 33
0.0
  0
MTEXT
  5
2C5
330
2BD
100
AcDbEntity
  8
文字・寸法線
 62
     0
100
AcDbMText
 10
149.0730338860873
 20
116.0356767748546
 30
0.0
 40
3.0
 41
0.0
 46
0.0
 71
     5
 72
     1
  1
50
 11
0.0
 21
1.0
 31
0.0
 73
     1
 44
1.0
  0
POINT
  5
2C6
330
2BD
100
AcDbEntity
  8
Defpoints
 62
     0
100
AcDbPoint
 10
151.2287296568923
 20
91.03567677485464
 30
0.0
  0
POINT
  5
2C7
330
2BD
100
AcDbEntity
  8
Defpoints
 62
     0
100
AcDbPoint
 10
115.8203979044041
 20
141.0356767748546
 30
0.0
  0
POINT
  5
2C8
330
2BD
100
AcDbEntity
  8
Defpoints
 62
     0
100
AcDbPoint
 10
151.2287296568923
 20
141.0356767748546
 30
0.0
  0
ENDBLK
  5
2BF
330
2BD
100
AcDbEntity
  8
0
100
AcDbBlockEnd
  0
BLOCK
  5
2CA
330
2C9
100
AcDbEntity
  8
0
100
AcDbBlockBegin
  2
*D19
 70
     1
 10
0.0
 20
0.0
 30
0.0
  3
*D19
  1
*D20
  0
LINE
  5
2CC
330
2C9
100
AcDbEntity
  8
文字・寸法線
 62
     0
370
    -2
100
AcDbLine
 10
122.0976897939525
 20
84.03567677485464
 30
0.0
 11
151.7287296568923
 21
84.03567677485464
 31
0.0
  0
LINE
  5
2CD
330
2C9
100
AcDbEntity
  8
文字・寸法線
 62
     0
370
    -2
100
AcDbLine
 10
124.6203979044041
 20
92.03567677485464
 30
0.0
 11
151.7287296568923
 21
92.03567677485464
 31
0.0
  0
LINE
  5
2CE
330
2C9
100
AcDbEntity
  8
文字・寸法線
 62
     0
370
    -2
100
AcDbLine
 10
151.2287296568923
 20
86.53567677485464
 30
0.0
 11
151.2287296568923
 21
89.53567677485464
 31
0.0
  0
SOLID
  5
2CF
330
2C9
100
AcDbEntity
  8
文字・寸法線
 62
     0
100
AcDbTrace
 10
150.8120629902257
 20
86.53567677485464
 30
0.0
 11
151.645396323559
 21
86.53567677485464
 31
0.0
 12
151.2287296568923
 22
84.03567677485464
 32
0.0
 13
151.2287296568923
 23
84.03567677485464
 33
0.0
  0
SOLID
  5
2D0
330
2C9
100
AcDbEntity
  8
文字・寸法線
 62
     0
100
AcDbTrace
 10
151.645396323559
 20
89.53567677485464
 30
0.0
 11
150.8120629902257
 21
89.53567677485464
 31
0.0
 12
151.2287296568923
 22
92.03567677485464
 32
0.0
 13
151.2287296568923
 23
92.03567677485464
 33
0.0
  0
MTEXT
  5
2D1
330
2C9
100
AcDbEntity
  8
文字・寸法線
 62
     0
100
AcDbMText
 10
149.0730338860874
 20
88.03567677485464
 30
0.0
 40
3.0
 41
0.0
 46
0.0
 71
     5
 72
     1
  1
8
 11
0.0
 21
1.0
 31
0.0
 73
     1
 44
1.0
  0
POINT
  5
2D2
330
2C9
100
AcDbEntity
  8
Defpoints
 62
     0
100
AcDbPoint
 10
120.0976897939525
 20
84.03567677485464
 30
0.0
  0
POINT
  5
2D3
330
2C9
100
AcDbEntity
  8
Defpoints
 62
     0
100
AcDbPoint
 10
122.6203979044041
 20
92.03567677485464
 30
0.0
  0
POINT
  5
2D4
330
2C9
100
AcDbEntity
  8
Defpoints
 62
     0
100
AcDbPoint
 10
151.2287296568923
 20
92.03567677485464
 30
0.0
  0
ENDBLK
  5
2CB
330
2C9
100
AcDbEntity
  8
0
100
AcDbBlockEnd
  0
BLOCK
  5
2D6
330
2D5
100
AcDbEntity
  8
0
100
AcDbBlockBegin
  2
*D20
 70
     1
 10
0.0
 20
0.0
 30
0.0
  3
*D20
  1
*D21
  0
LINE
  5
2D8
330
2D5
100
AcDbEntity
  8
文字・寸法線
 62
     0
370
    -2
100
AcDbLine
 10
139.8203979044041
 20
67.66067677485464
 30
0.0
 11
151.7287296568923
 21
67.66067677485464
 31
0.0
  0
LINE
  5
2D9
330
2D5
100
AcDbEntity
  8
文字・寸法線
 62
     0
370
    -2
100
AcDbLine
 10
122.1332062505495
 20
84.03567677485464
 30
0.0
 11
151.7287296568923
 21
84.03567677485464
 31
0.0
  0
LINE
  5
2DA
330
2D5
100
AcDbEntity
  8
文字・寸法線
 62
     0
370
    -2
100
AcDbLine
 10
151.2287296568923
 20
70.16067677485464
 30
0.0
 11
151.2287296568923
 21
81.53567677485464
 31
0.0
  0
SOLID
  5
2DB
330
2D5
100
AcDbEntity
  8
文字・寸法線
 62
     0
100
AcDbTrace
 10
150.8120629902256
 20
70.16067677485464
 30
0.0
 11
151.6453963235589
 21
70.16067677485464
 31
0.0
 12
151.2287296568923
 22
67.66067677485464
 32
0.0
 13
151.2287296568923
 23
67.66067677485464
 33
0.0
  0
SOLID
  5
2DC
330
2D5
100
AcDbEntity
  8
文字・寸法線
 62
     0
100
AcDbTrace
 10
151.6453963235589
 20
81.53567677485464
 30
0.0
 11
150.8120629902256
 21
81.53567677485464
 31
0.0
 12
151.2287296568923
 22
84.03567677485464
 32
0.0
 13
151.2287296568923
 23
84.03567677485464
 33
0.0
  0
MTEXT
  5
2DD
330
2D5
100
AcDbEntity
  8
文字・寸法線
 62
     0
100
AcDbMText
 10
149.0975905027313
 20
75.84817677485464
 30
0.0
 40
3.0
 41
0.0
 46
0.0
 71
     5
 72
     1
  1
17
 11
0.0
 21
1.0
 31
0.0
 73
     1
 44
1.0
  0
POINT
  5
2DE
330
2D5
100
AcDbEntity
  8
Defpoints
 62
     0
100
AcDbPoint
 10
137.8203979044041
 20
67.66067677485464
 30
0.0
  0
POINT
  5
2DF
330
2D5
100
AcDbEntity
  8
Defpoints
 62
     0
100
AcDbPoint
 10
120.1332062505495
 20
84.03567677485464
 30
0.0
  0
POINT
  5
2E0
330
2D5
100
AcDbEntity
  8
Defpoints
 62
     0
100
AcDbPoint
 10
151.2287296568923
 20
84.03567677485464
 30
0.0
  0
ENDBLK
  5
2D7
330
2D5
100
AcDbEntity
  8
0
100
AcDbBlockEnd
  0
BLOCK
  5
2E2
330
2E1
100
AcDbEntity
  8
0
100
AcDbBlockBegin
  2
*D21
 70
     1
 10
0.0
 20
0.0
 30
0.0
  3
*D21
  1
*D22
  0
LINE
  5
2E4
330
2E1
100
AcDbEntity
  8
文字・寸法線
 62
     0
370
    -2
100
AcDbLine
 10
35.82039790440409
 20
67.66067677485469
 30
0.0
 11
31.2891587446327
 21
67.66067677485469
 31
0.0
  0
LINE
  5
2E5
330
2E1
100
AcDbEntity
  8
文字・寸法線
 62
     0
370
    -2
100
AcDbLine
 10
35.82039790440409
 20
69.66067677485469
 30
0.0
 11
31.2891587446327
 21
69.66067677485469
 31
0.0
  0
LINE
  5
2E6
330
2E1
100
AcDbEntity
  8
文字・寸法線
 62
     0
370
    -2
100
AcDbLine
 10
31.7891587446327
 20
72.16067677485469
 30
0.0
 11
31.7891587446327
 21
77.9038554924536
 31
0.0
  0
LINE
  5
2E7
330
2E1
100
AcDbEntity
  8
文字・寸法線
 62
     0
370
    -2
100
AcDbLine
 10
31.7891587446327
 20
67.66067677485469
 30
0.0
 11
31.7891587446327
 21
69.66067677485469
 31
0.0
  0
LINE
  5
2E8
330
2E1
100
AcDbEntity
  8
文字・寸法線
 62
     0
370
    -2
100
AcDbLine
 10
31.7891587446327
 20
65.16067677485469
 30
0.0
 11
31.7891587446327
 21
62.66067677485469
 31
0.0
  0
SOLID
  5
2E9
330
2E1
100
AcDbEntity
  8
文字・寸法線
 62
     0
100
AcDbTrace
 10
32.20582541129937
 20
65.16067677485469
 30
0.0
 11
31.37249207796603
 21
65.16067677485469
 31
0.0
 12
31.7891587446327
 22
67.66067677485469
 32
0.0
 13
31.7891587446327
 23
67.66067677485469
 33
0.0
  0
SOLID
  5
2EA
330
2E1
100
AcDbEntity
  8
文字・寸法線
 62
     0
100
AcDbTrace
 10
31.37249207796603
 20
72.16067677485469
 30
0.0
 11
32.20582541129937
 21
72.16067677485469
 31
0.0
 12
31.7891587446327
 22
69.66067677485469
 32
0.0
 13
31.7891587446327
 23
69.66067677485469
 33
0.0
  0
MTEXT
  5
2EB
330
2E1
100
AcDbEntity
  8
文字・寸法線
 62
     0
100
AcDbMText
 10
29.65801959047172
 20
76.28226613365415
 30
0.0
 40
3.0
 41
0.0
 46
0.0
 71
     5
 72
     1
  1
2
 11
0.0
 21
1.0
 31
0.0
 73
     1
 44
1.0
  0
POINT
  5
2EC
330
2E1
100
AcDbEntity
  8
Defpoints
 62
     0
100
AcDbPoint
 10
37.82039790440409
 20
67.66067677485469
 30
0.0
  0
POINT
  5
2ED
330
2E1
100
AcDbEntity
  8
Defpoints
 62
     0
100
AcDbPoint
 10
37.82039790440409
 20
69.66067677485469
 30
0.0
  0
POINT
  5
2EE
330
2E1
100
AcDbEntity
  8
Defpoints
 62
     0
100
AcDbPoint
 10
31.7891587446327
 20
69.66067677485469
 30
0.0
  0
ENDBLK
  5
2E3
330
2E1
100
AcDbEntity
  8
0
100
AcDbBlockEnd
  0
BLOCK
  5
2F0
330
2EF
100
AcDbEntity
  8
0
100
AcDbBlockBegin
  2
*D22
 70
     1
 10
0.0
 20
0.0
 30
0.0
  3
*D22
  1
*D23
  0
LINE
  5
2F2
330
2EF
100
AcDbEntity
  8
文字・寸法線
 62
     0
370
    -2
100
AcDbLine
 10
137.8203979044041
 20
65.66067677485464
 30
0.0
 11
137.8203979044041
 21
42.80129815722236
 31
0.0
  0
LINE
  5
2F3
330
2EF
100
AcDbEntity
  8
文字・寸法線
 62
     0
370
    -2
100
AcDbLine
 10
37.82039790440409
 20
65.66067677485469
 30
0.0
 11
37.82039790440409
 21
42.80129815722236
 31
0.0
  0
LINE
  5
2F4
330
2EF
100
AcDbEntity
  8
文字・寸法線
 62
     0
370
    -2
100
AcDbLine
 10
135.3203979044041
 20
43.30129815722236
 30
0.0
 11
40.32039790440409
 21
43.30129815722236
 31
0.0
  0
SOLID
  5
2F5
330
2EF
100
AcDbEntity
  8
文字・寸法線
 62
     0
100
AcDbTrace
 10
135.3203979044041
 20
42.88463149055569
 30
0.0
 11
135.3203979044041
 21
43.71796482388902
 31
0.0
 12
137.8203979044041
 22
43.30129815722236
 32
0.0
 13
137.8203979044041
 23
43.30129815722236
 33
0.0
  0
SOLID
  5
2F6
330
2EF
100
AcDbEntity
  8
文字・寸法線
 62
     0
100
AcDbTrace
 10
40.32039790440409
 20
43.71796482388902
 30
0.0
 11
40.32039790440409
 21
42.88463149055569
 31
0.0
 12
37.82039790440409
 22
43.30129815722236
 32
0.0
 13
37.82039790440409
 23
43.30129815722236
 33
0.0
  0
MTEXT
  5
2F7
330
2EF
100
AcDbEntity
  8
文字・寸法線
 62
     0
100
AcDbMText
 10
87.8203979044041
 20
45.45699392802727
 30
0.0
 40
3.0
 41
0.0
 46
0.0
 71
     5
 72
     1
  1
100
 73
     1
 44
1.0
  0
POINT
  5
2F8
330
2EF
100
AcDbEntity
  8
Defpoints
 62
     0
100
AcDbPoint
 10
137.8203979044041
 20
67.66067677485464
 30
0.0
  0
POINT
  5
2F9
330
2EF
100
AcDbEntity
  8
Defpoints
 62
     0
100
AcDbPoint
 10
37.82039790440409
 20
67.66067677485469
 30
0.0
  0
POINT
  5
2FA
330
2EF
100
AcDbEntity
  8
Defpoints
 62
     0
100
AcDbPoint
 10
37.82039790440409
 20
43.30129815722236
 30
0.0
  0
ENDBLK
  5
2F1
330
2EF
100
AcDbEntity
  8
0
100
AcDbBlockEnd
  0
BLOCK
  5
2FC
330
2FB
100
AcDbEntity
  8
0
100
AcDbBlockBegin
  2
*D23
 70
     1
 10
0.0
 20
0.0
 30
0.0
  3
*D23
  1
*D24
  0
LINE
  5
2FE
330
2FB
100
AcDbEntity
  8
文字・寸法線
 62
     0
370
    -2
100
AcDbLine
 10
107.8203979044041
 20
163.8495440592952
 30
0.0
 11
107.8203979044041
 21
179.0232682757184
 31
0.0
  0
LINE
  5
2FF
330
2FB
100
AcDbEntity
  8
文字・寸法線
 62
     0
370
    -2
100
AcDbLine
 10
117.8203979044041
 20
163.8495440592952
 30
0.0
 11
117.8203979044041
 21
179.0232682757184
 31
0.0
  0
LINE
  5
300
330
2FB
100
AcDbEntity
  8
文字・寸法線
 62
     0
370
    -2
100
AcDbLine
 10
110.3203979044041
 20
178.5232682757184
 30
0.0
 11
115.3203979044041
 21
178.5232682757184
 31
0.0
  0
SOLID
  5
301
330
2FB
100
AcDbEntity
  8
文字・寸法線
 62
     0
100
AcDbTrace
 10
110.3203979044041
 20
178.9399349423851
 30
0.0
 11
110.3203979044041
 21
178.1066016090518
 31
0.0
 12
107.8203979044041
 22
178.5232682757184
 32
0.0
 13
107.8203979044041
 23
178.5232682757184
 33
0.0
  0
SOLID
  5
302
330
2FB
100
AcDbEntity
  8
文字・寸法線
 62
     0
100
AcDbTrace
 10
115.3203979044041
 20
178.1066016090518
 30
0.0
 11
115.3203979044041
 21
178.9399349423851
 31
0.0
 12
117.8203979044041
 22
178.5232682757184
 32
0.0
 13
117.8203979044041
 23
178.5232682757184
 33
0.0
  0
MTEXT
  5
303
330
2FB
100
AcDbEntity
  8
文字・寸法線
 62
     0
100
AcDbMText
 10
112.8203979044041
 20
180.6789640465233
 30
0.0
 40
3.0
 41
0.0
 46
0.0
 71
     5
 72
     1
  1
M10
 73
     1
 44
1.0
  0
POINT
  5
304
330
2FB
100
AcDbEntity
  8
Defpoints
 62
     0
100
AcDbPoint
 10
107.8203979044041
 20
161.8495440592952
 30
0.0
  0
POINT
  5
305
330
2FB
100
AcDbEntity
  8
Defpoints
 62
     0
100
AcDbPoint
 10
117.8203979044041
 20
161.8495440592952
 30
0.0
  0
POINT
  5
306
330
2FB
100
AcDbEntity
  8
Defpoints
 62
     0
100
AcDbPoint
 10
117.8203979044041
 20
178.5232682757184
 30
0.0
  0
ENDBLK
  5
2FD
330
2FB
100
AcDbEntity
  8
0
100
AcDbBlockEnd
  0
BLOCK
  5
308
330
307
100
AcDbEntity
  8
0
100
AcDbBlockBegin
  2
*D24
 70
     1
 10
0.0
 20
0.0
 30
0.0
  3
*D24
  1
*D25
  0
LINE
  5
30A
330
307
100
AcDbEntity
  8
文字・寸法線
 62
     0
370
    -2
100
AcDbLine
 10
251.4107257486553
 20
96.07045061138055
 30
0.0
 11
251.4107257486553
 21
65.31946212342788
 31
0.0
  0
LINE
  5
30B
330
307
100
AcDbEntity
  8
文字・寸法線
 62
     0
370
    -2
100
AcDbLine
 10
268.3848236628303
 20
96.07045061138055
 30
0.0
 11
268.3848236628303
 21
65.31946212342788
 31
0.0
  0
LINE
  5
30C
330
307
100
AcDbEntity
  8
文字・寸法線
 62
     0
370
    -2
100
AcDbLine
 10
253.9107257486553
 20
65.81946212342788
 30
0.0
 11
265.8848236628303
 21
65.81946212342788
 31
0.0
  0
SOLID
  5
30D
330
307
100
AcDbEntity
  8
文字・寸法線
 62
     0
100
AcDbTrace
 10
253.9107257486553
 20
66.23612879009455
 30
0.0
 11
253.9107257486553
 21
65.40279545676121
 31
0.0
 12
251.4107257486553
 22
65.81946212342788
 32
0.0
 13
251.4107257486553
 23
65.81946212342788
 33
0.0
  0
SOLID
  5
30E
330
307
100
AcDbEntity
  8
文字・寸法線
 62
     0
100
AcDbTrace
 10
265.8848236628303
 20
65.40279545676121
 30
0.0
 11
265.8848236628303
 21
66.23612879009455
 31
0.0
 12
268.3848236628303
 22
65.81946212342788
 32
0.0
 13
268.3848236628303
 23
65.81946212342788
 33
0.0
  0
MTEXT
  5
30F
330
307
100
AcDbEntity
  8
文字・寸法線
 62
     0
100
AcDbMText
 10
259.9688929614016
 20
67.95060127758886
 30
0.0
 40
3.0
 41
0.0
 46
0.0
 71
     5
 72
     1
  1
17
 73
     1
 44
1.0
  0
POINT
  5
310
330
307
100
AcDbEntity
  8
Defpoints
 62
     0
100
AcDbPoint
 10
251.4107257486553
 20
98.07045061138055
 30
0.0
  0
POINT
  5
311
330
307
100
AcDbEntity
  8
Defpoints
 62
     0
100
AcDbPoint
 10
268.3848236628303
 20
98.07045061138055
 30
0.0
  0
POINT
  5
312
330
307
100
AcDbEntity
  8
Defpoints
 62
     0
100
AcDbPoint
 10
268.3848236628303
 20
65.81946212342788
 30
0.0
  0
ENDBLK
  5
309
330
307
100
AcDbEntity
  8
0
100
AcDbBlockEnd
  0
BLOCK
  5
33F
330
33E
100
AcDbEntity
  8
0
100
AcDbBlockBegin
  2
*D25
 70
     1
 10
0.0
 20
0.0
 30
0.0
  3
*D25
  1
*D25
  0
LINE
  5
340
330
33E
100
AcDbEntity
  8
文字
 62
     0
370
    -2
100
AcDbLine
 10
2.0
 20
74.99999999999994
 30
0.0
 11
38.07965090719659
 21
74.99999999999994
 31
0.0
  0
LINE
  5
341
330
33E
100
AcDbEntity
  8
文字
 62
     0
370
    -2
100
AcDbLine
 10
6.919720588487074
 20
-0.0000000000000001
 30
0.0
 11
38.07965090719659
 21
-0.000000000000002
 31
0.0
  0
LINE
  5
342
330
33E
100
AcDbEntity
  8
文字
 62
     0
370
    -2
100
AcDbLine
 10
37.57965090719659
 20
72.49999999999994
 30
0.0
 11
37.57965090719659
 21
2.499999999999998
 31
0.0
  0
SOLID
  5
343
330
33E
100
AcDbEntity
  8
文字
 62
     0
100
AcDbTrace
 10
37.99631757386326
 20
72.49999999999994
 30
0.0
 11
37.16298424052993
 21
72.49999999999994
 31
0.0
 12
37.57965090719659
 22
74.99999999999994
 32
0.0
 13
37.57965090719659
 23
74.99999999999994
 33
0.0
  0
SOLID
  5
344
330
33E
100
AcDbEntity
  8
文字
 62
     0
100
AcDbTrace
 10
37.16298424052992
 20
2.499999999999998
 30
0.0
 11
37.99631757386325
 21
2.499999999999998
 31
0.0
 12
37.57965090719659
 22
-0.000000000000002
 32
0.0
 13
37.57965090719659
 23
-0.000000000000002
 33
0.0
  0
MTEXT
  5
345
330
33E
100
AcDbEntity
  8
文字
 62
     0
100
AcDbMText
 10
35.43009429055267
 20
37.49999999999997
 30
0.0
 40
3.0
 41
0.0
 46
0.0
 71
     5
 72
     1
  1
75
 11
9.473903143468009E-17
 21
1.0
 31
0.0
 73
     1
 44
1.0
  0
POINT
  5
346
330
33E
100
AcDbEntity
  8
Defpoints
 62
     0
100
AcDbPoint
 10
0.0
 20
74.99999999999994
 30
0.0
  0
POINT
  5
347
330
33E
100
AcDbEntity
  8
Defpoints
 62
     0
100
AcDbPoint
 10
4.919720588487074
 20
0.0
 30
0.0
  0
POINT
  5
348
330
33E
100
AcDbEntity
  8
Defpoints
 62
     0
100
AcDbPoint
 10
37.57965090719659
 20
-0.000000000000002
 30
0.0
  0
ENDBLK
  5
349
330
33E
100
AcDbEntity
  8
0
100
AcDbBlockEnd
  0
BLOCK
  5
351
330
350
100
AcDbEntity
  8
0
100
AcDbBlockBegin
  2
*D26
 70
     1
 10
0.0
 20
0.0
 30
0.0
  3
*D26
  1
*D27
  0
LINE
  5
353
330
350
100
AcDbEntity
  8
文字
 62
     0
370
    -2
100
AcDbLine
 10
126.6203979044041
 20
166.0356767748546
 30
0.0
 11
162.7000488116007
 21
166.0356767748546
 31
0.0
  0
LINE
  5
354
330
350
100
AcDbEntity
  8
文字
 62
     0
370
    -2
100
AcDbLine
 10
131.5401184928912
 20
91.03567677485464
 30
0.0
 11
162.7000488116007
 21
91.03567677485464
 31
0.0
  0
LINE
  5
355
330
350
100
AcDbEntity
  8
文字
 62
     0
370
    -2
100
AcDbLine
 10
162.2000488116007
 20
163.5356767748546
 30
0.0
 11
162.2000488116007
 21
93.53567677485464
 31
0.0
  0
SOLID
  5
356
330
350
100
AcDbEntity
  8
文字
 62
     0
100
AcDbTrace
 10
162.6167154782673
 20
163.5356767748546
 30
0.0
 11
161.783382144934
 21
163.5356767748546
 31
0.0
 12
162.2000488116007
 22
166.0356767748546
 32
0.0
 13
162.2000488116007
 23
166.0356767748546
 33
0.0
  0
SOLID
  5
357
330
350
100
AcDbEntity
  8
文字
 62
     0
100
AcDbTrace
 10
161.783382144934
 20
93.53567677485464
 30
0.0
 11
162.6167154782673
 21
93.53567677485464
 31
0.0
 12
162.2000488116007
 22
91.03567677485464
 32
0.0
 13
162.2000488116007
 23
91.03567677485464
 33
0.0
  0
MTEXT
  5
358
330
350
100
AcDbEntity
  8
文字
 62
     0
100
AcDbMText
 10
160.0504921949567
 20
128.5356767748546
 30
0.0
 40
3.0
 41
0.0
 46
0.0
 71
     5
 72
     1
  1
75
 11
0.0
 21
1.0
 31
0.0
 73
     1
 44
1.0
  0
POINT
  5
359
330
350
100
AcDbEntity
  8
Defpoints
 62
     0
100
AcDbPoint
 10
124.6203979044041
 20
166.0356767748546
 30
0.0
  0
POINT
  5
35A
330
350
100
AcDbEntity
  8
Defpoints
 62
     0
100
AcDbPoint
 10
129.5401184928912
 20
91.03567677485464
 30
0.0
  0
POINT
  5
35B
330
350
100
AcDbEntity
  8
Defpoints
 62
     0
100
AcDbPoint
 10
162.2000488116007
 20
91.03567677485464
 30
0.0
  0
ENDBLK
  5
352
330
350
100
AcDbEntity
  8
0
100
AcDbBlockEnd
  0
BLOCK
  5
385
330
384
100
AcDbEntity
  8
0
100
AcDbBlockBegin
  2
*D27
 70
     1
 10
0.0
 20
0.0
 30
0.0
  3
*D27
  1
*D25
  0
LINE
  5
386
330
384
100
AcDbEntity
  8
文字
 62
     0
370
    -2
100
AcDbLine
 10
2.0
 20
74.99999999999994
 30
0.0
 11
38.07965090719659
 21
74.99999999999994
 31
0.0
  0
LINE
  5
387
330
384
100
AcDbEntity
  8
文字
 62
     0
370
    -2
100
AcDbLine
 10
6.919720588487074
 20
-0.0000000000000001
 30
0.0
 11
38.07965090719659
 21
-0.000000000000002
 31
0.0
  0
LINE
  5
388
330
384
100
AcDbEntity
  8
文字
 62
     0
370
    -2
100
AcDbLine
 10
37.57965090719659
 20
72.49999999999994
 30
0.0
 11
37.57965090719659
 21
2.499999999999998
 31
0.0
  0
SOLID
  5
389
330
384
100
AcDbEntity
  8
文字
 62
     0
100
AcDbTrace
 10
37.99631757386326
 20
72.49999999999994
 30
0.0
 11
37.16298424052993
 21
72.49999999999994
 31
0.0
 12
37.57965090719659
 22
74.99999999999994
 32
0.0
 13
37.57965090719659
 23
74.99999999999994
 33
0.0
  0
SOLID
  5
38A
330
384
100
AcDbEntity
  8
文字
 62
     0
100
AcDbTrace
 10
37.16298424052992
 20
2.499999999999998
 30
0.0
 11
37.99631757386325
 21
2.499999999999998
 31
0.0
 12
37.57965090719659
 22
-0.000000000000002
 32
0.0
 13
37.57965090719659
 23
-0.000000000000002
 33
0.0
  0
MTEXT
  5
38B
330
384
100
AcDbEntity
  8
文字
 62
     0
100
AcDbMText
 10
35.43009429055267
 20
37.49999999999997
 30
0.0
 40
3.0
 41
0.0
 46
0.0
 71
     5
 72
     1
  1
75
 11
9.473903143468009E-17
 21
1.0
 31
0.0
 73
     1
 44
1.0
  0
POINT
  5
38C
330
384
100
AcDbEntity
  8
Defpoints
 62
     0
100
AcDbPoint
 10
0.0
 20
74.99999999999994
 30
0.0
  0
POINT
  5
38D
330
384
100
AcDbEntity
  8
Defpoints
 62
     0
100
AcDbPoint
 10
4.919720588487074
 20
0.0
 30
0.0
  0
POINT
  5
38E
330
384
100
AcDbEntity
  8
Defpoints
 62
     0
100
AcDbPoint
 10
37.57965090719659
 20
-0.000000000000002
 30
0.0
  0
ENDBLK
  5
38F
330
384
100
AcDbEntity
  8
0
100
AcDbBlockEnd
  0
BLOCK
  5
397
330
396
100
AcDbEntity
  8
0
100
AcDbBlockBegin
  2
*D28
 70
     1
 10
0.0
 20
0.0
 30
0.0
  3
*D28
  1
*D30
  0
LINE
  5
399
330
396
100
AcDbEntity
  8
文字
 62
     0
370
    -2
100
AcDbLine
 10
145.2054294558937
 20
167.0181625909424
 30
0.0
 11
151.7287296568923
 21
167.0181625909424
 31
0.0
  0
LINE
  5
39A
330
396
100
AcDbEntity
  8
文字
 62
     0
370
    -2
100
AcDbLine
 10
119.7401184928912
 20
92.03567677485464
 30
0.0
 11
151.7287296568923
 21
92.03567677485464
 31
0.0
  0
LINE
  5
39B
330
396
100
AcDbEntity
  8
文字
 62
     0
370
    -2
100
AcDbLine
 10
151.2287296568923
 20
164.5181625909424
 30
0.0
 11
151.2287296568923
 21
94.53567677485464
 31
0.0
  0
SOLID
  5
39C
330
396
100
AcDbEntity
  8
文字
 62
     0
100
AcDbTrace
 10
151.645396323559
 20
164.5181625909424
 30
0.0
 11
150.8120629902257
 21
164.5181625909424
 31
0.0
 12
151.2287296568923
 22
167.0181625909424
 32
0.0
 13
151.2287296568923
 23
167.0181625909424
 33
0.0
  0
SOLID
  5
39D
330
396
100
AcDbEntity
  8
文字
 62
     0
100
AcDbTrace
 10
150.8120629902257
 20
94.53567677485464
 30
0.0
 11
151.645396323559
 21
94.53567677485464
 31
0.0
 12
151.2287296568923
 22
92.03567677485464
 32
0.0
 13
151.2287296568923
 23
92.03567677485464
 33
0.0
  0
MTEXT
  5
39E
330
396
100
AcDbEntity
  8
文字
 62
     0
100
AcDbMText
 10
149.0730338860874
 20
131.1921009769392
 30
0.0
 40
3.0
 41
0.0
 46
0.0
 71
     5
 72
     1
  1
74.98
 11
0.0
 21
1.0
 31
0.0
 73
     1
 44
1.0
  0
POINT
  5
39F
330
396
100
AcDbEntity
  8
Defpoints
 62
     0
100
AcDbPoint
 10
143.2054294558937
 20
167.0181625909424
 30
0.0
  0
POINT
  5
3A0
330
396
100
AcDbEntity
  8
Defpoints
 62
     0
100
AcDbPoint
 10
117.7401184928912
 20
92.03567677485464
 30
0.0
  0
POINT
  5
3A1
330
396
100
AcDbEntity
  8
Defpoints
 62
     0
100
AcDbPoint
 10
151.2287296568923
 20
92.03567677485464
 30
0.0
  0
ENDBLK
  5
398
330
396
100
AcDbEntity
  8
0
100
AcDbBlockEnd
  0
BLOCK
  5
3CB
330
3CA
100
AcDbEntity
  8
0
100
AcDbBlockBegin
  2
*D29
 70
     1
 10
0.0
 20
0.0
 30
0.0
  3
*D29
  1
*D30
  0
LINE
  5
3CC
330
3CA
100
AcDbEntity
  8
文字
 62
     0
370
    -2
100
AcDbLine
 10
0.0
 20
30.68682176915775
 30
0.0
 11
0.0
 21
42.32301023592643
 31
0.0
  0
LINE
  5
3CD
330
3CA
100
AcDbEntity
  8
文字
 62
     0
370
    -2
100
AcDbLine
 10
12.0
 20
30.68682176915775
 30
0.0
 11
12.0
 21
42.32301023592643
 31
0.0
  0
LINE
  5
3CE
330
3CA
100
AcDbEntity
  8
文字
 62
     0
370
    -2
100
AcDbLine
 10
2.5
 20
41.82301023592643
 30
0.0
 11
9.5
 21
41.82301023592643
 31
0.0
  0
SOLID
  5
3CF
330
3CA
100
AcDbEntity
  8
文字
 62
     0
100
AcDbTrace
 10
2.5
 20
42.2396769025931
 30
0.0
 11
2.5
 21
41.40634356925977
 31
0.0
 12
0.0
 22
41.82301023592643
 32
0.0
 13
0.0
 23
41.82301023592643
 33
0.0
  0
SOLID
  5
3D0
330
3CA
100
AcDbEntity
  8
文字
 62
     0
100
AcDbTrace
 10
9.5
 20
41.40634356925977
 30
0.0
 11
9.5
 21
42.2396769025931
 31
0.0
 12
12.0
 22
41.82301023592643
 32
0.0
 13
12.0
 23
41.82301023592643
 33
0.0
  0
MTEXT
  5
3D1
330
3CA
100
AcDbEntity
  8
文字
 62
     0
100
AcDbMText
 10
6.0
 20
43.95414939008742
 30
0.0
 40
3.0
 41
0.0
 46
0.0
 71
     5
 72
     1
  1
M12
 73
     1
 44
1.0
  0
POINT
  5
3D2
330
3CA
100
AcDbEntity
  8
Defpoints
 62
     0
100
AcDbPoint
 10
0.0
 20
28.68682176915775
 30
0.0
  0
POINT
  5
3D3
330
3CA
100
AcDbEntity
  8
Defpoints
 62
     0
100
AcDbPoint
 10
12.0
 20
28.68682176915775
 30
0.0
  0
POINT
  5
3D4
330
3CA
100
AcDbEntity
  8
Defpoints
 62
     0
100
AcDbPoint
 10
12.0
 20
41.82301023592643
 30
0.0
  0
ENDBLK
  5
3D5
330
3CA
100
AcDbEntity
  8
0
100
AcDbBlockEnd
  0
BLOCK
  5
3E3
330
3E2
100
AcDbEntity
  8
0
100
AcDbBlockBegin
  2
*D30
 70
     1
 10
0.0
 20
0.0
 30
0.0
  3
*D30
  1
*D31
  0
LINE
  5
3E5
330
3E2
100
AcDbEntity
  8
文字
 62
     0
370
    -2
100
AcDbLine
 10
62.22574190032617
 20
212.0200412031658
 30
0.0
 11
62.22574190032617
 21
223.6562296699345
 31
0.0
  0
LINE
  5
3E6
330
3E2
100
AcDbEntity
  8
文字
 62
     0
370
    -2
100
AcDbLine
 10
74.22574190032617
 20
212.0200412031658
 30
0.0
 11
74.22574190032617
 21
223.6562296699345
 31
0.0
  0
LINE
  5
3E7
330
3E2
100
AcDbEntity
  8
文字
 62
     0
370
    -2
100
AcDbLine
 10
64.72574190032617
 20
223.1562296699345
 30
0.0
 11
71.72574190032617
 21
223.1562296699345
 31
0.0
  0
SOLID
  5
3E8
330
3E2
100
AcDbEntity
  8
文字
 62
     0
100
AcDbTrace
 10
64.72574190032617
 20
223.5728963366012
 30
0.0
 11
64.72574190032617
 21
222.7395630032678
 31
0.0
 12
62.22574190032617
 22
223.1562296699345
 32
0.0
 13
62.22574190032617
 23
223.1562296699345
 33
0.0
  0
SOLID
  5
3E9
330
3E2
100
AcDbEntity
  8
文字
 62
     0
100
AcDbTrace
 10
71.72574190032617
 20
222.7395630032678
 30
0.0
 11
71.72574190032617
 21
223.5728963366012
 31
0.0
 12
74.22574190032617
 22
223.1562296699345
 32
0.0
 13
74.22574190032617
 23
223.1562296699345
 33
0.0
  0
MTEXT
  5
3EA
330
3E2
100
AcDbEntity
  8
文字
 62
     0
100
AcDbMText
 10
68.22574190032617
 20
225.2873688240955
 30
0.0
 40
3.0
 41
0.0
 46
0.0
 71
     5
 72
     1
  1
M12
 73
     1
 44
1.0
  0
POINT
  5
3EB
330
3E2
100
AcDbEntity
  8
Defpoints
 62
     0
100
AcDbPoint
 10
62.22574190032617
 20
210.0200412031658
 30
0.0
  0
POINT
  5
3EC
330
3E2
100
AcDbEntity
  8
Defpoints
 62
     0
100
AcDbPoint
 10
74.22574190032617
 20
210.0200412031658
 30
0.0
  0
POINT
  5
3ED
330
3E2
100
AcDbEntity
  8
Defpoints
 62
     0
100
AcDbPoint
 10
74.22574190032617
 20
223.1562296699345
 30
0.0
  0
ENDBLK
  5
3E4
330
3E2
100
AcDbEntity
  8
0
100
AcDbBlockEnd
  0
BLOCK
  5
414
330
413
100
AcDbEntity
  8
0
100
AcDbBlockBegin
  2
*D31
 70
     1
 10
0.0
 20
0.0
 30
0.0
  3
*D31
  1
*D33
  0
LINE
  5
415
330
413
100
AcDbEntity
  8
文字
 62
     0
370
    -2
100
AcDbLine
 10
0.0
 20
30.68682176915775
 30
0.0
 11
0.0
 21
42.32301023592643
 31
0.0
  0
LINE
  5
416
330
413
100
AcDbEntity
  8
文字
 62
     0
370
    -2
100
AcDbLine
 10
12.0
 20
30.68682176915775
 30
0.0
 11
12.0
 21
42.32301023592643
 31
0.0
  0
LINE
  5
417
330
413
100
AcDbEntity
  8
文字
 62
     0
370
    -2
100
AcDbLine
 10
2.5
 20
41.82301023592643
 30
0.0
 11
9.5
 21
41.82301023592643
 31
0.0
  0
SOLID
  5
418
330
413
100
AcDbEntity
  8
文字
 62
     0
100
AcDbTrace
 10
2.5
 20
42.2396769025931
 30
0.0
 11
2.5
 21
41.40634356925977
 31
0.0
 12
0.0
 22
41.82301023592643
 32
0.0
 13
0.0
 23
41.82301023592643
 33
0.0
  0
SOLID
  5
419
330
413
100
AcDbEntity
  8
文字
 62
     0
100
AcDbTrace
 10
9.5
 20
41.40634356925977
 30
0.0
 11
9.5
 21
42.2396769025931
 31
0.0
 12
12.0
 22
41.82301023592643
 32
0.0
 13
12.0
 23
41.82301023592643
 33
0.0
  0
MTEXT
  5
41A
330
413
100
AcDbEntity
  8
文字
 62
     0
100
AcDbMText
 10
6.0
 20
43.95414939008742
 30
0.0
 40
3.0
 41
0.0
 46
0.0
 71
     5
 72
     1
  1
M12
 73
     1
 44
1.0
  0
POINT
  5
41B
330
413
100
AcDbEntity
  8
Defpoints
 62
     0
100
AcDbPoint
 10
0.0
 20
28.68682176915775
 30
0.0
  0
POINT
  5
41C
330
413
100
AcDbEntity
  8
Defpoints
 62
     0
100
AcDbPoint
 10
12.0
 20
28.68682176915775
 30
0.0
  0
POINT
  5
41D
330
413
100
AcDbEntity
  8
Defpoints
 62
     0
100
AcDbPoint
 10
12.0
 20
41.82301023592643
 30
0.0
  0
ENDBLK
  5
41E
330
413
100
AcDbEntity
  8
0
100
AcDbBlockEnd
  0
BLOCK
  5
42C
330
42B
100
AcDbEntity
  8
0
100
AcDbBlockBegin
  2
*D32
 70
     1
 10
0.0
 20
0.0
 30
0.0
  3
*D32
  1
*D34
  0
LINE
  5
42E
330
42B
100
AcDbEntity
  8
文字
 62
     0
370
    -2
100
AcDbLine
 10
106.7790304704319
 20
165.3658175587097
 30
0.0
 11
106.7790304704319
 21
177.0020060254784
 31
0.0
  0
LINE
  5
42F
330
42B
100
AcDbEntity
  8
文字
 62
     0
370
    -2
100
AcDbLine
 10
118.7790304704319
 20
165.3658175587097
 30
0.0
 11
118.7790304704319
 21
177.0020060254784
 31
0.0
  0
LINE
  5
430
330
42B
100
AcDbEntity
  8
文字
 62
     0
370
    -2
100
AcDbLine
 10
109.2790304704319
 20
176.5020060254784
 30
0.0
 11
116.2790304704319
 21
176.5020060254784
 31
0.0
  0
SOLID
  5
431
330
42B
100
AcDbEntity
  8
文字
 62
     0
100
AcDbTrace
 10
109.2790304704319
 20
176.918672692145
 30
0.0
 11
109.2790304704319
 21
176.0853393588117
 31
0.0
 12
106.7790304704319
 22
176.5020060254784
 32
0.0
 13
106.7790304704319
 23
176.5020060254784
 33
0.0
  0
SOLID
  5
432
330
42B
100
AcDbEntity
  8
文字
 62
     0
100
AcDbTrace
 10
116.2790304704319
 20
176.0853393588117
 30
0.0
 11
116.2790304704319
 21
176.918672692145
 31
0.0
 12
118.7790304704319
 22
176.5020060254784
 32
0.0
 13
118.7790304704319
 23
176.5020060254784
 33
0.0
  0
MTEXT
  5
433
330
42B
100
AcDbEntity
  8
文字
 62
     0
100
AcDbMText
 10
112.7790304704319
 20
178.6331451796394
 30
0.0
 40
3.0
 41
0.0
 46
0.0
 71
     5
 72
     1
  1
M12
 73
     1
 44
1.0
  0
POINT
  5
434
330
42B
100
AcDbEntity
  8
Defpoints
 62
     0
100
AcDbPoint
 10
106.7790304704319
 20
163.3658175587097
 30
0.0
  0
POINT
  5
435
330
42B
100
AcDbEntity
  8
Defpoints
 62
     0
100
AcDbPoint
 10
118.7790304704319
 20
163.3658175587097
 30
0.0
  0
POINT
  5
436
330
42B
100
AcDbEntity
  8
Defpoints
 62
     0
100
AcDbPoint
 10
118.7790304704319
 20
176.5020060254784
 30
0.0
  0
ENDBLK
  5
42D
330
42B
100
AcDbEntity
  8
0
100
AcDbBlockEnd
  0
BLOCK
  5
462
330
461
100
AcDbEntity
  8
0
100
AcDbBlockBegin
  2
*D33
 70
     1
 10
0.0
 20
0.0
 30
0.0
  3
*D33
  1
*D23
  0
LINE
  5
463
330
461
100
AcDbEntity
  8
文字
 62
     0
370
    -2
100
AcDbLine
 10
4.980279411512917
 20
57.37505682197462
 30
0.0
 11
4.980279411512917
 21
69.01124528874331
 31
0.0
  0
LINE
  5
464
330
461
100
AcDbEntity
  8
文字
 62
     0
370
    -2
100
AcDbLine
 10
16.98027941151292
 20
57.37505682197462
 30
0.0
 11
16.98027941151292
 21
69.01124528874331
 31
0.0
  0
LINE
  5
465
330
461
100
AcDbEntity
  8
文字
 62
     0
370
    -2
100
AcDbLine
 10
7.480279411512917
 20
68.51124528874331
 30
0.0
 11
14.48027941151292
 21
68.51124528874331
 31
0.0
  0
SOLID
  5
466
330
461
100
AcDbEntity
  8
文字
 62
     0
100
AcDbTrace
 10
7.480279411512917
 20
68.92791195540998
 30
0.0
 11
7.480279411512917
 21
68.09457862207664
 31
0.0
 12
4.980279411512917
 22
68.51124528874331
 32
0.0
 13
4.980279411512917
 23
68.51124528874331
 33
0.0
  0
SOLID
  5
467
330
461
100
AcDbEntity
  8
文字
 62
     0
100
AcDbTrace
 10
14.48027941151292
 20
68.09457862207664
 30
0.0
 11
14.48027941151292
 21
68.92791195540998
 31
0.0
 12
16.98027941151292
 22
68.51124528874331
 32
0.0
 13
16.98027941151292
 23
68.51124528874331
 33
0.0
  0
MTEXT
  5
468
330
461
100
AcDbEntity
  8
文字
 62
     0
100
AcDbMText
 10
10.98027941151292
 20
70.64238444290429
 30
0.0
 40
3.0
 41
0.0
 46
0.0
 71
     5
 72
     1
  1
M12
 73
     1
 44
1.0
  0
POINT
  5
469
330
461
100
AcDbEntity
  8
Defpoints
 62
     0
100
AcDbPoint
 10
4.980279411512917
 20
55.37505682197462
 30
0.0
  0
POINT
  5
46A
330
461
100
AcDbEntity
  8
Defpoints
 62
     0
100
AcDbPoint
 10
16.98027941151292
 20
55.37505682197462
 30
0.0
  0
POINT
  5
46B
330
461
100
AcDbEntity
  8
Defpoints
 62
     0
100
AcDbPoint
 10
16.98027941151292
 20
68.51124528874331
 30
0.0
  0
ENDBLK
  5
46C
330
461
100
AcDbEntity
  8
0
100
AcDbBlockEnd
  0
BLOCK
  5
493
330
492
100
AcDbEntity
  8
0
100
AcDbBlockBegin
  2
*D34
 70
     1
 10
0.0
 20
0.0
 30
0.0
  3
*D34
  1
*D35
  0
LINE
  5
495
330
492
100
AcDbEntity
  8
文字
 62
     0
370
    -2
100
AcDbLine
 10
106.7219592874798
 20
141.4106767748546
 30
0.0
 11
106.7219592874798
 21
208.708689007745
 31
0.0
  0
LINE
  5
496
330
492
100
AcDbEntity
  8
文字
 62
     0
370
    -2
100
AcDbLine
 10
118.7219592874798
 20
141.4106767748546
 30
0.0
 11
118.7219592874798
 21
208.708689007745
 31
0.0
  0
LINE
  5
497
330
492
100
AcDbEntity
  8
文字
 62
     0
370
    -2
100
AcDbLine
 10
109.2219592874798
 20
208.208689007745
 30
0.0
 11
116.2219592874798
 21
208.208689007745
 31
0.0
  0
SOLID
  5
498
330
492
100
AcDbEntity
  8
文字
 62
     0
100
AcDbTrace
 10
109.2219592874798
 20
208.6253556744117
 30
0.0
 11
109.2219592874798
 21
207.7920223410784
 31
0.0
 12
106.7219592874798
 22
208.208689007745
 32
0.0
 13
106.7219592874798
 23
208.208689007745
 33
0.0
  0
SOLID
  5
499
330
492
100
AcDbEntity
  8
文字
 62
     0
100
AcDbTrace
 10
116.2219592874798
 20
207.7920223410784
 30
0.0
 11
116.2219592874798
 21
208.6253556744117
 31
0.0
 12
118.7219592874798
 22
208.208689007745
 32
0.0
 13
118.7219592874798
 23
208.208689007745
 33
0.0
  0
MTEXT
  5
49A
330
492
100
AcDbEntity
  8
文字
 62
     0
100
AcDbMText
 10
112.7843997844618
 20
210.339828161906
 30
0.0
 40
3.0
 41
0.0
 46
0.0
 71
     5
 72
     1
  1
M12
 73
     1
 44
1.0
  0
POINT
  5
49B
330
492
100
AcDbEntity
  8
Defpoints
 62
     0
100
AcDbPoint
 10
106.7219592874798
 20
139.4106767748546
 30
0.0
  0
POINT
  5
49C
330
492
100
AcDbEntity
  8
Defpoints
 62
     0
100
AcDbPoint
 10
118.7219592874798
 20
139.4106767748546
 30
0.0
  0
POINT
  5
49D
330
492
100
AcDbEntity
  8
Defpoints
 62
     0
100
AcDbPoint
 10
118.7219592874798
 20
208.208689007745
 30
0.0
  0
ENDBLK
  5
494
330
492
100
AcDbEntity
  8
0
100
AcDbBlockEnd
  0
BLOCK
  5
506
330
505
100
AcDbEntity
  8
0
100
AcDbBlockBegin
  2
*D35
 70
     1
 10
0.0
 20
0.0
 30
0.0
  3
*D35
  1
*D36
  0
LINE
  5
508
330
505
100
AcDbEntity
  8
0
 62
     0
370
    -2
100
AcDbLine
 10
152.1723959394351
 20
163.2436221500433
 30
0.0
 11
149.0450737782546
 21
163.2436221500433
 31
0.0
  0
LINE
  5
509
330
505
100
AcDbEntity
  8
0
 62
     0
370
    -2
100
AcDbLine
 10
152.1723959394351
 20
118.0962897323361
 30
0.0
 11
149.0450737782546
 21
118.0962897323361
 31
0.0
  0
LINE
  5
50A
330
505
100
AcDbEntity
  8
0
 62
     0
370
    -2
100
AcDbLine
 10
149.2250737782546
 20
163.0636221500433
 30
0.0
 11
149.2250737782546
 21
140.851797687438
 31
0.0
  0
LINE
  5
50B
330
505
100
AcDbEntity
  8
0
 62
     0
370
    -2
100
AcDbLine
 10
149.2250737782546
 20
118.2762897323361
 30
0.0
 11
149.2250737782546
 21
140.4881141949414
 31
0.0
  0
SOLID
  5
50C
330
505
100
AcDbEntity
  8
0
 62
     0
100
AcDbTrace
 10
149.2550737782546
 20
163.0636221500433
 30
0.0
 11
149.1950737782546
 21
163.0636221500433
 31
0.0
 12
149.2250737782546
 22
163.2436221500433
 32
0.0
 13
149.2250737782546
 23
163.2436221500433
 33
0.0
  0
SOLID
  5
50D
330
505
100
AcDbEntity
  8
0
 62
     0
100
AcDbTrace
 10
149.1950737782546
 20
118.2762897323361
 30
0.0
 11
149.2550737782546
 21
118.2762897323361
 31
0.0
 12
149.2250737782546
 22
118.0962897323361
 32
0.0
 13
149.2250737782546
 23
118.0962897323361
 33
0.0
  0
MTEXT
  5
50E
330
505
100
AcDbEntity
  8
0
 62
     0
100
AcDbMText
 10
149.2250737782546
 20
140.6699559411897
 30
0.0
 40
0.18
 41
0.0
 46
0.0
 71
     5
 72
     1
  1
\A1;45.1473
 73
     1
 44
1.0
  0
POINT
  5
50F
330
505
100
AcDbEntity
  8
Defpoints
 62
     0
100
AcDbPoint
 10
152.2348959394351
 20
163.2436221500433
 30
0.0
  0
POINT
  5
510
330
505
100
AcDbEntity
  8
Defpoints
 62
     0
100
AcDbPoint
 10
152.2348959394351
 20
118.0962897323361
 30
0.0
  0
POINT
  5
511
330
505
100
AcDbEntity
  8
Defpoints
 62
     0
100
AcDbPoint
 10
149.2250737782546
 20
118.0962897323361
 30
0.0
  0
ENDBLK
  5
507
330
505
100
AcDbEntity
  8
0
100
AcDbBlockEnd
  0
BLOCK
  5
516
330
515
100
AcDbEntity
  8
0
100
AcDbBlockBegin
  2
*D36
 70
     1
 10
0.0
 20
0.0
 30
0.0
  3
*D36
  1
*D37
  0
LINE
  5
518
330
515
100
AcDbEntity
  8
0
 62
     0
370
    -2
100
AcDbLine
 10
116.7844592874799
 20
166.0356767748546
 30
0.0
 11
151.4087296568923
 21
166.0356767748546
 31
0.0
  0
LINE
  5
519
330
515
100
AcDbEntity
  8
0
 62
     0
370
    -2
100
AcDbLine
 10
151.2912296568923
 20
92.03567677485464
 30
0.0
 11
151.4087296568923
 21
92.03567677485464
 31
0.0
  0
LINE
  5
51A
330
515
100
AcDbEntity
  8
0
 62
     0
370
    -2
100
AcDbLine
 10
151.2287296568923
 20
166.0356767748546
 30
0.0
 11
151.2287296568923
 21
129.2175185211029
 31
0.0
  0
LINE
  5
51B
330
515
100
AcDbEntity
  8
0
 62
     0
370
    -2
100
AcDbLine
 10
151.2287296568923
 20
92.03567677485464
 30
0.0
 11
151.2287296568923
 21
128.8538350286063
 31
0.0
  0
LINE
  5
51C
330
515
100
AcDbEntity
  8
0
 62
     0
370
    -2
100
AcDbLine
 10
151.2287296568923
 20
166.2156767748546
 30
0.0
 11
151.2287296568923
 21
166.3956767748546
 31
0.0
  0
LINE
  5
51D
330
515
100
AcDbEntity
  8
0
 62
     0
370
    -2
100
AcDbLine
 10
151.2287296568923
 20
91.85567677485463
 30
0.0
 11
151.2287296568923
 21
91.67567677485462
 31
0.0
  0
SOLID
  5
51E
330
515
100
AcDbEntity
  8
0
 62
     0
100
AcDbTrace
 10
151.1987296568923
 20
166.2156767748546
 30
0.0
 11
151.2587296568923
 21
166.2156767748546
 31
0.0
 12
151.2287296568923
 22
166.0356767748546
 32
0.0
 13
151.2287296568923
 23
166.0356767748546
 33
0.0
  0
SOLID
  5
51F
330
515
100
AcDbEntity
  8
0
 62
     0
100
AcDbTrace
 10
151.2587296568923
 20
91.85567677485463
 30
0.0
 11
151.1987296568923
 21
91.85567677485463
 31
0.0
 12
151.2287296568923
 22
92.03567677485464
 32
0.0
 13
151.2287296568923
 23
92.03567677485464
 33
0.0
  0
MTEXT
  5
520
330
515
100
AcDbEntity
  8
0
 62
     0
100
AcDbMText
 10
151.2287296568923
 20
129.0356767748546
 30
0.0
 40
0.18
 41
0.0
 46
0.0
 71
     5
 72
     1
  1
\A1;74.0000
 73
     1
 44
1.0
  0
POINT
  5
521
330
515
100
AcDbEntity
  8
Defpoints
 62
     0
100
AcDbPoint
 10
116.7219592874799
 20
166.0356767748546
 30
0.0
  0
POINT
  5
524
330
515
100
AcDbEntity
  8
Defpoints
 62
     0
100
AcDbPoint
 10
151.2287296568923
 20
92.03567677485464
 30
0.0
  0
POINT
  5
525
330
515
100
AcDbEntity
  8
Defpoints
 62
     0
100
AcDbPoint
 10
151.2287296568923
 20
92.03567677485464
 30
0.0
  0
ENDBLK
  5
517
330
515
100
AcDbEntity
  8
0
100
AcDbBlockEnd
  0
BLOCK
  5
54C
330
54B
100
AcDbEntity
  8
0
100
AcDbBlockBegin
  2
*D37
 70
     1
 10
0.0
 20
0.0
 30
0.0
  3
*D37
  1
*D20
  0
LINE
  5
54D
330
54B
100
AcDbEntity
  8
文字・寸法線
 62
     0
370
    -2
100
AcDbLine
 10
2.0
 20
-0.0000000000000001
 30
0.0
 11
31.63103986293982
 21
-0.0000000000000018
 31
0.0
  0
LINE
  5
54E
330
54B
100
AcDbEntity
  8
文字・寸法線
 62
     0
370
    -2
100
AcDbLine
 10
4.522708110451603
 20
8.0
 30
0.0
 11
31.63103986293982
 21
7.999999999999998
 31
0.0
  0
LINE
  5
54F
330
54B
100
AcDbEntity
  8
文字・寸法線
 62
     0
370
    -2
100
AcDbLine
 10
31.13103986293982
 20
2.499999999999998
 30
0.0
 11
31.13103986293982
 21
5.499999999999998
 31
0.0
  0
SOLID
  5
550
330
54B
100
AcDbEntity
  8
文字・寸法線
 62
     0
100
AcDbTrace
 10
30.71437319627315
 20
2.499999999999998
 30
0.0
 11
31.54770652960648
 21
2.499999999999998
 31
0.0
 12
31.13103986293982
 22
-0.0000000000000018
 32
0.0
 13
31.13103986293982
 23
-0.0000000000000018
 33
0.0
  0
SOLID
  5
551
330
54B
100
AcDbEntity
  8
文字・寸法線
 62
     0
100
AcDbTrace
 10
31.54770652960648
 20
5.499999999999998
 30
0.0
 11
30.71437319627315
 21
5.499999999999998
 31
0.0
 12
31.13103986293982
 22
7.999999999999998
 32
0.0
 13
31.13103986293982
 23
7.999999999999998
 33
0.0
  0
MTEXT
  5
552
330
54B
100
AcDbEntity
  8
文字・寸法線
 62
     0
100
AcDbMText
 10
28.9753440921349
 20
3.999999999999998
 30
0.0
 40
3.0
 41
0.0
 46
0.0
 71
     5
 72
     1
  1
8
 11
0.0
 21
1.0
 31
0.0
 73
     1
 44
1.0
  0
POINT
  5
553
330
54B
100
AcDbEntity
  8
Defpoints
 62
     0
100
AcDbPoint
 10
0.0
 20
0.0
 30
0.0
  0
POINT
  5
554
330
54B
100
AcDbEntity
  8
Defpoints
 62
     0
100
AcDbPoint
 10
2.522708110451603
 20
8.0
 30
0.0
  0
POINT
  5
555
330
54B
100
AcDbEntity
  8
Defpoints
 62
     0
100
AcDbPoint
 10
31.13103986293982
 20
7.999999999999998
 30
0.0
  0
ENDBLK
  5
556
330
54B
100
AcDbEntity
  8
0
100
AcDbBlockEnd
  0
BLOCK
  5
55D
330
55C
100
AcDbEntity
  8
0
100
AcDbBlockBegin
  2
*D38
 70
     1
 10
0.0
 20
0.0
 30
0.0
  3
*D38
  1
*D40
  0
LINE
  5
55F
330
55C
100
AcDbEntity
  8
文字・寸法線
 62
     0
370
    -2
100
AcDbLine
 10
114.6916798759669
 20
92.03567677485464
 30
0.0
 11
151.7844257832728
 21
92.03567677485464
 31
0.0
  0
LINE
  5
560
330
55C
100
AcDbEntity
  8
文字・寸法線
 62
     0
370
    -2
100
AcDbLine
 10
115.4822032907777
 20
228.5887493020225
 30
0.0
 11
151.7844257832728
 21
228.5887493020225
 31
0.0
  0
LINE
  5
561
330
55C
100
AcDbEntity
  8
文字・寸法線
 62
     0
370
    -2
100
AcDbLine
 10
151.2844257832728
 20
94.53567677485464
 30
0.0
 11
151.2844257832728
 21
226.0887493020225
 31
0.0
  0
SOLID
  5
562
330
55C
100
AcDbEntity
  8
文字・寸法線
 62
     0
100
AcDbTrace
 10
150.8677591166062
 20
94.53567677485464
 30
0.0
 11
151.7010924499395
 21
94.53567677485464
 31
0.0
 12
151.2844257832728
 22
92.03567677485464
 32
0.0
 13
151.2844257832728
 23
92.03567677485464
 33
0.0
  0
SOLID
  5
563
330
55C
100
AcDbEntity
  8
文字・寸法線
 62
     0
100
AcDbTrace
 10
151.7010924499395
 20
226.0887493020225
 30
0.0
 11
150.8677591166062
 21
226.0887493020225
 31
0.0
 12
151.2844257832728
 22
228.5887493020225
 32
0.0
 13
151.2844257832728
 23
228.5887493020225
 33
0.0
  0
MTEXT
  5
564
330
55C
100
AcDbEntity
  8
文字・寸法線
 62
     0
100
AcDbMText
 10
149.1287300124679
 20
130.8473814800128
 30
0.0
 40
3.0
 41
0.0
 46
0.0
 71
     5
 72
     1
  1
136.55
 11
0.0
 21
1.0
 31
0.0
 73
     1
 44
1.0
  0
POINT
  5
565
330
55C
100
AcDbEntity
  8
Defpoints
 62
     0
100
AcDbPoint
 10
112.6916798759669
 20
92.03567677485464
 30
0.0
  0
POINT
  5
566
330
55C
100
AcDbEntity
  8
Defpoints
 62
     0
100
AcDbPoint
 10
113.4822032907777
 20
228.5887493020225
 30
0.0
  0
POINT
  5
567
330
55C
100
AcDbEntity
  8
Defpoints
 62
     0
100
AcDbPoint
 10
151.2844257832728
 20
228.5887493020225
 30
0.0
  0
ENDBLK
  5
55E
330
55C
100
AcDbEntity
  8
0
100
AcDbBlockEnd
  0
BLOCK
  5
59D
330
59C
100
AcDbEntity
  8
0
100
AcDbBlockBegin
  2
*D39
 70
     1
 10
0.0
 20
0.0
 30
0.0
  3
*D39
  1
*D42
  0
LINE
  5
59E
330
59C
100
AcDbEntity
  8
文字
 62
     0
370
    -2
100
AcDbLine
 10
2.0
 20
74.99999999999994
 30
0.0
 11
38.0796509071966
 21
74.99999999999994
 31
0.0
  0
LINE
  5
59F
330
59C
100
AcDbEntity
  8
文字
 62
     0
370
    -2
100
AcDbLine
 10
6.919720588487081
 20
0.0000000000000034
 30
0.0
 11
38.07965090719659
 21
0.0000000000000015
 31
0.0
  0
LINE
  5
5A0
330
59C
100
AcDbEntity
  8
文字
 62
     0
370
    -2
100
AcDbLine
 10
37.5796509071966
 20
72.49999999999994
 30
0.0
 11
37.57965090719659
 21
2.500000000000001
 31
0.0
  0
SOLID
  5
5A1
330
59C
100
AcDbEntity
  8
文字
 62
     0
100
AcDbTrace
 10
37.99631757386327
 20
72.49999999999994
 30
0.0
 11
37.16298424052994
 21
72.49999999999994
 31
0.0
 12
37.5796509071966
 22
74.99999999999994
 32
0.0
 13
37.5796509071966
 23
74.99999999999994
 33
0.0
  0
SOLID
  5
5A2
330
59C
100
AcDbEntity
  8
文字
 62
     0
100
AcDbTrace
 10
37.16298424052993
 20
2.500000000000001
 30
0.0
 11
37.99631757386326
 21
2.500000000000001
 31
0.0
 12
37.57965090719659
 22
0.0000000000000016
 32
0.0
 13
37.57965090719659
 23
0.0000000000000016
 33
0.0
  0
MTEXT
  5
5A3
330
59C
100
AcDbEntity
  8
文字
 62
     0
100
AcDbMText
 10
35.43009429055267
 20
37.49999999999997
 30
0.0
 40
3.0
 41
0.0
 46
0.0
 71
     5
 72
     1
  1
75
 11
9.473903143468009E-17
 21
1.0
 31
0.0
 73
     1
 44
1.0
  0
POINT
  5
5A4
330
59C
100
AcDbEntity
  8
Defpoints
 62
     0
100
AcDbPoint
 10
0.0
 20
74.99999999999994
 30
0.0
  0
POINT
  5
5A5
330
59C
100
AcDbEntity
  8
Defpoints
 62
     0
100
AcDbPoint
 10
4.919720588487081
 20
0.0000000000000036
 30
0.0
  0
POINT
  5
5A6
330
59C
100
AcDbEntity
  8
Defpoints
 62
     0
100
AcDbPoint
 10
37.57965090719659
 20
0.0000000000000016
 30
0.0
  0
ENDBLK
  5
5A7
330
59C
100
AcDbEntity
  8
0
100
AcDbBlockEnd
  0
BLOCK
  5
5AE
330
5AD
100
AcDbEntity
  8
0
100
AcDbBlockBegin
  2
*D40
 70
     1
 10
0.0
 20
0.0
 30
0.0
  3
*D40
  1
*D43
  0
LINE
  5
5B0
330
5AD
100
AcDbEntity
  8
文字
 62
     0
370
    -2
100
AcDbLine
 10
114.8203979044041
 20
167.0356767748546
 30
0.0
 11
151.8029949214008
 21
167.0356767748546
 31
0.0
  0
LINE
  5
5B1
330
5AD
100
AcDbEntity
  8
文字
 62
     0
370
    -2
100
AcDbLine
 10
123.641679875967
 20
92.03567677485464
 30
0.0
 11
151.8029949214008
 21
92.03567677485464
 31
0.0
  0
LINE
  5
5B2
330
5AD
100
AcDbEntity
  8
文字
 62
     0
370
    -2
100
AcDbLine
 10
151.3029949214008
 20
164.5356767748546
 30
0.0
 11
151.3029949214008
 21
94.53567677485464
 31
0.0
  0
SOLID
  5
5B3
330
5AD
100
AcDbEntity
  8
文字
 62
     0
100
AcDbTrace
 10
151.7196615880674
 20
164.5356767748546
 30
0.0
 11
150.8863282547341
 21
164.5356767748546
 31
0.0
 12
151.3029949214008
 22
167.0356767748546
 32
0.0
 13
151.3029949214008
 23
167.0356767748546
 33
0.0
  0
SOLID
  5
5B4
330
5AD
100
AcDbEntity
  8
文字
 62
     0
100
AcDbTrace
 10
150.8863282547341
 20
94.53567677485464
 30
0.0
 11
151.7196615880674
 21
94.53567677485464
 31
0.0
 12
151.3029949214008
 22
92.03567677485464
 32
0.0
 13
151.3029949214008
 23
92.03567677485464
 33
0.0
  0
MTEXT
  5
5B5
330
5AD
100
AcDbEntity
  8
文字
 62
     0
100
AcDbMText
 10
149.1534383047568
 20
129.5356767748546
 30
0.0
 40
3.0
 41
0.0
 46
0.0
 71
     5
 72
     1
  1
75
 11
0.0
 21
1.0
 31
0.0
 73
     1
 44
1.0
  0
POINT
  5
5B6
330
5AD
100
AcDbEntity
  8
Defpoints
 62
     0
100
AcDbPoint
 10
112.8203979044041
 20
167.0356767748546
 30
0.0
  0
POINT
  5
5B7
330
5AD
100
AcDbEntity
  8
Defpoints
 62
     0
100
AcDbPoint
 10
121.641679875967
 20
92.03567677485464
 30
0.0
  0
POINT
  5
5B8
330
5AD
100
AcDbEntity
  8
Defpoints
 62
     0
100
AcDbPoint
 10
151.3029949214008
 20
92.03567677485464
 30
0.0
  0
ENDBLK
  5
5AF
330
5AD
100
AcDbEntity
  8
0
100
AcDbBlockEnd
  0
BLOCK
  5
5E6
330
5E5
100
AcDbEntity
  8
0
100
AcDbBlockBegin
  2
*D41
 70
     1
 10
0.0
 20
0.0
 30
0.0
  3
*D41
  1
*D42
  0
LINE
  5
5E7
330
5E5
100
AcDbEntity
  8
文字
 62
     0
370
    -2
100
AcDbLine
 10
2.0
 20
99.99999999999994
 30
0.0
 11
38.0796509071966
 21
99.99999999999994
 31
0.0
  0
LINE
  5
5E8
330
5E5
100
AcDbEntity
  8
文字
 62
     0
370
    -2
100
AcDbLine
 10
6.919720588487081
 20
0.0000000000000034
 30
0.0
 11
38.07965090719659
 21
0.0000000000000015
 31
0.0
  0
LINE
  5
5E9
330
5E5
100
AcDbEntity
  8
文字
 62
     0
370
    -2
100
AcDbLine
 10
37.5796509071966
 20
97.49999999999994
 30
0.0
 11
37.57965090719659
 21
2.500000000000001
 31
0.0
  0
SOLID
  5
5EA
330
5E5
100
AcDbEntity
  8
文字
 62
     0
100
AcDbTrace
 10
37.99631757386327
 20
97.49999999999994
 30
0.0
 11
37.16298424052994
 21
97.49999999999994
 31
0.0
 12
37.5796509071966
 22
99.99999999999994
 32
0.0
 13
37.5796509071966
 23
99.99999999999994
 33
0.0
  0
SOLID
  5
5EB
330
5E5
100
AcDbEntity
  8
文字
 62
     0
100
AcDbTrace
 10
37.16298424052993
 20
2.500000000000001
 30
0.0
 11
37.99631757386326
 21
2.500000000000001
 31
0.0
 12
37.57965090719659
 22
0.0000000000000016
 32
0.0
 13
37.57965090719659
 23
0.0000000000000016
 33
0.0
  0
MTEXT
  5
5EC
330
5E5
100
AcDbEntity
  8
文字
 62
     0
100
AcDbMText
 10
35.42395513639168
 20
49.99999999999997
 30
0.0
 40
3.0
 41
0.0
 46
0.0
 71
     5
 72
     1
  1
100
 11
7.105427357601006E-17
 21
1.0
 31
0.0
 73
     1
 44
1.0
  0
POINT
  5
5ED
330
5E5
100
AcDbEntity
  8
Defpoints
 62
     0
100
AcDbPoint
 10
0.0
 20
99.99999999999994
 30
0.0
  0
POINT
  5
5EE
330
5E5
100
AcDbEntity
  8
Defpoints
 62
     0
100
AcDbPoint
 10
4.919720588487081
 20
0.0000000000000036
 30
0.0
  0
POINT
  5
5EF
330
5E5
100
AcDbEntity
  8
Defpoints
 62
     0
100
AcDbPoint
 10
37.57965090719659
 20
0.0000000000000016
 30
0.0
  0
ENDBLK
  5
5F0
330
5E5
100
AcDbEntity
  8
0
100
AcDbBlockEnd
  0
BLOCK
  5
5F7
330
5F6
100
AcDbEntity
  8
0
100
AcDbBlockBegin
  2
*D42
 70
     1
 10
0.0
 20
0.0
 30
0.0
  3
*D42
  1
*D43
  0
LINE
  5
5F9
330
5F6
100
AcDbEntity
  8
文字
 62
     0
370
    -2
100
AcDbLine
 10
114.7219592874798
 20
192.0356767748546
 30
0.0
 11
151.7287296568923
 21
192.0356767748546
 31
0.0
  0
LINE
  5
5FA
330
5F6
100
AcDbEntity
  8
文字
 62
     0
370
    -2
100
AcDbLine
 10
118.7219592874799
 20
92.03567677485464
 30
0.0
 11
151.7287296568923
 21
92.03567677485464
 31
0.0
  0
LINE
  5
5FB
330
5F6
100
AcDbEntity
  8
文字
 62
     0
370
    -2
100
AcDbLine
 10
151.2287296568923
 20
189.5356767748546
 30
0.0
 11
151.2287296568923
 21
94.53567677485464
 31
0.0
  0
SOLID
  5
5FC
330
5F6
100
AcDbEntity
  8
文字
 62
     0
100
AcDbTrace
 10
151.645396323559
 20
189.5356767748546
 30
0.0
 11
150.8120629902257
 21
189.5356767748546
 31
0.0
 12
151.2287296568923
 22
192.0356767748546
 32
0.0
 13
151.2287296568923
 23
192.0356767748546
 33
0.0
  0
SOLID
  5
5FD
330
5F6
100
AcDbEntity
  8
文字
 62
     0
100
AcDbTrace
 10
150.8120629902257
 20
94.53567677485464
 30
0.0
 11
151.645396323559
 21
94.53567677485464
 31
0.0
 12
151.2287296568923
 22
92.03567677485464
 32
0.0
 13
151.2287296568923
 23
92.03567677485464
 33
0.0
  0
MTEXT
  5
5FE
330
5F6
100
AcDbEntity
  8
文字
 62
     0
100
AcDbMText
 10
149.0730338860874
 20
142.0356767748546
 30
0.0
 40
3.0
 41
0.0
 46
0.0
 71
     5
 72
     1
  1
100
 11
0.0
 21
1.0
 31
0.0
 73
     1
 44
1.0
  0
POINT
  5
5FF
330
5F6
100
AcDbEntity
  8
Defpoints
 62
     0
100
AcDbPoint
 10
112.7219592874798
 20
192.0356767748546
 30
0.0
  0
POINT
  5
600
330
5F6
100
AcDbEntity
  8
Defpoints
 62
     0
100
AcDbPoint
 10
116.7219592874799
 20
92.03567677485464
 30
0.0
  0
POINT
  5
601
330
5F6
100
AcDbEntity
  8
Defpoints
 62
     0
100
AcDbPoint
 10
151.2287296568923
 20
92.03567677485464
 30
0.0
  0
ENDBLK
  5
5F8
330
5F6
100
AcDbEntity
  8
0
100
AcDbBlockEnd
  0
BLOCK
  5
62C
330
62B
100
AcDbEntity
  8
0
100
AcDbBlockBegin
  2
*D43
 70
     1
 10
0.0
 20
0.0
 30
0.0
  3
*D43
  1
*D8
  0
LINE
  5
62D
330
62B
100
AcDbEntity
  8
文字
 62
     0
370
    -2
100
AcDbLine
 10
7.857449201528667
 20
133.8627390948423
 30
0.0
 11
7.857449201528667
 21
144.9350762545109
 31
0.0
  0
LINE
  5
62E
330
62B
100
AcDbEntity
  8
文字
 62
     0
370
    -2
100
AcDbLine
 10
19.85744920152867
 20
133.8627390948423
 30
0.0
 11
19.85744920152867
 21
144.9350762545109
 31
0.0
  0
LINE
  5
62F
330
62B
100
AcDbEntity
  8
文字
 62
     0
370
    -2
100
AcDbLine
 10
10.35744920152867
 20
144.4350762545109
 30
0.0
 11
17.35744920152867
 21
144.4350762545109
 31
0.0
  0
SOLID
  5
630
330
62B
100
AcDbEntity
  8
文字
 62
     0
100
AcDbTrace
 10
10.35744920152867
 20
144.8517429211776
 30
0.0
 11
10.35744920152867
 21
144.0184095878443
 31
0.0
 12
7.857449201528667
 22
144.4350762545109
 32
0.0
 13
7.857449201528667
 23
144.4350762545109
 33
0.0
  0
SOLID
  5
631
330
62B
100
AcDbEntity
  8
文字
 62
     0
100
AcDbTrace
 10
17.35744920152867
 20
144.0184095878443
 30
0.0
 11
17.35744920152867
 21
144.8517429211776
 31
0.0
 12
19.85744920152867
 22
144.4350762545109
 32
0.0
 13
19.85744920152867
 23
144.4350762545109
 33
0.0
  0
MTEXT
  5
632
330
62B
100
AcDbEntity
  8
文字
 62
     0
100
AcDbMText
 10
13.85744920152867
 20
146.5662154086719
 30
0.0
 40
3.0
 41
0.0
 46
0.0
 71
     5
 72
     1
  1
{\fArial|b0|i0|c0|p32;M}12
 73
     1
 44
1.0
  0
POINT
  5
633
330
62B
100
AcDbEntity
  8
Defpoints
 62
     0
100
AcDbPoint
 10
7.857449201528667
 20
131.8627390948423
 30
0.0
  0
POINT
  5
634
330
62B
100
AcDbEntity
  8
Defpoints
 62
     0
100
AcDbPoint
 10
19.85744920152867
 20
131.8627390948423
 30
0.0
  0
POINT
  5
635
330
62B
100
AcDbEntity
  8
Defpoints
 62
     0
100
AcDbPoint
 10
19.85744920152867
 20
144.4350762545109
 30
0.0
  0
ENDBLK
  5
636
330
62B
100
AcDbEntity
  8
0
100
AcDbBlockEnd
  0
BLOCK
  5
644
330
643
100
AcDbEntity
  8
0
100
AcDbBlockBegin
  2
*D44
 70
     1
 10
0.0
 20
0.0
 30
0.0
  3
*D44
  1
*D18
  0
LINE
  5
645
330
643
100
AcDbEntity
  8
文字
 62
     0
370
    -2
100
AcDbLine
 10
21.85744920152867
 20
134.4877390948423
 30
0.0
 11
57.9371001087252
 21
134.4877390948423
 31
0.0
  0
LINE
  5
646
330
643
100
AcDbEntity
  8
文字
 62
     0
370
    -2
100
AcDbLine
 10
26.80744920152867
 20
34.48773909484228
 30
0.0
 11
57.93710010872519
 21
34.48773909484228
 31
0.0
  0
LINE
  5
647
330
643
100
AcDbEntity
  8
文字
 62
     0
370
    -2
100
AcDbLine
 10
57.4371001087252
 20
131.9877390948423
 30
0.0
 11
57.43710010872519
 21
36.98773909484228
 31
0.0
  0
SOLID
  5
648
330
643
100
AcDbEntity
  8
文字
 62
     0
100
AcDbTrace
 10
57.85376677539186
 20
131.9877390948423
 30
0.0
 11
57.02043344205853
 21
131.9877390948423
 31
0.0
 12
57.4371001087252
 22
134.4877390948423
 32
0.0
 13
57.4371001087252
 23
134.4877390948423
 33
0.0
  0
SOLID
  5
649
330
643
100
AcDbEntity
  8
文字
 62
     0
100
AcDbTrace
 10
57.02043344205853
 20
36.98773909484228
 30
0.0
 11
57.85376677539185
 21
36.98773909484228
 31
0.0
 12
57.43710010872519
 22
34.48773909484228
 32
0.0
 13
57.43710010872519
 23
34.48773909484228
 33
0.0
  0
MTEXT
  5
64A
330
643
100
AcDbEntity
  8
文字
 62
     0
100
AcDbMText
 10
55.28140433792028
 20
84.4877390948423
 30
0.0
 40
3.0
 41
0.0
 46
0.0
 71
     5
 72
     1
  1
125
 11
7.105427357601000E-17
 21
1.0
 31
0.0
 73
     1
 44
1.0
  0
POINT
  5
64B
330
643
100
AcDbEntity
  8
Defpoints
 62
     0
100
AcDbPoint
 10
19.85744920152867
 20
134.4877390948423
 30
0.0
  0
POINT
  5
64C
330
643
100
AcDbEntity
  8
Defpoints
 62
     0
100
AcDbPoint
 10
24.80744920152867
 20
34.48773909484228
 30
0.0
  0
POINT
  5
64D
330
643
100
AcDbEntity
  8
Defpoints
 62
     0
100
AcDbPoint
 10
57.43710010872519
 20
34.48773909484228
 30
0.0
  0
ENDBLK
  5
64E
330
643
100
AcDbEntity
  8
0
100
AcDbBlockEnd
  0
BLOCK
  5
666
330
665
100
AcDbEntity
  8
0
100
AcDbBlockBegin
  2
*D45
 70
     1
 10
0.0
 20
0.0
 30
0.0
  3
*D45
  1
*D46
  0
LINE
  5
668
330
665
100
AcDbEntity
  8
文字
 62
     0
370
    -2
100
AcDbLine
 10
106.7688930212628
 20
191.4684140329728
 30
0.0
 11
106.7688930212628
 21
202.5407511926415
 31
0.0
  0
LINE
  5
669
330
665
100
AcDbEntity
  8
文字
 62
     0
370
    -2
100
AcDbLine
 10
118.7688930212628
 20
191.4684140329728
 30
0.0
 11
118.7688930212628
 21
202.5407511926415
 31
0.0
  0
LINE
  5
66A
330
665
100
AcDbEntity
  8
文字
 62
     0
370
    -2
100
AcDbLine
 10
109.2688930212628
 20
202.0407511926415
 30
0.0
 11
116.2688930212628
 21
202.0407511926415
 31
0.0
  0
SOLID
  5
66B
330
665
100
AcDbEntity
  8
文字
 62
     0
100
AcDbTrace
 10
109.2688930212628
 20
202.4574178593081
 30
0.0
 11
109.2688930212628
 21
201.6240845259748
 31
0.0
 12
106.7688930212628
 22
202.0407511926415
 32
0.0
 13
106.7688930212628
 23
202.0407511926415
 33
0.0
  0
SOLID
  5
66C
330
665
100
AcDbEntity
  8
文字
 62
     0
100
AcDbTrace
 10
116.2688930212628
 20
201.6240845259748
 30
0.0
 11
116.2688930212628
 21
202.4574178593081
 31
0.0
 12
118.7688930212628
 22
202.0407511926415
 32
0.0
 13
118.7688930212628
 23
202.0407511926415
 33
0.0
  0
MTEXT
  5
66D
330
665
100
AcDbEntity
  8
文字
 62
     0
100
AcDbMText
 10
112.7688930212628
 20
204.1718903468025
 30
0.0
 40
3.0
 41
0.0
 46
0.0
 71
     5
 72
     1
  1
{\fArial|b0|i0|c0|p32;M}12
 73
     1
 44
1.0
  0
POINT
  5
66E
330
665
100
AcDbEntity
  8
Defpoints
 62
     0
100
AcDbPoint
 10
106.7688930212628
 20
189.4684140329728
 30
0.0
  0
POINT
  5
66F
330
665
100
AcDbEntity
  8
Defpoints
 62
     0
100
AcDbPoint
 10
118.7688930212628
 20
189.4684140329728
 30
0.0
  0
POINT
  5
670
330
665
100
AcDbEntity
  8
Defpoints
 62
     0
100
AcDbPoint
 10
118.7688930212628
 20
202.0407511926415
 30
0.0
  0
ENDBLK
  5
667
330
665
100
AcDbEntity
  8
0
100
AcDbBlockEnd
  0
BLOCK
  5
672
330
671
100
AcDbEntity
  8
0
100
AcDbBlockBegin
  2
*D46
 70
     1
 10
0.0
 20
0.0
 30
0.0
  3
*D46
  1
*D47
  0
LINE
  5
674
330
671
100
AcDbEntity
  8
文字
 62
     0
370
    -2
100
AcDbLine
 10
120.7688930212628
 20
192.0934140329728
 30
0.0
 11
151.7287296568923
 21
192.0934140329728
 31
0.0
  0
LINE
  5
675
330
671
100
AcDbEntity
  8
文字
 62
     0
370
    -2
100
AcDbLine
 10
125.7188930212628
 20
92.09341403297283
 30
0.0
 11
151.7287296568923
 21
92.09341403297283
 31
0.0
  0
LINE
  5
676
330
671
100
AcDbEntity
  8
文字
 62
     0
370
    -2
100
AcDbLine
 10
151.2287296568923
 20
189.5934140329728
 30
0.0
 11
151.2287296568923
 21
94.59341403297283
 31
0.0
  0
SOLID
  5
677
330
671
100
AcDbEntity
  8
文字
 62
     0
100
AcDbTrace
 10
151.645396323559
 20
189.5934140329728
 30
0.0
 11
150.8120629902257
 21
189.5934140329728
 31
0.0
 12
151.2287296568923
 22
192.0934140329728
 32
0.0
 13
151.2287296568923
 23
192.0934140329728
 33
0.0
  0
SOLID
  5
678
330
671
100
AcDbEntity
  8
文字
 62
     0
100
AcDbTrace
 10
150.8120629902257
 20
94.59341403297283
 30
0.0
 11
151.645396323559
 21
94.59341403297283
 31
0.0
 12
151.2287296568923
 22
92.09341403297283
 32
0.0
 13
151.2287296568923
 23
92.09341403297283
 33
0.0
  0
MTEXT
  5
679
330
671
100
AcDbEntity
  8
文字
 62
     0
100
AcDbMText
 10
149.0730338860874
 20
142.0934140329728
 30
0.0
 40
3.0
 41
0.0
 46
0.0
 71
     5
 72
     1
  1
125
 11
0.0
 21
1.0
 31
0.0
 73
     1
 44
1.0
  0
POINT
  5
67A
330
671
100
AcDbEntity
  8
Defpoints
 62
     0
100
AcDbPoint
 10
118.7688930212628
 20
192.0934140329728
 30
0.0
  0
POINT
  5
67B
330
671
100
AcDbEntity
  8
Defpoints
 62
     0
100
AcDbPoint
 10
123.7188930212628
 20
92.09341403297283
 30
0.0
  0
POINT
  5
67C
330
671
100
AcDbEntity
  8
Defpoints
 62
     0
100
AcDbPoint
 10
151.2287296568923
 20
92.09341403297283
 30
0.0
  0
ENDBLK
  5
673
330
671
100
AcDbEntity
  8
0
100
AcDbBlockEnd
  0
BLOCK
  5
6D1
330
6D0
100
AcDbEntity
  8
0
100
AcDbBlockBegin
  2
*D48
 70
     1
 10
0.0
 20
0.0
 30
0.0
  3
*D48
  1
*D26
  0
LINE
  5
6D2
330
6D0
100
AcDbEntity
  8
文字
 62
     0
370
    -2
100
AcDbLine
 10
0.0
 20
36.43846825504087
 30
0.0
 11
0.0
 21
0.75
 31
0.0
  0
LINE
  5
6D3
330
6D0
100
AcDbEntity
  8
文字
 62
     0
370
    -2
100
AcDbLine
 10
18.9659563428792
 20
36.43846825504087
 30
0.0
 11
18.9659563428792
 21
0.75
 31
0.0
  0
LINE
  5
6D4
330
6D0
100
AcDbEntity
  8
文字
 62
     0
370
    -2
100
AcDbLine
 10
2.5
 20
1.25
 30
0.0
 11
16.4659563428792
 21
1.25
 31
0.0
  0
SOLID
  5
6D5
330
6D0
100
AcDbEntity
  8
文字
 62
     0
100
AcDbTrace
 10
2.5
 20
1.666666666666667
 30
0.0
 11
2.5
 21
0.8333333333333333
 31
0.0
 12
0.0
 22
1.25
 32
0.0
 13
0.0
 23
1.25
 33
0.0
  0
SOLID
  5
6D6
330
6D0
100
AcDbEntity
  8
文字
 62
     0
100
AcDbTrace
 10
16.4659563428792
 20
0.8333333333333333
 30
0.0
 11
16.4659563428792
 21
1.666666666666667
 31
0.0
 12
18.9659563428792
 22
1.25
 32
0.0
 13
18.9659563428792
 23
1.25
 33
0.0
  0
MTEXT
  5
6D7
330
6D0
100
AcDbEntity
  8
文字
 62
     0
100
AcDbMText
 10
9.482978171439598
 20
3.4065
 30
0.0
 40
3.0
 41
0.0
 46
0.0
 71
     5
 72
     1
  1
19
 73
     1
 44
1.0
  0
POINT
  5
6D8
330
6D0
100
AcDbEntity
  8
Defpoints
 62
     0
100
AcDbPoint
 10
0.0
 20
38.43846825504087
 30
0.0
  0
POINT
  5
6D9
330
6D0
100
AcDbEntity
  8
Defpoints
 62
     0
100
AcDbPoint
 10
18.9659563428792
 20
38.43846825504087
 30
0.0
  0
POINT
  5
6DA
330
6D0
100
AcDbEntity
  8
Defpoints
 62
     0
100
AcDbPoint
 10
18.9659563428792
 20
1.25
 30
0.0
  0
ENDBLK
  5
6DB
330
6D0
100
AcDbEntity
  8
0
100
AcDbBlockEnd
  0
BLOCK
  5
6E9
330
6E8
100
AcDbEntity
  8
0
100
AcDbBlockBegin
  2
*D49
 70
     1
 10
0.0
 20
0.0
 30
0.0
  3
*D49
  1
*D49
  0
LINE
  5
6EB
330
6E8
100
AcDbEntity
  8
文字
 62
     0
370
    -2
100
AcDbLine
 10
250.3713489968367
 20
95.40224514475726
 30
0.0
 11
250.3713489968367
 21
59.71377688971639
 31
0.0
  0
LINE
  5
6EC
330
6E8
100
AcDbEntity
  8
文字
 62
     0
370
    -2
100
AcDbLine
 10
269.337305339716
 20
95.40224514475726
 30
0.0
 11
269.337305339716
 21
59.71377688971639
 31
0.0
  0
LINE
  5
6ED
330
6E8
100
AcDbEntity
  8
文字
 62
     0
370
    -2
100
AcDbLine
 10
252.8713489968367
 20
60.21377688971639
 30
0.0
 11
266.837305339716
 21
60.21377688971639
 31
0.0
  0
SOLID
  5
6EE
330
6E8
100
AcDbEntity
  8
文字
 62
     0
100
AcDbTrace
 10
252.8713489968367
 20
60.63044355638305
 30
0.0
 11
252.8713489968367
 21
59.79711022304972
 31
0.0
 12
250.3713489968367
 22
60.21377688971639
 32
0.0
 13
250.3713489968367
 23
60.21377688971639
 33
0.0
  0
SOLID
  5
6EF
330
6E8
100
AcDbEntity
  8
文字
 62
     0
100
AcDbTrace
 10
266.837305339716
 20
59.79711022304972
 30
0.0
 11
266.837305339716
 21
60.63044355638305
 31
0.0
 12
269.337305339716
 22
60.21377688971639
 32
0.0
 13
269.337305339716
 23
60.21377688971639
 33
0.0
  0
MTEXT
  5
6F0
330
6E8
100
AcDbEntity
  8
文字
 62
     0
100
AcDbMText
 10
259.8543271682763
 20
62.37027688971639
 30
0.0
 40
3.0
 41
0.0
 46
0.0
 71
     5
 72
     1
  1
19
 73
     1
 44
1.0
  0
POINT
  5
6F1
330
6E8
100
AcDbEntity
  8
Defpoints
 62
     0
100
AcDbPoint
 10
250.3713489968367
 20
97.40224514475726
 30
0.0
  0
POINT
  5
6F2
330
6E8
100
AcDbEntity
  8
Defpoints
 62
     0
100
AcDbPoint
 10
269.337305339716
 20
97.40224514475726
 30
0.0
  0
POINT
  5
6F3
330
6E8
100
AcDbEntity
  8
Defpoints
 62
     0
100
AcDbPoint
 10
269.337305339716
 20
60.21377688971639
 30
0.0
  0
ENDBLK
  5
6EA
330
6E8
100
AcDbEntity
  8
0
100
AcDbBlockEnd
  0
ENDSEC
  0
SECTION
  2
ENTITIES
  0
DIMENSION
  5
230
330
1F
100
AcDbEntity
  8
文字・寸法線
100
AcDbDimension
280
     0
  2
*D13
 10
304.1000705113507
 20
77.9704506113805
 30
0.0
 11
301.9443747405458
 21
102.9704506113805
 31
0.0
 70
    32
 71
     5
 42
50.0
 73
     0
 74
     0
 75
     0
  3
ISO-25
100
AcDbAlignedDimension
 13
259.8977747057428
 23
127.9704506113805
 33
0.0
 14
259.8977747057428
 24
77.9704506113805
 34
0.0
 50
90.0
100
AcDbRotatedDimension
  0
MTEXT
  5
231
102
{ACAD_REACTORS
330
232
102
}
330
1F
100
AcDbEntity
  8
文字・寸法線
100
AcDbMText
 10
214.4563718331963
 20
62.17737343632043
 30
0.0
 40
2.5
 41
0.0
 46
0.0
 71
     7
 72
     1
  1
%%c13
 73
     1
 44
1.0
  0
LEADER
  5
232
102
{ACAD_REACTORS
330
234
102
}
102
{ACAD_XDICTIONARY
360
233
102
}
330
1F
100
AcDbEntity
  8
文字・寸法線
100
AcDbLeader
  3
ISO-25
 73
     0
 74
     0
 40
2.6425
 41
5.635
 76
     3
 10
199.8977747057428
 20
102.9704506113806
 30
0.0
 10
210.5571242174819
 20
61.55237343632043
 30
0.0
 10
213.8313718331963
 20
61.55237343632043
 30
0.0
340
231
1001
ACAD
1000
DSTYLE
1002
{
1070
   147
1040
0.625
1070
    77
1070
     1
1002
}
  0
DIMENSION
  5
235
102
{ACAD_XDICTIONARY
360
236
102
}
330
1F
100
AcDbEntity
  8
文字・寸法線
100
AcDbDimension
280
     0
  2
*D14
 10
184.8977747057427
 20
146.6561945397866
 30
0.0
 11
192.3977747057427
 21
148.8118903105915
 31
0.0
 70
    32
 71
     5
 42
15.00000000000009
 73
     0
 74
     0
 75
     0
  3
ISO-25
100
AcDbAlignedDimension
 13
199.8977747057428
 23
146.6561945397866
 33
0.0
 14
184.8977747057427
 24
102.9704506113806
 34
0.0
100
AcDbRotatedDimension
  0
DIMENSION
  5
238
102
{ACAD_REACTORS
330
23A
102
}
102
{ACAD_XDICTIONARY
360
239
102
}
330
1F
100
AcDbEntity
  8
文字・寸法線
100
AcDbDimension
280
     0
  2
*D15
 10
199.8977747057428
 20
146.6561945397866
 30
0.0
 11
229.8977747057428
 21
148.8118903105915
 31
0.0
 70
    32
 71
     5
 42
60.0
 73
     0
 74
     0
 75
     0
  3
ISO-25
100
AcDbAlignedDimension
 13
259.8977747057428
 23
135.2321327493271
 33
0.0
 14
199.8977747057428
 24
134.6071327493271
 34
0.0
100
AcDbRotatedDimension
  0
DIMENSION
  5
23B
102
{ACAD_REACTORS
330
23D
102
}
102
{ACAD_XDICTIONARY
360
23C
102
}
330
1F
100
AcDbEntity
  8
文字・寸法線
100
AcDbDimension
280
     0
  2
*D16
 10
259.8977747057428
 20
146.6561945397866
 30
0.0
 11
272.3977747057428
 21
148.8118903105915
 31
0.0
 70
    32
 71
     5
 42
25.0
 73
     0
 74
     0
 75
     0
  3
ISO-25
100
AcDbAlignedDimension
 13
284.8977747057428
 23
102.9704506113806
 33
0.0
 14
259.8977747057428
 24
134.6071327493271
 34
0.0
100
AcDbRotatedDimension
  0
DIMENSION
  5
23E
102
{ACAD_REACTORS
330
240
102
}
102
{ACAD_XDICTIONARY
360
23F
102
}
330
1F
100
AcDbEntity
  8
文字・寸法線
100
AcDbDimension
280
     0
  2
*D17
 10
296.5564810198498
 20
120.5002125161425
 30
0.0
 11
294.4007852490449
 21
102.9704506113806
 31
0.0
 70
    32
  1
35
 71
     5
 42
35.0595238095239
 73
     0
 74
     0
 75
     0
  3
ISO-25
100
AcDbAlignedDimension
 13
259.8977747057428
 23
85.4406887066186
 33
0.0
 14
259.8977747057426
 24
120.5002125161425
 34
0.0
 50
90.0
100
AcDbRotatedDimension
  0
ARC
  5
241
102
{ACAD_REACTORS
330
240
102
}
330
1F
100
AcDbEntity
  8
実線
100
AcDbCircle
 10
259.8977747057428
 20
102.9704506113805
 30
0.0
 40
17.52976190476191
100
AcDbArc
 50
270.0
 51
90.0
  0
ARC
  5
242
330
1F
100
AcDbEntity
  8
実線
100
AcDbCircle
 10
234.8977747057427
 20
102.9704506113805
 30
0.0
 40
13.5
100
AcDbArc
 50
98.79741070999106
 51
261.202589290009
  0
LINE
  5
243
330
1F
100
AcDbEntity
  8
実線
100
AcDbLine
 10
259.8977747057428
 20
85.4406887066186
 30
0.0
 11
232.8330688233898
 21
89.62927414079226
 31
0.0
  0
LINE
  5
244
102
{ACAD_REACTORS
330
240
102
}
330
1F
100
AcDbEntity
  8
実線
100
AcDbLine
 10
259.8977747057428
 20
120.5002125161425
 30
0.0
 11
232.8330688233898
 21
116.3116270819688
 31
0.0
  0
LINE
  5
245
102
{ACAD_REACTORS
330
23A
102
}
330
1F
100
AcDbEntity
  8
中心線
100
AcDbLine
 10
199.8977747057428
 20
72.11578052863118
 30
0.0
 11
199.8977747057428
 21
134.6071327493271
 31
0.0
  0
LINE
  5
246
102
{ACAD_REACTORS
330
23D
102
}
330
1F
100
AcDbEntity
  8
中心線
100
AcDbLine
 10
259.8977747057428
 20
72.11578052863118
 30
0.0
 11
259.8977747057428
 21
134.6071327493271
 31
0.0
  0
LINE
  5
247
102
{ACAD_REACTORS
330
23D
102
}
330
1F
100
AcDbEntity
  8
中心線
100
AcDbLine
 10
292.104137162616
 20
102.9704506113806
 30
0.0
 11
177.9490194719398
 21
102.9704506113806
 31
0.0
  0
DIMENSION
  5
249
102
{ACAD_XDICTIONARY
360
24A
102
}
330
1F
100
AcDbEntity
  8
文字・寸法線
100
AcDbDimension
280
     0
  2
*D19
 10
151.2287296568923
 20
92.03567677485464
 30
0.0
 11
149.0730338860874
 21
88.03567677485464
 31
0.0
 70
    32
 71
     5
 42
8.0
 73
     0
 74
     0
 75
     0
  3
ISO-25
100
AcDbAlignedDimension
 13
120.0976897939525
 23
84.03567677485464
 33
0.0
 14
122.6203979044041
 24
92.03567677485464
 34
0.0
 50
90.0
100
AcDbRotatedDimension
  0
DIMENSION
  5
24C
102
{ACAD_REACTORS
330
24E
102
}
102
{ACAD_XDICTIONARY
360
24D
102
}
330
1F
100
AcDbEntity
  8
文字・寸法線
100
AcDbDimension
280
     0
  2
*D20
 10
151.2287296568923
 20
84.03567677485464
 30
0.0
 11
149.0975905027313
 21
75.84817677485464
 31
0.0
 70
    32
  1
17
 71
     5
 42
16.375
 73
     0
 74
     0
 75
     0
  3
ISO-25
100
AcDbAlignedDimension
 13
137.8203979044041
 23
67.66067677485464
 33
0.0
 14
120.1332062505495
 24
84.03567677485464
 34
0.0
 50
90.0
100
AcDbRotatedDimension
  0
DIMENSION
  5
24F
102
{ACAD_REACTORS
330
251
102
}
102
{ACAD_XDICTIONARY
360
250
102
}
330
1F
100
AcDbEntity
  8
文字・寸法線
100
AcDbDimension
280
     0
  2
*D21
 10
31.7891587446327
 20
69.66067677485469
 30
0.0
 11
29.65801959047172
 21
76.28226613365415
 31
0.0
 70
    32
 71
     5
 42
2.0
 73
     0
 74
     0
 75
     0
  3
ISO-25
100
AcDbAlignedDimension
 13
37.82039790440409
 23
67.66067677485469
 33
0.0
 14
37.82039790440409
 24
69.66067677485469
 34
0.0
 50
90.0
100
AcDbRotatedDimension
  0
LINE
  5
252
102
{ACAD_REACTORS
330
24E
102
}
330
1F
100
AcDbEntity
  8
実線
370
    30
100
AcDbLine
 10
137.8203979044041
 20
67.66067677485464
 30
0.0
 11
137.8203979044041
 21
69.66067677485464
 31
0.0
  0
LINE
  5
253
330
1F
100
AcDbEntity
  8
実線
100
AcDbLine
 10
137.8203979044041
 20
69.66067677485464
 30
0.0
 11
129.7023409205382
 21
69.66067677485464
 31
0.0
  0
LINE
  5
254
102
{ACAD_REACTORS
330
251
102
}
330
1F
100
AcDbEntity
  8
実線
100
AcDbLine
 10
37.82039790440409
 20
69.66067677485469
 30
0.0
 11
37.82039790440409
 21
67.66067677485469
 31
0.0
  0
LINE
  5
255
102
{ACAD_REACTORS
330
265
102
}
330
1F
100
AcDbEntity
  8
実線
100
AcDbLine
 10
37.82039790440409
 20
67.66067677485469
 30
0.0
 11
137.8203979044041
 21
67.66067677485464
 31
0.0
  0
ARC
  5
256
330
1F
100
AcDbEntity
  8
実線
100
AcDbCircle
 10
129.7023409205382
 20
71.66067677485464
 30
0.0
 40
2.0
100
AcDbArc
 50
186.7563270305883
 51
270.0
  0
LINE
  5
257
330
1F
100
AcDbEntity
  8
実線
100
AcDbLine
 10
76.22817211075333
 20
69.66067677485464
 30
0.0
 11
37.82039790440409
 21
69.66067677485469
 31
0.0
  0
ARC
  5
258
330
1F
100
AcDbEntity
  8
実線
100
AcDbCircle
 10
76.2281721107533
 20
71.66067677485464
 30
0.0
 40
2.0
100
AcDbArc
 50
270.0
 51
302.8326326161804
  0
ARC
  5
259
330
1F
100
AcDbEntity
  8
実線
100
AcDbCircle
 10
76.22817211075325
 20
71.66067677485464
 30
0.0
 40
2.0
100
AcDbArc
 50
270.0
 51
302.8326326161804
  0
ARC
  5
25A
330
1F
100
AcDbEntity
  8
実線
100
AcDbCircle
 10
76.2281721107533
 20
71.66067677485464
 30
0.0
 40
2.0
100
AcDbArc
 50
270.0
 51
302.8326326161804
  0
LINE
  5
25B
330
1F
100
AcDbEntity
  8
実線
100
AcDbLine
 10
129.7023409205382
 20
69.66067677485464
 30
0.0
 11
76.22817211075328
 21
69.66067677485464
 31
0.0
  0
ARC
  5
25C
102
{ACAD_REACTORS
330
23D
102
}
330
1F
100
AcDbEntity
  8
実線
100
AcDbCircle
 10
259.8977747057428
 20
102.9704506113805
 30
0.0
 40
25.0
100
AcDbArc
 50
270.0
 51
90.0
  0
CIRCLE
  5
25D
330
1F
100
AcDbEntity
  8
実線
100
AcDbCircle
 10
199.8977747057428
 20
102.9704506113806
 30
0.0
 40
6.5
  0
ARC
  5
25E
102
{ACAD_REACTORS
330
234
102
}
330
1F
100
AcDbEntity
  8
実線
100
AcDbCircle
 10
199.8977747057428
 20
102.9704506113806
 30
0.0
 40
15.0
100
AcDbArc
 50
99.2775011509513
 51
260.7224988490487
  0
LINE
  5
25F
330
1F
100
AcDbEntity
  8
実線
100
AcDbLine
 10
259.8977747057427
 20
127.9704506113805
 30
0.0
 11
197.4795303385799
 21
117.7742370925713
 31
0.0
  0
LINE
  5
260
330
1F
100
AcDbEntity
  8
実線
100
AcDbLine
 10
259.8977747057427
 20
77.97045061138053
 30
0.0
 11
197.4795303385799
 21
88.16666413018979
 31
0.0
  0
ARC
  5
261
330
1F
100
AcDbEntity
  8
実線
100
AcDbCircle
 10
112.57715466306
 20
34.96722503323402
 30
0.0
 40
49.6940470607017
100
AcDbArc
 50
99.10099458826333
 51
135.2051827062572
  0
ARC
  5
262
330
1F
100
AcDbEntity
  8
実線
100
AcDbCircle
 10
112.8203979044041
 20
69.66067677485464
 30
0.0
 40
15.0
100
AcDbArc
 50
6.756327030588218
 51
73.4021578641336
  0
DIMENSION
  5
263
102
{ACAD_REACTORS
330
265
102
}
102
{ACAD_XDICTIONARY
360
264
102
}
330
1F
100
AcDbEntity
  8
文字・寸法線
100
AcDbDimension
280
     0
  2
*D22
 10
37.82039790440409
 20
43.30129815722236
 30
0.0
 11
87.8203979044041
 21
45.45699392802727
 31
0.0
 70
    32
 71
     5
 42
100.0
 73
     0
 74
     0
 75
     0
  3
ISO-25
100
AcDbAlignedDimension
 13
137.8203979044041
 23
67.66067677485464
 33
0.0
 14
37.82039790440409
 24
67.66067677485469
 34
0.0
100
AcDbRotatedDimension
  0
CIRCLE
  5
266
330
1F
100
AcDbEntity
  8
実線
100
AcDbCircle
 10
259.8977747057428
 20
102.9704506113806
 30
0.0
 40
3.0
  0
LINE
  5
276
330
1F
100
AcDbEntity
  8
中心線
100
AcDbLine
 10
112.8203979044041
 20
60.53544287368035
 30
0.0
 11
112.7543722852907
 21
207.8522536565378
 31
0.0
  0
ARC
  5
483
330
1F
100
AcDbEntity
  8
実線
100
AcDbCircle
 10
112.691679875967
 20
104.6376894653614
 30
0.0
 40
20.60203494178584
100
AcDbArc
 50
253.2134882526869
 51
286.7865117473133
  0
LINE
  5
484
330
1F
100
AcDbEntity
  8
実線
100
AcDbLine
 10
105.2251111349583
 20
84.03567677485464
 30
0.0
 11
120.0976897939525
 21
84.03567677485464
 31
0.0
  0
LINE
  5
485
330
1F
100
AcDbEntity
  8
実線
100
AcDbLine
 10
101.7416798759669
 20
85.91355846441328
 30
0.0
 11
101.7416798759669
 21
84.91355846441328
 31
0.0
  0
LINE
  5
486
330
1F
100
AcDbEntity
  8
実線
100
AcDbLine
 10
123.6416798759669
 20
85.91355846441328
 30
0.0
 11
123.6416798759669
 21
84.91355846441328
 31
0.0
  0
LINE
  5
487
330
1F
100
AcDbEntity
  8
実線
100
AcDbLine
 10
123.6416798759669
 20
84.91355846441328
 30
0.0
 11
123.6416798759669
 21
85.91355846441328
 31
0.0
  0
ARC
  5
488
330
1F
100
AcDbEntity
  8
実線
100
AcDbCircle
 10
121.1416798759669
 20
88.0340639998166
 30
0.0
 40
3.998444046936609
100
AcDbArc
 50
231.2999591855178
 51
308.7000408144817
  0
ARC
  5
489
330
1F
100
AcDbEntity
  8
実線
100
AcDbCircle
 10
104.241679875967
 20
88.03432133829438
 30
0.0
 40
3.998644884832185
100
AcDbArc
 50
231.3022646769322
 51
308.6977353230671
  0
LINE
  5
48A
330
1F
100
AcDbEntity
  8
実線
100
AcDbLine
 10
106.7416798759669
 20
92.03567677485464
 30
0.0
 11
106.7416798759669
 21
84.91355846441328
 31
0.0
  0
LINE
  5
48B
330
1F
100
AcDbEntity
  8
実線
100
AcDbLine
 10
118.6416798759669
 20
92.03567677485464
 30
0.0
 11
118.6416798759669
 21
84.91355846441326
 31
0.0
  0
LWPOLYLINE
  5
48C
330
1F
100
AcDbEntity
  8
実線
100
AcDbPolyline
 90
        4
 70
     0
 43
0.0
 10
123.6416798759669
 20
85.91355846441328
 10
123.6416798759669
 20
92.03567677485464
 10
101.7416798759669
 20
92.03567677485464
 10
101.7416798759669
 20
85.91355846441328
  0
LWPOLYLINE
  5
48D
330
1F
100
AcDbEntity
  8
実線
100
AcDbPolyline
 90
        2
 70
     0
 43
0.0
 10
118.7219592874799
 20
92.03567677485464
 10
118.7668668629535
 20
143.2469447683068
  0
LWPOLYLINE
  5
48F
330
1F
100
AcDbEntity
  8
実線
100
AcDbPolyline
 90
        2
 70
     0
 43
0.0
 10
106.8401684204984
 20
136.3610622120119
 10
106.7219592874799
 20
92.03567677485464
  0
LINE
  5
490
330
1F
100
AcDbEntity
  8
実線
370
    20
100
AcDbLine
 10
116.7219592874799
 20
142.0663168291392
 30
0.0
 11
116.7219592874799
 21
92.03567677485465
 31
0.0
  0
LINE
  5
491
330
1F
100
AcDbEntity
  8
実線
370
    20
100
AcDbLine
 10
108.7666217303731
 20
137.4733005490492
 30
0.0
 11
108.7219592874798
 21
92.03567677485465
 31
0.0
  0
DIMENSION
  5
655
330
1F
100
AcDbEntity
  8
文字
100
AcDbDimension
280
     0
  2
*D45
 10
118.7688930212628
 20
202.0407511926415
 30
0.0
 11
112.7688930212628
 21
204.1718903468025
 31
0.0
 70
    32
  1
{\fArial|b0|i0|c0|p32;M}<>
 71
     5
 42
12.0
 73
     0
 74
     0
 75
     0
  3
ISO-25
100
AcDbAlignedDimension
 13
106.7688930212628
 23
189.4684140329728
 33
0.0
 14
118.7688930212628
 24
189.4684140329728
 34
0.0
100
AcDbRotatedDimension
  0
LWPOLYLINE
  5
656
330
1F
100
AcDbEntity
  8
実線
100
AcDbPolyline
 90
        6
 70
     0
 43
0.0
 10
118.7688930212628
 20
145.5575156481106
 10
118.7688930212628
 20
190.0934140329728
 10
116.7688930212628
 20
192.0934140329728
 10
108.7688930212628
 20
192.0934140329728
 10
106.7688930212628
 20
190.0934140329728
 10
106.7688930212628
 20
138.6293124178351
  0
LINE
  5
657
330
1F
100
AcDbEntity
  8
実線
370
    20
100
AcDbLine
 10
106.7688930212628
 20
190.0934140329728
 30
0.0
 11
118.7688930212628
 21
190.0934140329728
 31
0.0
  0
LINE
  5
658
330
1F
100
AcDbEntity
  8
実線
370
    20
100
AcDbLine
 10
108.7688930212628
 20
192.0934140329728
 30
0.0
 11
108.7688930212628
 21
139.7840129562144
 31
0.0
  0
LINE
  5
659
330
1F
100
AcDbEntity
  8
実線
370
    20
100
AcDbLine
 10
116.7688930212628
 20
192.0934140329728
 30
0.0
 11
116.7688930212628
 21
144.4028151097314
 31
0.0
  0
LINE
  5
65A
330
1F
100
AcDbEntity
  8
実線
370
    30
100
AcDbLine
 10
112.7688930212628
 20
142.0934140329729
 30
0.0
 11
128.1172612613627
 21
150.9547985680161
 31
0.0
  0
LINE
  5
65B
330
1F
100
AcDbEntity
  8
実線
370
    30
100
AcDbLine
 10
112.7688930212628
 20
142.0934140329729
 30
0.0
 11
98.9114438197341
 21
134.0928120061887
 31
0.0
  0
LINE
  5
65C
330
1F
100
AcDbEntity
  8
実線
370
    30
100
AcDbLine
 10
113.7688930212628
 20
140.361363225404
 30
0.0
 11
129.1172612613627
 21
149.2227477604472
 31
0.0
  0
LINE
  5
65D
330
1F
100
AcDbEntity
  8
実線
370
    30
100
AcDbLine
 10
113.7688930212628
 20
140.361363225404
 30
0.0
 11
99.9114438197341
 21
132.3607611986198
 31
0.0
  0
DIMENSION
  5
65F
102
{ACAD_XDICTIONARY
360
660
102
}
330
1F
100
AcDbEntity
  8
文字
100
AcDbDimension
280
     0
  2
*D46
 10
151.2287296568923
 20
92.09341403297283
 30
0.0
 11
149.0730338860874
 21
142.0934140329728
 31
0.0
 70
    32
  1
125
 71
     5
 42
100.0
 73
     0
 74
     0
 75
     0
  3
ISO-25
100
AcDbAlignedDimension
 13
118.7688930212628
 23
192.0934140329728
 33
0.0
 14
123.7188930212628
 24
92.09341403297283
 34
0.0
 50
90.0
100
AcDbRotatedDimension
  0
MTEXT
  5
6A6
330
1F
100
AcDbEntity
  8
文字・寸法線
 62
     0
100
AcDbMText
 10
94.00072015634096
 20
222.4526833668353
 30
0.0
 40
6.0
 41
0.0
 46
6.0
 71
     9
 72
     1
  1
{\fＭＳ ゴシック|b0|i0|c0|p0;S-D1 M12X125}
 73
     1
 44
1.0
1001
ACAD
1000
ACAD_MTEXT_DEFINED_HEIGHT_BEGIN
1070
    46
1040
6.0
1000
ACAD_MTEXT_DEFINED_HEIGHT_END
  0
DIMENSION
  5
6E2
102
{ACAD_REACTORS
330
6E4
102
}
102
{ACAD_XDICTIONARY
360
6E3
102
}
330
1F
100
AcDbEntity
  8
文字
100
AcDbDimension
280
     0
  2
*D49
 10
269.337305339716
 20
60.21377688971639
 30
0.0
 11
259.8543271682763
 21
62.37027688971639
 31
0.0
 70
    32
  1
19
 71
     5
 42
18.96595634287922
 73
     0
 74
     0
 75
     0
  3
ISO-25
100
AcDbAlignedDimension
 13
250.3713489968367
 23
97.40224514475726
 33
0.0
 14
269.337305339716
 24
97.40224514475726
 34
0.0
100
AcDbRotatedDimension
  0
CIRCLE
  5
6E5
330
1F
100
AcDbEntity
  8
実線
370
    20
100
AcDbCircle
 10
259.8543271682762
 20
102.8772451447573
 30
0.0
 40
5.15
  0
CIRCLE
  5
6E6
330
1F
100
AcDbEntity
  8
実線
100
AcDbCircle
 10
259.8543271682762
 20
102.8772451447573
 30
0.0
 40
6.0
  0
LWPOLYLINE
  5
6E7
102
{ACAD_REACTORS
330
6E4
102
}
330
1F
100
AcDbEntity
  8
実線
100
AcDbPolyline
 90
        6
 70
     1
 43
0.0
 10
250.3713489968367
 20
97.40224514475726
 10
259.8543271682762
 20
91.92724514475726
 10
269.337305339716
 20
97.40224514475726
 10
269.337305339716
 20
108.3522451447572
 10
259.8543271682763
 20
113.8272451447572
 10
250.3713489968367
 20
108.3522451447573
  0
ENDSEC
  0
SECTION
  2
OBJECTS
  0
DICTIONARY
  5
C
330
0
100
AcDbDictionary
281
     1
  3
ACAD_COLOR
350
73
  3
ACAD_DETAILVIEWSTYLE
350
122
  3
ACAD_GROUP
350
D
  3
ACAD_IMAGE_VARS
350
DC
  3
ACAD_LAYOUT
350
1A
  3
ACAD_MATERIAL
350
72
  3
ACAD_MLEADERSTYLE
350
B5
  3
ACAD_MLINESTYLE
350
17
  3
ACAD_PLOTSETTINGS
350
19
  3
ACAD_PLOTSTYLENAME
350
E
  3
ACAD_SCALELIST
350
B6
  3
ACAD_SECTIONVIEWSTYLE
350
123
  3
ACAD_TABLESTYLE
350
86
  3
ACAD_VISUALSTYLE
350
99
  3
ACDB_RECOMPOSE_DATA
350
6F6
  3
AcDbVariableDictionary
350
66
  3
APPDATA
350
E1
  0
SUN
  5
ED
330
94
100
AcDbSun
 90
        1
290
     0
 63
     7
421
 16777215
 40
1.0
291
     1
 91
  2455826
 92
 54000000
292
     0
 70
     2
 71
   256
280
     1
  0
DICTIONARY
  5
233
330
232
100
AcDbDictionary
280
     1
281
     1
  3
ACAD_DIMASSOC
360
234
  0
DICTIONARY
  5
236
330
235
100
AcDbDictionary
280
     1
281
     1
  0
DICTIONARY
  5
239
330
238
100
AcDbDictionary
280
     1
281
     1
  3
ACAD_DIMASSOC
360
23A
  0
DICTIONARY
  5
23C
330
23B
100
AcDbDictionary
280
     1
281
     1
  3
ACAD_DIMASSOC
360
23D
  0
DICTIONARY
  5
23F
330
23E
100
AcDbDictionary
280
     1
281
     1
  3
ACAD_DIMASSOC
360
240
  0
DICTIONARY
  5
24A
330
249
100
AcDbDictionary
280
     1
281
     1
  0
DICTIONARY
  5
24D
330
24C
100
AcDbDictionary
280
     1
281
     1
  3
ACAD_DIMASSOC
360
24E
  0
DICTIONARY
  5
250
330
24F
100
AcDbDictionary
280
     1
281
     1
  3
ACAD_DIMASSOC
360
251
  0
DICTIONARY
  5
264
330
263
100
AcDbDictionary
280
     1
281
     1
  3
ACAD_DIMASSOC
360
265
  0
DICTIONARY
  5
660
330
65F
100
AcDbDictionary
280
     1
281
     1
  0
DICTIONARY
  5
6E3
330
6E2
100
AcDbDictionary
280
     1
281
     1
  3
ACAD_DIMASSOC
360
6E4
  0
DICTIONARY
  5
73
102
{ACAD_REACTORS
330
C
102
}
330
C
100
AcDbDictionary
281
     1
  0
DICTIONARY
  5
122
102
{ACAD_REACTORS
330
C
102
}
330
C
100
AcDbDictionary
281
     1
  0
DICTIONARY
  5
D
102
{ACAD_REACTORS
330
C
102
}
330
C
100
AcDbDictionary
281
     1
  0
RASTERVARIABLES
  5
DC
102
{ACAD_REACTORS
330
C
102
}
330
C
100
AcDbRasterVariables
 90
        0
 70
     1
 71
     1
 72
     5
  0
DICTIONARY
  5
1A
102
{ACAD_REACTORS
330
C
102
}
330
C
100
AcDbDictionary
281
     1
  3
Model
350
22
  3
Sheet1
350
59
  3
Sheet2
350
5E
  0
DICTIONARY
  5
72
102
{ACAD_REACTORS
330
C
102
}
330
C
100
AcDbDictionary
281
     1
  3
ByBlock
350
E2
  3
ByLayer
350
96
  3
Global
350
98
  0
DICTIONARY
  5
B5
102
{ACAD_REACTORS
330
C
102
}
330
C
100
AcDbDictionary
281
     1
  0
DICTIONARY
  5
17
102
{ACAD_REACTORS
330
C
102
}
330
C
100
AcDbDictionary
281
     1
  3
Standard
350
18
  0
DICTIONARY
  5
19
102
{ACAD_REACTORS
330
C
102
}
330
C
100
AcDbDictionary
281
     1
  0
ACDBDICTIONARYWDFLT
  5
E
102
{ACAD_REACTORS
330
C
102
}
330
C
100
AcDbDictionary
281
     1
  3
Normal
350
F
100
AcDbDictionaryWithDefault
340
F
  0
DICTIONARY
  5
B6
102
{ACAD_REACTORS
330
C
102
}
330
C
100
AcDbDictionary
281
     1
  3
A0
350
B7
  3
A1
350
B8
  3
A2
350
B9
  3
A3
350
BA
  3
A4
350
BB
  3
A5
350
BC
  3
A6
350
BD
  3
A7
350
BE
  3
A8
350
BF
  3
A9
350
C0
  3
B0
350
C1
  3
B1
350
C2
  3
B2
350
C3
  3
B3
350
C4
  3
B4
350
C5
  3
B5
350
C6
  3
B6
350
C7
  3
B7
350
C8
  3
B8
350
C9
  3
B9
350
CA
  3
C0
350
CB
  3
C1
350
CC
  3
C2
350
CD
  3
C3
350
CE
  3
C4
350
CF
  3
C5
350
D0
  3
C6
350
D1
  3
C7
350
D2
  3
C8
350
D3
  3
C9
350
D4
  3
D0
350
D5
  3
D1
350
D6
  3
D2
350
D7
  0
DICTIONARY
  5
123
102
{ACAD_REACTORS
330
C
102
}
330
C
100
AcDbDictionary
281
     1
  0
DICTIONARY
  5
86
102
{ACAD_REACTORS
330
C
102
}
330
C
100
AcDbDictionary
281
     1
  3
Standard
350
87
  0
DICTIONARY
  5
99
102
{ACAD_REACTORS
330
C
102
}
330
C
100
AcDbDictionary
281
     1
  3
2dWireframe
350
9F
  3
3D Hidden
350
A1
  3
3dWireframe
350
A0
  3
Basic
350
9E
  3
Brighten
350
A5
  3
ColorChange
350
A9
  3
Conceptual
350
A2
  3
Dim
350
A4
  3
EdgeColorOff
350
E7
  3
Facepattern
350
A8
  3
Flat
350
9A
  3
FlatWithEdges
350
9B
  3
Gouraud
350
9C
  3
GouraudWithEdges
350
9D
  3
Hidden
350
E4
  3
JitterOff
350
E5
  3
Linepattern
350
A7
  3
OverhangOff
350
E6
  3
Realistic
350
A3
  3
Shaded
350
EC
  3
Shaded with edges
350
EB
  3
Shades of Gray
350
E8
  3
Sketchy
350
E9
  3
Thicken
350
A6
  3
Wireframe
350
E3
  3
X-Ray
350
EA
  0
XRECORD
  5
6F6
102
{ACAD_REACTORS
330
C
102
}
330
C
100
AcDbXrecord
280
     1
 90
        1
330
87
  0
DICTIONARY
  5
66
102
{ACAD_REACTORS
330
C
102
}
330
C
100
AcDbDictionary
281
     1
  3
CANNOSCALE
350
D8
  3
CTABLESTYLE
350
89
  3
DIMASSOC
350
67
  3
HIDETEXT
350
6B
  3
LIGHTSINBLOCKS
350
DF
  3
XCLIPFRAME
350
E0
  0
DICTIONARY
  5
E1
102
{ACAD_REACTORS
330
C
102
}
330
C
100
AcDbDictionary
281
     1
  0
DIMASSOC
  5
234
102
{ACAD_REACTORS
330
233
102
}
330
233
100
AcDbDimAssoc
330
232
 90
        1
 70
     0
 71
     0
  1
AcDbOsnapPointRef
 72
     3
331
25E
 73
     2
 91
        0
 40
1.73271926823656
 10
0.0
 20
0.0
 30
0.0
 75
     0
  0
DIMASSOC
  5
23A
102
{ACAD_REACTORS
330
239
102
}
330
239
100
AcDbDimAssoc
330
238
 90
        2
 70
     0
 71
     0
  1
AcDbOsnapPointRef
 72
     1
331
245
 73
     2
 91
        0
 40
1.0
 10
0.0
 20
0.0
 30
2.000000000000000E+50
 75
     0
  0
DIMASSOC
  5
23D
102
{ACAD_REACTORS
330
23C
102
}
330
23C
100
AcDbDimAssoc
330
23B
 90
        3
 70
     0
 71
     0
  1
AcDbOsnapPointRef
 72
     6
331
247
 73
     2
 91
        0
 40
0.0631278089204917
 10
0.0
 20
0.0
 30
0.0
332
25C
 74
     2
 92
        0
 75
     0
  1
AcDbOsnapPointRef
 72
     1
331
246
 73
     2
 91
        0
 40
1.0
 10
0.0
 20
0.0
 30
2.000000000000000E+50
 75
     0
  0
DIMASSOC
  5
240
102
{ACAD_REACTORS
330
23F
102
}
330
23F
100
AcDbDimAssoc
330
23E
 90
        3
 70
     0
 71
     0
  1
AcDbOsnapPointRef
 72
    13
331
241
 73
     2
 91
        0
 40
4.71238898038469
 10
0.0
 20
0.0
 30
2.000000000000000E+50
 75
     0
  1
AcDbOsnapPointRef
 72
     6
331
244
 73
     2
 91
        0
 40
0.0000000000000052
 10
0.0
 20
0.0
 30
0.0
332
241
 74
     2
 92
        0
 75
     0
  0
DIMASSOC
  5
24E
102
{ACAD_REACTORS
330
24D
102
}
330
24D
100
AcDbDimAssoc
330
24C
 90
        1
 70
     0
 71
     0
  1
AcDbOsnapPointRef
 72
    13
331
252
 73
     2
 91
        0
 40
0.0
 10
0.0
 20
0.0
 30
2.000000000000000E+50
 75
     0
  0
DIMASSOC
  5
251
102
{ACAD_REACTORS
330
250
102
}
330
250
100
AcDbDimAssoc
330
24F
 90
        3
 70
     0
 71
     0
  1
AcDbOsnapPointRef
 72
     1
331
254
 73
     2
 91
        0
 40
1.0
 10
0.0
 20
0.0
 30
2.000000000000000E+50
 75
     0
  1
AcDbOsnapPointRef
 72
    13
331
254
 73
     2
 91
        0
 40
0.0
 10
0.0
 20
0.0
 30
2.000000000000000E+50
 75
     0
  0
DIMASSOC
  5
265
102
{ACAD_REACTORS
330
264
102
}
330
264
100
AcDbDimAssoc
330
263
 90
        1
 70
     0
 71
     0
  1
AcDbOsnapPointRef
 72
     1
331
255
 73
     2
 91
        0
 40
1.0
 10
0.0
 20
0.0
 30
2.000000000000000E+50
 75
     0
  0
DIMASSOC
  5
6E4
102
{ACAD_REACTORS
330
6E3
102
}
330
6E3
100
AcDbDimAssoc
330
6E2
 90
        3
 70
     0
 71
     0
  1
AcDbOsnapPointRef
 72
    13
331
6E7
 73
     2
 91
        1
 40
0.0
 10
0.0
 20
0.0
 30
2.000000000000000E+50
 75
     0
  1
AcDbOsnapPointRef
 72
     1
331
6E7
 73
     2
 91
        2
 40
1.0
 10
0.0
 20
0.0
 30
2.000000000000000E+50
 75
     0
  0
LAYOUT
  5
22
102
{ACAD_REACTORS
330
1A
102
}
330
1A
100
AcDbPlotSettings
  1

  2
none_device
  4
ANSI_A_(8.50_x_11.00_Inches)
  6

 40
6.35
 41
19.05
 42
6.35
 43
19.05
 44
215.9
 45
279.4
 46
11.11250000000003
 47
0.0000000000000142
 48
0.0
 49
0.0
140
0.0
141
0.0
142
1.0
143
1.263157894736842
 70
 11444
 72
     0
 73
     1
 74
     1
  7
monochrome.ctb
 75
     0
 76
     0
 77
     2
 78
   300
147
0.7916666666666665
148
-702.8076765758875
149
-496.2830551296954
100
AcDbLayout
  1
Model
 70
     1
 71
     0
 10
0.0
 20
0.0
 11
12.0
 21
9.0
 12
0.0
 22
0.0
 32
0.0
 14
28.15201959047172
 24
42.80129815722236
 34
0.0
 15
304.6000705113507
 25
228.4526833668353
 35
0.0
146
0.0
 13
0.0
 23
0.0
 33
0.0
 16
1.0
 26
0.0
 36
0.0
 17
0.0
 27
1.0
 37
0.0
 76
     0
330
1F
331
94
  0
LAYOUT
  5
59
102
{ACAD_REACTORS
330
1A
102
}
330
1A
100
AcDbPlotSettings
  1

  2
None
  4

  6

 40
0.0
 41
0.0
 42
0.0
 43
0.0
 44
0.0
 45
0.0
 46
0.0
 47
0.0
 48
0.0
 49
0.0
140
0.0
141
0.0
142
1.0
143
1.0
 70
   688
 72
     0
 73
     0
 74
     5
  7

 75
    16
 76
     0
 77
     2
 78
   300
147
1.0
148
0.0
149
0.0
100
AcDbLayout
  1
Sheet1
 70
     1
 71
     1
 10
0.0
 20
0.0
 11
12.0
 21
9.0
 12
0.0
 22
0.0
 32
0.0
 14
0.0
 24
0.0
 34
0.0
 15
0.0
 25
0.0
 35
0.0
146
0.0
 13
0.0
 23
0.0
 33
0.0
 16
1.0
 26
0.0
 36
0.0
 17
0.0
 27
1.0
 37
0.0
 76
     0
330
58
  0
LAYOUT
  5
5E
102
{ACAD_REACTORS
330
1A
102
}
330
1A
100
AcDbPlotSettings
  1

  2
None
  4

  6

 40
0.0
 41
0.0
 42
0.0
 43
0.0
 44
0.0
 45
0.0
 46
0.0
 47
0.0
 48
0.0
 49
0.0
140
0.0
141
0.0
142
1.0
143
1.0
 70
   688
 72
     0
 73
     0
 74
     5
  7

 75
    16
 76
     0
 77
     2
 78
   300
147
1.0
148
0.0
149
0.0
100
AcDbLayout
  1
Sheet2
 70
     1
 71
     2
 10
0.0
 20
0.0
 11
12.0
 21
9.0
 12
0.0
 22
0.0
 32
0.0
 14
0.0
 24
0.0
 34
0.0
 15
0.0
 25
0.0
 35
0.0
146
0.0
 13
0.0
 23
0.0
 33
0.0
 16
1.0
 26
0.0
 36
0.0
 17
0.0
 27
1.0
 37
0.0
 76
     0
330
5D
  0
MATERIAL
  5
E2
102
{ACAD_REACTORS
330
72
102
}
330
72
100
AcDbMaterial
  1
ByBlock
 72
     1
 94
      127
  0
MATERIAL
  5
96
102
{ACAD_REACTORS
330
72
102
}
330
72
100
AcDbMaterial
  1
ByLayer
 72
     1
 94
       63
  0
MATERIAL
  5
98
102
{ACAD_REACTORS
330
72
102
}
330
72
100
AcDbMaterial
  1
Global
 72
     1
 94
       63
  0
MLINESTYLE
  5
18
102
{ACAD_REACTORS
330
17
102
}
330
17
100
AcDbMlineStyle
  2
STANDARD
 70
     0
  3

 62
   256
 51
90.0
 52
90.0
 71
     2
 49
0.5
 62
   256
  6
BYLAYER
 49
-0.5
 62
   256
  6
BYLAYER
  0
ACDBPLACEHOLDER
  5
F
102
{ACAD_REACTORS
330
E
102
}
330
E
  0
SCALE
  5
B7
102
{ACAD_REACTORS
330
B6
102
}
330
B6
100
AcDbScale
 70
     0
300
1:1
140
1.0
141
1.0
290
     1
  0
SCALE
  5
B8
102
{ACAD_REACTORS
330
B6
102
}
330
B6
100
AcDbScale
 70
     0
300
1:2
140
1.0
141
2.0
290
     0
  0
SCALE
  5
B9
102
{ACAD_REACTORS
330
B6
102
}
330
B6
100
AcDbScale
 70
     0
300
1:4
140
1.0
141
4.0
290
     0
  0
SCALE
  5
BA
102
{ACAD_REACTORS
330
B6
102
}
330
B6
100
AcDbScale
 70
     0
300
1:5
140
1.0
141
5.0
290
     0
  0
SCALE
  5
BB
102
{ACAD_REACTORS
330
B6
102
}
330
B6
100
AcDbScale
 70
     0
300
1:8
140
1.0
141
8.0
290
     0
  0
SCALE
  5
BC
102
{ACAD_REACTORS
330
B6
102
}
330
B6
100
AcDbScale
 70
     0
300
1:10
140
1.0
141
10.0
290
     0
  0
SCALE
  5
BD
102
{ACAD_REACTORS
330
B6
102
}
330
B6
100
AcDbScale
 70
     0
300
1:16
140
1.0
141
16.0
290
     0
  0
SCALE
  5
BE
102
{ACAD_REACTORS
330
B6
102
}
330
B6
100
AcDbScale
 70
     0
300
1:20
140
1.0
141
20.0
290
     0
  0
SCALE
  5
BF
102
{ACAD_REACTORS
330
B6
102
}
330
B6
100
AcDbScale
 70
     0
300
1:30
140
1.0
141
30.0
290
     0
  0
SCALE
  5
C0
102
{ACAD_REACTORS
330
B6
102
}
330
B6
100
AcDbScale
 70
     0
300
1:40
140
1.0
141
40.0
290
     0
  0
SCALE
  5
C1
102
{ACAD_REACTORS
330
B6
102
}
330
B6
100
AcDbScale
 70
     0
300
1:50
140
1.0
141
50.0
290
     0
  0
SCALE
  5
C2
102
{ACAD_REACTORS
330
B6
102
}
330
B6
100
AcDbScale
 70
     0
300
1:100
140
1.0
141
100.0
290
     0
  0
SCALE
  5
C3
102
{ACAD_REACTORS
330
B6
102
}
330
B6
100
AcDbScale
 70
     0
300
2:1
140
2.0
141
1.0
290
     0
  0
SCALE
  5
C4
102
{ACAD_REACTORS
330
B6
102
}
330
B6
100
AcDbScale
 70
     0
300
4:1
140
4.0
141
1.0
290
     0
  0
SCALE
  5
C5
102
{ACAD_REACTORS
330
B6
102
}
330
B6
100
AcDbScale
 70
     0
300
8:1
140
8.0
141
1.0
290
     0
  0
SCALE
  5
C6
102
{ACAD_REACTORS
330
B6
102
}
330
B6
100
AcDbScale
 70
     0
300
10:1
140
10.0
141
1.0
290
     0
  0
SCALE
  5
C7
102
{ACAD_REACTORS
330
B6
102
}
330
B6
100
AcDbScale
 70
     0
300
100:1
140
100.0
141
1.0
290
     0
  0
SCALE
  5
C8
102
{ACAD_REACTORS
330
B6
102
}
330
B6
100
AcDbScale
 70
     0
300
1/128" = 1'-0"
140
0.0078125
141
12.0
290
     0
  0
SCALE
  5
C9
102
{ACAD_REACTORS
330
B6
102
}
330
B6
100
AcDbScale
 70
     0
300
1/64" = 1'-0"
140
0.015625
141
12.0
290
     0
  0
SCALE
  5
CA
102
{ACAD_REACTORS
330
B6
102
}
330
B6
100
AcDbScale
 70
     0
300
1/32" = 1'-0"
140
0.03125
141
12.0
290
     0
  0
SCALE
  5
CB
102
{ACAD_REACTORS
330
B6
102
}
330
B6
100
AcDbScale
 70
     0
300
1/16" = 1'-0"
140
0.0625
141
12.0
290
     0
  0
SCALE
  5
CC
102
{ACAD_REACTORS
330
B6
102
}
330
B6
100
AcDbScale
 70
     0
300
3/32" = 1'-0"
140
0.09375
141
12.0
290
     0
  0
SCALE
  5
CD
102
{ACAD_REACTORS
330
B6
102
}
330
B6
100
AcDbScale
 70
     0
300
1/8" = 1'-0"
140
0.125
141
12.0
290
     0
  0
SCALE
  5
CE
102
{ACAD_REACTORS
330
B6
102
}
330
B6
100
AcDbScale
 70
     0
300
3/16" = 1'-0"
140
0.1875
141
12.0
290
     0
  0
SCALE
  5
CF
102
{ACAD_REACTORS
330
B6
102
}
330
B6
100
AcDbScale
 70
     0
300
1/4" = 1'-0"
140
0.25
141
12.0
290
     0
  0
SCALE
  5
D0
102
{ACAD_REACTORS
330
B6
102
}
330
B6
100
AcDbScale
 70
     0
300
3/8" = 1'-0"
140
0.375
141
12.0
290
     0
  0
SCALE
  5
D1
102
{ACAD_REACTORS
330
B6
102
}
330
B6
100
AcDbScale
 70
     0
300
1/2" = 1'-0"
140
0.5
141
12.0
290
     0
  0
SCALE
  5
D2
102
{ACAD_REACTORS
330
B6
102
}
330
B6
100
AcDbScale
 70
     0
300
3/4" = 1'-0"
140
0.75
141
12.0
290
     0
  0
SCALE
  5
D3
102
{ACAD_REACTORS
330
B6
102
}
330
B6
100
AcDbScale
 70
     0
300
1" = 1'-0"
140
1.0
141
12.0
290
     0
  0
SCALE
  5
D4
102
{ACAD_REACTORS
330
B6
102
}
330
B6
100
AcDbScale
 70
     0
300
1-1/2" = 1'-0"
140
1.5
141
12.0
290
     0
  0
SCALE
  5
D5
102
{ACAD_REACTORS
330
B6
102
}
330
B6
100
AcDbScale
 70
     0
300
3" = 1'-0"
140
3.0
141
12.0
290
     0
  0
SCALE
  5
D6
102
{ACAD_REACTORS
330
B6
102
}
330
B6
100
AcDbScale
 70
     0
300
6" = 1'-0"
140
6.0
141
12.0
290
     0
  0
SCALE
  5
D7
102
{ACAD_REACTORS
330
B6
102
}
330
B6
100
AcDbScale
 70
     0
300
1'-0" = 1'-0"
140
12.0
141
12.0
290
     0
  0
TABLESTYLE
  5
87
102
{ACAD_REACTORS
330
86
102
}
102
{ACAD_XDICTIONARY
360
6F4
102
}
330
86
100
AcDbTableStyle
  3
Standard
 70
     0
 71
     0
 40
0.06
 41
0.06
280
     0
281
     0
  7
Standard
140
0.18
170
     2
 62
     0
 63
   257
283
     0
 90
      512
 91
        0
  1

274
    -2
284
     1
 64
     0
275
    -2
285
     1
 65
     0
276
    -2
286
     1
 66
     0
277
    -2
287
     1
 67
     0
278
    -2
288
     1
 68
     0
279
    -2
289
     1
 69
     0
  7
Standard
140
0.25
170
     5
 62
     0
 63
   257
283
     0
 90
      512
 91
        0
  1

274
    -2
284
     1
 64
     0
275
    -2
285
     1
 65
     0
276
    -2
286
     1
 66
     0
277
    -2
287
     1
 67
     0
278
    -2
288
     1
 68
     0
279
    -2
289
     1
 69
     0
  7
Standard
140
0.18
170
     5
 62
     0
 63
   257
283
     0
 90
      512
 91
        0
  1

274
    -2
284
     1
 64
     0
275
    -2
285
     1
 65
     0
276
    -2
286
     1
 66
     0
277
    -2
287
     1
 67
     0
278
    -2
288
     1
 68
     0
279
    -2
289
     1
 69
     0
  0
VISUALSTYLE
  5
9F
102
{ACAD_REACTORS
330
99
102
}
330
99
100
AcDbVisualStyle
  2
2dWireframe
 70
     4
177
     3
291
     0
 70
    58
 90
        0
176
     1
 90
        2
176
     1
 90
        1
176
     1
 90
        0
176
     1
 40
-0.6
176
     1
 40
-30.0
176
     1
 62
     7
420
 16777215
176
     1
 90
        1
176
     1
 90
        4
176
     1
 62
     7
176
     1
 62
   257
176
     1
 90
        1
176
     1
 90
        1
176
     1
 40
1.0
176
     1
 90
        0
176
     1
 62
   257
176
     1
 40
1.0
176
     1
 90
        1
176
     1
 90
        6
176
     1
 90
        2
176
     1
 62
     7
176
     1
 90
        5
176
     1
 90
        0
176
     1
 90
        0
176
     1
290
     0
176
     1
 90
        1
176
     1
 40
0.0
176
     1
 90
        0
176
     1
290
     1
176
     1
290
     1
176
     1
290
     0
176
     1
290
     0
176
     1
290
     0
176
     1
290
     0
176
     1
290
     0
176
     1
290
     0
176
     1
290
     0
176
     1
 90
       50
176
     1
 40
0.0
176
     1
 40
1.0
176
     1
 90
        0
176
     1
 62
    18
420
        0
176
     1
 90
       50
176
     1
 90
        3
176
     1
 62
     5
420
      255
176
     1
290
     0
176
     1
 90
       50
176
     1
 90
       50
176
     1
 90
       50
176
     1
290
     0
176
     1
 90
       50
176
     1
 62
   256
176
     0
 40
1.0
176
     0
 90
        2
176
     1
  1
strokes_ogs.tif
176
     1
290
     0
176
     1
 40
1.0
176
     1
 40
1.0
176
     1
  0
VISUALSTYLE
  5
A1
102
{ACAD_REACTORS
330
99
102
}
330
99
100
AcDbVisualStyle
  2
3D Hidden
 70
     6
177
     3
291
     0
 70
    58
 90
        1
176
     1
 90
        2
176
     1
 90
        2
176
     1
 90
        0
176
     1
 40
-0.6
176
     1
 40
-30.0
176
     1
 62
     7
420
 16777215
176
     1
 90
        2
176
     1
 90
        2
176
     1
 62
     7
176
     1
 62
   257
176
     1
 90
        2
176
     1
 90
        1
176
     1
 40
40.0
176
     1
 90
        0
176
     1
 62
   257
176
     1
 40
1.0
176
     1
 90
        1
176
     1
 90
        6
176
     1
 90
        2
176
     1
 62
     7
176
     1
 90
        3
176
     1
 90
        0
176
     1
 90
        0
176
     1
290
     0
176
     1
 90
        1
176
     1
 40
0.0
176
     1
 90
        0
176
     1
290
     0
176
     1
290
     1
176
     1
290
     1
176
     1
290
     0
176
     1
290
     0
176
     1
290
     0
176
     1
290
     0
176
     1
290
     0
176
     1
290
     0
176
     1
 90
       50
176
     1
 40
0.0
176
     1
 40
1.0
176
     1
 90
        0
176
     1
 62
    18
420
        0
176
     1
 90
       50
176
     1
 90
        3
176
     1
 62
     5
420
      255
176
     1
290
     0
176
     1
 90
       50
176
     1
 90
       50
176
     1
 90
       50
176
     1
290
     0
176
     1
 90
       50
176
     1
 62
   256
176
     0
 40
1.0
176
     0
 90
        2
176
     1
  1
strokes_ogs.tif
176
     1
290
     0
176
     1
 40
1.0
176
     1
 40
1.0
176
     1
  0
VISUALSTYLE
  5
A0
102
{ACAD_REACTORS
330
99
102
}
330
99
100
AcDbVisualStyle
  2
3dWireframe
 70
     5
177
     3
291
     0
 70
    58
 90
        0
176
     1
 90
        2
176
     1
 90
        1
176
     1
 90
        0
176
     1
 40
-0.6
176
     1
 40
-30.0
176
     1
 62
     7
420
 16777215
176
     1
 90
        1
176
     1
 90
        4
176
     1
 62
     7
176
     1
 62
   257
176
     1
 90
        1
176
     1
 90
        1
176
     1
 40
1.0
176
     1
 90
        0
176
     1
 62
   257
176
     1
 40
1.0
176
     1
 90
        1
176
     1
 90
        6
176
     1
 90
        2
176
     1
 62
     7
176
     1
 90
        5
176
     1
 90
        0
176
     1
 90
        0
176
     1
290
     0
176
     1
 90
        1
176
     1
 40
0.0
176
     1
 90
        0
176
     1
290
     0
176
     1
290
     1
176
     1
290
     1
176
     1
290
     0
176
     1
290
     0
176
     1
290
     0
176
     1
290
     0
176
     1
290
     0
176
     1
290
     0
176
     1
 90
       50
176
     1
 40
0.0
176
     1
 40
1.0
176
     1
 90
        0
176
     1
 62
    18
420
        0
176
     1
 90
       50
176
     1
 90
        3
176
     1
 62
     5
420
      255
176
     1
290
     0
176
     1
 90
       50
176
     1
 90
       50
176
     1
 90
       50
176
     1
290
     0
176
     1
 90
       50
176
     1
 62
   256
176
     0
 40
1.0
176
     0
 90
        2
176
     1
  1
strokes_ogs.tif
176
     1
290
     0
176
     1
 40
1.0
176
     1
 40
1.0
176
     1
  0
VISUALSTYLE
  5
9E
102
{ACAD_REACTORS
330
99
102
}
330
99
100
AcDbVisualStyle
  2
Basic
 70
     7
177
     3
291
     1
 70
    58
 90
        1
176
     1
 90
        0
176
     1
 90
        1
176
     1
 90
        0
176
     1
 40
-0.6
176
     1
 40
-30.0
176
     1
 62
     7
420
 16777215
176
     1
 90
        0
176
     1
 90
        4
176
     1
 62
     7
176
     1
 62
   257
176
     1
 90
        1
176
     1
 90
        1
176
     1
 40
1.0
176
     1
 90
        8
176
     1
 62
     7
176
     1
 40
1.0
176
     1
 90
        1
176
     1
 90
        6
176
     1
 90
        2
176
     1
 62
     7
176
     1
 90
        5
176
     1
 90
        0
176
     1
 90
        0
176
     1
290
     0
176
     1
 90
        1
176
     1
 40
0.0
176
     1
 90
        0
176
     1
290
     0
176
     1
290
     1
176
     1
290
     1
176
     1
290
     0
176
     1
290
     0
176
     1
290
     0
176
     1
290
     0
176
     1
290
     0
176
     1
290
     0
176
     1
 90
       50
176
     1
 40
0.0
176
     1
 40
1.0
176
     1
 90
        0
176
     1
 62
    18
420
        0
176
     1
 90
       50
176
     1
 90
        3
176
     1
 62
     5
420
      255
176
     1
290
     0
176
     1
 90
       50
176
     1
 90
       50
176
     1
 90
       50
176
     1
290
     0
176
     1
 90
       50
176
     1
 62
   256
176
     0
 40
1.0
176
     0
 90
        2
176
     1
  1
strokes_ogs.tif
176
     1
290
     0
176
     1
 40
1.0
176
     1
 40
1.0
176
     1
  0
VISUALSTYLE
  5
A5
102
{ACAD_REACTORS
330
99
102
}
330
99
100
AcDbVisualStyle
  2
Brighten
 70
    12
177
     3
291
     1
 70
    58
 90
        2
176
     1
 90
        2
176
     1
 90
        1
176
     1
 90
        0
176
     1
 40
-0.6
176
     1
 40
-30.0
176
     1
 62
     7
420
 16777215
176
     1
 90
        1
176
     1
 90
        4
176
     1
 62
     7
176
     1
 62
   257
176
     1
 90
        1
176
     1
 90
        1
176
     1
 40
1.0
176
     1
 90
        8
176
     1
 62
     7
176
     1
 40
1.0
176
     1
 90
        1
176
     1
 90
        6
176
     1
 90
        2
176
     1
 62
     7
176
     1
 90
        5
176
     1
 90
        0
176
     1
 90
        0
176
     1
290
     0
176
     1
 90
        1
176
     1
 40
50.0
176
     1
 90
        0
176
     1
290
     0
176
     1
290
     1
176
     1
290
     1
176
     1
290
     0
176
     1
290
     0
176
     1
290
     0
176
     1
290
     0
176
     1
290
     0
176
     1
290
     0
176
     1
 90
       50
176
     1
 40
0.0
176
     1
 40
1.0
176
     1
 90
        0
176
     1
 62
    18
420
        0
176
     1
 90
       50
176
     1
 90
        3
176
     1
 62
     5
420
      255
176
     1
290
     0
176
     1
 90
       50
176
     1
 90
       50
176
     1
 90
       50
176
     1
290
     0
176
     1
 90
       50
176
     1
 62
   256
176
     0
 40
1.0
176
     0
 90
        2
176
     1
  1
strokes_ogs.tif
176
     1
290
     0
176
     1
 40
1.0
176
     1
 40
1.0
176
     1
  0
VISUALSTYLE
  5
A9
102
{ACAD_REACTORS
330
99
102
}
330
99
100
AcDbVisualStyle
  2
ColorChange
 70
    16
177
     3
291
     1
 70
    58
 90
        2
176
     1
 90
        2
176
     1
 90
        3
176
     1
 90
        0
176
     1
 40
-0.6
176
     1
 40
-30.0
176
     1
 62
     8
420
  8421504
176
     1
 90
        1
176
     1
 90
        4
176
     1
 62
     7
176
     1
 62
   257
176
     1
 90
        1
176
     1
 90
        1
176
     1
 40
1.0
176
     1
 90
        8
176
     1
 62
     8
420
  8421504
176
     1
 40
1.0
176
     1
 90
        1
176
     1
 90
        6
176
     1
 90
        2
176
     1
 62
     7
176
     1
 90
        5
176
     1
 90
        0
176
     1
 90
        0
176
     1
290
     0
176
     1
 90
        1
176
     1
 40
0.0
176
     1
 90
        0
176
     1
290
     0
176
     1
290
     1
176
     1
290
     1
176
     1
290
     0
176
     1
290
     0
176
     1
290
     0
176
     1
290
     0
176
     1
290
     0
176
     1
290
     0
176
     1
 90
       50
176
     1
 40
0.0
176
     1
 40
1.0
176
     1
 90
        0
176
     1
 62
    18
420
        0
176
     1
 90
       50
176
     1
 90
        3
176
     1
 62
     5
420
      255
176
     1
290
     0
176
     1
 90
       50
176
     1
 90
       50
176
     1
 90
       50
176
     1
290
     0
176
     1
 90
       50
176
     1
 62
   256
176
     0
 40
1.0
176
     0
 90
        2
176
     1
  1
strokes_ogs.tif
176
     1
290
     0
176
     1
 40
1.0
176
     1
 40
1.0
176
     1
  0
VISUALSTYLE
  5
A2
102
{ACAD_REACTORS
330
99
102
}
330
99
100
AcDbVisualStyle
  2
Conceptual
 70
     9
177
     3
291
     0
 70
    58
 90
        3
176
     1
 90
        2
176
     1
 90
        1
176
     1
 90
        0
176
     1
 40
-0.6
176
     1
 40
-30.0
176
     1
 62
     7
420
 16777215
176
     1
 90
        2
176
     1
 90
        2
176
     1
 62
     7
176
     1
 62
   257
176
     1
 90
        1
176
     1
 90
        1
176
     1
 40
40.0
176
     1
 90
        8
176
     1
 62
     7
176
     1
 40
1.0
176
     1
 90
        1
176
     1
 90
        6
176
     1
 90
        2
176
     1
 62
     7
176
     1
 90
        3
176
     1
 90
        0
176
     1
 90
        0
176
     1
290
     0
176
     1
 90
        1
176
     1
 40
0.0
176
     1
 90
        0
176
     1
290
     0
176
     1
290
     1
176
     1
290
     1
176
     1
290
     0
176
     1
290
     0
176
     1
290
     0
176
     1
290
     0
176
     1
290
     0
176
     1
290
     0
176
     1
 90
       50
176
     1
 40
0.0
176
     1
 40
1.0
176
     1
 90
        0
176
     1
 62
    18
420
        0
176
     1
 90
       50
176
     1
 90
        3
176
     1
 62
     5
420
      255
176
     1
290
     0
176
     1
 90
       50
176
     1
 90
       50
176
     1
 90
       50
176
     1
290
     0
176
     1
 90
       50
176
     1
 62
   256
176
     0
 40
1.0
176
     0
 90
        2
176
     1
  1
strokes_ogs.tif
176
     1
290
     0
176
     1
 40
1.0
176
     1
 40
1.0
176
     1
  0
VISUALSTYLE
  5
A4
102
{ACAD_REACTORS
330
99
102
}
330
99
100
AcDbVisualStyle
  2
Dim
 70
    11
177
     3
291
     1
 70
    58
 90
        2
176
     1
 90
        2
176
     1
 90
        1
176
     1
 90
        0
176
     1
 40
-0.6
176
     1
 40
-30.0
176
     1
 62
     7
420
 16777215
176
     1
 90
        1
176
     1
 90
        4
176
     1
 62
     7
176
     1
 62
   257
176
     1
 90
        1
176
     1
 90
        1
176
     1
 40
1.0
176
     1
 90
        8
176
     1
 62
     7
176
     1
 40
1.0
176
     1
 90
        1
176
     1
 90
        6
176
     1
 90
        2
176
     1
 62
     7
176
     1
 90
        5
176
     1
 90
        0
176
     1
 90
        0
176
     1
290
     0
176
     1
 90
        1
176
     1
 40
-50.0
176
     1
 90
        0
176
     1
290
     0
176
     1
290
     1
176
     1
290
     1
176
     1
290
     0
176
     1
290
     0
176
     1
290
     0
176
     1
290
     0
176
     1
290
     0
176
     1
290
     0
176
     1
 90
       50
176
     1
 40
0.0
176
     1
 40
1.0
176
     1
 90
        0
176
     1
 62
    18
420
        0
176
     1
 90
       50
176
     1
 90
        3
176
     1
 62
     5
420
      255
176
     1
290
     0
176
     1
 90
       50
176
     1
 90
       50
176
     1
 90
       50
176
     1
290
     0
176
     1
 90
       50
176
     1
 62
   256
176
     0
 40
1.0
176
     0
 90
        2
176
     1
  1
strokes_ogs.tif
176
     1
290
     0
176
     1
 40
1.0
176
     1
 40
1.0
176
     1
  0
VISUALSTYLE
  5
E7
102
{ACAD_REACTORS
330
99
102
}
330
99
100
AcDbVisualStyle
  2
EdgeColorOff
 70
    22
177
     3
291
     1
 70
    58
 90
        2
176
     0
 90
        2
176
     0
 90
        0
176
     0
 90
        0
176
     0
 40
0.6
176
     0
 40
30.0
176
     0
 62
     7
420
 16777215
176
     0
 90
        1
176
     0
 90
        4
176
     0
 62
     7
176
     0
 62
   257
176
     0
 90
        1
176
     0
 90
        1
176
     0
 40
1.0
176
     0
 90
        8
176
     2
 62
     7
176
     0
 40
1.0
176
     0
 90
        1
176
     0
 90
        6
176
     0
 90
        2
176
     0
 62
     7
176
     0
 90
        5
176
     0
 90
        0
176
     0
 90
        0
176
     0
290
     0
176
     0
 90
        1
176
     0
 40
0.0
176
     0
 90
        0
176
     0
290
     0
176
     0
290
     1
176
     0
290
     1
176
     0
290
     0
176
     0
290
     0
176
     0
290
     0
176
     0
290
     0
176
     0
290
     0
176
     0
290
     0
176
     0
 90
       50
176
     0
 40
0.0
176
     0
 40
1.0
176
     0
 90
        0
176
     0
 62
    18
420
        0
176
     0
 90
       50
176
     0
 90
        3
176
     0
 62
     5
420
      255
176
     0
290
     0
176
     0
 90
       50
176
     0
 90
       50
176
     0
 90
       50
176
     0
290
     0
176
     0
 90
       50
176
     0
 62
   256
176
     0
 40
1.0
176
     0
 90
        2
176
     0
  1
strokes_ogs.tif
176
     0
290
     0
176
     0
 40
1.0
176
     0
 40
1.0
176
     0
  0
VISUALSTYLE
  5
A8
102
{ACAD_REACTORS
330
99
102
}
330
99
100
AcDbVisualStyle
  2
Facepattern
 70
    15
177
     3
291
     1
 70
    58
 90
        2
176
     1
 90
        2
176
     1
 90
        1
176
     1
 90
        0
176
     1
 40
-0.6
176
     1
 40
-30.0
176
     1
 62
     7
420
 16777215
176
     1
 90
        1
176
     1
 90
        4
176
     1
 62
     7
176
     1
 62
   257
176
     1
 90
        1
176
     1
 90
        1
176
     1
 40
1.0
176
     1
 90
        8
176
     1
 62
     7
176
     1
 40
1.0
176
     1
 90
        1
176
     1
 90
        6
176
     1
 90
        2
176
     1
 62
     7
176
     1
 90
        5
176
     1
 90
        0
176
     1
 90
        0
176
     1
290
     0
176
     1
 90
        1
176
     1
 40
0.0
176
     1
 90
        0
176
     1
290
     0
176
     1
290
     1
176
     1
290
     1
176
     1
290
     0
176
     1
290
     0
176
     1
290
     0
176
     1
290
     0
176
     1
290
     0
176
     1
290
     0
176
     1
 90
       50
176
     1
 40
0.0
176
     1
 40
1.0
176
     1
 90
        0
176
     1
 62
    18
420
        0
176
     1
 90
       50
176
     1
 90
        3
176
     1
 62
     5
420
      255
176
     1
290
     0
176
     1
 90
       50
176
     1
 90
       50
176
     1
 90
       50
176
     1
290
     0
176
     1
 90
       50
176
     1
 62
   256
176
     0
 40
1.0
176
     0
 90
        2
176
     1
  1
strokes_ogs.tif
176
     1
290
     0
176
     1
 40
1.0
176
     1
 40
1.0
176
     1
  0
VISUALSTYLE
  5
9A
102
{ACAD_REACTORS
330
99
102
}
330
99
100
AcDbVisualStyle
  2
Flat
 70
     0
177
     3
291
     1
 70
    58
 90
        2
176
     1
 90
        1
176
     1
 90
        1
176
     1
 90
        2
176
     1
 40
-0.6
176
     1
 40
30.0
176
     1
 62
     7
420
 16777215
176
     1
 90
        0
176
     1
 90
        4
176
     1
 62
     7
176
     1
 62
   257
176
     1
 90
        1
176
     1
 90
        1
176
     1
 40
1.0
176
     1
 90
        8
176
     1
 62
     7
176
     1
 40
1.0
176
     1
 90
        1
176
     1
 90
        6
176
     1
 90
        2
176
     1
 62
     7
176
     1
 90
        5
176
     1
 90
        0
176
     1
 90
        0
176
     1
290
     0
176
     1
 90
        1
176
     1
 40
0.0
176
     1
 90
        0
176
     1
290
     0
176
     1
290
     1
176
     1
290
     1
176
     1
290
     0
176
     1
290
     0
176
     1
290
     0
176
     1
290
     0
176
     1
290
     0
176
     1
290
     0
176
     1
 90
       50
176
     1
 40
0.0
176
     1
 40
1.0
176
     1
 90
        0
176
     1
 62
    18
420
        0
176
     1
 90
       50
176
     1
 90
        3
176
     1
 62
     5
420
      255
176
     1
290
     0
176
     1
 90
       50
176
     1
 90
       50
176
     1
 90
       50
176
     1
290
     0
176
     1
 90
       50
176
     1
 62
   256
176
     0
 40
1.0
176
     0
 90
        2
176
     1
  1
strokes_ogs.tif
176
     1
290
     0
176
     1
 40
1.0
176
     1
 40
1.0
176
     1
  0
VISUALSTYLE
  5
9B
102
{ACAD_REACTORS
330
99
102
}
330
99
100
AcDbVisualStyle
  2
FlatWithEdges
 70
     1
177
     3
291
     1
 70
    58
 90
        2
176
     1
 90
        1
176
     1
 90
        1
176
     1
 90
        2
176
     1
 40
-0.6
176
     1
 40
30.0
176
     1
 62
     7
420
 16777215
176
     1
 90
        1
176
     1
 90
        4
176
     1
 62
     7
176
     1
 62
   257
176
     1
 90
        1
176
     1
 90
        1
176
     1
 40
1.0
176
     1
 90
        0
176
     1
 62
   257
176
     1
 40
1.0
176
     1
 90
        1
176
     1
 90
        6
176
     1
 90
        2
176
     1
 62
     7
176
     1
 90
        5
176
     1
 90
        0
176
     1
 90
        0
176
     1
290
     0
176
     1
 90
        1
176
     1
 40
0.0
176
     1
 90
        0
176
     1
290
     0
176
     1
290
     1
176
     1
290
     1
176
     1
290
     0
176
     1
290
     0
176
     1
290
     0
176
     1
290
     0
176
     1
290
     0
176
     1
290
     0
176
     1
 90
       50
176
     1
 40
0.0
176
     1
 40
1.0
176
     1
 90
        0
176
     1
 62
    18
420
        0
176
     1
 90
       50
176
     1
 90
        3
176
     1
 62
     5
420
      255
176
     1
290
     0
176
     1
 90
       50
176
     1
 90
       50
176
     1
 90
       50
176
     1
290
     0
176
     1
 90
       50
176
     1
 62
   256
176
     0
 40
1.0
176
     0
 90
        2
176
     1
  1
strokes_ogs.tif
176
     1
290
     0
176
     1
 40
1.0
176
     1
 40
1.0
176
     1
  0
VISUALSTYLE
  5
9C
102
{ACAD_REACTORS
330
99
102
}
330
99
100
AcDbVisualStyle
  2
Gouraud
 70
     2
177
     3
291
     1
 70
    58
 90
        2
176
     1
 90
        2
176
     1
 90
        1
176
     1
 90
        2
176
     1
 40
-0.6
176
     1
 40
30.0
176
     1
 62
     7
420
 16777215
176
     1
 90
        0
176
     1
 90
        4
176
     1
 62
     7
176
     1
 62
   257
176
     1
 90
        1
176
     1
 90
        1
176
     1
 40
1.0
176
     1
 90
        0
176
     1
 62
     7
176
     1
 40
1.0
176
     1
 90
        1
176
     1
 90
        6
176
     1
 90
        2
176
     1
 62
     7
176
     1
 90
        5
176
     1
 90
        0
176
     1
 90
        0
176
     1
290
     0
176
     1
 90
        1
176
     1
 40
0.0
176
     1
 90
        0
176
     1
290
     0
176
     1
290
     1
176
     1
290
     1
176
     1
290
     0
176
     1
290
     0
176
     1
290
     0
176
     1
290
     0
176
     1
290
     0
176
     1
290
     0
176
     1
 90
       50
176
     1
 40
0.0
176
     1
 40
1.0
176
     1
 90
        0
176
     1
 62
    18
420
        0
176
     1
 90
       50
176
     1
 90
        3
176
     1
 62
     5
420
      255
176
     1
290
     0
176
     1
 90
       50
176
     1
 90
       50
176
     1
 90
       50
176
     1
290
     0
176
     1
 90
       50
176
     1
 62
   256
176
     0
 40
1.0
176
     0
 90
        2
176
     1
  1
strokes_ogs.tif
176
     1
290
     0
176
     1
 40
1.0
176
     1
 40
1.0
176
     1
  0
VISUALSTYLE
  5
9D
102
{ACAD_REACTORS
330
99
102
}
330
99
100
AcDbVisualStyle
  2
GouraudWithEdges
 70
     3
177
     3
291
     1
 70
    58
 90
        2
176
     1
 90
        2
176
     1
 90
        1
176
     1
 90
        2
176
     1
 40
-0.6
176
     1
 40
30.0
176
     1
 62
     7
420
 16777215
176
     1
 90
        1
176
     1
 90
        4
176
     1
 62
     7
176
     1
 62
   257
176
     1
 90
        1
176
     1
 90
        1
176
     1
 40
1.0
176
     1
 90
        0
176
     1
 62
   257
176
     1
 40
1.0
176
     1
 90
        1
176
     1
 90
        6
176
     1
 90
        2
176
     1
 62
     7
176
     1
 90
        5
176
     1
 90
        0
176
     1
 90
        0
176
     1
290
     0
176
     1
 90
        1
176
     1
 40
0.0
176
     1
 90
        0
176
     1
290
     0
176
     1
290
     1
176
     1
290
     1
176
     1
290
     0
176
     1
290
     0
176
     1
290
     0
176
     1
290
     0
176
     1
290
     0
176
     1
290
     0
176
     1
 90
       50
176
     1
 40
0.0
176
     1
 40
1.0
176
     1
 90
        0
176
     1
 62
    18
420
        0
176
     1
 90
       50
176
     1
 90
        3
176
     1
 62
     5
420
      255
176
     1
290
     0
176
     1
 90
       50
176
     1
 90
       50
176
     1
 90
       50
176
     1
290
     0
176
     1
 90
       50
176
     1
 62
   256
176
     0
 40
1.0
176
     0
 90
        2
176
     1
  1
strokes_ogs.tif
176
     1
290
     0
176
     1
 40
1.0
176
     1
 40
1.0
176
     1
  0
VISUALSTYLE
  5
E4
102
{ACAD_REACTORS
330
99
102
}
330
99
100
AcDbVisualStyle
  2
Hidden
 70
     6
177
     3
291
     0
 70
    58
 90
        1
176
     1
 90
        2
176
     1
 90
        2
176
     1
 90
        0
176
     1
 40
0.6
176
     1
 40
30.0
176
     1
 62
     7
420
 16777215
176
     1
 90
        2
176
     1
 90
        2
176
     1
 62
     7
176
     1
 62
   257
176
     1
 90
        2
176
     1
 90
        1
176
     1
 40
40.0
176
     1
 90
        0
176
     1
 62
   257
176
     1
 40
1.0
176
     1
 90
        1
176
     1
 90
        6
176
     1
 90
        2
176
     1
 62
     7
176
     1
 90
        3
176
     1
 90
        0
176
     1
 90
        0
176
     1
290
     0
176
     1
 90
        1
176
     1
 40
0.0
176
     1
 90
        0
176
     1
290
     0
176
     1
290
     1
176
     1
290
     1
176
     1
290
     0
176
     1
290
     0
176
     1
290
     0
176
     1
290
     0
176
     1
290
     0
176
     1
290
     0
176
     1
 90
       50
176
     1
 40
0.0
176
     1
 40
1.0
176
     1
 90
        0
176
     1
 62
    18
420
        0
176
     1
 90
       50
176
     1
 90
        3
176
     1
 62
     5
420
      255
176
     1
290
     0
176
     1
 90
       50
176
     1
 90
       50
176
     1
 90
       50
176
     1
290
     0
176
     1
 90
       50
176
     1
 62
   256
176
     0
 40
1.0
176
     0
 90
        2
176
     1
  1
strokes_ogs.tif
176
     1
290
     0
176
     1
 40
1.0
176
     1
 40
1.0
176
     1
  0
VISUALSTYLE
  5
E5
102
{ACAD_REACTORS
330
99
102
}
330
99
100
AcDbVisualStyle
  2
JitterOff
 70
    20
177
     3
291
     1
 70
    58
 90
        2
176
     0
 90
        2
176
     0
 90
        0
176
     0
 90
        0
176
     0
 40
0.6
176
     0
 40
30.0
176
     0
 62
     7
420
 16777215
176
     0
 90
        1
176
     0
 90
        4
176
     0
 62
     7
176
     0
 62
   257
176
     0
 90
        1
176
     0
 90
        1
176
     0
 40
1.0
176
     0
 90
       10
176
     2
 62
     7
176
     0
 40
1.0
176
     0
 90
        1
176
     0
 90
        6
176
     0
 90
        2
176
     0
 62
     7
176
     0
 90
        5
176
     0
 90
        0
176
     0
 90
        0
176
     0
290
     0
176
     0
 90
        1
176
     0
 40
0.0
176
     0
 90
        0
176
     0
290
     0
176
     0
290
     1
176
     0
290
     1
176
     0
290
     0
176
     0
290
     0
176
     0
290
     0
176
     0
290
     0
176
     0
290
     0
176
     0
290
     0
176
     0
 90
       50
176
     0
 40
0.0
176
     0
 40
1.0
176
     0
 90
        0
176
     0
 62
    18
420
        0
176
     0
 90
       50
176
     0
 90
        3
176
     0
 62
     5
420
      255
176
     0
290
     0
176
     0
 90
       50
176
     0
 90
       50
176
     0
 90
       50
176
     0
290
     0
176
     0
 90
       50
176
     0
 62
   256
176
     0
 40
1.0
176
     0
 90
        2
176
     0
  1
strokes_ogs.tif
176
     0
290
     0
176
     0
 40
1.0
176
     0
 40
1.0
176
     0
  0
VISUALSTYLE
  5
A7
102
{ACAD_REACTORS
330
99
102
}
330
99
100
AcDbVisualStyle
  2
Linepattern
 70
    14
177
     3
291
     1
 70
    58
 90
        2
176
     1
 90
        2
176
     1
 90
        1
176
     1
 90
        0
176
     1
 40
-0.6
176
     1
 40
-30.0
176
     1
 62
     7
420
 16777215
176
     1
 90
        1
176
     1
 90
        4
176
     1
 62
     7
176
     1
 62
   257
176
     1
 90
        7
176
     1
 90
        7
176
     1
 40
1.0
176
     1
 90
        8
176
     1
 62
     7
176
     1
 40
1.0
176
     1
 90
        1
176
     1
 90
        6
176
     1
 90
        2
176
     1
 62
     7
176
     1
 90
        5
176
     1
 90
        0
176
     1
 90
        0
176
     1
290
     0
176
     1
 90
        1
176
     1
 40
0.0
176
     1
 90
        0
176
     1
290
     0
176
     1
290
     1
176
     1
290
     1
176
     1
290
     0
176
     1
290
     0
176
     1
290
     0
176
     1
290
     0
176
     1
290
     0
176
     1
290
     0
176
     1
 90
       50
176
     1
 40
0.0
176
     1
 40
1.0
176
     1
 90
        0
176
     1
 62
    18
420
        0
176
     1
 90
       50
176
     1
 90
        3
176
     1
 62
     5
420
      255
176
     1
290
     0
176
     1
 90
       50
176
     1
 90
       50
176
     1
 90
       50
176
     1
290
     0
176
     1
 90
       50
176
     1
 62
   256
176
     0
 40
1.0
176
     0
 90
        2
176
     1
  1
strokes_ogs.tif
176
     1
290
     0
176
     1
 40
1.0
176
     1
 40
1.0
176
     1
  0
VISUALSTYLE
  5
E6
102
{ACAD_REACTORS
330
99
102
}
330
99
100
AcDbVisualStyle
  2
OverhangOff
 70
    21
177
     3
291
     1
 70
    58
 90
        2
176
     0
 90
        2
176
     0
 90
        0
176
     0
 90
        0
176
     0
 40
0.6
176
     0
 40
30.0
176
     0
 62
     7
420
 16777215
176
     0
 90
        1
176
     0
 90
        4
176
     0
 62
     7
176
     0
 62
   257
176
     0
 90
        1
176
     0
 90
        1
176
     0
 40
1.0
176
     0
 90
        9
176
     2
 62
     7
176
     0
 40
1.0
176
     0
 90
        1
176
     0
 90
        6
176
     0
 90
        2
176
     0
 62
     7
176
     0
 90
        5
176
     0
 90
        0
176
     0
 90
        0
176
     0
290
     0
176
     0
 90
        1
176
     0
 40
0.0
176
     0
 90
        0
176
     0
290
     0
176
     0
290
     1
176
     0
290
     1
176
     0
290
     0
176
     0
290
     0
176
     0
290
     0
176
     0
290
     0
176
     0
290
     0
176
     0
290
     0
176
     0
 90
       50
176
     0
 40
0.0
176
     0
 40
1.0
176
     0
 90
        0
176
     0
 62
    18
420
        0
176
     0
 90
       50
176
     0
 90
        3
176
     0
 62
     5
420
      255
176
     0
290
     0
176
     0
 90
       50
176
     0
 90
       50
176
     0
 90
       50
176
     0
290
     0
176
     0
 90
       50
176
     0
 62
   256
176
     0
 40
1.0
176
     0
 90
        2
176
     0
  1
strokes_ogs.tif
176
     0
290
     0
176
     0
 40
1.0
176
     0
 40
1.0
176
     0
  0
VISUALSTYLE
  5
A3
102
{ACAD_REACTORS
330
99
102
}
330
99
100
AcDbVisualStyle
  2
Realistic
 70
     8
177
     3
291
     0
 70
    58
 90
        2
176
     1
 90
        2
176
     1
 90
        1
176
     1
 90
        0
176
     1
 40
-0.6
176
     1
 40
-30.0
176
     1
 62
     7
420
 16777215
176
     1
 90
        1
176
     1
 90
        0
176
     1
 62
     7
176
     1
 62
   257
176
     1
 90
        1
176
     1
 90
        1
176
     1
 40
1.0
176
     1
 90
        8
176
     1
 62
     8
420
  7895160
176
     1
 40
1.0
176
     1
 90
        1
176
     1
 90
        6
176
     1
 90
        2
176
     1
 62
     7
176
     1
 90
        5
176
     1
 90
        0
176
     1
 90
        0
176
     1
290
     0
176
     1
 90
       13
176
     1
 40
0.0
176
     1
 90
        0
176
     1
290
     0
176
     1
290
     1
176
     1
290
     1
176
     1
290
     0
176
     1
290
     0
176
     1
290
     0
176
     1
290
     0
176
     1
290
     0
176
     1
290
     0
176
     1
 90
       50
176
     1
 40
0.0
176
     1
 40
1.0
176
     1
 90
        0
176
     1
 62
    18
420
        0
176
     1
 90
       50
176
     1
 90
        3
176
     1
 62
     5
420
      255
176
     1
290
     0
176
     1
 90
       50
176
     1
 90
       50
176
     1
 90
       50
176
     1
290
     0
176
     1
 90
       50
176
     1
 62
   256
176
     0
 40
1.0
176
     0
 90
        2
176
     1
  1
strokes_ogs.tif
176
     1
290
     0
176
     1
 40
1.0
176
     1
 40
1.0
176
     1
  0
VISUALSTYLE
  5
EC
102
{ACAD_REACTORS
330
99
102
}
330
99
100
AcDbVisualStyle
  2
Shaded
 70
    27
177
     3
291
     0
 70
    58
 90
        2
176
     1
 90
        2
176
     1
 90
        1
176
     1
 90
        2
176
     1
 40
0.6
176
     1
 40
30.0
176
     1
 62
     7
420
 16777215
176
     1
 90
        0
176
     1
 90
        4
176
     1
 62
     7
176
     1
 62
   257
176
     1
 90
        1
176
     1
 90
        1
176
     1
 40
1.0
176
     1
 90
        8
176
     1
 62
   257
176
     1
 40
1.0
176
     1
 90
        1
176
     1
 90
        6
176
     1
 90
        2
176
     1
 62
     8
420
  7895160
176
     1
 90
        3
176
     1
 90
        0
176
     1
 90
        0
176
     1
290
     0
176
     1
 90
        5
176
     1
 40
0.0
176
     1
 90
        0
176
     1
290
     0
176
     1
290
     1
176
     1
290
     1
176
     1
290
     0
176
     1
290
     0
176
     1
290
     0
176
     1
290
     0
176
     1
290
     0
176
     1
290
     0
176
     1
 90
       50
176
     1
 40
0.0
176
     1
 40
1.0
176
     1
 90
        0
176
     1
 62
    18
420
        0
176
     1
 90
       50
176
     1
 90
        3
176
     1
 62
     5
420
      255
176
     1
290
     0
176
     1
 90
       50
176
     1
 90
       50
176
     1
 90
       50
176
     1
290
     0
176
     1
 90
       50
176
     1
 62
   256
176
     0
 40
1.0
176
     0
 90
        2
176
     1
  1
strokes_ogs.tif
176
     1
290
     0
176
     1
 40
1.0
176
     1
 40
1.0
176
     1
  0
VISUALSTYLE
  5
EB
102
{ACAD_REACTORS
330
99
102
}
330
99
100
AcDbVisualStyle
  2
Shaded with edges
 70
    26
177
     3
291
     0
 70
    58
 90
        2
176
     1
 90
        2
176
     1
 90
        1
176
     1
 90
        2
176
     1
 40
0.6
176
     1
 40
30.0
176
     1
 62
     7
420
 16777215
176
     1
 90
        1
176
     1
 90
       10
176
     1
 62
     7
176
     1
 62
   257
176
     1
 90
        2
176
     1
 90
        1
176
     1
 40
1.0
176
     1
 90
        8
176
     1
 62
   257
176
     1
 40
1.0
176
     1
 90
        1
176
     1
 90
        6
176
     1
 90
        2
176
     1
 62
     7
176
     1
 90
        3
176
     1
 90
        0
176
     1
 90
        0
176
     1
290
     0
176
     1
 90
        5
176
     1
 40
0.0
176
     1
 90
        0
176
     1
290
     0
176
     1
290
     1
176
     1
290
     1
176
     1
290
     0
176
     1
290
     0
176
     1
290
     0
176
     1
290
     0
176
     1
290
     0
176
     1
290
     0
176
     1
 90
       50
176
     1
 40
0.0
176
     1
 40
1.0
176
     1
 90
        0
176
     1
 62
    18
420
        0
176
     1
 90
       50
176
     1
 90
        3
176
     1
 62
     5
420
      255
176
     1
290
     0
176
     1
 90
       50
176
     1
 90
       50
176
     1
 90
       50
176
     1
290
     0
176
     1
 90
       50
176
     1
 62
   256
176
     0
 40
1.0
176
     0
 90
        2
176
     1
  1
strokes_ogs.tif
176
     1
290
     0
176
     1
 40
1.0
176
     1
 40
1.0
176
     1
  0
VISUALSTYLE
  5
E8
102
{ACAD_REACTORS
330
99
102
}
330
99
100
AcDbVisualStyle
  2
Shades of Gray
 70
    23
177
     3
291
     0
 70
    58
 90
        2
176
     1
 90
        2
176
     1
 90
        3
176
     1
 90
        0
176
     1
 40
0.6
176
     1
 40
30.0
176
     1
 62
     7
420
 16777215
176
     1
 90
        2
176
     1
 90
        2
176
     1
 62
     7
176
     1
 62
     7
176
     1
 90
        1
176
     1
 90
        1
176
     1
 40
40.0
176
     1
 90
        8
176
     1
 62
     7
176
     1
 40
1.0
176
     1
 90
        1
176
     1
 90
        6
176
     1
 90
        2
176
     1
 62
     7
176
     1
 90
        3
176
     1
 90
        0
176
     1
 90
        0
176
     1
290
     0
176
     1
 90
        1
176
     1
 40
0.0
176
     1
 90
        0
176
     1
290
     0
176
     1
290
     1
176
     1
290
     1
176
     1
290
     0
176
     1
290
     0
176
     1
290
     0
176
     1
290
     0
176
     1
290
     0
176
     1
290
     0
176
     1
 90
       50
176
     1
 40
0.0
176
     1
 40
1.0
176
     1
 90
        0
176
     1
 62
    18
420
        0
176
     1
 90
       50
176
     1
 90
        3
176
     1
 62
     5
420
      255
176
     1
290
     0
176
     1
 90
       50
176
     1
 90
       50
176
     1
 90
       50
176
     1
290
     0
176
     1
 90
       50
176
     1
 62
   256
176
     0
 40
1.0
176
     0
 90
        2
176
     1
  1
strokes_ogs.tif
176
     1
290
     0
176
     1
 40
1.0
176
     1
 40
1.0
176
     1
  0
VISUALSTYLE
  5
E9
102
{ACAD_REACTORS
330
99
102
}
330
99
100
AcDbVisualStyle
  2
Sketchy
 70
    24
177
     3
291
     0
 70
    58
 90
        1
176
     1
 90
        2
176
     1
 90
        2
176
     1
 90
        0
176
     1
 40
0.6
176
     1
 40
30.0
176
     1
 62
     7
420
 16777215
176
     1
 90
        2
176
     1
 90
        2
176
     1
 62
     7
176
     1
 62
     7
176
     1
 90
        1
176
     1
 90
        1
176
     1
 40
40.0
176
     1
 90
       11
176
     1
 62
     7
176
     1
 40
1.0
176
     1
 90
        1
176
     1
 90
        6
176
     1
 90
        2
176
     1
 62
     7
176
     1
 90
        6
176
     1
 90
        0
176
     1
 90
        0
176
     1
290
     0
176
     1
 90
        1
176
     1
 40
0.0
176
     1
 90
        0
176
     1
290
     0
176
     1
290
     1
176
     1
290
     1
176
     1
290
     0
176
     1
290
     0
176
     1
290
     0
176
     1
290
     0
176
     1
290
     0
176
     1
290
     0
176
     1
 90
       50
176
     1
 40
0.0
176
     1
 40
1.0
176
     1
 90
        0
176
     1
 62
    18
420
        0
176
     1
 90
       50
176
     1
 90
        3
176
     1
 62
     5
420
      255
176
     1
290
     0
176
     1
 90
       50
176
     1
 90
       50
176
     1
 90
       50
176
     1
290
     0
176
     1
 90
       50
176
     1
 62
   256
176
     0
 40
1.0
176
     0
 90
        2
176
     1
  1
strokes_ogs.tif
176
     1
290
     0
176
     1
 40
1.0
176
     1
 40
1.0
176
     1
  0
VISUALSTYLE
  5
A6
102
{ACAD_REACTORS
330
99
102
}
330
99
100
AcDbVisualStyle
  2
Thicken
 70
    13
177
     3
291
     1
 70
    58
 90
        2
176
     1
 90
        2
176
     1
 90
        1
176
     1
 90
        0
176
     1
 40
-0.6
176
     1
 40
-30.0
176
     1
 62
     7
420
 16777215
176
     1
 90
        1
176
     1
 90
        4
176
     1
 62
     7
176
     1
 62
   257
176
     1
 90
        1
176
     1
 90
        1
176
     1
 40
1.0
176
     1
 90
       12
176
     1
 62
     7
176
     1
 40
1.0
176
     1
 90
        1
176
     1
 90
        6
176
     1
 90
        2
176
     1
 62
     7
176
     1
 90
        5
176
     1
 90
        0
176
     1
 90
        0
176
     1
290
     0
176
     1
 90
        1
176
     1
 40
0.0
176
     1
 90
        0
176
     1
290
     0
176
     1
290
     1
176
     1
290
     1
176
     1
290
     0
176
     1
290
     0
176
     1
290
     0
176
     1
290
     0
176
     1
290
     0
176
     1
290
     0
176
     1
 90
       50
176
     1
 40
0.0
176
     1
 40
1.0
176
     1
 90
        0
176
     1
 62
    18
420
        0
176
     1
 90
       50
176
     1
 90
        3
176
     1
 62
     5
420
      255
176
     1
290
     0
176
     1
 90
       50
176
     1
 90
       50
176
     1
 90
       50
176
     1
290
     0
176
     1
 90
       50
176
     1
 62
   256
176
     0
 40
1.0
176
     0
 90
        2
176
     1
  1
strokes_ogs.tif
176
     1
290
     0
176
     1
 40
1.0
176
     1
 40
1.0
176
     1
  0
VISUALSTYLE
  5
E3
102
{ACAD_REACTORS
330
99
102
}
330
99
100
AcDbVisualStyle
  2
Wireframe
 70
     5
177
     3
291
     0
 70
    58
 90
        0
176
     1
 90
        2
176
     1
 90
        0
176
     1
 90
        0
176
     1
 40
0.6
176
     1
 40
30.0
176
     1
 62
     7
420
 16777215
176
     1
 90
        1
176
     1
 90
        4
176
     1
 62
     7
176
     1
 62
   257
176
     1
 90
        1
176
     1
 90
        1
176
     1
 40
1.0
176
     1
 90
        0
176
     1
 62
   257
176
     1
 40
1.0
176
     1
 90
        1
176
     1
 90
        6
176
     1
 90
        2
176
     1
 62
     7
176
     1
 90
        3
176
     1
 90
        0
176
     1
 90
        0
176
     1
290
     0
176
     1
 90
        1
176
     1
 40
0.0
176
     1
 90
        0
176
     1
290
     0
176
     1
290
     1
176
     1
290
     1
176
     1
290
     0
176
     1
290
     0
176
     1
290
     0
176
     1
290
     0
176
     1
290
     0
176
     1
290
     0
176
     1
 90
       50
176
     1
 40
0.0
176
     1
 40
1.0
176
     1
 90
        0
176
     1
 62
    18
420
        0
176
     1
 90
       50
176
     1
 90
        3
176
     1
 62
     5
420
      255
176
     1
290
     0
176
     1
 90
       50
176
     1
 90
       50
176
     1
 90
       50
176
     1
290
     0
176
     1
 90
       50
176
     1
 62
   256
176
     0
 40
1.0
176
     0
 90
        2
176
     1
  1
strokes_ogs.tif
176
     1
290
     0
176
     1
 40
1.0
176
     1
 40
1.0
176
     1
  0
VISUALSTYLE
  5
EA
102
{ACAD_REACTORS
330
99
102
}
330
99
100
AcDbVisualStyle
  2
X-Ray
 70
    25
177
     3
291
     0
 70
    58
 90
        2
176
     1
 90
        2
176
     1
 90
        1
176
     1
 90
        1
176
     1
 40
0.5
176
     1
 40
30.0
176
     1
 62
     7
420
 16777215
176
     1
 90
        1
176
     1
 90
        0
176
     1
 62
     7
176
     1
 62
   257
176
     1
 90
        1
176
     1
 90
        1
176
     1
 40
1.0
176
     1
 90
        8
176
     1
 62
     7
176
     1
 40
1.0
176
     1
 90
        1
176
     1
 90
        6
176
     1
 90
        2
176
     1
 62
     7
176
     1
 90
        3
176
     1
 90
        0
176
     1
 90
        0
176
     1
290
     0
176
     1
 90
       13
176
     1
 40
0.0
176
     1
 90
        0
176
     1
290
     0
176
     1
290
     1
176
     1
290
     1
176
     1
290
     0
176
     1
290
     0
176
     1
290
     0
176
     1
290
     0
176
     1
290
     0
176
     1
290
     0
176
     1
 90
       50
176
     1
 40
0.0
176
     1
 40
1.0
176
     1
 90
        0
176
     1
 62
    18
420
        0
176
     1
 90
       50
176
     1
 90
        3
176
     1
 62
     5
420
      255
176
     1
290
     0
176
     1
 90
       50
176
     1
 90
       50
176
     1
 90
       50
176
     1
290
     0
176
     1
 90
       50
176
     1
 62
   256
176
     0
 40
1.0
176
     0
 90
        2
176
     1
  1
strokes_ogs.tif
176
     1
290
     0
176
     1
 40
1.0
176
     1
 40
1.0
176
     1
  0
DICTIONARYVAR
  5
D8
102
{ACAD_REACTORS
330
66
102
}
330
66
100
DictionaryVariables
280
     0
  1
1:1
  0
DICTIONARYVAR
  5
89
102
{ACAD_REACTORS
330
66
102
}
330
66
100
DictionaryVariables
280
     0
  1
Standard
  0
DICTIONARYVAR
  5
67
102
{ACAD_REACTORS
330
66
102
}
330
66
100
DictionaryVariables
280
     0
  1
2
  0
DICTIONARYVAR
  5
6B
102
{ACAD_REACTORS
330
66
102
}
330
66
100
DictionaryVariables
280
     0
  1
1
  0
DICTIONARYVAR
  5
DF
102
{ACAD_REACTORS
330
66
102
}
330
66
100
DictionaryVariables
280
     0
  1
0
  0
DICTIONARYVAR
  5
E0
102
{ACAD_REACTORS
330
66
102
}
330
66
100
DictionaryVariables
280
     0
  1
0
  0
DICTIONARY
  5
6F4
330
87
100
AcDbDictionary
280
     1
281
     1
  3
ACAD_ROUNDTRIP_2008_TABLESTYLE_CELLSTYLEMAP
360
6F5
  0
CELLSTYLEMAP
  5
6F5
102
{ACAD_REACTORS
330
6F4
102
}
330
6F4
100
AcDbCellStyleMap
 90
        3
300
CELLSTYLE
  1
TABLEFORMAT_BEGIN
 90
        5
170
     1
 91
        0
 92
    32768
 62
   257
 93
        1
300
CONTENTFORMAT
  1
CONTENTFORMAT_BEGIN
 90
        0
 91
        0
 92
      512
 93
        0
300

 40
0.0
140
1.0
 94
        5
 62
     0
340
11
144
0.25
309
CONTENTFORMAT_END
171
     0
 94
        6
 95
        1
302
GRIDFORMAT
  1
GRIDFORMAT_BEGIN
 90
        0
 91
        1
 62
     0
 92
       -2
340
0
 93
        0
 40
0.045
309
GRIDFORMAT_END
 95
        2
302
GRIDFORMAT
  1
GRIDFORMAT_BEGIN
 90
        0
 91
        1
 62
     0
 92
       -2
340
0
 93
        0
 40
0.045
309
GRIDFORMAT_END
 95
        4
302
GRIDFORMAT
  1
GRIDFORMAT_BEGIN
 90
        0
 91
        1
 62
     0
 92
       -2
340
0
 93
        0
 40
0.045
309
GRIDFORMAT_END
 95
        8
302
GRIDFORMAT
  1
GRIDFORMAT_BEGIN
 90
        0
 91
        1
 62
     0
 92
       -2
340
0
 93
        0
 40
0.045
309
GRIDFORMAT_END
 95
       16
302
GRIDFORMAT
  1
GRIDFORMAT_BEGIN
 90
        0
 91
        1
 62
     0
 92
       -2
340
0
 93
        0
 40
0.045
309
GRIDFORMAT_END
 95
       32
302
GRIDFORMAT
  1
GRIDFORMAT_BEGIN
 90
        0
 91
        1
 62
     0
 92
       -2
340
0
 93
        0
 40
0.045
309
GRIDFORMAT_END
309
TABLEFORMAT_END
  1
CELLSTYLE_BEGIN
 90
        1
 91
        1
300
_TITLE
309
CELLSTYLE_END
300
CELLSTYLE
  1
TABLEFORMAT_BEGIN
 90
        5
170
     1
 91
        0
 92
        0
 62
   257
 93
        1
300
CONTENTFORMAT
  1
CONTENTFORMAT_BEGIN
 90
        0
 91
        0
 92
      512
 93
        0
300

 40
0.0
140
1.0
 94
        5
 62
     0
340
11
144
0.18
309
CONTENTFORMAT_END
171
     0
 94
        6
 95
        1
302
GRIDFORMAT
  1
GRIDFORMAT_BEGIN
 90
        0
 91
        1
 62
     0
 92
       -2
340
0
 93
        0
 40
0.045
309
GRIDFORMAT_END
 95
        2
302
GRIDFORMAT
  1
GRIDFORMAT_BEGIN
 90
        0
 91
        1
 62
     0
 92
       -2
340
0
 93
        0
 40
0.045
309
GRIDFORMAT_END
 95
        4
302
GRIDFORMAT
  1
GRIDFORMAT_BEGIN
 90
        0
 91
        1
 62
     0
 92
       -2
340
0
 93
        0
 40
0.045
309
GRIDFORMAT_END
 95
        8
302
GRIDFORMAT
  1
GRIDFORMAT_BEGIN
 90
        0
 91
        1
 62
     0
 92
       -2
340
0
 93
        0
 40
0.045
309
GRIDFORMAT_END
 95
       16
302
GRIDFORMAT
  1
GRIDFORMAT_BEGIN
 90
        0
 91
        1
 62
     0
 92
       -2
340
0
 93
        0
 40
0.045
309
GRIDFORMAT_END
 95
       32
302
GRIDFORMAT
  1
GRIDFORMAT_BEGIN
 90
        0
 91
        1
 62
     0
 92
       -2
340
0
 93
        0
 40
0.045
309
GRIDFORMAT_END
309
TABLEFORMAT_END
  1
CELLSTYLE_BEGIN
 90
        2
 91
        1
300
_HEADER
309
CELLSTYLE_END
300
CELLSTYLE
  1
TABLEFORMAT_BEGIN
 90
        5
170
     1
 91
        0
 92
        0
 62
   257
 93
        1
300
CONTENTFORMAT
  1
CONTENTFORMAT_BEGIN
 90
        0
 91
        0
 92
      512
 93
        0
300

 40
0.0
140
1.0
 94
        2
 62
     0
340
11
144
0.18
309
CONTENTFORMAT_END
171
     0
 94
        6
 95
        1
302
GRIDFORMAT
  1
GRIDFORMAT_BEGIN
 90
        0
 91
        1
 62
     0
 92
       -2
340
0
 93
        0
 40
0.045
309
GRIDFORMAT_END
 95
        2
302
GRIDFORMAT
  1
GRIDFORMAT_BEGIN
 90
        0
 91
        1
 62
     0
 92
       -2
340
0
 93
        0
 40
0.045
309
GRIDFORMAT_END
 95
        4
302
GRIDFORMAT
  1
GRIDFORMAT_BEGIN
 90
        0
 91
        1
 62
     0
 92
       -2
340
0
 93
        0
 40
0.045
309
GRIDFORMAT_END
 95
        8
302
GRIDFORMAT
  1
GRIDFORMAT_BEGIN
 90
        0
 91
        1
 62
     0
 92
       -2
340
0
 93
        0
 40
0.045
309
GRIDFORMAT_END
 95
       16
302
GRIDFORMAT
  1
GRIDFORMAT_BEGIN
 90
        0
 91
        1
 62
     0
 92
       -2
340
0
 93
        0
 40
0.045
309
GRIDFORMAT_END
 95
       32
302
GRIDFORMAT
  1
GRIDFORMAT_BEGIN
 90
        0
 91
        1
 62
     0
 92
       -2
340
0
 93
        0
 40
0.045
309
GRIDFORMAT_END
309
TABLEFORMAT_END
  1
CELLSTYLE_BEGIN
 90
        3
 91
        2
300
_DATA
309
CELLSTYLE_END
  0
ENDSEC
  0
EOF
