  0
SECTION
  2
HEADER
  9
$ACADVER
  1
AC1027
  9
$ACADMAINTVER
 70
     8
  9
$DWGCODEPAGE
  3
ANSI_932
  9
$REQUIREDVERSIONS
160
                 0
  9
$LASTSAVEDBY
  1
Yasu
  9
$INSBASE
 10
0.0
 20
0.0
 30
0.0
  9
$EXTMIN
 10
3.421302264689331
 20
19.35170210121091
 30
0.0
  9
$EXTMAX
 10
279.6906607492605
 20
236.4078874680729
 30
0.0
  9
$LIMMIN
 10
0.0
 20
0.0
  9
$LIMMAX
 10
12.0
 20
9.0
  9
$ORTHOMODE
 70
     0
  9
$REGENMODE
 70
     1
  9
$FILLMODE
 70
     1
  9
$QTEXTMODE
 70
     0
  9
$MIRRTEXT
 70
     0
  9
$LTSCALE
 40
1.0
  9
$ATTMODE
 70
     1
  9
$TEXTSIZE
 40
0.2
  9
$TRACEWID
 40
0.05
  9
$TEXTSTYLE
  7
Standard
  9
$CLAYER
  8
0
  9
$CELTYPE
  6
ByLayer
  9
$CECOLOR
 62
   256
  9
$CELTSCALE
 40
1.0
  9
$DISPSILH
 70
     0
  9
$DIMSCALE
 40
1.0
  9
$DIMASZ
 40
0.18
  9
$DIMEXO
 40
0.0625
  9
$DIMDLI
 40
0.38
  9
$DIMRND
 40
0.0
  9
$DIMDLE
 40
0.0
  9
$DIMEXE
 40
0.18
  9
$DIMTP
 40
0.0
  9
$DIMTM
 40
0.0
  9
$DIMTXT
 40
0.18
  9
$DIMCEN
 40
0.09
  9
$DIMTSZ
 40
0.0
  9
$DIMTOL
 70
     0
  9
$DIMLIM
 70
     0
  9
$DIMTIH
 70
     1
  9
$DIMTOH
 70
     1
  9
$DIMSE1
 70
     0
  9
$DIMSE2
 70
     0
  9
$DIMTAD
 70
     0
  9
$DIMZIN
 70
     0
  9
$DIMBLK
  1

  9
$DIMASO
 70
     1
  9
$DIMSHO
 70
     1
  9
$DIMPOST
  1

  9
$DIMAPOST
  1

  9
$DIMALT
 70
     0
  9
$DIMALTD
 70
     2
  9
$DIMALTF
 40
25.4
  9
$DIMLFAC
 40
1.0
  9
$DIMTOFL
 70
     0
  9
$DIMTVP
 40
0.0
  9
$DIMTIX
 70
     0
  9
$DIMSOXD
 70
     0
  9
$DIMSAH
 70
     0
  9
$DIMBLK1
  1

  9
$DIMBLK2
  1

  9
$DIMSTYLE
  2
Standard
  9
$DIMCLRD
 70
     0
  9
$DIMCLRE
 70
     0
  9
$DIMCLRT
 70
     0
  9
$DIMTFAC
 40
1.0
  9
$DIMGAP
 40
0.09
  9
$DIMJUST
 70
     0
  9
$DIMSD1
 70
     0
  9
$DIMSD2
 70
     0
  9
$DIMTOLJ
 70
     1
  9
$DIMTZIN
 70
     0
  9
$DIMALTZ
 70
     0
  9
$DIMALTTZ
 70
     0
  9
$DIMUPT
 70
     0
  9
$DIMDEC
 70
     4
  9
$DIMTDEC
 70
     4
  9
$DIMALTU
 70
     2
  9
$DIMALTTD
 70
     2
  9
$DIMTXSTY
  7
Standard
  9
$DIMAUNIT
 70
     0
  9
$DIMADEC
 70
     0
  9
$DIMALTRND
 40
0.0
  9
$DIMAZIN
 70
     0
  9
$DIMDSEP
 70
    46
  9
$DIMATFIT
 70
     3
  9
$DIMFRAC
 70
     0
  9
$DIMLDRBLK
  1

  9
$DIMLUNIT
 70
     2
  9
$DIMLWD
 70
    -2
  9
$DIMLWE
 70
    -2
  9
$DIMTMOVE
 70
     0
  9
$DIMFXL
 40
1.0
  9
$DIMFXLON
 70
     0
  9
$DIMJOGANG
 40
0.7853981633974483
  9
$DIMTFILL
 70
     0
  9
$DIMTFILLCLR
 70
     0
  9
$DIMARCSYM
 70
     0
  9
$DIMLTYPE
  6

  9
$DIMLTEX1
  6

  9
$DIMLTEX2
  6

  9
$DIMTXTDIRECTION
 70
     0
  9
$LUNITS
 70
     2
  9
$LUPREC
 70
     4
  9
$SKETCHINC
 40
0.1
  9
$FILLETRAD
 40
0.0
  9
$AUNITS
 70
     0
  9
$AUPREC
 70
     0
  9
$MENU
  1
.
  9
$ELEVATION
 40
0.0
  9
$PELEVATION
 40
0.0
  9
$THICKNESS
 40
0.0
  9
$LIMCHECK
 70
     0
  9
$CHAMFERA
 40
0.0
  9
$CHAMFERB
 40
0.0
  9
$CHAMFERC
 40
0.0
  9
$CHAMFERD
 40
0.0
  9
$SKPOLY
 70
     0
  9
$TDCREATE
 40
2452643.438384271
  9
$TDUCREATE
 40
2452643.063384271
  9
$TDUPDATE
 40
2456739.697952581
  9
$TDUUPDATE
 40
2456739.322952581
  9
$TDINDWG
 40
0.0035458449
  9
$TDUSRTIMER
 40
2456739.32269978
  9
$USRTIMER
 70
     1
  9
$ANGBASE
 50
0.0
  9
$ANGDIR
 70
     0
  9
$PDMODE
 70
     0
  9
$PDSIZE
 40
0.0
  9
$PLINEWID
 40
0.0
  9
$SPLFRAME
 70
     0
  9
$SPLINETYPE
 70
     6
  9
$SPLINESEGS
 70
     8
  9
$HANDSEED
  5
463
  9
$SURFTAB1
 70
     6
  9
$SURFTAB2
 70
     6
  9
$SURFTYPE
 70
     6
  9
$SURFU
 70
     6
  9
$SURFV
 70
     6
  9
$UCSBASE
  2

  9
$UCSNAME
  2

  9
$UCSORG
 10
0.0
 20
0.0
 30
0.0
  9
$UCSXDIR
 10
1.0
 20
0.0
 30
0.0
  9
$UCSYDIR
 10
0.0
 20
1.0
 30
0.0
  9
$UCSORTHOREF
  2

  9
$UCSORTHOVIEW
 70
     0
  9
$UCSORGTOP
 10
0.0
 20
0.0
 30
0.0
  9
$UCSORGBOTTOM
 10
0.0
 20
0.0
 30
0.0
  9
$UCSORGLEFT
 10
0.0
 20
0.0
 30
0.0
  9
$UCSORGRIGHT
 10
0.0
 20
0.0
 30
0.0
  9
$UCSORGFRONT
 10
0.0
 20
0.0
 30
0.0
  9
$UCSORGBACK
 10
0.0
 20
0.0
 30
0.0
  9
$PUCSBASE
  2

  9
$PUCSNAME
  2

  9
$PUCSORG
 10
0.0
 20
0.0
 30
0.0
  9
$PUCSXDIR
 10
1.0
 20
0.0
 30
0.0
  9
$PUCSYDIR
 10
0.0
 20
1.0
 30
0.0
  9
$PUCSORTHOREF
  2

  9
$PUCSORTHOVIEW
 70
     0
  9
$PUCSORGTOP
 10
0.0
 20
0.0
 30
0.0
  9
$PUCSORGBOTTOM
 10
0.0
 20
0.0
 30
0.0
  9
$PUCSORGLEFT
 10
0.0
 20
0.0
 30
0.0
  9
$PUCSORGRIGHT
 10
0.0
 20
0.0
 30
0.0
  9
$PUCSORGFRONT
 10
0.0
 20
0.0
 30
0.0
  9
$PUCSORGBACK
 10
0.0
 20
0.0
 30
0.0
  9
$USERI1
 70
     0
  9
$USERI2
 70
     0
  9
$USERI3
 70
     0
  9
$USERI4
 70
     0
  9
$USERI5
 70
     0
  9
$USERR1
 40
0.0
  9
$USERR2
 40
0.0
  9
$USERR3
 40
0.0
  9
$USERR4
 40
0.0
  9
$USERR5
 40
0.0
  9
$WORLDVIEW
 70
     1
  9
$SHADEDGE
 70
     3
  9
$SHADEDIF
 70
    70
  9
$TILEMODE
 70
     1
  9
$MAXACTVP
 70
    64
  9
$PINSBASE
 10
0.0
 20
0.0
 30
0.0
  9
$PLIMCHECK
 70
     0
  9
$PEXTMIN
 10
0.0
 20
0.0
 30
0.0
  9
$PEXTMAX
 10
0.0
 20
0.0
 30
0.0
  9
$PLIMMIN
 10
0.0
 20
0.0
  9
$PLIMMAX
 10
0.0
 20
0.0
  9
$UNITMODE
 70
     0
  9
$VISRETAIN
 70
     1
  9
$PLINEGEN
 70
     0
  9
$PSLTSCALE
 70
     1
  9
$TREEDEPTH
 70
  3020
  9
$CMLSTYLE
  2
Standard
  9
$CMLJUST
 70
     0
  9
$CMLSCALE
 40
1.0
  9
$PROXYGRAPHICS
 70
     1
  9
$MEASUREMENT
 70
     0
  9
$CELWEIGHT
370
    -1
  9
$ENDCAPS
280
     0
  9
$JOINSTYLE
280
     0
  9
$LWDISPLAY
290
     0
  9
$INSUNITS
 70
     1
  9
$HYPERLINKBASE
  1

  9
$STYLESHEET
  1

  9
$XEDIT
290
     1
  9
$CEPSNTYPE
380
     0
  9
$PSTYLEMODE
290
     1
  9
$FINGERPRINTGUID
  2
{FDEAD576-A652-11D2-9A35-0060089B3A3F}
  9
$VERSIONGUID
  2
{FBC2AE19-5C5C-49EC-81BC-71B1A3362A02}
  9
$EXTNAMES
290
     1
  9
$PSVPSCALE
 40
0.0
  9
$OLESTARTUP
290
     0
  9
$SORTENTS
280
   127
  9
$INDEXCTL
280
     0
  9
$HIDETEXT
280
     1
  9
$XCLIPFRAME
280
     0
  9
$HALOGAP
280
     0
  9
$OBSCOLOR
 70
   257
  9
$OBSLTYPE
280
     0
  9
$INTERSECTIONDISPLAY
280
     0
  9
$INTERSECTIONCOLOR
 70
   257
  9
$DIMASSOC
280
     2
  9
$PROJECTNAME
  1

  9
$CAMERADISPLAY
290
     0
  9
$LENSLENGTH
 40
50.0
  9
$CAMERAHEIGHT
 40
0.0
  9
$STEPSPERSEC
 40
2.0
  9
$STEPSIZE
 40
6.0
  9
$3DDWFPREC
 40
2.0
  9
$PSOLWIDTH
 40
0.25
  9
$PSOLHEIGHT
 40
4.0
  9
$LOFTANG1
 40
1.570796326794897
  9
$LOFTANG2
 40
1.570796326794897
  9
$LOFTMAG1
 40
0.0
  9
$LOFTMAG2
 40
0.0
  9
$LOFTPARAM
 70
     7
  9
$LOFTNORMALS
280
     1
  9
$LATITUDE
 40
37.795
  9
$LONGITUDE
 40
-122.394
  9
$NORTHDIRECTION
 40
0.0
  9
$TIMEZONE
 70
 -8000
  9
$LIGHTGLYPHDISPLAY
280
     1
  9
$TILEMODELIGHTSYNCH
280
     1
  9
$CMATERIAL
347
96
  9
$SOLIDHIST
280
     1
  9
$SHOWHIST
280
     1
  9
$DWFFRAME
280
     2
  9
$DGNFRAME
280
     0
  9
$REALWORLDSCALE
290
     1
  9
$INTERFERECOLOR
 62
     1
  9
$CSHADOW
280
     0
  9
$SHADOWPLANELOCATION
 40
0.0
  0
ENDSEC
  0
SECTION
  2
CLASSES
  0
CLASS
  1
ACDBDICTIONARYWDFLT
  2
AcDbDictionaryWithDefault
  3
ObjectDBX Classes
 90
        0
 91
        5
280
     0
281
     0
  0
CLASS
  1
ACDBPLACEHOLDER
  2
AcDbPlaceHolder
  3
ObjectDBX Classes
 90
        0
 91
        1
280
     0
281
     0
  0
CLASS
  1
LAYOUT
  2
AcDbLayout
  3
ObjectDBX Classes
 90
        0
 91
        1
280
     0
281
     0
  0
CLASS
  1
DICTIONARYVAR
  2
AcDbDictionaryVar
  3
ObjectDBX Classes
 90
        0
 91
        4
280
     0
281
     0
  0
CLASS
  1
TABLESTYLE
  2
AcDbTableStyle
  3
ObjectDBX Classes
 90
     4095
 91
        5
280
     0
281
     0
  0
CLASS
  1
MATERIAL
  2
AcDbMaterial
  3
ObjectDBX Classes
 90
     1153
 91
        5
280
     0
281
     0
  0
CLASS
  1
VISUALSTYLE
  2
AcDbVisualStyle
  3
ObjectDBX Classes
 90
     4095
 91
        5
280
     0
281
     0
  0
CLASS
  1
SCALE
  2
AcDbScale
  3
ObjectDBX Classes
 90
     1153
 91
        5
280
     0
281
     0
  0
CLASS
  1
CELLSTYLEMAP
  2
AcDbCellStyleMap
  3
ObjectDBX Classes
 90
     1152
 91
        4
280
     0
281
     0
  0
CLASS
  1
RASTERVARIABLES
  2
AcDbRasterVariables
  3
ISM
 90
        0
 91
        5
280
     0
281
     0
  0
CLASS
  1
SUN
  2
AcDbSun
  3
SCENEOE
 90
     1153
 91
        5
280
     0
281
     0
  0
CLASS
  1
DIMASSOC
  2
AcDbDimAssoc
  3
"AcDbDimAssoc|Product Desc:     AcDim ARX App For Dimension|Company:          Autodesk, Inc.|WEB Address:      www.autodesk.com"
 90
        0
 91
        4
280
     0
281
     0
  0
ENDSEC
  0
SECTION
  2
TABLES
  0
TABLE
  2
VPORT
  5
8
330
0
100
AcDbSymbolTable
 70
     1
  0
VPORT
  5
94
330
8
100
AcDbSymbolTableRecord
100
AcDbViewportTableRecord
  2
*Active
 70
     0
 10
0.0
 20
0.0
 11
1.0
 21
1.0
 12
169.2255750729547
 22
147.4184977425039
 13
0.0
 23
0.0
 14
0.5
 24
0.5
 15
0.5
 25
0.5
 16
0.0
 26
0.0
 36
1.0
 17
-27.6695935659798
 27
-19.53870295786203
 37
0.0
 40
221.3973090741992
 41
1.762376237623762
 42
50.0
 43
0.0
 44
0.0
 50
0.0
 51
0.0
 71
    16
 72
  1000
 73
     1
 74
     3
 75
     0
 76
     0
 77
     0
 78
     0
281
     0
 65
     1
110
0.0
120
0.0
130
0.0
111
1.0
121
0.0
131
0.0
112
0.0
122
1.0
132
0.0
 79
     0
146
0.0
348
9F
 60
     2
 61
     5
292
     1
282
     1
141
0.0
142
0.0
 63
   250
421
  3355443
361
ED
  0
ENDTAB
  0
TABLE
  2
LTYPE
  5
5
330
0
100
AcDbSymbolTable
 70
     2
  0
LTYPE
  5
14
330
5
100
AcDbSymbolTableRecord
100
AcDbLinetypeTableRecord
  2
ByBlock
 70
     0
  3

 72
    65
 73
     0
 40
0.0
  0
LTYPE
  5
15
330
5
100
AcDbSymbolTableRecord
100
AcDbLinetypeTableRecord
  2
ByLayer
 70
     0
  3

 72
    65
 73
     0
 40
0.0
  0
LTYPE
  5
16
330
5
100
AcDbSymbolTableRecord
100
AcDbLinetypeTableRecord
  2
Continuous
 70
     0
  3
Solid line
 72
    65
 73
     0
 40
0.0
  0
LTYPE
  5
12A
330
5
100
AcDbSymbolTableRecord
100
AcDbLinetypeTableRecord
  2
CENTER
 70
     0
  3
Center ____ _ ____ _ ____ _ ____ _ ____ _ ____
 72
    65
 73
     4
 40
50.8
 49
31.75
 74
     0
 49
-6.35
 74
     0
 49
6.35
 74
     0
 49
-6.35
 74
     0
  0
ENDTAB
  0
TABLE
  2
LAYER
  5
2
330
0
100
AcDbSymbolTable
 70
     7
  0
LAYER
  5
10
330
2
100
AcDbSymbolTableRecord
100
AcDbLayerTableRecord
  2
0
 70
     0
 62
     7
  6
Continuous
370
    -3
390
F
347
98
348
0
  0
LAYER
  5
125
330
2
100
AcDbSymbolTableRecord
100
AcDbLayerTableRecord
  2
Defpoints
 70
     0
 62
     7
  6
Continuous
290
     0
370
    -3
390
F
347
98
348
0
  0
LAYER
  5
126
330
2
100
AcDbSymbolTableRecord
100
AcDbLayerTableRecord
  2
枠
 70
     0
 62
     1
  6
Continuous
370
    30
390
F
347
98
348
0
  0
LAYER
  5
128
330
2
100
AcDbSymbolTableRecord
100
AcDbLayerTableRecord
  2
文字
 70
     0
 62
     7
  6
Continuous
370
    30
390
F
347
98
348
0
  0
LAYER
  5
129
330
2
100
AcDbSymbolTableRecord
100
AcDbLayerTableRecord
  2
中心線
 70
     0
 62
     7
  6
CENTER
370
    30
390
F
347
98
348
0
  0
LAYER
  5
12B
330
2
100
AcDbSymbolTableRecord
100
AcDbLayerTableRecord
  2
実線
 70
     0
 62
     7
  6
Continuous
370
    50
390
F
347
98
348
0
  0
LAYER
  5
328
330
2
100
AcDbSymbolTableRecord
100
AcDbLayerTableRecord
  2
文字・寸法線
 70
     0
 62
     7
  6
Continuous
370
    -3
390
F
347
98
348
0
  0
ENDTAB
  0
TABLE
  2
STYLE
  5
3
330
0
100
AcDbSymbolTable
 70
     1
  0
STYLE
  5
11
330
3
100
AcDbSymbolTableRecord
100
AcDbTextStyleTableRecord
  2
Standard
 70
     0
 40
0.0
 41
1.0
 50
0.0
 71
     0
 42
0.2
  3
arial.ttf
  4

1001
ACAD
1000
Arial
1071
        0
  0
ENDTAB
  0
TABLE
  2
VIEW
  5
6
330
0
100
AcDbSymbolTable
 70
     0
  0
ENDTAB
  0
TABLE
  2
UCS
  5
7
330
0
100
AcDbSymbolTable
 70
     0
  0
ENDTAB
  0
TABLE
  2
APPID
  5
9
330
0
100
AcDbSymbolTable
 70
     1
  0
APPID
  5
12
330
9
100
AcDbSymbolTableRecord
100
AcDbRegAppTableRecord
  2
ACAD
 70
     0
  0
ENDTAB
  0
TABLE
  2
DIMSTYLE
  5
A
330
0
100
AcDbSymbolTable
 70
     2
100
AcDbDimStyleTable
  0
DIMSTYLE
105
27
330
A
100
AcDbSymbolTableRecord
100
AcDbDimStyleTableRecord
  2
Standard
 70
     0
178
     0
340
11
  0
DIMSTYLE
105
12C
102
{ACAD_REACTORS
330
272
330
278
330
29F
330
2A2
330
2A7
330
2B2
330
386
330
3C3
330
3D5
330
3E6
330
401
330
407
330
409
102
}
330
A
100
AcDbSymbolTableRecord
100
AcDbDimStyleTableRecord
  2
ISO-25
 70
     0
 41
2.5
 42
0.625
 43
3.75
 44
1.25
 73
     0
 74
     0
 77
     1
 78
     8
140
2.5
141
2.5
143
0.03937007874016
147
0.625
171
     3
172
     1
178
     0
271
     2
272
     2
274
     3
283
     0
284
     8
340
11
  0
ENDTAB
  0
TABLE
  2
BLOCK_RECORD
  5
1
330
0
100
AcDbSymbolTable
 70
    29
  0
BLOCK_RECORD
  5
1F
330
1
100
AcDbSymbolTableRecord
100
AcDbBlockTableRecord
  2
*Model_Space
340
22
 70
     0
280
     1
281
     0
  0
BLOCK_RECORD
  5
58
330
1
100
AcDbSymbolTableRecord
100
AcDbBlockTableRecord
  2
*Paper_Space
340
59
 70
     0
280
     1
281
     0
  0
BLOCK_RECORD
  5
5D
330
1
100
AcDbSymbolTableRecord
100
AcDbBlockTableRecord
  2
*Paper_Space0
340
5E
 70
     0
280
     1
281
     0
  0
BLOCK_RECORD
  5
187
330
1
100
AcDbSymbolTableRecord
100
AcDbBlockTableRecord
  2
*D1
340
0
 70
     0
280
     1
281
     0
  0
BLOCK_RECORD
  5
199
330
1
100
AcDbSymbolTableRecord
100
AcDbBlockTableRecord
  2
*D2
340
0
 70
     0
280
     1
281
     0
  0
BLOCK_RECORD
  5
1BE
330
1
100
AcDbSymbolTableRecord
100
AcDbBlockTableRecord
  2
*D3
340
0
 70
     0
280
     1
281
     0
  0
BLOCK_RECORD
  5
1D2
330
1
100
AcDbSymbolTableRecord
100
AcDbBlockTableRecord
  2
*D4
340
0
 70
     0
280
     1
281
     0
  0
BLOCK_RECORD
  5
1E3
330
1
100
AcDbSymbolTableRecord
100
AcDbBlockTableRecord
  2
*D5
340
0
 70
     0
280
     1
281
     0
  0
BLOCK_RECORD
  5
1F2
330
1
100
AcDbSymbolTableRecord
100
AcDbBlockTableRecord
  2
*D6
340
0
 70
     0
280
     1
281
     0
  0
BLOCK_RECORD
  5
201
330
1
100
AcDbSymbolTableRecord
100
AcDbBlockTableRecord
  2
*D7
340
0
 70
     0
280
     1
281
     0
  0
BLOCK_RECORD
  5
212
330
1
100
AcDbSymbolTableRecord
100
AcDbBlockTableRecord
  2
*D8
340
0
 70
     0
280
     1
281
     0
  0
BLOCK_RECORD
  5
225
330
1
100
AcDbSymbolTableRecord
100
AcDbBlockTableRecord
  2
*D9
340
0
 70
     0
280
     1
281
     0
  0
BLOCK_RECORD
  5
2B5
330
1
100
AcDbSymbolTableRecord
100
AcDbBlockTableRecord
  2
*D10
340
0
 70
     0
280
     1
281
     0
  0
BLOCK_RECORD
  5
2C1
330
1
100
AcDbSymbolTableRecord
100
AcDbBlockTableRecord
  2
*D11
340
0
 70
     0
280
     1
281
     0
  0
BLOCK_RECORD
  5
2CD
330
1
100
AcDbSymbolTableRecord
100
AcDbBlockTableRecord
  2
*D12
340
0
 70
     0
280
     1
281
     0
  0
BLOCK_RECORD
  5
2D9
330
1
100
AcDbSymbolTableRecord
100
AcDbBlockTableRecord
  2
*D13
340
0
 70
     0
280
     1
281
     0
  0
BLOCK_RECORD
  5
2E8
330
1
100
AcDbSymbolTableRecord
100
AcDbBlockTableRecord
  2
*D14
340
0
 70
     0
280
     1
281
     0
  0
BLOCK_RECORD
  5
2F4
330
1
100
AcDbSymbolTableRecord
100
AcDbBlockTableRecord
  2
*D15
340
0
 70
     0
280
     1
281
     0
  0
BLOCK_RECORD
  5
300
330
1
100
AcDbSymbolTableRecord
100
AcDbBlockTableRecord
  2
*D16
340
0
 70
     0
280
     1
281
     0
  0
BLOCK_RECORD
  5
30C
330
1
100
AcDbSymbolTableRecord
100
AcDbBlockTableRecord
  2
*D17
340
0
 70
     0
280
     1
281
     0
  0
BLOCK_RECORD
  5
318
330
1
100
AcDbSymbolTableRecord
100
AcDbBlockTableRecord
  2
*D18
340
0
 70
     0
280
     1
281
     0
  0
BLOCK_RECORD
  5
377
330
1
100
AcDbSymbolTableRecord
100
AcDbBlockTableRecord
  2
*D19
340
0
 70
     0
280
     1
281
     0
  0
BLOCK_RECORD
  5
389
330
1
100
AcDbSymbolTableRecord
100
AcDbBlockTableRecord
  2
*D20
340
0
 70
     0
280
     1
281
     0
  0
BLOCK_RECORD
  5
3C5
330
1
100
AcDbSymbolTableRecord
100
AcDbBlockTableRecord
  2
*D22
340
0
 70
     0
280
     1
281
     0
  0
BLOCK_RECORD
  5
3D7
330
1
100
AcDbSymbolTableRecord
100
AcDbBlockTableRecord
  2
*D23
340
0
 70
     0
280
     1
281
     0
  0
BLOCK_RECORD
  5
3E9
330
1
100
AcDbSymbolTableRecord
100
AcDbBlockTableRecord
  2
*D24
340
0
 70
     0
280
     1
281
     0
  0
BLOCK_RECORD
  5
40F
330
1
100
AcDbSymbolTableRecord
100
AcDbBlockTableRecord
  2
*D25
340
0
 70
     0
280
     1
281
     0
  0
BLOCK_RECORD
  5
41B
330
1
100
AcDbSymbolTableRecord
100
AcDbBlockTableRecord
  2
*D26
340
0
 70
     0
280
     1
281
     0
  0
BLOCK_RECORD
  5
42A
330
1
100
AcDbSymbolTableRecord
100
AcDbBlockTableRecord
  2
*D27
340
0
 70
     0
280
     1
281
     0
  0
ENDTAB
  0
ENDSEC
  0
SECTION
  2
BLOCKS
  0
BLOCK
  5
20
330
1F
100
AcDbEntity
  8
0
100
AcDbBlockBegin
  2
*Model_Space
 70
     0
 10
0.0
 20
0.0
 30
0.0
  3
*Model_Space
  1
*Model_Space
  0
ENDBLK
  5
21
330
1F
100
AcDbEntity
  8
0
100
AcDbBlockEnd
  0
BLOCK
  5
5A
330
58
100
AcDbEntity
 67
     1
  8
0
100
AcDbBlockBegin
  2
*Paper_Space
 70
     0
 10
0.0
 20
0.0
 30
0.0
  3
*Paper_Space
  1
*Paper_Space
  0
ENDBLK
  5
5B
330
58
100
AcDbEntity
 67
     1
  8
0
100
AcDbBlockEnd
  0
BLOCK
  5
5F
330
5D
100
AcDbEntity
  8
0
100
AcDbBlockBegin
  2
*Paper_Space0
 70
     0
 10
0.0
 20
0.0
 30
0.0
  3
*Paper_Space0
  1
*Paper_Space0
  0
ENDBLK
  5
60
330
5D
100
AcDbEntity
  8
0
100
AcDbBlockEnd
  0
BLOCK
  5
188
330
187
100
AcDbEntity
  8
0
100
AcDbBlockBegin
  2
*D1
 70
     1
 10
0.0
 20
0.0
 30
0.0
  3
*D1
  1
*D2
  0
LINE
  5
189
330
187
100
AcDbEntity
  8
文字
 62
     0
370
    -2
100
AcDbLine
 10
51.80691214302152
 20
163.6177976815632
 30
0.0
 11
51.80691214302152
 21
183.3021801891527
 31
0.0
  0
LINE
  5
18A
330
187
100
AcDbEntity
  8
文字
 62
     0
370
    -2
100
AcDbLine
 10
75.80691214302152
 20
163.6177976815632
 30
0.0
 11
75.80691214302152
 21
183.3021801891527
 31
0.0
  0
LINE
  5
18B
330
187
100
AcDbEntity
  8
文字
 62
     0
370
    -2
100
AcDbLine
 10
54.30691214302152
 20
182.0521801891527
 30
0.0
 11
73.30691214302152
 21
182.0521801891527
 31
0.0
  0
SOLID
  5
18C
330
187
100
AcDbEntity
  8
文字
 62
     0
100
AcDbTrace
 10
54.30691214302152
 20
182.4688468558194
 30
0.0
 11
54.30691214302152
 21
181.635513522486
 31
0.0
 12
51.80691214302152
 22
182.0521801891527
 32
0.0
 13
51.80691214302152
 23
182.0521801891527
 33
0.0
  0
SOLID
  5
18D
330
187
100
AcDbEntity
  8
文字
 62
     0
100
AcDbTrace
 10
73.30691214302152
 20
181.635513522486
 30
0.0
 11
73.30691214302152
 21
182.4688468558194
 31
0.0
 12
75.80691214302152
 22
182.0521801891527
 32
0.0
 13
75.80691214302152
 23
182.0521801891527
 33
0.0
  0
MTEXT
  5
18E
330
187
100
AcDbEntity
  8
文字
 62
     0
100
AcDbMText
 10
63.80691214302152
 20
183.9322961509535
 30
0.0
 40
2.5
 41
0.0
 46
0.0
 71
     5
 72
     1
  1
{\fArial|b0|i0|c0|p32;M}24
 73
     1
 44
1.0
  0
POINT
  5
18F
330
187
100
AcDbEntity
  8
Defpoints
 62
     0
100
AcDbPoint
 10
51.80691214302152
 20
162.9927976815632
 30
0.0
  0
POINT
  5
190
330
187
100
AcDbEntity
  8
Defpoints
 62
     0
100
AcDbPoint
 10
75.80691214302152
 20
162.9927976815632
 30
0.0
  0
POINT
  5
191
330
187
100
AcDbEntity
  8
Defpoints
 62
     0
100
AcDbPoint
 10
75.80691214302152
 20
182.0521801891527
 30
0.0
  0
ENDBLK
  5
192
330
187
100
AcDbEntity
  8
0
100
AcDbBlockEnd
  0
BLOCK
  5
19A
330
199
100
AcDbEntity
  8
0
100
AcDbBlockBegin
  2
*D2
 70
     1
 10
0.0
 20
0.0
 30
0.0
  3
*D2
  1
*D3
  0
LINE
  5
19B
330
199
100
AcDbEntity
  8
文字
 62
     0
370
    -2
100
AcDbLine
 10
184.5569101856515
 20
116.302582676026
 30
0.0
 11
184.5569101856515
 21
58.71467808390298
 31
0.0
  0
LINE
  5
19C
330
199
100
AcDbEntity
  8
文字
 62
     0
370
    -2
100
AcDbLine
 10
220.5835669830842
 20
116.302582676026
 30
0.0
 11
220.5835669830842
 21
58.71467808390298
 31
0.0
  0
LINE
  5
19D
330
199
100
AcDbEntity
  8
文字
 62
     0
370
    -2
100
AcDbLine
 10
187.0569101856515
 20
59.96467808390298
 30
0.0
 11
218.0835669830842
 21
59.96467808390298
 31
0.0
  0
SOLID
  5
19E
330
199
100
AcDbEntity
  8
文字
 62
     0
100
AcDbTrace
 10
187.0569101856515
 20
60.38134475056965
 30
0.0
 11
187.0569101856515
 21
59.54801141723632
 31
0.0
 12
184.5569101856515
 22
59.96467808390298
 32
0.0
 13
184.5569101856515
 23
59.96467808390298
 33
0.0
  0
SOLID
  5
19F
330
199
100
AcDbEntity
  8
文字
 62
     0
100
AcDbTrace
 10
218.0835669830842
 20
59.54801141723632
 30
0.0
 11
218.0835669830842
 21
60.38134475056965
 31
0.0
 12
220.5835669830842
 22
59.96467808390298
 32
0.0
 13
220.5835669830842
 23
59.96467808390298
 33
0.0
  0
MTEXT
  5
1A0
330
199
100
AcDbEntity
  8
文字
 62
     0
100
AcDbMText
 10
202.4919152250964
 20
61.86525789290707
 30
0.0
 40
2.5
 41
0.0
 46
0.0
 71
     5
 72
     1
  1
36
 73
     1
 44
1.0
  0
POINT
  5
1A1
330
199
100
AcDbEntity
  8
Defpoints
 62
     0
100
AcDbPoint
 10
184.5569101856515
 20
116.927582676026
 30
0.0
  0
POINT
  5
1A2
330
199
100
AcDbEntity
  8
Defpoints
 62
     0
100
AcDbPoint
 10
220.5835669830842
 20
116.927582676026
 30
0.0
  0
POINT
  5
1A3
330
199
100
AcDbEntity
  8
Defpoints
 62
     0
100
AcDbPoint
 10
220.5835669830842
 20
59.96467808390298
 30
0.0
  0
ENDBLK
  5
1A4
330
199
100
AcDbEntity
  8
0
100
AcDbBlockEnd
  0
BLOCK
  5
1BF
330
1BE
100
AcDbEntity
  8
0
100
AcDbBlockBegin
  2
*D3
 70
     1
 10
0.0
 20
0.0
 30
0.0
  3
*D3
  1
*D4
  0
LINE
  5
1C0
330
1BE
100
AcDbEntity
  8
文字
 62
     0
370
    -2
100
AcDbLine
 10
8.80691214302152
 20
25.36779768156322
 30
0.0
 11
8.80691214302152
 21
6.651170055799923
 31
0.0
  0
LINE
  5
1C1
330
1BE
100
AcDbEntity
  8
文字
 62
     0
370
    -2
100
AcDbLine
 10
118.8069121430215
 20
25.36779768156315
 30
0.0
 11
118.8069121430215
 21
6.651170055799923
 31
0.0
  0
LINE
  5
1C2
330
1BE
100
AcDbEntity
  8
文字
 62
     0
370
    -2
100
AcDbLine
 10
11.30691214302152
 20
7.901170055799923
 30
0.0
 11
116.3069121430215
 21
7.901170055799923
 31
0.0
  0
SOLID
  5
1C3
330
1BE
100
AcDbEntity
  8
文字
 62
     0
100
AcDbTrace
 10
11.30691214302152
 20
8.31783672246659
 30
0.0
 11
11.30691214302152
 21
7.484503389133256
 31
0.0
 12
8.80691214302152
 22
7.901170055799923
 32
0.0
 13
8.80691214302152
 23
7.901170055799923
 33
0.0
  0
SOLID
  5
1C4
330
1BE
100
AcDbEntity
  8
文字
 62
     0
100
AcDbTrace
 10
116.3069121430215
 20
7.484503389133256
 30
0.0
 11
116.3069121430215
 21
8.31783672246659
 31
0.0
 12
118.8069121430215
 22
7.901170055799923
 32
0.0
 13
118.8069121430215
 23
7.901170055799923
 33
0.0
  0
MTEXT
  5
1C5
330
1BE
100
AcDbEntity
  8
文字
 62
     0
100
AcDbMText
 10
63.36385004450267
 20
9.849498841611656
 30
0.0
 40
2.5
 41
0.0
 46
0.0
 71
     5
 72
     1
  1
%%c110
 73
     1
 44
1.0
  0
POINT
  5
1C6
330
1BE
100
AcDbEntity
  8
Defpoints
 62
     0
100
AcDbPoint
 10
8.80691214302152
 20
25.99279768156322
 30
0.0
  0
POINT
  5
1C7
330
1BE
100
AcDbEntity
  8
Defpoints
 62
     0
100
AcDbPoint
 10
118.8069121430215
 20
25.99279768156315
 30
0.0
  0
POINT
  5
1C8
330
1BE
100
AcDbEntity
  8
Defpoints
 62
     0
100
AcDbPoint
 10
118.8069121430215
 20
7.901170055799923
 30
0.0
  0
ENDBLK
  5
1C9
330
1BE
100
AcDbEntity
  8
0
100
AcDbBlockEnd
  0
BLOCK
  5
1D3
330
1D2
100
AcDbEntity
  8
0
100
AcDbBlockBegin
  2
*D4
 70
     1
 10
0.0
 20
0.0
 30
0.0
  3
*D4
  1
*D5
  0
LINE
  5
1D4
330
1D2
100
AcDbEntity
  8
文字
 62
     0
370
    -2
100
AcDbLine
 10
8.18191214302152
 20
25.99279768156322
 30
0.0
 11
5.003710342222803
 21
25.99279768156322
 31
0.0
  0
LINE
  5
1D5
330
1D2
100
AcDbEntity
  8
文字
 62
     0
370
    -2
100
AcDbLine
 10
8.18191214302152
 20
28.59279768156324
 30
0.0
 11
5.003710342222803
 21
28.59279768156324
 31
0.0
  0
LINE
  5
1D6
330
1D2
100
AcDbEntity
  8
文字
 62
     0
370
    -2
100
AcDbLine
 10
6.253710342222803
 20
28.59279768156324
 30
0.0
 11
6.253710342222803
 21
47.07454345392802
 31
0.0
  0
LINE
  5
1D7
330
1D2
100
AcDbEntity
  8
文字
 62
     0
370
    -2
100
AcDbLine
 10
6.253710342222803
 20
25.99279768156322
 30
0.0
 11
6.253710342222803
 21
28.59279768156324
 31
0.0
  0
LINE
  5
1D8
330
1D2
100
AcDbEntity
  8
文字
 62
     0
370
    -2
100
AcDbLine
 10
6.253710342222803
 20
23.49279768156322
 30
0.0
 11
6.253710342222803
 21
20.99279768156322
 31
0.0
  0
LINE
  5
1D9
330
1D2
100
AcDbEntity
  8
文字
 62
     0
370
    -2
100
AcDbLine
 10
6.253710342222803
 20
31.09279768156324
 30
0.0
 11
6.253710342222803
 21
33.59279768156324
 31
0.0
  0
SOLID
  5
1DA
330
1D2
100
AcDbEntity
  8
文字
 62
     0
100
AcDbTrace
 10
6.67037700888947
 20
23.49279768156322
 30
0.0
 11
5.837043675556136
 21
23.49279768156322
 31
0.0
 12
6.253710342222803
 22
25.99279768156322
 32
0.0
 13
6.253710342222803
 23
25.99279768156322
 33
0.0
  0
SOLID
  5
1DB
330
1D2
100
AcDbEntity
  8
文字
 62
     0
100
AcDbTrace
 10
5.837043675556136
 20
31.09279768156324
 30
0.0
 11
6.67037700888947
 21
31.09279768156324
 31
0.0
 12
6.253710342222803
 22
28.59279768156324
 32
0.0
 13
6.253710342222803
 23
28.59279768156324
 33
0.0
  0
MTEXT
  5
1DC
330
1D2
100
AcDbEntity
  8
文字
 62
     0
100
AcDbMText
 10
4.35313053321871
 20
44.14906596415994
 30
0.0
 40
2.5
 41
0.0
 46
0.0
 71
     5
 72
     1
  1
2.6
 11
0.0
 21
1.0
 31
0.0
 73
     1
 44
1.0
  0
POINT
  5
1DD
330
1D2
100
AcDbEntity
  8
Defpoints
 62
     0
100
AcDbPoint
 10
8.80691214302152
 20
25.99279768156322
 30
0.0
  0
POINT
  5
1DE
330
1D2
100
AcDbEntity
  8
Defpoints
 62
     0
100
AcDbPoint
 10
8.80691214302152
 20
28.59279768156324
 30
0.0
  0
POINT
  5
237
330
1D2
100
AcDbEntity
  8
Defpoints
 62
     0
100
AcDbPoint
 10
6.253710342222806
 20
28.59279768156324
 30
0.0
  0
ENDBLK
  5
1DF
330
1D2
100
AcDbEntity
  8
0
100
AcDbBlockEnd
  0
BLOCK
  5
1E4
330
1E3
100
AcDbEntity
  8
0
100
AcDbBlockBegin
  2
*D5
 70
     1
 10
0.0
 20
0.0
 30
0.0
  3
*D5
  1
*D6
  0
LINE
  5
1E5
330
1E3
100
AcDbEntity
  8
文字
 62
     0
370
    -2
100
AcDbLine
 10
74.4319121430215
 20
50.99279768156322
 30
0.0
 11
124.3676274381417
 21
50.99279768156322
 31
0.0
  0
LINE
  5
1E6
330
1E3
100
AcDbEntity
  8
文字
 62
     0
370
    -2
100
AcDbLine
 10
119.4319121430215
 20
25.99279768156315
 30
0.0
 11
124.3676274381417
 21
25.99279768156315
 31
0.0
  0
LINE
  5
1E7
330
1E3
100
AcDbEntity
  8
文字
 62
     0
370
    -2
100
AcDbLine
 10
123.1176274381417
 20
48.49279768156322
 30
0.0
 11
123.1176274381417
 21
28.49279768156315
 31
0.0
  0
SOLID
  5
1E8
330
1E3
100
AcDbEntity
  8
文字
 62
     0
100
AcDbTrace
 10
123.5342941048084
 20
48.49279768156322
 30
0.0
 11
122.700960771475
 21
48.49279768156322
 31
0.0
 12
123.1176274381417
 22
50.99279768156322
 32
0.0
 13
123.1176274381417
 23
50.99279768156322
 33
0.0
  0
SOLID
  5
1E9
330
1E3
100
AcDbEntity
  8
文字
 62
     0
100
AcDbTrace
 10
122.700960771475
 20
28.49279768156315
 30
0.0
 11
123.5342941048084
 21
28.49279768156315
 31
0.0
 12
123.1176274381417
 22
25.99279768156315
 32
0.0
 13
123.1176274381417
 23
25.99279768156315
 33
0.0
  0
MTEXT
  5
1EA
330
1E3
100
AcDbEntity
  8
文字
 62
     0
100
AcDbMText
 10
121.2375114763409
 20
38.49279768156318
 30
0.0
 40
2.5
 41
0.0
 46
0.0
 71
     5
 72
     1
  1
24
 11
0.0
 21
1.0
 31
0.0
 73
     1
 44
1.0
  0
POINT
  5
1EB
330
1E3
100
AcDbEntity
  8
Defpoints
 62
     0
100
AcDbPoint
 10
73.8069121430215
 20
50.99279768156322
 30
0.0
  0
POINT
  5
1EC
330
1E3
100
AcDbEntity
  8
Defpoints
 62
     0
100
AcDbPoint
 10
118.8069121430215
 20
25.99279768156315
 30
0.0
  0
POINT
  5
1ED
330
1E3
100
AcDbEntity
  8
Defpoints
 62
     0
100
AcDbPoint
 10
123.1176274381417
 20
25.99279768156315
 30
0.0
  0
ENDBLK
  5
1EE
330
1E3
100
AcDbEntity
  8
0
100
AcDbBlockEnd
  0
BLOCK
  5
1F3
330
1F2
100
AcDbEntity
  8
0
100
AcDbBlockBegin
  2
*D6
 70
     1
 10
0.0
 20
0.0
 30
0.0
  3
*D6
  1
*D7
  0
LINE
  5
1F4
330
1F2
100
AcDbEntity
  8
文字
 62
     0
370
    -2
100
AcDbLine
 10
85.23191214302153
 20
65.99279768156322
 30
0.0
 11
124.3676274381417
 21
65.99279768156322
 31
0.0
  0
LINE
  5
1F5
330
1F2
100
AcDbEntity
  8
文字
 62
     0
370
    -2
100
AcDbLine
 10
80.03191214302154
 20
50.99279768156322
 30
0.0
 11
124.3676274381417
 21
50.99279768156322
 31
0.0
  0
LINE
  5
1F6
330
1F2
100
AcDbEntity
  8
文字
 62
     0
370
    -2
100
AcDbLine
 10
123.1176274381417
 20
63.49279768156322
 30
0.0
 11
123.1176274381417
 21
53.49279768156322
 31
0.0
  0
SOLID
  5
1F7
330
1F2
100
AcDbEntity
  8
文字
 62
     0
100
AcDbTrace
 10
123.5342941048084
 20
63.49279768156322
 30
0.0
 11
122.700960771475
 21
63.49279768156322
 31
0.0
 12
123.1176274381417
 22
65.99279768156322
 32
0.0
 13
123.1176274381417
 23
65.99279768156322
 33
0.0
  0
SOLID
  5
1F8
330
1F2
100
AcDbEntity
  8
文字
 62
     0
100
AcDbTrace
 10
122.700960771475
 20
53.49279768156322
 30
0.0
 11
123.5342941048084
 21
53.49279768156322
 31
0.0
 12
123.1176274381417
 22
50.99279768156322
 32
0.0
 13
123.1176274381417
 23
50.99279768156322
 33
0.0
  0
MTEXT
  5
1F9
330
1F2
100
AcDbEntity
  8
文字
 62
     0
100
AcDbMText
 10
121.2170476291376
 20
58.49279768156322
 30
0.0
 40
2.5
 41
0.0
 46
0.0
 71
     5
 72
     1
  1
15
 11
0.0
 21
1.0
 31
0.0
 73
     1
 44
1.0
  0
POINT
  5
1FA
330
1F2
100
AcDbEntity
  8
Defpoints
 62
     0
100
AcDbPoint
 10
84.60691214302153
 20
65.99279768156322
 30
0.0
  0
POINT
  5
1FB
330
1F2
100
AcDbEntity
  8
Defpoints
 62
     0
100
AcDbPoint
 10
79.40691214302154
 20
50.99279768156322
 30
0.0
  0
POINT
  5
1FC
330
1F2
100
AcDbEntity
  8
Defpoints
 62
     0
100
AcDbPoint
 10
123.1176274381417
 20
50.99279768156322
 30
0.0
  0
ENDBLK
  5
1FD
330
1F2
100
AcDbEntity
  8
0
100
AcDbBlockEnd
  0
BLOCK
  5
202
330
201
100
AcDbEntity
  8
0
100
AcDbBlockBegin
  2
*D7
 70
     1
 10
0.0
 20
0.0
 30
0.0
  3
*D7
  1
*D8
  0
LINE
  5
203
330
201
100
AcDbEntity
  8
文字
 62
     0
370
    -2
100
AcDbLine
 10
85.85691214302153
 20
65.99279768156322
 30
0.0
 11
124.3676274381418
 21
65.99279768156322
 31
0.0
  0
LINE
  5
204
330
201
100
AcDbEntity
  8
文字
 62
     0
370
    -2
100
AcDbLine
 10
73.43191214302152
 20
165.9927976815632
 30
0.0
 11
124.3676274381418
 21
165.9927976815632
 31
0.0
  0
LINE
  5
205
330
201
100
AcDbEntity
  8
文字
 62
     0
370
    -2
100
AcDbLine
 10
123.1176274381418
 20
68.49279768156322
 30
0.0
 11
123.1176274381418
 21
163.4927976815632
 31
0.0
  0
SOLID
  5
206
330
201
100
AcDbEntity
  8
文字
 62
     0
100
AcDbTrace
 10
122.7009607714751
 20
68.49279768156322
 30
0.0
 11
123.5342941048084
 21
68.49279768156322
 31
0.0
 12
123.1176274381418
 22
65.99279768156322
 32
0.0
 13
123.1176274381418
 23
65.99279768156322
 33
0.0
  0
SOLID
  5
207
330
201
100
AcDbEntity
  8
文字
 62
     0
100
AcDbTrace
 10
123.5342941048084
 20
163.4927976815632
 30
0.0
 11
122.7009607714751
 21
163.4927976815632
 31
0.0
 12
123.1176274381418
 22
165.9927976815632
 32
0.0
 13
123.1176274381418
 23
165.9927976815632
 33
0.0
  0
MTEXT
  5
208
330
201
100
AcDbEntity
  8
文字
 62
     0
100
AcDbMText
 10
121.2170476291377
 20
115.9927976815632
 30
0.0
 40
2.5
 41
0.0
 46
0.0
 71
     5
 72
     1
  1
130
 11
0.0
 21
1.0
 31
0.0
 73
     1
 44
1.0
  0
POINT
  5
209
330
201
100
AcDbEntity
  8
Defpoints
 62
     0
100
AcDbPoint
 10
85.23191214302153
 20
65.99279768156322
 30
0.0
  0
POINT
  5
20A
330
201
100
AcDbEntity
  8
Defpoints
 62
     0
100
AcDbPoint
 10
72.80691214302152
 20
165.9927976815632
 30
0.0
  0
POINT
  5
20B
330
201
100
AcDbEntity
  8
Defpoints
 62
     0
100
AcDbPoint
 10
123.1176274381418
 20
165.9927976815632
 30
0.0
  0
ENDBLK
  5
20C
330
201
100
AcDbEntity
  8
0
100
AcDbBlockEnd
  0
BLOCK
  5
213
330
212
100
AcDbEntity
  8
0
100
AcDbBlockBegin
  2
*D8
 70
     1
 10
0.0
 20
0.0
 30
0.0
  3
*D8
  1
*D9
  0
LINE
  5
214
330
212
100
AcDbEntity
  8
文字
 62
     0
370
    -2
100
AcDbLine
 10
167.5702385843679
 20
126.7025826760261
 30
0.0
 11
167.5702385843679
 21
48.46555326539817
 31
0.0
  0
LINE
  5
215
330
212
100
AcDbEntity
  8
文字
 62
     0
370
    -2
100
AcDbLine
 10
237.5702385843679
 20
126.7025826760261
 30
0.0
 11
237.5702385843679
 21
48.46555326539817
 31
0.0
  0
LINE
  5
216
330
212
100
AcDbEntity
  8
文字
 62
     0
370
    -2
100
AcDbLine
 10
170.0702385843679
 20
49.71555326539817
 30
0.0
 11
235.0702385843679
 21
49.71555326539817
 31
0.0
  0
SOLID
  5
217
330
212
100
AcDbEntity
  8
文字
 62
     0
100
AcDbTrace
 10
170.0702385843679
 20
50.13221993206484
 30
0.0
 11
170.0702385843679
 21
49.29888659873151
 31
0.0
 12
167.5702385843679
 22
49.71555326539817
 32
0.0
 13
167.5702385843679
 23
49.71555326539817
 33
0.0
  0
SOLID
  5
218
330
212
100
AcDbEntity
  8
文字
 62
     0
100
AcDbTrace
 10
235.0702385843679
 20
49.29888659873151
 30
0.0
 11
235.0702385843679
 21
50.13221993206484
 31
0.0
 12
237.5702385843679
 22
49.71555326539817
 32
0.0
 13
237.5702385843679
 23
49.71555326539817
 33
0.0
  0
MTEXT
  5
219
330
212
100
AcDbEntity
  8
文字
 62
     0
100
AcDbMText
 10
202.5702385843679
 20
51.6638820512099
 30
0.0
 40
2.5
 41
0.0
 46
0.0
 71
     5
 72
     1
  1
%%c70
 73
     1
 44
1.0
  0
POINT
  5
21A
330
212
100
AcDbEntity
  8
Defpoints
 62
     0
100
AcDbPoint
 10
167.5702385843679
 20
127.3275826760261
 30
0.0
  0
POINT
  5
21B
330
212
100
AcDbEntity
  8
Defpoints
 62
     0
100
AcDbPoint
 10
237.5702385843679
 20
127.3275826760261
 30
0.0
  0
POINT
  5
21C
330
212
100
AcDbEntity
  8
Defpoints
 62
     0
100
AcDbPoint
 10
237.5702385843679
 20
49.71555326539817
 30
0.0
  0
ENDBLK
  5
21D
330
212
100
AcDbEntity
  8
0
100
AcDbBlockEnd
  0
BLOCK
  5
226
330
225
100
AcDbEntity
  8
0
100
AcDbBlockBegin
  2
*D9
 70
     1
 10
0.0
 20
0.0
 30
0.0
  3
*D9
  1
*D10
  0
LINE
  5
227
330
225
100
AcDbEntity
  8
文字
 62
     0
370
    -2
100
AcDbLine
 10
17.80691214302152
 20
25.36779768156322
 30
0.0
 11
17.80691214302152
 21
13.69079510738982
 31
0.0
  0
LINE
  5
228
330
225
100
AcDbEntity
  8
文字
 62
     0
370
    -2
100
AcDbLine
 10
109.8069121430215
 20
25.36779768156315
 30
0.0
 11
109.8069121430215
 21
13.69079510738982
 31
0.0
  0
LINE
  5
229
330
225
100
AcDbEntity
  8
文字
 62
     0
370
    -2
100
AcDbLine
 10
20.30691214302152
 20
14.94079510738982
 30
0.0
 11
107.3069121430215
 21
14.94079510738982
 31
0.0
  0
SOLID
  5
22A
330
225
100
AcDbEntity
  8
文字
 62
     0
100
AcDbTrace
 10
20.30691214302152
 20
15.35746177405648
 30
0.0
 11
20.30691214302152
 21
14.52412844072315
 31
0.0
 12
17.80691214302152
 22
14.94079510738982
 32
0.0
 13
17.80691214302152
 23
14.94079510738982
 33
0.0
  0
SOLID
  5
22B
330
225
100
AcDbEntity
  8
文字
 62
     0
100
AcDbTrace
 10
107.3069121430215
 20
14.52412844072315
 30
0.0
 11
107.3069121430215
 21
15.35746177405648
 31
0.0
 12
109.8069121430215
 22
14.94079510738982
 32
0.0
 13
109.8069121430215
 23
14.94079510738982
 33
0.0
  0
MTEXT
  5
22C
330
225
100
AcDbEntity
  8
文字
 62
     0
100
AcDbMText
 10
63.80691214302152
 20
16.84137491639391
 30
0.0
 40
2.5
 41
0.0
 46
0.0
 71
     5
 72
     1
  1
92
 73
     1
 44
1.0
  0
POINT
  5
22D
330
225
100
AcDbEntity
  8
Defpoints
 62
     0
100
AcDbPoint
 10
17.80691214302152
 20
25.99279768156322
 30
0.0
  0
POINT
  5
22E
330
225
100
AcDbEntity
  8
Defpoints
 62
     0
100
AcDbPoint
 10
109.8069121430215
 20
25.99279768156315
 30
0.0
  0
POINT
  5
22F
330
225
100
AcDbEntity
  8
Defpoints
 62
     0
100
AcDbPoint
 10
109.8069121430215
 20
14.94079510738982
 30
0.0
  0
ENDBLK
  5
230
330
225
100
AcDbEntity
  8
0
100
AcDbBlockEnd
  0
BLOCK
  5
2B6
330
2B5
100
AcDbEntity
  8
0
100
AcDbBlockBegin
  2
*D10
 70
     1
 10
0.0
 20
0.0
 30
0.0
  3
*D10
  1
*D11
  0
LINE
  5
2B8
330
2B5
100
AcDbEntity
  8
文字
 62
     0
370
    -2
100
AcDbLine
 10
62.33597943882256
 20
172.8761132228356
 30
0.0
 11
62.33597943882256
 21
192.5604957304251
 31
0.0
  0
LINE
  5
2B9
330
2B5
100
AcDbEntity
  8
文字
 62
     0
370
    -2
100
AcDbLine
 10
86.33597943882256
 20
172.8761132228356
 30
0.0
 11
86.33597943882256
 21
192.5604957304251
 31
0.0
  0
LINE
  5
2BA
330
2B5
100
AcDbEntity
  8
文字
 62
     0
370
    -2
100
AcDbLine
 10
64.83597943882256
 20
191.3104957304251
 30
0.0
 11
83.83597943882256
 21
191.3104957304251
 31
0.0
  0
SOLID
  5
2BB
330
2B5
100
AcDbEntity
  8
文字
 62
     0
100
AcDbTrace
 10
64.83597943882256
 20
191.7271623970918
 30
0.0
 11
64.83597943882256
 21
190.8938290637585
 31
0.0
 12
62.33597943882256
 22
191.3104957304251
 32
0.0
 13
62.33597943882256
 23
191.3104957304251
 33
0.0
  0
SOLID
  5
2BC
330
2B5
100
AcDbEntity
  8
文字
 62
     0
100
AcDbTrace
 10
83.83597943882256
 20
190.8938290637585
 30
0.0
 11
83.83597943882256
 21
191.7271623970918
 31
0.0
 12
86.33597943882256
 22
191.3104957304251
 32
0.0
 13
86.33597943882256
 23
191.3104957304251
 33
0.0
  0
MTEXT
  5
2BD
330
2B5
100
AcDbEntity
  8
文字
 62
     0
100
AcDbMText
 10
74.33597943882256
 20
193.1906116922259
 30
0.0
 40
2.5
 41
0.0
 46
0.0
 71
     5
 72
     1
  1
{\fArial|b0|i0|c0|p32;M}24
 73
     1
 44
1.0
  0
POINT
  5
2BE
330
2B5
100
AcDbEntity
  8
Defpoints
 62
     0
100
AcDbPoint
 10
62.33597943882256
 20
172.2511132228356
 30
0.0
  0
POINT
  5
2BF
330
2B5
100
AcDbEntity
  8
Defpoints
 62
     0
100
AcDbPoint
 10
86.33597943882256
 20
172.2511132228356
 30
0.0
  0
POINT
  5
2C0
330
2B5
100
AcDbEntity
  8
Defpoints
 62
     0
100
AcDbPoint
 10
86.33597943882256
 20
191.3104957304251
 30
0.0
  0
ENDBLK
  5
2B7
330
2B5
100
AcDbEntity
  8
0
100
AcDbBlockEnd
  0
BLOCK
  5
2C2
330
2C1
100
AcDbEntity
  8
0
100
AcDbBlockBegin
  2
*D11
 70
     1
 10
0.0
 20
0.0
 30
0.0
  3
*D11
  1
*D12
  0
LINE
  5
2C4
330
2C1
100
AcDbEntity
  8
文字
 62
     0
370
    -2
100
AcDbLine
 10
195.0859774814526
 20
125.5608982172985
 30
0.0
 11
195.0859774814526
 21
67.9729936251754
 31
0.0
  0
LINE
  5
2C5
330
2C1
100
AcDbEntity
  8
文字
 62
     0
370
    -2
100
AcDbLine
 10
231.1126342788852
 20
125.5608982172984
 30
0.0
 11
231.1126342788852
 21
67.9729936251754
 31
0.0
  0
LINE
  5
2C6
330
2C1
100
AcDbEntity
  8
文字
 62
     0
370
    -2
100
AcDbLine
 10
197.5859774814526
 20
69.2229936251754
 30
0.0
 11
228.6126342788852
 21
69.2229936251754
 31
0.0
  0
SOLID
  5
2C7
330
2C1
100
AcDbEntity
  8
文字
 62
     0
100
AcDbTrace
 10
197.5859774814526
 20
69.63966029184208
 30
0.0
 11
197.5859774814526
 21
68.80632695850873
 31
0.0
 12
195.0859774814526
 22
69.2229936251754
 32
0.0
 13
195.0859774814526
 23
69.2229936251754
 33
0.0
  0
SOLID
  5
2C8
330
2C1
100
AcDbEntity
  8
文字
 62
     0
100
AcDbTrace
 10
228.6126342788852
 20
68.80632695850873
 30
0.0
 11
228.6126342788852
 21
69.63966029184208
 31
0.0
 12
231.1126342788852
 22
69.2229936251754
 32
0.0
 13
231.1126342788852
 23
69.2229936251754
 33
0.0
  0
MTEXT
  5
2C9
330
2C1
100
AcDbEntity
  8
文字
 62
     0
100
AcDbMText
 10
213.0209825208974
 20
71.1235734341795
 30
0.0
 40
2.5
 41
0.0
 46
0.0
 71
     5
 72
     1
  1
36
 73
     1
 44
1.0
  0
POINT
  5
2CA
330
2C1
100
AcDbEntity
  8
Defpoints
 62
     0
100
AcDbPoint
 10
195.0859774814526
 20
126.1858982172985
 30
0.0
  0
POINT
  5
2CB
330
2C1
100
AcDbEntity
  8
Defpoints
 62
     0
100
AcDbPoint
 10
231.1126342788852
 20
126.1858982172984
 30
0.0
  0
POINT
  5
2CC
330
2C1
100
AcDbEntity
  8
Defpoints
 62
     0
100
AcDbPoint
 10
231.1126342788852
 20
69.2229936251754
 30
0.0
  0
ENDBLK
  5
2C3
330
2C1
100
AcDbEntity
  8
0
100
AcDbBlockEnd
  0
BLOCK
  5
2CE
330
2CD
100
AcDbEntity
  8
0
100
AcDbBlockBegin
  2
*D12
 70
     1
 10
0.0
 20
0.0
 30
0.0
  3
*D12
  1
*D13
  0
LINE
  5
2D0
330
2CD
100
AcDbEntity
  8
文字
 62
     0
370
    -2
100
AcDbLine
 10
19.33597943882256
 20
34.62611322283564
 30
0.0
 11
19.33597943882256
 21
15.90948559707235
 31
0.0
  0
LINE
  5
2D1
330
2CD
100
AcDbEntity
  8
文字
 62
     0
370
    -2
100
AcDbLine
 10
129.3359794388226
 20
34.62611322283557
 30
0.0
 11
129.3359794388226
 21
15.90948559707235
 31
0.0
  0
LINE
  5
2D2
330
2CD
100
AcDbEntity
  8
文字
 62
     0
370
    -2
100
AcDbLine
 10
21.83597943882256
 20
17.15948559707235
 30
0.0
 11
126.8359794388226
 21
17.15948559707235
 31
0.0
  0
SOLID
  5
2D3
330
2CD
100
AcDbEntity
  8
文字
 62
     0
100
AcDbTrace
 10
21.83597943882256
 20
17.57615226373902
 30
0.0
 11
21.83597943882256
 21
16.74281893040568
 31
0.0
 12
19.33597943882256
 22
17.15948559707235
 32
0.0
 13
19.33597943882256
 23
17.15948559707235
 33
0.0
  0
SOLID
  5
2D4
330
2CD
100
AcDbEntity
  8
文字
 62
     0
100
AcDbTrace
 10
126.8359794388226
 20
16.74281893040568
 30
0.0
 11
126.8359794388226
 21
17.57615226373902
 31
0.0
 12
129.3359794388226
 22
17.15948559707235
 32
0.0
 13
129.3359794388226
 23
17.15948559707235
 33
0.0
  0
MTEXT
  5
2D5
330
2CD
100
AcDbEntity
  8
文字
 62
     0
100
AcDbMText
 10
73.89291734030371
 20
19.10781438288408
 30
0.0
 40
2.5
 41
0.0
 46
0.0
 71
     5
 72
     1
  1
%%c110
 73
     1
 44
1.0
  0
POINT
  5
2D6
330
2CD
100
AcDbEntity
  8
Defpoints
 62
     0
100
AcDbPoint
 10
19.33597943882256
 20
35.25111322283564
 30
0.0
  0
POINT
  5
2D7
330
2CD
100
AcDbEntity
  8
Defpoints
 62
     0
100
AcDbPoint
 10
129.3359794388226
 20
35.25111322283557
 30
0.0
  0
POINT
  5
2D8
330
2CD
100
AcDbEntity
  8
Defpoints
 62
     0
100
AcDbPoint
 10
129.3359794388226
 20
17.15948559707235
 30
0.0
  0
ENDBLK
  5
2CF
330
2CD
100
AcDbEntity
  8
0
100
AcDbBlockEnd
  0
BLOCK
  5
2DA
330
2D9
100
AcDbEntity
  8
0
100
AcDbBlockBegin
  2
*D13
 70
     1
 10
0.0
 20
0.0
 30
0.0
  3
*D13
  1
*D14
  0
LINE
  5
2DC
330
2D9
100
AcDbEntity
  8
文字
 62
     0
370
    -2
100
AcDbLine
 10
18.71097943882256
 20
35.25111322283564
 30
0.0
 11
15.53277763802384
 21
35.25111322283564
 31
0.0
  0
LINE
  5
2DD
330
2D9
100
AcDbEntity
  8
文字
 62
     0
370
    -2
100
AcDbLine
 10
18.71097943882256
 20
37.85111322283566
 30
0.0
 11
15.53277763802384
 21
37.85111322283566
 31
0.0
  0
LINE
  5
2DE
330
2D9
100
AcDbEntity
  8
文字
 62
     0
370
    -2
100
AcDbLine
 10
16.78277763802384
 20
37.85111322283566
 30
0.0
 11
16.78277763802384
 21
56.33285899520045
 31
0.0
  0
LINE
  5
2DF
330
2D9
100
AcDbEntity
  8
文字
 62
     0
370
    -2
100
AcDbLine
 10
16.78277763802384
 20
35.25111322283564
 30
0.0
 11
16.78277763802384
 21
37.85111322283566
 31
0.0
  0
LINE
  5
2E0
330
2D9
100
AcDbEntity
  8
文字
 62
     0
370
    -2
100
AcDbLine
 10
16.78277763802384
 20
32.75111322283564
 30
0.0
 11
16.78277763802384
 21
30.25111322283564
 31
0.0
  0
LINE
  5
2E1
330
2D9
100
AcDbEntity
  8
文字
 62
     0
370
    -2
100
AcDbLine
 10
16.78277763802384
 20
40.35111322283566
 30
0.0
 11
16.78277763802384
 21
42.85111322283566
 31
0.0
  0
SOLID
  5
2E2
330
2D9
100
AcDbEntity
  8
文字
 62
     0
100
AcDbTrace
 10
17.19944430469051
 20
32.75111322283564
 30
0.0
 11
16.36611097135718
 21
32.75111322283564
 31
0.0
 12
16.78277763802384
 22
35.25111322283564
 32
0.0
 13
16.78277763802384
 23
35.25111322283564
 33
0.0
  0
SOLID
  5
2E3
330
2D9
100
AcDbEntity
  8
文字
 62
     0
100
AcDbTrace
 10
16.36611097135718
 20
40.35111322283566
 30
0.0
 11
17.19944430469051
 21
40.35111322283566
 31
0.0
 12
16.78277763802384
 22
37.85111322283566
 32
0.0
 13
16.78277763802384
 23
37.85111322283566
 33
0.0
  0
MTEXT
  5
2E4
330
2D9
100
AcDbEntity
  8
文字
 62
     0
100
AcDbMText
 10
14.88219782901975
 20
53.40738150543237
 30
0.0
 40
2.5
 41
0.0
 46
0.0
 71
     5
 72
     1
  1
2.6
 11
0.0
 21
1.0
 31
0.0
 73
     1
 44
1.0
  0
POINT
  5
2E5
330
2D9
100
AcDbEntity
  8
Defpoints
 62
     0
100
AcDbPoint
 10
19.33597943882256
 20
35.25111322283564
 30
0.0
  0
POINT
  5
2E6
330
2D9
100
AcDbEntity
  8
Defpoints
 62
     0
100
AcDbPoint
 10
19.33597943882256
 20
37.85111322283566
 30
0.0
  0
POINT
  5
2E7
330
2D9
100
AcDbEntity
  8
Defpoints
 62
     0
100
AcDbPoint
 10
16.78277763802384
 20
37.85111322283566
 30
0.0
  0
ENDBLK
  5
2DB
330
2D9
100
AcDbEntity
  8
0
100
AcDbBlockEnd
  0
BLOCK
  5
2E9
330
2E8
100
AcDbEntity
  8
0
100
AcDbBlockBegin
  2
*D14
 70
     1
 10
0.0
 20
0.0
 30
0.0
  3
*D14
  1
*D15
  0
LINE
  5
2EB
330
2E8
100
AcDbEntity
  8
文字
 62
     0
370
    -2
100
AcDbLine
 10
84.96097943882255
 20
60.25111322283564
 30
0.0
 11
134.8966947339428
 21
60.25111322283564
 31
0.0
  0
LINE
  5
2EC
330
2E8
100
AcDbEntity
  8
文字
 62
     0
370
    -2
100
AcDbLine
 10
129.9609794388226
 20
35.25111322283557
 30
0.0
 11
134.8966947339428
 21
35.25111322283557
 31
0.0
  0
LINE
  5
2ED
330
2E8
100
AcDbEntity
  8
文字
 62
     0
370
    -2
100
AcDbLine
 10
133.6466947339428
 20
57.75111322283564
 30
0.0
 11
133.6466947339428
 21
37.75111322283557
 31
0.0
  0
SOLID
  5
2EE
330
2E8
100
AcDbEntity
  8
文字
 62
     0
100
AcDbTrace
 10
134.0633614006094
 20
57.75111322283564
 30
0.0
 11
133.2300280672761
 21
57.75111322283564
 31
0.0
 12
133.6466947339428
 22
60.25111322283564
 32
0.0
 13
133.6466947339428
 23
60.25111322283564
 33
0.0
  0
SOLID
  5
2EF
330
2E8
100
AcDbEntity
  8
文字
 62
     0
100
AcDbTrace
 10
133.2300280672761
 20
37.75111322283557
 30
0.0
 11
134.0633614006094
 21
37.75111322283557
 31
0.0
 12
133.6466947339428
 22
35.25111322283557
 32
0.0
 13
133.6466947339428
 23
35.25111322283557
 33
0.0
  0
MTEXT
  5
2F0
330
2E8
100
AcDbEntity
  8
文字
 62
     0
100
AcDbMText
 10
131.7665787721419
 20
47.75111322283561
 30
0.0
 40
2.5
 41
0.0
 46
0.0
 71
     5
 72
     1
  1
24
 11
0.0
 21
1.0
 31
0.0
 73
     1
 44
1.0
  0
POINT
  5
2F1
330
2E8
100
AcDbEntity
  8
Defpoints
 62
     0
100
AcDbPoint
 10
84.33597943882255
 20
60.25111322283564
 30
0.0
  0
POINT
  5
2F2
330
2E8
100
AcDbEntity
  8
Defpoints
 62
     0
100
AcDbPoint
 10
129.3359794388226
 20
35.25111322283557
 30
0.0
  0
POINT
  5
2F3
330
2E8
100
AcDbEntity
  8
Defpoints
 62
     0
100
AcDbPoint
 10
133.6466947339428
 20
35.25111322283557
 30
0.0
  0
ENDBLK
  5
2EA
330
2E8
100
AcDbEntity
  8
0
100
AcDbBlockEnd
  0
BLOCK
  5
2F5
330
2F4
100
AcDbEntity
  8
0
100
AcDbBlockBegin
  2
*D15
 70
     1
 10
0.0
 20
0.0
 30
0.0
  3
*D15
  1
*D16
  0
LINE
  5
2F7
330
2F4
100
AcDbEntity
  8
文字
 62
     0
370
    -2
100
AcDbLine
 10
95.76097943882257
 20
75.25111322283564
 30
0.0
 11
134.8966947339428
 21
75.25111322283564
 31
0.0
  0
LINE
  5
2F8
330
2F4
100
AcDbEntity
  8
文字
 62
     0
370
    -2
100
AcDbLine
 10
90.56097943882259
 20
60.25111322283564
 30
0.0
 11
134.8966947339428
 21
60.25111322283564
 31
0.0
  0
LINE
  5
2F9
330
2F4
100
AcDbEntity
  8
文字
 62
     0
370
    -2
100
AcDbLine
 10
133.6466947339428
 20
72.75111322283564
 30
0.0
 11
133.6466947339428
 21
62.75111322283564
 31
0.0
  0
SOLID
  5
2FA
330
2F4
100
AcDbEntity
  8
文字
 62
     0
100
AcDbTrace
 10
134.0633614006094
 20
72.75111322283564
 30
0.0
 11
133.2300280672761
 21
72.75111322283564
 31
0.0
 12
133.6466947339428
 22
75.25111322283564
 32
0.0
 13
133.6466947339428
 23
75.25111322283564
 33
0.0
  0
SOLID
  5
2FB
330
2F4
100
AcDbEntity
  8
文字
 62
     0
100
AcDbTrace
 10
133.2300280672761
 20
62.75111322283564
 30
0.0
 11
134.0633614006094
 21
62.75111322283564
 31
0.0
 12
133.6466947339428
 22
60.25111322283564
 32
0.0
 13
133.6466947339428
 23
60.25111322283564
 33
0.0
  0
MTEXT
  5
2FC
330
2F4
100
AcDbEntity
  8
文字
 62
     0
100
AcDbMText
 10
131.7461149249386
 20
67.75111322283564
 30
0.0
 40
2.5
 41
0.0
 46
0.0
 71
     5
 72
     1
  1
15
 11
0.0
 21
1.0
 31
0.0
 73
     1
 44
1.0
  0
POINT
  5
2FD
330
2F4
100
AcDbEntity
  8
Defpoints
 62
     0
100
AcDbPoint
 10
95.13597943882257
 20
75.25111322283564
 30
0.0
  0
POINT
  5
2FE
330
2F4
100
AcDbEntity
  8
Defpoints
 62
     0
100
AcDbPoint
 10
89.93597943882259
 20
60.25111322283564
 30
0.0
  0
POINT
  5
2FF
330
2F4
100
AcDbEntity
  8
Defpoints
 62
     0
100
AcDbPoint
 10
133.6466947339428
 20
60.25111322283564
 30
0.0
  0
ENDBLK
  5
2F6
330
2F4
100
AcDbEntity
  8
0
100
AcDbBlockEnd
  0
BLOCK
  5
301
330
300
100
AcDbEntity
  8
0
100
AcDbBlockBegin
  2
*D16
 70
     1
 10
0.0
 20
0.0
 30
0.0
  3
*D16
  1
*D17
  0
LINE
  5
303
330
300
100
AcDbEntity
  8
文字
 62
     0
370
    -2
100
AcDbLine
 10
96.38597943882257
 20
75.25111322283564
 30
0.0
 11
134.8966947339428
 21
75.25111322283564
 31
0.0
  0
LINE
  5
304
330
300
100
AcDbEntity
  8
文字
 62
     0
370
    -2
100
AcDbLine
 10
83.96097943882256
 20
175.2511132228356
 30
0.0
 11
134.8966947339428
 21
175.2511132228356
 31
0.0
  0
LINE
  5
305
330
300
100
AcDbEntity
  8
文字
 62
     0
370
    -2
100
AcDbLine
 10
133.6466947339428
 20
77.75111322283564
 30
0.0
 11
133.6466947339428
 21
172.7511132228356
 31
0.0
  0
SOLID
  5
306
330
300
100
AcDbEntity
  8
文字
 62
     0
100
AcDbTrace
 10
133.2300280672762
 20
77.75111322283564
 30
0.0
 11
134.0633614006095
 21
77.75111322283564
 31
0.0
 12
133.6466947339428
 22
75.25111322283564
 32
0.0
 13
133.6466947339428
 23
75.25111322283564
 33
0.0
  0
SOLID
  5
307
330
300
100
AcDbEntity
  8
文字
 62
     0
100
AcDbTrace
 10
134.0633614006095
 20
172.7511132228356
 30
0.0
 11
133.2300280672762
 21
172.7511132228356
 31
0.0
 12
133.6466947339428
 22
175.2511132228356
 32
0.0
 13
133.6466947339428
 23
175.2511132228356
 33
0.0
  0
MTEXT
  5
308
330
300
100
AcDbEntity
  8
文字
 62
     0
100
AcDbMText
 10
131.7461149249387
 20
125.2511132228356
 30
0.0
 40
2.5
 41
0.0
 46
0.0
 71
     5
 72
     1
  1
130
 11
0.0
 21
1.0
 31
0.0
 73
     1
 44
1.0
  0
POINT
  5
309
330
300
100
AcDbEntity
  8
Defpoints
 62
     0
100
AcDbPoint
 10
95.76097943882257
 20
75.25111322283564
 30
0.0
  0
POINT
  5
30A
330
300
100
AcDbEntity
  8
Defpoints
 62
     0
100
AcDbPoint
 10
83.33597943882256
 20
175.2511132228356
 30
0.0
  0
POINT
  5
30B
330
300
100
AcDbEntity
  8
Defpoints
 62
     0
100
AcDbPoint
 10
133.6466947339428
 20
175.2511132228356
 30
0.0
  0
ENDBLK
  5
302
330
300
100
AcDbEntity
  8
0
100
AcDbBlockEnd
  0
BLOCK
  5
30D
330
30C
100
AcDbEntity
  8
0
100
AcDbBlockBegin
  2
*D17
 70
     1
 10
0.0
 20
0.0
 30
0.0
  3
*D17
  1
*D18
  0
LINE
  5
30F
330
30C
100
AcDbEntity
  8
文字
 62
     0
370
    -2
100
AcDbLine
 10
178.0993058801689
 20
135.9608982172985
 30
0.0
 11
178.0993058801689
 21
57.72386880667059
 31
0.0
  0
LINE
  5
310
330
30C
100
AcDbEntity
  8
文字
 62
     0
370
    -2
100
AcDbLine
 10
248.0993058801689
 20
135.9608982172985
 30
0.0
 11
248.0993058801689
 21
57.72386880667059
 31
0.0
  0
LINE
  5
311
330
30C
100
AcDbEntity
  8
文字
 62
     0
370
    -2
100
AcDbLine
 10
180.5993058801689
 20
58.97386880667059
 30
0.0
 11
245.5993058801689
 21
58.97386880667059
 31
0.0
  0
SOLID
  5
312
330
30C
100
AcDbEntity
  8
文字
 62
     0
100
AcDbTrace
 10
180.5993058801689
 20
59.39053547333726
 30
0.0
 11
180.5993058801689
 21
58.55720214000393
 31
0.0
 12
178.0993058801689
 22
58.97386880667059
 32
0.0
 13
178.0993058801689
 23
58.97386880667059
 33
0.0
  0
SOLID
  5
313
330
30C
100
AcDbEntity
  8
文字
 62
     0
100
AcDbTrace
 10
245.5993058801689
 20
58.55720214000393
 30
0.0
 11
245.5993058801689
 21
59.39053547333726
 31
0.0
 12
248.0993058801689
 22
58.97386880667059
 32
0.0
 13
248.0993058801689
 23
58.97386880667059
 33
0.0
  0
MTEXT
  5
314
330
30C
100
AcDbEntity
  8
文字
 62
     0
100
AcDbMText
 10
213.0993058801689
 20
60.92219759248233
 30
0.0
 40
2.5
 41
0.0
 46
0.0
 71
     5
 72
     1
  1
%%c70
 73
     1
 44
1.0
  0
POINT
  5
315
330
30C
100
AcDbEntity
  8
Defpoints
 62
     0
100
AcDbPoint
 10
178.0993058801689
 20
136.5858982172985
 30
0.0
  0
POINT
  5
316
330
30C
100
AcDbEntity
  8
Defpoints
 62
     0
100
AcDbPoint
 10
248.0993058801689
 20
136.5858982172985
 30
0.0
  0
POINT
  5
317
330
30C
100
AcDbEntity
  8
Defpoints
 62
     0
100
AcDbPoint
 10
248.0993058801689
 20
58.97386880667059
 30
0.0
  0
ENDBLK
  5
30E
330
30C
100
AcDbEntity
  8
0
100
AcDbBlockEnd
  0
BLOCK
  5
319
330
318
100
AcDbEntity
  8
0
100
AcDbBlockBegin
  2
*D18
 70
     1
 10
0.0
 20
0.0
 30
0.0
  3
*D18
  1
*D19
  0
LINE
  5
31B
330
318
100
AcDbEntity
  8
文字
 62
     0
370
    -2
100
AcDbLine
 10
28.33597943882256
 20
34.62611322283564
 30
0.0
 11
28.33597943882256
 21
22.94911064866224
 31
0.0
  0
LINE
  5
31C
330
318
100
AcDbEntity
  8
文字
 62
     0
370
    -2
100
AcDbLine
 10
120.3359794388226
 20
34.62611322283558
 30
0.0
 11
120.3359794388226
 21
22.94911064866224
 31
0.0
  0
LINE
  5
31D
330
318
100
AcDbEntity
  8
文字
 62
     0
370
    -2
100
AcDbLine
 10
30.83597943882256
 20
24.19911064866224
 30
0.0
 11
117.8359794388226
 21
24.19911064866224
 31
0.0
  0
SOLID
  5
31E
330
318
100
AcDbEntity
  8
文字
 62
     0
100
AcDbTrace
 10
30.83597943882256
 20
24.61577731532891
 30
0.0
 11
30.83597943882256
 21
23.78244398199557
 31
0.0
 12
28.33597943882256
 22
24.19911064866224
 32
0.0
 13
28.33597943882256
 23
24.19911064866224
 33
0.0
  0
SOLID
  5
31F
330
318
100
AcDbEntity
  8
文字
 62
     0
100
AcDbTrace
 10
117.8359794388226
 20
23.78244398199557
 30
0.0
 11
117.8359794388226
 21
24.61577731532891
 31
0.0
 12
120.3359794388226
 22
24.19911064866224
 32
0.0
 13
120.3359794388226
 23
24.19911064866224
 33
0.0
  0
MTEXT
  5
320
330
318
100
AcDbEntity
  8
文字
 62
     0
100
AcDbMText
 10
74.33597943882256
 20
26.09969045766633
 30
0.0
 40
2.5
 41
0.0
 46
0.0
 71
     5
 72
     1
  1
92
 73
     1
 44
1.0
  0
POINT
  5
321
330
318
100
AcDbEntity
  8
Defpoints
 62
     0
100
AcDbPoint
 10
28.33597943882256
 20
35.25111322283564
 30
0.0
  0
POINT
  5
322
330
318
100
AcDbEntity
  8
Defpoints
 62
     0
100
AcDbPoint
 10
120.3359794388226
 20
35.25111322283558
 30
0.0
  0
POINT
  5
323
330
318
100
AcDbEntity
  8
Defpoints
 62
     0
100
AcDbPoint
 10
120.3359794388226
 20
24.19911064866224
 30
0.0
  0
ENDBLK
  5
31A
330
318
100
AcDbEntity
  8
0
100
AcDbBlockEnd
  0
BLOCK
  5
378
330
377
100
AcDbEntity
  8
0
100
AcDbBlockBegin
  2
*D19
 70
     1
 10
0.0
 20
0.0
 30
0.0
  3
*D19
  1
*D19
  0
LINE
  5
379
330
377
100
AcDbEntity
  8
文字
 62
     0
370
    -2
100
AcDbLine
 10
0.0
 20
11.6770025741734
 30
0.0
 11
0.0
 21
0.0
 31
0.0
  0
LINE
  5
37A
330
377
100
AcDbEntity
  8
文字
 62
     0
370
    -2
100
AcDbLine
 10
92.00000000000004
 20
11.67700257417334
 30
0.0
 11
92.00000000000004
 21
0.0
 31
0.0
  0
LINE
  5
37B
330
377
100
AcDbEntity
  8
文字
 62
     0
370
    -2
100
AcDbLine
 10
2.5
 20
1.25
 30
0.0
 11
89.50000000000004
 21
1.25
 31
0.0
  0
SOLID
  5
37C
330
377
100
AcDbEntity
  8
文字
 62
     0
100
AcDbTrace
 10
2.5
 20
1.666666666666667
 30
0.0
 11
2.5
 21
0.8333333333333333
 31
0.0
 12
0.0
 22
1.25
 32
0.0
 13
0.0
 23
1.25
 33
0.0
  0
SOLID
  5
37D
330
377
100
AcDbEntity
  8
文字
 62
     0
100
AcDbTrace
 10
89.50000000000004
 20
0.8333333333333333
 30
0.0
 11
89.50000000000004
 21
1.666666666666667
 31
0.0
 12
92.00000000000004
 22
1.25
 32
0.0
 13
92.00000000000004
 23
1.25
 33
0.0
  0
MTEXT
  5
37E
330
377
100
AcDbEntity
  8
文字
 62
     0
100
AcDbMText
 10
46.00000000000002
 20
3.15125
 30
0.0
 40
2.5
 41
0.0
 46
0.0
 71
     5
 72
     1
  1
92
 73
     1
 44
1.0
  0
POINT
  5
37F
330
377
100
AcDbEntity
  8
Defpoints
 62
     0
100
AcDbPoint
 10
0.0
 20
12.3020025741734
 30
0.0
  0
POINT
  5
380
330
377
100
AcDbEntity
  8
Defpoints
 62
     0
100
AcDbPoint
 10
92.00000000000004
 20
12.30200257417334
 30
0.0
  0
POINT
  5
381
330
377
100
AcDbEntity
  8
Defpoints
 62
     0
100
AcDbPoint
 10
92.00000000000004
 20
1.25
 30
0.0
  0
ENDBLK
  5
382
330
377
100
AcDbEntity
  8
0
100
AcDbBlockEnd
  0
BLOCK
  5
38A
330
389
100
AcDbEntity
  8
0
100
AcDbBlockBegin
  2
*D20
 70
     1
 10
0.0
 20
0.0
 30
0.0
  3
*D20
  1
*D21
  0
LINE
  5
38C
330
389
100
AcDbEntity
  8
文字
 62
     0
370
    -2
100
AcDbLine
 10
167.1526227107832
 20
135.8234370898761
 30
0.0
 11
167.1526227107832
 21
44.25949780072008
 31
0.0
  0
LINE
  5
38D
330
389
100
AcDbEntity
  8
文字
 62
     0
370
    -2
100
AcDbLine
 10
259.1526227107832
 20
135.823437089876
 30
0.0
 11
259.1526227107832
 21
44.25949780072008
 31
0.0
  0
LINE
  5
38E
330
389
100
AcDbEntity
  8
文字
 62
     0
370
    -2
100
AcDbLine
 10
169.6526227107832
 20
45.50949780072008
 30
0.0
 11
256.6526227107832
 21
45.50949780072008
 31
0.0
  0
SOLID
  5
38F
330
389
100
AcDbEntity
  8
文字
 62
     0
100
AcDbTrace
 10
169.6526227107832
 20
45.92616446738675
 30
0.0
 11
169.6526227107832
 21
45.09283113405342
 31
0.0
 12
167.1526227107832
 22
45.50949780072008
 32
0.0
 13
167.1526227107832
 23
45.50949780072008
 33
0.0
  0
SOLID
  5
390
330
389
100
AcDbEntity
  8
文字
 62
     0
100
AcDbTrace
 10
256.6526227107832
 20
45.09283113405342
 30
0.0
 11
256.6526227107832
 21
45.92616446738675
 31
0.0
 12
259.1526227107832
 22
45.50949780072008
 32
0.0
 13
259.1526227107832
 23
45.50949780072008
 33
0.0
  0
MTEXT
  5
391
330
389
100
AcDbEntity
  8
文字
 62
     0
100
AcDbMText
 10
213.0555235683328
 20
47.41074780072008
 30
0.0
 40
2.5
 41
0.0
 46
0.0
 71
     5
 72
     1
  1
92
 73
     1
 44
1.0
  0
POINT
  5
392
330
389
100
AcDbEntity
  8
Defpoints
 62
     0
100
AcDbPoint
 10
167.1526227107832
 20
136.4484370898761
 30
0.0
  0
POINT
  5
393
330
389
100
AcDbEntity
  8
Defpoints
 62
     0
100
AcDbPoint
 10
259.1526227107832
 20
136.448437089876
 30
0.0
  0
POINT
  5
394
330
389
100
AcDbEntity
  8
Defpoints
 62
     0
100
AcDbPoint
 10
259.1526227107832
 20
45.50949780072008
 30
0.0
  0
ENDBLK
  5
38B
330
389
100
AcDbEntity
  8
0
100
AcDbBlockEnd
  0
BLOCK
  5
3C6
330
3C5
100
AcDbEntity
  8
0
100
AcDbBlockBegin
  2
*D22
 70
     1
 10
0.0
 20
0.0
 30
0.0
  3
*D22
  1
*D3
  0
LINE
  5
3C7
330
3C5
100
AcDbEntity
  8
文字
 62
     0
370
    -2
100
AcDbLine
 10
8.37316310950493
 20
16.55336353732383
 30
0.0
 11
8.37316310950493
 21
0.0
 31
0.0
  0
LINE
  5
3C8
330
3C5
100
AcDbEntity
  8
文字
 62
     0
370
    -2
100
AcDbLine
 10
118.3731631095049
 20
16.55336353732376
 30
0.0
 11
118.3731631095049
 21
0.0
 31
0.0
  0
LINE
  5
3C9
330
3C5
100
AcDbEntity
  8
文字
 62
     0
370
    -2
100
AcDbLine
 10
10.87316310950493
 20
1.25
 30
0.0
 11
115.8731631095049
 21
1.25
 31
0.0
  0
SOLID
  5
3CA
330
3C5
100
AcDbEntity
  8
文字
 62
     0
100
AcDbTrace
 10
10.87316310950493
 20
1.666666666666667
 30
0.0
 11
10.87316310950493
 21
0.8333333333333333
 31
0.0
 12
8.37316310950493
 22
1.25
 32
0.0
 13
8.37316310950493
 23
1.25
 33
0.0
  0
SOLID
  5
3CB
330
3C5
100
AcDbEntity
  8
文字
 62
     0
100
AcDbTrace
 10
115.8731631095049
 20
0.8333333333333333
 30
0.0
 11
115.8731631095049
 21
1.666666666666667
 31
0.0
 12
118.3731631095049
 22
1.25
 32
0.0
 13
118.3731631095049
 23
1.25
 33
0.0
  0
MTEXT
  5
3CC
330
3C5
100
AcDbEntity
  8
文字
 62
     0
100
AcDbMText
 10
63.37316310950492
 20
3.19625
 30
0.0
 40
2.5
 41
0.0
 46
0.0
 71
     5
 72
     1
  1
%%c110
 73
     1
 44
1.0
  0
POINT
  5
3CD
330
3C5
100
AcDbEntity
  8
Defpoints
 62
     0
100
AcDbPoint
 10
8.37316310950493
 20
17.17836353732383
 30
0.0
  0
POINT
  5
3CE
330
3C5
100
AcDbEntity
  8
Defpoints
 62
     0
100
AcDbPoint
 10
118.3731631095049
 20
17.17836353732376
 30
0.0
  0
POINT
  5
3CF
330
3C5
100
AcDbEntity
  8
Defpoints
 62
     0
100
AcDbPoint
 10
118.3731631095049
 20
1.25
 30
0.0
  0
ENDBLK
  5
3D0
330
3C5
100
AcDbEntity
  8
0
100
AcDbBlockEnd
  0
BLOCK
  5
3D8
330
3D7
100
AcDbEntity
  8
0
100
AcDbBlockBegin
  2
*D23
 70
     1
 10
0.0
 20
0.0
 30
0.0
  3
*D23
  1
*D4
  0
LINE
  5
3D9
330
3D7
100
AcDbEntity
  8
文字
 62
     0
370
    -2
100
AcDbLine
 10
8.677381080260794
 20
16.86050580085481
 30
0.0
 11
1.874999999999996
 21
16.86050580085481
 31
0.0
  0
LINE
  5
3DA
330
3D7
100
AcDbEntity
  8
文字
 62
     0
370
    -2
100
AcDbLine
 10
8.929413356237472
 20
18.86347160231849
 30
0.0
 11
1.874999999999996
 21
18.86347160231849
 31
0.0
  0
LINE
  5
3DB
330
3D7
100
AcDbEntity
  8
文字
 62
     0
370
    -2
100
AcDbLine
 10
3.124999999999996
 20
18.86347160231849
 30
0.0
 11
3.124999999999996
 21
36.80852866002137
 31
0.0
  0
LINE
  5
3DC
330
3D7
100
AcDbEntity
  8
文字
 62
     0
370
    -2
100
AcDbLine
 10
3.124999999999996
 20
16.86050580085481
 30
0.0
 11
3.124999999999996
 21
18.86347160231849
 31
0.0
  0
LINE
  5
3DD
330
3D7
100
AcDbEntity
  8
文字
 62
     0
370
    -2
100
AcDbLine
 10
3.124999999999996
 20
14.36050580085481
 30
0.0
 11
3.124999999999996
 21
11.86050580085481
 31
0.0
  0
LINE
  5
3DE
330
3D7
100
AcDbEntity
  8
文字
 62
     0
370
    -2
100
AcDbLine
 10
3.124999999999996
 20
21.36347160231849
 30
0.0
 11
3.124999999999996
 21
23.86347160231849
 31
0.0
  0
SOLID
  5
3DF
330
3D7
100
AcDbEntity
  8
文字
 62
     0
100
AcDbTrace
 10
3.541666666666663
 20
14.36050580085481
 30
0.0
 11
2.70833333333333
 21
14.36050580085481
 31
0.0
 12
3.124999999999996
 22
16.86050580085481
 32
0.0
 13
3.124999999999996
 23
16.86050580085481
 33
0.0
  0
SOLID
  5
3E0
330
3D7
100
AcDbEntity
  8
文字
 62
     0
100
AcDbTrace
 10
2.70833333333333
 20
21.36347160231849
 30
0.0
 11
3.541666666666663
 21
21.36347160231849
 31
0.0
 12
3.124999999999996
 22
18.86347160231849
 32
0.0
 13
3.124999999999996
 23
18.86347160231849
 33
0.0
  0
MTEXT
  5
3E1
330
3D7
100
AcDbEntity
  8
文字
 62
     0
100
AcDbMText
 10
1.244999999999994
 20
35.35727866002136
 30
0.0
 40
2.5
 41
0.0
 46
0.0
 71
     5
 72
     1
  1
2
 11
0.0
 21
1.0
 31
0.0
 73
     1
 44
1.0
  0
POINT
  5
3E2
330
3D7
100
AcDbEntity
  8
Defpoints
 62
     0
100
AcDbPoint
 10
9.302381080260794
 20
16.86050580085481
 30
0.0
  0
POINT
  5
3E3
330
3D7
100
AcDbEntity
  8
Defpoints
 62
     0
100
AcDbPoint
 10
9.554413356237472
 20
18.86347160231849
 30
0.0
  0
POINT
  5
3E4
330
3D7
100
AcDbEntity
  8
Defpoints
 62
     0
100
AcDbPoint
 10
3.124999999999996
 20
18.86347160231849
 30
0.0
  0
ENDBLK
  5
3E5
330
3D7
100
AcDbEntity
  8
0
100
AcDbBlockEnd
  0
BLOCK
  5
3EA
330
3E9
100
AcDbEntity
  8
0
100
AcDbBlockBegin
  2
*D24
 70
     1
 10
0.0
 20
0.0
 30
0.0
  3
*D24
  1
*D5
  0
LINE
  5
3EB
330
3E9
100
AcDbEntity
  8
文字
 62
     0
370
    -2
100
AcDbLine
 10
74.07622140519429
 20
40.90662797507842
 30
0.0
 11
124.0119367003145
 21
40.90662797507842
 31
0.0
  0
LINE
  5
3EC
330
3E9
100
AcDbEntity
  8
文字
 62
     0
370
    -2
100
AcDbLine
 10
117.0707129034715
 20
16.90815502622266
 30
0.0
 11
124.0119367003145
 21
16.90815502622266
 31
0.0
  0
LINE
  5
3ED
330
3E9
100
AcDbEntity
  8
文字
 62
     0
370
    -2
100
AcDbLine
 10
122.7619367003145
 20
38.40662797507842
 30
0.0
 11
122.7619367003145
 21
19.40815502622266
 31
0.0
  0
SOLID
  5
3EE
330
3E9
100
AcDbEntity
  8
文字
 62
     0
100
AcDbTrace
 10
123.1786033669812
 20
38.40662797507842
 30
0.0
 11
122.3452700336478
 21
38.40662797507842
 31
0.0
 12
122.7619367003145
 22
40.90662797507842
 32
0.0
 13
122.7619367003145
 23
40.90662797507842
 33
0.0
  0
SOLID
  5
3EF
330
3E9
100
AcDbEntity
  8
文字
 62
     0
100
AcDbTrace
 10
122.3452700336478
 20
19.40815502622266
 30
0.0
 11
123.1786033669812
 21
19.40815502622266
 31
0.0
 12
122.7619367003145
 22
16.90815502622266
 32
0.0
 13
122.7619367003145
 23
16.90815502622266
 33
0.0
  0
MTEXT
  5
3F0
330
3E9
100
AcDbEntity
  8
文字
 62
     0
100
AcDbMText
 10
120.8819367003145
 20
28.90739150065054
 30
0.0
 40
2.5
 41
0.0
 46
0.0
 71
     5
 72
     1
  1
24
 11
0.0
 21
1.0
 31
0.0
 73
     1
 44
1.0
  0
POINT
  5
3F1
330
3E9
100
AcDbEntity
  8
Defpoints
 62
     0
100
AcDbPoint
 10
73.45122140519429
 20
40.90662797507842
 30
0.0
  0
POINT
  5
3F2
330
3E9
100
AcDbEntity
  8
Defpoints
 62
     0
100
AcDbPoint
 10
116.4457129034715
 20
16.90815502622266
 30
0.0
  0
POINT
  5
3F3
330
3E9
100
AcDbEntity
  8
Defpoints
 62
     0
100
AcDbPoint
 10
122.7619367003145
 20
16.90815502622266
 30
0.0
  0
ENDBLK
  5
3F4
330
3E9
100
AcDbEntity
  8
0
100
AcDbBlockEnd
  0
BLOCK
  5
410
330
40F
100
AcDbEntity
  8
0
100
AcDbBlockBegin
  2
*D25
 70
     1
 10
0.0
 20
0.0
 30
0.0
  3
*D25
  1
*D25
  0
LINE
  5
412
330
40F
100
AcDbEntity
  8
文字
 62
     0
370
    -2
100
AcDbLine
 10
19.21899329335754
 20
35.90506563853474
 30
0.0
 11
19.21899329335754
 21
19.35170210121091
 31
0.0
  0
LINE
  5
413
330
40F
100
AcDbEntity
  8
文字
 62
     0
370
    -2
100
AcDbLine
 10
129.2189932933575
 20
35.90506563853467
 30
0.0
 11
129.2189932933575
 21
19.35170210121091
 31
0.0
  0
LINE
  5
414
330
40F
100
AcDbEntity
  8
文字
 62
     0
370
    -2
100
AcDbLine
 10
21.71899329335754
 20
20.60170210121091
 30
0.0
 11
126.7189932933575
 21
20.60170210121091
 31
0.0
  0
SOLID
  5
415
330
40F
100
AcDbEntity
  8
文字
 62
     0
100
AcDbTrace
 10
21.71899329335754
 20
21.01836876787758
 30
0.0
 11
21.71899329335754
 21
20.18503543454424
 31
0.0
 12
19.21899329335754
 22
20.60170210121091
 32
0.0
 13
19.21899329335754
 23
20.60170210121091
 33
0.0
  0
SOLID
  5
416
330
40F
100
AcDbEntity
  8
文字
 62
     0
100
AcDbTrace
 10
126.7189932933575
 20
20.18503543454424
 30
0.0
 11
126.7189932933575
 21
21.01836876787758
 31
0.0
 12
129.2189932933575
 22
20.60170210121091
 32
0.0
 13
129.2189932933575
 23
20.60170210121091
 33
0.0
  0
MTEXT
  5
417
330
40F
100
AcDbEntity
  8
文字
 62
     0
100
AcDbMText
 10
74.21899329335753
 20
22.54795210121091
 30
0.0
 40
2.5
 41
0.0
 46
0.0
 71
     5
 72
     1
  1
%%c110
 73
     1
 44
1.0
  0
POINT
  5
418
330
40F
100
AcDbEntity
  8
Defpoints
 62
     0
100
AcDbPoint
 10
19.21899329335754
 20
36.53006563853474
 30
0.0
  0
POINT
  5
419
330
40F
100
AcDbEntity
  8
Defpoints
 62
     0
100
AcDbPoint
 10
129.2189932933575
 20
36.53006563853467
 30
0.0
  0
POINT
  5
41A
330
40F
100
AcDbEntity
  8
Defpoints
 62
     0
100
AcDbPoint
 10
129.2189932933575
 20
20.60170210121091
 30
0.0
  0
ENDBLK
  5
411
330
40F
100
AcDbEntity
  8
0
100
AcDbBlockEnd
  0
BLOCK
  5
41C
330
41B
100
AcDbEntity
  8
0
100
AcDbBlockBegin
  2
*D26
 70
     1
 10
0.0
 20
0.0
 30
0.0
  3
*D26
  1
*D26
  0
LINE
  5
41E
330
41B
100
AcDbEntity
  8
文字
 62
     0
370
    -2
100
AcDbLine
 10
19.52321126411341
 20
36.21220790206573
 30
0.0
 11
12.72083018385261
 21
36.21220790206573
 31
0.0
  0
LINE
  5
41F
330
41B
100
AcDbEntity
  8
文字
 62
     0
370
    -2
100
AcDbLine
 10
19.77524354009008
 20
38.2151737035294
 30
0.0
 11
12.72083018385261
 21
38.2151737035294
 31
0.0
  0
LINE
  5
420
330
41B
100
AcDbEntity
  8
文字
 62
     0
370
    -2
100
AcDbLine
 10
13.97083018385261
 20
38.2151737035294
 30
0.0
 11
13.97083018385261
 21
56.16023076123228
 31
0.0
  0
LINE
  5
421
330
41B
100
AcDbEntity
  8
文字
 62
     0
370
    -2
100
AcDbLine
 10
13.97083018385261
 20
36.21220790206573
 30
0.0
 11
13.97083018385261
 21
38.2151737035294
 31
0.0
  0
LINE
  5
422
330
41B
100
AcDbEntity
  8
文字
 62
     0
370
    -2
100
AcDbLine
 10
13.97083018385261
 20
33.71220790206573
 30
0.0
 11
13.97083018385261
 21
31.21220790206573
 31
0.0
  0
LINE
  5
423
330
41B
100
AcDbEntity
  8
文字
 62
     0
370
    -2
100
AcDbLine
 10
13.97083018385261
 20
40.7151737035294
 30
0.0
 11
13.97083018385261
 21
43.2151737035294
 31
0.0
  0
SOLID
  5
424
330
41B
100
AcDbEntity
  8
文字
 62
     0
100
AcDbTrace
 10
14.38749685051928
 20
33.71220790206573
 30
0.0
 11
13.55416351718594
 21
33.71220790206573
 31
0.0
 12
13.97083018385261
 22
36.21220790206573
 32
0.0
 13
13.97083018385261
 23
36.21220790206573
 33
0.0
  0
SOLID
  5
425
330
41B
100
AcDbEntity
  8
文字
 62
     0
100
AcDbTrace
 10
13.55416351718594
 20
40.7151737035294
 30
0.0
 11
14.38749685051928
 21
40.7151737035294
 31
0.0
 12
13.97083018385261
 22
38.2151737035294
 32
0.0
 13
13.97083018385261
 23
38.2151737035294
 33
0.0
  0
MTEXT
  5
426
330
41B
100
AcDbEntity
  8
文字
 62
     0
100
AcDbMText
 10
12.09083018385261
 20
54.70898076123228
 30
0.0
 40
2.5
 41
0.0
 46
0.0
 71
     5
 72
     1
  1
2
 11
0.0
 21
1.0
 31
0.0
 73
     1
 44
1.0
  0
POINT
  5
427
330
41B
100
AcDbEntity
  8
Defpoints
 62
     0
100
AcDbPoint
 10
20.14821126411341
 20
36.21220790206573
 30
0.0
  0
POINT
  5
428
330
41B
100
AcDbEntity
  8
Defpoints
 62
     0
100
AcDbPoint
 10
20.40024354009008
 20
38.2151737035294
 30
0.0
  0
POINT
  5
429
330
41B
100
AcDbEntity
  8
Defpoints
 62
     0
100
AcDbPoint
 10
13.97083018385261
 20
38.2151737035294
 30
0.0
  0
ENDBLK
  5
41D
330
41B
100
AcDbEntity
  8
0
100
AcDbBlockEnd
  0
BLOCK
  5
42B
330
42A
100
AcDbEntity
  8
0
100
AcDbBlockBegin
  2
*D27
 70
     1
 10
0.0
 20
0.0
 30
0.0
  3
*D27
  1
*D27
  0
LINE
  5
42D
330
42A
100
AcDbEntity
  8
文字
 62
     0
370
    -2
100
AcDbLine
 10
84.9220515890469
 20
60.25833007628933
 30
0.0
 11
134.8577668841671
 21
60.25833007628933
 31
0.0
  0
LINE
  5
42E
330
42A
100
AcDbEntity
  8
文字
 62
     0
370
    -2
100
AcDbLine
 10
127.9165430873241
 20
36.25985712743358
 30
0.0
 11
134.8577668841671
 21
36.25985712743358
 31
0.0
  0
LINE
  5
42F
330
42A
100
AcDbEntity
  8
文字
 62
     0
370
    -2
100
AcDbLine
 10
133.6077668841671
 20
57.75833007628933
 30
0.0
 11
133.6077668841671
 21
38.75985712743358
 31
0.0
  0
SOLID
  5
430
330
42A
100
AcDbEntity
  8
文字
 62
     0
100
AcDbTrace
 10
134.0244335508338
 20
57.75833007628933
 30
0.0
 11
133.1911002175005
 21
57.75833007628933
 31
0.0
 12
133.6077668841671
 22
60.25833007628933
 32
0.0
 13
133.6077668841671
 23
60.25833007628933
 33
0.0
  0
SOLID
  5
431
330
42A
100
AcDbEntity
  8
文字
 62
     0
100
AcDbTrace
 10
133.1911002175005
 20
38.75985712743358
 30
0.0
 11
134.0244335508338
 21
38.75985712743358
 31
0.0
 12
133.6077668841671
 22
36.25985712743358
 32
0.0
 13
133.6077668841671
 23
36.25985712743358
 33
0.0
  0
MTEXT
  5
432
330
42A
100
AcDbEntity
  8
文字
 62
     0
100
AcDbMText
 10
131.7277668841671
 20
48.25909360186145
 30
0.0
 40
2.5
 41
0.0
 46
0.0
 71
     5
 72
     1
  1
24
 11
0.0
 21
1.0
 31
0.0
 73
     1
 44
1.0
  0
POINT
  5
433
330
42A
100
AcDbEntity
  8
Defpoints
 62
     0
100
AcDbPoint
 10
84.2970515890469
 20
60.25833007628933
 30
0.0
  0
POINT
  5
434
330
42A
100
AcDbEntity
  8
Defpoints
 62
     0
100
AcDbPoint
 10
127.2915430873241
 20
36.25985712743358
 30
0.0
  0
POINT
  5
435
330
42A
100
AcDbEntity
  8
Defpoints
 62
     0
100
AcDbPoint
 10
133.6077668841671
 20
36.25985712743358
 30
0.0
  0
ENDBLK
  5
42C
330
42A
100
AcDbEntity
  8
0
100
AcDbBlockEnd
  0
ENDSEC
  0
SECTION
  2
ENTITIES
  0
LINE
  5
265
330
1F
100
AcDbEntity
  8
中心線
100
AcDbLine
 10
74.33597943882256
 20
30.25111322283564
 30
0.0
 11
74.33597943882256
 21
183.3431105461141
 31
0.0
  0
LWPOLYLINE
  5
266
102
{ACAD_REACTORS
330
2A1
102
}
330
1F
100
AcDbEntity
  8
実線
100
AcDbPolyline
 90
        4
 70
     0
 43
0.0
 10
95.13597943882257
 20
62.25111322283563
 10
95.13597943882257
 20
75.25111322283564
 10
53.53597943882257
 20
75.25111322283564
 10
53.53597943882257
 20
62.25111322283564
  0
ARC
  5
267
330
1F
100
AcDbEntity
  8
実線
100
AcDbCircle
 10
58.73597943882257
 20
68.01111322283562
 30
0.0
 40
7.759999999999985
100
AcDbArc
 50
227.9249779491562
 51
312.0750220508438
  0
ARC
  5
268
330
1F
100
AcDbEntity
  8
実線
100
AcDbCircle
 10
74.33597943882258
 20
88.2911132228357
 30
0.0
 40
28.04000000000006
100
AcDbArc
 50
248.2289458906826
 51
291.7710541093174
  0
ARC
  5
269
330
1F
100
AcDbEntity
  8
実線
100
AcDbCircle
 10
89.93597943882259
 20
68.01111322283563
 30
0.0
 40
7.759999999999995
100
AcDbArc
 50
227.9249779491563
 51
312.0750220508437
  0
LINE
  5
26A
330
1F
100
AcDbEntity
  8
実線
100
AcDbLine
 10
63.9359794388226
 20
62.25111322283563
 30
0.0
 11
63.9359794388226
 21
75.25111322283564
 31
0.0
  0
LINE
  5
26B
330
1F
100
AcDbEntity
  8
実線
100
AcDbLine
 10
84.73597943882258
 20
62.25111322283564
 30
0.0
 11
84.73597943882258
 21
75.25111322283564
 31
0.0
  0
LWPOLYLINE
  5
26C
102
{ACAD_REACTORS
330
2A1
102
}
330
1F
100
AcDbEntity
  8
実線
100
AcDbPolyline
 90
        2
 70
     0
 43
0.0
 10
58.73597943882257
 20
60.25111322283564
 10
89.93597943882259
 20
60.25111322283564
  0
LWPOLYLINE
  5
26D
330
1F
100
AcDbEntity
  8
実線
100
AcDbPolyline
 90
        4
 70
     1
 43
0.0
 10
74.33597943882256
 20
75.25111322283564
 10
62.33597943882256
 20
75.25111322283564
 10
62.33597943882256
 20
75.25111322283564
 10
74.33597943882256
 20
75.25111322283564
  0
LWPOLYLINE
  5
26E
330
1F
100
AcDbEntity
  8
実線
100
AcDbPolyline
 90
        6
 70
     0
 43
0.0
 10
86.33597943882256
 20
134.4887175298696
 10
86.33597943882256
 20
172.2511132228356
 10
83.33597943882256
 20
175.2511132228356
 10
65.33597943882256
 20
175.2511132228356
 10
62.33597943882256
 20
172.2511132228356
 10
62.33597943882256
 20
120.6323110693186
  0
LINE
  5
26F
102
{ACAD_REACTORS
330
274
102
}
330
1F
100
AcDbEntity
  8
実線
370
    20
100
AcDbLine
 10
62.33597943882256
 20
172.2511132228356
 30
0.0
 11
86.33597943882256
 21
172.2511132228356
 31
0.0
  0
LINE
  5
270
330
1F
100
AcDbEntity
  8
実線
370
    20
100
AcDbLine
 10
65.33597943882256
 20
175.2511132228356
 30
0.0
 11
65.33597943882255
 21
122.3643618768875
 31
0.0
  0
LINE
  5
271
102
{ACAD_REACTORS
330
2A4
102
}
330
1F
100
AcDbEntity
  8
実線
370
    20
100
AcDbLine
 10
83.33597943882256
 20
175.2511132228356
 30
0.0
 11
83.33597943882255
 21
132.7566667223008
 31
0.0
  0
DIMENSION
  5
272
102
{ACAD_REACTORS
330
274
102
}
102
{ACAD_XDICTIONARY
360
273
102
}
330
1F
100
AcDbEntity
  8
文字
100
AcDbDimension
280
     0
  2
*D10
 10
86.33597943882256
 20
191.3104957304251
 30
0.0
 11
74.33597943882256
 21
193.1906116922259
 31
0.0
 70
    32
  1
{\fArial|b0|i0|c0|p32;M}<>
 71
     5
 42
24.0
 73
     0
 74
     0
 75
     0
  3
ISO-25
100
AcDbAlignedDimension
 13
62.33597943882256
 23
172.2511132228356
 33
0.0
 14
86.33597943882256
 24
172.2511132228356
 34
0.0
100
AcDbRotatedDimension
  0
LWPOLYLINE
  5
275
102
{ACAD_REACTORS
330
27A
102
}
330
1F
100
AcDbEntity
  8
実線
100
AcDbPolyline
 90
        6
 70
     1
 43
0.0
 10
231.1126342788853
 20
146.9858982172985
 10
213.0993058801689
 20
157.3858982172985
 10
195.0859774814526
 20
146.9858982172985
 10
195.0859774814526
 20
126.1858982172985
 10
213.0993058801689
 20
115.7858982172984
 10
231.1126342788852
 20
126.1858982172984
  0
CIRCLE
  5
276
330
1F
100
AcDbEntity
  8
実線
100
AcDbCircle
 10
213.0993058801689
 20
136.5858982172985
 30
0.0
 40
12.0
  0
CIRCLE
  5
277
330
1F
100
AcDbEntity
  8
実線
370
    30
100
AcDbCircle
 10
213.0993058801689
 20
136.5858982172985
 30
0.0
 40
9.0
  0
DIMENSION
  5
278
102
{ACAD_REACTORS
330
27A
102
}
102
{ACAD_XDICTIONARY
360
279
102
}
330
1F
100
AcDbEntity
  8
文字
100
AcDbDimension
280
     0
  2
*D11
 10
231.1126342788852
 20
69.2229936251754
 30
0.0
 11
213.0209825208974
 21
69.2229936251754
 31
0.0
 70
   160
  1
36
 71
     5
 42
36.02665679743265
 73
     0
 74
     0
 75
     0
  3
ISO-25
100
AcDbAlignedDimension
 13
195.0859774814526
 23
126.1858982172985
 33
0.0
 14
231.1126342788852
 24
126.1858982172984
 34
0.0
100
AcDbRotatedDimension
  0
LINE
  5
27B
330
1F
100
AcDbEntity
  8
実線
370
    30
100
AcDbLine
 10
53.34720018219902
 20
113.1332358690624
 30
0.0
 11
95.64857211152898
 21
137.5559443395515
 31
0.0
  0
LINE
  5
27C
330
1F
100
AcDbEntity
  8
実線
370
    30
100
AcDbLine
 10
52.34720018219902
 20
114.8652866766313
 30
0.0
 11
94.64857211152898
 21
139.2879951471204
 31
0.0
  0
LINE
  5
27D
330
1F
100
AcDbEntity
  8
実線
370
    20
100
AcDbLine
 10
83.33597943882255
 20
130.4472656455422
 30
0.0
 11
83.33597943882255
 21
75.25111322283564
 31
0.0
  0
LINE
  5
27E
330
1F
100
AcDbEntity
  8
実線
370
    20
100
AcDbLine
 10
65.33597943882255
 20
120.054960800129
 30
0.0
 11
65.33597943882255
 21
75.25111322283564
 31
0.0
  0
LWPOLYLINE
  5
27F
330
1F
100
AcDbEntity
  8
実線
100
AcDbPolyline
 90
        4
 70
     0
 43
0.0
 10
62.33597943882256
 20
118.3229099925601
 10
62.33597943882256
 20
75.25111322283564
 10
86.33597943882256
 20
75.25111322283564
 10
86.33597943882256
 20
132.1793164531111
  0
LINE
  5
280
102
{ACAD_REACTORS
102
}
330
1F
100
AcDbEntity
  8
実線
100
AcDbLine
 10
64.33597943882255
 20
60.25111322283564
 30
0.0
 11
84.33597943882255
 21
60.25111322283564
 31
0.0
  0
LINE
  5
281
102
{ACAD_REACTORS
330
2A9
102
}
330
1F
100
AcDbEntity
  8
中心線
100
AcDbLine
 10
213.0993058801689
 20
136.5858982172985
 30
0.0
 11
151.2200016423817
 21
136.5858982172985
 31
0.0
  0
LINE
  5
282
102
{ACAD_REACTORS
330
2A9
102
}
330
1F
100
AcDbEntity
  8
中心線
100
AcDbLine
 10
213.0993058801689
 20
136.5858982172985
 30
0.0
 11
274.5448304534067
 21
136.5858982172985
 31
0.0
  0
LINE
  5
283
330
1F
100
AcDbEntity
  8
中心線
100
AcDbLine
 10
213.0993058801689
 20
136.5858982172985
 30
0.0
 11
213.0993058801689
 21
197.1985507833552
 31
0.0
  0
LINE
  5
284
330
1F
100
AcDbEntity
  8
中心線
100
AcDbLine
 10
213.0993058801689
 20
136.5858982172985
 30
0.0
 11
213.0993058801689
 21
75.5940708684583
 31
0.0
  0
LINE
  5
286
330
1F
100
AcDbEntity
  8
実線
100
AcDbLine
 10
84.83597943882265
 20
60.25111322283558
 30
0.0
 11
63.83597943882253
 21
60.25111322283564
 31
0.0
  0
LINE
  5
298
330
1F
100
AcDbEntity
  8
実線
370
    30
100
AcDbLine
 10
63.83612770692326
 20
60.25116685720033
 30
0.0
 11
63.83612770692326
 21
60.25116685720033
 31
0.0
  0
DIMENSION
  5
29F
102
{ACAD_REACTORS
330
2A1
102
}
102
{ACAD_XDICTIONARY
360
2A0
102
}
330
1F
100
AcDbEntity
  8
文字
100
AcDbDimension
280
     0
  2
*D15
 10
133.6466947339428
 20
60.25111322283564
 30
0.0
 11
131.7461149249386
 21
67.75111322283564
 31
0.0
 70
    32
 71
     5
 42
15.0
 73
     0
 74
     0
 75
     0
  3
ISO-25
100
AcDbAlignedDimension
 13
95.13597943882257
 23
75.25111322283564
 33
0.0
 14
89.93597943882259
 24
60.25111322283564
 34
0.0
 50
90.0
100
AcDbRotatedDimension
  0
DIMENSION
  5
2A2
102
{ACAD_REACTORS
330
2A4
102
}
102
{ACAD_XDICTIONARY
360
2A3
102
}
330
1F
100
AcDbEntity
  8
文字
100
AcDbDimension
280
     0
  2
*D16
 10
133.6466947339428
 20
175.2511132228356
 30
0.0
 11
131.7461149249387
 21
125.2511132228356
 31
0.0
 70
    32
  1
130
 71
     5
 42
100.0
 73
     0
 74
     0
 75
     0
  3
ISO-25
100
AcDbAlignedDimension
 13
95.76097943882257
 23
75.25111322283564
 33
0.0
 14
83.33597943882256
 24
175.2511132228356
 34
0.0
 50
90.0
100
AcDbRotatedDimension
  0
CIRCLE
  5
2A5
102
{ACAD_REACTORS
330
2A9
102
}
330
1F
100
AcDbEntity
  8
実線
100
AcDbCircle
 10
213.0993058801689
 20
136.5858982172985
 30
0.0
 40
35.0
  0
CIRCLE
  5
2A6
330
1F
100
AcDbEntity
  8
実線
100
AcDbCircle
 10
213.0993058801689
 20
136.5858982172985
 30
0.0
 40
55.0
  0
DIMENSION
  5
2A7
102
{ACAD_REACTORS
330
2A9
102
}
102
{ACAD_XDICTIONARY
360
2A8
102
}
330
1F
100
AcDbEntity
  8
文字
100
AcDbDimension
280
     0
  2
*D17
 10
248.0993058801689
 20
58.97386880667059
 30
0.0
 11
213.0993058801689
 21
60.92219759248233
 31
0.0
 70
    32
  1
%%c<>
 71
     5
 42
70.0
 73
     0
 74
     0
 75
     0
  3
ISO-25
100
AcDbAlignedDimension
 13
178.0993058801689
 23
136.5858982172985
 33
0.0
 14
248.0993058801689
 24
136.5858982172985
 34
0.0
100
AcDbRotatedDimension
  0
CIRCLE
  5
2AA
330
1F
100
AcDbEntity
  8
実線
100
AcDbCircle
 10
167.0993058801689
 20
136.5858982172985
 30
0.0
 40
6.0
  0
CIRCLE
  5
2AB
102
{ACAD_REACTORS
330
2B4
102
}
330
1F
100
AcDbEntity
  8
実線
100
AcDbCircle
 10
259.0993058801689
 20
136.5858982172985
 30
0.0
 40
6.0
  0
MTEXT
  5
2B1
102
{ACAD_REACTORS
330
2B2
102
}
330
1F
100
AcDbEntity
  8
文字
100
AcDbMText
 10
270.8631607492605
 20
171.5990116486879
 30
0.0
 40
2.5
 41
20.0
 46
0.0
 71
     7
 72
     1
  1
2-%%c12
 73
     1
 44
1.0
  0
LEADER
  5
2B2
102
{ACAD_REACTORS
330
2B4
102
}
102
{ACAD_XDICTIONARY
360
2B3
102
}
330
1F
100
AcDbEntity
  8
文字
100
AcDbLeader
  3
ISO-25
 73
     0
 74
     0
 40
2.6425
 41
8.8275
 76
     3
 10
259.0993058801689
 20
136.5858982172985
 30
0.0
 10
267.2344871160319
 20
170.9740116486879
 30
0.0
 10
270.2381607492605
 20
170.9740116486879
 30
0.0
340
2B1
1001
ACAD
1000
DSTYLE
1002
{
1070
   147
1040
0.625
1070
    77
1070
     1
1002
}
  0
MTEXT
  5
34D
330
1F
100
AcDbEntity
  8
文字・寸法線
 62
     0
100
AcDbMText
 10
49.60930226468933
 20
230.4078874680729
 30
0.0
 40
6.0
 41
0.0
 46
6.0
 71
     9
 72
     1
  1
{\fＭＳ ゴシック|b0|i0|c0|p0;S-G1 M24X130}
 73
     1
 44
1.0
1001
ACAD
1000
ACAD_MTEXT_DEFINED_HEIGHT_BEGIN
1070
    46
1040
6.0
1000
ACAD_MTEXT_DEFINED_HEIGHT_END
  0
DIMENSION
  5
386
102
{ACAD_XDICTIONARY
360
387
102
}
330
1F
100
AcDbEntity
  8
文字
100
AcDbDimension
280
     0
  2
*D20
 10
259.1526227107832
 20
45.50949780072008
 30
0.0
 11
213.0555235683328
 21
45.50949780072008
 31
0.0
 70
   160
 71
     5
 42
92.00000000000006
 73
     0
 74
     0
 75
     0
  3
ISO-25
100
AcDbAlignedDimension
 13
167.1526227107832
 23
136.4484370898761
 33
0.0
 14
259.1526227107832
 24
136.448437089876
 34
0.0
100
AcDbRotatedDimension
  0
LINE
  5
3FC
330
1F
100
AcDbEntity
  8
実線
100
AcDbLine
 10
90.04686367653616
 20
38.14351015743144
 30
0.0
 11
63.79686367653363
 21
38.14351015743148
 31
0.0
  0
LINE
  5
3FD
330
1F
100
AcDbEntity
  8
実線
100
AcDbLine
 10
111.2776596239921
 20
38.14351015743142
 30
0.0
 11
129.2968636765337
 21
38.14351015743141
 31
0.0
  0
LINE
  5
3FE
330
1F
100
AcDbEntity
  8
実線
100
AcDbLine
 10
37.31606772907529
 20
38.14351015743148
 30
0.0
 11
19.29686367653369
 21
38.14351015743149
 31
0.0
  0
ARC
  5
3FF
330
1F
100
AcDbEntity
  8
実線
100
AcDbCircle
 10
74.61288464387317
 20
23.83007517257309
 30
0.0
 40
38.0
100
AcDbArc
 50
106.5365649756556
 51
155.4603227367469
  0
ARC
  5
400
330
1F
100
AcDbEntity
  8
実線
100
AcDbCircle
 10
73.55904309530165
 20
23.0611081554285
 30
0.0
 40
38.85776825211736
100
AcDbArc
 50
25.75758019451117
 51
73.18940608401107
  0
DIMENSION
  5
401
102
{ACAD_XDICTIONARY
360
402
102
}
330
1F
100
AcDbEntity
  8
文字
100
AcDbDimension
280
     0
  2
*D25
 10
129.2189932933575
 20
20.60170210121091
 30
0.0
 11
74.21899329335753
 21
22.54795210121091
 31
0.0
 70
    32
  1
%%c110
 71
     5
 42
110.0
 73
     0
 74
     0
 75
     0
  3
ISO-25
100
AcDbAlignedDimension
 13
19.21899329335754
 23
36.53006563853474
 33
0.0
 14
129.2189932933575
 24
36.53006563853467
 34
0.0
100
AcDbRotatedDimension
  0
ARC
  5
403
330
1F
100
AcDbEntity
  8
実線
100
AcDbCircle
 10
111.2849544508234
 20
41.19328137048929
 30
0.0
 40
3.0
100
AcDbArc
 50
204.5396772632533
 51
270.0
  0
ARC
  5
404
330
1F
100
AcDbEntity
  8
実線
100
AcDbCircle
 10
37.31606772907526
 20
41.05891523433029
 30
0.0
 40
3.0
100
AcDbArc
 50
270.0
 51
335.4603227367465
  0
LINE
  5
405
330
1F
100
AcDbEntity
  8
実線
100
AcDbLine
 10
63.79686367653363
 20
38.14351015743148
 30
0.0
 11
37.31606772907529
 21
38.14351015743148
 31
0.0
  0
LINE
  5
406
330
1F
100
AcDbEntity
  8
実線
100
AcDbLine
 10
90.04686367653616
 20
38.14351015743144
 30
0.0
 11
111.2776596239921
 21
38.14351015743144
 31
0.0
  0
DIMENSION
  5
407
102
{ACAD_XDICTIONARY
360
408
102
}
330
1F
100
AcDbEntity
  8
文字
100
AcDbDimension
280
     0
  2
*D26
 10
13.97083018385261
 20
38.2151737035294
 30
0.0
 11
13.97083018385261
 21
54.70898076123228
 31
0.0
 70
   160
 71
     5
 42
2.002965801463674
 73
     0
 74
     0
 75
     0
  3
ISO-25
100
AcDbAlignedDimension
 13
20.14821126411341
 23
36.21220790206573
 33
0.0
 14
20.40024354009008
 24
38.2151737035294
 34
0.0
 50
90.0
100
AcDbRotatedDimension
  0
DIMENSION
  5
409
102
{ACAD_XDICTIONARY
360
40A
102
}
330
1F
100
AcDbEntity
  8
文字
100
AcDbDimension
280
     0
  2
*D27
 10
133.6077668841671
 20
36.25985712743358
 30
0.0
 11
131.7277668841671
 21
48.25909360186145
 31
0.0
 70
    32
 71
     5
 42
23.99847294885575
 73
     0
 74
     0
 75
     0
  3
ISO-25
100
AcDbAlignedDimension
 13
84.2970515890469
 23
60.25833007628933
 33
0.0
 14
127.2915430873241
 24
36.25985712743358
 34
0.0
 50
90.0
100
AcDbRotatedDimension
  0
LINE
  5
40C
330
1F
100
AcDbEntity
  8
文字
100
AcDbLine
 10
19.3092988030993
 20
36.26169621525807
 30
0.0
 11
129.3551643173241
 21
36.26169621525807
 31
0.0
  0
LINE
  5
40D
330
1F
100
AcDbEntity
  8
文字
100
AcDbLine
 10
129.3553522298374
 20
36.2516979809696
 30
0.0
 11
129.2970515890469
 21
38.13351192314292
 31
0.0
  0
LINE
  5
40E
330
1F
100
AcDbEntity
  8
文字
100
AcDbLine
 10
19.3092988030993
 20
36.26169621525807
 30
0.0
 11
19.3092988030993
 21
38.00845598532514
 31
0.0
  0
ENDSEC
  0
SECTION
  2
OBJECTS
  0
DICTIONARY
  5
C
330
0
100
AcDbDictionary
281
     1
  3
ACAD_COLOR
350
73
  3
ACAD_DETAILVIEWSTYLE
350
122
  3
ACAD_GROUP
350
D
  3
ACAD_IMAGE_VARS
350
DC
  3
ACAD_LAYOUT
350
1A
  3
ACAD_MATERIAL
350
72
  3
ACAD_MLEADERSTYLE
350
B5
  3
ACAD_MLINESTYLE
350
17
  3
ACAD_PLOTSETTINGS
350
19
  3
ACAD_PLOTSTYLENAME
350
E
  3
ACAD_SCALELIST
350
B6
  3
ACAD_SECTIONVIEWSTYLE
350
123
  3
ACAD_TABLESTYLE
350
86
  3
ACAD_VISUALSTYLE
350
99
  3
ACDB_RECOMPOSE_DATA
350
462
  3
AcDbVariableDictionary
350
66
  3
APPDATA
350
E1
  0
SUN
  5
ED
330
94
100
AcDbSun
 90
        1
290
     0
 63
     7
421
 16777215
 40
1.0
291
     1
 91
  2455826
 92
 54000000
292
     0
 70
     2
 71
   256
280
     1
  0
DICTIONARY
  5
273
330
272
100
AcDbDictionary
280
     1
281
     1
  3
ACAD_DIMASSOC
360
274
  0
DICTIONARY
  5
279
330
278
100
AcDbDictionary
280
     1
281
     1
  3
ACAD_DIMASSOC
360
27A
  0
DICTIONARY
  5
2A0
330
29F
100
AcDbDictionary
280
     1
281
     1
  3
ACAD_DIMASSOC
360
2A1
  0
DICTIONARY
  5
2A3
330
2A2
100
AcDbDictionary
280
     1
281
     1
  3
ACAD_DIMASSOC
360
2A4
  0
DICTIONARY
  5
2A8
330
2A7
100
AcDbDictionary
280
     1
281
     1
  3
ACAD_DIMASSOC
360
2A9
  0
DICTIONARY
  5
2B3
330
2B2
100
AcDbDictionary
280
     1
281
     1
  3
ACAD_DIMASSOC
360
2B4
  0
DICTIONARY
  5
387
330
386
100
AcDbDictionary
280
     1
281
     1
  0
DICTIONARY
  5
402
330
401
100
AcDbDictionary
280
     1
281
     1
  0
DICTIONARY
  5
408
330
407
100
AcDbDictionary
280
     1
281
     1
  0
DICTIONARY
  5
40A
330
409
100
AcDbDictionary
280
     1
281
     1
  0
DICTIONARY
  5
73
102
{ACAD_REACTORS
330
C
102
}
330
C
100
AcDbDictionary
281
     1
  0
DICTIONARY
  5
122
102
{ACAD_REACTORS
330
C
102
}
330
C
100
AcDbDictionary
281
     1
  0
DICTIONARY
  5
D
102
{ACAD_REACTORS
330
C
102
}
330
C
100
AcDbDictionary
281
     1
  0
RASTERVARIABLES
  5
DC
102
{ACAD_REACTORS
330
C
102
}
330
C
100
AcDbRasterVariables
 90
        0
 70
     1
 71
     1
 72
     5
  0
DICTIONARY
  5
1A
102
{ACAD_REACTORS
330
C
102
}
330
C
100
AcDbDictionary
281
     1
  3
Model
350
22
  3
Sheet1
350
59
  3
Sheet2
350
5E
  0
DICTIONARY
  5
72
102
{ACAD_REACTORS
330
C
102
}
330
C
100
AcDbDictionary
281
     1
  3
ByBlock
350
E2
  3
ByLayer
350
96
  3
Global
350
98
  0
DICTIONARY
  5
B5
102
{ACAD_REACTORS
330
C
102
}
330
C
100
AcDbDictionary
281
     1
  0
DICTIONARY
  5
17
102
{ACAD_REACTORS
330
C
102
}
330
C
100
AcDbDictionary
281
     1
  3
Standard
350
18
  0
DICTIONARY
  5
19
102
{ACAD_REACTORS
330
C
102
}
330
C
100
AcDbDictionary
281
     1
  0
ACDBDICTIONARYWDFLT
  5
E
102
{ACAD_REACTORS
330
C
102
}
330
C
100
AcDbDictionary
281
     1
  3
Normal
350
F
100
AcDbDictionaryWithDefault
340
F
  0
DICTIONARY
  5
B6
102
{ACAD_REACTORS
330
C
102
}
330
C
100
AcDbDictionary
281
     1
  3
A0
350
B7
  3
A1
350
B8
  3
A2
350
B9
  3
A3
350
BA
  3
A4
350
BB
  3
A5
350
BC
  3
A6
350
BD
  3
A7
350
BE
  3
A8
350
BF
  3
A9
350
C0
  3
B0
350
C1
  3
B1
350
C2
  3
B2
350
C3
  3
B3
350
C4
  3
B4
350
C5
  3
B5
350
C6
  3
B6
350
C7
  3
B7
350
C8
  3
B8
350
C9
  3
B9
350
CA
  3
C0
350
CB
  3
C1
350
CC
  3
C2
350
CD
  3
C3
350
CE
  3
C4
350
CF
  3
C5
350
D0
  3
C6
350
D1
  3
C7
350
D2
  3
C8
350
D3
  3
C9
350
D4
  3
D0
350
D5
  3
D1
350
D6
  3
D2
350
D7
  0
DICTIONARY
  5
123
102
{ACAD_REACTORS
330
C
102
}
330
C
100
AcDbDictionary
281
     1
  0
DICTIONARY
  5
86
102
{ACAD_REACTORS
330
C
102
}
330
C
100
AcDbDictionary
281
     1
  3
Standard
350
87
  0
DICTIONARY
  5
99
102
{ACAD_REACTORS
330
C
102
}
330
C
100
AcDbDictionary
281
     1
  3
2dWireframe
350
9F
  3
3D Hidden
350
A1
  3
3dWireframe
350
A0
  3
Basic
350
9E
  3
Brighten
350
A5
  3
ColorChange
350
A9
  3
Conceptual
350
A2
  3
Dim
350
A4
  3
EdgeColorOff
350
E7
  3
Facepattern
350
A8
  3
Flat
350
9A
  3
FlatWithEdges
350
9B
  3
Gouraud
350
9C
  3
GouraudWithEdges
350
9D
  3
Hidden
350
E4
  3
JitterOff
350
E5
  3
Linepattern
350
A7
  3
OverhangOff
350
E6
  3
Realistic
350
A3
  3
Shaded
350
EC
  3
Shaded with edges
350
EB
  3
Shades of Gray
350
E8
  3
Sketchy
350
E9
  3
Thicken
350
A6
  3
Wireframe
350
E3
  3
X-Ray
350
EA
  0
XRECORD
  5
462
102
{ACAD_REACTORS
330
C
102
}
330
C
100
AcDbXrecord
280
     1
 90
        1
330
87
  0
DICTIONARY
  5
66
102
{ACAD_REACTORS
330
C
102
}
330
C
100
AcDbDictionary
281
     1
  3
CANNOSCALE
350
D8
  3
CTABLESTYLE
350
89
  3
DIMASSOC
350
67
  3
HIDETEXT
350
6B
  3
LIGHTSINBLOCKS
350
DF
  3
XCLIPFRAME
350
E0
  0
DICTIONARY
  5
E1
102
{ACAD_REACTORS
330
C
102
}
330
C
100
AcDbDictionary
281
     1
  0
DIMASSOC
  5
274
102
{ACAD_REACTORS
330
273
102
}
330
273
100
AcDbDimAssoc
330
272
 90
        3
 70
     0
 71
     0
  1
AcDbOsnapPointRef
 72
    13
331
26F
 73
     2
 91
        0
 40
0.0
 10
0.0
 20
0.0
 30
2.000000000000000E+50
 75
     0
  1
AcDbOsnapPointRef
 72
     1
331
26F
 73
     2
 91
        0
 40
1.0
 10
0.0
 20
0.0
 30
2.000000000000000E+50
 75
     0
  0
DIMASSOC
  5
27A
102
{ACAD_REACTORS
330
279
102
}
330
279
100
AcDbDimAssoc
330
278
 90
        3
 70
     0
 71
     0
  1
AcDbOsnapPointRef
 72
     1
331
275
 73
     2
 91
        3
 40
1.0
 10
0.0
 20
0.0
 30
2.000000000000000E+50
 75
     0
  1
AcDbOsnapPointRef
 72
     1
331
275
 73
     2
 91
        5
 40
1.0
 10
0.0
 20
0.0
 30
2.000000000000000E+50
 75
     0
  0
DIMASSOC
  5
2A1
102
{ACAD_REACTORS
330
2A0
102
}
330
2A0
100
AcDbDimAssoc
330
29F
 90
        3
 70
     0
 71
     0
  1
AcDbOsnapPointRef
 72
     1
331
266
 73
     2
 91
        1
 40
1.0
 10
0.0
 20
0.0
 30
2.000000000000000E+50
 75
     0
  1
AcDbOsnapPointRef
 72
     1
331
26C
 73
     2
 91
        1
 40
1.0
 10
0.0
 20
0.0
 30
2.000000000000000E+50
 75
     0
  0
DIMASSOC
  5
2A4
102
{ACAD_REACTORS
330
2A3
102
}
330
2A3
100
AcDbDimAssoc
330
2A2
 90
        2
 70
     0
 71
     0
  1
AcDbOsnapPointRef
 72
    13
331
271
 73
     2
 91
        0
 40
0.0
 10
0.0
 20
0.0
 30
2.000000000000000E+50
 75
     0
  0
DIMASSOC
  5
2A9
102
{ACAD_REACTORS
330
2A8
102
}
330
2A8
100
AcDbDimAssoc
330
2A7
 90
        3
 70
     0
 71
     0
  1
AcDbOsnapPointRef
 72
     6
331
281
 73
     2
 91
        0
 40
0.5656172193776368
 10
0.0
 20
0.0
 30
0.0
332
2A5
 74
     2
 92
        0
 75
     0
  1
AcDbOsnapPointRef
 72
     6
331
282
 73
     2
 91
        0
 40
0.5696102400148442
 10
0.0
 20
0.0
 30
0.0
332
2A5
 74
     2
 92
        0
 75
     0
  0
DIMASSOC
  5
2B4
102
{ACAD_REACTORS
330
2B3
102
}
330
2B3
100
AcDbDimAssoc
330
2B2
 90
        1
 70
     0
 71
     0
  1
AcDbOsnapPointRef
 72
     3
331
2AB
 73
     2
 91
        0
 40
0.0
 10
0.0
 20
0.0
 30
0.0
 75
     0
  0
LAYOUT
  5
22
102
{ACAD_REACTORS
330
1A
102
}
330
1A
100
AcDbPlotSettings
  1

  2
none_device
  4
ANSI_A_(8.50_x_11.00_Inches)
  6

 40
6.35
 41
19.05
 42
6.35
 43
19.05
 44
215.9
 45
279.4
 46
11.11250000000003
 47
0.0000000000000142
 48
0.0
 49
0.0
140
0.0
141
0.0
142
1.0
143
1.263157894736842
 70
 11444
 72
     0
 73
     1
 74
     1
  7
monochrome.ctb
 75
     0
 76
     0
 77
     2
 78
   300
147
0.7916666666666665
148
-702.8076765758875
149
-496.2830551296954
100
AcDbLayout
  1
Model
 70
     1
 71
     0
 10
0.0
 20
0.0
 11
12.0
 21
9.0
 12
0.0
 22
0.0
 32
0.0
 14
3.421302264689331
 24
19.35170210121091
 34
0.0
 15
279.6906607492605
 25
236.4078874680729
 35
0.0
146
0.0
 13
0.0
 23
0.0
 33
0.0
 16
1.0
 26
0.0
 36
0.0
 17
0.0
 27
1.0
 37
0.0
 76
     0
330
1F
331
94
  0
LAYOUT
  5
59
102
{ACAD_REACTORS
330
1A
102
}
330
1A
100
AcDbPlotSettings
  1

  2
None
  4

  6

 40
0.0
 41
0.0
 42
0.0
 43
0.0
 44
0.0
 45
0.0
 46
0.0
 47
0.0
 48
0.0
 49
0.0
140
0.0
141
0.0
142
1.0
143
1.0
 70
   688
 72
     0
 73
     0
 74
     5
  7

 75
    16
 76
     0
 77
     2
 78
   300
147
1.0
148
0.0
149
0.0
100
AcDbLayout
  1
Sheet1
 70
     1
 71
     1
 10
0.0
 20
0.0
 11
12.0
 21
9.0
 12
0.0
 22
0.0
 32
0.0
 14
0.0
 24
0.0
 34
0.0
 15
0.0
 25
0.0
 35
0.0
146
0.0
 13
0.0
 23
0.0
 33
0.0
 16
1.0
 26
0.0
 36
0.0
 17
0.0
 27
1.0
 37
0.0
 76
     0
330
58
  0
LAYOUT
  5
5E
102
{ACAD_REACTORS
330
1A
102
}
330
1A
100
AcDbPlotSettings
  1

  2
None
  4

  6

 40
0.0
 41
0.0
 42
0.0
 43
0.0
 44
0.0
 45
0.0
 46
0.0
 47
0.0
 48
0.0
 49
0.0
140
0.0
141
0.0
142
1.0
143
1.0
 70
   688
 72
     0
 73
     0
 74
     5
  7

 75
    16
 76
     0
 77
     2
 78
   300
147
1.0
148
0.0
149
0.0
100
AcDbLayout
  1
Sheet2
 70
     1
 71
     2
 10
0.0
 20
0.0
 11
12.0
 21
9.0
 12
0.0
 22
0.0
 32
0.0
 14
0.0
 24
0.0
 34
0.0
 15
0.0
 25
0.0
 35
0.0
146
0.0
 13
0.0
 23
0.0
 33
0.0
 16
1.0
 26
0.0
 36
0.0
 17
0.0
 27
1.0
 37
0.0
 76
     0
330
5D
  0
MATERIAL
  5
E2
102
{ACAD_REACTORS
330
72
102
}
330
72
100
AcDbMaterial
  1
ByBlock
 72
     1
 94
      127
  0
MATERIAL
  5
96
102
{ACAD_REACTORS
330
72
102
}
330
72
100
AcDbMaterial
  1
ByLayer
 72
     1
 94
       63
  0
MATERIAL
  5
98
102
{ACAD_REACTORS
330
72
102
}
330
72
100
AcDbMaterial
  1
Global
 72
     1
 94
       63
  0
MLINESTYLE
  5
18
102
{ACAD_REACTORS
330
17
102
}
330
17
100
AcDbMlineStyle
  2
STANDARD
 70
     0
  3

 62
   256
 51
90.0
 52
90.0
 71
     2
 49
0.5
 62
   256
  6
BYLAYER
 49
-0.5
 62
   256
  6
BYLAYER
  0
ACDBPLACEHOLDER
  5
F
102
{ACAD_REACTORS
330
E
102
}
330
E
  0
SCALE
  5
B7
102
{ACAD_REACTORS
330
B6
102
}
330
B6
100
AcDbScale
 70
     0
300
1:1
140
1.0
141
1.0
290
     1
  0
SCALE
  5
B8
102
{ACAD_REACTORS
330
B6
102
}
330
B6
100
AcDbScale
 70
     0
300
1:2
140
1.0
141
2.0
290
     0
  0
SCALE
  5
B9
102
{ACAD_REACTORS
330
B6
102
}
330
B6
100
AcDbScale
 70
     0
300
1:4
140
1.0
141
4.0
290
     0
  0
SCALE
  5
BA
102
{ACAD_REACTORS
330
B6
102
}
330
B6
100
AcDbScale
 70
     0
300
1:5
140
1.0
141
5.0
290
     0
  0
SCALE
  5
BB
102
{ACAD_REACTORS
330
B6
102
}
330
B6
100
AcDbScale
 70
     0
300
1:8
140
1.0
141
8.0
290
     0
  0
SCALE
  5
BC
102
{ACAD_REACTORS
330
B6
102
}
330
B6
100
AcDbScale
 70
     0
300
1:10
140
1.0
141
10.0
290
     0
  0
SCALE
  5
BD
102
{ACAD_REACTORS
330
B6
102
}
330
B6
100
AcDbScale
 70
     0
300
1:16
140
1.0
141
16.0
290
     0
  0
SCALE
  5
BE
102
{ACAD_REACTORS
330
B6
102
}
330
B6
100
AcDbScale
 70
     0
300
1:20
140
1.0
141
20.0
290
     0
  0
SCALE
  5
BF
102
{ACAD_REACTORS
330
B6
102
}
330
B6
100
AcDbScale
 70
     0
300
1:30
140
1.0
141
30.0
290
     0
  0
SCALE
  5
C0
102
{ACAD_REACTORS
330
B6
102
}
330
B6
100
AcDbScale
 70
     0
300
1:40
140
1.0
141
40.0
290
     0
  0
SCALE
  5
C1
102
{ACAD_REACTORS
330
B6
102
}
330
B6
100
AcDbScale
 70
     0
300
1:50
140
1.0
141
50.0
290
     0
  0
SCALE
  5
C2
102
{ACAD_REACTORS
330
B6
102
}
330
B6
100
AcDbScale
 70
     0
300
1:100
140
1.0
141
100.0
290
     0
  0
SCALE
  5
C3
102
{ACAD_REACTORS
330
B6
102
}
330
B6
100
AcDbScale
 70
     0
300
2:1
140
2.0
141
1.0
290
     0
  0
SCALE
  5
C4
102
{ACAD_REACTORS
330
B6
102
}
330
B6
100
AcDbScale
 70
     0
300
4:1
140
4.0
141
1.0
290
     0
  0
SCALE
  5
C5
102
{ACAD_REACTORS
330
B6
102
}
330
B6
100
AcDbScale
 70
     0
300
8:1
140
8.0
141
1.0
290
     0
  0
SCALE
  5
C6
102
{ACAD_REACTORS
330
B6
102
}
330
B6
100
AcDbScale
 70
     0
300
10:1
140
10.0
141
1.0
290
     0
  0
SCALE
  5
C7
102
{ACAD_REACTORS
330
B6
102
}
330
B6
100
AcDbScale
 70
     0
300
100:1
140
100.0
141
1.0
290
     0
  0
SCALE
  5
C8
102
{ACAD_REACTORS
330
B6
102
}
330
B6
100
AcDbScale
 70
     0
300
1/128" = 1'-0"
140
0.0078125
141
12.0
290
     0
  0
SCALE
  5
C9
102
{ACAD_REACTORS
330
B6
102
}
330
B6
100
AcDbScale
 70
     0
300
1/64" = 1'-0"
140
0.015625
141
12.0
290
     0
  0
SCALE
  5
CA
102
{ACAD_REACTORS
330
B6
102
}
330
B6
100
AcDbScale
 70
     0
300
1/32" = 1'-0"
140
0.03125
141
12.0
290
     0
  0
SCALE
  5
CB
102
{ACAD_REACTORS
330
B6
102
}
330
B6
100
AcDbScale
 70
     0
300
1/16" = 1'-0"
140
0.0625
141
12.0
290
     0
  0
SCALE
  5
CC
102
{ACAD_REACTORS
330
B6
102
}
330
B6
100
AcDbScale
 70
     0
300
3/32" = 1'-0"
140
0.09375
141
12.0
290
     0
  0
SCALE
  5
CD
102
{ACAD_REACTORS
330
B6
102
}
330
B6
100
AcDbScale
 70
     0
300
1/8" = 1'-0"
140
0.125
141
12.0
290
     0
  0
SCALE
  5
CE
102
{ACAD_REACTORS
330
B6
102
}
330
B6
100
AcDbScale
 70
     0
300
3/16" = 1'-0"
140
0.1875
141
12.0
290
     0
  0
SCALE
  5
CF
102
{ACAD_REACTORS
330
B6
102
}
330
B6
100
AcDbScale
 70
     0
300
1/4" = 1'-0"
140
0.25
141
12.0
290
     0
  0
SCALE
  5
D0
102
{ACAD_REACTORS
330
B6
102
}
330
B6
100
AcDbScale
 70
     0
300
3/8" = 1'-0"
140
0.375
141
12.0
290
     0
  0
SCALE
  5
D1
102
{ACAD_REACTORS
330
B6
102
}
330
B6
100
AcDbScale
 70
     0
300
1/2" = 1'-0"
140
0.5
141
12.0
290
     0
  0
SCALE
  5
D2
102
{ACAD_REACTORS
330
B6
102
}
330
B6
100
AcDbScale
 70
     0
300
3/4" = 1'-0"
140
0.75
141
12.0
290
     0
  0
SCALE
  5
D3
102
{ACAD_REACTORS
330
B6
102
}
330
B6
100
AcDbScale
 70
     0
300
1" = 1'-0"
140
1.0
141
12.0
290
     0
  0
SCALE
  5
D4
102
{ACAD_REACTORS
330
B6
102
}
330
B6
100
AcDbScale
 70
     0
300
1-1/2" = 1'-0"
140
1.5
141
12.0
290
     0
  0
SCALE
  5
D5
102
{ACAD_REACTORS
330
B6
102
}
330
B6
100
AcDbScale
 70
     0
300
3" = 1'-0"
140
3.0
141
12.0
290
     0
  0
SCALE
  5
D6
102
{ACAD_REACTORS
330
B6
102
}
330
B6
100
AcDbScale
 70
     0
300
6" = 1'-0"
140
6.0
141
12.0
290
     0
  0
SCALE
  5
D7
102
{ACAD_REACTORS
330
B6
102
}
330
B6
100
AcDbScale
 70
     0
300
1'-0" = 1'-0"
140
12.0
141
12.0
290
     0
  0
TABLESTYLE
  5
87
102
{ACAD_REACTORS
330
86
102
}
102
{ACAD_XDICTIONARY
360
460
102
}
330
86
100
AcDbTableStyle
  3
Standard
 70
     0
 71
     0
 40
0.06
 41
0.06
280
     0
281
     0
  7
Standard
140
0.18
170
     2
 62
     0
 63
   257
283
     0
 90
      512
 91
        0
  1

274
    -2
284
     1
 64
     0
275
    -2
285
     1
 65
     0
276
    -2
286
     1
 66
     0
277
    -2
287
     1
 67
     0
278
    -2
288
     1
 68
     0
279
    -2
289
     1
 69
     0
  7
Standard
140
0.25
170
     5
 62
     0
 63
   257
283
     0
 90
      512
 91
        0
  1

274
    -2
284
     1
 64
     0
275
    -2
285
     1
 65
     0
276
    -2
286
     1
 66
     0
277
    -2
287
     1
 67
     0
278
    -2
288
     1
 68
     0
279
    -2
289
     1
 69
     0
  7
Standard
140
0.18
170
     5
 62
     0
 63
   257
283
     0
 90
      512
 91
        0
  1

274
    -2
284
     1
 64
     0
275
    -2
285
     1
 65
     0
276
    -2
286
     1
 66
     0
277
    -2
287
     1
 67
     0
278
    -2
288
     1
 68
     0
279
    -2
289
     1
 69
     0
  0
VISUALSTYLE
  5
9F
102
{ACAD_REACTORS
330
99
102
}
330
99
100
AcDbVisualStyle
  2
2dWireframe
 70
     4
177
     3
291
     0
 70
    58
 90
        0
176
     1
 90
        2
176
     1
 90
        1
176
     1
 90
        0
176
     1
 40
-0.6
176
     1
 40
-30.0
176
     1
 62
     7
420
 16777215
176
     1
 90
        1
176
     1
 90
        4
176
     1
 62
     7
176
     1
 62
   257
176
     1
 90
        1
176
     1
 90
        1
176
     1
 40
1.0
176
     1
 90
        0
176
     1
 62
   257
176
     1
 40
1.0
176
     1
 90
        1
176
     1
 90
        6
176
     1
 90
        2
176
     1
 62
     7
176
     1
 90
        5
176
     1
 90
        0
176
     1
 90
        0
176
     1
290
     0
176
     1
 90
        1
176
     1
 40
0.0
176
     1
 90
        0
176
     1
290
     1
176
     1
290
     1
176
     1
290
     0
176
     1
290
     0
176
     1
290
     0
176
     1
290
     0
176
     1
290
     0
176
     1
290
     0
176
     1
290
     0
176
     1
 90
       50
176
     1
 40
0.0
176
     1
 40
1.0
176
     1
 90
        0
176
     1
 62
    18
420
        0
176
     1
 90
       50
176
     1
 90
        3
176
     1
 62
     5
420
      255
176
     1
290
     0
176
     1
 90
       50
176
     1
 90
       50
176
     1
 90
       50
176
     1
290
     0
176
     1
 90
       50
176
     1
 62
   256
176
     0
 40
1.0
176
     0
 90
        2
176
     1
  1
strokes_ogs.tif
176
     1
290
     0
176
     1
 40
1.0
176
     1
 40
1.0
176
     1
  0
VISUALSTYLE
  5
A1
102
{ACAD_REACTORS
330
99
102
}
330
99
100
AcDbVisualStyle
  2
3D Hidden
 70
     6
177
     3
291
     0
 70
    58
 90
        1
176
     1
 90
        2
176
     1
 90
        2
176
     1
 90
        0
176
     1
 40
-0.6
176
     1
 40
-30.0
176
     1
 62
     7
420
 16777215
176
     1
 90
        2
176
     1
 90
        2
176
     1
 62
     7
176
     1
 62
   257
176
     1
 90
        2
176
     1
 90
        1
176
     1
 40
40.0
176
     1
 90
        0
176
     1
 62
   257
176
     1
 40
1.0
176
     1
 90
        1
176
     1
 90
        6
176
     1
 90
        2
176
     1
 62
     7
176
     1
 90
        3
176
     1
 90
        0
176
     1
 90
        0
176
     1
290
     0
176
     1
 90
        1
176
     1
 40
0.0
176
     1
 90
        0
176
     1
290
     0
176
     1
290
     1
176
     1
290
     1
176
     1
290
     0
176
     1
290
     0
176
     1
290
     0
176
     1
290
     0
176
     1
290
     0
176
     1
290
     0
176
     1
 90
       50
176
     1
 40
0.0
176
     1
 40
1.0
176
     1
 90
        0
176
     1
 62
    18
420
        0
176
     1
 90
       50
176
     1
 90
        3
176
     1
 62
     5
420
      255
176
     1
290
     0
176
     1
 90
       50
176
     1
 90
       50
176
     1
 90
       50
176
     1
290
     0
176
     1
 90
       50
176
     1
 62
   256
176
     0
 40
1.0
176
     0
 90
        2
176
     1
  1
strokes_ogs.tif
176
     1
290
     0
176
     1
 40
1.0
176
     1
 40
1.0
176
     1
  0
VISUALSTYLE
  5
A0
102
{ACAD_REACTORS
330
99
102
}
330
99
100
AcDbVisualStyle
  2
3dWireframe
 70
     5
177
     3
291
     0
 70
    58
 90
        0
176
     1
 90
        2
176
     1
 90
        1
176
     1
 90
        0
176
     1
 40
-0.6
176
     1
 40
-30.0
176
     1
 62
     7
420
 16777215
176
     1
 90
        1
176
     1
 90
        4
176
     1
 62
     7
176
     1
 62
   257
176
     1
 90
        1
176
     1
 90
        1
176
     1
 40
1.0
176
     1
 90
        0
176
     1
 62
   257
176
     1
 40
1.0
176
     1
 90
        1
176
     1
 90
        6
176
     1
 90
        2
176
     1
 62
     7
176
     1
 90
        5
176
     1
 90
        0
176
     1
 90
        0
176
     1
290
     0
176
     1
 90
        1
176
     1
 40
0.0
176
     1
 90
        0
176
     1
290
     0
176
     1
290
     1
176
     1
290
     1
176
     1
290
     0
176
     1
290
     0
176
     1
290
     0
176
     1
290
     0
176
     1
290
     0
176
     1
290
     0
176
     1
 90
       50
176
     1
 40
0.0
176
     1
 40
1.0
176
     1
 90
        0
176
     1
 62
    18
420
        0
176
     1
 90
       50
176
     1
 90
        3
176
     1
 62
     5
420
      255
176
     1
290
     0
176
     1
 90
       50
176
     1
 90
       50
176
     1
 90
       50
176
     1
290
     0
176
     1
 90
       50
176
     1
 62
   256
176
     0
 40
1.0
176
     0
 90
        2
176
     1
  1
strokes_ogs.tif
176
     1
290
     0
176
     1
 40
1.0
176
     1
 40
1.0
176
     1
  0
VISUALSTYLE
  5
9E
102
{ACAD_REACTORS
330
99
102
}
330
99
100
AcDbVisualStyle
  2
Basic
 70
     7
177
     3
291
     1
 70
    58
 90
        1
176
     1
 90
        0
176
     1
 90
        1
176
     1
 90
        0
176
     1
 40
-0.6
176
     1
 40
-30.0
176
     1
 62
     7
420
 16777215
176
     1
 90
        0
176
     1
 90
        4
176
     1
 62
     7
176
     1
 62
   257
176
     1
 90
        1
176
     1
 90
        1
176
     1
 40
1.0
176
     1
 90
        8
176
     1
 62
     7
176
     1
 40
1.0
176
     1
 90
        1
176
     1
 90
        6
176
     1
 90
        2
176
     1
 62
     7
176
     1
 90
        5
176
     1
 90
        0
176
     1
 90
        0
176
     1
290
     0
176
     1
 90
        1
176
     1
 40
0.0
176
     1
 90
        0
176
     1
290
     0
176
     1
290
     1
176
     1
290
     1
176
     1
290
     0
176
     1
290
     0
176
     1
290
     0
176
     1
290
     0
176
     1
290
     0
176
     1
290
     0
176
     1
 90
       50
176
     1
 40
0.0
176
     1
 40
1.0
176
     1
 90
        0
176
     1
 62
    18
420
        0
176
     1
 90
       50
176
     1
 90
        3
176
     1
 62
     5
420
      255
176
     1
290
     0
176
     1
 90
       50
176
     1
 90
       50
176
     1
 90
       50
176
     1
290
     0
176
     1
 90
       50
176
     1
 62
   256
176
     0
 40
1.0
176
     0
 90
        2
176
     1
  1
strokes_ogs.tif
176
     1
290
     0
176
     1
 40
1.0
176
     1
 40
1.0
176
     1
  0
VISUALSTYLE
  5
A5
102
{ACAD_REACTORS
330
99
102
}
330
99
100
AcDbVisualStyle
  2
Brighten
 70
    12
177
     3
291
     1
 70
    58
 90
        2
176
     1
 90
        2
176
     1
 90
        1
176
     1
 90
        0
176
     1
 40
-0.6
176
     1
 40
-30.0
176
     1
 62
     7
420
 16777215
176
     1
 90
        1
176
     1
 90
        4
176
     1
 62
     7
176
     1
 62
   257
176
     1
 90
        1
176
     1
 90
        1
176
     1
 40
1.0
176
     1
 90
        8
176
     1
 62
     7
176
     1
 40
1.0
176
     1
 90
        1
176
     1
 90
        6
176
     1
 90
        2
176
     1
 62
     7
176
     1
 90
        5
176
     1
 90
        0
176
     1
 90
        0
176
     1
290
     0
176
     1
 90
        1
176
     1
 40
50.0
176
     1
 90
        0
176
     1
290
     0
176
     1
290
     1
176
     1
290
     1
176
     1
290
     0
176
     1
290
     0
176
     1
290
     0
176
     1
290
     0
176
     1
290
     0
176
     1
290
     0
176
     1
 90
       50
176
     1
 40
0.0
176
     1
 40
1.0
176
     1
 90
        0
176
     1
 62
    18
420
        0
176
     1
 90
       50
176
     1
 90
        3
176
     1
 62
     5
420
      255
176
     1
290
     0
176
     1
 90
       50
176
     1
 90
       50
176
     1
 90
       50
176
     1
290
     0
176
     1
 90
       50
176
     1
 62
   256
176
     0
 40
1.0
176
     0
 90
        2
176
     1
  1
strokes_ogs.tif
176
     1
290
     0
176
     1
 40
1.0
176
     1
 40
1.0
176
     1
  0
VISUALSTYLE
  5
A9
102
{ACAD_REACTORS
330
99
102
}
330
99
100
AcDbVisualStyle
  2
ColorChange
 70
    16
177
     3
291
     1
 70
    58
 90
        2
176
     1
 90
        2
176
     1
 90
        3
176
     1
 90
        0
176
     1
 40
-0.6
176
     1
 40
-30.0
176
     1
 62
     8
420
  8421504
176
     1
 90
        1
176
     1
 90
        4
176
     1
 62
     7
176
     1
 62
   257
176
     1
 90
        1
176
     1
 90
        1
176
     1
 40
1.0
176
     1
 90
        8
176
     1
 62
     8
420
  8421504
176
     1
 40
1.0
176
     1
 90
        1
176
     1
 90
        6
176
     1
 90
        2
176
     1
 62
     7
176
     1
 90
        5
176
     1
 90
        0
176
     1
 90
        0
176
     1
290
     0
176
     1
 90
        1
176
     1
 40
0.0
176
     1
 90
        0
176
     1
290
     0
176
     1
290
     1
176
     1
290
     1
176
     1
290
     0
176
     1
290
     0
176
     1
290
     0
176
     1
290
     0
176
     1
290
     0
176
     1
290
     0
176
     1
 90
       50
176
     1
 40
0.0
176
     1
 40
1.0
176
     1
 90
        0
176
     1
 62
    18
420
        0
176
     1
 90
       50
176
     1
 90
        3
176
     1
 62
     5
420
      255
176
     1
290
     0
176
     1
 90
       50
176
     1
 90
       50
176
     1
 90
       50
176
     1
290
     0
176
     1
 90
       50
176
     1
 62
   256
176
     0
 40
1.0
176
     0
 90
        2
176
     1
  1
strokes_ogs.tif
176
     1
290
     0
176
     1
 40
1.0
176
     1
 40
1.0
176
     1
  0
VISUALSTYLE
  5
A2
102
{ACAD_REACTORS
330
99
102
}
330
99
100
AcDbVisualStyle
  2
Conceptual
 70
     9
177
     3
291
     0
 70
    58
 90
        3
176
     1
 90
        2
176
     1
 90
        1
176
     1
 90
        0
176
     1
 40
-0.6
176
     1
 40
-30.0
176
     1
 62
     7
420
 16777215
176
     1
 90
        2
176
     1
 90
        2
176
     1
 62
     7
176
     1
 62
   257
176
     1
 90
        1
176
     1
 90
        1
176
     1
 40
40.0
176
     1
 90
        8
176
     1
 62
     7
176
     1
 40
1.0
176
     1
 90
        1
176
     1
 90
        6
176
     1
 90
        2
176
     1
 62
     7
176
     1
 90
        3
176
     1
 90
        0
176
     1
 90
        0
176
     1
290
     0
176
     1
 90
        1
176
     1
 40
0.0
176
     1
 90
        0
176
     1
290
     0
176
     1
290
     1
176
     1
290
     1
176
     1
290
     0
176
     1
290
     0
176
     1
290
     0
176
     1
290
     0
176
     1
290
     0
176
     1
290
     0
176
     1
 90
       50
176
     1
 40
0.0
176
     1
 40
1.0
176
     1
 90
        0
176
     1
 62
    18
420
        0
176
     1
 90
       50
176
     1
 90
        3
176
     1
 62
     5
420
      255
176
     1
290
     0
176
     1
 90
       50
176
     1
 90
       50
176
     1
 90
       50
176
     1
290
     0
176
     1
 90
       50
176
     1
 62
   256
176
     0
 40
1.0
176
     0
 90
        2
176
     1
  1
strokes_ogs.tif
176
     1
290
     0
176
     1
 40
1.0
176
     1
 40
1.0
176
     1
  0
VISUALSTYLE
  5
A4
102
{ACAD_REACTORS
330
99
102
}
330
99
100
AcDbVisualStyle
  2
Dim
 70
    11
177
     3
291
     1
 70
    58
 90
        2
176
     1
 90
        2
176
     1
 90
        1
176
     1
 90
        0
176
     1
 40
-0.6
176
     1
 40
-30.0
176
     1
 62
     7
420
 16777215
176
     1
 90
        1
176
     1
 90
        4
176
     1
 62
     7
176
     1
 62
   257
176
     1
 90
        1
176
     1
 90
        1
176
     1
 40
1.0
176
     1
 90
        8
176
     1
 62
     7
176
     1
 40
1.0
176
     1
 90
        1
176
     1
 90
        6
176
     1
 90
        2
176
     1
 62
     7
176
     1
 90
        5
176
     1
 90
        0
176
     1
 90
        0
176
     1
290
     0
176
     1
 90
        1
176
     1
 40
-50.0
176
     1
 90
        0
176
     1
290
     0
176
     1
290
     1
176
     1
290
     1
176
     1
290
     0
176
     1
290
     0
176
     1
290
     0
176
     1
290
     0
176
     1
290
     0
176
     1
290
     0
176
     1
 90
       50
176
     1
 40
0.0
176
     1
 40
1.0
176
     1
 90
        0
176
     1
 62
    18
420
        0
176
     1
 90
       50
176
     1
 90
        3
176
     1
 62
     5
420
      255
176
     1
290
     0
176
     1
 90
       50
176
     1
 90
       50
176
     1
 90
       50
176
     1
290
     0
176
     1
 90
       50
176
     1
 62
   256
176
     0
 40
1.0
176
     0
 90
        2
176
     1
  1
strokes_ogs.tif
176
     1
290
     0
176
     1
 40
1.0
176
     1
 40
1.0
176
     1
  0
VISUALSTYLE
  5
E7
102
{ACAD_REACTORS
330
99
102
}
330
99
100
AcDbVisualStyle
  2
EdgeColorOff
 70
    22
177
     3
291
     1
 70
    58
 90
        2
176
     0
 90
        2
176
     0
 90
        0
176
     0
 90
        0
176
     0
 40
0.6
176
     0
 40
30.0
176
     0
 62
     7
420
 16777215
176
     0
 90
        1
176
     0
 90
        4
176
     0
 62
     7
176
     0
 62
   257
176
     0
 90
        1
176
     0
 90
        1
176
     0
 40
1.0
176
     0
 90
        8
176
     2
 62
     7
176
     0
 40
1.0
176
     0
 90
        1
176
     0
 90
        6
176
     0
 90
        2
176
     0
 62
     7
176
     0
 90
        5
176
     0
 90
        0
176
     0
 90
        0
176
     0
290
     0
176
     0
 90
        1
176
     0
 40
0.0
176
     0
 90
        0
176
     0
290
     0
176
     0
290
     1
176
     0
290
     1
176
     0
290
     0
176
     0
290
     0
176
     0
290
     0
176
     0
290
     0
176
     0
290
     0
176
     0
290
     0
176
     0
 90
       50
176
     0
 40
0.0
176
     0
 40
1.0
176
     0
 90
        0
176
     0
 62
    18
420
        0
176
     0
 90
       50
176
     0
 90
        3
176
     0
 62
     5
420
      255
176
     0
290
     0
176
     0
 90
       50
176
     0
 90
       50
176
     0
 90
       50
176
     0
290
     0
176
     0
 90
       50
176
     0
 62
   256
176
     0
 40
1.0
176
     0
 90
        2
176
     0
  1
strokes_ogs.tif
176
     0
290
     0
176
     0
 40
1.0
176
     0
 40
1.0
176
     0
  0
VISUALSTYLE
  5
A8
102
{ACAD_REACTORS
330
99
102
}
330
99
100
AcDbVisualStyle
  2
Facepattern
 70
    15
177
     3
291
     1
 70
    58
 90
        2
176
     1
 90
        2
176
     1
 90
        1
176
     1
 90
        0
176
     1
 40
-0.6
176
     1
 40
-30.0
176
     1
 62
     7
420
 16777215
176
     1
 90
        1
176
     1
 90
        4
176
     1
 62
     7
176
     1
 62
   257
176
     1
 90
        1
176
     1
 90
        1
176
     1
 40
1.0
176
     1
 90
        8
176
     1
 62
     7
176
     1
 40
1.0
176
     1
 90
        1
176
     1
 90
        6
176
     1
 90
        2
176
     1
 62
     7
176
     1
 90
        5
176
     1
 90
        0
176
     1
 90
        0
176
     1
290
     0
176
     1
 90
        1
176
     1
 40
0.0
176
     1
 90
        0
176
     1
290
     0
176
     1
290
     1
176
     1
290
     1
176
     1
290
     0
176
     1
290
     0
176
     1
290
     0
176
     1
290
     0
176
     1
290
     0
176
     1
290
     0
176
     1
 90
       50
176
     1
 40
0.0
176
     1
 40
1.0
176
     1
 90
        0
176
     1
 62
    18
420
        0
176
     1
 90
       50
176
     1
 90
        3
176
     1
 62
     5
420
      255
176
     1
290
     0
176
     1
 90
       50
176
     1
 90
       50
176
     1
 90
       50
176
     1
290
     0
176
     1
 90
       50
176
     1
 62
   256
176
     0
 40
1.0
176
     0
 90
        2
176
     1
  1
strokes_ogs.tif
176
     1
290
     0
176
     1
 40
1.0
176
     1
 40
1.0
176
     1
  0
VISUALSTYLE
  5
9A
102
{ACAD_REACTORS
330
99
102
}
330
99
100
AcDbVisualStyle
  2
Flat
 70
     0
177
     3
291
     1
 70
    58
 90
        2
176
     1
 90
        1
176
     1
 90
        1
176
     1
 90
        2
176
     1
 40
-0.6
176
     1
 40
30.0
176
     1
 62
     7
420
 16777215
176
     1
 90
        0
176
     1
 90
        4
176
     1
 62
     7
176
     1
 62
   257
176
     1
 90
        1
176
     1
 90
        1
176
     1
 40
1.0
176
     1
 90
        8
176
     1
 62
     7
176
     1
 40
1.0
176
     1
 90
        1
176
     1
 90
        6
176
     1
 90
        2
176
     1
 62
     7
176
     1
 90
        5
176
     1
 90
        0
176
     1
 90
        0
176
     1
290
     0
176
     1
 90
        1
176
     1
 40
0.0
176
     1
 90
        0
176
     1
290
     0
176
     1
290
     1
176
     1
290
     1
176
     1
290
     0
176
     1
290
     0
176
     1
290
     0
176
     1
290
     0
176
     1
290
     0
176
     1
290
     0
176
     1
 90
       50
176
     1
 40
0.0
176
     1
 40
1.0
176
     1
 90
        0
176
     1
 62
    18
420
        0
176
     1
 90
       50
176
     1
 90
        3
176
     1
 62
     5
420
      255
176
     1
290
     0
176
     1
 90
       50
176
     1
 90
       50
176
     1
 90
       50
176
     1
290
     0
176
     1
 90
       50
176
     1
 62
   256
176
     0
 40
1.0
176
     0
 90
        2
176
     1
  1
strokes_ogs.tif
176
     1
290
     0
176
     1
 40
1.0
176
     1
 40
1.0
176
     1
  0
VISUALSTYLE
  5
9B
102
{ACAD_REACTORS
330
99
102
}
330
99
100
AcDbVisualStyle
  2
FlatWithEdges
 70
     1
177
     3
291
     1
 70
    58
 90
        2
176
     1
 90
        1
176
     1
 90
        1
176
     1
 90
        2
176
     1
 40
-0.6
176
     1
 40
30.0
176
     1
 62
     7
420
 16777215
176
     1
 90
        1
176
     1
 90
        4
176
     1
 62
     7
176
     1
 62
   257
176
     1
 90
        1
176
     1
 90
        1
176
     1
 40
1.0
176
     1
 90
        0
176
     1
 62
   257
176
     1
 40
1.0
176
     1
 90
        1
176
     1
 90
        6
176
     1
 90
        2
176
     1
 62
     7
176
     1
 90
        5
176
     1
 90
        0
176
     1
 90
        0
176
     1
290
     0
176
     1
 90
        1
176
     1
 40
0.0
176
     1
 90
        0
176
     1
290
     0
176
     1
290
     1
176
     1
290
     1
176
     1
290
     0
176
     1
290
     0
176
     1
290
     0
176
     1
290
     0
176
     1
290
     0
176
     1
290
     0
176
     1
 90
       50
176
     1
 40
0.0
176
     1
 40
1.0
176
     1
 90
        0
176
     1
 62
    18
420
        0
176
     1
 90
       50
176
     1
 90
        3
176
     1
 62
     5
420
      255
176
     1
290
     0
176
     1
 90
       50
176
     1
 90
       50
176
     1
 90
       50
176
     1
290
     0
176
     1
 90
       50
176
     1
 62
   256
176
     0
 40
1.0
176
     0
 90
        2
176
     1
  1
strokes_ogs.tif
176
     1
290
     0
176
     1
 40
1.0
176
     1
 40
1.0
176
     1
  0
VISUALSTYLE
  5
9C
102
{ACAD_REACTORS
330
99
102
}
330
99
100
AcDbVisualStyle
  2
Gouraud
 70
     2
177
     3
291
     1
 70
    58
 90
        2
176
     1
 90
        2
176
     1
 90
        1
176
     1
 90
        2
176
     1
 40
-0.6
176
     1
 40
30.0
176
     1
 62
     7
420
 16777215
176
     1
 90
        0
176
     1
 90
        4
176
     1
 62
     7
176
     1
 62
   257
176
     1
 90
        1
176
     1
 90
        1
176
     1
 40
1.0
176
     1
 90
        0
176
     1
 62
     7
176
     1
 40
1.0
176
     1
 90
        1
176
     1
 90
        6
176
     1
 90
        2
176
     1
 62
     7
176
     1
 90
        5
176
     1
 90
        0
176
     1
 90
        0
176
     1
290
     0
176
     1
 90
        1
176
     1
 40
0.0
176
     1
 90
        0
176
     1
290
     0
176
     1
290
     1
176
     1
290
     1
176
     1
290
     0
176
     1
290
     0
176
     1
290
     0
176
     1
290
     0
176
     1
290
     0
176
     1
290
     0
176
     1
 90
       50
176
     1
 40
0.0
176
     1
 40
1.0
176
     1
 90
        0
176
     1
 62
    18
420
        0
176
     1
 90
       50
176
     1
 90
        3
176
     1
 62
     5
420
      255
176
     1
290
     0
176
     1
 90
       50
176
     1
 90
       50
176
     1
 90
       50
176
     1
290
     0
176
     1
 90
       50
176
     1
 62
   256
176
     0
 40
1.0
176
     0
 90
        2
176
     1
  1
strokes_ogs.tif
176
     1
290
     0
176
     1
 40
1.0
176
     1
 40
1.0
176
     1
  0
VISUALSTYLE
  5
9D
102
{ACAD_REACTORS
330
99
102
}
330
99
100
AcDbVisualStyle
  2
GouraudWithEdges
 70
     3
177
     3
291
     1
 70
    58
 90
        2
176
     1
 90
        2
176
     1
 90
        1
176
     1
 90
        2
176
     1
 40
-0.6
176
     1
 40
30.0
176
     1
 62
     7
420
 16777215
176
     1
 90
        1
176
     1
 90
        4
176
     1
 62
     7
176
     1
 62
   257
176
     1
 90
        1
176
     1
 90
        1
176
     1
 40
1.0
176
     1
 90
        0
176
     1
 62
   257
176
     1
 40
1.0
176
     1
 90
        1
176
     1
 90
        6
176
     1
 90
        2
176
     1
 62
     7
176
     1
 90
        5
176
     1
 90
        0
176
     1
 90
        0
176
     1
290
     0
176
     1
 90
        1
176
     1
 40
0.0
176
     1
 90
        0
176
     1
290
     0
176
     1
290
     1
176
     1
290
     1
176
     1
290
     0
176
     1
290
     0
176
     1
290
     0
176
     1
290
     0
176
     1
290
     0
176
     1
290
     0
176
     1
 90
       50
176
     1
 40
0.0
176
     1
 40
1.0
176
     1
 90
        0
176
     1
 62
    18
420
        0
176
     1
 90
       50
176
     1
 90
        3
176
     1
 62
     5
420
      255
176
     1
290
     0
176
     1
 90
       50
176
     1
 90
       50
176
     1
 90
       50
176
     1
290
     0
176
     1
 90
       50
176
     1
 62
   256
176
     0
 40
1.0
176
     0
 90
        2
176
     1
  1
strokes_ogs.tif
176
     1
290
     0
176
     1
 40
1.0
176
     1
 40
1.0
176
     1
  0
VISUALSTYLE
  5
E4
102
{ACAD_REACTORS
330
99
102
}
330
99
100
AcDbVisualStyle
  2
Hidden
 70
     6
177
     3
291
     0
 70
    58
 90
        1
176
     1
 90
        2
176
     1
 90
        2
176
     1
 90
        0
176
     1
 40
0.6
176
     1
 40
30.0
176
     1
 62
     7
420
 16777215
176
     1
 90
        2
176
     1
 90
        2
176
     1
 62
     7
176
     1
 62
   257
176
     1
 90
        2
176
     1
 90
        1
176
     1
 40
40.0
176
     1
 90
        0
176
     1
 62
   257
176
     1
 40
1.0
176
     1
 90
        1
176
     1
 90
        6
176
     1
 90
        2
176
     1
 62
     7
176
     1
 90
        3
176
     1
 90
        0
176
     1
 90
        0
176
     1
290
     0
176
     1
 90
        1
176
     1
 40
0.0
176
     1
 90
        0
176
     1
290
     0
176
     1
290
     1
176
     1
290
     1
176
     1
290
     0
176
     1
290
     0
176
     1
290
     0
176
     1
290
     0
176
     1
290
     0
176
     1
290
     0
176
     1
 90
       50
176
     1
 40
0.0
176
     1
 40
1.0
176
     1
 90
        0
176
     1
 62
    18
420
        0
176
     1
 90
       50
176
     1
 90
        3
176
     1
 62
     5
420
      255
176
     1
290
     0
176
     1
 90
       50
176
     1
 90
       50
176
     1
 90
       50
176
     1
290
     0
176
     1
 90
       50
176
     1
 62
   256
176
     0
 40
1.0
176
     0
 90
        2
176
     1
  1
strokes_ogs.tif
176
     1
290
     0
176
     1
 40
1.0
176
     1
 40
1.0
176
     1
  0
VISUALSTYLE
  5
E5
102
{ACAD_REACTORS
330
99
102
}
330
99
100
AcDbVisualStyle
  2
JitterOff
 70
    20
177
     3
291
     1
 70
    58
 90
        2
176
     0
 90
        2
176
     0
 90
        0
176
     0
 90
        0
176
     0
 40
0.6
176
     0
 40
30.0
176
     0
 62
     7
420
 16777215
176
     0
 90
        1
176
     0
 90
        4
176
     0
 62
     7
176
     0
 62
   257
176
     0
 90
        1
176
     0
 90
        1
176
     0
 40
1.0
176
     0
 90
       10
176
     2
 62
     7
176
     0
 40
1.0
176
     0
 90
        1
176
     0
 90
        6
176
     0
 90
        2
176
     0
 62
     7
176
     0
 90
        5
176
     0
 90
        0
176
     0
 90
        0
176
     0
290
     0
176
     0
 90
        1
176
     0
 40
0.0
176
     0
 90
        0
176
     0
290
     0
176
     0
290
     1
176
     0
290
     1
176
     0
290
     0
176
     0
290
     0
176
     0
290
     0
176
     0
290
     0
176
     0
290
     0
176
     0
290
     0
176
     0
 90
       50
176
     0
 40
0.0
176
     0
 40
1.0
176
     0
 90
        0
176
     0
 62
    18
420
        0
176
     0
 90
       50
176
     0
 90
        3
176
     0
 62
     5
420
      255
176
     0
290
     0
176
     0
 90
       50
176
     0
 90
       50
176
     0
 90
       50
176
     0
290
     0
176
     0
 90
       50
176
     0
 62
   256
176
     0
 40
1.0
176
     0
 90
        2
176
     0
  1
strokes_ogs.tif
176
     0
290
     0
176
     0
 40
1.0
176
     0
 40
1.0
176
     0
  0
VISUALSTYLE
  5
A7
102
{ACAD_REACTORS
330
99
102
}
330
99
100
AcDbVisualStyle
  2
Linepattern
 70
    14
177
     3
291
     1
 70
    58
 90
        2
176
     1
 90
        2
176
     1
 90
        1
176
     1
 90
        0
176
     1
 40
-0.6
176
     1
 40
-30.0
176
     1
 62
     7
420
 16777215
176
     1
 90
        1
176
     1
 90
        4
176
     1
 62
     7
176
     1
 62
   257
176
     1
 90
        7
176
     1
 90
        7
176
     1
 40
1.0
176
     1
 90
        8
176
     1
 62
     7
176
     1
 40
1.0
176
     1
 90
        1
176
     1
 90
        6
176
     1
 90
        2
176
     1
 62
     7
176
     1
 90
        5
176
     1
 90
        0
176
     1
 90
        0
176
     1
290
     0
176
     1
 90
        1
176
     1
 40
0.0
176
     1
 90
        0
176
     1
290
     0
176
     1
290
     1
176
     1
290
     1
176
     1
290
     0
176
     1
290
     0
176
     1
290
     0
176
     1
290
     0
176
     1
290
     0
176
     1
290
     0
176
     1
 90
       50
176
     1
 40
0.0
176
     1
 40
1.0
176
     1
 90
        0
176
     1
 62
    18
420
        0
176
     1
 90
       50
176
     1
 90
        3
176
     1
 62
     5
420
      255
176
     1
290
     0
176
     1
 90
       50
176
     1
 90
       50
176
     1
 90
       50
176
     1
290
     0
176
     1
 90
       50
176
     1
 62
   256
176
     0
 40
1.0
176
     0
 90
        2
176
     1
  1
strokes_ogs.tif
176
     1
290
     0
176
     1
 40
1.0
176
     1
 40
1.0
176
     1
  0
VISUALSTYLE
  5
E6
102
{ACAD_REACTORS
330
99
102
}
330
99
100
AcDbVisualStyle
  2
OverhangOff
 70
    21
177
     3
291
     1
 70
    58
 90
        2
176
     0
 90
        2
176
     0
 90
        0
176
     0
 90
        0
176
     0
 40
0.6
176
     0
 40
30.0
176
     0
 62
     7
420
 16777215
176
     0
 90
        1
176
     0
 90
        4
176
     0
 62
     7
176
     0
 62
   257
176
     0
 90
        1
176
     0
 90
        1
176
     0
 40
1.0
176
     0
 90
        9
176
     2
 62
     7
176
     0
 40
1.0
176
     0
 90
        1
176
     0
 90
        6
176
     0
 90
        2
176
     0
 62
     7
176
     0
 90
        5
176
     0
 90
        0
176
     0
 90
        0
176
     0
290
     0
176
     0
 90
        1
176
     0
 40
0.0
176
     0
 90
        0
176
     0
290
     0
176
     0
290
     1
176
     0
290
     1
176
     0
290
     0
176
     0
290
     0
176
     0
290
     0
176
     0
290
     0
176
     0
290
     0
176
     0
290
     0
176
     0
 90
       50
176
     0
 40
0.0
176
     0
 40
1.0
176
     0
 90
        0
176
     0
 62
    18
420
        0
176
     0
 90
       50
176
     0
 90
        3
176
     0
 62
     5
420
      255
176
     0
290
     0
176
     0
 90
       50
176
     0
 90
       50
176
     0
 90
       50
176
     0
290
     0
176
     0
 90
       50
176
     0
 62
   256
176
     0
 40
1.0
176
     0
 90
        2
176
     0
  1
strokes_ogs.tif
176
     0
290
     0
176
     0
 40
1.0
176
     0
 40
1.0
176
     0
  0
VISUALSTYLE
  5
A3
102
{ACAD_REACTORS
330
99
102
}
330
99
100
AcDbVisualStyle
  2
Realistic
 70
     8
177
     3
291
     0
 70
    58
 90
        2
176
     1
 90
        2
176
     1
 90
        1
176
     1
 90
        0
176
     1
 40
-0.6
176
     1
 40
-30.0
176
     1
 62
     7
420
 16777215
176
     1
 90
        1
176
     1
 90
        0
176
     1
 62
     7
176
     1
 62
   257
176
     1
 90
        1
176
     1
 90
        1
176
     1
 40
1.0
176
     1
 90
        8
176
     1
 62
     8
420
  7895160
176
     1
 40
1.0
176
     1
 90
        1
176
     1
 90
        6
176
     1
 90
        2
176
     1
 62
     7
176
     1
 90
        5
176
     1
 90
        0
176
     1
 90
        0
176
     1
290
     0
176
     1
 90
       13
176
     1
 40
0.0
176
     1
 90
        0
176
     1
290
     0
176
     1
290
     1
176
     1
290
     1
176
     1
290
     0
176
     1
290
     0
176
     1
290
     0
176
     1
290
     0
176
     1
290
     0
176
     1
290
     0
176
     1
 90
       50
176
     1
 40
0.0
176
     1
 40
1.0
176
     1
 90
        0
176
     1
 62
    18
420
        0
176
     1
 90
       50
176
     1
 90
        3
176
     1
 62
     5
420
      255
176
     1
290
     0
176
     1
 90
       50
176
     1
 90
       50
176
     1
 90
       50
176
     1
290
     0
176
     1
 90
       50
176
     1
 62
   256
176
     0
 40
1.0
176
     0
 90
        2
176
     1
  1
strokes_ogs.tif
176
     1
290
     0
176
     1
 40
1.0
176
     1
 40
1.0
176
     1
  0
VISUALSTYLE
  5
EC
102
{ACAD_REACTORS
330
99
102
}
330
99
100
AcDbVisualStyle
  2
Shaded
 70
    27
177
     3
291
     0
 70
    58
 90
        2
176
     1
 90
        2
176
     1
 90
        1
176
     1
 90
        2
176
     1
 40
0.6
176
     1
 40
30.0
176
     1
 62
     7
420
 16777215
176
     1
 90
        0
176
     1
 90
        4
176
     1
 62
     7
176
     1
 62
   257
176
     1
 90
        1
176
     1
 90
        1
176
     1
 40
1.0
176
     1
 90
        8
176
     1
 62
   257
176
     1
 40
1.0
176
     1
 90
        1
176
     1
 90
        6
176
     1
 90
        2
176
     1
 62
     8
420
  7895160
176
     1
 90
        3
176
     1
 90
        0
176
     1
 90
        0
176
     1
290
     0
176
     1
 90
        5
176
     1
 40
0.0
176
     1
 90
        0
176
     1
290
     0
176
     1
290
     1
176
     1
290
     1
176
     1
290
     0
176
     1
290
     0
176
     1
290
     0
176
     1
290
     0
176
     1
290
     0
176
     1
290
     0
176
     1
 90
       50
176
     1
 40
0.0
176
     1
 40
1.0
176
     1
 90
        0
176
     1
 62
    18
420
        0
176
     1
 90
       50
176
     1
 90
        3
176
     1
 62
     5
420
      255
176
     1
290
     0
176
     1
 90
       50
176
     1
 90
       50
176
     1
 90
       50
176
     1
290
     0
176
     1
 90
       50
176
     1
 62
   256
176
     0
 40
1.0
176
     0
 90
        2
176
     1
  1
strokes_ogs.tif
176
     1
290
     0
176
     1
 40
1.0
176
     1
 40
1.0
176
     1
  0
VISUALSTYLE
  5
EB
102
{ACAD_REACTORS
330
99
102
}
330
99
100
AcDbVisualStyle
  2
Shaded with edges
 70
    26
177
     3
291
     0
 70
    58
 90
        2
176
     1
 90
        2
176
     1
 90
        1
176
     1
 90
        2
176
     1
 40
0.6
176
     1
 40
30.0
176
     1
 62
     7
420
 16777215
176
     1
 90
        1
176
     1
 90
       10
176
     1
 62
     7
176
     1
 62
   257
176
     1
 90
        2
176
     1
 90
        1
176
     1
 40
1.0
176
     1
 90
        8
176
     1
 62
   257
176
     1
 40
1.0
176
     1
 90
        1
176
     1
 90
        6
176
     1
 90
        2
176
     1
 62
     7
176
     1
 90
        3
176
     1
 90
        0
176
     1
 90
        0
176
     1
290
     0
176
     1
 90
        5
176
     1
 40
0.0
176
     1
 90
        0
176
     1
290
     0
176
     1
290
     1
176
     1
290
     1
176
     1
290
     0
176
     1
290
     0
176
     1
290
     0
176
     1
290
     0
176
     1
290
     0
176
     1
290
     0
176
     1
 90
       50
176
     1
 40
0.0
176
     1
 40
1.0
176
     1
 90
        0
176
     1
 62
    18
420
        0
176
     1
 90
       50
176
     1
 90
        3
176
     1
 62
     5
420
      255
176
     1
290
     0
176
     1
 90
       50
176
     1
 90
       50
176
     1
 90
       50
176
     1
290
     0
176
     1
 90
       50
176
     1
 62
   256
176
     0
 40
1.0
176
     0
 90
        2
176
     1
  1
strokes_ogs.tif
176
     1
290
     0
176
     1
 40
1.0
176
     1
 40
1.0
176
     1
  0
VISUALSTYLE
  5
E8
102
{ACAD_REACTORS
330
99
102
}
330
99
100
AcDbVisualStyle
  2
Shades of Gray
 70
    23
177
     3
291
     0
 70
    58
 90
        2
176
     1
 90
        2
176
     1
 90
        3
176
     1
 90
        0
176
     1
 40
0.6
176
     1
 40
30.0
176
     1
 62
     7
420
 16777215
176
     1
 90
        2
176
     1
 90
        2
176
     1
 62
     7
176
     1
 62
     7
176
     1
 90
        1
176
     1
 90
        1
176
     1
 40
40.0
176
     1
 90
        8
176
     1
 62
     7
176
     1
 40
1.0
176
     1
 90
        1
176
     1
 90
        6
176
     1
 90
        2
176
     1
 62
     7
176
     1
 90
        3
176
     1
 90
        0
176
     1
 90
        0
176
     1
290
     0
176
     1
 90
        1
176
     1
 40
0.0
176
     1
 90
        0
176
     1
290
     0
176
     1
290
     1
176
     1
290
     1
176
     1
290
     0
176
     1
290
     0
176
     1
290
     0
176
     1
290
     0
176
     1
290
     0
176
     1
290
     0
176
     1
 90
       50
176
     1
 40
0.0
176
     1
 40
1.0
176
     1
 90
        0
176
     1
 62
    18
420
        0
176
     1
 90
       50
176
     1
 90
        3
176
     1
 62
     5
420
      255
176
     1
290
     0
176
     1
 90
       50
176
     1
 90
       50
176
     1
 90
       50
176
     1
290
     0
176
     1
 90
       50
176
     1
 62
   256
176
     0
 40
1.0
176
     0
 90
        2
176
     1
  1
strokes_ogs.tif
176
     1
290
     0
176
     1
 40
1.0
176
     1
 40
1.0
176
     1
  0
VISUALSTYLE
  5
E9
102
{ACAD_REACTORS
330
99
102
}
330
99
100
AcDbVisualStyle
  2
Sketchy
 70
    24
177
     3
291
     0
 70
    58
 90
        1
176
     1
 90
        2
176
     1
 90
        2
176
     1
 90
        0
176
     1
 40
0.6
176
     1
 40
30.0
176
     1
 62
     7
420
 16777215
176
     1
 90
        2
176
     1
 90
        2
176
     1
 62
     7
176
     1
 62
     7
176
     1
 90
        1
176
     1
 90
        1
176
     1
 40
40.0
176
     1
 90
       11
176
     1
 62
     7
176
     1
 40
1.0
176
     1
 90
        1
176
     1
 90
        6
176
     1
 90
        2
176
     1
 62
     7
176
     1
 90
        6
176
     1
 90
        0
176
     1
 90
        0
176
     1
290
     0
176
     1
 90
        1
176
     1
 40
0.0
176
     1
 90
        0
176
     1
290
     0
176
     1
290
     1
176
     1
290
     1
176
     1
290
     0
176
     1
290
     0
176
     1
290
     0
176
     1
290
     0
176
     1
290
     0
176
     1
290
     0
176
     1
 90
       50
176
     1
 40
0.0
176
     1
 40
1.0
176
     1
 90
        0
176
     1
 62
    18
420
        0
176
     1
 90
       50
176
     1
 90
        3
176
     1
 62
     5
420
      255
176
     1
290
     0
176
     1
 90
       50
176
     1
 90
       50
176
     1
 90
       50
176
     1
290
     0
176
     1
 90
       50
176
     1
 62
   256
176
     0
 40
1.0
176
     0
 90
        2
176
     1
  1
strokes_ogs.tif
176
     1
290
     0
176
     1
 40
1.0
176
     1
 40
1.0
176
     1
  0
VISUALSTYLE
  5
A6
102
{ACAD_REACTORS
330
99
102
}
330
99
100
AcDbVisualStyle
  2
Thicken
 70
    13
177
     3
291
     1
 70
    58
 90
        2
176
     1
 90
        2
176
     1
 90
        1
176
     1
 90
        0
176
     1
 40
-0.6
176
     1
 40
-30.0
176
     1
 62
     7
420
 16777215
176
     1
 90
        1
176
     1
 90
        4
176
     1
 62
     7
176
     1
 62
   257
176
     1
 90
        1
176
     1
 90
        1
176
     1
 40
1.0
176
     1
 90
       12
176
     1
 62
     7
176
     1
 40
1.0
176
     1
 90
        1
176
     1
 90
        6
176
     1
 90
        2
176
     1
 62
     7
176
     1
 90
        5
176
     1
 90
        0
176
     1
 90
        0
176
     1
290
     0
176
     1
 90
        1
176
     1
 40
0.0
176
     1
 90
        0
176
     1
290
     0
176
     1
290
     1
176
     1
290
     1
176
     1
290
     0
176
     1
290
     0
176
     1
290
     0
176
     1
290
     0
176
     1
290
     0
176
     1
290
     0
176
     1
 90
       50
176
     1
 40
0.0
176
     1
 40
1.0
176
     1
 90
        0
176
     1
 62
    18
420
        0
176
     1
 90
       50
176
     1
 90
        3
176
     1
 62
     5
420
      255
176
     1
290
     0
176
     1
 90
       50
176
     1
 90
       50
176
     1
 90
       50
176
     1
290
     0
176
     1
 90
       50
176
     1
 62
   256
176
     0
 40
1.0
176
     0
 90
        2
176
     1
  1
strokes_ogs.tif
176
     1
290
     0
176
     1
 40
1.0
176
     1
 40
1.0
176
     1
  0
VISUALSTYLE
  5
E3
102
{ACAD_REACTORS
330
99
102
}
330
99
100
AcDbVisualStyle
  2
Wireframe
 70
     5
177
     3
291
     0
 70
    58
 90
        0
176
     1
 90
        2
176
     1
 90
        0
176
     1
 90
        0
176
     1
 40
0.6
176
     1
 40
30.0
176
     1
 62
     7
420
 16777215
176
     1
 90
        1
176
     1
 90
        4
176
     1
 62
     7
176
     1
 62
   257
176
     1
 90
        1
176
     1
 90
        1
176
     1
 40
1.0
176
     1
 90
        0
176
     1
 62
   257
176
     1
 40
1.0
176
     1
 90
        1
176
     1
 90
        6
176
     1
 90
        2
176
     1
 62
     7
176
     1
 90
        3
176
     1
 90
        0
176
     1
 90
        0
176
     1
290
     0
176
     1
 90
        1
176
     1
 40
0.0
176
     1
 90
        0
176
     1
290
     0
176
     1
290
     1
176
     1
290
     1
176
     1
290
     0
176
     1
290
     0
176
     1
290
     0
176
     1
290
     0
176
     1
290
     0
176
     1
290
     0
176
     1
 90
       50
176
     1
 40
0.0
176
     1
 40
1.0
176
     1
 90
        0
176
     1
 62
    18
420
        0
176
     1
 90
       50
176
     1
 90
        3
176
     1
 62
     5
420
      255
176
     1
290
     0
176
     1
 90
       50
176
     1
 90
       50
176
     1
 90
       50
176
     1
290
     0
176
     1
 90
       50
176
     1
 62
   256
176
     0
 40
1.0
176
     0
 90
        2
176
     1
  1
strokes_ogs.tif
176
     1
290
     0
176
     1
 40
1.0
176
     1
 40
1.0
176
     1
  0
VISUALSTYLE
  5
EA
102
{ACAD_REACTORS
330
99
102
}
330
99
100
AcDbVisualStyle
  2
X-Ray
 70
    25
177
     3
291
     0
 70
    58
 90
        2
176
     1
 90
        2
176
     1
 90
        1
176
     1
 90
        1
176
     1
 40
0.5
176
     1
 40
30.0
176
     1
 62
     7
420
 16777215
176
     1
 90
        1
176
     1
 90
        0
176
     1
 62
     7
176
     1
 62
   257
176
     1
 90
        1
176
     1
 90
        1
176
     1
 40
1.0
176
     1
 90
        8
176
     1
 62
     7
176
     1
 40
1.0
176
     1
 90
        1
176
     1
 90
        6
176
     1
 90
        2
176
     1
 62
     7
176
     1
 90
        3
176
     1
 90
        0
176
     1
 90
        0
176
     1
290
     0
176
     1
 90
       13
176
     1
 40
0.0
176
     1
 90
        0
176
     1
290
     0
176
     1
290
     1
176
     1
290
     1
176
     1
290
     0
176
     1
290
     0
176
     1
290
     0
176
     1
290
     0
176
     1
290
     0
176
     1
290
     0
176
     1
 90
       50
176
     1
 40
0.0
176
     1
 40
1.0
176
     1
 90
        0
176
     1
 62
    18
420
        0
176
     1
 90
       50
176
     1
 90
        3
176
     1
 62
     5
420
      255
176
     1
290
     0
176
     1
 90
       50
176
     1
 90
       50
176
     1
 90
       50
176
     1
290
     0
176
     1
 90
       50
176
     1
 62
   256
176
     0
 40
1.0
176
     0
 90
        2
176
     1
  1
strokes_ogs.tif
176
     1
290
     0
176
     1
 40
1.0
176
     1
 40
1.0
176
     1
  0
DICTIONARYVAR
  5
D8
102
{ACAD_REACTORS
330
66
102
}
330
66
100
DictionaryVariables
280
     0
  1
1:1
  0
DICTIONARYVAR
  5
89
102
{ACAD_REACTORS
330
66
102
}
330
66
100
DictionaryVariables
280
     0
  1
Standard
  0
DICTIONARYVAR
  5
67
102
{ACAD_REACTORS
330
66
102
}
330
66
100
DictionaryVariables
280
     0
  1
2
  0
DICTIONARYVAR
  5
6B
102
{ACAD_REACTORS
330
66
102
}
330
66
100
DictionaryVariables
280
     0
  1
1
  0
DICTIONARYVAR
  5
DF
102
{ACAD_REACTORS
330
66
102
}
330
66
100
DictionaryVariables
280
     0
  1
0
  0
DICTIONARYVAR
  5
E0
102
{ACAD_REACTORS
330
66
102
}
330
66
100
DictionaryVariables
280
     0
  1
0
  0
DICTIONARY
  5
460
330
87
100
AcDbDictionary
280
     1
281
     1
  3
ACAD_ROUNDTRIP_2008_TABLESTYLE_CELLSTYLEMAP
360
461
  0
CELLSTYLEMAP
  5
461
102
{ACAD_REACTORS
330
460
102
}
330
460
100
AcDbCellStyleMap
 90
        3
300
CELLSTYLE
  1
TABLEFORMAT_BEGIN
 90
        5
170
     1
 91
        0
 92
    32768
 62
   257
 93
        1
300
CONTENTFORMAT
  1
CONTENTFORMAT_BEGIN
 90
        0
 91
        0
 92
      512
 93
        0
300

 40
0.0
140
1.0
 94
        5
 62
     0
340
11
144
0.25
309
CONTENTFORMAT_END
171
     0
 94
        6
 95
        1
302
GRIDFORMAT
  1
GRIDFORMAT_BEGIN
 90
        0
 91
        1
 62
     0
 92
       -2
340
0
 93
        0
 40
0.045
309
GRIDFORMAT_END
 95
        2
302
GRIDFORMAT
  1
GRIDFORMAT_BEGIN
 90
        0
 91
        1
 62
     0
 92
       -2
340
0
 93
        0
 40
0.045
309
GRIDFORMAT_END
 95
        4
302
GRIDFORMAT
  1
GRIDFORMAT_BEGIN
 90
        0
 91
        1
 62
     0
 92
       -2
340
0
 93
        0
 40
0.045
309
GRIDFORMAT_END
 95
        8
302
GRIDFORMAT
  1
GRIDFORMAT_BEGIN
 90
        0
 91
        1
 62
     0
 92
       -2
340
0
 93
        0
 40
0.045
309
GRIDFORMAT_END
 95
       16
302
GRIDFORMAT
  1
GRIDFORMAT_BEGIN
 90
        0
 91
        1
 62
     0
 92
       -2
340
0
 93
        0
 40
0.045
309
GRIDFORMAT_END
 95
       32
302
GRIDFORMAT
  1
GRIDFORMAT_BEGIN
 90
        0
 91
        1
 62
     0
 92
       -2
340
0
 93
        0
 40
0.045
309
GRIDFORMAT_END
309
TABLEFORMAT_END
  1
CELLSTYLE_BEGIN
 90
        1
 91
        1
300
_TITLE
309
CELLSTYLE_END
300
CELLSTYLE
  1
TABLEFORMAT_BEGIN
 90
        5
170
     1
 91
        0
 92
        0
 62
   257
 93
        1
300
CONTENTFORMAT
  1
CONTENTFORMAT_BEGIN
 90
        0
 91
        0
 92
      512
 93
        0
300

 40
0.0
140
1.0
 94
        5
 62
     0
340
11
144
0.18
309
CONTENTFORMAT_END
171
     0
 94
        6
 95
        1
302
GRIDFORMAT
  1
GRIDFORMAT_BEGIN
 90
        0
 91
        1
 62
     0
 92
       -2
340
0
 93
        0
 40
0.045
309
GRIDFORMAT_END
 95
        2
302
GRIDFORMAT
  1
GRIDFORMAT_BEGIN
 90
        0
 91
        1
 62
     0
 92
       -2
340
0
 93
        0
 40
0.045
309
GRIDFORMAT_END
 95
        4
302
GRIDFORMAT
  1
GRIDFORMAT_BEGIN
 90
        0
 91
        1
 62
     0
 92
       -2
340
0
 93
        0
 40
0.045
309
GRIDFORMAT_END
 95
        8
302
GRIDFORMAT
  1
GRIDFORMAT_BEGIN
 90
        0
 91
        1
 62
     0
 92
       -2
340
0
 93
        0
 40
0.045
309
GRIDFORMAT_END
 95
       16
302
GRIDFORMAT
  1
GRIDFORMAT_BEGIN
 90
        0
 91
        1
 62
     0
 92
       -2
340
0
 93
        0
 40
0.045
309
GRIDFORMAT_END
 95
       32
302
GRIDFORMAT
  1
GRIDFORMAT_BEGIN
 90
        0
 91
        1
 62
     0
 92
       -2
340
0
 93
        0
 40
0.045
309
GRIDFORMAT_END
309
TABLEFORMAT_END
  1
CELLSTYLE_BEGIN
 90
        2
 91
        1
300
_HEADER
309
CELLSTYLE_END
300
CELLSTYLE
  1
TABLEFORMAT_BEGIN
 90
        5
170
     1
 91
        0
 92
        0
 62
   257
 93
        1
300
CONTENTFORMAT
  1
CONTENTFORMAT_BEGIN
 90
        0
 91
        0
 92
      512
 93
        0
300

 40
0.0
140
1.0
 94
        2
 62
     0
340
11
144
0.18
309
CONTENTFORMAT_END
171
     0
 94
        6
 95
        1
302
GRIDFORMAT
  1
GRIDFORMAT_BEGIN
 90
        0
 91
        1
 62
     0
 92
       -2
340
0
 93
        0
 40
0.045
309
GRIDFORMAT_END
 95
        2
302
GRIDFORMAT
  1
GRIDFORMAT_BEGIN
 90
        0
 91
        1
 62
     0
 92
       -2
340
0
 93
        0
 40
0.045
309
GRIDFORMAT_END
 95
        4
302
GRIDFORMAT
  1
GRIDFORMAT_BEGIN
 90
        0
 91
        1
 62
     0
 92
       -2
340
0
 93
        0
 40
0.045
309
GRIDFORMAT_END
 95
        8
302
GRIDFORMAT
  1
GRIDFORMAT_BEGIN
 90
        0
 91
        1
 62
     0
 92
       -2
340
0
 93
        0
 40
0.045
309
GRIDFORMAT_END
 95
       16
302
GRIDFORMAT
  1
GRIDFORMAT_BEGIN
 90
        0
 91
        1
 62
     0
 92
       -2
340
0
 93
        0
 40
0.045
309
GRIDFORMAT_END
 95
       32
302
GRIDFORMAT
  1
GRIDFORMAT_BEGIN
 90
        0
 91
        1
 62
     0
 92
       -2
340
0
 93
        0
 40
0.045
309
GRIDFORMAT_END
309
TABLEFORMAT_END
  1
CELLSTYLE_BEGIN
 90
        3
 91
        2
300
_DATA
309
CELLSTYLE_END
  0
ENDSEC
  0
EOF
