  0
SECTION
  2
HEADER
  9
$ACADVER
  1
AC1027
  9
$ACADMAINTVER
 70
     8
  9
$DWGCODEPAGE
  3
ANSI_932
  9
$REQUIREDVERSIONS
160
                 0
  9
$LASTSAVEDBY
  1
Yasu
  9
$INSBASE
 10
0.0
 20
0.0
 30
0.0
  9
$EXTMIN
 10
7.923532436146729
 20
24.19653943547603
 30
0.0
  9
$EXTMAX
 10
284.2070081223936
 20
232.1423193560396
 30
0.0
  9
$LIMMIN
 10
0.0
 20
0.0
  9
$LIMMAX
 10
12.0
 20
9.0
  9
$ORTHOMODE
 70
     0
  9
$REGENMODE
 70
     1
  9
$FILLMODE
 70
     1
  9
$QTEXTMODE
 70
     0
  9
$MIRRTEXT
 70
     0
  9
$LTSCALE
 40
1.0
  9
$ATTMODE
 70
     1
  9
$TEXTSIZE
 40
0.2
  9
$TRACEWID
 40
0.05
  9
$TEXTSTYLE
  7
Standard
  9
$CLAYER
  8
0
  9
$CELTYPE
  6
ByLayer
  9
$CECOLOR
 62
   256
  9
$CELTSCALE
 40
1.0
  9
$DISPSILH
 70
     0
  9
$DIMSCALE
 40
1.0
  9
$DIMASZ
 40
0.18
  9
$DIMEXO
 40
0.0625
  9
$DIMDLI
 40
0.38
  9
$DIMRND
 40
0.0
  9
$DIMDLE
 40
0.0
  9
$DIMEXE
 40
0.18
  9
$DIMTP
 40
0.0
  9
$DIMTM
 40
0.0
  9
$DIMTXT
 40
0.18
  9
$DIMCEN
 40
0.09
  9
$DIMTSZ
 40
0.0
  9
$DIMTOL
 70
     0
  9
$DIMLIM
 70
     0
  9
$DIMTIH
 70
     1
  9
$DIMTOH
 70
     1
  9
$DIMSE1
 70
     0
  9
$DIMSE2
 70
     0
  9
$DIMTAD
 70
     0
  9
$DIMZIN
 70
     0
  9
$DIMBLK
  1

  9
$DIMASO
 70
     1
  9
$DIMSHO
 70
     1
  9
$DIMPOST
  1

  9
$DIMAPOST
  1

  9
$DIMALT
 70
     0
  9
$DIMALTD
 70
     2
  9
$DIMALTF
 40
25.4
  9
$DIMLFAC
 40
1.0
  9
$DIMTOFL
 70
     0
  9
$DIMTVP
 40
0.0
  9
$DIMTIX
 70
     0
  9
$DIMSOXD
 70
     0
  9
$DIMSAH
 70
     0
  9
$DIMBLK1
  1

  9
$DIMBLK2
  1

  9
$DIMSTYLE
  2
Standard
  9
$DIMCLRD
 70
     0
  9
$DIMCLRE
 70
     0
  9
$DIMCLRT
 70
     0
  9
$DIMTFAC
 40
1.0
  9
$DIMGAP
 40
0.09
  9
$DIMJUST
 70
     0
  9
$DIMSD1
 70
     0
  9
$DIMSD2
 70
     0
  9
$DIMTOLJ
 70
     1
  9
$DIMTZIN
 70
     0
  9
$DIMALTZ
 70
     0
  9
$DIMALTTZ
 70
     0
  9
$DIMUPT
 70
     0
  9
$DIMDEC
 70
     4
  9
$DIMTDEC
 70
     4
  9
$DIMALTU
 70
     2
  9
$DIMALTTD
 70
     2
  9
$DIMTXSTY
  7
Standard
  9
$DIMAUNIT
 70
     0
  9
$DIMADEC
 70
     0
  9
$DIMALTRND
 40
0.0
  9
$DIMAZIN
 70
     0
  9
$DIMDSEP
 70
    46
  9
$DIMATFIT
 70
     3
  9
$DIMFRAC
 70
     0
  9
$DIMLDRBLK
  1

  9
$DIMLUNIT
 70
     2
  9
$DIMLWD
 70
    -2
  9
$DIMLWE
 70
    -2
  9
$DIMTMOVE
 70
     0
  9
$DIMFXL
 40
1.0
  9
$DIMFXLON
 70
     0
  9
$DIMJOGANG
 40
0.7853981633974483
  9
$DIMTFILL
 70
     0
  9
$DIMTFILLCLR
 70
     0
  9
$DIMARCSYM
 70
     0
  9
$DIMLTYPE
  6

  9
$DIMLTEX1
  6

  9
$DIMLTEX2
  6

  9
$DIMTXTDIRECTION
 70
     0
  9
$LUNITS
 70
     2
  9
$LUPREC
 70
     4
  9
$SKETCHINC
 40
0.1
  9
$FILLETRAD
 40
0.0
  9
$AUNITS
 70
     0
  9
$AUPREC
 70
     0
  9
$MENU
  1
.
  9
$ELEVATION
 40
0.0
  9
$PELEVATION
 40
0.0
  9
$THICKNESS
 40
0.0
  9
$LIMCHECK
 70
     0
  9
$CHAMFERA
 40
0.0
  9
$CHAMFERB
 40
0.0
  9
$CHAMFERC
 40
0.0
  9
$CHAMFERD
 40
0.0
  9
$SKPOLY
 70
     0
  9
$TDCREATE
 40
2452643.438384271
  9
$TDUCREATE
 40
2452643.063384271
  9
$TDUPDATE
 40
2456739.712604525
  9
$TDUUPDATE
 40
2456739.337604525
  9
$TDINDWG
 40
0.0015337616
  9
$TDUSRTIMER
 40
2456739.337266678
  9
$USRTIMER
 70
     1
  9
$ANGBASE
 50
0.0
  9
$ANGDIR
 70
     0
  9
$PDMODE
 70
     0
  9
$PDSIZE
 40
0.0
  9
$PLINEWID
 40
0.0
  9
$SPLFRAME
 70
     0
  9
$SPLINETYPE
 70
     6
  9
$SPLINESEGS
 70
     8
  9
$HANDSEED
  5
403
  9
$SURFTAB1
 70
     6
  9
$SURFTAB2
 70
     6
  9
$SURFTYPE
 70
     6
  9
$SURFU
 70
     6
  9
$SURFV
 70
     6
  9
$UCSBASE
  2

  9
$UCSNAME
  2

  9
$UCSORG
 10
0.0
 20
0.0
 30
0.0
  9
$UCSXDIR
 10
1.0
 20
0.0
 30
0.0
  9
$UCSYDIR
 10
0.0
 20
1.0
 30
0.0
  9
$UCSORTHOREF
  2

  9
$UCSORTHOVIEW
 70
     0
  9
$UCSORGTOP
 10
0.0
 20
0.0
 30
0.0
  9
$UCSORGBOTTOM
 10
0.0
 20
0.0
 30
0.0
  9
$UCSORGLEFT
 10
0.0
 20
0.0
 30
0.0
  9
$UCSORGRIGHT
 10
0.0
 20
0.0
 30
0.0
  9
$UCSORGFRONT
 10
0.0
 20
0.0
 30
0.0
  9
$UCSORGBACK
 10
0.0
 20
0.0
 30
0.0
  9
$PUCSBASE
  2

  9
$PUCSNAME
  2

  9
$PUCSORG
 10
0.0
 20
0.0
 30
0.0
  9
$PUCSXDIR
 10
1.0
 20
0.0
 30
0.0
  9
$PUCSYDIR
 10
0.0
 20
1.0
 30
0.0
  9
$PUCSORTHOREF
  2

  9
$PUCSORTHOVIEW
 70
     0
  9
$PUCSORGTOP
 10
0.0
 20
0.0
 30
0.0
  9
$PUCSORGBOTTOM
 10
0.0
 20
0.0
 30
0.0
  9
$PUCSORGLEFT
 10
0.0
 20
0.0
 30
0.0
  9
$PUCSORGRIGHT
 10
0.0
 20
0.0
 30
0.0
  9
$PUCSORGFRONT
 10
0.0
 20
0.0
 30
0.0
  9
$PUCSORGBACK
 10
0.0
 20
0.0
 30
0.0
  9
$USERI1
 70
     0
  9
$USERI2
 70
     0
  9
$USERI3
 70
     0
  9
$USERI4
 70
     0
  9
$USERI5
 70
     0
  9
$USERR1
 40
0.0
  9
$USERR2
 40
0.0
  9
$USERR3
 40
0.0
  9
$USERR4
 40
0.0
  9
$USERR5
 40
0.0
  9
$WORLDVIEW
 70
     1
  9
$SHADEDGE
 70
     3
  9
$SHADEDIF
 70
    70
  9
$TILEMODE
 70
     1
  9
$MAXACTVP
 70
    64
  9
$PINSBASE
 10
0.0
 20
0.0
 30
0.0
  9
$PLIMCHECK
 70
     0
  9
$PEXTMIN
 10
0.0
 20
0.0
 30
0.0
  9
$PEXTMAX
 10
0.0
 20
0.0
 30
0.0
  9
$PLIMMIN
 10
0.0
 20
0.0
  9
$PLIMMAX
 10
0.0
 20
0.0
  9
$UNITMODE
 70
     0
  9
$VISRETAIN
 70
     1
  9
$PLINEGEN
 70
     0
  9
$PSLTSCALE
 70
     1
  9
$TREEDEPTH
 70
  3020
  9
$CMLSTYLE
  2
Standard
  9
$CMLJUST
 70
     0
  9
$CMLSCALE
 40
1.0
  9
$PROXYGRAPHICS
 70
     1
  9
$MEASUREMENT
 70
     0
  9
$CELWEIGHT
370
    -1
  9
$ENDCAPS
280
     0
  9
$JOINSTYLE
280
     0
  9
$LWDISPLAY
290
     0
  9
$INSUNITS
 70
     1
  9
$HYPERLINKBASE
  1

  9
$STYLESHEET
  1

  9
$XEDIT
290
     1
  9
$CEPSNTYPE
380
     0
  9
$PSTYLEMODE
290
     1
  9
$FINGERPRINTGUID
  2
{FDEAD576-A652-11D2-9A35-0060089B3A3F}
  9
$VERSIONGUID
  2
{FBC2AE19-5C5C-49EC-81BC-71B1A3362A02}
  9
$EXTNAMES
290
     1
  9
$PSVPSCALE
 40
0.0
  9
$OLESTARTUP
290
     0
  9
$SORTENTS
280
   127
  9
$INDEXCTL
280
     0
  9
$HIDETEXT
280
     1
  9
$XCLIPFRAME
280
     0
  9
$HALOGAP
280
     0
  9
$OBSCOLOR
 70
   257
  9
$OBSLTYPE
280
     0
  9
$INTERSECTIONDISPLAY
280
     0
  9
$INTERSECTIONCOLOR
 70
   257
  9
$DIMASSOC
280
     2
  9
$PROJECTNAME
  1

  9
$CAMERADISPLAY
290
     0
  9
$LENSLENGTH
 40
50.0
  9
$CAMERAHEIGHT
 40
0.0
  9
$STEPSPERSEC
 40
2.0
  9
$STEPSIZE
 40
6.0
  9
$3DDWFPREC
 40
2.0
  9
$PSOLWIDTH
 40
0.25
  9
$PSOLHEIGHT
 40
4.0
  9
$LOFTANG1
 40
1.570796326794897
  9
$LOFTANG2
 40
1.570796326794897
  9
$LOFTMAG1
 40
0.0
  9
$LOFTMAG2
 40
0.0
  9
$LOFTPARAM
 70
     7
  9
$LOFTNORMALS
280
     1
  9
$LATITUDE
 40
37.795
  9
$LONGITUDE
 40
-122.394
  9
$NORTHDIRECTION
 40
0.0
  9
$TIMEZONE
 70
 -8000
  9
$LIGHTGLYPHDISPLAY
280
     1
  9
$TILEMODELIGHTSYNCH
280
     1
  9
$CMATERIAL
347
96
  9
$SOLIDHIST
280
     1
  9
$SHOWHIST
280
     1
  9
$DWFFRAME
280
     2
  9
$DGNFRAME
280
     0
  9
$REALWORLDSCALE
290
     1
  9
$INTERFERECOLOR
 62
     1
  9
$CSHADOW
280
     0
  9
$SHADOWPLANELOCATION
 40
0.0
  0
ENDSEC
  0
SECTION
  2
CLASSES
  0
CLASS
  1
ACDBDICTIONARYWDFLT
  2
AcDbDictionaryWithDefault
  3
ObjectDBX Classes
 90
        0
 91
        5
280
     0
281
     0
  0
CLASS
  1
ACDBPLACEHOLDER
  2
AcDbPlaceHolder
  3
ObjectDBX Classes
 90
        0
 91
        1
280
     0
281
     0
  0
CLASS
  1
LAYOUT
  2
AcDbLayout
  3
ObjectDBX Classes
 90
        0
 91
        1
280
     0
281
     0
  0
CLASS
  1
DICTIONARYVAR
  2
AcDbDictionaryVar
  3
ObjectDBX Classes
 90
        0
 91
        4
280
     0
281
     0
  0
CLASS
  1
TABLESTYLE
  2
AcDbTableStyle
  3
ObjectDBX Classes
 90
     4095
 91
        5
280
     0
281
     0
  0
CLASS
  1
MATERIAL
  2
AcDbMaterial
  3
ObjectDBX Classes
 90
     1153
 91
        5
280
     0
281
     0
  0
CLASS
  1
VISUALSTYLE
  2
AcDbVisualStyle
  3
ObjectDBX Classes
 90
     4095
 91
        5
280
     0
281
     0
  0
CLASS
  1
SCALE
  2
AcDbScale
  3
ObjectDBX Classes
 90
     1153
 91
        5
280
     0
281
     0
  0
CLASS
  1
CELLSTYLEMAP
  2
AcDbCellStyleMap
  3
ObjectDBX Classes
 90
     1152
 91
        4
280
     0
281
     0
  0
CLASS
  1
RASTERVARIABLES
  2
AcDbRasterVariables
  3
ISM
 90
        0
 91
        5
280
     0
281
     0
  0
CLASS
  1
SUN
  2
AcDbSun
  3
SCENEOE
 90
     1153
 91
        5
280
     0
281
     0
  0
CLASS
  1
DIMASSOC
  2
AcDbDimAssoc
  3
"AcDbDimAssoc|Product Desc:     AcDim ARX App For Dimension|Company:          Autodesk, Inc.|WEB Address:      www.autodesk.com"
 90
        0
 91
        4
280
     0
281
     0
  0
ENDSEC
  0
SECTION
  2
TABLES
  0
TABLE
  2
VPORT
  5
8
330
0
100
AcDbSymbolTable
 70
     1
  0
VPORT
  5
94
330
8
100
AcDbSymbolTableRecord
100
AcDbViewportTableRecord
  2
*Active
 70
     0
 10
0.0
 20
0.0
 11
1.0
 21
1.0
 12
173.73486384525
 22
147.7081323536199
 13
0.0
 23
0.0
 14
0.5
 24
0.5
 15
0.5
 25
0.5
 16
0.0
 26
0.0
 36
1.0
 17
-27.66959356597988
 27
-19.53870295786206
 37
0.0
 40
212.1046955189748
 41
1.762376237623762
 42
50.0
 43
0.0
 44
0.0
 50
0.0
 51
0.0
 71
    16
 72
  1000
 73
     1
 74
     3
 75
     0
 76
     0
 77
     0
 78
     0
281
     0
 65
     1
110
0.0
120
0.0
130
0.0
111
1.0
121
0.0
131
0.0
112
0.0
122
1.0
132
0.0
 79
     0
146
0.0
348
9F
 60
     2
 61
     5
292
     1
282
     1
141
0.0
142
0.0
 63
   250
421
  3355443
361
ED
  0
ENDTAB
  0
TABLE
  2
LTYPE
  5
5
330
0
100
AcDbSymbolTable
 70
     2
  0
LTYPE
  5
14
330
5
100
AcDbSymbolTableRecord
100
AcDbLinetypeTableRecord
  2
ByBlock
 70
     0
  3

 72
    65
 73
     0
 40
0.0
  0
LTYPE
  5
15
330
5
100
AcDbSymbolTableRecord
100
AcDbLinetypeTableRecord
  2
ByLayer
 70
     0
  3

 72
    65
 73
     0
 40
0.0
  0
LTYPE
  5
16
330
5
100
AcDbSymbolTableRecord
100
AcDbLinetypeTableRecord
  2
Continuous
 70
     0
  3
Solid line
 72
    65
 73
     0
 40
0.0
  0
LTYPE
  5
129
330
5
100
AcDbSymbolTableRecord
100
AcDbLinetypeTableRecord
  2
CENTER
 70
     0
  3
Center ____ _ ____ _ ____ _ ____ _ ____ _ ____
 72
    65
 73
     4
 40
50.8
 49
31.75
 74
     0
 49
-6.35
 74
     0
 49
6.35
 74
     0
 49
-6.35
 74
     0
  0
ENDTAB
  0
TABLE
  2
LAYER
  5
2
330
0
100
AcDbSymbolTable
 70
     6
  0
LAYER
  5
10
330
2
100
AcDbSymbolTableRecord
100
AcDbLayerTableRecord
  2
0
 70
     0
 62
     7
  6
Continuous
370
    -3
390
F
347
98
348
0
  0
LAYER
  5
125
330
2
100
AcDbSymbolTableRecord
100
AcDbLayerTableRecord
  2
Defpoints
 70
     0
 62
     7
  6
Continuous
290
     0
370
    -3
390
F
347
98
348
0
  0
LAYER
  5
126
330
2
100
AcDbSymbolTableRecord
100
AcDbLayerTableRecord
  2
文字
 70
     0
 62
     7
  6
Continuous
370
    30
390
F
347
98
348
0
  0
LAYER
  5
128
330
2
100
AcDbSymbolTableRecord
100
AcDbLayerTableRecord
  2
中心線
 70
     0
 62
     7
  6
CENTER
370
    30
390
F
347
98
348
0
  0
LAYER
  5
12A
330
2
100
AcDbSymbolTableRecord
100
AcDbLayerTableRecord
  2
実線
 70
     0
 62
     7
  6
Continuous
370
    50
390
F
347
98
348
0
  0
LAYER
  5
2CB
330
2
100
AcDbSymbolTableRecord
100
AcDbLayerTableRecord
  2
文字・寸法線
 70
     0
 62
     7
  6
Continuous
370
    -3
390
F
347
98
348
0
  0
ENDTAB
  0
TABLE
  2
STYLE
  5
3
330
0
100
AcDbSymbolTable
 70
     1
  0
STYLE
  5
11
330
3
100
AcDbSymbolTableRecord
100
AcDbTextStyleTableRecord
  2
Standard
 70
     0
 40
0.0
 41
1.0
 50
0.0
 71
     0
 42
0.2
  3
arial.ttf
  4

1001
ACAD
1000
Arial
1071
        0
  0
ENDTAB
  0
TABLE
  2
VIEW
  5
6
330
0
100
AcDbSymbolTable
 70
     0
  0
ENDTAB
  0
TABLE
  2
UCS
  5
7
330
0
100
AcDbSymbolTable
 70
     0
  0
ENDTAB
  0
TABLE
  2
APPID
  5
9
330
0
100
AcDbSymbolTable
 70
     1
  0
APPID
  5
12
330
9
100
AcDbSymbolTableRecord
100
AcDbRegAppTableRecord
  2
ACAD
 70
     0
  0
ENDTAB
  0
TABLE
  2
DIMSTYLE
  5
A
330
0
100
AcDbSymbolTable
 70
     2
100
AcDbDimStyleTable
  0
DIMSTYLE
105
27
330
A
100
AcDbSymbolTableRecord
100
AcDbDimStyleTableRecord
  2
Standard
 70
     0
178
     0
340
11
  0
DIMSTYLE
105
12B
102
{ACAD_REACTORS
330
217
330
21D
330
242
330
245
330
24A
330
255
330
328
330
3C9
330
3CF
330
3D1
102
}
330
A
100
AcDbSymbolTableRecord
100
AcDbDimStyleTableRecord
  2
ISO-25
 70
     0
 41
2.5
 42
0.625
 43
3.75
 44
1.25
 73
     0
 74
     0
 77
     1
 78
     8
140
2.5
141
2.5
143
0.03937007874016
147
0.625
171
     3
172
     1
178
     0
271
     2
272
     2
274
     3
283
     0
284
     8
340
11
  0
ENDTAB
  0
TABLE
  2
BLOCK_RECORD
  5
1
330
0
100
AcDbSymbolTable
 70
    27
  0
BLOCK_RECORD
  5
1F
330
1
100
AcDbSymbolTableRecord
100
AcDbBlockTableRecord
  2
*Model_Space
340
22
 70
     0
280
     1
281
     0
  0
BLOCK_RECORD
  5
58
330
1
100
AcDbSymbolTableRecord
100
AcDbBlockTableRecord
  2
*Paper_Space
340
59
 70
     0
280
     1
281
     0
  0
BLOCK_RECORD
  5
5D
330
1
100
AcDbSymbolTableRecord
100
AcDbBlockTableRecord
  2
*Paper_Space0
340
5E
 70
     0
280
     1
281
     0
  0
BLOCK_RECORD
  5
15A
330
1
100
AcDbSymbolTableRecord
100
AcDbBlockTableRecord
  2
*D1
340
0
 70
     0
280
     1
281
     0
  0
BLOCK_RECORD
  5
16C
330
1
100
AcDbSymbolTableRecord
100
AcDbBlockTableRecord
  2
*D2
340
0
 70
     0
280
     1
281
     0
  0
BLOCK_RECORD
  5
18F
330
1
100
AcDbSymbolTableRecord
100
AcDbBlockTableRecord
  2
*D3
340
0
 70
     0
280
     1
281
     0
  0
BLOCK_RECORD
  5
1A3
330
1
100
AcDbSymbolTableRecord
100
AcDbBlockTableRecord
  2
*D4
340
0
 70
     0
280
     1
281
     0
  0
BLOCK_RECORD
  5
1B4
330
1
100
AcDbSymbolTableRecord
100
AcDbBlockTableRecord
  2
*D5
340
0
 70
     0
280
     1
281
     0
  0
BLOCK_RECORD
  5
1C3
330
1
100
AcDbSymbolTableRecord
100
AcDbBlockTableRecord
  2
*D6
340
0
 70
     0
280
     1
281
     0
  0
BLOCK_RECORD
  5
1D2
330
1
100
AcDbSymbolTableRecord
100
AcDbBlockTableRecord
  2
*D7
340
0
 70
     0
280
     1
281
     0
  0
BLOCK_RECORD
  5
1E3
330
1
100
AcDbSymbolTableRecord
100
AcDbBlockTableRecord
  2
*D8
340
0
 70
     0
280
     1
281
     0
  0
BLOCK_RECORD
  5
1F6
330
1
100
AcDbSymbolTableRecord
100
AcDbBlockTableRecord
  2
*D9
340
0
 70
     0
280
     1
281
     0
  0
BLOCK_RECORD
  5
258
330
1
100
AcDbSymbolTableRecord
100
AcDbBlockTableRecord
  2
*D10
340
0
 70
     0
280
     1
281
     0
  0
BLOCK_RECORD
  5
264
330
1
100
AcDbSymbolTableRecord
100
AcDbBlockTableRecord
  2
*D11
340
0
 70
     0
280
     1
281
     0
  0
BLOCK_RECORD
  5
270
330
1
100
AcDbSymbolTableRecord
100
AcDbBlockTableRecord
  2
*D12
340
0
 70
     0
280
     1
281
     0
  0
BLOCK_RECORD
  5
27C
330
1
100
AcDbSymbolTableRecord
100
AcDbBlockTableRecord
  2
*D13
340
0
 70
     0
280
     1
281
     0
  0
BLOCK_RECORD
  5
28B
330
1
100
AcDbSymbolTableRecord
100
AcDbBlockTableRecord
  2
*D14
340
0
 70
     0
280
     1
281
     0
  0
BLOCK_RECORD
  5
297
330
1
100
AcDbSymbolTableRecord
100
AcDbBlockTableRecord
  2
*D15
340
0
 70
     0
280
     1
281
     0
  0
BLOCK_RECORD
  5
2A3
330
1
100
AcDbSymbolTableRecord
100
AcDbBlockTableRecord
  2
*D16
340
0
 70
     0
280
     1
281
     0
  0
BLOCK_RECORD
  5
2AF
330
1
100
AcDbSymbolTableRecord
100
AcDbBlockTableRecord
  2
*D17
340
0
 70
     0
280
     1
281
     0
  0
BLOCK_RECORD
  5
2BB
330
1
100
AcDbSymbolTableRecord
100
AcDbBlockTableRecord
  2
*D18
340
0
 70
     0
280
     1
281
     0
  0
BLOCK_RECORD
  5
319
330
1
100
AcDbSymbolTableRecord
100
AcDbBlockTableRecord
  2
*D19
340
0
 70
     0
280
     1
281
     0
  0
BLOCK_RECORD
  5
32A
330
1
100
AcDbSymbolTableRecord
100
AcDbBlockTableRecord
  2
*D20
340
0
 70
     0
280
     1
281
     0
  0
BLOCK_RECORD
  5
38E
330
1
100
AcDbSymbolTableRecord
100
AcDbBlockTableRecord
  2
*D21
340
0
 70
     0
280
     1
281
     0
  0
BLOCK_RECORD
  5
3A0
330
1
100
AcDbSymbolTableRecord
100
AcDbBlockTableRecord
  2
*D22
340
0
 70
     0
280
     1
281
     0
  0
BLOCK_RECORD
  5
3B1
330
1
100
AcDbSymbolTableRecord
100
AcDbBlockTableRecord
  2
*D23
340
0
 70
     0
280
     1
281
     0
  0
BLOCK_RECORD
  5
3D6
330
1
100
AcDbSymbolTableRecord
100
AcDbBlockTableRecord
  2
*D24
340
0
 70
     0
280
     1
281
     0
  0
BLOCK_RECORD
  5
3E2
330
1
100
AcDbSymbolTableRecord
100
AcDbBlockTableRecord
  2
*D25
340
0
 70
     0
280
     1
281
     0
  0
BLOCK_RECORD
  5
3F1
330
1
100
AcDbSymbolTableRecord
100
AcDbBlockTableRecord
  2
*D26
340
0
 70
     0
280
     1
281
     0
  0
ENDTAB
  0
ENDSEC
  0
SECTION
  2
BLOCKS
  0
BLOCK
  5
20
330
1F
100
AcDbEntity
  8
0
100
AcDbBlockBegin
  2
*Model_Space
 70
     0
 10
0.0
 20
0.0
 30
0.0
  3
*Model_Space
  1
*Model_Space
  0
ENDBLK
  5
21
330
1F
100
AcDbEntity
  8
0
100
AcDbBlockEnd
  0
BLOCK
  5
5A
330
58
100
AcDbEntity
 67
     1
  8
0
100
AcDbBlockBegin
  2
*Paper_Space
 70
     0
 10
0.0
 20
0.0
 30
0.0
  3
*Paper_Space
  1
*Paper_Space
  0
ENDBLK
  5
5B
330
58
100
AcDbEntity
 67
     1
  8
0
100
AcDbBlockEnd
  0
BLOCK
  5
5F
330
5D
100
AcDbEntity
  8
0
100
AcDbBlockBegin
  2
*Paper_Space0
 70
     0
 10
0.0
 20
0.0
 30
0.0
  3
*Paper_Space0
  1
*Paper_Space0
  0
ENDBLK
  5
60
330
5D
100
AcDbEntity
  8
0
100
AcDbBlockEnd
  0
BLOCK
  5
15B
330
15A
100
AcDbEntity
  8
0
100
AcDbBlockBegin
  2
*D1
 70
     1
 10
0.0
 20
0.0
 30
0.0
  3
*D1
  1
*D2
  0
LINE
  5
15C
330
15A
100
AcDbEntity
  8
文字
 62
     0
370
    -2
100
AcDbLine
 10
48.67820180079872
 20
156.9666276257633
 30
0.0
 11
48.67820180079872
 21
176.6510101333528
 31
0.0
  0
LINE
  5
15D
330
15A
100
AcDbEntity
  8
文字
 62
     0
370
    -2
100
AcDbLine
 10
72.67820180079872
 20
156.9666276257633
 30
0.0
 11
72.67820180079872
 21
176.6510101333528
 31
0.0
  0
LINE
  5
15E
330
15A
100
AcDbEntity
  8
文字
 62
     0
370
    -2
100
AcDbLine
 10
51.17820180079872
 20
175.4010101333528
 30
0.0
 11
70.17820180079872
 21
175.4010101333528
 31
0.0
  0
SOLID
  5
15F
330
15A
100
AcDbEntity
  8
文字
 62
     0
100
AcDbTrace
 10
51.17820180079872
 20
175.8176768000194
 30
0.0
 11
51.17820180079872
 21
174.9843434666861
 31
0.0
 12
48.67820180079872
 22
175.4010101333528
 32
0.0
 13
48.67820180079872
 23
175.4010101333528
 33
0.0
  0
SOLID
  5
160
330
15A
100
AcDbEntity
  8
文字
 62
     0
100
AcDbTrace
 10
70.17820180079872
 20
174.9843434666861
 30
0.0
 11
70.17820180079872
 21
175.8176768000194
 31
0.0
 12
72.67820180079872
 22
175.4010101333528
 32
0.0
 13
72.67820180079872
 23
175.4010101333528
 33
0.0
  0
MTEXT
  5
161
330
15A
100
AcDbEntity
  8
文字
 62
     0
100
AcDbMText
 10
60.67820180079872
 20
177.2811260951536
 30
0.0
 40
2.5
 41
0.0
 46
0.0
 71
     5
 72
     1
  1
{\fArial|b0|i0|c0|p32;M}24
 73
     1
 44
1.0
  0
POINT
  5
162
330
15A
100
AcDbEntity
  8
Defpoints
 62
     0
100
AcDbPoint
 10
48.67820180079872
 20
156.3416276257633
 30
0.0
  0
POINT
  5
163
330
15A
100
AcDbEntity
  8
Defpoints
 62
     0
100
AcDbPoint
 10
72.67820180079872
 20
156.3416276257633
 30
0.0
  0
POINT
  5
164
330
15A
100
AcDbEntity
  8
Defpoints
 62
     0
100
AcDbPoint
 10
72.67820180079872
 20
175.4010101333528
 30
0.0
  0
ENDBLK
  5
165
330
15A
100
AcDbEntity
  8
0
100
AcDbBlockEnd
  0
BLOCK
  5
16D
330
16C
100
AcDbEntity
  8
0
100
AcDbBlockBegin
  2
*D2
 70
     1
 10
0.0
 20
0.0
 30
0.0
  3
*D2
  1
*D3
  0
LINE
  5
16E
330
16C
100
AcDbEntity
  8
文字
 62
     0
370
    -2
100
AcDbLine
 10
181.4281998434287
 20
109.6514126202261
 30
0.0
 11
181.4281998434287
 21
52.06350802810306
 31
0.0
  0
LINE
  5
16F
330
16C
100
AcDbEntity
  8
文字
 62
     0
370
    -2
100
AcDbLine
 10
217.4548566408614
 20
109.6514126202261
 30
0.0
 11
217.4548566408614
 21
52.06350802810306
 31
0.0
  0
LINE
  5
170
330
16C
100
AcDbEntity
  8
文字
 62
     0
370
    -2
100
AcDbLine
 10
183.9281998434287
 20
53.31350802810306
 30
0.0
 11
214.9548566408614
 21
53.31350802810306
 31
0.0
  0
SOLID
  5
171
330
16C
100
AcDbEntity
  8
文字
 62
     0
100
AcDbTrace
 10
183.9281998434287
 20
53.73017469476972
 30
0.0
 11
183.9281998434287
 21
52.89684136143639
 31
0.0
 12
181.4281998434287
 22
53.31350802810306
 32
0.0
 13
181.4281998434287
 23
53.31350802810306
 33
0.0
  0
SOLID
  5
172
330
16C
100
AcDbEntity
  8
文字
 62
     0
100
AcDbTrace
 10
214.9548566408614
 20
52.89684136143639
 30
0.0
 11
214.9548566408614
 21
53.73017469476972
 31
0.0
 12
217.4548566408614
 22
53.31350802810306
 32
0.0
 13
217.4548566408614
 23
53.31350802810306
 33
0.0
  0
MTEXT
  5
173
330
16C
100
AcDbEntity
  8
文字
 62
     0
100
AcDbMText
 10
199.3632048828736
 20
55.21408783710715
 30
0.0
 40
2.5
 41
0.0
 46
0.0
 71
     5
 72
     1
  1
36
 73
     1
 44
1.0
  0
POINT
  5
174
330
16C
100
AcDbEntity
  8
Defpoints
 62
     0
100
AcDbPoint
 10
181.4281998434287
 20
110.2764126202261
 30
0.0
  0
POINT
  5
175
330
16C
100
AcDbEntity
  8
Defpoints
 62
     0
100
AcDbPoint
 10
217.4548566408614
 20
110.2764126202261
 30
0.0
  0
POINT
  5
176
330
16C
100
AcDbEntity
  8
Defpoints
 62
     0
100
AcDbPoint
 10
217.4548566408614
 20
53.31350802810306
 30
0.0
  0
ENDBLK
  5
177
330
16C
100
AcDbEntity
  8
0
100
AcDbBlockEnd
  0
BLOCK
  5
190
330
18F
100
AcDbEntity
  8
0
100
AcDbBlockBegin
  2
*D3
 70
     1
 10
0.0
 20
0.0
 30
0.0
  3
*D3
  1
*D4
  0
LINE
  5
191
330
18F
100
AcDbEntity
  8
文字
 62
     0
370
    -2
100
AcDbLine
 10
5.678201800798718
 20
18.71662762576329
 30
0.0
 11
5.678201800798718
 21
0.0
 31
0.0
  0
LINE
  5
192
330
18F
100
AcDbEntity
  8
文字
 62
     0
370
    -2
100
AcDbLine
 10
115.6782018007987
 20
18.71662762576322
 30
0.0
 11
115.6782018007987
 21
0.0
 31
0.0
  0
LINE
  5
193
330
18F
100
AcDbEntity
  8
文字
 62
     0
370
    -2
100
AcDbLine
 10
8.178201800798718
 20
1.25
 30
0.0
 11
113.1782018007987
 21
1.25
 31
0.0
  0
SOLID
  5
194
330
18F
100
AcDbEntity
  8
文字
 62
     0
100
AcDbTrace
 10
8.178201800798718
 20
1.666666666666667
 30
0.0
 11
8.178201800798718
 21
0.8333333333333333
 31
0.0
 12
5.678201800798718
 22
1.25
 32
0.0
 13
5.678201800798718
 23
1.25
 33
0.0
  0
SOLID
  5
195
330
18F
100
AcDbEntity
  8
文字
 62
     0
100
AcDbTrace
 10
113.1782018007987
 20
0.8333333333333333
 30
0.0
 11
113.1782018007987
 21
1.666666666666667
 31
0.0
 12
115.6782018007987
 22
1.25
 32
0.0
 13
115.6782018007987
 23
1.25
 33
0.0
  0
MTEXT
  5
196
330
18F
100
AcDbEntity
  8
文字
 62
     0
100
AcDbMText
 10
60.23513970227987
 20
3.198328785811733
 30
0.0
 40
2.5
 41
0.0
 46
0.0
 71
     5
 72
     1
  1
%%c110
 73
     1
 44
1.0
  0
POINT
  5
197
330
18F
100
AcDbEntity
  8
Defpoints
 62
     0
100
AcDbPoint
 10
5.678201800798718
 20
19.34162762576329
 30
0.0
  0
POINT
  5
198
330
18F
100
AcDbEntity
  8
Defpoints
 62
     0
100
AcDbPoint
 10
115.6782018007987
 20
19.34162762576322
 30
0.0
  0
POINT
  5
199
330
18F
100
AcDbEntity
  8
Defpoints
 62
     0
100
AcDbPoint
 10
115.6782018007987
 20
1.25
 30
0.0
  0
ENDBLK
  5
19A
330
18F
100
AcDbEntity
  8
0
100
AcDbBlockEnd
  0
BLOCK
  5
1A4
330
1A3
100
AcDbEntity
  8
0
100
AcDbBlockBegin
  2
*D4
 70
     1
 10
0.0
 20
0.0
 30
0.0
  3
*D4
  1
*D5
  0
LINE
  5
1A5
330
1A3
100
AcDbEntity
  8
文字
 62
     0
370
    -2
100
AcDbLine
 10
5.053201800798718
 20
19.34162762576329
 30
0.0
 11
1.875
 21
19.34162762576329
 31
0.0
  0
LINE
  5
1A6
330
1A3
100
AcDbEntity
  8
文字
 62
     0
370
    -2
100
AcDbLine
 10
5.053201800798718
 20
21.94162762576332
 30
0.0
 11
1.875
 21
21.94162762576332
 31
0.0
  0
LINE
  5
1A7
330
1A3
100
AcDbEntity
  8
文字
 62
     0
370
    -2
100
AcDbLine
 10
3.125
 20
21.94162762576332
 30
0.0
 11
3.125
 21
40.4233733981281
 31
0.0
  0
LINE
  5
1A8
330
1A3
100
AcDbEntity
  8
文字
 62
     0
370
    -2
100
AcDbLine
 10
3.125
 20
19.34162762576329
 30
0.0
 11
3.125
 21
21.94162762576332
 31
0.0
  0
LINE
  5
1A9
330
1A3
100
AcDbEntity
  8
文字
 62
     0
370
    -2
100
AcDbLine
 10
3.125
 20
16.84162762576329
 30
0.0
 11
3.125
 21
14.34162762576329
 31
0.0
  0
LINE
  5
1AA
330
1A3
100
AcDbEntity
  8
文字
 62
     0
370
    -2
100
AcDbLine
 10
3.125
 20
24.44162762576332
 30
0.0
 11
3.125
 21
26.94162762576332
 31
0.0
  0
SOLID
  5
1AB
330
1A3
100
AcDbEntity
  8
文字
 62
     0
100
AcDbTrace
 10
3.541666666666667
 20
16.84162762576329
 30
0.0
 11
2.708333333333333
 21
16.84162762576329
 31
0.0
 12
3.125
 22
19.34162762576329
 32
0.0
 13
3.125
 23
19.34162762576329
 33
0.0
  0
SOLID
  5
1AC
330
1A3
100
AcDbEntity
  8
文字
 62
     0
100
AcDbTrace
 10
2.708333333333333
 20
24.44162762576332
 30
0.0
 11
3.541666666666667
 21
24.44162762576332
 31
0.0
 12
3.125
 22
21.94162762576332
 32
0.0
 13
3.125
 23
21.94162762576332
 33
0.0
  0
MTEXT
  5
1AD
330
1A3
100
AcDbEntity
  8
文字
 62
     0
100
AcDbMText
 10
1.224420190995907
 20
37.49789590836002
 30
0.0
 40
2.5
 41
0.0
 46
0.0
 71
     5
 72
     1
  1
2.6
 11
0.0
 21
1.0
 31
0.0
 73
     1
 44
1.0
  0
POINT
  5
1AE
330
1A3
100
AcDbEntity
  8
Defpoints
 62
     0
100
AcDbPoint
 10
5.678201800798718
 20
19.34162762576329
 30
0.0
  0
POINT
  5
1AF
330
1A3
100
AcDbEntity
  8
Defpoints
 62
     0
100
AcDbPoint
 10
5.678201800798718
 20
21.94162762576332
 30
0.0
  0
POINT
  5
208
330
1A3
100
AcDbEntity
  8
Defpoints
 62
     0
100
AcDbPoint
 10
3.125000000000004
 20
21.94162762576332
 30
0.0
  0
ENDBLK
  5
1B0
330
1A3
100
AcDbEntity
  8
0
100
AcDbBlockEnd
  0
BLOCK
  5
1B5
330
1B4
100
AcDbEntity
  8
0
100
AcDbBlockBegin
  2
*D5
 70
     1
 10
0.0
 20
0.0
 30
0.0
  3
*D5
  1
*D6
  0
LINE
  5
1B6
330
1B4
100
AcDbEntity
  8
文字
 62
     0
370
    -2
100
AcDbLine
 10
71.3032018007987
 20
44.34162762576329
 30
0.0
 11
121.2389170959189
 21
44.34162762576329
 31
0.0
  0
LINE
  5
1B7
330
1B4
100
AcDbEntity
  8
文字
 62
     0
370
    -2
100
AcDbLine
 10
116.3032018007987
 20
19.34162762576322
 30
0.0
 11
121.2389170959189
 21
19.34162762576322
 31
0.0
  0
LINE
  5
1B8
330
1B4
100
AcDbEntity
  8
文字
 62
     0
370
    -2
100
AcDbLine
 10
119.9889170959189
 20
41.84162762576329
 30
0.0
 11
119.9889170959189
 21
21.84162762576322
 31
0.0
  0
SOLID
  5
1B9
330
1B4
100
AcDbEntity
  8
文字
 62
     0
100
AcDbTrace
 10
120.4055837625856
 20
41.84162762576329
 30
0.0
 11
119.5722504292522
 21
41.84162762576329
 31
0.0
 12
119.9889170959189
 22
44.34162762576329
 32
0.0
 13
119.9889170959189
 23
44.34162762576329
 33
0.0
  0
SOLID
  5
1BA
330
1B4
100
AcDbEntity
  8
文字
 62
     0
100
AcDbTrace
 10
119.5722504292522
 20
21.84162762576322
 30
0.0
 11
120.4055837625856
 21
21.84162762576322
 31
0.0
 12
119.9889170959189
 22
19.34162762576322
 32
0.0
 13
119.9889170959189
 23
19.34162762576322
 33
0.0
  0
MTEXT
  5
1BB
330
1B4
100
AcDbEntity
  8
文字
 62
     0
100
AcDbMText
 10
118.1088011341181
 20
31.84162762576326
 30
0.0
 40
2.5
 41
0.0
 46
0.0
 71
     5
 72
     1
  1
24
 11
0.0
 21
1.0
 31
0.0
 73
     1
 44
1.0
  0
POINT
  5
1BC
330
1B4
100
AcDbEntity
  8
Defpoints
 62
     0
100
AcDbPoint
 10
70.6782018007987
 20
44.34162762576329
 30
0.0
  0
POINT
  5
1BD
330
1B4
100
AcDbEntity
  8
Defpoints
 62
     0
100
AcDbPoint
 10
115.6782018007987
 20
19.34162762576322
 30
0.0
  0
POINT
  5
1BE
330
1B4
100
AcDbEntity
  8
Defpoints
 62
     0
100
AcDbPoint
 10
119.9889170959189
 20
19.34162762576322
 30
0.0
  0
ENDBLK
  5
1BF
330
1B4
100
AcDbEntity
  8
0
100
AcDbBlockEnd
  0
BLOCK
  5
1C4
330
1C3
100
AcDbEntity
  8
0
100
AcDbBlockBegin
  2
*D6
 70
     1
 10
0.0
 20
0.0
 30
0.0
  3
*D6
  1
*D7
  0
LINE
  5
1C5
330
1C3
100
AcDbEntity
  8
文字
 62
     0
370
    -2
100
AcDbLine
 10
82.10320180079873
 20
59.34162762576329
 30
0.0
 11
121.2389170959189
 21
59.34162762576329
 31
0.0
  0
LINE
  5
1C6
330
1C3
100
AcDbEntity
  8
文字
 62
     0
370
    -2
100
AcDbLine
 10
76.90320180079874
 20
44.34162762576329
 30
0.0
 11
121.2389170959189
 21
44.34162762576329
 31
0.0
  0
LINE
  5
1C7
330
1C3
100
AcDbEntity
  8
文字
 62
     0
370
    -2
100
AcDbLine
 10
119.9889170959189
 20
56.84162762576329
 30
0.0
 11
119.9889170959189
 21
46.84162762576329
 31
0.0
  0
SOLID
  5
1C8
330
1C3
100
AcDbEntity
  8
文字
 62
     0
100
AcDbTrace
 10
120.4055837625856
 20
56.84162762576329
 30
0.0
 11
119.5722504292522
 21
56.84162762576329
 31
0.0
 12
119.9889170959189
 22
59.34162762576329
 32
0.0
 13
119.9889170959189
 23
59.34162762576329
 33
0.0
  0
SOLID
  5
1C9
330
1C3
100
AcDbEntity
  8
文字
 62
     0
100
AcDbTrace
 10
119.5722504292522
 20
46.84162762576329
 30
0.0
 11
120.4055837625856
 21
46.84162762576329
 31
0.0
 12
119.9889170959189
 22
44.34162762576329
 32
0.0
 13
119.9889170959189
 23
44.34162762576329
 33
0.0
  0
MTEXT
  5
1CA
330
1C3
100
AcDbEntity
  8
文字
 62
     0
100
AcDbMText
 10
118.0883372869148
 20
51.84162762576329
 30
0.0
 40
2.5
 41
0.0
 46
0.0
 71
     5
 72
     1
  1
15
 11
0.0
 21
1.0
 31
0.0
 73
     1
 44
1.0
  0
POINT
  5
1CB
330
1C3
100
AcDbEntity
  8
Defpoints
 62
     0
100
AcDbPoint
 10
81.47820180079873
 20
59.34162762576329
 30
0.0
  0
POINT
  5
1CC
330
1C3
100
AcDbEntity
  8
Defpoints
 62
     0
100
AcDbPoint
 10
76.27820180079874
 20
44.34162762576329
 30
0.0
  0
POINT
  5
1CD
330
1C3
100
AcDbEntity
  8
Defpoints
 62
     0
100
AcDbPoint
 10
119.9889170959189
 20
44.34162762576329
 30
0.0
  0
ENDBLK
  5
1CE
330
1C3
100
AcDbEntity
  8
0
100
AcDbBlockEnd
  0
BLOCK
  5
1D3
330
1D2
100
AcDbEntity
  8
0
100
AcDbBlockBegin
  2
*D7
 70
     1
 10
0.0
 20
0.0
 30
0.0
  3
*D7
  1
*D8
  0
LINE
  5
1D4
330
1D2
100
AcDbEntity
  8
文字
 62
     0
370
    -2
100
AcDbLine
 10
82.72820180079873
 20
59.34162762576329
 30
0.0
 11
121.238917095919
 21
59.34162762576329
 31
0.0
  0
LINE
  5
1D5
330
1D2
100
AcDbEntity
  8
文字
 62
     0
370
    -2
100
AcDbLine
 10
70.30320180079872
 20
159.3416276257633
 30
0.0
 11
121.238917095919
 21
159.3416276257633
 31
0.0
  0
LINE
  5
1D6
330
1D2
100
AcDbEntity
  8
文字
 62
     0
370
    -2
100
AcDbLine
 10
119.988917095919
 20
61.84162762576329
 30
0.0
 11
119.988917095919
 21
156.8416276257633
 31
0.0
  0
SOLID
  5
1D7
330
1D2
100
AcDbEntity
  8
文字
 62
     0
100
AcDbTrace
 10
119.5722504292523
 20
61.84162762576329
 30
0.0
 11
120.4055837625856
 21
61.84162762576329
 31
0.0
 12
119.988917095919
 22
59.34162762576329
 32
0.0
 13
119.988917095919
 23
59.34162762576329
 33
0.0
  0
SOLID
  5
1D8
330
1D2
100
AcDbEntity
  8
文字
 62
     0
100
AcDbTrace
 10
120.4055837625856
 20
156.8416276257633
 30
0.0
 11
119.5722504292523
 21
156.8416276257633
 31
0.0
 12
119.988917095919
 22
159.3416276257633
 32
0.0
 13
119.988917095919
 23
159.3416276257633
 33
0.0
  0
MTEXT
  5
1D9
330
1D2
100
AcDbEntity
  8
文字
 62
     0
100
AcDbMText
 10
118.0883372869149
 20
109.3416276257633
 30
0.0
 40
2.5
 41
0.0
 46
0.0
 71
     5
 72
     1
  1
150
 11
0.0
 21
1.0
 31
0.0
 73
     1
 44
1.0
  0
POINT
  5
1DA
330
1D2
100
AcDbEntity
  8
Defpoints
 62
     0
100
AcDbPoint
 10
82.10320180079873
 20
59.34162762576329
 30
0.0
  0
POINT
  5
1DB
330
1D2
100
AcDbEntity
  8
Defpoints
 62
     0
100
AcDbPoint
 10
69.67820180079872
 20
159.3416276257633
 30
0.0
  0
POINT
  5
1DC
330
1D2
100
AcDbEntity
  8
Defpoints
 62
     0
100
AcDbPoint
 10
119.988917095919
 20
159.3416276257633
 30
0.0
  0
ENDBLK
  5
1DD
330
1D2
100
AcDbEntity
  8
0
100
AcDbBlockEnd
  0
BLOCK
  5
1E4
330
1E3
100
AcDbEntity
  8
0
100
AcDbBlockBegin
  2
*D8
 70
     1
 10
0.0
 20
0.0
 30
0.0
  3
*D8
  1
*D9
  0
LINE
  5
1E5
330
1E3
100
AcDbEntity
  8
文字
 62
     0
370
    -2
100
AcDbLine
 10
164.4415282421451
 20
120.0514126202261
 30
0.0
 11
164.4415282421451
 21
41.81438320959825
 31
0.0
  0
LINE
  5
1E6
330
1E3
100
AcDbEntity
  8
文字
 62
     0
370
    -2
100
AcDbLine
 10
234.4415282421451
 20
120.0514126202261
 30
0.0
 11
234.4415282421451
 21
41.81438320959825
 31
0.0
  0
LINE
  5
1E7
330
1E3
100
AcDbEntity
  8
文字
 62
     0
370
    -2
100
AcDbLine
 10
166.9415282421451
 20
43.06438320959825
 30
0.0
 11
231.9415282421451
 21
43.06438320959825
 31
0.0
  0
SOLID
  5
1E8
330
1E3
100
AcDbEntity
  8
文字
 62
     0
100
AcDbTrace
 10
166.9415282421451
 20
43.48104987626491
 30
0.0
 11
166.9415282421451
 21
42.64771654293158
 31
0.0
 12
164.4415282421451
 22
43.06438320959825
 32
0.0
 13
164.4415282421451
 23
43.06438320959825
 33
0.0
  0
SOLID
  5
1E9
330
1E3
100
AcDbEntity
  8
文字
 62
     0
100
AcDbTrace
 10
231.9415282421451
 20
42.64771654293158
 30
0.0
 11
231.9415282421451
 21
43.48104987626491
 31
0.0
 12
234.4415282421451
 22
43.06438320959825
 32
0.0
 13
234.4415282421451
 23
43.06438320959825
 33
0.0
  0
MTEXT
  5
1EA
330
1E3
100
AcDbEntity
  8
文字
 62
     0
100
AcDbMText
 10
199.4415282421451
 20
45.01271199540998
 30
0.0
 40
2.5
 41
0.0
 46
0.0
 71
     5
 72
     1
  1
%%c70
 73
     1
 44
1.0
  0
POINT
  5
1EB
330
1E3
100
AcDbEntity
  8
Defpoints
 62
     0
100
AcDbPoint
 10
164.4415282421451
 20
120.6764126202261
 30
0.0
  0
POINT
  5
1EC
330
1E3
100
AcDbEntity
  8
Defpoints
 62
     0
100
AcDbPoint
 10
234.4415282421451
 20
120.6764126202261
 30
0.0
  0
POINT
  5
1ED
330
1E3
100
AcDbEntity
  8
Defpoints
 62
     0
100
AcDbPoint
 10
234.4415282421451
 20
43.06438320959825
 30
0.0
  0
ENDBLK
  5
1EE
330
1E3
100
AcDbEntity
  8
0
100
AcDbBlockEnd
  0
BLOCK
  5
1F7
330
1F6
100
AcDbEntity
  8
0
100
AcDbBlockBegin
  2
*D9
 70
     1
 10
0.0
 20
0.0
 30
0.0
  3
*D9
  1
*D10
  0
LINE
  5
1F8
330
1F6
100
AcDbEntity
  8
文字
 62
     0
370
    -2
100
AcDbLine
 10
14.67820180079872
 20
18.71662762576329
 30
0.0
 11
14.67820180079872
 21
7.039625051589894
 31
0.0
  0
LINE
  5
1F9
330
1F6
100
AcDbEntity
  8
文字
 62
     0
370
    -2
100
AcDbLine
 10
106.6782018007987
 20
18.71662762576323
 30
0.0
 11
106.6782018007987
 21
7.039625051589894
 31
0.0
  0
LINE
  5
1FA
330
1F6
100
AcDbEntity
  8
文字
 62
     0
370
    -2
100
AcDbLine
 10
17.17820180079872
 20
8.289625051589894
 30
0.0
 11
104.1782018007987
 21
8.289625051589894
 31
0.0
  0
SOLID
  5
1FB
330
1F6
100
AcDbEntity
  8
文字
 62
     0
100
AcDbTrace
 10
17.17820180079872
 20
8.70629171825656
 30
0.0
 11
17.17820180079872
 21
7.872958384923227
 31
0.0
 12
14.67820180079872
 22
8.289625051589894
 32
0.0
 13
14.67820180079872
 23
8.289625051589894
 33
0.0
  0
SOLID
  5
1FC
330
1F6
100
AcDbEntity
  8
文字
 62
     0
100
AcDbTrace
 10
104.1782018007987
 20
7.872958384923227
 30
0.0
 11
104.1782018007987
 21
8.70629171825656
 31
0.0
 12
106.6782018007987
 22
8.289625051589894
 32
0.0
 13
106.6782018007987
 23
8.289625051589894
 33
0.0
  0
MTEXT
  5
1FD
330
1F6
100
AcDbEntity
  8
文字
 62
     0
100
AcDbMText
 10
60.67820180079872
 20
10.19020486059399
 30
0.0
 40
2.5
 41
0.0
 46
0.0
 71
     5
 72
     1
  1
92
 73
     1
 44
1.0
  0
POINT
  5
1FE
330
1F6
100
AcDbEntity
  8
Defpoints
 62
     0
100
AcDbPoint
 10
14.67820180079872
 20
19.34162762576329
 30
0.0
  0
POINT
  5
1FF
330
1F6
100
AcDbEntity
  8
Defpoints
 62
     0
100
AcDbPoint
 10
106.6782018007987
 20
19.34162762576323
 30
0.0
  0
POINT
  5
200
330
1F6
100
AcDbEntity
  8
Defpoints
 62
     0
100
AcDbPoint
 10
106.6782018007987
 20
8.289625051589894
 30
0.0
  0
ENDBLK
  5
201
330
1F6
100
AcDbEntity
  8
0
100
AcDbBlockEnd
  0
BLOCK
  5
259
330
258
100
AcDbEntity
  8
0
100
AcDbBlockBegin
  2
*D10
 70
     1
 10
0.0
 20
0.0
 30
0.0
  3
*D10
  1
*D11
  0
LINE
  5
25B
330
258
100
AcDbEntity
  8
文字
 62
     0
370
    -2
100
AcDbLine
 10
66.85232681195569
 20
177.7370592586299
 30
0.0
 11
66.85232681195569
 21
197.4214417662193
 31
0.0
  0
LINE
  5
25C
330
258
100
AcDbEntity
  8
文字
 62
     0
370
    -2
100
AcDbLine
 10
90.85232681195569
 20
177.7370592586299
 30
0.0
 11
90.85232681195569
 21
197.4214417662193
 31
0.0
  0
LINE
  5
25D
330
258
100
AcDbEntity
  8
文字
 62
     0
370
    -2
100
AcDbLine
 10
69.35232681195569
 20
196.1714417662193
 30
0.0
 11
88.35232681195569
 21
196.1714417662193
 31
0.0
  0
SOLID
  5
25E
330
258
100
AcDbEntity
  8
文字
 62
     0
100
AcDbTrace
 10
69.35232681195569
 20
196.588108432886
 30
0.0
 11
69.35232681195569
 21
195.7547750995527
 31
0.0
 12
66.85232681195569
 22
196.1714417662193
 32
0.0
 13
66.85232681195569
 23
196.1714417662193
 33
0.0
  0
SOLID
  5
25F
330
258
100
AcDbEntity
  8
文字
 62
     0
100
AcDbTrace
 10
88.35232681195569
 20
195.7547750995527
 30
0.0
 11
88.35232681195569
 21
196.588108432886
 31
0.0
 12
90.85232681195569
 22
196.1714417662193
 32
0.0
 13
90.85232681195569
 23
196.1714417662193
 33
0.0
  0
MTEXT
  5
260
330
258
100
AcDbEntity
  8
文字
 62
     0
100
AcDbMText
 10
78.85232681195569
 20
198.0515577280202
 30
0.0
 40
2.5
 41
0.0
 46
0.0
 71
     5
 72
     1
  1
{\fArial|b0|i0|c0|p32;M}24
 73
     1
 44
1.0
  0
POINT
  5
261
330
258
100
AcDbEntity
  8
Defpoints
 62
     0
100
AcDbPoint
 10
66.85232681195569
 20
177.1120592586299
 30
0.0
  0
POINT
  5
262
330
258
100
AcDbEntity
  8
Defpoints
 62
     0
100
AcDbPoint
 10
90.85232681195569
 20
177.1120592586299
 30
0.0
  0
POINT
  5
263
330
258
100
AcDbEntity
  8
Defpoints
 62
     0
100
AcDbPoint
 10
90.85232681195569
 20
196.1714417662193
 30
0.0
  0
ENDBLK
  5
25A
330
258
100
AcDbEntity
  8
0
100
AcDbBlockEnd
  0
BLOCK
  5
265
330
264
100
AcDbEntity
  8
0
100
AcDbBlockBegin
  2
*D11
 70
     1
 10
0.0
 20
0.0
 30
0.0
  3
*D11
  1
*D12
  0
LINE
  5
267
330
264
100
AcDbEntity
  8
文字
 62
     0
370
    -2
100
AcDbLine
 10
199.6023248545857
 20
130.4218442530927
 30
0.0
 11
199.6023248545857
 21
72.83393966096963
 31
0.0
  0
LINE
  5
268
330
264
100
AcDbEntity
  8
文字
 62
     0
370
    -2
100
AcDbLine
 10
235.6289816520184
 20
130.4218442530926
 30
0.0
 11
235.6289816520184
 21
72.83393966096963
 31
0.0
  0
LINE
  5
269
330
264
100
AcDbEntity
  8
文字
 62
     0
370
    -2
100
AcDbLine
 10
202.1023248545857
 20
74.08393966096963
 30
0.0
 11
233.1289816520184
 21
74.08393966096963
 31
0.0
  0
SOLID
  5
26A
330
264
100
AcDbEntity
  8
文字
 62
     0
100
AcDbTrace
 10
202.1023248545857
 20
74.5006063276363
 30
0.0
 11
202.1023248545857
 21
73.66727299430296
 31
0.0
 12
199.6023248545857
 22
74.08393966096963
 32
0.0
 13
199.6023248545857
 23
74.08393966096963
 33
0.0
  0
SOLID
  5
26B
330
264
100
AcDbEntity
  8
文字
 62
     0
100
AcDbTrace
 10
233.1289816520184
 20
73.66727299430296
 30
0.0
 11
233.1289816520184
 21
74.5006063276363
 31
0.0
 12
235.6289816520184
 22
74.08393966096963
 32
0.0
 13
235.6289816520184
 23
74.08393966096963
 33
0.0
  0
MTEXT
  5
26C
330
264
100
AcDbEntity
  8
文字
 62
     0
100
AcDbMText
 10
217.5373298940305
 20
75.98451946997373
 30
0.0
 40
2.5
 41
0.0
 46
0.0
 71
     5
 72
     1
  1
36
 73
     1
 44
1.0
  0
POINT
  5
26D
330
264
100
AcDbEntity
  8
Defpoints
 62
     0
100
AcDbPoint
 10
199.6023248545857
 20
131.0468442530927
 30
0.0
  0
POINT
  5
26E
330
264
100
AcDbEntity
  8
Defpoints
 62
     0
100
AcDbPoint
 10
235.6289816520184
 20
131.0468442530926
 30
0.0
  0
POINT
  5
26F
330
264
100
AcDbEntity
  8
Defpoints
 62
     0
100
AcDbPoint
 10
235.6289816520184
 20
74.08393966096963
 30
0.0
  0
ENDBLK
  5
266
330
264
100
AcDbEntity
  8
0
100
AcDbBlockEnd
  0
BLOCK
  5
271
330
270
100
AcDbEntity
  8
0
100
AcDbBlockBegin
  2
*D12
 70
     1
 10
0.0
 20
0.0
 30
0.0
  3
*D12
  1
*D13
  0
LINE
  5
273
330
270
100
AcDbEntity
  8
文字
 62
     0
370
    -2
100
AcDbLine
 10
23.85232681195569
 20
39.48705925862987
 30
0.0
 11
23.85232681195569
 21
20.77043163286658
 31
0.0
  0
LINE
  5
274
330
270
100
AcDbEntity
  8
文字
 62
     0
370
    -2
100
AcDbLine
 10
133.8523268119557
 20
39.4870592586298
 30
0.0
 11
133.8523268119557
 21
20.77043163286658
 31
0.0
  0
LINE
  5
275
330
270
100
AcDbEntity
  8
文字
 62
     0
370
    -2
100
AcDbLine
 10
26.35232681195569
 20
22.02043163286658
 30
0.0
 11
131.3523268119557
 21
22.02043163286658
 31
0.0
  0
SOLID
  5
276
330
270
100
AcDbEntity
  8
文字
 62
     0
100
AcDbTrace
 10
26.35232681195569
 20
22.43709829953324
 30
0.0
 11
26.35232681195569
 21
21.60376496619991
 31
0.0
 12
23.85232681195569
 22
22.02043163286658
 32
0.0
 13
23.85232681195569
 23
22.02043163286658
 33
0.0
  0
SOLID
  5
277
330
270
100
AcDbEntity
  8
文字
 62
     0
100
AcDbTrace
 10
131.3523268119557
 20
21.60376496619991
 30
0.0
 11
131.3523268119557
 21
22.43709829953324
 31
0.0
 12
133.8523268119557
 22
22.02043163286658
 32
0.0
 13
133.8523268119557
 23
22.02043163286658
 33
0.0
  0
MTEXT
  5
278
330
270
100
AcDbEntity
  8
文字
 62
     0
100
AcDbMText
 10
78.40926471343684
 20
23.96876041867831
 30
0.0
 40
2.5
 41
0.0
 46
0.0
 71
     5
 72
     1
  1
%%c110
 73
     1
 44
1.0
  0
POINT
  5
279
330
270
100
AcDbEntity
  8
Defpoints
 62
     0
100
AcDbPoint
 10
23.85232681195569
 20
40.11205925862987
 30
0.0
  0
POINT
  5
27A
330
270
100
AcDbEntity
  8
Defpoints
 62
     0
100
AcDbPoint
 10
133.8523268119557
 20
40.1120592586298
 30
0.0
  0
POINT
  5
27B
330
270
100
AcDbEntity
  8
Defpoints
 62
     0
100
AcDbPoint
 10
133.8523268119557
 20
22.02043163286658
 30
0.0
  0
ENDBLK
  5
272
330
270
100
AcDbEntity
  8
0
100
AcDbBlockEnd
  0
BLOCK
  5
27D
330
27C
100
AcDbEntity
  8
0
100
AcDbBlockBegin
  2
*D13
 70
     1
 10
0.0
 20
0.0
 30
0.0
  3
*D13
  1
*D14
  0
LINE
  5
27F
330
27C
100
AcDbEntity
  8
文字
 62
     0
370
    -2
100
AcDbLine
 10
23.22732681195569
 20
40.11205925862987
 30
0.0
 11
20.04912501115697
 21
40.11205925862987
 31
0.0
  0
LINE
  5
280
330
27C
100
AcDbEntity
  8
文字
 62
     0
370
    -2
100
AcDbLine
 10
23.22732681195569
 20
42.71205925862989
 30
0.0
 11
20.04912501115697
 21
42.71205925862989
 31
0.0
  0
LINE
  5
281
330
27C
100
AcDbEntity
  8
文字
 62
     0
370
    -2
100
AcDbLine
 10
21.29912501115697
 20
42.71205925862989
 30
0.0
 11
21.29912501115697
 21
61.19380503099467
 31
0.0
  0
LINE
  5
282
330
27C
100
AcDbEntity
  8
文字
 62
     0
370
    -2
100
AcDbLine
 10
21.29912501115697
 20
40.11205925862987
 30
0.0
 11
21.29912501115697
 21
42.71205925862989
 31
0.0
  0
LINE
  5
283
330
27C
100
AcDbEntity
  8
文字
 62
     0
370
    -2
100
AcDbLine
 10
21.29912501115697
 20
37.61205925862987
 30
0.0
 11
21.29912501115697
 21
35.11205925862987
 31
0.0
  0
LINE
  5
284
330
27C
100
AcDbEntity
  8
文字
 62
     0
370
    -2
100
AcDbLine
 10
21.29912501115697
 20
45.21205925862989
 30
0.0
 11
21.29912501115697
 21
47.71205925862989
 31
0.0
  0
SOLID
  5
285
330
27C
100
AcDbEntity
  8
文字
 62
     0
100
AcDbTrace
 10
21.71579167782364
 20
37.61205925862987
 30
0.0
 11
20.88245834449031
 21
37.61205925862987
 31
0.0
 12
21.29912501115697
 22
40.11205925862987
 32
0.0
 13
21.29912501115697
 23
40.11205925862987
 33
0.0
  0
SOLID
  5
286
330
27C
100
AcDbEntity
  8
文字
 62
     0
100
AcDbTrace
 10
20.88245834449031
 20
45.21205925862989
 30
0.0
 11
21.71579167782364
 21
45.21205925862989
 31
0.0
 12
21.29912501115697
 22
42.71205925862989
 32
0.0
 13
21.29912501115697
 23
42.71205925862989
 33
0.0
  0
MTEXT
  5
287
330
27C
100
AcDbEntity
  8
文字
 62
     0
100
AcDbMText
 10
19.39854520215288
 20
58.2683275412266
 30
0.0
 40
2.5
 41
0.0
 46
0.0
 71
     5
 72
     1
  1
2.6
 11
0.0
 21
1.0
 31
0.0
 73
     1
 44
1.0
  0
POINT
  5
288
330
27C
100
AcDbEntity
  8
Defpoints
 62
     0
100
AcDbPoint
 10
23.85232681195569
 20
40.11205925862987
 30
0.0
  0
POINT
  5
289
330
27C
100
AcDbEntity
  8
Defpoints
 62
     0
100
AcDbPoint
 10
23.85232681195569
 20
42.71205925862989
 30
0.0
  0
POINT
  5
28A
330
27C
100
AcDbEntity
  8
Defpoints
 62
     0
100
AcDbPoint
 10
21.29912501115697
 20
42.71205925862989
 30
0.0
  0
ENDBLK
  5
27E
330
27C
100
AcDbEntity
  8
0
100
AcDbBlockEnd
  0
BLOCK
  5
28C
330
28B
100
AcDbEntity
  8
0
100
AcDbBlockBegin
  2
*D14
 70
     1
 10
0.0
 20
0.0
 30
0.0
  3
*D14
  1
*D15
  0
LINE
  5
28E
330
28B
100
AcDbEntity
  8
文字
 62
     0
370
    -2
100
AcDbLine
 10
89.47732681195568
 20
65.11205925862987
 30
0.0
 11
139.4130421070759
 21
65.11205925862987
 31
0.0
  0
LINE
  5
28F
330
28B
100
AcDbEntity
  8
文字
 62
     0
370
    -2
100
AcDbLine
 10
134.4773268119557
 20
40.1120592586298
 30
0.0
 11
139.4130421070759
 21
40.1120592586298
 31
0.0
  0
LINE
  5
290
330
28B
100
AcDbEntity
  8
文字
 62
     0
370
    -2
100
AcDbLine
 10
138.1630421070759
 20
62.61205925862987
 30
0.0
 11
138.1630421070759
 21
42.6120592586298
 31
0.0
  0
SOLID
  5
291
330
28B
100
AcDbEntity
  8
文字
 62
     0
100
AcDbTrace
 10
138.5797087737425
 20
62.61205925862987
 30
0.0
 11
137.7463754404092
 21
62.61205925862987
 31
0.0
 12
138.1630421070759
 22
65.11205925862987
 32
0.0
 13
138.1630421070759
 23
65.11205925862987
 33
0.0
  0
SOLID
  5
292
330
28B
100
AcDbEntity
  8
文字
 62
     0
100
AcDbTrace
 10
137.7463754404092
 20
42.6120592586298
 30
0.0
 11
138.5797087737425
 21
42.6120592586298
 31
0.0
 12
138.1630421070759
 22
40.1120592586298
 32
0.0
 13
138.1630421070759
 23
40.1120592586298
 33
0.0
  0
MTEXT
  5
293
330
28B
100
AcDbEntity
  8
文字
 62
     0
100
AcDbMText
 10
136.2829261452751
 20
52.61205925862983
 30
0.0
 40
2.5
 41
0.0
 46
0.0
 71
     5
 72
     1
  1
24
 11
0.0
 21
1.0
 31
0.0
 73
     1
 44
1.0
  0
POINT
  5
294
330
28B
100
AcDbEntity
  8
Defpoints
 62
     0
100
AcDbPoint
 10
88.85232681195568
 20
65.11205925862987
 30
0.0
  0
POINT
  5
295
330
28B
100
AcDbEntity
  8
Defpoints
 62
     0
100
AcDbPoint
 10
133.8523268119557
 20
40.1120592586298
 30
0.0
  0
POINT
  5
296
330
28B
100
AcDbEntity
  8
Defpoints
 62
     0
100
AcDbPoint
 10
138.1630421070759
 20
40.1120592586298
 30
0.0
  0
ENDBLK
  5
28D
330
28B
100
AcDbEntity
  8
0
100
AcDbBlockEnd
  0
BLOCK
  5
298
330
297
100
AcDbEntity
  8
0
100
AcDbBlockBegin
  2
*D15
 70
     1
 10
0.0
 20
0.0
 30
0.0
  3
*D15
  1
*D16
  0
LINE
  5
29A
330
297
100
AcDbEntity
  8
文字
 62
     0
370
    -2
100
AcDbLine
 10
100.2773268119557
 20
80.11205925862987
 30
0.0
 11
139.4130421070759
 21
80.11205925862987
 31
0.0
  0
LINE
  5
29B
330
297
100
AcDbEntity
  8
文字
 62
     0
370
    -2
100
AcDbLine
 10
95.07732681195571
 20
65.11205925862987
 30
0.0
 11
139.4130421070759
 21
65.11205925862987
 31
0.0
  0
LINE
  5
29C
330
297
100
AcDbEntity
  8
文字
 62
     0
370
    -2
100
AcDbLine
 10
138.1630421070759
 20
77.61205925862987
 30
0.0
 11
138.1630421070759
 21
67.61205925862987
 31
0.0
  0
SOLID
  5
29D
330
297
100
AcDbEntity
  8
文字
 62
     0
100
AcDbTrace
 10
138.5797087737425
 20
77.61205925862987
 30
0.0
 11
137.7463754404092
 21
77.61205925862987
 31
0.0
 12
138.1630421070759
 22
80.11205925862987
 32
0.0
 13
138.1630421070759
 23
80.11205925862987
 33
0.0
  0
SOLID
  5
29E
330
297
100
AcDbEntity
  8
文字
 62
     0
100
AcDbTrace
 10
137.7463754404092
 20
67.61205925862987
 30
0.0
 11
138.5797087737425
 21
67.61205925862987
 31
0.0
 12
138.1630421070759
 22
65.11205925862987
 32
0.0
 13
138.1630421070759
 23
65.11205925862987
 33
0.0
  0
MTEXT
  5
29F
330
297
100
AcDbEntity
  8
文字
 62
     0
100
AcDbMText
 10
136.2624622980718
 20
72.61205925862987
 30
0.0
 40
2.5
 41
0.0
 46
0.0
 71
     5
 72
     1
  1
15
 11
0.0
 21
1.0
 31
0.0
 73
     1
 44
1.0
  0
POINT
  5
2A0
330
297
100
AcDbEntity
  8
Defpoints
 62
     0
100
AcDbPoint
 10
99.6523268119557
 20
80.11205925862987
 30
0.0
  0
POINT
  5
2A1
330
297
100
AcDbEntity
  8
Defpoints
 62
     0
100
AcDbPoint
 10
94.45232681195571
 20
65.11205925862987
 30
0.0
  0
POINT
  5
2A2
330
297
100
AcDbEntity
  8
Defpoints
 62
     0
100
AcDbPoint
 10
138.1630421070759
 20
65.11205925862987
 30
0.0
  0
ENDBLK
  5
299
330
297
100
AcDbEntity
  8
0
100
AcDbBlockEnd
  0
BLOCK
  5
2A4
330
2A3
100
AcDbEntity
  8
0
100
AcDbBlockBegin
  2
*D16
 70
     1
 10
0.0
 20
0.0
 30
0.0
  3
*D16
  1
*D17
  0
LINE
  5
2A6
330
2A3
100
AcDbEntity
  8
文字
 62
     0
370
    -2
100
AcDbLine
 10
100.9023268119557
 20
80.11205925862987
 30
0.0
 11
139.4130421070759
 21
80.11205925862987
 31
0.0
  0
LINE
  5
2A7
330
2A3
100
AcDbEntity
  8
文字
 62
     0
370
    -2
100
AcDbLine
 10
88.47732681195569
 20
180.1120592586299
 30
0.0
 11
139.4130421070759
 21
180.1120592586299
 31
0.0
  0
LINE
  5
2A8
330
2A3
100
AcDbEntity
  8
文字
 62
     0
370
    -2
100
AcDbLine
 10
138.1630421070759
 20
82.61205925862987
 30
0.0
 11
138.1630421070759
 21
177.6120592586299
 31
0.0
  0
SOLID
  5
2A9
330
2A3
100
AcDbEntity
  8
文字
 62
     0
100
AcDbTrace
 10
137.7463754404093
 20
82.61205925862987
 30
0.0
 11
138.5797087737426
 21
82.61205925862987
 31
0.0
 12
138.1630421070759
 22
80.11205925862987
 32
0.0
 13
138.1630421070759
 23
80.11205925862987
 33
0.0
  0
SOLID
  5
2AA
330
2A3
100
AcDbEntity
  8
文字
 62
     0
100
AcDbTrace
 10
138.5797087737426
 20
177.6120592586299
 30
0.0
 11
137.7463754404093
 21
177.6120592586299
 31
0.0
 12
138.1630421070759
 22
180.1120592586299
 32
0.0
 13
138.1630421070759
 23
180.1120592586299
 33
0.0
  0
MTEXT
  5
2AB
330
2A3
100
AcDbEntity
  8
文字
 62
     0
100
AcDbMText
 10
136.2624622980719
 20
130.1120592586299
 30
0.0
 40
2.5
 41
0.0
 46
0.0
 71
     5
 72
     1
  1
150
 11
0.0
 21
1.0
 31
0.0
 73
     1
 44
1.0
  0
POINT
  5
2AC
330
2A3
100
AcDbEntity
  8
Defpoints
 62
     0
100
AcDbPoint
 10
100.2773268119557
 20
80.11205925862987
 30
0.0
  0
POINT
  5
2AD
330
2A3
100
AcDbEntity
  8
Defpoints
 62
     0
100
AcDbPoint
 10
87.85232681195569
 20
180.1120592586299
 30
0.0
  0
POINT
  5
2AE
330
2A3
100
AcDbEntity
  8
Defpoints
 62
     0
100
AcDbPoint
 10
138.1630421070759
 20
180.1120592586299
 30
0.0
  0
ENDBLK
  5
2A5
330
2A3
100
AcDbEntity
  8
0
100
AcDbBlockEnd
  0
BLOCK
  5
2B0
330
2AF
100
AcDbEntity
  8
0
100
AcDbBlockBegin
  2
*D17
 70
     1
 10
0.0
 20
0.0
 30
0.0
  3
*D17
  1
*D18
  0
LINE
  5
2B2
330
2AF
100
AcDbEntity
  8
文字
 62
     0
370
    -2
100
AcDbLine
 10
182.615653253302
 20
140.8218442530927
 30
0.0
 11
182.615653253302
 21
62.58481484246482
 31
0.0
  0
LINE
  5
2B3
330
2AF
100
AcDbEntity
  8
文字
 62
     0
370
    -2
100
AcDbLine
 10
252.615653253302
 20
140.8218442530927
 30
0.0
 11
252.615653253302
 21
62.58481484246482
 31
0.0
  0
LINE
  5
2B4
330
2AF
100
AcDbEntity
  8
文字
 62
     0
370
    -2
100
AcDbLine
 10
185.115653253302
 20
63.83481484246482
 30
0.0
 11
250.115653253302
 21
63.83481484246482
 31
0.0
  0
SOLID
  5
2B5
330
2AF
100
AcDbEntity
  8
文字
 62
     0
100
AcDbTrace
 10
185.115653253302
 20
64.2514815091315
 30
0.0
 11
185.115653253302
 21
63.41814817579816
 31
0.0
 12
182.615653253302
 22
63.83481484246482
 32
0.0
 13
182.615653253302
 23
63.83481484246482
 33
0.0
  0
SOLID
  5
2B6
330
2AF
100
AcDbEntity
  8
文字
 62
     0
100
AcDbTrace
 10
250.115653253302
 20
63.41814817579816
 30
0.0
 11
250.115653253302
 21
64.2514815091315
 31
0.0
 12
252.615653253302
 22
63.83481484246482
 32
0.0
 13
252.615653253302
 23
63.83481484246482
 33
0.0
  0
MTEXT
  5
2B7
330
2AF
100
AcDbEntity
  8
文字
 62
     0
100
AcDbMText
 10
217.615653253302
 20
65.78314362827656
 30
0.0
 40
2.5
 41
0.0
 46
0.0
 71
     5
 72
     1
  1
%%c70
 73
     1
 44
1.0
  0
POINT
  5
2B8
330
2AF
100
AcDbEntity
  8
Defpoints
 62
     0
100
AcDbPoint
 10
182.615653253302
 20
141.4468442530927
 30
0.0
  0
POINT
  5
2B9
330
2AF
100
AcDbEntity
  8
Defpoints
 62
     0
100
AcDbPoint
 10
252.615653253302
 20
141.4468442530927
 30
0.0
  0
POINT
  5
2BA
330
2AF
100
AcDbEntity
  8
Defpoints
 62
     0
100
AcDbPoint
 10
252.615653253302
 20
63.83481484246482
 30
0.0
  0
ENDBLK
  5
2B1
330
2AF
100
AcDbEntity
  8
0
100
AcDbBlockEnd
  0
BLOCK
  5
2BC
330
2BB
100
AcDbEntity
  8
0
100
AcDbBlockBegin
  2
*D18
 70
     1
 10
0.0
 20
0.0
 30
0.0
  3
*D18
  1
*D19
  0
LINE
  5
2BE
330
2BB
100
AcDbEntity
  8
文字
 62
     0
370
    -2
100
AcDbLine
 10
32.85232681195569
 20
39.48705925862987
 30
0.0
 11
32.85232681195569
 21
27.81005668445647
 31
0.0
  0
LINE
  5
2BF
330
2BB
100
AcDbEntity
  8
文字
 62
     0
370
    -2
100
AcDbLine
 10
124.8523268119557
 20
39.48705925862981
 30
0.0
 11
124.8523268119557
 21
27.81005668445647
 31
0.0
  0
LINE
  5
2C0
330
2BB
100
AcDbEntity
  8
文字
 62
     0
370
    -2
100
AcDbLine
 10
35.35232681195569
 20
29.06005668445647
 30
0.0
 11
122.3523268119557
 21
29.06005668445647
 31
0.0
  0
SOLID
  5
2C1
330
2BB
100
AcDbEntity
  8
文字
 62
     0
100
AcDbTrace
 10
35.35232681195569
 20
29.47672335112314
 30
0.0
 11
35.35232681195569
 21
28.6433900177898
 31
0.0
 12
32.85232681195569
 22
29.06005668445647
 32
0.0
 13
32.85232681195569
 23
29.06005668445647
 33
0.0
  0
SOLID
  5
2C2
330
2BB
100
AcDbEntity
  8
文字
 62
     0
100
AcDbTrace
 10
122.3523268119557
 20
28.6433900177898
 30
0.0
 11
122.3523268119557
 21
29.47672335112314
 31
0.0
 12
124.8523268119557
 22
29.06005668445647
 32
0.0
 13
124.8523268119557
 23
29.06005668445647
 33
0.0
  0
MTEXT
  5
2C3
330
2BB
100
AcDbEntity
  8
文字
 62
     0
100
AcDbMText
 10
78.85232681195569
 20
30.96063649346056
 30
0.0
 40
2.5
 41
0.0
 46
0.0
 71
     5
 72
     1
  1
92
 73
     1
 44
1.0
  0
POINT
  5
2C4
330
2BB
100
AcDbEntity
  8
Defpoints
 62
     0
100
AcDbPoint
 10
32.85232681195569
 20
40.11205925862987
 30
0.0
  0
POINT
  5
2C5
330
2BB
100
AcDbEntity
  8
Defpoints
 62
     0
100
AcDbPoint
 10
124.8523268119557
 20
40.11205925862981
 30
0.0
  0
POINT
  5
2C6
330
2BB
100
AcDbEntity
  8
Defpoints
 62
     0
100
AcDbPoint
 10
124.8523268119557
 20
29.06005668445647
 30
0.0
  0
ENDBLK
  5
2BD
330
2BB
100
AcDbEntity
  8
0
100
AcDbBlockEnd
  0
BLOCK
  5
31A
330
319
100
AcDbEntity
  8
0
100
AcDbBlockBegin
  2
*D19
 70
     1
 10
0.0
 20
0.0
 30
0.0
  3
*D19
  1
*D20
  0
LINE
  5
31B
330
319
100
AcDbEntity
  8
文字
 62
     0
370
    -2
100
AcDbLine
 10
0.0
 20
91.56393928915597
 30
0.0
 11
0.0
 21
0.0
 31
0.0
  0
LINE
  5
31C
330
319
100
AcDbEntity
  8
文字
 62
     0
370
    -2
100
AcDbLine
 10
92.00000000000006
 20
91.56393928915591
 30
0.0
 11
92.00000000000006
 21
0.0
 31
0.0
  0
LINE
  5
31D
330
319
100
AcDbEntity
  8
文字
 62
     0
370
    -2
100
AcDbLine
 10
2.5
 20
1.25
 30
0.0
 11
89.50000000000006
 21
1.25
 31
0.0
  0
SOLID
  5
31E
330
319
100
AcDbEntity
  8
文字
 62
     0
100
AcDbTrace
 10
2.5
 20
1.666666666666667
 30
0.0
 11
2.5
 21
0.8333333333333333
 31
0.0
 12
0.0
 22
1.25
 32
0.0
 13
0.0
 23
1.25
 33
0.0
  0
SOLID
  5
31F
330
319
100
AcDbEntity
  8
文字
 62
     0
100
AcDbTrace
 10
89.50000000000006
 20
0.8333333333333333
 30
0.0
 11
89.50000000000006
 21
1.666666666666667
 31
0.0
 12
92.00000000000006
 22
1.25
 32
0.0
 13
92.00000000000006
 23
1.25
 33
0.0
  0
MTEXT
  5
320
330
319
100
AcDbEntity
  8
文字
 62
     0
100
AcDbMText
 10
45.90290085754964
 20
3.15125
 30
0.0
 40
2.5
 41
0.0
 46
0.0
 71
     5
 72
     1
  1
92
 73
     1
 44
1.0
  0
POINT
  5
321
330
319
100
AcDbEntity
  8
Defpoints
 62
     0
100
AcDbPoint
 10
0.0
 20
92.18893928915597
 30
0.0
  0
POINT
  5
322
330
319
100
AcDbEntity
  8
Defpoints
 62
     0
100
AcDbPoint
 10
92.00000000000006
 20
92.18893928915591
 30
0.0
  0
POINT
  5
323
330
319
100
AcDbEntity
  8
Defpoints
 62
     0
100
AcDbPoint
 10
92.00000000000006
 20
1.25
 30
0.0
  0
ENDBLK
  5
324
330
319
100
AcDbEntity
  8
0
100
AcDbBlockEnd
  0
BLOCK
  5
32B
330
32A
100
AcDbEntity
  8
0
100
AcDbBlockBegin
  2
*D20
 70
     1
 10
0.0
 20
0.0
 30
0.0
  3
*D20
  1
*D21
  0
LINE
  5
32D
330
32A
100
AcDbEntity
  8
文字
 62
     0
370
    -2
100
AcDbLine
 10
171.7131721415268
 20
141.3309465325611
 30
0.0
 11
171.7131721415268
 21
49.76700724340509
 31
0.0
  0
LINE
  5
32E
330
32A
100
AcDbEntity
  8
文字
 62
     0
370
    -2
100
AcDbLine
 10
263.7131721415269
 20
141.330946532561
 30
0.0
 11
263.7131721415269
 21
49.76700724340509
 31
0.0
  0
LINE
  5
32F
330
32A
100
AcDbEntity
  8
文字
 62
     0
370
    -2
100
AcDbLine
 10
174.2131721415268
 20
51.01700724340509
 30
0.0
 11
261.2131721415269
 21
51.01700724340509
 31
0.0
  0
SOLID
  5
330
330
32A
100
AcDbEntity
  8
文字
 62
     0
100
AcDbTrace
 10
174.2131721415268
 20
51.43367391007175
 30
0.0
 11
174.2131721415268
 21
50.60034057673843
 31
0.0
 12
171.7131721415268
 22
51.01700724340509
 32
0.0
 13
171.7131721415268
 23
51.01700724340509
 33
0.0
  0
SOLID
  5
331
330
32A
100
AcDbEntity
  8
文字
 62
     0
100
AcDbTrace
 10
261.2131721415269
 20
50.60034057673843
 30
0.0
 11
261.2131721415269
 21
51.43367391007175
 31
0.0
 12
263.7131721415269
 22
51.01700724340509
 32
0.0
 13
263.7131721415269
 23
51.01700724340509
 33
0.0
  0
MTEXT
  5
332
330
32A
100
AcDbEntity
  8
文字
 62
     0
100
AcDbMText
 10
217.6160729990765
 20
52.91825724340509
 30
0.0
 40
2.5
 41
0.0
 46
0.0
 71
     5
 72
     1
  1
92
 73
     1
 44
1.0
  0
POINT
  5
333
330
32A
100
AcDbEntity
  8
Defpoints
 62
     0
100
AcDbPoint
 10
171.7131721415268
 20
141.9559465325611
 30
0.0
  0
POINT
  5
334
330
32A
100
AcDbEntity
  8
Defpoints
 62
     0
100
AcDbPoint
 10
263.7131721415269
 20
141.955946532561
 30
0.0
  0
POINT
  5
335
330
32A
100
AcDbEntity
  8
Defpoints
 62
     0
100
AcDbPoint
 10
263.7131721415269
 20
51.01700724340509
 30
0.0
  0
ENDBLK
  5
32C
330
32A
100
AcDbEntity
  8
0
100
AcDbBlockEnd
  0
BLOCK
  5
38F
330
38E
100
AcDbEntity
  8
0
100
AcDbBlockBegin
  2
*D21
 70
     1
 10
0.0
 20
0.0
 30
0.0
  3
*D21
  1
*D23
  0
LINE
  5
390
330
38E
100
AcDbEntity
  8
文字
 62
     0
370
    -2
100
AcDbLine
 10
8.383163109504936
 20
16.55336353732383
 30
0.0
 11
8.383163109504935
 21
0.0
 31
0.0
  0
LINE
  5
391
330
38E
100
AcDbEntity
  8
文字
 62
     0
370
    -2
100
AcDbLine
 10
118.3831631095049
 20
16.55336353732375
 30
0.0
 11
118.3831631095049
 21
0.0
 31
0.0
  0
LINE
  5
392
330
38E
100
AcDbEntity
  8
文字
 62
     0
370
    -2
100
AcDbLine
 10
10.88316310950493
 20
1.25
 30
0.0
 11
115.8831631095049
 21
1.25
 31
0.0
  0
SOLID
  5
393
330
38E
100
AcDbEntity
  8
文字
 62
     0
100
AcDbTrace
 10
10.88316310950493
 20
1.666666666666667
 30
0.0
 11
10.88316310950493
 21
0.8333333333333333
 31
0.0
 12
8.383163109504935
 22
1.25
 32
0.0
 13
8.383163109504935
 23
1.25
 33
0.0
  0
SOLID
  5
394
330
38E
100
AcDbEntity
  8
文字
 62
     0
100
AcDbTrace
 10
115.8831631095049
 20
0.8333333333333333
 30
0.0
 11
115.8831631095049
 21
1.666666666666667
 31
0.0
 12
118.3831631095049
 22
1.25
 32
0.0
 13
118.3831631095049
 23
1.25
 33
0.0
  0
MTEXT
  5
395
330
38E
100
AcDbEntity
  8
文字
 62
     0
100
AcDbMText
 10
63.38316310950493
 20
3.19625
 30
0.0
 40
2.5
 41
0.0
 46
0.0
 71
     5
 72
     1
  1
%%c110
 73
     1
 44
1.0
  0
POINT
  5
396
330
38E
100
AcDbEntity
  8
Defpoints
 62
     0
100
AcDbPoint
 10
8.383163109504936
 20
17.17836353732383
 30
0.0
  0
POINT
  5
397
330
38E
100
AcDbEntity
  8
Defpoints
 62
     0
100
AcDbPoint
 10
118.3831631095049
 20
17.17836353732375
 30
0.0
  0
POINT
  5
398
330
38E
100
AcDbEntity
  8
Defpoints
 62
     0
100
AcDbPoint
 10
118.3831631095049
 20
1.25
 30
0.0
  0
ENDBLK
  5
399
330
38E
100
AcDbEntity
  8
0
100
AcDbBlockEnd
  0
BLOCK
  5
3A1
330
3A0
100
AcDbEntity
  8
0
100
AcDbBlockBegin
  2
*D22
 70
     1
 10
0.0
 20
0.0
 30
0.0
  3
*D22
  1
*D24
  0
LINE
  5
3A2
330
3A0
100
AcDbEntity
  8
文字
 62
     0
370
    -2
100
AcDbLine
 10
8.687381080260801
 20
16.86050580085482
 30
0.0
 11
1.885000000000003
 21
16.86050580085482
 31
0.0
  0
LINE
  5
3A3
330
3A0
100
AcDbEntity
  8
文字
 62
     0
370
    -2
100
AcDbLine
 10
8.939413356237479
 20
18.86347160231849
 30
0.0
 11
1.885000000000003
 21
18.86347160231849
 31
0.0
  0
LINE
  5
3A4
330
3A0
100
AcDbEntity
  8
文字
 62
     0
370
    -2
100
AcDbLine
 10
3.135000000000003
 20
18.86347160231849
 30
0.0
 11
3.135000000000003
 21
36.80852866002137
 31
0.0
  0
LINE
  5
3A5
330
3A0
100
AcDbEntity
  8
文字
 62
     0
370
    -2
100
AcDbLine
 10
3.135000000000003
 20
16.86050580085482
 30
0.0
 11
3.135000000000003
 21
18.86347160231849
 31
0.0
  0
LINE
  5
3A6
330
3A0
100
AcDbEntity
  8
文字
 62
     0
370
    -2
100
AcDbLine
 10
3.135000000000003
 20
14.36050580085482
 30
0.0
 11
3.135000000000003
 21
11.86050580085482
 31
0.0
  0
LINE
  5
3A7
330
3A0
100
AcDbEntity
  8
文字
 62
     0
370
    -2
100
AcDbLine
 10
3.135000000000003
 20
21.36347160231849
 30
0.0
 11
3.135000000000003
 21
23.86347160231849
 31
0.0
  0
SOLID
  5
3A8
330
3A0
100
AcDbEntity
  8
文字
 62
     0
100
AcDbTrace
 10
3.55166666666667
 20
14.36050580085482
 30
0.0
 11
2.718333333333337
 21
14.36050580085482
 31
0.0
 12
3.135000000000003
 22
16.86050580085482
 32
0.0
 13
3.135000000000003
 23
16.86050580085482
 33
0.0
  0
SOLID
  5
3A9
330
3A0
100
AcDbEntity
  8
文字
 62
     0
100
AcDbTrace
 10
2.718333333333337
 20
21.36347160231849
 30
0.0
 11
3.55166666666667
 21
21.36347160231849
 31
0.0
 12
3.135000000000003
 22
18.86347160231849
 32
0.0
 13
3.135000000000003
 23
18.86347160231849
 33
0.0
  0
MTEXT
  5
3AA
330
3A0
100
AcDbEntity
  8
文字
 62
     0
100
AcDbMText
 10
1.255000000000001
 20
35.35727866002136
 30
0.0
 40
2.5
 41
0.0
 46
0.0
 71
     5
 72
     1
  1
2
 11
0.0
 21
1.0
 31
0.0
 73
     1
 44
1.0
  0
POINT
  5
3AB
330
3A0
100
AcDbEntity
  8
Defpoints
 62
     0
100
AcDbPoint
 10
9.312381080260801
 20
16.86050580085482
 30
0.0
  0
POINT
  5
3AC
330
3A0
100
AcDbEntity
  8
Defpoints
 62
     0
100
AcDbPoint
 10
9.564413356237479
 20
18.86347160231849
 30
0.0
  0
POINT
  5
3AD
330
3A0
100
AcDbEntity
  8
Defpoints
 62
     0
100
AcDbPoint
 10
3.135000000000003
 20
18.86347160231849
 30
0.0
  0
ENDBLK
  5
3AE
330
3A0
100
AcDbEntity
  8
0
100
AcDbBlockEnd
  0
BLOCK
  5
3B2
330
3B1
100
AcDbEntity
  8
0
100
AcDbBlockBegin
  2
*D23
 70
     1
 10
0.0
 20
0.0
 30
0.0
  3
*D23
  1
*D25
  0
LINE
  5
3B3
330
3B1
100
AcDbEntity
  8
文字
 62
     0
370
    -2
100
AcDbLine
 10
74.0862214051943
 20
40.90662797507842
 30
0.0
 11
124.0219367003145
 21
40.90662797507842
 31
0.0
  0
LINE
  5
3B4
330
3B1
100
AcDbEntity
  8
文字
 62
     0
370
    -2
100
AcDbLine
 10
117.0807129034715
 20
16.90815502622267
 30
0.0
 11
124.0219367003145
 21
16.90815502622267
 31
0.0
  0
LINE
  5
3B5
330
3B1
100
AcDbEntity
  8
文字
 62
     0
370
    -2
100
AcDbLine
 10
122.7719367003145
 20
38.40662797507842
 30
0.0
 11
122.7719367003145
 21
19.40815502622267
 31
0.0
  0
SOLID
  5
3B6
330
3B1
100
AcDbEntity
  8
文字
 62
     0
100
AcDbTrace
 10
123.1886033669812
 20
38.40662797507842
 30
0.0
 11
122.3552700336478
 21
38.40662797507842
 31
0.0
 12
122.7719367003145
 22
40.90662797507842
 32
0.0
 13
122.7719367003145
 23
40.90662797507842
 33
0.0
  0
SOLID
  5
3B7
330
3B1
100
AcDbEntity
  8
文字
 62
     0
100
AcDbTrace
 10
122.3552700336478
 20
19.40815502622267
 30
0.0
 11
123.1886033669812
 21
19.40815502622267
 31
0.0
 12
122.7719367003145
 22
16.90815502622267
 32
0.0
 13
122.7719367003145
 23
16.90815502622267
 33
0.0
  0
MTEXT
  5
3B8
330
3B1
100
AcDbEntity
  8
文字
 62
     0
100
AcDbMText
 10
120.8919367003145
 20
28.90739150065054
 30
0.0
 40
2.5
 41
0.0
 46
0.0
 71
     5
 72
     1
  1
24
 11
0.0
 21
1.0
 31
0.0
 73
     1
 44
1.0
  0
POINT
  5
3B9
330
3B1
100
AcDbEntity
  8
Defpoints
 62
     0
100
AcDbPoint
 10
73.4612214051943
 20
40.90662797507842
 30
0.0
  0
POINT
  5
3BA
330
3B1
100
AcDbEntity
  8
Defpoints
 62
     0
100
AcDbPoint
 10
116.4557129034715
 20
16.90815502622267
 30
0.0
  0
POINT
  5
3BB
330
3B1
100
AcDbEntity
  8
Defpoints
 62
     0
100
AcDbPoint
 10
122.7719367003145
 20
16.90815502622267
 30
0.0
  0
ENDBLK
  5
3BC
330
3B1
100
AcDbEntity
  8
0
100
AcDbBlockEnd
  0
BLOCK
  5
3D7
330
3D6
100
AcDbEntity
  8
0
100
AcDbBlockBegin
  2
*D24
 70
     1
 10
0.0
 20
0.0
 30
0.0
  3
*D24
  1
*D26
  0
LINE
  5
3D9
330
3D6
100
AcDbEntity
  8
文字
 62
     0
370
    -2
100
AcDbLine
 10
23.73592259872139
 20
40.74990297279986
 30
0.0
 11
23.7359225987214
 21
24.19653943547603
 31
0.0
  0
LINE
  5
3DA
330
3D6
100
AcDbEntity
  8
文字
 62
     0
370
    -2
100
AcDbLine
 10
133.7359225987214
 20
40.74990297279979
 30
0.0
 11
133.7359225987214
 21
24.19653943547603
 31
0.0
  0
LINE
  5
3DB
330
3D6
100
AcDbEntity
  8
文字
 62
     0
370
    -2
100
AcDbLine
 10
26.2359225987214
 20
25.44653943547603
 30
0.0
 11
131.2359225987214
 21
25.44653943547603
 31
0.0
  0
SOLID
  5
3DC
330
3D6
100
AcDbEntity
  8
文字
 62
     0
100
AcDbTrace
 10
26.2359225987214
 20
25.8632061021427
 30
0.0
 11
26.2359225987214
 21
25.02987276880937
 31
0.0
 12
23.7359225987214
 22
25.44653943547603
 32
0.0
 13
23.7359225987214
 23
25.44653943547603
 33
0.0
  0
SOLID
  5
3DD
330
3D6
100
AcDbEntity
  8
文字
 62
     0
100
AcDbTrace
 10
131.2359225987214
 20
25.02987276880937
 30
0.0
 11
131.2359225987214
 21
25.8632061021427
 31
0.0
 12
133.7359225987214
 22
25.44653943547603
 32
0.0
 13
133.7359225987214
 23
25.44653943547603
 33
0.0
  0
MTEXT
  5
3DE
330
3D6
100
AcDbEntity
  8
文字
 62
     0
100
AcDbMText
 10
78.73592259872139
 20
27.39278943547603
 30
0.0
 40
2.5
 41
0.0
 46
0.0
 71
     5
 72
     1
  1
%%c110
 73
     1
 44
1.0
  0
POINT
  5
3DF
330
3D6
100
AcDbEntity
  8
Defpoints
 62
     0
100
AcDbPoint
 10
23.73592259872139
 20
41.37490297279986
 30
0.0
  0
POINT
  5
3E0
330
3D6
100
AcDbEntity
  8
Defpoints
 62
     0
100
AcDbPoint
 10
133.7359225987214
 20
41.37490297279979
 30
0.0
  0
POINT
  5
3E1
330
3D6
100
AcDbEntity
  8
Defpoints
 62
     0
100
AcDbPoint
 10
133.7359225987214
 20
25.44653943547603
 30
0.0
  0
ENDBLK
  5
3D8
330
3D6
100
AcDbEntity
  8
0
100
AcDbBlockEnd
  0
BLOCK
  5
3E3
330
3E2
100
AcDbEntity
  8
0
100
AcDbBlockBegin
  2
*D25
 70
     1
 10
0.0
 20
0.0
 30
0.0
  3
*D25
  1
*D27
  0
LINE
  5
3E5
330
3E2
100
AcDbEntity
  8
文字
 62
     0
370
    -2
100
AcDbLine
 10
24.04014056947726
 20
41.05704523633085
 30
0.0
 11
17.23775948921647
 21
41.05704523633085
 31
0.0
  0
LINE
  5
3E6
330
3E2
100
AcDbEntity
  8
文字
 62
     0
370
    -2
100
AcDbLine
 10
24.29217284545394
 20
43.06001103779452
 30
0.0
 11
17.23775948921647
 21
43.06001103779452
 31
0.0
  0
LINE
  5
3E7
330
3E2
100
AcDbEntity
  8
文字
 62
     0
370
    -2
100
AcDbLine
 10
18.48775948921647
 20
43.06001103779452
 30
0.0
 11
18.48775948921647
 21
61.0050680954974
 31
0.0
  0
LINE
  5
3E8
330
3E2
100
AcDbEntity
  8
文字
 62
     0
370
    -2
100
AcDbLine
 10
18.48775948921647
 20
41.05704523633085
 30
0.0
 11
18.48775948921647
 21
43.06001103779452
 31
0.0
  0
LINE
  5
3E9
330
3E2
100
AcDbEntity
  8
文字
 62
     0
370
    -2
100
AcDbLine
 10
18.48775948921647
 20
38.55704523633085
 30
0.0
 11
18.48775948921647
 21
36.05704523633085
 31
0.0
  0
LINE
  5
3EA
330
3E2
100
AcDbEntity
  8
文字
 62
     0
370
    -2
100
AcDbLine
 10
18.48775948921647
 20
45.56001103779452
 30
0.0
 11
18.48775948921647
 21
48.06001103779452
 31
0.0
  0
SOLID
  5
3EB
330
3E2
100
AcDbEntity
  8
文字
 62
     0
100
AcDbTrace
 10
18.90442615588313
 20
38.55704523633085
 30
0.0
 11
18.0710928225498
 21
38.55704523633085
 31
0.0
 12
18.48775948921647
 22
41.05704523633085
 32
0.0
 13
18.48775948921647
 23
41.05704523633085
 33
0.0
  0
SOLID
  5
3EC
330
3E2
100
AcDbEntity
  8
文字
 62
     0
100
AcDbTrace
 10
18.0710928225498
 20
45.56001103779452
 30
0.0
 11
18.90442615588313
 21
45.56001103779452
 31
0.0
 12
18.48775948921647
 22
43.06001103779452
 32
0.0
 13
18.48775948921647
 23
43.06001103779452
 33
0.0
  0
MTEXT
  5
3ED
330
3E2
100
AcDbEntity
  8
文字
 62
     0
100
AcDbMText
 10
16.60775948921646
 20
59.5538180954974
 30
0.0
 40
2.5
 41
0.0
 46
0.0
 71
     5
 72
     1
  1
2
 11
0.0
 21
1.0
 31
0.0
 73
     1
 44
1.0
  0
POINT
  5
3EE
330
3E2
100
AcDbEntity
  8
Defpoints
 62
     0
100
AcDbPoint
 10
24.66514056947726
 20
41.05704523633085
 30
0.0
  0
POINT
  5
3EF
330
3E2
100
AcDbEntity
  8
Defpoints
 62
     0
100
AcDbPoint
 10
24.91717284545394
 20
43.06001103779452
 30
0.0
  0
POINT
  5
3F0
330
3E2
100
AcDbEntity
  8
Defpoints
 62
     0
100
AcDbPoint
 10
18.48775948921647
 20
43.06001103779452
 30
0.0
  0
ENDBLK
  5
3E4
330
3E2
100
AcDbEntity
  8
0
100
AcDbBlockEnd
  0
BLOCK
  5
3F2
330
3F1
100
AcDbEntity
  8
0
100
AcDbBlockBegin
  2
*D26
 70
     1
 10
0.0
 20
0.0
 30
0.0
  3
*D26
  1
*D28
  0
LINE
  5
3F4
330
3F1
100
AcDbEntity
  8
文字
 62
     0
370
    -2
100
AcDbLine
 10
89.43898089441075
 20
65.10316741055445
 30
0.0
 11
139.374696189531
 21
65.10316741055445
 31
0.0
  0
LINE
  5
3F5
330
3F1
100
AcDbEntity
  8
文字
 62
     0
370
    -2
100
AcDbLine
 10
132.4334723926879
 20
41.1046944616987
 30
0.0
 11
139.374696189531
 21
41.1046944616987
 31
0.0
  0
LINE
  5
3F6
330
3F1
100
AcDbEntity
  8
文字
 62
     0
370
    -2
100
AcDbLine
 10
138.124696189531
 20
62.60316741055445
 30
0.0
 11
138.124696189531
 21
43.6046944616987
 31
0.0
  0
SOLID
  5
3F7
330
3F1
100
AcDbEntity
  8
文字
 62
     0
100
AcDbTrace
 10
138.5413628561976
 20
62.60316741055445
 30
0.0
 11
137.7080295228643
 21
62.60316741055445
 31
0.0
 12
138.124696189531
 22
65.10316741055445
 32
0.0
 13
138.124696189531
 23
65.10316741055445
 33
0.0
  0
SOLID
  5
3F8
330
3F1
100
AcDbEntity
  8
文字
 62
     0
100
AcDbTrace
 10
137.7080295228643
 20
43.6046944616987
 30
0.0
 11
138.5413628561976
 21
43.6046944616987
 31
0.0
 12
138.124696189531
 22
41.1046944616987
 32
0.0
 13
138.124696189531
 23
41.1046944616987
 33
0.0
  0
MTEXT
  5
3F9
330
3F1
100
AcDbEntity
  8
文字
 62
     0
100
AcDbMText
 10
136.244696189531
 20
53.10393093612657
 30
0.0
 40
2.5
 41
0.0
 46
0.0
 71
     5
 72
     1
  1
24
 11
0.0
 21
1.0
 31
0.0
 73
     1
 44
1.0
  0
POINT
  5
3FA
330
3F1
100
AcDbEntity
  8
Defpoints
 62
     0
100
AcDbPoint
 10
88.81398089441075
 20
65.10316741055445
 30
0.0
  0
POINT
  5
3FB
330
3F1
100
AcDbEntity
  8
Defpoints
 62
     0
100
AcDbPoint
 10
131.8084723926879
 20
41.1046944616987
 30
0.0
  0
POINT
  5
3FC
330
3F1
100
AcDbEntity
  8
Defpoints
 62
     0
100
AcDbPoint
 10
138.124696189531
 20
41.1046944616987
 30
0.0
  0
ENDBLK
  5
3F3
330
3F1
100
AcDbEntity
  8
0
100
AcDbBlockEnd
  0
ENDSEC
  0
SECTION
  2
ENTITIES
  0
LINE
  5
20A
330
1F
100
AcDbEntity
  8
中心線
100
AcDbLine
 10
78.85232681195569
 20
35.11205925862987
 30
0.0
 11
78.85232681195569
 21
188.2040565819084
 31
0.0
  0
LWPOLYLINE
  5
20B
102
{ACAD_REACTORS
330
244
102
}
330
1F
100
AcDbEntity
  8
実線
100
AcDbPolyline
 90
        4
 70
     0
 43
0.0
 10
99.6523268119557
 20
67.11205925862986
 10
99.6523268119557
 20
80.11205925862987
 10
58.05232681195569
 20
80.11205925862987
 10
58.05232681195569
 20
67.11205925862987
  0
ARC
  5
20C
330
1F
100
AcDbEntity
  8
実線
100
AcDbCircle
 10
63.2523268119557
 20
72.87205925862985
 30
0.0
 40
7.759999999999985
100
AcDbArc
 50
227.9249779491562
 51
312.0750220508438
  0
ARC
  5
20D
330
1F
100
AcDbEntity
  8
実線
100
AcDbCircle
 10
78.8523268119557
 20
93.15205925862993
 30
0.0
 40
28.04000000000006
100
AcDbArc
 50
248.2289458906826
 51
291.7710541093174
  0
ARC
  5
20E
330
1F
100
AcDbEntity
  8
実線
100
AcDbCircle
 10
94.45232681195571
 20
72.87205925862986
 30
0.0
 40
7.759999999999995
100
AcDbArc
 50
227.9249779491563
 51
312.0750220508437
  0
LINE
  5
20F
330
1F
100
AcDbEntity
  8
実線
100
AcDbLine
 10
68.45232681195573
 20
67.11205925862986
 30
0.0
 11
68.45232681195573
 21
80.11205925862987
 31
0.0
  0
LINE
  5
210
330
1F
100
AcDbEntity
  8
実線
100
AcDbLine
 10
89.25232681195571
 20
67.11205925862987
 30
0.0
 11
89.25232681195571
 21
80.11205925862987
 31
0.0
  0
LWPOLYLINE
  5
211
102
{ACAD_REACTORS
330
244
102
}
330
1F
100
AcDbEntity
  8
実線
100
AcDbPolyline
 90
        2
 70
     0
 43
0.0
 10
63.2523268119557
 20
65.11205925862987
 10
94.45232681195571
 20
65.11205925862987
  0
LWPOLYLINE
  5
212
330
1F
100
AcDbEntity
  8
実線
100
AcDbPolyline
 90
        4
 70
     1
 43
0.0
 10
78.85232681195569
 20
80.11205925862987
 10
66.85232681195569
 20
80.11205925862987
 10
66.85232681195569
 20
80.11205925862987
 10
78.85232681195569
 20
80.11205925862987
  0
LWPOLYLINE
  5
213
330
1F
100
AcDbEntity
  8
実線
100
AcDbPolyline
 90
        6
 70
     0
 43
0.0
 10
90.85232681195569
 20
139.3496635656639
 10
90.85232681195569
 20
177.1120592586299
 10
87.85232681195569
 20
180.1120592586299
 10
69.85232681195569
 20
180.1120592586299
 10
66.85232681195569
 20
177.1120592586299
 10
66.85232681195569
 20
125.4932571051129
  0
LINE
  5
214
102
{ACAD_REACTORS
330
219
102
}
330
1F
100
AcDbEntity
  8
実線
370
    20
100
AcDbLine
 10
66.85232681195569
 20
177.1120592586299
 30
0.0
 11
90.85232681195569
 21
177.1120592586299
 31
0.0
  0
LINE
  5
215
330
1F
100
AcDbEntity
  8
実線
370
    20
100
AcDbLine
 10
69.85232681195569
 20
180.1120592586299
 30
0.0
 11
69.85232681195568
 21
127.2253079126817
 31
0.0
  0
LINE
  5
216
102
{ACAD_REACTORS
330
247
102
}
330
1F
100
AcDbEntity
  8
実線
370
    20
100
AcDbLine
 10
87.85232681195569
 20
180.1120592586299
 30
0.0
 11
87.85232681195568
 21
137.617612758095
 31
0.0
  0
DIMENSION
  5
217
102
{ACAD_REACTORS
330
219
102
}
102
{ACAD_XDICTIONARY
360
218
102
}
330
1F
100
AcDbEntity
  8
文字
100
AcDbDimension
280
     0
  2
*D10
 10
90.85232681195569
 20
196.1714417662193
 30
0.0
 11
78.85232681195569
 21
198.0515577280202
 31
0.0
 70
    32
  1
{\fArial|b0|i0|c0|p32;M}<>
 71
     5
 42
24.0
 73
     0
 74
     0
 75
     0
  3
ISO-25
100
AcDbAlignedDimension
 13
66.85232681195569
 23
177.1120592586299
 33
0.0
 14
90.85232681195569
 24
177.1120592586299
 34
0.0
100
AcDbRotatedDimension
  0
LWPOLYLINE
  5
21A
102
{ACAD_REACTORS
330
21F
102
}
330
1F
100
AcDbEntity
  8
実線
100
AcDbPolyline
 90
        6
 70
     1
 43
0.0
 10
235.6289816520184
 20
151.8468442530927
 10
217.615653253302
 20
162.2468442530927
 10
199.6023248545857
 20
151.8468442530927
 10
199.6023248545857
 20
131.0468442530927
 10
217.615653253302
 20
120.6468442530927
 10
235.6289816520184
 20
131.0468442530926
  0
CIRCLE
  5
21B
330
1F
100
AcDbEntity
  8
実線
100
AcDbCircle
 10
217.615653253302
 20
141.4468442530927
 30
0.0
 40
12.0
  0
CIRCLE
  5
21C
330
1F
100
AcDbEntity
  8
実線
370
    30
100
AcDbCircle
 10
217.615653253302
 20
141.4468442530927
 30
0.0
 40
9.0
  0
DIMENSION
  5
21D
102
{ACAD_REACTORS
330
21F
102
}
102
{ACAD_XDICTIONARY
360
21E
102
}
330
1F
100
AcDbEntity
  8
文字
100
AcDbDimension
280
     0
  2
*D11
 10
235.6289816520184
 20
74.08393966096963
 30
0.0
 11
217.5373298940305
 21
74.08393966096963
 31
0.0
 70
   160
  1
36
 71
     5
 42
36.02665679743265
 73
     0
 74
     0
 75
     0
  3
ISO-25
100
AcDbAlignedDimension
 13
199.6023248545857
 23
131.0468442530927
 33
0.0
 14
235.6289816520184
 24
131.0468442530926
 34
0.0
100
AcDbRotatedDimension
  0
LINE
  5
220
330
1F
100
AcDbEntity
  8
実線
370
    30
100
AcDbLine
 10
57.86354755533215
 20
117.9941819048566
 30
0.0
 11
100.1649194846621
 21
142.4168903753458
 31
0.0
  0
LINE
  5
221
330
1F
100
AcDbEntity
  8
実線
370
    30
100
AcDbLine
 10
56.86354755533215
 20
119.7262327124255
 30
0.0
 11
99.16491948466211
 21
144.1489411829146
 31
0.0
  0
LINE
  5
222
330
1F
100
AcDbEntity
  8
実線
370
    20
100
AcDbLine
 10
87.85232681195568
 20
135.3082116813365
 30
0.0
 11
87.85232681195568
 21
80.11205925862987
 31
0.0
  0
LINE
  5
223
330
1F
100
AcDbEntity
  8
実線
370
    20
100
AcDbLine
 10
69.85232681195568
 20
124.9159068359232
 30
0.0
 11
69.85232681195568
 21
80.11205925862987
 31
0.0
  0
LWPOLYLINE
  5
224
330
1F
100
AcDbEntity
  8
実線
100
AcDbPolyline
 90
        4
 70
     0
 43
0.0
 10
66.85232681195569
 20
123.1838560283544
 10
66.85232681195569
 20
80.11205925862987
 10
90.85232681195569
 20
80.11205925862987
 10
90.85232681195569
 20
137.0402624889054
  0
LINE
  5
225
330
1F
100
AcDbEntity
  8
実線
100
AcDbLine
 10
68.85232681195568
 20
65.11205925862987
 30
0.0
 11
88.85232681195568
 21
65.11205925862987
 31
0.0
  0
LINE
  5
226
102
{ACAD_REACTORS
330
24C
102
}
330
1F
100
AcDbEntity
  8
中心線
100
AcDbLine
 10
217.615653253302
 20
141.4468442530927
 30
0.0
 11
155.7363490155149
 21
141.4468442530927
 31
0.0
  0
LINE
  5
227
102
{ACAD_REACTORS
330
24C
102
}
330
1F
100
AcDbEntity
  8
中心線
100
AcDbLine
 10
217.615653253302
 20
141.4468442530927
 30
0.0
 11
279.0611778265398
 21
141.4468442530927
 31
0.0
  0
LINE
  5
228
330
1F
100
AcDbEntity
  8
中心線
100
AcDbLine
 10
217.615653253302
 20
215.0448939112759
 30
0.0
 11
217.615653253302
 21
80.45501690425253
 31
0.0
  0
LINE
  5
229
330
1F
100
AcDbEntity
  8
実線
100
AcDbLine
 10
89.35232681195578
 20
65.11205925862981
 30
0.0
 11
68.35232681195566
 21
65.11205925862987
 31
0.0
  0
LINE
  5
23B
330
1F
100
AcDbEntity
  8
実線
370
    30
100
AcDbLine
 10
68.3524750800564
 20
65.11211289299456
 30
0.0
 11
68.3524750800564
 21
65.11211289299456
 31
0.0
  0
DIMENSION
  5
242
102
{ACAD_REACTORS
330
244
102
}
102
{ACAD_XDICTIONARY
360
243
102
}
330
1F
100
AcDbEntity
  8
文字
100
AcDbDimension
280
     0
  2
*D15
 10
138.1630421070759
 20
65.11205925862987
 30
0.0
 11
136.2624622980718
 21
72.61205925862987
 31
0.0
 70
    32
 71
     5
 42
15.0
 73
     0
 74
     0
 75
     0
  3
ISO-25
100
AcDbAlignedDimension
 13
99.6523268119557
 23
80.11205925862987
 33
0.0
 14
94.45232681195571
 24
65.11205925862987
 34
0.0
 50
90.0
100
AcDbRotatedDimension
  0
DIMENSION
  5
245
102
{ACAD_REACTORS
330
247
102
}
102
{ACAD_XDICTIONARY
360
246
102
}
330
1F
100
AcDbEntity
  8
文字
100
AcDbDimension
280
     0
  2
*D16
 10
138.1630421070759
 20
180.1120592586299
 30
0.0
 11
136.2624622980719
 21
130.1120592586299
 31
0.0
 70
    32
  1
150
 71
     5
 42
100.0
 73
     0
 74
     0
 75
     0
  3
ISO-25
100
AcDbAlignedDimension
 13
100.2773268119557
 23
80.11205925862987
 33
0.0
 14
87.85232681195569
 24
180.1120592586299
 34
0.0
 50
90.0
100
AcDbRotatedDimension
  0
CIRCLE
  5
248
102
{ACAD_REACTORS
330
24C
102
}
330
1F
100
AcDbEntity
  8
実線
100
AcDbCircle
 10
217.615653253302
 20
141.4468442530927
 30
0.0
 40
35.0
  0
CIRCLE
  5
249
330
1F
100
AcDbEntity
  8
実線
100
AcDbCircle
 10
217.615653253302
 20
141.4468442530927
 30
0.0
 40
55.0
  0
DIMENSION
  5
24A
102
{ACAD_REACTORS
330
24C
102
}
102
{ACAD_XDICTIONARY
360
24B
102
}
330
1F
100
AcDbEntity
  8
文字
100
AcDbDimension
280
     0
  2
*D17
 10
252.615653253302
 20
63.83481484246482
 30
0.0
 11
217.615653253302
 21
65.78314362827656
 31
0.0
 70
    32
  1
%%c<>
 71
     5
 42
70.0
 73
     0
 74
     0
 75
     0
  3
ISO-25
100
AcDbAlignedDimension
 13
182.615653253302
 23
141.4468442530927
 33
0.0
 14
252.615653253302
 24
141.4468442530927
 34
0.0
100
AcDbRotatedDimension
  0
CIRCLE
  5
24D
330
1F
100
AcDbEntity
  8
実線
100
AcDbCircle
 10
171.615653253302
 20
141.4468442530927
 30
0.0
 40
6.0
  0
CIRCLE
  5
24E
102
{ACAD_REACTORS
330
257
102
}
330
1F
100
AcDbEntity
  8
実線
100
AcDbCircle
 10
263.6156532533021
 20
141.4468442530927
 30
0.0
 40
6.0
  0
MTEXT
  5
254
102
{ACAD_REACTORS
330
255
102
}
330
1F
100
AcDbEntity
  8
文字
100
AcDbMText
 10
275.3795081223936
 20
176.4599576844821
 30
0.0
 40
2.5
 41
20.0
 46
0.0
 71
     7
 72
     1
  1
2-%%c12
 73
     1
 44
1.0
  0
LEADER
  5
255
102
{ACAD_REACTORS
330
257
102
}
102
{ACAD_XDICTIONARY
360
256
102
}
330
1F
100
AcDbEntity
  8
文字
100
AcDbLeader
  3
ISO-25
 73
     0
 74
     0
 40
2.6425
 41
8.8275
 76
     3
 10
263.6156532533021
 20
141.4468442530927
 30
0.0
 10
271.7508344891651
 20
175.8349576844821
 30
0.0
 10
274.7545081223936
 20
175.8349576844821
 30
0.0
340
254
1001
ACAD
1000
DSTYLE
1002
{
1070
   147
1040
0.625
1070
    77
1070
     1
1002
}
  0
MTEXT
  5
2F0
330
1F
100
AcDbEntity
  8
文字・寸法線
 62
     0
100
AcDbMText
 10
54.11153243614673
 20
226.1423193560396
 30
0.0
 40
6.0
 41
0.0
 46
6.0
 71
     9
 72
     1
  1
{\fＭＳ ゴシック|b0|i0|c0|p0;S-G1 M24X150}
 73
     1
 44
1.0
1001
ACAD
1000
ACAD_MTEXT_DEFINED_HEIGHT_BEGIN
1070
    46
1040
6.0
1000
ACAD_MTEXT_DEFINED_HEIGHT_END
  0
DIMENSION
  5
328
102
{ACAD_XDICTIONARY
360
329
102
}
330
1F
100
AcDbEntity
  8
文字
100
AcDbDimension
280
     0
  2
*D20
 10
263.7131721415269
 20
51.01700724340509
 30
0.0
 11
217.6160729990765
 21
51.01700724340509
 31
0.0
 70
   160
 71
     5
 42
92.00000000000009
 73
     0
 74
     0
 75
     0
  3
ISO-25
100
AcDbAlignedDimension
 13
171.7131721415268
 23
141.9559465325611
 33
0.0
 14
263.7131721415269
 24
141.955946532561
 34
0.0
100
AcDbRotatedDimension
  0
LINE
  5
3C4
330
1F
100
AcDbEntity
  8
実線
100
AcDbLine
 10
94.56379298190001
 20
42.98834749169656
 30
0.0
 11
68.31379298189748
 21
42.9883474916966
 31
0.0
  0
LINE
  5
3C5
330
1F
100
AcDbEntity
  8
実線
100
AcDbLine
 10
115.7945889293559
 20
42.98834749169654
 30
0.0
 11
133.8137929818975
 21
42.98834749169653
 31
0.0
  0
LINE
  5
3C6
330
1F
100
AcDbEntity
  8
実線
100
AcDbLine
 10
41.83299703443914
 20
42.9883474916966
 30
0.0
 11
23.81379298189754
 21
42.98834749169662
 31
0.0
  0
ARC
  5
3C7
330
1F
100
AcDbEntity
  8
実線
100
AcDbCircle
 10
79.12981394923702
 20
28.67491250683821
 30
0.0
 40
38.0
100
AcDbArc
 50
106.5365649756556
 51
155.4603227367469
  0
ARC
  5
3C8
330
1F
100
AcDbEntity
  8
実線
100
AcDbCircle
 10
78.0759724006655
 20
27.90594548969362
 30
0.0
 40
38.85776825211736
100
AcDbArc
 50
25.75758019451116
 51
73.18940608401108
  0
DIMENSION
  5
3C9
102
{ACAD_XDICTIONARY
360
3CA
102
}
330
1F
100
AcDbEntity
  8
文字
100
AcDbDimension
280
     0
  2
*D24
 10
133.7359225987214
 20
25.44653943547603
 30
0.0
 11
78.73592259872139
 21
27.39278943547603
 31
0.0
 70
    32
  1
%%c110
 71
     5
 42
110.0
 73
     0
 74
     0
 75
     0
  3
ISO-25
100
AcDbAlignedDimension
 13
23.73592259872139
 23
41.37490297279986
 33
0.0
 14
133.7359225987214
 24
41.37490297279979
 34
0.0
100
AcDbRotatedDimension
  0
ARC
  5
3CB
330
1F
100
AcDbEntity
  8
実線
100
AcDbCircle
 10
115.8018837561873
 20
46.03811870475441
 30
0.0
 40
3.0
100
AcDbArc
 50
204.5396772632535
 51
270.0
  0
ARC
  5
3CC
330
1F
100
AcDbEntity
  8
実線
100
AcDbCircle
 10
41.83299703443911
 20
45.90375256859541
 30
0.0
 40
3.0
100
AcDbArc
 50
270.0
 51
335.4603227367464
  0
LINE
  5
3CD
330
1F
100
AcDbEntity
  8
実線
100
AcDbLine
 10
68.31379298189748
 20
42.9883474916966
 30
0.0
 11
41.83299703443914
 21
42.9883474916966
 31
0.0
  0
LINE
  5
3CE
330
1F
100
AcDbEntity
  8
実線
100
AcDbLine
 10
94.56379298190001
 20
42.98834749169656
 30
0.0
 11
115.7945889293559
 21
42.98834749169656
 31
0.0
  0
DIMENSION
  5
3CF
102
{ACAD_XDICTIONARY
360
3D0
102
}
330
1F
100
AcDbEntity
  8
文字
100
AcDbDimension
280
     0
  2
*D25
 10
18.48775948921647
 20
43.06001103779452
 30
0.0
 11
18.48775948921647
 21
59.5538180954974
 31
0.0
 70
   160
 71
     5
 42
2.002965801463674
 73
     0
 74
     0
 75
     0
  3
ISO-25
100
AcDbAlignedDimension
 13
24.66514056947726
 23
41.05704523633085
 33
0.0
 14
24.91717284545394
 24
43.06001103779452
 34
0.0
 50
90.0
100
AcDbRotatedDimension
  0
DIMENSION
  5
3D1
102
{ACAD_XDICTIONARY
360
3D2
102
}
330
1F
100
AcDbEntity
  8
文字
100
AcDbDimension
280
     0
  2
*D26
 10
138.124696189531
 20
41.1046944616987
 30
0.0
 11
136.244696189531
 21
53.10393093612657
 31
0.0
 70
    32
 71
     5
 42
23.99847294885575
 73
     0
 74
     0
 75
     0
  3
ISO-25
100
AcDbAlignedDimension
 13
88.81398089441075
 23
65.10316741055445
 33
0.0
 14
131.8084723926879
 24
41.1046944616987
 34
0.0
 50
90.0
100
AcDbRotatedDimension
  0
LINE
  5
3D3
330
1F
100
AcDbEntity
  8
実線
100
AcDbLine
 10
23.82622810846315
 20
41.10653354952319
 30
0.0
 11
133.872093622688
 21
41.10653354952319
 31
0.0
  0
LINE
  5
3D4
330
1F
100
AcDbEntity
  8
実線
100
AcDbLine
 10
133.8722815352012
 20
41.09653531523472
 30
0.0
 11
133.8139808944107
 21
42.97834925740804
 31
0.0
  0
LINE
  5
3D5
330
1F
100
AcDbEntity
  8
実線
100
AcDbLine
 10
23.82622810846315
 20
41.10653354952319
 30
0.0
 11
23.82622810846315
 21
42.85329331959026
 31
0.0
  0
ENDSEC
  0
SECTION
  2
OBJECTS
  0
DICTIONARY
  5
C
330
0
100
AcDbDictionary
281
     1
  3
ACAD_COLOR
350
73
  3
ACAD_DETAILVIEWSTYLE
350
122
  3
ACAD_GROUP
350
D
  3
ACAD_IMAGE_VARS
350
DC
  3
ACAD_LAYOUT
350
1A
  3
ACAD_MATERIAL
350
72
  3
ACAD_MLEADERSTYLE
350
B5
  3
ACAD_MLINESTYLE
350
17
  3
ACAD_PLOTSETTINGS
350
19
  3
ACAD_PLOTSTYLENAME
350
E
  3
ACAD_SCALELIST
350
B6
  3
ACAD_SECTIONVIEWSTYLE
350
123
  3
ACAD_TABLESTYLE
350
86
  3
ACAD_VISUALSTYLE
350
99
  3
ACDB_RECOMPOSE_DATA
350
402
  3
AcDbVariableDictionary
350
66
  3
APPDATA
350
E1
  0
SUN
  5
ED
330
94
100
AcDbSun
 90
        1
290
     0
 63
     7
421
 16777215
 40
1.0
291
     1
 91
  2455826
 92
 54000000
292
     0
 70
     2
 71
   256
280
     1
  0
DICTIONARY
  5
218
330
217
100
AcDbDictionary
280
     1
281
     1
  3
ACAD_DIMASSOC
360
219
  0
DICTIONARY
  5
21E
330
21D
100
AcDbDictionary
280
     1
281
     1
  3
ACAD_DIMASSOC
360
21F
  0
DICTIONARY
  5
243
330
242
100
AcDbDictionary
280
     1
281
     1
  3
ACAD_DIMASSOC
360
244
  0
DICTIONARY
  5
246
330
245
100
AcDbDictionary
280
     1
281
     1
  3
ACAD_DIMASSOC
360
247
  0
DICTIONARY
  5
24B
330
24A
100
AcDbDictionary
280
     1
281
     1
  3
ACAD_DIMASSOC
360
24C
  0
DICTIONARY
  5
256
330
255
100
AcDbDictionary
280
     1
281
     1
  3
ACAD_DIMASSOC
360
257
  0
DICTIONARY
  5
329
330
328
100
AcDbDictionary
280
     1
281
     1
  0
DICTIONARY
  5
3CA
330
3C9
100
AcDbDictionary
280
     1
281
     1
  0
DICTIONARY
  5
3D0
330
3CF
100
AcDbDictionary
280
     1
281
     1
  0
DICTIONARY
  5
3D2
330
3D1
100
AcDbDictionary
280
     1
281
     1
  0
DICTIONARY
  5
73
102
{ACAD_REACTORS
330
C
102
}
330
C
100
AcDbDictionary
281
     1
  0
DICTIONARY
  5
122
102
{ACAD_REACTORS
330
C
102
}
330
C
100
AcDbDictionary
281
     1
  0
DICTIONARY
  5
D
102
{ACAD_REACTORS
330
C
102
}
330
C
100
AcDbDictionary
281
     1
  0
RASTERVARIABLES
  5
DC
102
{ACAD_REACTORS
330
C
102
}
330
C
100
AcDbRasterVariables
 90
        0
 70
     1
 71
     1
 72
     5
  0
DICTIONARY
  5
1A
102
{ACAD_REACTORS
330
C
102
}
330
C
100
AcDbDictionary
281
     1
  3
Model
350
22
  3
Sheet1
350
59
  3
Sheet2
350
5E
  0
DICTIONARY
  5
72
102
{ACAD_REACTORS
330
C
102
}
330
C
100
AcDbDictionary
281
     1
  3
ByBlock
350
E2
  3
ByLayer
350
96
  3
Global
350
98
  0
DICTIONARY
  5
B5
102
{ACAD_REACTORS
330
C
102
}
330
C
100
AcDbDictionary
281
     1
  0
DICTIONARY
  5
17
102
{ACAD_REACTORS
330
C
102
}
330
C
100
AcDbDictionary
281
     1
  3
Standard
350
18
  0
DICTIONARY
  5
19
102
{ACAD_REACTORS
330
C
102
}
330
C
100
AcDbDictionary
281
     1
  0
ACDBDICTIONARYWDFLT
  5
E
102
{ACAD_REACTORS
330
C
102
}
330
C
100
AcDbDictionary
281
     1
  3
Normal
350
F
100
AcDbDictionaryWithDefault
340
F
  0
DICTIONARY
  5
B6
102
{ACAD_REACTORS
330
C
102
}
330
C
100
AcDbDictionary
281
     1
  3
A0
350
B7
  3
A1
350
B8
  3
A2
350
B9
  3
A3
350
BA
  3
A4
350
BB
  3
A5
350
BC
  3
A6
350
BD
  3
A7
350
BE
  3
A8
350
BF
  3
A9
350
C0
  3
B0
350
C1
  3
B1
350
C2
  3
B2
350
C3
  3
B3
350
C4
  3
B4
350
C5
  3
B5
350
C6
  3
B6
350
C7
  3
B7
350
C8
  3
B8
350
C9
  3
B9
350
CA
  3
C0
350
CB
  3
C1
350
CC
  3
C2
350
CD
  3
C3
350
CE
  3
C4
350
CF
  3
C5
350
D0
  3
C6
350
D1
  3
C7
350
D2
  3
C8
350
D3
  3
C9
350
D4
  3
D0
350
D5
  3
D1
350
D6
  3
D2
350
D7
  0
DICTIONARY
  5
123
102
{ACAD_REACTORS
330
C
102
}
330
C
100
AcDbDictionary
281
     1
  0
DICTIONARY
  5
86
102
{ACAD_REACTORS
330
C
102
}
330
C
100
AcDbDictionary
281
     1
  3
Standard
350
87
  0
DICTIONARY
  5
99
102
{ACAD_REACTORS
330
C
102
}
330
C
100
AcDbDictionary
281
     1
  3
2dWireframe
350
9F
  3
3D Hidden
350
A1
  3
3dWireframe
350
A0
  3
Basic
350
9E
  3
Brighten
350
A5
  3
ColorChange
350
A9
  3
Conceptual
350
A2
  3
Dim
350
A4
  3
EdgeColorOff
350
E7
  3
Facepattern
350
A8
  3
Flat
350
9A
  3
FlatWithEdges
350
9B
  3
Gouraud
350
9C
  3
GouraudWithEdges
350
9D
  3
Hidden
350
E4
  3
JitterOff
350
E5
  3
Linepattern
350
A7
  3
OverhangOff
350
E6
  3
Realistic
350
A3
  3
Shaded
350
EC
  3
Shaded with edges
350
EB
  3
Shades of Gray
350
E8
  3
Sketchy
350
E9
  3
Thicken
350
A6
  3
Wireframe
350
E3
  3
X-Ray
350
EA
  0
XRECORD
  5
402
102
{ACAD_REACTORS
330
C
102
}
330
C
100
AcDbXrecord
280
     1
 90
        1
330
87
  0
DICTIONARY
  5
66
102
{ACAD_REACTORS
330
C
102
}
330
C
100
AcDbDictionary
281
     1
  3
CANNOSCALE
350
D8
  3
CTABLESTYLE
350
89
  3
DIMASSOC
350
67
  3
HIDETEXT
350
6B
  3
LIGHTSINBLOCKS
350
DF
  3
XCLIPFRAME
350
E0
  0
DICTIONARY
  5
E1
102
{ACAD_REACTORS
330
C
102
}
330
C
100
AcDbDictionary
281
     1
  0
DIMASSOC
  5
219
102
{ACAD_REACTORS
330
218
102
}
330
218
100
AcDbDimAssoc
330
217
 90
        3
 70
     0
 71
     0
  1
AcDbOsnapPointRef
 72
    13
331
214
 73
     2
 91
        0
 40
0.0
 10
0.0
 20
0.0
 30
2.000000000000000E+50
 75
     0
  1
AcDbOsnapPointRef
 72
     1
331
214
 73
     2
 91
        0
 40
1.0
 10
0.0
 20
0.0
 30
2.000000000000000E+50
 75
     0
  0
DIMASSOC
  5
21F
102
{ACAD_REACTORS
330
21E
102
}
330
21E
100
AcDbDimAssoc
330
21D
 90
        3
 70
     0
 71
     0
  1
AcDbOsnapPointRef
 72
     1
331
21A
 73
     2
 91
        3
 40
1.0
 10
0.0
 20
0.0
 30
2.000000000000000E+50
 75
     0
  1
AcDbOsnapPointRef
 72
     1
331
21A
 73
     2
 91
        5
 40
1.0
 10
0.0
 20
0.0
 30
2.000000000000000E+50
 75
     0
  0
DIMASSOC
  5
244
102
{ACAD_REACTORS
330
243
102
}
330
243
100
AcDbDimAssoc
330
242
 90
        3
 70
     0
 71
     0
  1
AcDbOsnapPointRef
 72
     1
331
20B
 73
     2
 91
        1
 40
1.0
 10
0.0
 20
0.0
 30
2.000000000000000E+50
 75
     0
  1
AcDbOsnapPointRef
 72
     1
331
211
 73
     2
 91
        1
 40
1.0
 10
0.0
 20
0.0
 30
2.000000000000000E+50
 75
     0
  0
DIMASSOC
  5
247
102
{ACAD_REACTORS
330
246
102
}
330
246
100
AcDbDimAssoc
330
245
 90
        2
 70
     0
 71
     0
  1
AcDbOsnapPointRef
 72
    13
331
216
 73
     2
 91
        0
 40
0.0
 10
0.0
 20
0.0
 30
2.000000000000000E+50
 75
     0
  0
DIMASSOC
  5
24C
102
{ACAD_REACTORS
330
24B
102
}
330
24B
100
AcDbDimAssoc
330
24A
 90
        3
 70
     0
 71
     0
  1
AcDbOsnapPointRef
 72
     6
331
226
 73
     2
 91
        0
 40
0.5656172193776368
 10
0.0
 20
0.0
 30
0.0
332
248
 74
     2
 92
        0
 75
     0
  1
AcDbOsnapPointRef
 72
     6
331
227
 73
     2
 91
        0
 40
0.5696102400148442
 10
0.0
 20
0.0
 30
0.0
332
248
 74
     2
 92
        0
 75
     0
  0
DIMASSOC
  5
257
102
{ACAD_REACTORS
330
256
102
}
330
256
100
AcDbDimAssoc
330
255
 90
        1
 70
     0
 71
     0
  1
AcDbOsnapPointRef
 72
     3
331
24E
 73
     2
 91
        0
 40
0.0
 10
0.0
 20
0.0
 30
0.0
 75
     0
  0
LAYOUT
  5
22
102
{ACAD_REACTORS
330
1A
102
}
330
1A
100
AcDbPlotSettings
  1

  2
none_device
  4
ANSI_A_(8.50_x_11.00_Inches)
  6

 40
6.35
 41
19.05
 42
6.35
 43
19.05
 44
215.9
 45
279.4
 46
11.11250000000003
 47
0.0000000000000142
 48
0.0
 49
0.0
140
0.0
141
0.0
142
1.0
143
1.263157894736842
 70
 11444
 72
     0
 73
     1
 74
     1
  7
monochrome.ctb
 75
     0
 76
     0
 77
     2
 78
   300
147
0.7916666666666665
148
-702.8076765758875
149
-496.2830551296954
100
AcDbLayout
  1
Model
 70
     1
 71
     0
 10
0.0
 20
0.0
 11
12.0
 21
9.0
 12
0.0
 22
0.0
 32
0.0
 14
7.923532436146729
 24
24.19653943547603
 34
0.0
 15
284.2070081223936
 25
232.1423193560396
 35
0.0
146
0.0
 13
0.0
 23
0.0
 33
0.0
 16
1.0
 26
0.0
 36
0.0
 17
0.0
 27
1.0
 37
0.0
 76
     0
330
1F
331
94
  0
LAYOUT
  5
59
102
{ACAD_REACTORS
330
1A
102
}
330
1A
100
AcDbPlotSettings
  1

  2
None
  4

  6

 40
0.0
 41
0.0
 42
0.0
 43
0.0
 44
0.0
 45
0.0
 46
0.0
 47
0.0
 48
0.0
 49
0.0
140
0.0
141
0.0
142
1.0
143
1.0
 70
   688
 72
     0
 73
     0
 74
     5
  7

 75
    16
 76
     0
 77
     2
 78
   300
147
1.0
148
0.0
149
0.0
100
AcDbLayout
  1
Sheet1
 70
     1
 71
     1
 10
0.0
 20
0.0
 11
12.0
 21
9.0
 12
0.0
 22
0.0
 32
0.0
 14
0.0
 24
0.0
 34
0.0
 15
0.0
 25
0.0
 35
0.0
146
0.0
 13
0.0
 23
0.0
 33
0.0
 16
1.0
 26
0.0
 36
0.0
 17
0.0
 27
1.0
 37
0.0
 76
     0
330
58
  0
LAYOUT
  5
5E
102
{ACAD_REACTORS
330
1A
102
}
330
1A
100
AcDbPlotSettings
  1

  2
None
  4

  6

 40
0.0
 41
0.0
 42
0.0
 43
0.0
 44
0.0
 45
0.0
 46
0.0
 47
0.0
 48
0.0
 49
0.0
140
0.0
141
0.0
142
1.0
143
1.0
 70
   688
 72
     0
 73
     0
 74
     5
  7

 75
    16
 76
     0
 77
     2
 78
   300
147
1.0
148
0.0
149
0.0
100
AcDbLayout
  1
Sheet2
 70
     1
 71
     2
 10
0.0
 20
0.0
 11
12.0
 21
9.0
 12
0.0
 22
0.0
 32
0.0
 14
0.0
 24
0.0
 34
0.0
 15
0.0
 25
0.0
 35
0.0
146
0.0
 13
0.0
 23
0.0
 33
0.0
 16
1.0
 26
0.0
 36
0.0
 17
0.0
 27
1.0
 37
0.0
 76
     0
330
5D
  0
MATERIAL
  5
E2
102
{ACAD_REACTORS
330
72
102
}
330
72
100
AcDbMaterial
  1
ByBlock
 72
     1
 94
      127
  0
MATERIAL
  5
96
102
{ACAD_REACTORS
330
72
102
}
330
72
100
AcDbMaterial
  1
ByLayer
 72
     1
 94
       63
  0
MATERIAL
  5
98
102
{ACAD_REACTORS
330
72
102
}
330
72
100
AcDbMaterial
  1
Global
 72
     1
 94
       63
  0
MLINESTYLE
  5
18
102
{ACAD_REACTORS
330
17
102
}
330
17
100
AcDbMlineStyle
  2
STANDARD
 70
     0
  3

 62
   256
 51
90.0
 52
90.0
 71
     2
 49
0.5
 62
   256
  6
BYLAYER
 49
-0.5
 62
   256
  6
BYLAYER
  0
ACDBPLACEHOLDER
  5
F
102
{ACAD_REACTORS
330
E
102
}
330
E
  0
SCALE
  5
B7
102
{ACAD_REACTORS
330
B6
102
}
330
B6
100
AcDbScale
 70
     0
300
1:1
140
1.0
141
1.0
290
     1
  0
SCALE
  5
B8
102
{ACAD_REACTORS
330
B6
102
}
330
B6
100
AcDbScale
 70
     0
300
1:2
140
1.0
141
2.0
290
     0
  0
SCALE
  5
B9
102
{ACAD_REACTORS
330
B6
102
}
330
B6
100
AcDbScale
 70
     0
300
1:4
140
1.0
141
4.0
290
     0
  0
SCALE
  5
BA
102
{ACAD_REACTORS
330
B6
102
}
330
B6
100
AcDbScale
 70
     0
300
1:5
140
1.0
141
5.0
290
     0
  0
SCALE
  5
BB
102
{ACAD_REACTORS
330
B6
102
}
330
B6
100
AcDbScale
 70
     0
300
1:8
140
1.0
141
8.0
290
     0
  0
SCALE
  5
BC
102
{ACAD_REACTORS
330
B6
102
}
330
B6
100
AcDbScale
 70
     0
300
1:10
140
1.0
141
10.0
290
     0
  0
SCALE
  5
BD
102
{ACAD_REACTORS
330
B6
102
}
330
B6
100
AcDbScale
 70
     0
300
1:16
140
1.0
141
16.0
290
     0
  0
SCALE
  5
BE
102
{ACAD_REACTORS
330
B6
102
}
330
B6
100
AcDbScale
 70
     0
300
1:20
140
1.0
141
20.0
290
     0
  0
SCALE
  5
BF
102
{ACAD_REACTORS
330
B6
102
}
330
B6
100
AcDbScale
 70
     0
300
1:30
140
1.0
141
30.0
290
     0
  0
SCALE
  5
C0
102
{ACAD_REACTORS
330
B6
102
}
330
B6
100
AcDbScale
 70
     0
300
1:40
140
1.0
141
40.0
290
     0
  0
SCALE
  5
C1
102
{ACAD_REACTORS
330
B6
102
}
330
B6
100
AcDbScale
 70
     0
300
1:50
140
1.0
141
50.0
290
     0
  0
SCALE
  5
C2
102
{ACAD_REACTORS
330
B6
102
}
330
B6
100
AcDbScale
 70
     0
300
1:100
140
1.0
141
100.0
290
     0
  0
SCALE
  5
C3
102
{ACAD_REACTORS
330
B6
102
}
330
B6
100
AcDbScale
 70
     0
300
2:1
140
2.0
141
1.0
290
     0
  0
SCALE
  5
C4
102
{ACAD_REACTORS
330
B6
102
}
330
B6
100
AcDbScale
 70
     0
300
4:1
140
4.0
141
1.0
290
     0
  0
SCALE
  5
C5
102
{ACAD_REACTORS
330
B6
102
}
330
B6
100
AcDbScale
 70
     0
300
8:1
140
8.0
141
1.0
290
     0
  0
SCALE
  5
C6
102
{ACAD_REACTORS
330
B6
102
}
330
B6
100
AcDbScale
 70
     0
300
10:1
140
10.0
141
1.0
290
     0
  0
SCALE
  5
C7
102
{ACAD_REACTORS
330
B6
102
}
330
B6
100
AcDbScale
 70
     0
300
100:1
140
100.0
141
1.0
290
     0
  0
SCALE
  5
C8
102
{ACAD_REACTORS
330
B6
102
}
330
B6
100
AcDbScale
 70
     0
300
1/128" = 1'-0"
140
0.0078125
141
12.0
290
     0
  0
SCALE
  5
C9
102
{ACAD_REACTORS
330
B6
102
}
330
B6
100
AcDbScale
 70
     0
300
1/64" = 1'-0"
140
0.015625
141
12.0
290
     0
  0
SCALE
  5
CA
102
{ACAD_REACTORS
330
B6
102
}
330
B6
100
AcDbScale
 70
     0
300
1/32" = 1'-0"
140
0.03125
141
12.0
290
     0
  0
SCALE
  5
CB
102
{ACAD_REACTORS
330
B6
102
}
330
B6
100
AcDbScale
 70
     0
300
1/16" = 1'-0"
140
0.0625
141
12.0
290
     0
  0
SCALE
  5
CC
102
{ACAD_REACTORS
330
B6
102
}
330
B6
100
AcDbScale
 70
     0
300
3/32" = 1'-0"
140
0.09375
141
12.0
290
     0
  0
SCALE
  5
CD
102
{ACAD_REACTORS
330
B6
102
}
330
B6
100
AcDbScale
 70
     0
300
1/8" = 1'-0"
140
0.125
141
12.0
290
     0
  0
SCALE
  5
CE
102
{ACAD_REACTORS
330
B6
102
}
330
B6
100
AcDbScale
 70
     0
300
3/16" = 1'-0"
140
0.1875
141
12.0
290
     0
  0
SCALE
  5
CF
102
{ACAD_REACTORS
330
B6
102
}
330
B6
100
AcDbScale
 70
     0
300
1/4" = 1'-0"
140
0.25
141
12.0
290
     0
  0
SCALE
  5
D0
102
{ACAD_REACTORS
330
B6
102
}
330
B6
100
AcDbScale
 70
     0
300
3/8" = 1'-0"
140
0.375
141
12.0
290
     0
  0
SCALE
  5
D1
102
{ACAD_REACTORS
330
B6
102
}
330
B6
100
AcDbScale
 70
     0
300
1/2" = 1'-0"
140
0.5
141
12.0
290
     0
  0
SCALE
  5
D2
102
{ACAD_REACTORS
330
B6
102
}
330
B6
100
AcDbScale
 70
     0
300
3/4" = 1'-0"
140
0.75
141
12.0
290
     0
  0
SCALE
  5
D3
102
{ACAD_REACTORS
330
B6
102
}
330
B6
100
AcDbScale
 70
     0
300
1" = 1'-0"
140
1.0
141
12.0
290
     0
  0
SCALE
  5
D4
102
{ACAD_REACTORS
330
B6
102
}
330
B6
100
AcDbScale
 70
     0
300
1-1/2" = 1'-0"
140
1.5
141
12.0
290
     0
  0
SCALE
  5
D5
102
{ACAD_REACTORS
330
B6
102
}
330
B6
100
AcDbScale
 70
     0
300
3" = 1'-0"
140
3.0
141
12.0
290
     0
  0
SCALE
  5
D6
102
{ACAD_REACTORS
330
B6
102
}
330
B6
100
AcDbScale
 70
     0
300
6" = 1'-0"
140
6.0
141
12.0
290
     0
  0
SCALE
  5
D7
102
{ACAD_REACTORS
330
B6
102
}
330
B6
100
AcDbScale
 70
     0
300
1'-0" = 1'-0"
140
12.0
141
12.0
290
     0
  0
TABLESTYLE
  5
87
102
{ACAD_REACTORS
330
86
102
}
102
{ACAD_XDICTIONARY
360
400
102
}
330
86
100
AcDbTableStyle
  3
Standard
 70
     0
 71
     0
 40
0.06
 41
0.06
280
     0
281
     0
  7
Standard
140
0.18
170
     2
 62
     0
 63
   257
283
     0
 90
      512
 91
        0
  1

274
    -2
284
     1
 64
     0
275
    -2
285
     1
 65
     0
276
    -2
286
     1
 66
     0
277
    -2
287
     1
 67
     0
278
    -2
288
     1
 68
     0
279
    -2
289
     1
 69
     0
  7
Standard
140
0.25
170
     5
 62
     0
 63
   257
283
     0
 90
      512
 91
        0
  1

274
    -2
284
     1
 64
     0
275
    -2
285
     1
 65
     0
276
    -2
286
     1
 66
     0
277
    -2
287
     1
 67
     0
278
    -2
288
     1
 68
     0
279
    -2
289
     1
 69
     0
  7
Standard
140
0.18
170
     5
 62
     0
 63
   257
283
     0
 90
      512
 91
        0
  1

274
    -2
284
     1
 64
     0
275
    -2
285
     1
 65
     0
276
    -2
286
     1
 66
     0
277
    -2
287
     1
 67
     0
278
    -2
288
     1
 68
     0
279
    -2
289
     1
 69
     0
  0
VISUALSTYLE
  5
9F
102
{ACAD_REACTORS
330
99
102
}
330
99
100
AcDbVisualStyle
  2
2dWireframe
 70
     4
177
     3
291
     0
 70
    58
 90
        0
176
     1
 90
        2
176
     1
 90
        1
176
     1
 90
        0
176
     1
 40
-0.6
176
     1
 40
-30.0
176
     1
 62
     7
420
 16777215
176
     1
 90
        1
176
     1
 90
        4
176
     1
 62
     7
176
     1
 62
   257
176
     1
 90
        1
176
     1
 90
        1
176
     1
 40
1.0
176
     1
 90
        0
176
     1
 62
   257
176
     1
 40
1.0
176
     1
 90
        1
176
     1
 90
        6
176
     1
 90
        2
176
     1
 62
     7
176
     1
 90
        5
176
     1
 90
        0
176
     1
 90
        0
176
     1
290
     0
176
     1
 90
        1
176
     1
 40
0.0
176
     1
 90
        0
176
     1
290
     1
176
     1
290
     1
176
     1
290
     0
176
     1
290
     0
176
     1
290
     0
176
     1
290
     0
176
     1
290
     0
176
     1
290
     0
176
     1
290
     0
176
     1
 90
       50
176
     1
 40
0.0
176
     1
 40
1.0
176
     1
 90
        0
176
     1
 62
    18
420
        0
176
     1
 90
       50
176
     1
 90
        3
176
     1
 62
     5
420
      255
176
     1
290
     0
176
     1
 90
       50
176
     1
 90
       50
176
     1
 90
       50
176
     1
290
     0
176
     1
 90
       50
176
     1
 62
   256
176
     0
 40
1.0
176
     0
 90
        2
176
     1
  1
strokes_ogs.tif
176
     1
290
     0
176
     1
 40
1.0
176
     1
 40
1.0
176
     1
  0
VISUALSTYLE
  5
A1
102
{ACAD_REACTORS
330
99
102
}
330
99
100
AcDbVisualStyle
  2
3D Hidden
 70
     6
177
     3
291
     0
 70
    58
 90
        1
176
     1
 90
        2
176
     1
 90
        2
176
     1
 90
        0
176
     1
 40
-0.6
176
     1
 40
-30.0
176
     1
 62
     7
420
 16777215
176
     1
 90
        2
176
     1
 90
        2
176
     1
 62
     7
176
     1
 62
   257
176
     1
 90
        2
176
     1
 90
        1
176
     1
 40
40.0
176
     1
 90
        0
176
     1
 62
   257
176
     1
 40
1.0
176
     1
 90
        1
176
     1
 90
        6
176
     1
 90
        2
176
     1
 62
     7
176
     1
 90
        3
176
     1
 90
        0
176
     1
 90
        0
176
     1
290
     0
176
     1
 90
        1
176
     1
 40
0.0
176
     1
 90
        0
176
     1
290
     0
176
     1
290
     1
176
     1
290
     1
176
     1
290
     0
176
     1
290
     0
176
     1
290
     0
176
     1
290
     0
176
     1
290
     0
176
     1
290
     0
176
     1
 90
       50
176
     1
 40
0.0
176
     1
 40
1.0
176
     1
 90
        0
176
     1
 62
    18
420
        0
176
     1
 90
       50
176
     1
 90
        3
176
     1
 62
     5
420
      255
176
     1
290
     0
176
     1
 90
       50
176
     1
 90
       50
176
     1
 90
       50
176
     1
290
     0
176
     1
 90
       50
176
     1
 62
   256
176
     0
 40
1.0
176
     0
 90
        2
176
     1
  1
strokes_ogs.tif
176
     1
290
     0
176
     1
 40
1.0
176
     1
 40
1.0
176
     1
  0
VISUALSTYLE
  5
A0
102
{ACAD_REACTORS
330
99
102
}
330
99
100
AcDbVisualStyle
  2
3dWireframe
 70
     5
177
     3
291
     0
 70
    58
 90
        0
176
     1
 90
        2
176
     1
 90
        1
176
     1
 90
        0
176
     1
 40
-0.6
176
     1
 40
-30.0
176
     1
 62
     7
420
 16777215
176
     1
 90
        1
176
     1
 90
        4
176
     1
 62
     7
176
     1
 62
   257
176
     1
 90
        1
176
     1
 90
        1
176
     1
 40
1.0
176
     1
 90
        0
176
     1
 62
   257
176
     1
 40
1.0
176
     1
 90
        1
176
     1
 90
        6
176
     1
 90
        2
176
     1
 62
     7
176
     1
 90
        5
176
     1
 90
        0
176
     1
 90
        0
176
     1
290
     0
176
     1
 90
        1
176
     1
 40
0.0
176
     1
 90
        0
176
     1
290
     0
176
     1
290
     1
176
     1
290
     1
176
     1
290
     0
176
     1
290
     0
176
     1
290
     0
176
     1
290
     0
176
     1
290
     0
176
     1
290
     0
176
     1
 90
       50
176
     1
 40
0.0
176
     1
 40
1.0
176
     1
 90
        0
176
     1
 62
    18
420
        0
176
     1
 90
       50
176
     1
 90
        3
176
     1
 62
     5
420
      255
176
     1
290
     0
176
     1
 90
       50
176
     1
 90
       50
176
     1
 90
       50
176
     1
290
     0
176
     1
 90
       50
176
     1
 62
   256
176
     0
 40
1.0
176
     0
 90
        2
176
     1
  1
strokes_ogs.tif
176
     1
290
     0
176
     1
 40
1.0
176
     1
 40
1.0
176
     1
  0
VISUALSTYLE
  5
9E
102
{ACAD_REACTORS
330
99
102
}
330
99
100
AcDbVisualStyle
  2
Basic
 70
     7
177
     3
291
     1
 70
    58
 90
        1
176
     1
 90
        0
176
     1
 90
        1
176
     1
 90
        0
176
     1
 40
-0.6
176
     1
 40
-30.0
176
     1
 62
     7
420
 16777215
176
     1
 90
        0
176
     1
 90
        4
176
     1
 62
     7
176
     1
 62
   257
176
     1
 90
        1
176
     1
 90
        1
176
     1
 40
1.0
176
     1
 90
        8
176
     1
 62
     7
176
     1
 40
1.0
176
     1
 90
        1
176
     1
 90
        6
176
     1
 90
        2
176
     1
 62
     7
176
     1
 90
        5
176
     1
 90
        0
176
     1
 90
        0
176
     1
290
     0
176
     1
 90
        1
176
     1
 40
0.0
176
     1
 90
        0
176
     1
290
     0
176
     1
290
     1
176
     1
290
     1
176
     1
290
     0
176
     1
290
     0
176
     1
290
     0
176
     1
290
     0
176
     1
290
     0
176
     1
290
     0
176
     1
 90
       50
176
     1
 40
0.0
176
     1
 40
1.0
176
     1
 90
        0
176
     1
 62
    18
420
        0
176
     1
 90
       50
176
     1
 90
        3
176
     1
 62
     5
420
      255
176
     1
290
     0
176
     1
 90
       50
176
     1
 90
       50
176
     1
 90
       50
176
     1
290
     0
176
     1
 90
       50
176
     1
 62
   256
176
     0
 40
1.0
176
     0
 90
        2
176
     1
  1
strokes_ogs.tif
176
     1
290
     0
176
     1
 40
1.0
176
     1
 40
1.0
176
     1
  0
VISUALSTYLE
  5
A5
102
{ACAD_REACTORS
330
99
102
}
330
99
100
AcDbVisualStyle
  2
Brighten
 70
    12
177
     3
291
     1
 70
    58
 90
        2
176
     1
 90
        2
176
     1
 90
        1
176
     1
 90
        0
176
     1
 40
-0.6
176
     1
 40
-30.0
176
     1
 62
     7
420
 16777215
176
     1
 90
        1
176
     1
 90
        4
176
     1
 62
     7
176
     1
 62
   257
176
     1
 90
        1
176
     1
 90
        1
176
     1
 40
1.0
176
     1
 90
        8
176
     1
 62
     7
176
     1
 40
1.0
176
     1
 90
        1
176
     1
 90
        6
176
     1
 90
        2
176
     1
 62
     7
176
     1
 90
        5
176
     1
 90
        0
176
     1
 90
        0
176
     1
290
     0
176
     1
 90
        1
176
     1
 40
50.0
176
     1
 90
        0
176
     1
290
     0
176
     1
290
     1
176
     1
290
     1
176
     1
290
     0
176
     1
290
     0
176
     1
290
     0
176
     1
290
     0
176
     1
290
     0
176
     1
290
     0
176
     1
 90
       50
176
     1
 40
0.0
176
     1
 40
1.0
176
     1
 90
        0
176
     1
 62
    18
420
        0
176
     1
 90
       50
176
     1
 90
        3
176
     1
 62
     5
420
      255
176
     1
290
     0
176
     1
 90
       50
176
     1
 90
       50
176
     1
 90
       50
176
     1
290
     0
176
     1
 90
       50
176
     1
 62
   256
176
     0
 40
1.0
176
     0
 90
        2
176
     1
  1
strokes_ogs.tif
176
     1
290
     0
176
     1
 40
1.0
176
     1
 40
1.0
176
     1
  0
VISUALSTYLE
  5
A9
102
{ACAD_REACTORS
330
99
102
}
330
99
100
AcDbVisualStyle
  2
ColorChange
 70
    16
177
     3
291
     1
 70
    58
 90
        2
176
     1
 90
        2
176
     1
 90
        3
176
     1
 90
        0
176
     1
 40
-0.6
176
     1
 40
-30.0
176
     1
 62
     8
420
  8421504
176
     1
 90
        1
176
     1
 90
        4
176
     1
 62
     7
176
     1
 62
   257
176
     1
 90
        1
176
     1
 90
        1
176
     1
 40
1.0
176
     1
 90
        8
176
     1
 62
     8
420
  8421504
176
     1
 40
1.0
176
     1
 90
        1
176
     1
 90
        6
176
     1
 90
        2
176
     1
 62
     7
176
     1
 90
        5
176
     1
 90
        0
176
     1
 90
        0
176
     1
290
     0
176
     1
 90
        1
176
     1
 40
0.0
176
     1
 90
        0
176
     1
290
     0
176
     1
290
     1
176
     1
290
     1
176
     1
290
     0
176
     1
290
     0
176
     1
290
     0
176
     1
290
     0
176
     1
290
     0
176
     1
290
     0
176
     1
 90
       50
176
     1
 40
0.0
176
     1
 40
1.0
176
     1
 90
        0
176
     1
 62
    18
420
        0
176
     1
 90
       50
176
     1
 90
        3
176
     1
 62
     5
420
      255
176
     1
290
     0
176
     1
 90
       50
176
     1
 90
       50
176
     1
 90
       50
176
     1
290
     0
176
     1
 90
       50
176
     1
 62
   256
176
     0
 40
1.0
176
     0
 90
        2
176
     1
  1
strokes_ogs.tif
176
     1
290
     0
176
     1
 40
1.0
176
     1
 40
1.0
176
     1
  0
VISUALSTYLE
  5
A2
102
{ACAD_REACTORS
330
99
102
}
330
99
100
AcDbVisualStyle
  2
Conceptual
 70
     9
177
     3
291
     0
 70
    58
 90
        3
176
     1
 90
        2
176
     1
 90
        1
176
     1
 90
        0
176
     1
 40
-0.6
176
     1
 40
-30.0
176
     1
 62
     7
420
 16777215
176
     1
 90
        2
176
     1
 90
        2
176
     1
 62
     7
176
     1
 62
   257
176
     1
 90
        1
176
     1
 90
        1
176
     1
 40
40.0
176
     1
 90
        8
176
     1
 62
     7
176
     1
 40
1.0
176
     1
 90
        1
176
     1
 90
        6
176
     1
 90
        2
176
     1
 62
     7
176
     1
 90
        3
176
     1
 90
        0
176
     1
 90
        0
176
     1
290
     0
176
     1
 90
        1
176
     1
 40
0.0
176
     1
 90
        0
176
     1
290
     0
176
     1
290
     1
176
     1
290
     1
176
     1
290
     0
176
     1
290
     0
176
     1
290
     0
176
     1
290
     0
176
     1
290
     0
176
     1
290
     0
176
     1
 90
       50
176
     1
 40
0.0
176
     1
 40
1.0
176
     1
 90
        0
176
     1
 62
    18
420
        0
176
     1
 90
       50
176
     1
 90
        3
176
     1
 62
     5
420
      255
176
     1
290
     0
176
     1
 90
       50
176
     1
 90
       50
176
     1
 90
       50
176
     1
290
     0
176
     1
 90
       50
176
     1
 62
   256
176
     0
 40
1.0
176
     0
 90
        2
176
     1
  1
strokes_ogs.tif
176
     1
290
     0
176
     1
 40
1.0
176
     1
 40
1.0
176
     1
  0
VISUALSTYLE
  5
A4
102
{ACAD_REACTORS
330
99
102
}
330
99
100
AcDbVisualStyle
  2
Dim
 70
    11
177
     3
291
     1
 70
    58
 90
        2
176
     1
 90
        2
176
     1
 90
        1
176
     1
 90
        0
176
     1
 40
-0.6
176
     1
 40
-30.0
176
     1
 62
     7
420
 16777215
176
     1
 90
        1
176
     1
 90
        4
176
     1
 62
     7
176
     1
 62
   257
176
     1
 90
        1
176
     1
 90
        1
176
     1
 40
1.0
176
     1
 90
        8
176
     1
 62
     7
176
     1
 40
1.0
176
     1
 90
        1
176
     1
 90
        6
176
     1
 90
        2
176
     1
 62
     7
176
     1
 90
        5
176
     1
 90
        0
176
     1
 90
        0
176
     1
290
     0
176
     1
 90
        1
176
     1
 40
-50.0
176
     1
 90
        0
176
     1
290
     0
176
     1
290
     1
176
     1
290
     1
176
     1
290
     0
176
     1
290
     0
176
     1
290
     0
176
     1
290
     0
176
     1
290
     0
176
     1
290
     0
176
     1
 90
       50
176
     1
 40
0.0
176
     1
 40
1.0
176
     1
 90
        0
176
     1
 62
    18
420
        0
176
     1
 90
       50
176
     1
 90
        3
176
     1
 62
     5
420
      255
176
     1
290
     0
176
     1
 90
       50
176
     1
 90
       50
176
     1
 90
       50
176
     1
290
     0
176
     1
 90
       50
176
     1
 62
   256
176
     0
 40
1.0
176
     0
 90
        2
176
     1
  1
strokes_ogs.tif
176
     1
290
     0
176
     1
 40
1.0
176
     1
 40
1.0
176
     1
  0
VISUALSTYLE
  5
E7
102
{ACAD_REACTORS
330
99
102
}
330
99
100
AcDbVisualStyle
  2
EdgeColorOff
 70
    22
177
     3
291
     1
 70
    58
 90
        2
176
     0
 90
        2
176
     0
 90
        0
176
     0
 90
        0
176
     0
 40
0.6
176
     0
 40
30.0
176
     0
 62
     7
420
 16777215
176
     0
 90
        1
176
     0
 90
        4
176
     0
 62
     7
176
     0
 62
   257
176
     0
 90
        1
176
     0
 90
        1
176
     0
 40
1.0
176
     0
 90
        8
176
     2
 62
     7
176
     0
 40
1.0
176
     0
 90
        1
176
     0
 90
        6
176
     0
 90
        2
176
     0
 62
     7
176
     0
 90
        5
176
     0
 90
        0
176
     0
 90
        0
176
     0
290
     0
176
     0
 90
        1
176
     0
 40
0.0
176
     0
 90
        0
176
     0
290
     0
176
     0
290
     1
176
     0
290
     1
176
     0
290
     0
176
     0
290
     0
176
     0
290
     0
176
     0
290
     0
176
     0
290
     0
176
     0
290
     0
176
     0
 90
       50
176
     0
 40
0.0
176
     0
 40
1.0
176
     0
 90
        0
176
     0
 62
    18
420
        0
176
     0
 90
       50
176
     0
 90
        3
176
     0
 62
     5
420
      255
176
     0
290
     0
176
     0
 90
       50
176
     0
 90
       50
176
     0
 90
       50
176
     0
290
     0
176
     0
 90
       50
176
     0
 62
   256
176
     0
 40
1.0
176
     0
 90
        2
176
     0
  1
strokes_ogs.tif
176
     0
290
     0
176
     0
 40
1.0
176
     0
 40
1.0
176
     0
  0
VISUALSTYLE
  5
A8
102
{ACAD_REACTORS
330
99
102
}
330
99
100
AcDbVisualStyle
  2
Facepattern
 70
    15
177
     3
291
     1
 70
    58
 90
        2
176
     1
 90
        2
176
     1
 90
        1
176
     1
 90
        0
176
     1
 40
-0.6
176
     1
 40
-30.0
176
     1
 62
     7
420
 16777215
176
     1
 90
        1
176
     1
 90
        4
176
     1
 62
     7
176
     1
 62
   257
176
     1
 90
        1
176
     1
 90
        1
176
     1
 40
1.0
176
     1
 90
        8
176
     1
 62
     7
176
     1
 40
1.0
176
     1
 90
        1
176
     1
 90
        6
176
     1
 90
        2
176
     1
 62
     7
176
     1
 90
        5
176
     1
 90
        0
176
     1
 90
        0
176
     1
290
     0
176
     1
 90
        1
176
     1
 40
0.0
176
     1
 90
        0
176
     1
290
     0
176
     1
290
     1
176
     1
290
     1
176
     1
290
     0
176
     1
290
     0
176
     1
290
     0
176
     1
290
     0
176
     1
290
     0
176
     1
290
     0
176
     1
 90
       50
176
     1
 40
0.0
176
     1
 40
1.0
176
     1
 90
        0
176
     1
 62
    18
420
        0
176
     1
 90
       50
176
     1
 90
        3
176
     1
 62
     5
420
      255
176
     1
290
     0
176
     1
 90
       50
176
     1
 90
       50
176
     1
 90
       50
176
     1
290
     0
176
     1
 90
       50
176
     1
 62
   256
176
     0
 40
1.0
176
     0
 90
        2
176
     1
  1
strokes_ogs.tif
176
     1
290
     0
176
     1
 40
1.0
176
     1
 40
1.0
176
     1
  0
VISUALSTYLE
  5
9A
102
{ACAD_REACTORS
330
99
102
}
330
99
100
AcDbVisualStyle
  2
Flat
 70
     0
177
     3
291
     1
 70
    58
 90
        2
176
     1
 90
        1
176
     1
 90
        1
176
     1
 90
        2
176
     1
 40
-0.6
176
     1
 40
30.0
176
     1
 62
     7
420
 16777215
176
     1
 90
        0
176
     1
 90
        4
176
     1
 62
     7
176
     1
 62
   257
176
     1
 90
        1
176
     1
 90
        1
176
     1
 40
1.0
176
     1
 90
        8
176
     1
 62
     7
176
     1
 40
1.0
176
     1
 90
        1
176
     1
 90
        6
176
     1
 90
        2
176
     1
 62
     7
176
     1
 90
        5
176
     1
 90
        0
176
     1
 90
        0
176
     1
290
     0
176
     1
 90
        1
176
     1
 40
0.0
176
     1
 90
        0
176
     1
290
     0
176
     1
290
     1
176
     1
290
     1
176
     1
290
     0
176
     1
290
     0
176
     1
290
     0
176
     1
290
     0
176
     1
290
     0
176
     1
290
     0
176
     1
 90
       50
176
     1
 40
0.0
176
     1
 40
1.0
176
     1
 90
        0
176
     1
 62
    18
420
        0
176
     1
 90
       50
176
     1
 90
        3
176
     1
 62
     5
420
      255
176
     1
290
     0
176
     1
 90
       50
176
     1
 90
       50
176
     1
 90
       50
176
     1
290
     0
176
     1
 90
       50
176
     1
 62
   256
176
     0
 40
1.0
176
     0
 90
        2
176
     1
  1
strokes_ogs.tif
176
     1
290
     0
176
     1
 40
1.0
176
     1
 40
1.0
176
     1
  0
VISUALSTYLE
  5
9B
102
{ACAD_REACTORS
330
99
102
}
330
99
100
AcDbVisualStyle
  2
FlatWithEdges
 70
     1
177
     3
291
     1
 70
    58
 90
        2
176
     1
 90
        1
176
     1
 90
        1
176
     1
 90
        2
176
     1
 40
-0.6
176
     1
 40
30.0
176
     1
 62
     7
420
 16777215
176
     1
 90
        1
176
     1
 90
        4
176
     1
 62
     7
176
     1
 62
   257
176
     1
 90
        1
176
     1
 90
        1
176
     1
 40
1.0
176
     1
 90
        0
176
     1
 62
   257
176
     1
 40
1.0
176
     1
 90
        1
176
     1
 90
        6
176
     1
 90
        2
176
     1
 62
     7
176
     1
 90
        5
176
     1
 90
        0
176
     1
 90
        0
176
     1
290
     0
176
     1
 90
        1
176
     1
 40
0.0
176
     1
 90
        0
176
     1
290
     0
176
     1
290
     1
176
     1
290
     1
176
     1
290
     0
176
     1
290
     0
176
     1
290
     0
176
     1
290
     0
176
     1
290
     0
176
     1
290
     0
176
     1
 90
       50
176
     1
 40
0.0
176
     1
 40
1.0
176
     1
 90
        0
176
     1
 62
    18
420
        0
176
     1
 90
       50
176
     1
 90
        3
176
     1
 62
     5
420
      255
176
     1
290
     0
176
     1
 90
       50
176
     1
 90
       50
176
     1
 90
       50
176
     1
290
     0
176
     1
 90
       50
176
     1
 62
   256
176
     0
 40
1.0
176
     0
 90
        2
176
     1
  1
strokes_ogs.tif
176
     1
290
     0
176
     1
 40
1.0
176
     1
 40
1.0
176
     1
  0
VISUALSTYLE
  5
9C
102
{ACAD_REACTORS
330
99
102
}
330
99
100
AcDbVisualStyle
  2
Gouraud
 70
     2
177
     3
291
     1
 70
    58
 90
        2
176
     1
 90
        2
176
     1
 90
        1
176
     1
 90
        2
176
     1
 40
-0.6
176
     1
 40
30.0
176
     1
 62
     7
420
 16777215
176
     1
 90
        0
176
     1
 90
        4
176
     1
 62
     7
176
     1
 62
   257
176
     1
 90
        1
176
     1
 90
        1
176
     1
 40
1.0
176
     1
 90
        0
176
     1
 62
     7
176
     1
 40
1.0
176
     1
 90
        1
176
     1
 90
        6
176
     1
 90
        2
176
     1
 62
     7
176
     1
 90
        5
176
     1
 90
        0
176
     1
 90
        0
176
     1
290
     0
176
     1
 90
        1
176
     1
 40
0.0
176
     1
 90
        0
176
     1
290
     0
176
     1
290
     1
176
     1
290
     1
176
     1
290
     0
176
     1
290
     0
176
     1
290
     0
176
     1
290
     0
176
     1
290
     0
176
     1
290
     0
176
     1
 90
       50
176
     1
 40
0.0
176
     1
 40
1.0
176
     1
 90
        0
176
     1
 62
    18
420
        0
176
     1
 90
       50
176
     1
 90
        3
176
     1
 62
     5
420
      255
176
     1
290
     0
176
     1
 90
       50
176
     1
 90
       50
176
     1
 90
       50
176
     1
290
     0
176
     1
 90
       50
176
     1
 62
   256
176
     0
 40
1.0
176
     0
 90
        2
176
     1
  1
strokes_ogs.tif
176
     1
290
     0
176
     1
 40
1.0
176
     1
 40
1.0
176
     1
  0
VISUALSTYLE
  5
9D
102
{ACAD_REACTORS
330
99
102
}
330
99
100
AcDbVisualStyle
  2
GouraudWithEdges
 70
     3
177
     3
291
     1
 70
    58
 90
        2
176
     1
 90
        2
176
     1
 90
        1
176
     1
 90
        2
176
     1
 40
-0.6
176
     1
 40
30.0
176
     1
 62
     7
420
 16777215
176
     1
 90
        1
176
     1
 90
        4
176
     1
 62
     7
176
     1
 62
   257
176
     1
 90
        1
176
     1
 90
        1
176
     1
 40
1.0
176
     1
 90
        0
176
     1
 62
   257
176
     1
 40
1.0
176
     1
 90
        1
176
     1
 90
        6
176
     1
 90
        2
176
     1
 62
     7
176
     1
 90
        5
176
     1
 90
        0
176
     1
 90
        0
176
     1
290
     0
176
     1
 90
        1
176
     1
 40
0.0
176
     1
 90
        0
176
     1
290
     0
176
     1
290
     1
176
     1
290
     1
176
     1
290
     0
176
     1
290
     0
176
     1
290
     0
176
     1
290
     0
176
     1
290
     0
176
     1
290
     0
176
     1
 90
       50
176
     1
 40
0.0
176
     1
 40
1.0
176
     1
 90
        0
176
     1
 62
    18
420
        0
176
     1
 90
       50
176
     1
 90
        3
176
     1
 62
     5
420
      255
176
     1
290
     0
176
     1
 90
       50
176
     1
 90
       50
176
     1
 90
       50
176
     1
290
     0
176
     1
 90
       50
176
     1
 62
   256
176
     0
 40
1.0
176
     0
 90
        2
176
     1
  1
strokes_ogs.tif
176
     1
290
     0
176
     1
 40
1.0
176
     1
 40
1.0
176
     1
  0
VISUALSTYLE
  5
E4
102
{ACAD_REACTORS
330
99
102
}
330
99
100
AcDbVisualStyle
  2
Hidden
 70
     6
177
     3
291
     0
 70
    58
 90
        1
176
     1
 90
        2
176
     1
 90
        2
176
     1
 90
        0
176
     1
 40
0.6
176
     1
 40
30.0
176
     1
 62
     7
420
 16777215
176
     1
 90
        2
176
     1
 90
        2
176
     1
 62
     7
176
     1
 62
   257
176
     1
 90
        2
176
     1
 90
        1
176
     1
 40
40.0
176
     1
 90
        0
176
     1
 62
   257
176
     1
 40
1.0
176
     1
 90
        1
176
     1
 90
        6
176
     1
 90
        2
176
     1
 62
     7
176
     1
 90
        3
176
     1
 90
        0
176
     1
 90
        0
176
     1
290
     0
176
     1
 90
        1
176
     1
 40
0.0
176
     1
 90
        0
176
     1
290
     0
176
     1
290
     1
176
     1
290
     1
176
     1
290
     0
176
     1
290
     0
176
     1
290
     0
176
     1
290
     0
176
     1
290
     0
176
     1
290
     0
176
     1
 90
       50
176
     1
 40
0.0
176
     1
 40
1.0
176
     1
 90
        0
176
     1
 62
    18
420
        0
176
     1
 90
       50
176
     1
 90
        3
176
     1
 62
     5
420
      255
176
     1
290
     0
176
     1
 90
       50
176
     1
 90
       50
176
     1
 90
       50
176
     1
290
     0
176
     1
 90
       50
176
     1
 62
   256
176
     0
 40
1.0
176
     0
 90
        2
176
     1
  1
strokes_ogs.tif
176
     1
290
     0
176
     1
 40
1.0
176
     1
 40
1.0
176
     1
  0
VISUALSTYLE
  5
E5
102
{ACAD_REACTORS
330
99
102
}
330
99
100
AcDbVisualStyle
  2
JitterOff
 70
    20
177
     3
291
     1
 70
    58
 90
        2
176
     0
 90
        2
176
     0
 90
        0
176
     0
 90
        0
176
     0
 40
0.6
176
     0
 40
30.0
176
     0
 62
     7
420
 16777215
176
     0
 90
        1
176
     0
 90
        4
176
     0
 62
     7
176
     0
 62
   257
176
     0
 90
        1
176
     0
 90
        1
176
     0
 40
1.0
176
     0
 90
       10
176
     2
 62
     7
176
     0
 40
1.0
176
     0
 90
        1
176
     0
 90
        6
176
     0
 90
        2
176
     0
 62
     7
176
     0
 90
        5
176
     0
 90
        0
176
     0
 90
        0
176
     0
290
     0
176
     0
 90
        1
176
     0
 40
0.0
176
     0
 90
        0
176
     0
290
     0
176
     0
290
     1
176
     0
290
     1
176
     0
290
     0
176
     0
290
     0
176
     0
290
     0
176
     0
290
     0
176
     0
290
     0
176
     0
290
     0
176
     0
 90
       50
176
     0
 40
0.0
176
     0
 40
1.0
176
     0
 90
        0
176
     0
 62
    18
420
        0
176
     0
 90
       50
176
     0
 90
        3
176
     0
 62
     5
420
      255
176
     0
290
     0
176
     0
 90
       50
176
     0
 90
       50
176
     0
 90
       50
176
     0
290
     0
176
     0
 90
       50
176
     0
 62
   256
176
     0
 40
1.0
176
     0
 90
        2
176
     0
  1
strokes_ogs.tif
176
     0
290
     0
176
     0
 40
1.0
176
     0
 40
1.0
176
     0
  0
VISUALSTYLE
  5
A7
102
{ACAD_REACTORS
330
99
102
}
330
99
100
AcDbVisualStyle
  2
Linepattern
 70
    14
177
     3
291
     1
 70
    58
 90
        2
176
     1
 90
        2
176
     1
 90
        1
176
     1
 90
        0
176
     1
 40
-0.6
176
     1
 40
-30.0
176
     1
 62
     7
420
 16777215
176
     1
 90
        1
176
     1
 90
        4
176
     1
 62
     7
176
     1
 62
   257
176
     1
 90
        7
176
     1
 90
        7
176
     1
 40
1.0
176
     1
 90
        8
176
     1
 62
     7
176
     1
 40
1.0
176
     1
 90
        1
176
     1
 90
        6
176
     1
 90
        2
176
     1
 62
     7
176
     1
 90
        5
176
     1
 90
        0
176
     1
 90
        0
176
     1
290
     0
176
     1
 90
        1
176
     1
 40
0.0
176
     1
 90
        0
176
     1
290
     0
176
     1
290
     1
176
     1
290
     1
176
     1
290
     0
176
     1
290
     0
176
     1
290
     0
176
     1
290
     0
176
     1
290
     0
176
     1
290
     0
176
     1
 90
       50
176
     1
 40
0.0
176
     1
 40
1.0
176
     1
 90
        0
176
     1
 62
    18
420
        0
176
     1
 90
       50
176
     1
 90
        3
176
     1
 62
     5
420
      255
176
     1
290
     0
176
     1
 90
       50
176
     1
 90
       50
176
     1
 90
       50
176
     1
290
     0
176
     1
 90
       50
176
     1
 62
   256
176
     0
 40
1.0
176
     0
 90
        2
176
     1
  1
strokes_ogs.tif
176
     1
290
     0
176
     1
 40
1.0
176
     1
 40
1.0
176
     1
  0
VISUALSTYLE
  5
E6
102
{ACAD_REACTORS
330
99
102
}
330
99
100
AcDbVisualStyle
  2
OverhangOff
 70
    21
177
     3
291
     1
 70
    58
 90
        2
176
     0
 90
        2
176
     0
 90
        0
176
     0
 90
        0
176
     0
 40
0.6
176
     0
 40
30.0
176
     0
 62
     7
420
 16777215
176
     0
 90
        1
176
     0
 90
        4
176
     0
 62
     7
176
     0
 62
   257
176
     0
 90
        1
176
     0
 90
        1
176
     0
 40
1.0
176
     0
 90
        9
176
     2
 62
     7
176
     0
 40
1.0
176
     0
 90
        1
176
     0
 90
        6
176
     0
 90
        2
176
     0
 62
     7
176
     0
 90
        5
176
     0
 90
        0
176
     0
 90
        0
176
     0
290
     0
176
     0
 90
        1
176
     0
 40
0.0
176
     0
 90
        0
176
     0
290
     0
176
     0
290
     1
176
     0
290
     1
176
     0
290
     0
176
     0
290
     0
176
     0
290
     0
176
     0
290
     0
176
     0
290
     0
176
     0
290
     0
176
     0
 90
       50
176
     0
 40
0.0
176
     0
 40
1.0
176
     0
 90
        0
176
     0
 62
    18
420
        0
176
     0
 90
       50
176
     0
 90
        3
176
     0
 62
     5
420
      255
176
     0
290
     0
176
     0
 90
       50
176
     0
 90
       50
176
     0
 90
       50
176
     0
290
     0
176
     0
 90
       50
176
     0
 62
   256
176
     0
 40
1.0
176
     0
 90
        2
176
     0
  1
strokes_ogs.tif
176
     0
290
     0
176
     0
 40
1.0
176
     0
 40
1.0
176
     0
  0
VISUALSTYLE
  5
A3
102
{ACAD_REACTORS
330
99
102
}
330
99
100
AcDbVisualStyle
  2
Realistic
 70
     8
177
     3
291
     0
 70
    58
 90
        2
176
     1
 90
        2
176
     1
 90
        1
176
     1
 90
        0
176
     1
 40
-0.6
176
     1
 40
-30.0
176
     1
 62
     7
420
 16777215
176
     1
 90
        1
176
     1
 90
        0
176
     1
 62
     7
176
     1
 62
   257
176
     1
 90
        1
176
     1
 90
        1
176
     1
 40
1.0
176
     1
 90
        8
176
     1
 62
     8
420
  7895160
176
     1
 40
1.0
176
     1
 90
        1
176
     1
 90
        6
176
     1
 90
        2
176
     1
 62
     7
176
     1
 90
        5
176
     1
 90
        0
176
     1
 90
        0
176
     1
290
     0
176
     1
 90
       13
176
     1
 40
0.0
176
     1
 90
        0
176
     1
290
     0
176
     1
290
     1
176
     1
290
     1
176
     1
290
     0
176
     1
290
     0
176
     1
290
     0
176
     1
290
     0
176
     1
290
     0
176
     1
290
     0
176
     1
 90
       50
176
     1
 40
0.0
176
     1
 40
1.0
176
     1
 90
        0
176
     1
 62
    18
420
        0
176
     1
 90
       50
176
     1
 90
        3
176
     1
 62
     5
420
      255
176
     1
290
     0
176
     1
 90
       50
176
     1
 90
       50
176
     1
 90
       50
176
     1
290
     0
176
     1
 90
       50
176
     1
 62
   256
176
     0
 40
1.0
176
     0
 90
        2
176
     1
  1
strokes_ogs.tif
176
     1
290
     0
176
     1
 40
1.0
176
     1
 40
1.0
176
     1
  0
VISUALSTYLE
  5
EC
102
{ACAD_REACTORS
330
99
102
}
330
99
100
AcDbVisualStyle
  2
Shaded
 70
    27
177
     3
291
     0
 70
    58
 90
        2
176
     1
 90
        2
176
     1
 90
        1
176
     1
 90
        2
176
     1
 40
0.6
176
     1
 40
30.0
176
     1
 62
     7
420
 16777215
176
     1
 90
        0
176
     1
 90
        4
176
     1
 62
     7
176
     1
 62
   257
176
     1
 90
        1
176
     1
 90
        1
176
     1
 40
1.0
176
     1
 90
        8
176
     1
 62
   257
176
     1
 40
1.0
176
     1
 90
        1
176
     1
 90
        6
176
     1
 90
        2
176
     1
 62
     8
420
  7895160
176
     1
 90
        3
176
     1
 90
        0
176
     1
 90
        0
176
     1
290
     0
176
     1
 90
        5
176
     1
 40
0.0
176
     1
 90
        0
176
     1
290
     0
176
     1
290
     1
176
     1
290
     1
176
     1
290
     0
176
     1
290
     0
176
     1
290
     0
176
     1
290
     0
176
     1
290
     0
176
     1
290
     0
176
     1
 90
       50
176
     1
 40
0.0
176
     1
 40
1.0
176
     1
 90
        0
176
     1
 62
    18
420
        0
176
     1
 90
       50
176
     1
 90
        3
176
     1
 62
     5
420
      255
176
     1
290
     0
176
     1
 90
       50
176
     1
 90
       50
176
     1
 90
       50
176
     1
290
     0
176
     1
 90
       50
176
     1
 62
   256
176
     0
 40
1.0
176
     0
 90
        2
176
     1
  1
strokes_ogs.tif
176
     1
290
     0
176
     1
 40
1.0
176
     1
 40
1.0
176
     1
  0
VISUALSTYLE
  5
EB
102
{ACAD_REACTORS
330
99
102
}
330
99
100
AcDbVisualStyle
  2
Shaded with edges
 70
    26
177
     3
291
     0
 70
    58
 90
        2
176
     1
 90
        2
176
     1
 90
        1
176
     1
 90
        2
176
     1
 40
0.6
176
     1
 40
30.0
176
     1
 62
     7
420
 16777215
176
     1
 90
        1
176
     1
 90
       10
176
     1
 62
     7
176
     1
 62
   257
176
     1
 90
        2
176
     1
 90
        1
176
     1
 40
1.0
176
     1
 90
        8
176
     1
 62
   257
176
     1
 40
1.0
176
     1
 90
        1
176
     1
 90
        6
176
     1
 90
        2
176
     1
 62
     7
176
     1
 90
        3
176
     1
 90
        0
176
     1
 90
        0
176
     1
290
     0
176
     1
 90
        5
176
     1
 40
0.0
176
     1
 90
        0
176
     1
290
     0
176
     1
290
     1
176
     1
290
     1
176
     1
290
     0
176
     1
290
     0
176
     1
290
     0
176
     1
290
     0
176
     1
290
     0
176
     1
290
     0
176
     1
 90
       50
176
     1
 40
0.0
176
     1
 40
1.0
176
     1
 90
        0
176
     1
 62
    18
420
        0
176
     1
 90
       50
176
     1
 90
        3
176
     1
 62
     5
420
      255
176
     1
290
     0
176
     1
 90
       50
176
     1
 90
       50
176
     1
 90
       50
176
     1
290
     0
176
     1
 90
       50
176
     1
 62
   256
176
     0
 40
1.0
176
     0
 90
        2
176
     1
  1
strokes_ogs.tif
176
     1
290
     0
176
     1
 40
1.0
176
     1
 40
1.0
176
     1
  0
VISUALSTYLE
  5
E8
102
{ACAD_REACTORS
330
99
102
}
330
99
100
AcDbVisualStyle
  2
Shades of Gray
 70
    23
177
     3
291
     0
 70
    58
 90
        2
176
     1
 90
        2
176
     1
 90
        3
176
     1
 90
        0
176
     1
 40
0.6
176
     1
 40
30.0
176
     1
 62
     7
420
 16777215
176
     1
 90
        2
176
     1
 90
        2
176
     1
 62
     7
176
     1
 62
     7
176
     1
 90
        1
176
     1
 90
        1
176
     1
 40
40.0
176
     1
 90
        8
176
     1
 62
     7
176
     1
 40
1.0
176
     1
 90
        1
176
     1
 90
        6
176
     1
 90
        2
176
     1
 62
     7
176
     1
 90
        3
176
     1
 90
        0
176
     1
 90
        0
176
     1
290
     0
176
     1
 90
        1
176
     1
 40
0.0
176
     1
 90
        0
176
     1
290
     0
176
     1
290
     1
176
     1
290
     1
176
     1
290
     0
176
     1
290
     0
176
     1
290
     0
176
     1
290
     0
176
     1
290
     0
176
     1
290
     0
176
     1
 90
       50
176
     1
 40
0.0
176
     1
 40
1.0
176
     1
 90
        0
176
     1
 62
    18
420
        0
176
     1
 90
       50
176
     1
 90
        3
176
     1
 62
     5
420
      255
176
     1
290
     0
176
     1
 90
       50
176
     1
 90
       50
176
     1
 90
       50
176
     1
290
     0
176
     1
 90
       50
176
     1
 62
   256
176
     0
 40
1.0
176
     0
 90
        2
176
     1
  1
strokes_ogs.tif
176
     1
290
     0
176
     1
 40
1.0
176
     1
 40
1.0
176
     1
  0
VISUALSTYLE
  5
E9
102
{ACAD_REACTORS
330
99
102
}
330
99
100
AcDbVisualStyle
  2
Sketchy
 70
    24
177
     3
291
     0
 70
    58
 90
        1
176
     1
 90
        2
176
     1
 90
        2
176
     1
 90
        0
176
     1
 40
0.6
176
     1
 40
30.0
176
     1
 62
     7
420
 16777215
176
     1
 90
        2
176
     1
 90
        2
176
     1
 62
     7
176
     1
 62
     7
176
     1
 90
        1
176
     1
 90
        1
176
     1
 40
40.0
176
     1
 90
       11
176
     1
 62
     7
176
     1
 40
1.0
176
     1
 90
        1
176
     1
 90
        6
176
     1
 90
        2
176
     1
 62
     7
176
     1
 90
        6
176
     1
 90
        0
176
     1
 90
        0
176
     1
290
     0
176
     1
 90
        1
176
     1
 40
0.0
176
     1
 90
        0
176
     1
290
     0
176
     1
290
     1
176
     1
290
     1
176
     1
290
     0
176
     1
290
     0
176
     1
290
     0
176
     1
290
     0
176
     1
290
     0
176
     1
290
     0
176
     1
 90
       50
176
     1
 40
0.0
176
     1
 40
1.0
176
     1
 90
        0
176
     1
 62
    18
420
        0
176
     1
 90
       50
176
     1
 90
        3
176
     1
 62
     5
420
      255
176
     1
290
     0
176
     1
 90
       50
176
     1
 90
       50
176
     1
 90
       50
176
     1
290
     0
176
     1
 90
       50
176
     1
 62
   256
176
     0
 40
1.0
176
     0
 90
        2
176
     1
  1
strokes_ogs.tif
176
     1
290
     0
176
     1
 40
1.0
176
     1
 40
1.0
176
     1
  0
VISUALSTYLE
  5
A6
102
{ACAD_REACTORS
330
99
102
}
330
99
100
AcDbVisualStyle
  2
Thicken
 70
    13
177
     3
291
     1
 70
    58
 90
        2
176
     1
 90
        2
176
     1
 90
        1
176
     1
 90
        0
176
     1
 40
-0.6
176
     1
 40
-30.0
176
     1
 62
     7
420
 16777215
176
     1
 90
        1
176
     1
 90
        4
176
     1
 62
     7
176
     1
 62
   257
176
     1
 90
        1
176
     1
 90
        1
176
     1
 40
1.0
176
     1
 90
       12
176
     1
 62
     7
176
     1
 40
1.0
176
     1
 90
        1
176
     1
 90
        6
176
     1
 90
        2
176
     1
 62
     7
176
     1
 90
        5
176
     1
 90
        0
176
     1
 90
        0
176
     1
290
     0
176
     1
 90
        1
176
     1
 40
0.0
176
     1
 90
        0
176
     1
290
     0
176
     1
290
     1
176
     1
290
     1
176
     1
290
     0
176
     1
290
     0
176
     1
290
     0
176
     1
290
     0
176
     1
290
     0
176
     1
290
     0
176
     1
 90
       50
176
     1
 40
0.0
176
     1
 40
1.0
176
     1
 90
        0
176
     1
 62
    18
420
        0
176
     1
 90
       50
176
     1
 90
        3
176
     1
 62
     5
420
      255
176
     1
290
     0
176
     1
 90
       50
176
     1
 90
       50
176
     1
 90
       50
176
     1
290
     0
176
     1
 90
       50
176
     1
 62
   256
176
     0
 40
1.0
176
     0
 90
        2
176
     1
  1
strokes_ogs.tif
176
     1
290
     0
176
     1
 40
1.0
176
     1
 40
1.0
176
     1
  0
VISUALSTYLE
  5
E3
102
{ACAD_REACTORS
330
99
102
}
330
99
100
AcDbVisualStyle
  2
Wireframe
 70
     5
177
     3
291
     0
 70
    58
 90
        0
176
     1
 90
        2
176
     1
 90
        0
176
     1
 90
        0
176
     1
 40
0.6
176
     1
 40
30.0
176
     1
 62
     7
420
 16777215
176
     1
 90
        1
176
     1
 90
        4
176
     1
 62
     7
176
     1
 62
   257
176
     1
 90
        1
176
     1
 90
        1
176
     1
 40
1.0
176
     1
 90
        0
176
     1
 62
   257
176
     1
 40
1.0
176
     1
 90
        1
176
     1
 90
        6
176
     1
 90
        2
176
     1
 62
     7
176
     1
 90
        3
176
     1
 90
        0
176
     1
 90
        0
176
     1
290
     0
176
     1
 90
        1
176
     1
 40
0.0
176
     1
 90
        0
176
     1
290
     0
176
     1
290
     1
176
     1
290
     1
176
     1
290
     0
176
     1
290
     0
176
     1
290
     0
176
     1
290
     0
176
     1
290
     0
176
     1
290
     0
176
     1
 90
       50
176
     1
 40
0.0
176
     1
 40
1.0
176
     1
 90
        0
176
     1
 62
    18
420
        0
176
     1
 90
       50
176
     1
 90
        3
176
     1
 62
     5
420
      255
176
     1
290
     0
176
     1
 90
       50
176
     1
 90
       50
176
     1
 90
       50
176
     1
290
     0
176
     1
 90
       50
176
     1
 62
   256
176
     0
 40
1.0
176
     0
 90
        2
176
     1
  1
strokes_ogs.tif
176
     1
290
     0
176
     1
 40
1.0
176
     1
 40
1.0
176
     1
  0
VISUALSTYLE
  5
EA
102
{ACAD_REACTORS
330
99
102
}
330
99
100
AcDbVisualStyle
  2
X-Ray
 70
    25
177
     3
291
     0
 70
    58
 90
        2
176
     1
 90
        2
176
     1
 90
        1
176
     1
 90
        1
176
     1
 40
0.5
176
     1
 40
30.0
176
     1
 62
     7
420
 16777215
176
     1
 90
        1
176
     1
 90
        0
176
     1
 62
     7
176
     1
 62
   257
176
     1
 90
        1
176
     1
 90
        1
176
     1
 40
1.0
176
     1
 90
        8
176
     1
 62
     7
176
     1
 40
1.0
176
     1
 90
        1
176
     1
 90
        6
176
     1
 90
        2
176
     1
 62
     7
176
     1
 90
        3
176
     1
 90
        0
176
     1
 90
        0
176
     1
290
     0
176
     1
 90
       13
176
     1
 40
0.0
176
     1
 90
        0
176
     1
290
     0
176
     1
290
     1
176
     1
290
     1
176
     1
290
     0
176
     1
290
     0
176
     1
290
     0
176
     1
290
     0
176
     1
290
     0
176
     1
290
     0
176
     1
 90
       50
176
     1
 40
0.0
176
     1
 40
1.0
176
     1
 90
        0
176
     1
 62
    18
420
        0
176
     1
 90
       50
176
     1
 90
        3
176
     1
 62
     5
420
      255
176
     1
290
     0
176
     1
 90
       50
176
     1
 90
       50
176
     1
 90
       50
176
     1
290
     0
176
     1
 90
       50
176
     1
 62
   256
176
     0
 40
1.0
176
     0
 90
        2
176
     1
  1
strokes_ogs.tif
176
     1
290
     0
176
     1
 40
1.0
176
     1
 40
1.0
176
     1
  0
DICTIONARYVAR
  5
D8
102
{ACAD_REACTORS
330
66
102
}
330
66
100
DictionaryVariables
280
     0
  1
1:1
  0
DICTIONARYVAR
  5
89
102
{ACAD_REACTORS
330
66
102
}
330
66
100
DictionaryVariables
280
     0
  1
Standard
  0
DICTIONARYVAR
  5
67
102
{ACAD_REACTORS
330
66
102
}
330
66
100
DictionaryVariables
280
     0
  1
2
  0
DICTIONARYVAR
  5
6B
102
{ACAD_REACTORS
330
66
102
}
330
66
100
DictionaryVariables
280
     0
  1
1
  0
DICTIONARYVAR
  5
DF
102
{ACAD_REACTORS
330
66
102
}
330
66
100
DictionaryVariables
280
     0
  1
0
  0
DICTIONARYVAR
  5
E0
102
{ACAD_REACTORS
330
66
102
}
330
66
100
DictionaryVariables
280
     0
  1
0
  0
DICTIONARY
  5
400
330
87
100
AcDbDictionary
280
     1
281
     1
  3
ACAD_ROUNDTRIP_2008_TABLESTYLE_CELLSTYLEMAP
360
401
  0
CELLSTYLEMAP
  5
401
102
{ACAD_REACTORS
330
400
102
}
330
400
100
AcDbCellStyleMap
 90
        3
300
CELLSTYLE
  1
TABLEFORMAT_BEGIN
 90
        5
170
     1
 91
        0
 92
    32768
 62
   257
 93
        1
300
CONTENTFORMAT
  1
CONTENTFORMAT_BEGIN
 90
        0
 91
        0
 92
      512
 93
        0
300

 40
0.0
140
1.0
 94
        5
 62
     0
340
11
144
0.25
309
CONTENTFORMAT_END
171
     0
 94
        6
 95
        1
302
GRIDFORMAT
  1
GRIDFORMAT_BEGIN
 90
        0
 91
        1
 62
     0
 92
       -2
340
0
 93
        0
 40
0.045
309
GRIDFORMAT_END
 95
        2
302
GRIDFORMAT
  1
GRIDFORMAT_BEGIN
 90
        0
 91
        1
 62
     0
 92
       -2
340
0
 93
        0
 40
0.045
309
GRIDFORMAT_END
 95
        4
302
GRIDFORMAT
  1
GRIDFORMAT_BEGIN
 90
        0
 91
        1
 62
     0
 92
       -2
340
0
 93
        0
 40
0.045
309
GRIDFORMAT_END
 95
        8
302
GRIDFORMAT
  1
GRIDFORMAT_BEGIN
 90
        0
 91
        1
 62
     0
 92
       -2
340
0
 93
        0
 40
0.045
309
GRIDFORMAT_END
 95
       16
302
GRIDFORMAT
  1
GRIDFORMAT_BEGIN
 90
        0
 91
        1
 62
     0
 92
       -2
340
0
 93
        0
 40
0.045
309
GRIDFORMAT_END
 95
       32
302
GRIDFORMAT
  1
GRIDFORMAT_BEGIN
 90
        0
 91
        1
 62
     0
 92
       -2
340
0
 93
        0
 40
0.045
309
GRIDFORMAT_END
309
TABLEFORMAT_END
  1
CELLSTYLE_BEGIN
 90
        1
 91
        1
300
_TITLE
309
CELLSTYLE_END
300
CELLSTYLE
  1
TABLEFORMAT_BEGIN
 90
        5
170
     1
 91
        0
 92
        0
 62
   257
 93
        1
300
CONTENTFORMAT
  1
CONTENTFORMAT_BEGIN
 90
        0
 91
        0
 92
      512
 93
        0
300

 40
0.0
140
1.0
 94
        5
 62
     0
340
11
144
0.18
309
CONTENTFORMAT_END
171
     0
 94
        6
 95
        1
302
GRIDFORMAT
  1
GRIDFORMAT_BEGIN
 90
        0
 91
        1
 62
     0
 92
       -2
340
0
 93
        0
 40
0.045
309
GRIDFORMAT_END
 95
        2
302
GRIDFORMAT
  1
GRIDFORMAT_BEGIN
 90
        0
 91
        1
 62
     0
 92
       -2
340
0
 93
        0
 40
0.045
309
GRIDFORMAT_END
 95
        4
302
GRIDFORMAT
  1
GRIDFORMAT_BEGIN
 90
        0
 91
        1
 62
     0
 92
       -2
340
0
 93
        0
 40
0.045
309
GRIDFORMAT_END
 95
        8
302
GRIDFORMAT
  1
GRIDFORMAT_BEGIN
 90
        0
 91
        1
 62
     0
 92
       -2
340
0
 93
        0
 40
0.045
309
GRIDFORMAT_END
 95
       16
302
GRIDFORMAT
  1
GRIDFORMAT_BEGIN
 90
        0
 91
        1
 62
     0
 92
       -2
340
0
 93
        0
 40
0.045
309
GRIDFORMAT_END
 95
       32
302
GRIDFORMAT
  1
GRIDFORMAT_BEGIN
 90
        0
 91
        1
 62
     0
 92
       -2
340
0
 93
        0
 40
0.045
309
GRIDFORMAT_END
309
TABLEFORMAT_END
  1
CELLSTYLE_BEGIN
 90
        2
 91
        1
300
_HEADER
309
CELLSTYLE_END
300
CELLSTYLE
  1
TABLEFORMAT_BEGIN
 90
        5
170
     1
 91
        0
 92
        0
 62
   257
 93
        1
300
CONTENTFORMAT
  1
CONTENTFORMAT_BEGIN
 90
        0
 91
        0
 92
      512
 93
        0
300

 40
0.0
140
1.0
 94
        2
 62
     0
340
11
144
0.18
309
CONTENTFORMAT_END
171
     0
 94
        6
 95
        1
302
GRIDFORMAT
  1
GRIDFORMAT_BEGIN
 90
        0
 91
        1
 62
     0
 92
       -2
340
0
 93
        0
 40
0.045
309
GRIDFORMAT_END
 95
        2
302
GRIDFORMAT
  1
GRIDFORMAT_BEGIN
 90
        0
 91
        1
 62
     0
 92
       -2
340
0
 93
        0
 40
0.045
309
GRIDFORMAT_END
 95
        4
302
GRIDFORMAT
  1
GRIDFORMAT_BEGIN
 90
        0
 91
        1
 62
     0
 92
       -2
340
0
 93
        0
 40
0.045
309
GRIDFORMAT_END
 95
        8
302
GRIDFORMAT
  1
GRIDFORMAT_BEGIN
 90
        0
 91
        1
 62
     0
 92
       -2
340
0
 93
        0
 40
0.045
309
GRIDFORMAT_END
 95
       16
302
GRIDFORMAT
  1
GRIDFORMAT_BEGIN
 90
        0
 91
        1
 62
     0
 92
       -2
340
0
 93
        0
 40
0.045
309
GRIDFORMAT_END
 95
       32
302
GRIDFORMAT
  1
GRIDFORMAT_BEGIN
 90
        0
 91
        1
 62
     0
 92
       -2
340
0
 93
        0
 40
0.045
309
GRIDFORMAT_END
309
TABLEFORMAT_END
  1
CELLSTYLE_BEGIN
 90
        3
 91
        2
300
_DATA
309
CELLSTYLE_END
  0
ENDSEC
  0
EOF
