  0
SECTION
  2
HEADER
  9
$ACADVER
  1
AC1027
  9
$ACADMAINTVER
 70
     8
  9
$DWGCODEPAGE
  3
ANSI_932
  9
$REQUIREDVERSIONS
160
                 0
  9
$LASTSAVEDBY
  1
Yasu
  9
$INSBASE
 10
0.0
 20
0.0
 30
0.0
  9
$EXTMIN
 10
-0.4435899927201846
 20
14.17613380552815
 30
0.0
  9
$EXTMAX
 10
268.8357858766949
 20
233.9572180965426
 30
0.0
  9
$LIMMIN
 10
0.0
 20
0.0
  9
$LIMMAX
 10
12.0
 20
9.0
  9
$ORTHOMODE
 70
     0
  9
$REGENMODE
 70
     1
  9
$FILLMODE
 70
     1
  9
$QTEXTMODE
 70
     0
  9
$MIRRTEXT
 70
     0
  9
$LTSCALE
 40
1.0
  9
$ATTMODE
 70
     1
  9
$TEXTSIZE
 40
0.2
  9
$TRACEWID
 40
0.05
  9
$TEXTSTYLE
  7
Standard
  9
$CLAYER
  8
0
  9
$CELTYPE
  6
ByLayer
  9
$CECOLOR
 62
   256
  9
$CELTSCALE
 40
1.0
  9
$DISPSILH
 70
     0
  9
$DIMSCALE
 40
1.0
  9
$DIMASZ
 40
0.18
  9
$DIMEXO
 40
0.0625
  9
$DIMDLI
 40
0.38
  9
$DIMRND
 40
0.0
  9
$DIMDLE
 40
0.0
  9
$DIMEXE
 40
0.18
  9
$DIMTP
 40
0.0
  9
$DIMTM
 40
0.0
  9
$DIMTXT
 40
0.18
  9
$DIMCEN
 40
0.09
  9
$DIMTSZ
 40
0.0
  9
$DIMTOL
 70
     0
  9
$DIMLIM
 70
     0
  9
$DIMTIH
 70
     1
  9
$DIMTOH
 70
     1
  9
$DIMSE1
 70
     0
  9
$DIMSE2
 70
     0
  9
$DIMTAD
 70
     0
  9
$DIMZIN
 70
     0
  9
$DIMBLK
  1

  9
$DIMASO
 70
     1
  9
$DIMSHO
 70
     1
  9
$DIMPOST
  1

  9
$DIMAPOST
  1

  9
$DIMALT
 70
     0
  9
$DIMALTD
 70
     2
  9
$DIMALTF
 40
25.4
  9
$DIMLFAC
 40
1.0
  9
$DIMTOFL
 70
     0
  9
$DIMTVP
 40
0.0
  9
$DIMTIX
 70
     0
  9
$DIMSOXD
 70
     0
  9
$DIMSAH
 70
     0
  9
$DIMBLK1
  1

  9
$DIMBLK2
  1

  9
$DIMSTYLE
  2
Standard
  9
$DIMCLRD
 70
     0
  9
$DIMCLRE
 70
     0
  9
$DIMCLRT
 70
     0
  9
$DIMTFAC
 40
1.0
  9
$DIMGAP
 40
0.09
  9
$DIMJUST
 70
     0
  9
$DIMSD1
 70
     0
  9
$DIMSD2
 70
     0
  9
$DIMTOLJ
 70
     1
  9
$DIMTZIN
 70
     0
  9
$DIMALTZ
 70
     0
  9
$DIMALTTZ
 70
     0
  9
$DIMUPT
 70
     0
  9
$DIMDEC
 70
     4
  9
$DIMTDEC
 70
     4
  9
$DIMALTU
 70
     2
  9
$DIMALTTD
 70
     2
  9
$DIMTXSTY
  7
Standard
  9
$DIMAUNIT
 70
     0
  9
$DIMADEC
 70
     0
  9
$DIMALTRND
 40
0.0
  9
$DIMAZIN
 70
     0
  9
$DIMDSEP
 70
    46
  9
$DIMATFIT
 70
     3
  9
$DIMFRAC
 70
     0
  9
$DIMLDRBLK
  1

  9
$DIMLUNIT
 70
     2
  9
$DIMLWD
 70
    -2
  9
$DIMLWE
 70
    -2
  9
$DIMTMOVE
 70
     0
  9
$DIMFXL
 40
1.0
  9
$DIMFXLON
 70
     0
  9
$DIMJOGANG
 40
0.7853981633974483
  9
$DIMTFILL
 70
     0
  9
$DIMTFILLCLR
 70
     0
  9
$DIMARCSYM
 70
     0
  9
$DIMLTYPE
  6

  9
$DIMLTEX1
  6

  9
$DIMLTEX2
  6

  9
$DIMTXTDIRECTION
 70
     0
  9
$LUNITS
 70
     2
  9
$LUPREC
 70
     4
  9
$SKETCHINC
 40
0.1
  9
$FILLETRAD
 40
0.0
  9
$AUNITS
 70
     0
  9
$AUPREC
 70
     0
  9
$MENU
  1
.
  9
$ELEVATION
 40
0.0
  9
$PELEVATION
 40
0.0
  9
$THICKNESS
 40
0.0
  9
$LIMCHECK
 70
     0
  9
$CHAMFERA
 40
0.0
  9
$CHAMFERB
 40
0.0
  9
$CHAMFERC
 40
0.0
  9
$CHAMFERD
 40
0.0
  9
$SKPOLY
 70
     0
  9
$TDCREATE
 40
2452643.438384271
  9
$TDUCREATE
 40
2452643.063384271
  9
$TDUPDATE
 40
2456739.712265301
  9
$TDUUPDATE
 40
2456739.337265301
  9
$TDINDWG
 40
0.0042743287
  9
$TDUSRTIMER
 40
2456739.336706181
  9
$USRTIMER
 70
     1
  9
$ANGBASE
 50
0.0
  9
$ANGDIR
 70
     0
  9
$PDMODE
 70
     0
  9
$PDSIZE
 40
0.0
  9
$PLINEWID
 40
0.0
  9
$SPLFRAME
 70
     0
  9
$SPLINETYPE
 70
     6
  9
$SPLINESEGS
 70
     8
  9
$HANDSEED
  5
3EC
  9
$SURFTAB1
 70
     6
  9
$SURFTAB2
 70
     6
  9
$SURFTYPE
 70
     6
  9
$SURFU
 70
     6
  9
$SURFV
 70
     6
  9
$UCSBASE
  2

  9
$UCSNAME
  2

  9
$UCSORG
 10
0.0
 20
0.0
 30
0.0
  9
$UCSXDIR
 10
1.0
 20
0.0
 30
0.0
  9
$UCSYDIR
 10
0.0
 20
1.0
 30
0.0
  9
$UCSORTHOREF
  2

  9
$UCSORTHOVIEW
 70
     0
  9
$UCSORGTOP
 10
0.0
 20
0.0
 30
0.0
  9
$UCSORGBOTTOM
 10
0.0
 20
0.0
 30
0.0
  9
$UCSORGLEFT
 10
0.0
 20
0.0
 30
0.0
  9
$UCSORGRIGHT
 10
0.0
 20
0.0
 30
0.0
  9
$UCSORGFRONT
 10
0.0
 20
0.0
 30
0.0
  9
$UCSORGBACK
 10
0.0
 20
0.0
 30
0.0
  9
$PUCSBASE
  2

  9
$PUCSNAME
  2

  9
$PUCSORG
 10
0.0
 20
0.0
 30
0.0
  9
$PUCSXDIR
 10
1.0
 20
0.0
 30
0.0
  9
$PUCSYDIR
 10
0.0
 20
1.0
 30
0.0
  9
$PUCSORTHOREF
  2

  9
$PUCSORTHOVIEW
 70
     0
  9
$PUCSORGTOP
 10
0.0
 20
0.0
 30
0.0
  9
$PUCSORGBOTTOM
 10
0.0
 20
0.0
 30
0.0
  9
$PUCSORGLEFT
 10
0.0
 20
0.0
 30
0.0
  9
$PUCSORGRIGHT
 10
0.0
 20
0.0
 30
0.0
  9
$PUCSORGFRONT
 10
0.0
 20
0.0
 30
0.0
  9
$PUCSORGBACK
 10
0.0
 20
0.0
 30
0.0
  9
$USERI1
 70
     0
  9
$USERI2
 70
     0
  9
$USERI3
 70
     0
  9
$USERI4
 70
     0
  9
$USERI5
 70
     0
  9
$USERR1
 40
0.0
  9
$USERR2
 40
0.0
  9
$USERR3
 40
0.0
  9
$USERR4
 40
0.0
  9
$USERR5
 40
0.0
  9
$WORLDVIEW
 70
     1
  9
$SHADEDGE
 70
     3
  9
$SHADEDIF
 70
    70
  9
$TILEMODE
 70
     1
  9
$MAXACTVP
 70
    64
  9
$PINSBASE
 10
0.0
 20
0.0
 30
0.0
  9
$PLIMCHECK
 70
     0
  9
$PEXTMIN
 10
0.0
 20
0.0
 30
0.0
  9
$PEXTMAX
 10
0.0
 20
0.0
 30
0.0
  9
$PLIMMIN
 10
0.0
 20
0.0
  9
$PLIMMAX
 10
0.0
 20
0.0
  9
$UNITMODE
 70
     0
  9
$VISRETAIN
 70
     1
  9
$PLINEGEN
 70
     0
  9
$PSLTSCALE
 70
     1
  9
$TREEDEPTH
 70
  3020
  9
$CMLSTYLE
  2
Standard
  9
$CMLJUST
 70
     0
  9
$CMLSCALE
 40
1.0
  9
$PROXYGRAPHICS
 70
     1
  9
$MEASUREMENT
 70
     0
  9
$CELWEIGHT
370
    -1
  9
$ENDCAPS
280
     0
  9
$JOINSTYLE
280
     0
  9
$LWDISPLAY
290
     0
  9
$INSUNITS
 70
     1
  9
$HYPERLINKBASE
  1

  9
$STYLESHEET
  1

  9
$XEDIT
290
     1
  9
$CEPSNTYPE
380
     0
  9
$PSTYLEMODE
290
     1
  9
$FINGERPRINTGUID
  2
{FDEAD576-A652-11D2-9A35-0060089B3A3F}
  9
$VERSIONGUID
  2
{FBC2AE19-5C5C-49EC-81BC-71B1A3362A02}
  9
$EXTNAMES
290
     1
  9
$PSVPSCALE
 40
0.0
  9
$OLESTARTUP
290
     0
  9
$SORTENTS
280
   127
  9
$INDEXCTL
280
     0
  9
$HIDETEXT
280
     1
  9
$XCLIPFRAME
280
     0
  9
$HALOGAP
280
     0
  9
$OBSCOLOR
 70
   257
  9
$OBSLTYPE
280
     0
  9
$INTERSECTIONDISPLAY
280
     0
  9
$INTERSECTIONCOLOR
 70
   257
  9
$DIMASSOC
280
     2
  9
$PROJECTNAME
  1

  9
$CAMERADISPLAY
290
     0
  9
$LENSLENGTH
 40
50.0
  9
$CAMERAHEIGHT
 40
0.0
  9
$STEPSPERSEC
 40
2.0
  9
$STEPSIZE
 40
6.0
  9
$3DDWFPREC
 40
2.0
  9
$PSOLWIDTH
 40
0.25
  9
$PSOLHEIGHT
 40
4.0
  9
$LOFTANG1
 40
1.570796326794897
  9
$LOFTANG2
 40
1.570796326794897
  9
$LOFTMAG1
 40
0.0
  9
$LOFTMAG2
 40
0.0
  9
$LOFTPARAM
 70
     7
  9
$LOFTNORMALS
280
     1
  9
$LATITUDE
 40
37.795
  9
$LONGITUDE
 40
-122.394
  9
$NORTHDIRECTION
 40
0.0
  9
$TIMEZONE
 70
 -8000
  9
$LIGHTGLYPHDISPLAY
280
     1
  9
$TILEMODELIGHTSYNCH
280
     1
  9
$CMATERIAL
347
96
  9
$SOLIDHIST
280
     1
  9
$SHOWHIST
280
     1
  9
$DWFFRAME
280
     2
  9
$DGNFRAME
280
     0
  9
$REALWORLDSCALE
290
     1
  9
$INTERFERECOLOR
 62
     1
  9
$CSHADOW
280
     0
  9
$SHADOWPLANELOCATION
 40
0.0
  0
ENDSEC
  0
SECTION
  2
CLASSES
  0
CLASS
  1
ACDBDICTIONARYWDFLT
  2
AcDbDictionaryWithDefault
  3
ObjectDBX Classes
 90
        0
 91
        7
280
     0
281
     0
  0
CLASS
  1
ACDBPLACEHOLDER
  2
AcDbPlaceHolder
  3
ObjectDBX Classes
 90
        0
 91
        1
280
     0
281
     0
  0
CLASS
  1
LAYOUT
  2
AcDbLayout
  3
ObjectDBX Classes
 90
        0
 91
        1
280
     0
281
     0
  0
CLASS
  1
DICTIONARYVAR
  2
AcDbDictionaryVar
  3
ObjectDBX Classes
 90
        0
 91
        5
280
     0
281
     0
  0
CLASS
  1
TABLESTYLE
  2
AcDbTableStyle
  3
ObjectDBX Classes
 90
     4095
 91
        7
280
     0
281
     0
  0
CLASS
  1
MATERIAL
  2
AcDbMaterial
  3
ObjectDBX Classes
 90
     1153
 91
        7
280
     0
281
     0
  0
CLASS
  1
VISUALSTYLE
  2
AcDbVisualStyle
  3
ObjectDBX Classes
 90
     4095
 91
        7
280
     0
281
     0
  0
CLASS
  1
SCALE
  2
AcDbScale
  3
ObjectDBX Classes
 90
     1153
 91
        7
280
     0
281
     0
  0
CLASS
  1
CELLSTYLEMAP
  2
AcDbCellStyleMap
  3
ObjectDBX Classes
 90
     1152
 91
        5
280
     0
281
     0
  0
CLASS
  1
RASTERVARIABLES
  2
AcDbRasterVariables
  3
ISM
 90
        0
 91
        7
280
     0
281
     0
  0
CLASS
  1
SUN
  2
AcDbSun
  3
SCENEOE
 90
     1153
 91
        7
280
     0
281
     0
  0
CLASS
  1
DIMASSOC
  2
AcDbDimAssoc
  3
"AcDbDimAssoc|Product Desc:     AcDim ARX App For Dimension|Company:          Autodesk, Inc.|WEB Address:      www.autodesk.com"
 90
        0
 91
        5
280
     0
281
     0
  0
ENDSEC
  0
SECTION
  2
TABLES
  0
TABLE
  2
VPORT
  5
8
330
0
100
AcDbSymbolTable
 70
     1
  0
VPORT
  5
94
330
8
100
AcDbSymbolTableRecord
100
AcDbViewportTableRecord
  2
*Active
 70
     0
 10
0.0
 20
0.0
 11
1.0
 21
1.0
 12
161.8656915079672
 22
143.6053789088974
 13
0.0
 23
0.0
 14
0.5
 24
0.5
 15
0.5
 25
0.5
 16
0.0
 26
0.0
 36
1.0
 17
-27.66959356597982
 27
-19.53870295786204
 37
0.0
 40
224.1767059768347
 41
1.762376237623762
 42
50.0
 43
0.0
 44
0.0
 50
0.0
 51
0.0
 71
    16
 72
  1000
 73
     1
 74
     3
 75
     0
 76
     0
 77
     0
 78
     0
281
     0
 65
     1
110
0.0
120
0.0
130
0.0
111
1.0
121
0.0
131
0.0
112
0.0
122
1.0
132
0.0
 79
     0
146
0.0
348
9F
 60
     2
 61
     5
292
     1
282
     1
141
0.0
142
0.0
 63
   250
421
  3355443
361
ED
  0
ENDTAB
  0
TABLE
  2
LTYPE
  5
5
330
0
100
AcDbSymbolTable
 70
     2
  0
LTYPE
  5
14
330
5
100
AcDbSymbolTableRecord
100
AcDbLinetypeTableRecord
  2
ByBlock
 70
     0
  3

 72
    65
 73
     0
 40
0.0
  0
LTYPE
  5
15
330
5
100
AcDbSymbolTableRecord
100
AcDbLinetypeTableRecord
  2
ByLayer
 70
     0
  3

 72
    65
 73
     0
 40
0.0
  0
LTYPE
  5
16
330
5
100
AcDbSymbolTableRecord
100
AcDbLinetypeTableRecord
  2
Continuous
 70
     0
  3
Solid line
 72
    65
 73
     0
 40
0.0
  0
LTYPE
  5
129
330
5
100
AcDbSymbolTableRecord
100
AcDbLinetypeTableRecord
  2
CENTER
 70
     0
  3
Center ____ _ ____ _ ____ _ ____ _ ____ _ ____
 72
    65
 73
     4
 40
50.8
 49
31.75
 74
     0
 49
-6.35
 74
     0
 49
6.35
 74
     0
 49
-6.35
 74
     0
  0
ENDTAB
  0
TABLE
  2
LAYER
  5
2
330
0
100
AcDbSymbolTable
 70
     6
  0
LAYER
  5
10
330
2
100
AcDbSymbolTableRecord
100
AcDbLayerTableRecord
  2
0
 70
     0
 62
     7
  6
Continuous
370
    -3
390
F
347
98
348
0
  0
LAYER
  5
125
330
2
100
AcDbSymbolTableRecord
100
AcDbLayerTableRecord
  2
Defpoints
 70
     0
 62
     7
  6
Continuous
290
     0
370
    -3
390
F
347
98
348
0
  0
LAYER
  5
126
330
2
100
AcDbSymbolTableRecord
100
AcDbLayerTableRecord
  2
文字
 70
     0
 62
     7
  6
Continuous
370
    30
390
F
347
98
348
0
  0
LAYER
  5
128
330
2
100
AcDbSymbolTableRecord
100
AcDbLayerTableRecord
  2
中心線
 70
     0
 62
     7
  6
CENTER
370
    30
390
F
347
98
348
0
  0
LAYER
  5
12A
330
2
100
AcDbSymbolTableRecord
100
AcDbLayerTableRecord
  2
実線
 70
     0
 62
     7
  6
Continuous
370
    50
390
F
347
98
348
0
  0
LAYER
  5
2AA
330
2
100
AcDbSymbolTableRecord
100
AcDbLayerTableRecord
  2
文字・寸法線
 70
     0
 62
     7
  6
Continuous
370
    -3
390
F
347
98
348
0
  0
ENDTAB
  0
TABLE
  2
STYLE
  5
3
330
0
100
AcDbSymbolTable
 70
     1
  0
STYLE
  5
11
330
3
100
AcDbSymbolTableRecord
100
AcDbTextStyleTableRecord
  2
Standard
 70
     0
 40
0.0
 41
1.0
 50
0.0
 71
     0
 42
0.2
  3
arial.ttf
  4

1001
ACAD
1000
Arial
1071
        0
  0
ENDTAB
  0
TABLE
  2
VIEW
  5
6
330
0
100
AcDbSymbolTable
 70
     0
  0
ENDTAB
  0
TABLE
  2
UCS
  5
7
330
0
100
AcDbSymbolTable
 70
     0
  0
ENDTAB
  0
TABLE
  2
APPID
  5
9
330
0
100
AcDbSymbolTable
 70
     1
  0
APPID
  5
12
330
9
100
AcDbSymbolTableRecord
100
AcDbRegAppTableRecord
  2
ACAD
 70
     0
  0
ENDTAB
  0
TABLE
  2
DIMSTYLE
  5
A
330
0
100
AcDbSymbolTable
 70
     2
100
AcDbDimStyleTable
  0
DIMSTYLE
105
27
330
A
100
AcDbSymbolTableRecord
100
AcDbDimStyleTableRecord
  2
Standard
 70
     0
178
     0
340
11
  0
DIMSTYLE
105
12B
102
{ACAD_REACTORS
330
205
330
20B
330
22D
330
230
330
235
330
240
330
307
330
381
330
387
330
389
102
}
330
A
100
AcDbSymbolTableRecord
100
AcDbDimStyleTableRecord
  2
ISO-25
 70
     0
 41
2.5
 42
0.625
 43
3.75
 44
1.25
 73
     0
 74
     0
 77
     1
 78
     8
140
2.5
141
2.5
143
0.03937007874016
147
0.625
171
     3
172
     1
178
     0
271
     2
272
     2
274
     3
283
     0
284
     8
340
11
  0
ENDTAB
  0
TABLE
  2
BLOCK_RECORD
  5
1
330
0
100
AcDbSymbolTable
 70
    25
  0
BLOCK_RECORD
  5
1F
330
1
100
AcDbSymbolTableRecord
100
AcDbBlockTableRecord
  2
*Model_Space
340
22
 70
     0
280
     1
281
     0
  0
BLOCK_RECORD
  5
58
330
1
100
AcDbSymbolTableRecord
100
AcDbBlockTableRecord
  2
*Paper_Space
340
59
 70
     0
280
     1
281
     0
  0
BLOCK_RECORD
  5
5D
330
1
100
AcDbSymbolTableRecord
100
AcDbBlockTableRecord
  2
*Paper_Space0
340
5E
 70
     0
280
     1
281
     0
  0
BLOCK_RECORD
  5
15A
330
1
100
AcDbSymbolTableRecord
100
AcDbBlockTableRecord
  2
*D1
340
0
 70
     0
280
     1
281
     0
  0
BLOCK_RECORD
  5
16C
330
1
100
AcDbSymbolTableRecord
100
AcDbBlockTableRecord
  2
*D2
340
0
 70
     0
280
     1
281
     0
  0
BLOCK_RECORD
  5
18F
330
1
100
AcDbSymbolTableRecord
100
AcDbBlockTableRecord
  2
*D3
340
0
 70
     0
280
     1
281
     0
  0
BLOCK_RECORD
  5
1A3
330
1
100
AcDbSymbolTableRecord
100
AcDbBlockTableRecord
  2
*D4
340
0
 70
     0
280
     1
281
     0
  0
BLOCK_RECORD
  5
1B2
330
1
100
AcDbSymbolTableRecord
100
AcDbBlockTableRecord
  2
*D5
340
0
 70
     0
280
     1
281
     0
  0
BLOCK_RECORD
  5
1C1
330
1
100
AcDbSymbolTableRecord
100
AcDbBlockTableRecord
  2
*D6
340
0
 70
     0
280
     1
281
     0
  0
BLOCK_RECORD
  5
1D2
330
1
100
AcDbSymbolTableRecord
100
AcDbBlockTableRecord
  2
*D7
340
0
 70
     0
280
     1
281
     0
  0
BLOCK_RECORD
  5
1E5
330
1
100
AcDbSymbolTableRecord
100
AcDbBlockTableRecord
  2
*D8
340
0
 70
     0
280
     1
281
     0
  0
BLOCK_RECORD
  5
243
330
1
100
AcDbSymbolTableRecord
100
AcDbBlockTableRecord
  2
*D9
340
0
 70
     0
280
     1
281
     0
  0
BLOCK_RECORD
  5
24F
330
1
100
AcDbSymbolTableRecord
100
AcDbBlockTableRecord
  2
*D10
340
0
 70
     0
280
     1
281
     0
  0
BLOCK_RECORD
  5
25B
330
1
100
AcDbSymbolTableRecord
100
AcDbBlockTableRecord
  2
*D11
340
0
 70
     0
280
     1
281
     0
  0
BLOCK_RECORD
  5
267
330
1
100
AcDbSymbolTableRecord
100
AcDbBlockTableRecord
  2
*D12
340
0
 70
     0
280
     1
281
     0
  0
BLOCK_RECORD
  5
273
330
1
100
AcDbSymbolTableRecord
100
AcDbBlockTableRecord
  2
*D13
340
0
 70
     0
280
     1
281
     0
  0
BLOCK_RECORD
  5
27F
330
1
100
AcDbSymbolTableRecord
100
AcDbBlockTableRecord
  2
*D14
340
0
 70
     0
280
     1
281
     0
  0
BLOCK_RECORD
  5
28B
330
1
100
AcDbSymbolTableRecord
100
AcDbBlockTableRecord
  2
*D15
340
0
 70
     0
280
     1
281
     0
  0
BLOCK_RECORD
  5
297
330
1
100
AcDbSymbolTableRecord
100
AcDbBlockTableRecord
  2
*D16
340
0
 70
     0
280
     1
281
     0
  0
BLOCK_RECORD
  5
2F8
330
1
100
AcDbSymbolTableRecord
100
AcDbBlockTableRecord
  2
*D17
340
0
 70
     0
280
     1
281
     0
  0
BLOCK_RECORD
  5
309
330
1
100
AcDbSymbolTableRecord
100
AcDbBlockTableRecord
  2
*D18
340
0
 70
     0
280
     1
281
     0
  0
BLOCK_RECORD
  5
346
330
1
100
AcDbSymbolTableRecord
100
AcDbBlockTableRecord
  2
*D19
340
0
 70
     0
280
     1
281
     0
  0
BLOCK_RECORD
  5
358
330
1
100
AcDbSymbolTableRecord
100
AcDbBlockTableRecord
  2
*D20
340
0
 70
     0
280
     1
281
     0
  0
BLOCK_RECORD
  5
369
330
1
100
AcDbSymbolTableRecord
100
AcDbBlockTableRecord
  2
*D21
340
0
 70
     0
280
     1
281
     0
  0
BLOCK_RECORD
  5
38E
330
1
100
AcDbSymbolTableRecord
100
AcDbBlockTableRecord
  2
*D22
340
0
 70
     0
280
     1
281
     0
  0
BLOCK_RECORD
  5
39A
330
1
100
AcDbSymbolTableRecord
100
AcDbBlockTableRecord
  2
*D23
340
0
 70
     0
280
     1
281
     0
  0
BLOCK_RECORD
  5
3A9
330
1
100
AcDbSymbolTableRecord
100
AcDbBlockTableRecord
  2
*D24
340
0
 70
     0
280
     1
281
     0
  0
ENDTAB
  0
ENDSEC
  0
SECTION
  2
BLOCKS
  0
BLOCK
  5
20
330
1F
100
AcDbEntity
  8
0
100
AcDbBlockBegin
  2
*Model_Space
 70
     0
 10
0.0
 20
0.0
 30
0.0
  3
*Model_Space
  1
*Model_Space
  0
ENDBLK
  5
21
330
1F
100
AcDbEntity
  8
0
100
AcDbBlockEnd
  0
BLOCK
  5
5A
330
58
100
AcDbEntity
 67
     1
  8
0
100
AcDbBlockBegin
  2
*Paper_Space
 70
     0
 10
0.0
 20
0.0
 30
0.0
  3
*Paper_Space
  1
*Paper_Space
  0
ENDBLK
  5
5B
330
58
100
AcDbEntity
 67
     1
  8
0
100
AcDbBlockEnd
  0
BLOCK
  5
5F
330
5D
100
AcDbEntity
  8
0
100
AcDbBlockBegin
  2
*Paper_Space0
 70
     0
 10
0.0
 20
0.0
 30
0.0
  3
*Paper_Space0
  1
*Paper_Space0
  0
ENDBLK
  5
60
330
5D
100
AcDbEntity
  8
0
100
AcDbBlockEnd
  0
BLOCK
  5
15B
330
15A
100
AcDbEntity
  8
0
100
AcDbBlockBegin
  2
*D1
 70
     1
 10
0.0
 20
0.0
 30
0.0
  3
*D1
  1
*D2
  0
LINE
  5
15C
330
15A
100
AcDbEntity
  8
文字
 62
     0
370
    -2
100
AcDbLine
 10
43.00000000000003
 20
156.9666276257633
 30
0.0
 11
43.00000000000003
 21
176.6510101333528
 31
0.0
  0
LINE
  5
15D
330
15A
100
AcDbEntity
  8
文字
 62
     0
370
    -2
100
AcDbLine
 10
67.00000000000003
 20
156.9666276257633
 30
0.0
 11
67.00000000000003
 21
176.6510101333528
 31
0.0
  0
LINE
  5
15E
330
15A
100
AcDbEntity
  8
文字
 62
     0
370
    -2
100
AcDbLine
 10
45.50000000000003
 20
175.4010101333528
 30
0.0
 11
64.50000000000003
 21
175.4010101333528
 31
0.0
  0
SOLID
  5
15F
330
15A
100
AcDbEntity
  8
文字
 62
     0
100
AcDbTrace
 10
45.50000000000003
 20
175.8176768000194
 30
0.0
 11
45.50000000000003
 21
174.9843434666861
 31
0.0
 12
43.00000000000003
 22
175.4010101333528
 32
0.0
 13
43.00000000000003
 23
175.4010101333528
 33
0.0
  0
SOLID
  5
160
330
15A
100
AcDbEntity
  8
文字
 62
     0
100
AcDbTrace
 10
64.50000000000003
 20
174.9843434666861
 30
0.0
 11
64.50000000000003
 21
175.8176768000194
 31
0.0
 12
67.00000000000003
 22
175.4010101333528
 32
0.0
 13
67.00000000000003
 23
175.4010101333528
 33
0.0
  0
MTEXT
  5
161
330
15A
100
AcDbEntity
  8
文字
 62
     0
100
AcDbMText
 10
55.00000000000003
 20
177.2811260951536
 30
0.0
 40
2.5
 41
0.0
 46
0.0
 71
     5
 72
     1
  1
{\fArial|b0|i0|c0|p32;M}24
 73
     1
 44
1.0
  0
POINT
  5
162
330
15A
100
AcDbEntity
  8
Defpoints
 62
     0
100
AcDbPoint
 10
43.00000000000003
 20
156.3416276257633
 30
0.0
  0
POINT
  5
163
330
15A
100
AcDbEntity
  8
Defpoints
 62
     0
100
AcDbPoint
 10
67.00000000000003
 20
156.3416276257633
 30
0.0
  0
POINT
  5
164
330
15A
100
AcDbEntity
  8
Defpoints
 62
     0
100
AcDbPoint
 10
67.00000000000003
 20
175.4010101333528
 30
0.0
  0
ENDBLK
  5
165
330
15A
100
AcDbEntity
  8
0
100
AcDbBlockEnd
  0
BLOCK
  5
16D
330
16C
100
AcDbEntity
  8
0
100
AcDbBlockBegin
  2
*D2
 70
     1
 10
0.0
 20
0.0
 30
0.0
  3
*D2
  1
*D3
  0
LINE
  5
16E
330
16C
100
AcDbEntity
  8
文字
 62
     0
370
    -2
100
AcDbLine
 10
175.74999804263
 20
109.6514126202261
 30
0.0
 11
175.74999804263
 21
52.06350802810306
 31
0.0
  0
LINE
  5
16F
330
16C
100
AcDbEntity
  8
文字
 62
     0
370
    -2
100
AcDbLine
 10
211.7766548400627
 20
109.6514126202261
 30
0.0
 11
211.7766548400627
 21
52.06350802810306
 31
0.0
  0
LINE
  5
170
330
16C
100
AcDbEntity
  8
文字
 62
     0
370
    -2
100
AcDbLine
 10
178.24999804263
 20
53.31350802810306
 30
0.0
 11
209.2766548400627
 21
53.31350802810306
 31
0.0
  0
SOLID
  5
171
330
16C
100
AcDbEntity
  8
文字
 62
     0
100
AcDbTrace
 10
178.24999804263
 20
53.73017469476972
 30
0.0
 11
178.24999804263
 21
52.89684136143639
 31
0.0
 12
175.74999804263
 22
53.31350802810306
 32
0.0
 13
175.74999804263
 23
53.31350802810306
 33
0.0
  0
SOLID
  5
172
330
16C
100
AcDbEntity
  8
文字
 62
     0
100
AcDbTrace
 10
209.2766548400627
 20
52.89684136143639
 30
0.0
 11
209.2766548400627
 21
53.73017469476972
 31
0.0
 12
211.7766548400627
 22
53.31350802810306
 32
0.0
 13
211.7766548400627
 23
53.31350802810306
 33
0.0
  0
MTEXT
  5
173
330
16C
100
AcDbEntity
  8
文字
 62
     0
100
AcDbMText
 10
193.6850030820749
 20
55.21408783710715
 30
0.0
 40
2.5
 41
0.0
 46
0.0
 71
     5
 72
     1
  1
36
 73
     1
 44
1.0
  0
POINT
  5
174
330
16C
100
AcDbEntity
  8
Defpoints
 62
     0
100
AcDbPoint
 10
175.74999804263
 20
110.2764126202261
 30
0.0
  0
POINT
  5
175
330
16C
100
AcDbEntity
  8
Defpoints
 62
     0
100
AcDbPoint
 10
211.7766548400627
 20
110.2764126202261
 30
0.0
  0
POINT
  5
176
330
16C
100
AcDbEntity
  8
Defpoints
 62
     0
100
AcDbPoint
 10
211.7766548400627
 20
53.31350802810306
 30
0.0
  0
ENDBLK
  5
177
330
16C
100
AcDbEntity
  8
0
100
AcDbBlockEnd
  0
BLOCK
  5
190
330
18F
100
AcDbEntity
  8
0
100
AcDbBlockBegin
  2
*D3
 70
     1
 10
0.0
 20
0.0
 30
0.0
  3
*D3
  1
*D4
  0
LINE
  5
191
330
18F
100
AcDbEntity
  8
文字
 62
     0
370
    -2
100
AcDbLine
 10
0.0000000000000284
 20
18.71662762576329
 30
0.0
 11
0.0000000000000284
 21
0.0
 31
0.0
  0
LINE
  5
192
330
18F
100
AcDbEntity
  8
文字
 62
     0
370
    -2
100
AcDbLine
 10
110.0
 20
18.71662762576322
 30
0.0
 11
110.0
 21
0.0
 31
0.0
  0
LINE
  5
193
330
18F
100
AcDbEntity
  8
文字
 62
     0
370
    -2
100
AcDbLine
 10
2.500000000000028
 20
1.25
 30
0.0
 11
107.5
 21
1.25
 31
0.0
  0
SOLID
  5
194
330
18F
100
AcDbEntity
  8
文字
 62
     0
100
AcDbTrace
 10
2.500000000000028
 20
1.666666666666667
 30
0.0
 11
2.500000000000028
 21
0.8333333333333333
 31
0.0
 12
0.0000000000000284
 22
1.25
 32
0.0
 13
0.0000000000000284
 23
1.25
 33
0.0
  0
SOLID
  5
195
330
18F
100
AcDbEntity
  8
文字
 62
     0
100
AcDbTrace
 10
107.5
 20
0.8333333333333333
 30
0.0
 11
107.5
 21
1.666666666666667
 31
0.0
 12
110.0
 22
1.25
 32
0.0
 13
110.0
 23
1.25
 33
0.0
  0
MTEXT
  5
196
330
18F
100
AcDbEntity
  8
文字
 62
     0
100
AcDbMText
 10
54.55693790148118
 20
3.198328785811733
 30
0.0
 40
2.5
 41
0.0
 46
0.0
 71
     5
 72
     1
  1
%%c110
 73
     1
 44
1.0
  0
POINT
  5
197
330
18F
100
AcDbEntity
  8
Defpoints
 62
     0
100
AcDbPoint
 10
0.0000000000000284
 20
19.34162762576329
 30
0.0
  0
POINT
  5
198
330
18F
100
AcDbEntity
  8
Defpoints
 62
     0
100
AcDbPoint
 10
110.0
 20
19.34162762576322
 30
0.0
  0
POINT
  5
199
330
18F
100
AcDbEntity
  8
Defpoints
 62
     0
100
AcDbPoint
 10
110.0
 20
1.25
 30
0.0
  0
ENDBLK
  5
19A
330
18F
100
AcDbEntity
  8
0
100
AcDbBlockEnd
  0
BLOCK
  5
1A4
330
1A3
100
AcDbEntity
  8
0
100
AcDbBlockBegin
  2
*D4
 70
     1
 10
0.0
 20
0.0
 30
0.0
  3
*D4
  1
*D5
  0
LINE
  5
1A5
330
1A3
100
AcDbEntity
  8
文字
 62
     0
370
    -2
100
AcDbLine
 10
65.62500000000001
 20
44.34162762576329
 30
0.0
 11
115.5607152951202
 21
44.34162762576329
 31
0.0
  0
LINE
  5
1A6
330
1A3
100
AcDbEntity
  8
文字
 62
     0
370
    -2
100
AcDbLine
 10
110.625
 20
19.34162762576322
 30
0.0
 11
115.5607152951202
 21
19.34162762576322
 31
0.0
  0
LINE
  5
1A7
330
1A3
100
AcDbEntity
  8
文字
 62
     0
370
    -2
100
AcDbLine
 10
114.3107152951202
 20
41.84162762576329
 30
0.0
 11
114.3107152951202
 21
21.84162762576322
 31
0.0
  0
SOLID
  5
1A8
330
1A3
100
AcDbEntity
  8
文字
 62
     0
100
AcDbTrace
 10
114.7273819617869
 20
41.84162762576329
 30
0.0
 11
113.8940486284535
 21
41.84162762576329
 31
0.0
 12
114.3107152951202
 22
44.34162762576329
 32
0.0
 13
114.3107152951202
 23
44.34162762576329
 33
0.0
  0
SOLID
  5
1A9
330
1A3
100
AcDbEntity
  8
文字
 62
     0
100
AcDbTrace
 10
113.8940486284535
 20
21.84162762576322
 30
0.0
 11
114.7273819617869
 21
21.84162762576322
 31
0.0
 12
114.3107152951202
 22
19.34162762576322
 32
0.0
 13
114.3107152951202
 23
19.34162762576322
 33
0.0
  0
MTEXT
  5
1AA
330
1A3
100
AcDbEntity
  8
文字
 62
     0
100
AcDbMText
 10
112.4305993333194
 20
31.84162762576326
 30
0.0
 40
2.5
 41
0.0
 46
0.0
 71
     5
 72
     1
  1
24
 11
0.0
 21
1.0
 31
0.0
 73
     1
 44
1.0
  0
POINT
  5
1AB
330
1A3
100
AcDbEntity
  8
Defpoints
 62
     0
100
AcDbPoint
 10
65.00000000000001
 20
44.34162762576329
 30
0.0
  0
POINT
  5
1AC
330
1A3
100
AcDbEntity
  8
Defpoints
 62
     0
100
AcDbPoint
 10
110.0
 20
19.34162762576322
 30
0.0
  0
POINT
  5
1AD
330
1A3
100
AcDbEntity
  8
Defpoints
 62
     0
100
AcDbPoint
 10
114.3107152951202
 20
19.34162762576322
 30
0.0
  0
ENDBLK
  5
1AE
330
1A3
100
AcDbEntity
  8
0
100
AcDbBlockEnd
  0
BLOCK
  5
1B3
330
1B2
100
AcDbEntity
  8
0
100
AcDbBlockBegin
  2
*D5
 70
     1
 10
0.0
 20
0.0
 30
0.0
  3
*D5
  1
*D6
  0
LINE
  5
1B4
330
1B2
100
AcDbEntity
  8
文字
 62
     0
370
    -2
100
AcDbLine
 10
76.42500000000004
 20
59.34162762576329
 30
0.0
 11
115.5607152951202
 21
59.34162762576329
 31
0.0
  0
LINE
  5
1B5
330
1B2
100
AcDbEntity
  8
文字
 62
     0
370
    -2
100
AcDbLine
 10
71.22500000000005
 20
44.34162762576329
 30
0.0
 11
115.5607152951202
 21
44.34162762576329
 31
0.0
  0
LINE
  5
1B6
330
1B2
100
AcDbEntity
  8
文字
 62
     0
370
    -2
100
AcDbLine
 10
114.3107152951202
 20
56.84162762576329
 30
0.0
 11
114.3107152951202
 21
46.84162762576329
 31
0.0
  0
SOLID
  5
1B7
330
1B2
100
AcDbEntity
  8
文字
 62
     0
100
AcDbTrace
 10
114.7273819617869
 20
56.84162762576329
 30
0.0
 11
113.8940486284535
 21
56.84162762576329
 31
0.0
 12
114.3107152951202
 22
59.34162762576329
 32
0.0
 13
114.3107152951202
 23
59.34162762576329
 33
0.0
  0
SOLID
  5
1B8
330
1B2
100
AcDbEntity
  8
文字
 62
     0
100
AcDbTrace
 10
113.8940486284535
 20
46.84162762576329
 30
0.0
 11
114.7273819617869
 21
46.84162762576329
 31
0.0
 12
114.3107152951202
 22
44.34162762576329
 32
0.0
 13
114.3107152951202
 23
44.34162762576329
 33
0.0
  0
MTEXT
  5
1B9
330
1B2
100
AcDbEntity
  8
文字
 62
     0
100
AcDbMText
 10
112.4101354861161
 20
51.84162762576329
 30
0.0
 40
2.5
 41
0.0
 46
0.0
 71
     5
 72
     1
  1
15
 11
0.0
 21
1.0
 31
0.0
 73
     1
 44
1.0
  0
POINT
  5
1BA
330
1B2
100
AcDbEntity
  8
Defpoints
 62
     0
100
AcDbPoint
 10
75.80000000000004
 20
59.34162762576329
 30
0.0
  0
POINT
  5
1BB
330
1B2
100
AcDbEntity
  8
Defpoints
 62
     0
100
AcDbPoint
 10
70.60000000000005
 20
44.34162762576329
 30
0.0
  0
POINT
  5
1BC
330
1B2
100
AcDbEntity
  8
Defpoints
 62
     0
100
AcDbPoint
 10
114.3107152951202
 20
44.34162762576329
 30
0.0
  0
ENDBLK
  5
1BD
330
1B2
100
AcDbEntity
  8
0
100
AcDbBlockEnd
  0
BLOCK
  5
1C2
330
1C1
100
AcDbEntity
  8
0
100
AcDbBlockBegin
  2
*D6
 70
     1
 10
0.0
 20
0.0
 30
0.0
  3
*D6
  1
*D7
  0
LINE
  5
1C3
330
1C1
100
AcDbEntity
  8
文字
 62
     0
370
    -2
100
AcDbLine
 10
77.05000000000004
 20
59.34162762576329
 30
0.0
 11
115.5607152951203
 21
59.34162762576329
 31
0.0
  0
LINE
  5
1C4
330
1C1
100
AcDbEntity
  8
文字
 62
     0
370
    -2
100
AcDbLine
 10
64.62500000000003
 20
159.3416276257633
 30
0.0
 11
115.5607152951203
 21
159.3416276257633
 31
0.0
  0
LINE
  5
1C5
330
1C1
100
AcDbEntity
  8
文字
 62
     0
370
    -2
100
AcDbLine
 10
114.3107152951203
 20
61.84162762576329
 30
0.0
 11
114.3107152951203
 21
156.8416276257633
 31
0.0
  0
SOLID
  5
1C6
330
1C1
100
AcDbEntity
  8
文字
 62
     0
100
AcDbTrace
 10
113.8940486284536
 20
61.84162762576329
 30
0.0
 11
114.7273819617869
 21
61.84162762576329
 31
0.0
 12
114.3107152951203
 22
59.34162762576329
 32
0.0
 13
114.3107152951203
 23
59.34162762576329
 33
0.0
  0
SOLID
  5
1C7
330
1C1
100
AcDbEntity
  8
文字
 62
     0
100
AcDbTrace
 10
114.7273819617869
 20
156.8416276257633
 30
0.0
 11
113.8940486284536
 21
156.8416276257633
 31
0.0
 12
114.3107152951203
 22
159.3416276257633
 32
0.0
 13
114.3107152951203
 23
159.3416276257633
 33
0.0
  0
MTEXT
  5
1C8
330
1C1
100
AcDbEntity
  8
文字
 62
     0
100
AcDbMText
 10
112.4101354861162
 20
109.3416276257633
 30
0.0
 40
2.5
 41
0.0
 46
0.0
 71
     5
 72
     1
  1
180
 11
0.0
 21
1.0
 31
0.0
 73
     1
 44
1.0
  0
POINT
  5
1C9
330
1C1
100
AcDbEntity
  8
Defpoints
 62
     0
100
AcDbPoint
 10
76.42500000000004
 20
59.34162762576329
 30
0.0
  0
POINT
  5
1CA
330
1C1
100
AcDbEntity
  8
Defpoints
 62
     0
100
AcDbPoint
 10
64.00000000000003
 20
159.3416276257633
 30
0.0
  0
POINT
  5
1CB
330
1C1
100
AcDbEntity
  8
Defpoints
 62
     0
100
AcDbPoint
 10
114.3107152951203
 20
159.3416276257633
 30
0.0
  0
ENDBLK
  5
1CC
330
1C1
100
AcDbEntity
  8
0
100
AcDbBlockEnd
  0
BLOCK
  5
1D3
330
1D2
100
AcDbEntity
  8
0
100
AcDbBlockBegin
  2
*D7
 70
     1
 10
0.0
 20
0.0
 30
0.0
  3
*D7
  1
*D8
  0
LINE
  5
1D4
330
1D2
100
AcDbEntity
  8
文字
 62
     0
370
    -2
100
AcDbLine
 10
158.7633264413464
 20
120.0514126202261
 30
0.0
 11
158.7633264413464
 21
41.81438320959825
 31
0.0
  0
LINE
  5
1D5
330
1D2
100
AcDbEntity
  8
文字
 62
     0
370
    -2
100
AcDbLine
 10
228.7633264413464
 20
120.0514126202261
 30
0.0
 11
228.7633264413464
 21
41.81438320959825
 31
0.0
  0
LINE
  5
1D6
330
1D2
100
AcDbEntity
  8
文字
 62
     0
370
    -2
100
AcDbLine
 10
161.2633264413464
 20
43.06438320959825
 30
0.0
 11
226.2633264413464
 21
43.06438320959825
 31
0.0
  0
SOLID
  5
1D7
330
1D2
100
AcDbEntity
  8
文字
 62
     0
100
AcDbTrace
 10
161.2633264413464
 20
43.48104987626491
 30
0.0
 11
161.2633264413464
 21
42.64771654293158
 31
0.0
 12
158.7633264413464
 22
43.06438320959825
 32
0.0
 13
158.7633264413464
 23
43.06438320959825
 33
0.0
  0
SOLID
  5
1D8
330
1D2
100
AcDbEntity
  8
文字
 62
     0
100
AcDbTrace
 10
226.2633264413464
 20
42.64771654293158
 30
0.0
 11
226.2633264413464
 21
43.48104987626491
 31
0.0
 12
228.7633264413464
 22
43.06438320959825
 32
0.0
 13
228.7633264413464
 23
43.06438320959825
 33
0.0
  0
MTEXT
  5
1D9
330
1D2
100
AcDbEntity
  8
文字
 62
     0
100
AcDbMText
 10
193.7633264413464
 20
45.01271199540998
 30
0.0
 40
2.5
 41
0.0
 46
0.0
 71
     5
 72
     1
  1
%%c70
 73
     1
 44
1.0
  0
POINT
  5
1DA
330
1D2
100
AcDbEntity
  8
Defpoints
 62
     0
100
AcDbPoint
 10
158.7633264413464
 20
120.6764126202261
 30
0.0
  0
POINT
  5
1DB
330
1D2
100
AcDbEntity
  8
Defpoints
 62
     0
100
AcDbPoint
 10
228.7633264413464
 20
120.6764126202261
 30
0.0
  0
POINT
  5
1DC
330
1D2
100
AcDbEntity
  8
Defpoints
 62
     0
100
AcDbPoint
 10
228.7633264413464
 20
43.06438320959825
 30
0.0
  0
ENDBLK
  5
1DD
330
1D2
100
AcDbEntity
  8
0
100
AcDbBlockEnd
  0
BLOCK
  5
1E6
330
1E5
100
AcDbEntity
  8
0
100
AcDbBlockBegin
  2
*D8
 70
     1
 10
0.0
 20
0.0
 30
0.0
  3
*D8
  1
*D9
  0
LINE
  5
1E7
330
1E5
100
AcDbEntity
  8
文字
 62
     0
370
    -2
100
AcDbLine
 10
9.000000000000028
 20
18.71662762576329
 30
0.0
 11
9.000000000000028
 21
7.039625051589894
 31
0.0
  0
LINE
  5
1E8
330
1E5
100
AcDbEntity
  8
文字
 62
     0
370
    -2
100
AcDbLine
 10
101.0
 20
18.71662762576323
 30
0.0
 11
101.0
 21
7.039625051589894
 31
0.0
  0
LINE
  5
1E9
330
1E5
100
AcDbEntity
  8
文字
 62
     0
370
    -2
100
AcDbLine
 10
11.50000000000003
 20
8.289625051589894
 30
0.0
 11
98.50000000000003
 21
8.289625051589894
 31
0.0
  0
SOLID
  5
1EA
330
1E5
100
AcDbEntity
  8
文字
 62
     0
100
AcDbTrace
 10
11.50000000000003
 20
8.70629171825656
 30
0.0
 11
11.50000000000003
 21
7.872958384923227
 31
0.0
 12
9.000000000000028
 22
8.289625051589894
 32
0.0
 13
9.000000000000028
 23
8.289625051589894
 33
0.0
  0
SOLID
  5
1EB
330
1E5
100
AcDbEntity
  8
文字
 62
     0
100
AcDbTrace
 10
98.50000000000003
 20
7.872958384923227
 30
0.0
 11
98.50000000000003
 21
8.70629171825656
 31
0.0
 12
101.0
 22
8.289625051589894
 32
0.0
 13
101.0
 23
8.289625051589894
 33
0.0
  0
MTEXT
  5
1EC
330
1E5
100
AcDbEntity
  8
文字
 62
     0
100
AcDbMText
 10
55.00000000000003
 20
10.19020486059399
 30
0.0
 40
2.5
 41
0.0
 46
0.0
 71
     5
 72
     1
  1
92
 73
     1
 44
1.0
  0
POINT
  5
1ED
330
1E5
100
AcDbEntity
  8
Defpoints
 62
     0
100
AcDbPoint
 10
9.000000000000028
 20
19.34162762576329
 30
0.0
  0
POINT
  5
1EE
330
1E5
100
AcDbEntity
  8
Defpoints
 62
     0
100
AcDbPoint
 10
101.0
 20
19.34162762576323
 30
0.0
  0
POINT
  5
1EF
330
1E5
100
AcDbEntity
  8
Defpoints
 62
     0
100
AcDbPoint
 10
101.0
 20
8.289625051589894
 30
0.0
  0
ENDBLK
  5
1F0
330
1E5
100
AcDbEntity
  8
0
100
AcDbBlockEnd
  0
BLOCK
  5
244
330
243
100
AcDbEntity
  8
0
100
AcDbBlockBegin
  2
*D9
 70
     1
 10
0.0
 20
0.0
 30
0.0
  3
*D9
  1
*D10
  0
LINE
  5
246
330
243
100
AcDbEntity
  8
文字
 62
     0
370
    -2
100
AcDbLine
 10
51.48110456625702
 20
167.7206181624572
 30
0.0
 11
51.48110456625702
 21
187.4050006700467
 31
0.0
  0
LINE
  5
247
330
243
100
AcDbEntity
  8
文字
 62
     0
370
    -2
100
AcDbLine
 10
75.48110456625702
 20
167.7206181624572
 30
0.0
 11
75.48110456625702
 21
187.4050006700467
 31
0.0
  0
LINE
  5
248
330
243
100
AcDbEntity
  8
文字
 62
     0
370
    -2
100
AcDbLine
 10
53.98110456625702
 20
186.1550006700467
 30
0.0
 11
72.98110456625702
 21
186.1550006700467
 31
0.0
  0
SOLID
  5
249
330
243
100
AcDbEntity
  8
文字
 62
     0
100
AcDbTrace
 10
53.98110456625702
 20
186.5716673367134
 30
0.0
 11
53.98110456625702
 21
185.7383340033801
 31
0.0
 12
51.48110456625702
 22
186.1550006700467
 32
0.0
 13
51.48110456625702
 23
186.1550006700467
 33
0.0
  0
SOLID
  5
24A
330
243
100
AcDbEntity
  8
文字
 62
     0
100
AcDbTrace
 10
72.98110456625702
 20
185.7383340033801
 30
0.0
 11
72.98110456625702
 21
186.5716673367134
 31
0.0
 12
75.48110456625702
 22
186.1550006700467
 32
0.0
 13
75.48110456625702
 23
186.1550006700467
 33
0.0
  0
MTEXT
  5
24B
330
243
100
AcDbEntity
  8
文字
 62
     0
100
AcDbMText
 10
63.48110456625702
 20
188.0351166318475
 30
0.0
 40
2.5
 41
0.0
 46
0.0
 71
     5
 72
     1
  1
{\fArial|b0|i0|c0|p32;M}24
 73
     1
 44
1.0
  0
POINT
  5
24C
330
243
100
AcDbEntity
  8
Defpoints
 62
     0
100
AcDbPoint
 10
51.48110456625702
 20
167.0956181624572
 30
0.0
  0
POINT
  5
24D
330
243
100
AcDbEntity
  8
Defpoints
 62
     0
100
AcDbPoint
 10
75.48110456625702
 20
167.0956181624572
 30
0.0
  0
POINT
  5
24E
330
243
100
AcDbEntity
  8
Defpoints
 62
     0
100
AcDbPoint
 10
75.48110456625702
 20
186.1550006700467
 30
0.0
  0
ENDBLK
  5
245
330
243
100
AcDbEntity
  8
0
100
AcDbBlockEnd
  0
BLOCK
  5
250
330
24F
100
AcDbEntity
  8
0
100
AcDbBlockBegin
  2
*D10
 70
     1
 10
0.0
 20
0.0
 30
0.0
  3
*D10
  1
*D11
  0
LINE
  5
252
330
24F
100
AcDbEntity
  8
文字
 62
     0
370
    -2
100
AcDbLine
 10
184.231102608887
 20
120.4054031569201
 30
0.0
 11
184.231102608887
 21
62.81749856479701
 31
0.0
  0
LINE
  5
253
330
24F
100
AcDbEntity
  8
文字
 62
     0
370
    -2
100
AcDbLine
 10
220.2577594063197
 20
120.40540315692
 30
0.0
 11
220.2577594063197
 21
62.81749856479701
 31
0.0
  0
LINE
  5
254
330
24F
100
AcDbEntity
  8
文字
 62
     0
370
    -2
100
AcDbLine
 10
186.731102608887
 20
64.067498564797
 30
0.0
 11
217.7577594063197
 21
64.067498564797
 31
0.0
  0
SOLID
  5
255
330
24F
100
AcDbEntity
  8
文字
 62
     0
100
AcDbTrace
 10
186.731102608887
 20
64.48416523146368
 30
0.0
 11
186.731102608887
 21
63.65083189813034
 31
0.0
 12
184.231102608887
 22
64.067498564797
 32
0.0
 13
184.231102608887
 23
64.067498564797
 33
0.0
  0
SOLID
  5
256
330
24F
100
AcDbEntity
  8
文字
 62
     0
100
AcDbTrace
 10
217.7577594063197
 20
63.65083189813034
 30
0.0
 11
217.7577594063197
 21
64.48416523146368
 31
0.0
 12
220.2577594063197
 22
64.067498564797
 32
0.0
 13
220.2577594063197
 23
64.067498564797
 33
0.0
  0
MTEXT
  5
257
330
24F
100
AcDbEntity
  8
文字
 62
     0
100
AcDbMText
 10
202.1661076483319
 20
65.9680783738011
 30
0.0
 40
2.5
 41
0.0
 46
0.0
 71
     5
 72
     1
  1
36
 73
     1
 44
1.0
  0
POINT
  5
258
330
24F
100
AcDbEntity
  8
Defpoints
 62
     0
100
AcDbPoint
 10
184.231102608887
 20
121.0304031569201
 30
0.0
  0
POINT
  5
259
330
24F
100
AcDbEntity
  8
Defpoints
 62
     0
100
AcDbPoint
 10
220.2577594063197
 20
121.03040315692
 30
0.0
  0
POINT
  5
25A
330
24F
100
AcDbEntity
  8
Defpoints
 62
     0
100
AcDbPoint
 10
220.2577594063197
 20
64.067498564797
 30
0.0
  0
ENDBLK
  5
251
330
24F
100
AcDbEntity
  8
0
100
AcDbBlockEnd
  0
BLOCK
  5
25C
330
25B
100
AcDbEntity
  8
0
100
AcDbBlockBegin
  2
*D11
 70
     1
 10
0.0
 20
0.0
 30
0.0
  3
*D11
  1
*D12
  0
LINE
  5
25E
330
25B
100
AcDbEntity
  8
文字
 62
     0
370
    -2
100
AcDbLine
 10
8.481104566257013
 20
29.47061816245724
 30
0.0
 11
8.481104566257017
 21
10.75399053669394
 31
0.0
  0
LINE
  5
25F
330
25B
100
AcDbEntity
  8
文字
 62
     0
370
    -2
100
AcDbLine
 10
118.481104566257
 20
29.47061816245716
 30
0.0
 11
118.481104566257
 21
10.75399053669394
 31
0.0
  0
LINE
  5
260
330
25B
100
AcDbEntity
  8
文字
 62
     0
370
    -2
100
AcDbLine
 10
10.98110456625702
 20
12.00399053669394
 30
0.0
 11
115.981104566257
 21
12.00399053669394
 31
0.0
  0
SOLID
  5
261
330
25B
100
AcDbEntity
  8
文字
 62
     0
100
AcDbTrace
 10
10.98110456625702
 20
12.42065720336061
 30
0.0
 11
10.98110456625702
 21
11.58732387002727
 31
0.0
 12
8.481104566257017
 22
12.00399053669394
 32
0.0
 13
8.481104566257017
 23
12.00399053669394
 33
0.0
  0
SOLID
  5
262
330
25B
100
AcDbEntity
  8
文字
 62
     0
100
AcDbTrace
 10
115.981104566257
 20
11.58732387002727
 30
0.0
 11
115.981104566257
 21
12.42065720336061
 31
0.0
 12
118.481104566257
 22
12.00399053669394
 32
0.0
 13
118.481104566257
 23
12.00399053669394
 33
0.0
  0
MTEXT
  5
263
330
25B
100
AcDbEntity
  8
文字
 62
     0
100
AcDbMText
 10
63.03804246773817
 20
13.95231932250567
 30
0.0
 40
2.5
 41
0.0
 46
0.0
 71
     5
 72
     1
  1
%%c110
 73
     1
 44
1.0
  0
POINT
  5
264
330
25B
100
AcDbEntity
  8
Defpoints
 62
     0
100
AcDbPoint
 10
8.481104566257013
 20
30.09561816245724
 30
0.0
  0
POINT
  5
265
330
25B
100
AcDbEntity
  8
Defpoints
 62
     0
100
AcDbPoint
 10
118.481104566257
 20
30.09561816245716
 30
0.0
  0
POINT
  5
266
330
25B
100
AcDbEntity
  8
Defpoints
 62
     0
100
AcDbPoint
 10
118.481104566257
 20
12.00399053669394
 30
0.0
  0
ENDBLK
  5
25D
330
25B
100
AcDbEntity
  8
0
100
AcDbBlockEnd
  0
BLOCK
  5
268
330
267
100
AcDbEntity
  8
0
100
AcDbBlockBegin
  2
*D12
 70
     1
 10
0.0
 20
0.0
 30
0.0
  3
*D12
  1
*D13
  0
LINE
  5
26A
330
267
100
AcDbEntity
  8
文字
 62
     0
370
    -2
100
AcDbLine
 10
74.106104566257
 20
55.09561816245724
 30
0.0
 11
124.0418198613772
 21
55.09561816245723
 31
0.0
  0
LINE
  5
26B
330
267
100
AcDbEntity
  8
文字
 62
     0
370
    -2
100
AcDbLine
 10
119.106104566257
 20
30.09561816245716
 30
0.0
 11
124.0418198613772
 21
30.09561816245716
 31
0.0
  0
LINE
  5
26C
330
267
100
AcDbEntity
  8
文字
 62
     0
370
    -2
100
AcDbLine
 10
122.7918198613772
 20
52.59561816245723
 30
0.0
 11
122.7918198613772
 21
32.59561816245716
 31
0.0
  0
SOLID
  5
26D
330
267
100
AcDbEntity
  8
文字
 62
     0
100
AcDbTrace
 10
123.2084865280439
 20
52.59561816245723
 30
0.0
 11
122.3751531947105
 21
52.59561816245723
 31
0.0
 12
122.7918198613772
 22
55.09561816245723
 32
0.0
 13
122.7918198613772
 23
55.09561816245723
 33
0.0
  0
SOLID
  5
26E
330
267
100
AcDbEntity
  8
文字
 62
     0
100
AcDbTrace
 10
122.3751531947105
 20
32.59561816245716
 30
0.0
 11
123.2084865280439
 21
32.59561816245716
 31
0.0
 12
122.7918198613772
 22
30.09561816245716
 32
0.0
 13
122.7918198613772
 23
30.09561816245716
 33
0.0
  0
MTEXT
  5
26F
330
267
100
AcDbEntity
  8
文字
 62
     0
100
AcDbMText
 10
120.9117038995764
 20
42.5956181624572
 30
0.0
 40
2.5
 41
0.0
 46
0.0
 71
     5
 72
     1
  1
24
 11
0.0
 21
1.0
 31
0.0
 73
     1
 44
1.0
  0
POINT
  5
270
330
267
100
AcDbEntity
  8
Defpoints
 62
     0
100
AcDbPoint
 10
73.481104566257
 20
55.09561816245724
 30
0.0
  0
POINT
  5
271
330
267
100
AcDbEntity
  8
Defpoints
 62
     0
100
AcDbPoint
 10
118.481104566257
 20
30.09561816245716
 30
0.0
  0
POINT
  5
272
330
267
100
AcDbEntity
  8
Defpoints
 62
     0
100
AcDbPoint
 10
122.7918198613772
 20
30.09561816245716
 30
0.0
  0
ENDBLK
  5
269
330
267
100
AcDbEntity
  8
0
100
AcDbBlockEnd
  0
BLOCK
  5
274
330
273
100
AcDbEntity
  8
0
100
AcDbBlockBegin
  2
*D13
 70
     1
 10
0.0
 20
0.0
 30
0.0
  3
*D13
  1
*D14
  0
LINE
  5
276
330
273
100
AcDbEntity
  8
文字
 62
     0
370
    -2
100
AcDbLine
 10
84.90610456625703
 20
70.09561816245724
 30
0.0
 11
124.0418198613772
 21
70.09561816245724
 31
0.0
  0
LINE
  5
277
330
273
100
AcDbEntity
  8
文字
 62
     0
370
    -2
100
AcDbLine
 10
79.70610456625704
 20
55.09561816245724
 30
0.0
 11
124.0418198613772
 21
55.09561816245724
 31
0.0
  0
LINE
  5
278
330
273
100
AcDbEntity
  8
文字
 62
     0
370
    -2
100
AcDbLine
 10
122.7918198613772
 20
67.59561816245724
 30
0.0
 11
122.7918198613772
 21
57.59561816245724
 31
0.0
  0
SOLID
  5
279
330
273
100
AcDbEntity
  8
文字
 62
     0
100
AcDbTrace
 10
123.2084865280439
 20
67.59561816245724
 30
0.0
 11
122.3751531947105
 21
67.59561816245724
 31
0.0
 12
122.7918198613772
 22
70.09561816245724
 32
0.0
 13
122.7918198613772
 23
70.09561816245724
 33
0.0
  0
SOLID
  5
27A
330
273
100
AcDbEntity
  8
文字
 62
     0
100
AcDbTrace
 10
122.3751531947105
 20
57.59561816245724
 30
0.0
 11
123.2084865280439
 21
57.59561816245724
 31
0.0
 12
122.7918198613772
 22
55.09561816245724
 32
0.0
 13
122.7918198613772
 23
55.09561816245724
 33
0.0
  0
MTEXT
  5
27B
330
273
100
AcDbEntity
  8
文字
 62
     0
100
AcDbMText
 10
120.8912400523731
 20
62.59561816245724
 30
0.0
 40
2.5
 41
0.0
 46
0.0
 71
     5
 72
     1
  1
15
 11
0.0
 21
1.0
 31
0.0
 73
     1
 44
1.0
  0
POINT
  5
27C
330
273
100
AcDbEntity
  8
Defpoints
 62
     0
100
AcDbPoint
 10
84.28110456625703
 20
70.09561816245724
 30
0.0
  0
POINT
  5
27D
330
273
100
AcDbEntity
  8
Defpoints
 62
     0
100
AcDbPoint
 10
79.08110456625704
 20
55.09561816245724
 30
0.0
  0
POINT
  5
27E
330
273
100
AcDbEntity
  8
Defpoints
 62
     0
100
AcDbPoint
 10
122.7918198613772
 20
55.09561816245724
 30
0.0
  0
ENDBLK
  5
275
330
273
100
AcDbEntity
  8
0
100
AcDbBlockEnd
  0
BLOCK
  5
280
330
27F
100
AcDbEntity
  8
0
100
AcDbBlockBegin
  2
*D14
 70
     1
 10
0.0
 20
0.0
 30
0.0
  3
*D14
  1
*D15
  0
LINE
  5
282
330
27F
100
AcDbEntity
  8
文字
 62
     0
370
    -2
100
AcDbLine
 10
85.53110456625703
 20
70.09561816245724
 30
0.0
 11
124.0418198613773
 21
70.09561816245724
 31
0.0
  0
LINE
  5
283
330
27F
100
AcDbEntity
  8
文字
 62
     0
370
    -2
100
AcDbLine
 10
73.10610456625702
 20
170.0956181624572
 30
0.0
 11
124.0418198613773
 21
170.0956181624572
 31
0.0
  0
LINE
  5
284
330
27F
100
AcDbEntity
  8
文字
 62
     0
370
    -2
100
AcDbLine
 10
122.7918198613773
 20
72.59561816245724
 30
0.0
 11
122.7918198613773
 21
167.5956181624572
 31
0.0
  0
SOLID
  5
285
330
27F
100
AcDbEntity
  8
文字
 62
     0
100
AcDbTrace
 10
122.3751531947106
 20
72.59561816245724
 30
0.0
 11
123.208486528044
 21
72.59561816245724
 31
0.0
 12
122.7918198613773
 22
70.09561816245724
 32
0.0
 13
122.7918198613773
 23
70.09561816245724
 33
0.0
  0
SOLID
  5
286
330
27F
100
AcDbEntity
  8
文字
 62
     0
100
AcDbTrace
 10
123.208486528044
 20
167.5956181624572
 30
0.0
 11
122.3751531947106
 21
167.5956181624572
 31
0.0
 12
122.7918198613773
 22
170.0956181624572
 32
0.0
 13
122.7918198613773
 23
170.0956181624572
 33
0.0
  0
MTEXT
  5
287
330
27F
100
AcDbEntity
  8
文字
 62
     0
100
AcDbMText
 10
120.8912400523732
 20
120.0956181624572
 30
0.0
 40
2.5
 41
0.0
 46
0.0
 71
     5
 72
     1
  1
200
 11
0.0
 21
1.0
 31
0.0
 73
     1
 44
1.0
  0
POINT
  5
288
330
27F
100
AcDbEntity
  8
Defpoints
 62
     0
100
AcDbPoint
 10
84.90610456625703
 20
70.09561816245724
 30
0.0
  0
POINT
  5
289
330
27F
100
AcDbEntity
  8
Defpoints
 62
     0
100
AcDbPoint
 10
72.48110456625702
 20
170.0956181624572
 30
0.0
  0
POINT
  5
28A
330
27F
100
AcDbEntity
  8
Defpoints
 62
     0
100
AcDbPoint
 10
122.7918198613773
 20
170.0956181624572
 30
0.0
  0
ENDBLK
  5
281
330
27F
100
AcDbEntity
  8
0
100
AcDbBlockEnd
  0
BLOCK
  5
28C
330
28B
100
AcDbEntity
  8
0
100
AcDbBlockBegin
  2
*D15
 70
     1
 10
0.0
 20
0.0
 30
0.0
  3
*D15
  1
*D16
  0
LINE
  5
28E
330
28B
100
AcDbEntity
  8
文字
 62
     0
370
    -2
100
AcDbLine
 10
167.2444310076034
 20
130.8054031569201
 30
0.0
 11
167.2444310076034
 21
52.56837374629219
 31
0.0
  0
LINE
  5
28F
330
28B
100
AcDbEntity
  8
文字
 62
     0
370
    -2
100
AcDbLine
 10
237.2444310076034
 20
130.8054031569201
 30
0.0
 11
237.2444310076034
 21
52.56837374629219
 31
0.0
  0
LINE
  5
290
330
28B
100
AcDbEntity
  8
文字
 62
     0
370
    -2
100
AcDbLine
 10
169.7444310076034
 20
53.81837374629219
 30
0.0
 11
234.7444310076034
 21
53.81837374629219
 31
0.0
  0
SOLID
  5
291
330
28B
100
AcDbEntity
  8
文字
 62
     0
100
AcDbTrace
 10
169.7444310076034
 20
54.23504041295885
 30
0.0
 11
169.7444310076034
 21
53.40170707962552
 31
0.0
 12
167.2444310076034
 22
53.81837374629219
 32
0.0
 13
167.2444310076034
 23
53.81837374629219
 33
0.0
  0
SOLID
  5
292
330
28B
100
AcDbEntity
  8
文字
 62
     0
100
AcDbTrace
 10
234.7444310076034
 20
53.40170707962552
 30
0.0
 11
234.7444310076034
 21
54.23504041295885
 31
0.0
 12
237.2444310076034
 22
53.81837374629219
 32
0.0
 13
237.2444310076034
 23
53.81837374629219
 33
0.0
  0
MTEXT
  5
293
330
28B
100
AcDbEntity
  8
文字
 62
     0
100
AcDbMText
 10
202.2444310076034
 20
55.76670253210392
 30
0.0
 40
2.5
 41
0.0
 46
0.0
 71
     5
 72
     1
  1
%%c70
 73
     1
 44
1.0
  0
POINT
  5
294
330
28B
100
AcDbEntity
  8
Defpoints
 62
     0
100
AcDbPoint
 10
167.2444310076034
 20
131.4304031569201
 30
0.0
  0
POINT
  5
295
330
28B
100
AcDbEntity
  8
Defpoints
 62
     0
100
AcDbPoint
 10
237.2444310076034
 20
131.4304031569201
 30
0.0
  0
POINT
  5
296
330
28B
100
AcDbEntity
  8
Defpoints
 62
     0
100
AcDbPoint
 10
237.2444310076034
 20
53.81837374629219
 30
0.0
  0
ENDBLK
  5
28D
330
28B
100
AcDbEntity
  8
0
100
AcDbBlockEnd
  0
BLOCK
  5
298
330
297
100
AcDbEntity
  8
0
100
AcDbBlockBegin
  2
*D16
 70
     1
 10
0.0
 20
0.0
 30
0.0
  3
*D16
  1
*D17
  0
LINE
  5
29A
330
297
100
AcDbEntity
  8
文字
 62
     0
370
    -2
100
AcDbLine
 10
17.48110456625701
 20
29.47061816245724
 30
0.0
 11
17.48110456625702
 21
17.79361558828383
 31
0.0
  0
LINE
  5
29B
330
297
100
AcDbEntity
  8
文字
 62
     0
370
    -2
100
AcDbLine
 10
109.481104566257
 20
29.47061816245717
 30
0.0
 11
109.481104566257
 21
17.79361558828383
 31
0.0
  0
LINE
  5
29C
330
297
100
AcDbEntity
  8
文字
 62
     0
370
    -2
100
AcDbLine
 10
19.98110456625702
 20
19.04361558828383
 30
0.0
 11
106.981104566257
 21
19.04361558828383
 31
0.0
  0
SOLID
  5
29D
330
297
100
AcDbEntity
  8
文字
 62
     0
100
AcDbTrace
 10
19.98110456625702
 20
19.4602822549505
 30
0.0
 11
19.98110456625702
 21
18.62694892161717
 31
0.0
 12
17.48110456625702
 22
19.04361558828383
 32
0.0
 13
17.48110456625702
 23
19.04361558828383
 33
0.0
  0
SOLID
  5
29E
330
297
100
AcDbEntity
  8
文字
 62
     0
100
AcDbTrace
 10
106.981104566257
 20
18.62694892161717
 30
0.0
 11
106.981104566257
 21
19.4602822549505
 31
0.0
 12
109.481104566257
 22
19.04361558828383
 32
0.0
 13
109.481104566257
 23
19.04361558828383
 33
0.0
  0
MTEXT
  5
29F
330
297
100
AcDbEntity
  8
文字
 62
     0
100
AcDbMText
 10
63.48110456625702
 20
20.94419539728793
 30
0.0
 40
2.5
 41
0.0
 46
0.0
 71
     5
 72
     1
  1
92
 73
     1
 44
1.0
  0
POINT
  5
2A0
330
297
100
AcDbEntity
  8
Defpoints
 62
     0
100
AcDbPoint
 10
17.48110456625701
 20
30.09561816245724
 30
0.0
  0
POINT
  5
2A1
330
297
100
AcDbEntity
  8
Defpoints
 62
     0
100
AcDbPoint
 10
109.481104566257
 20
30.09561816245717
 30
0.0
  0
POINT
  5
2A2
330
297
100
AcDbEntity
  8
Defpoints
 62
     0
100
AcDbPoint
 10
109.481104566257
 20
19.04361558828383
 30
0.0
  0
ENDBLK
  5
299
330
297
100
AcDbEntity
  8
0
100
AcDbBlockEnd
  0
BLOCK
  5
2F9
330
2F8
100
AcDbEntity
  8
0
100
AcDbBlockBegin
  2
*D17
 70
     1
 10
0.0
 20
0.0
 30
0.0
  3
*D17
  1
*D18
  0
LINE
  5
2FA
330
2F8
100
AcDbEntity
  8
文字
 62
     0
370
    -2
100
AcDbLine
 10
0.0
 20
91.56393928915597
 30
0.0
 11
0.0
 21
0.0
 31
0.0
  0
LINE
  5
2FB
330
2F8
100
AcDbEntity
  8
文字
 62
     0
370
    -2
100
AcDbLine
 10
92.00000000000006
 20
91.56393928915591
 30
0.0
 11
92.00000000000006
 21
0.0
 31
0.0
  0
LINE
  5
2FC
330
2F8
100
AcDbEntity
  8
文字
 62
     0
370
    -2
100
AcDbLine
 10
2.5
 20
1.25
 30
0.0
 11
89.50000000000006
 21
1.25
 31
0.0
  0
SOLID
  5
2FD
330
2F8
100
AcDbEntity
  8
文字
 62
     0
100
AcDbTrace
 10
2.5
 20
1.666666666666667
 30
0.0
 11
2.5
 21
0.8333333333333333
 31
0.0
 12
0.0
 22
1.25
 32
0.0
 13
0.0
 23
1.25
 33
0.0
  0
SOLID
  5
2FE
330
2F8
100
AcDbEntity
  8
文字
 62
     0
100
AcDbTrace
 10
89.50000000000006
 20
0.8333333333333333
 30
0.0
 11
89.50000000000006
 21
1.666666666666667
 31
0.0
 12
92.00000000000006
 22
1.25
 32
0.0
 13
92.00000000000006
 23
1.25
 33
0.0
  0
MTEXT
  5
2FF
330
2F8
100
AcDbEntity
  8
文字
 62
     0
100
AcDbMText
 10
45.90290085754964
 20
3.15125
 30
0.0
 40
2.5
 41
0.0
 46
0.0
 71
     5
 72
     1
  1
92
 73
     1
 44
1.0
  0
POINT
  5
300
330
2F8
100
AcDbEntity
  8
Defpoints
 62
     0
100
AcDbPoint
 10
0.0
 20
92.18893928915597
 30
0.0
  0
POINT
  5
301
330
2F8
100
AcDbEntity
  8
Defpoints
 62
     0
100
AcDbPoint
 10
92.00000000000006
 20
92.18893928915591
 30
0.0
  0
POINT
  5
302
330
2F8
100
AcDbEntity
  8
Defpoints
 62
     0
100
AcDbPoint
 10
92.00000000000006
 20
1.25
 30
0.0
  0
ENDBLK
  5
303
330
2F8
100
AcDbEntity
  8
0
100
AcDbBlockEnd
  0
BLOCK
  5
30A
330
309
100
AcDbEntity
  8
0
100
AcDbBlockBegin
  2
*D18
 70
     1
 10
0.0
 20
0.0
 30
0.0
  3
*D18
  1
*D19
  0
LINE
  5
30C
330
309
100
AcDbEntity
  8
文字
 62
     0
370
    -2
100
AcDbLine
 10
156.0768362325954
 20
130.7579409991152
 30
0.0
 11
156.0768362325954
 21
39.1940017099592
 31
0.0
  0
LINE
  5
30D
330
309
100
AcDbEntity
  8
文字
 62
     0
370
    -2
100
AcDbLine
 10
248.0768362325955
 20
130.7579409991151
 30
0.0
 11
248.0768362325955
 21
39.1940017099592
 31
0.0
  0
LINE
  5
30E
330
309
100
AcDbEntity
  8
文字
 62
     0
370
    -2
100
AcDbLine
 10
158.5768362325954
 20
40.4440017099592
 30
0.0
 11
245.5768362325955
 21
40.4440017099592
 31
0.0
  0
SOLID
  5
30F
330
309
100
AcDbEntity
  8
文字
 62
     0
100
AcDbTrace
 10
158.5768362325954
 20
40.86066837662586
 30
0.0
 11
158.5768362325954
 21
40.02733504329253
 31
0.0
 12
156.0768362325954
 22
40.4440017099592
 32
0.0
 13
156.0768362325954
 23
40.4440017099592
 33
0.0
  0
SOLID
  5
310
330
309
100
AcDbEntity
  8
文字
 62
     0
100
AcDbTrace
 10
245.5768362325955
 20
40.02733504329253
 30
0.0
 11
245.5768362325955
 21
40.86066837662586
 31
0.0
 12
248.0768362325955
 22
40.4440017099592
 32
0.0
 13
248.0768362325955
 23
40.4440017099592
 33
0.0
  0
MTEXT
  5
311
330
309
100
AcDbEntity
  8
文字
 62
     0
100
AcDbMText
 10
201.9797370901451
 20
42.34525170995919
 30
0.0
 40
2.5
 41
0.0
 46
0.0
 71
     5
 72
     1
  1
92
 73
     1
 44
1.0
  0
POINT
  5
312
330
309
100
AcDbEntity
  8
Defpoints
 62
     0
100
AcDbPoint
 10
156.0768362325954
 20
131.3829409991152
 30
0.0
  0
POINT
  5
313
330
309
100
AcDbEntity
  8
Defpoints
 62
     0
100
AcDbPoint
 10
248.0768362325955
 20
131.3829409991151
 30
0.0
  0
POINT
  5
314
330
309
100
AcDbEntity
  8
Defpoints
 62
     0
100
AcDbPoint
 10
248.0768362325955
 20
40.4440017099592
 30
0.0
  0
ENDBLK
  5
30B
330
309
100
AcDbEntity
  8
0
100
AcDbBlockEnd
  0
BLOCK
  5
347
330
346
100
AcDbEntity
  8
0
100
AcDbBlockBegin
  2
*D19
 70
     1
 10
0.0
 20
0.0
 30
0.0
  3
*D19
  1
*D20
  0
LINE
  5
348
330
346
100
AcDbEntity
  8
文字
 62
     0
370
    -2
100
AcDbLine
 10
8.383163109504936
 20
16.55336353732383
 30
0.0
 11
8.383163109504935
 21
0.0
 31
0.0
  0
LINE
  5
349
330
346
100
AcDbEntity
  8
文字
 62
     0
370
    -2
100
AcDbLine
 10
118.3831631095049
 20
16.55336353732375
 30
0.0
 11
118.3831631095049
 21
0.0
 31
0.0
  0
LINE
  5
34A
330
346
100
AcDbEntity
  8
文字
 62
     0
370
    -2
100
AcDbLine
 10
10.88316310950493
 20
1.25
 30
0.0
 11
115.8831631095049
 21
1.25
 31
0.0
  0
SOLID
  5
34B
330
346
100
AcDbEntity
  8
文字
 62
     0
100
AcDbTrace
 10
10.88316310950493
 20
1.666666666666667
 30
0.0
 11
10.88316310950493
 21
0.8333333333333333
 31
0.0
 12
8.383163109504935
 22
1.25
 32
0.0
 13
8.383163109504935
 23
1.25
 33
0.0
  0
SOLID
  5
34C
330
346
100
AcDbEntity
  8
文字
 62
     0
100
AcDbTrace
 10
115.8831631095049
 20
0.8333333333333333
 30
0.0
 11
115.8831631095049
 21
1.666666666666667
 31
0.0
 12
118.3831631095049
 22
1.25
 32
0.0
 13
118.3831631095049
 23
1.25
 33
0.0
  0
MTEXT
  5
34D
330
346
100
AcDbEntity
  8
文字
 62
     0
100
AcDbMText
 10
63.38316310950493
 20
3.19625
 30
0.0
 40
2.5
 41
0.0
 46
0.0
 71
     5
 72
     1
  1
%%c110
 73
     1
 44
1.0
  0
POINT
  5
34E
330
346
100
AcDbEntity
  8
Defpoints
 62
     0
100
AcDbPoint
 10
8.383163109504936
 20
17.17836353732383
 30
0.0
  0
POINT
  5
34F
330
346
100
AcDbEntity
  8
Defpoints
 62
     0
100
AcDbPoint
 10
118.3831631095049
 20
17.17836353732375
 30
0.0
  0
POINT
  5
350
330
346
100
AcDbEntity
  8
Defpoints
 62
     0
100
AcDbPoint
 10
118.3831631095049
 20
1.25
 30
0.0
  0
ENDBLK
  5
351
330
346
100
AcDbEntity
  8
0
100
AcDbBlockEnd
  0
BLOCK
  5
359
330
358
100
AcDbEntity
  8
0
100
AcDbBlockBegin
  2
*D20
 70
     1
 10
0.0
 20
0.0
 30
0.0
  3
*D20
  1
*D21
  0
LINE
  5
35A
330
358
100
AcDbEntity
  8
文字
 62
     0
370
    -2
100
AcDbLine
 10
8.687381080260801
 20
16.86050580085482
 30
0.0
 11
1.885000000000003
 21
16.86050580085482
 31
0.0
  0
LINE
  5
35B
330
358
100
AcDbEntity
  8
文字
 62
     0
370
    -2
100
AcDbLine
 10
8.939413356237479
 20
18.86347160231849
 30
0.0
 11
1.885000000000003
 21
18.86347160231849
 31
0.0
  0
LINE
  5
35C
330
358
100
AcDbEntity
  8
文字
 62
     0
370
    -2
100
AcDbLine
 10
3.135000000000003
 20
18.86347160231849
 30
0.0
 11
3.135000000000003
 21
36.80852866002137
 31
0.0
  0
LINE
  5
35D
330
358
100
AcDbEntity
  8
文字
 62
     0
370
    -2
100
AcDbLine
 10
3.135000000000003
 20
16.86050580085482
 30
0.0
 11
3.135000000000003
 21
18.86347160231849
 31
0.0
  0
LINE
  5
35E
330
358
100
AcDbEntity
  8
文字
 62
     0
370
    -2
100
AcDbLine
 10
3.135000000000003
 20
14.36050580085482
 30
0.0
 11
3.135000000000003
 21
11.86050580085482
 31
0.0
  0
LINE
  5
35F
330
358
100
AcDbEntity
  8
文字
 62
     0
370
    -2
100
AcDbLine
 10
3.135000000000003
 20
21.36347160231849
 30
0.0
 11
3.135000000000003
 21
23.86347160231849
 31
0.0
  0
SOLID
  5
360
330
358
100
AcDbEntity
  8
文字
 62
     0
100
AcDbTrace
 10
3.55166666666667
 20
14.36050580085482
 30
0.0
 11
2.718333333333337
 21
14.36050580085482
 31
0.0
 12
3.135000000000003
 22
16.86050580085482
 32
0.0
 13
3.135000000000003
 23
16.86050580085482
 33
0.0
  0
SOLID
  5
361
330
358
100
AcDbEntity
  8
文字
 62
     0
100
AcDbTrace
 10
2.718333333333337
 20
21.36347160231849
 30
0.0
 11
3.55166666666667
 21
21.36347160231849
 31
0.0
 12
3.135000000000003
 22
18.86347160231849
 32
0.0
 13
3.135000000000003
 23
18.86347160231849
 33
0.0
  0
MTEXT
  5
362
330
358
100
AcDbEntity
  8
文字
 62
     0
100
AcDbMText
 10
1.255000000000001
 20
35.35727866002136
 30
0.0
 40
2.5
 41
0.0
 46
0.0
 71
     5
 72
     1
  1
2
 11
0.0
 21
1.0
 31
0.0
 73
     1
 44
1.0
  0
POINT
  5
363
330
358
100
AcDbEntity
  8
Defpoints
 62
     0
100
AcDbPoint
 10
9.312381080260801
 20
16.86050580085482
 30
0.0
  0
POINT
  5
364
330
358
100
AcDbEntity
  8
Defpoints
 62
     0
100
AcDbPoint
 10
9.564413356237479
 20
18.86347160231849
 30
0.0
  0
POINT
  5
365
330
358
100
AcDbEntity
  8
Defpoints
 62
     0
100
AcDbPoint
 10
3.135000000000003
 20
18.86347160231849
 30
0.0
  0
ENDBLK
  5
366
330
358
100
AcDbEntity
  8
0
100
AcDbBlockEnd
  0
BLOCK
  5
36A
330
369
100
AcDbEntity
  8
0
100
AcDbBlockBegin
  2
*D21
 70
     1
 10
0.0
 20
0.0
 30
0.0
  3
*D21
  1
*D22
  0
LINE
  5
36B
330
369
100
AcDbEntity
  8
文字
 62
     0
370
    -2
100
AcDbLine
 10
74.0862214051943
 20
40.90662797507842
 30
0.0
 11
124.0219367003145
 21
40.90662797507842
 31
0.0
  0
LINE
  5
36C
330
369
100
AcDbEntity
  8
文字
 62
     0
370
    -2
100
AcDbLine
 10
117.0807129034715
 20
16.90815502622267
 30
0.0
 11
124.0219367003145
 21
16.90815502622267
 31
0.0
  0
LINE
  5
36D
330
369
100
AcDbEntity
  8
文字
 62
     0
370
    -2
100
AcDbLine
 10
122.7719367003145
 20
38.40662797507842
 30
0.0
 11
122.7719367003145
 21
19.40815502622267
 31
0.0
  0
SOLID
  5
36E
330
369
100
AcDbEntity
  8
文字
 62
     0
100
AcDbTrace
 10
123.1886033669812
 20
38.40662797507842
 30
0.0
 11
122.3552700336478
 21
38.40662797507842
 31
0.0
 12
122.7719367003145
 22
40.90662797507842
 32
0.0
 13
122.7719367003145
 23
40.90662797507842
 33
0.0
  0
SOLID
  5
36F
330
369
100
AcDbEntity
  8
文字
 62
     0
100
AcDbTrace
 10
122.3552700336478
 20
19.40815502622267
 30
0.0
 11
123.1886033669812
 21
19.40815502622267
 31
0.0
 12
122.7719367003145
 22
16.90815502622267
 32
0.0
 13
122.7719367003145
 23
16.90815502622267
 33
0.0
  0
MTEXT
  5
370
330
369
100
AcDbEntity
  8
文字
 62
     0
100
AcDbMText
 10
120.8919367003145
 20
28.90739150065054
 30
0.0
 40
2.5
 41
0.0
 46
0.0
 71
     5
 72
     1
  1
24
 11
0.0
 21
1.0
 31
0.0
 73
     1
 44
1.0
  0
POINT
  5
371
330
369
100
AcDbEntity
  8
Defpoints
 62
     0
100
AcDbPoint
 10
73.4612214051943
 20
40.90662797507842
 30
0.0
  0
POINT
  5
372
330
369
100
AcDbEntity
  8
Defpoints
 62
     0
100
AcDbPoint
 10
116.4557129034715
 20
16.90815502622267
 30
0.0
  0
POINT
  5
373
330
369
100
AcDbEntity
  8
Defpoints
 62
     0
100
AcDbPoint
 10
122.7719367003145
 20
16.90815502622267
 30
0.0
  0
ENDBLK
  5
374
330
369
100
AcDbEntity
  8
0
100
AcDbBlockEnd
  0
BLOCK
  5
38F
330
38E
100
AcDbEntity
  8
0
100
AcDbBlockBegin
  2
*D22
 70
     1
 10
0.0
 20
0.0
 30
0.0
  3
*D22
  1
*D23
  0
LINE
  5
391
330
38E
100
AcDbEntity
  8
文字
 62
     0
370
    -2
100
AcDbLine
 10
8.405998283406285
 20
30.72949734285198
 30
0.0
 11
8.40599828340629
 21
14.17613380552815
 31
0.0
  0
LINE
  5
392
330
38E
100
AcDbEntity
  8
文字
 62
     0
370
    -2
100
AcDbLine
 10
118.4059982834063
 20
30.72949734285191
 30
0.0
 11
118.4059982834063
 21
14.17613380552815
 31
0.0
  0
LINE
  5
393
330
38E
100
AcDbEntity
  8
文字
 62
     0
370
    -2
100
AcDbLine
 10
10.90599828340629
 20
15.42613380552815
 30
0.0
 11
115.9059982834063
 21
15.42613380552815
 31
0.0
  0
SOLID
  5
394
330
38E
100
AcDbEntity
  8
文字
 62
     0
100
AcDbTrace
 10
10.90599828340629
 20
15.84280047219482
 30
0.0
 11
10.90599828340629
 21
15.00946713886149
 31
0.0
 12
8.40599828340629
 22
15.42613380552815
 32
0.0
 13
8.40599828340629
 23
15.42613380552815
 33
0.0
  0
SOLID
  5
395
330
38E
100
AcDbEntity
  8
文字
 62
     0
100
AcDbTrace
 10
115.9059982834063
 20
15.00946713886149
 30
0.0
 11
115.9059982834063
 21
15.84280047219482
 31
0.0
 12
118.4059982834063
 22
15.42613380552815
 32
0.0
 13
118.4059982834063
 23
15.42613380552815
 33
0.0
  0
MTEXT
  5
396
330
38E
100
AcDbEntity
  8
文字
 62
     0
100
AcDbMText
 10
63.40599828340628
 20
17.37238380552815
 30
0.0
 40
2.5
 41
0.0
 46
0.0
 71
     5
 72
     1
  1
%%c110
 73
     1
 44
1.0
  0
POINT
  5
397
330
38E
100
AcDbEntity
  8
Defpoints
 62
     0
100
AcDbPoint
 10
8.405998283406285
 20
31.35449734285198
 30
0.0
  0
POINT
  5
398
330
38E
100
AcDbEntity
  8
Defpoints
 62
     0
100
AcDbPoint
 10
118.4059982834063
 20
31.35449734285191
 30
0.0
  0
POINT
  5
399
330
38E
100
AcDbEntity
  8
Defpoints
 62
     0
100
AcDbPoint
 10
118.4059982834063
 20
15.42613380552815
 30
0.0
  0
ENDBLK
  5
390
330
38E
100
AcDbEntity
  8
0
100
AcDbBlockEnd
  0
BLOCK
  5
39B
330
39A
100
AcDbEntity
  8
0
100
AcDbBlockBegin
  2
*D23
 70
     1
 10
0.0
 20
0.0
 30
0.0
  3
*D23
  1
*D24
  0
LINE
  5
39D
330
39A
100
AcDbEntity
  8
文字
 62
     0
370
    -2
100
AcDbLine
 10
8.71021625416215
 20
31.03663960638297
 30
0.0
 11
1.907835173901352
 21
31.03663960638297
 31
0.0
  0
LINE
  5
39E
330
39A
100
AcDbEntity
  8
文字
 62
     0
370
    -2
100
AcDbLine
 10
8.962248530138828
 20
33.03960540784664
 30
0.0
 11
1.907835173901352
 21
33.03960540784664
 31
0.0
  0
LINE
  5
39F
330
39A
100
AcDbEntity
  8
文字
 62
     0
370
    -2
100
AcDbLine
 10
3.157835173901352
 20
33.03960540784664
 30
0.0
 11
3.157835173901352
 21
50.98466246554952
 31
0.0
  0
LINE
  5
3A0
330
39A
100
AcDbEntity
  8
文字
 62
     0
370
    -2
100
AcDbLine
 10
3.157835173901352
 20
31.03663960638297
 30
0.0
 11
3.157835173901352
 21
33.03960540784664
 31
0.0
  0
LINE
  5
3A1
330
39A
100
AcDbEntity
  8
文字
 62
     0
370
    -2
100
AcDbLine
 10
3.157835173901352
 20
28.53663960638297
 30
0.0
 11
3.157835173901352
 21
26.03663960638297
 31
0.0
  0
LINE
  5
3A2
330
39A
100
AcDbEntity
  8
文字
 62
     0
370
    -2
100
AcDbLine
 10
3.157835173901352
 20
35.53960540784664
 30
0.0
 11
3.157835173901352
 21
38.03960540784664
 31
0.0
  0
SOLID
  5
3A3
330
39A
100
AcDbEntity
  8
文字
 62
     0
100
AcDbTrace
 10
3.574501840568019
 20
28.53663960638297
 30
0.0
 11
2.741168507234686
 21
28.53663960638297
 31
0.0
 12
3.157835173901352
 22
31.03663960638297
 32
0.0
 13
3.157835173901352
 23
31.03663960638297
 33
0.0
  0
SOLID
  5
3A4
330
39A
100
AcDbEntity
  8
文字
 62
     0
100
AcDbTrace
 10
2.741168507234686
 20
35.53960540784664
 30
0.0
 11
3.574501840568019
 21
35.53960540784664
 31
0.0
 12
3.157835173901352
 22
33.03960540784664
 32
0.0
 13
3.157835173901352
 23
33.03960540784664
 33
0.0
  0
MTEXT
  5
3A5
330
39A
100
AcDbEntity
  8
文字
 62
     0
100
AcDbMText
 10
1.27783517390135
 20
49.53341246554952
 30
0.0
 40
2.5
 41
0.0
 46
0.0
 71
     5
 72
     1
  1
2
 11
0.0
 21
1.0
 31
0.0
 73
     1
 44
1.0
  0
POINT
  5
3A6
330
39A
100
AcDbEntity
  8
Defpoints
 62
     0
100
AcDbPoint
 10
9.33521625416215
 20
31.03663960638297
 30
0.0
  0
POINT
  5
3A7
330
39A
100
AcDbEntity
  8
Defpoints
 62
     0
100
AcDbPoint
 10
9.587248530138828
 20
33.03960540784664
 30
0.0
  0
POINT
  5
3A8
330
39A
100
AcDbEntity
  8
Defpoints
 62
     0
100
AcDbPoint
 10
3.157835173901352
 20
33.03960540784664
 30
0.0
  0
ENDBLK
  5
39C
330
39A
100
AcDbEntity
  8
0
100
AcDbBlockEnd
  0
BLOCK
  5
3AA
330
3A9
100
AcDbEntity
  8
0
100
AcDbBlockBegin
  2
*D24
 70
     1
 10
0.0
 20
0.0
 30
0.0
  3
*D24
  1
*D25
  0
LINE
  5
3AC
330
3A9
100
AcDbEntity
  8
文字
 62
     0
370
    -2
100
AcDbLine
 10
74.10905657909564
 20
55.08276178060657
 30
0.0
 11
124.0447718742159
 21
55.08276178060657
 31
0.0
  0
LINE
  5
3AD
330
3A9
100
AcDbEntity
  8
文字
 62
     0
370
    -2
100
AcDbLine
 10
117.1035480773728
 20
31.08428883175082
 30
0.0
 11
124.0447718742159
 21
31.08428883175082
 31
0.0
  0
LINE
  5
3AE
330
3A9
100
AcDbEntity
  8
文字
 62
     0
370
    -2
100
AcDbLine
 10
122.7947718742159
 20
52.58276178060657
 30
0.0
 11
122.7947718742159
 21
33.58428883175082
 31
0.0
  0
SOLID
  5
3AF
330
3A9
100
AcDbEntity
  8
文字
 62
     0
100
AcDbTrace
 10
123.2114385408825
 20
52.58276178060657
 30
0.0
 11
122.3781052075492
 21
52.58276178060657
 31
0.0
 12
122.7947718742159
 22
55.08276178060657
 32
0.0
 13
122.7947718742159
 23
55.08276178060657
 33
0.0
  0
SOLID
  5
3B0
330
3A9
100
AcDbEntity
  8
文字
 62
     0
100
AcDbTrace
 10
122.3781052075492
 20
33.58428883175082
 30
0.0
 11
123.2114385408825
 21
33.58428883175082
 31
0.0
 12
122.7947718742159
 22
31.08428883175082
 32
0.0
 13
122.7947718742159
 23
31.08428883175082
 33
0.0
  0
MTEXT
  5
3B1
330
3A9
100
AcDbEntity
  8
文字
 62
     0
100
AcDbMText
 10
120.9147718742159
 20
43.0835253061787
 30
0.0
 40
2.5
 41
0.0
 46
0.0
 71
     5
 72
     1
  1
24
 11
0.0
 21
1.0
 31
0.0
 73
     1
 44
1.0
  0
POINT
  5
3B2
330
3A9
100
AcDbEntity
  8
Defpoints
 62
     0
100
AcDbPoint
 10
73.48405657909564
 20
55.08276178060657
 30
0.0
  0
POINT
  5
3B3
330
3A9
100
AcDbEntity
  8
Defpoints
 62
     0
100
AcDbPoint
 10
116.4785480773728
 20
31.08428883175082
 30
0.0
  0
POINT
  5
3B4
330
3A9
100
AcDbEntity
  8
Defpoints
 62
     0
100
AcDbPoint
 10
122.7947718742159
 20
31.08428883175082
 30
0.0
  0
ENDBLK
  5
3AB
330
3A9
100
AcDbEntity
  8
0
100
AcDbBlockEnd
  0
ENDSEC
  0
SECTION
  2
ENTITIES
  0
LINE
  5
1F8
330
1F
100
AcDbEntity
  8
中心線
100
AcDbLine
 10
63.48110456625702
 20
25.09561816245724
 30
0.0
 11
63.48110456625702
 21
178.1876154857357
 31
0.0
  0
LWPOLYLINE
  5
1F9
102
{ACAD_REACTORS
330
22F
102
}
330
1F
100
AcDbEntity
  8
実線
100
AcDbPolyline
 90
        4
 70
     0
 43
0.0
 10
84.28110456625703
 20
57.09561816245722
 10
84.28110456625703
 20
70.09561816245724
 10
42.68110456625702
 20
70.09561816245724
 10
42.68110456625702
 20
57.09561816245724
  0
ARC
  5
1FA
330
1F
100
AcDbEntity
  8
実線
100
AcDbCircle
 10
47.88110456625702
 20
62.85561816245721
 30
0.0
 40
7.759999999999985
100
AcDbArc
 50
227.9249779491562
 51
312.0750220508438
  0
ARC
  5
1FB
330
1F
100
AcDbEntity
  8
実線
100
AcDbCircle
 10
63.48110456625703
 20
83.13561816245729
 30
0.0
 40
28.04000000000006
100
AcDbArc
 50
248.2289458906826
 51
291.7710541093174
  0
ARC
  5
1FC
330
1F
100
AcDbEntity
  8
実線
100
AcDbCircle
 10
79.08110456625704
 20
62.85561816245723
 30
0.0
 40
7.759999999999995
100
AcDbArc
 50
227.9249779491563
 51
312.0750220508437
  0
LINE
  5
1FD
330
1F
100
AcDbEntity
  8
実線
100
AcDbLine
 10
53.08110456625705
 20
57.09561816245722
 30
0.0
 11
53.08110456625705
 21
70.09561816245724
 31
0.0
  0
LINE
  5
1FE
330
1F
100
AcDbEntity
  8
実線
100
AcDbLine
 10
73.88110456625704
 20
57.09561816245724
 30
0.0
 11
73.88110456625704
 21
70.09561816245724
 31
0.0
  0
LWPOLYLINE
  5
1FF
102
{ACAD_REACTORS
330
22F
102
}
330
1F
100
AcDbEntity
  8
実線
100
AcDbPolyline
 90
        2
 70
     0
 43
0.0
 10
47.88110456625702
 20
55.09561816245724
 10
79.08110456625704
 20
55.09561816245724
  0
LWPOLYLINE
  5
200
330
1F
100
AcDbEntity
  8
実線
100
AcDbPolyline
 90
        4
 70
     1
 43
0.0
 10
63.48110456625702
 20
70.09561816245724
 10
51.48110456625702
 20
70.09561816245724
 10
51.48110456625702
 20
70.09561816245724
 10
63.48110456625702
 20
70.09561816245724
  0
LWPOLYLINE
  5
201
330
1F
100
AcDbEntity
  8
実線
100
AcDbPolyline
 90
        6
 70
     0
 43
0.0
 10
75.48110456625702
 20
129.3332224694912
 10
75.48110456625702
 20
167.0956181624572
 10
72.48110456625702
 20
170.0956181624572
 10
54.48110456625702
 20
170.0956181624572
 10
51.48110456625702
 20
167.0956181624572
 10
51.48110456625702
 20
115.4768160089402
  0
LINE
  5
202
102
{ACAD_REACTORS
330
207
102
}
330
1F
100
AcDbEntity
  8
実線
370
    20
100
AcDbLine
 10
51.48110456625702
 20
167.0956181624572
 30
0.0
 11
75.48110456625702
 21
167.0956181624572
 31
0.0
  0
LINE
  5
203
330
1F
100
AcDbEntity
  8
実線
370
    20
100
AcDbLine
 10
54.48110456625702
 20
170.0956181624572
 30
0.0
 11
54.481104566257
 21
117.2088668165091
 31
0.0
  0
LINE
  5
204
102
{ACAD_REACTORS
330
232
102
}
330
1F
100
AcDbEntity
  8
実線
370
    20
100
AcDbLine
 10
72.48110456625702
 20
170.0956181624572
 30
0.0
 11
72.481104566257
 21
127.6011716619224
 31
0.0
  0
DIMENSION
  5
205
102
{ACAD_REACTORS
330
207
102
}
102
{ACAD_XDICTIONARY
360
206
102
}
330
1F
100
AcDbEntity
  8
文字
100
AcDbDimension
280
     0
  2
*D9
 10
75.48110456625702
 20
186.1550006700467
 30
0.0
 11
63.48110456625702
 21
188.0351166318475
 31
0.0
 70
    32
  1
{\fArial|b0|i0|c0|p32;M}<>
 71
     5
 42
24.0
 73
     0
 74
     0
 75
     0
  3
ISO-25
100
AcDbAlignedDimension
 13
51.48110456625702
 23
167.0956181624572
 33
0.0
 14
75.48110456625702
 24
167.0956181624572
 34
0.0
100
AcDbRotatedDimension
  0
LWPOLYLINE
  5
208
102
{ACAD_REACTORS
330
20D
102
}
330
1F
100
AcDbEntity
  8
実線
100
AcDbPolyline
 90
        6
 70
     1
 43
0.0
 10
220.2577594063197
 20
141.8304031569201
 10
202.2444310076034
 20
152.2304031569201
 10
184.231102608887
 20
141.8304031569201
 10
184.231102608887
 20
121.0304031569201
 10
202.2444310076033
 20
110.63040315692
 10
220.2577594063197
 20
121.03040315692
  0
CIRCLE
  5
209
330
1F
100
AcDbEntity
  8
実線
100
AcDbCircle
 10
202.2444310076034
 20
131.4304031569201
 30
0.0
 40
12.0
  0
CIRCLE
  5
20A
330
1F
100
AcDbEntity
  8
実線
370
    30
100
AcDbCircle
 10
202.2444310076034
 20
131.4304031569201
 30
0.0
 40
9.0
  0
DIMENSION
  5
20B
102
{ACAD_REACTORS
330
20D
102
}
102
{ACAD_XDICTIONARY
360
20C
102
}
330
1F
100
AcDbEntity
  8
文字
100
AcDbDimension
280
     0
  2
*D10
 10
220.2577594063197
 20
64.067498564797
 30
0.0
 11
202.1661076483319
 21
64.067498564797
 31
0.0
 70
   160
  1
36
 71
     5
 42
36.02665679743265
 73
     0
 74
     0
 75
     0
  3
ISO-25
100
AcDbAlignedDimension
 13
184.231102608887
 23
121.0304031569201
 33
0.0
 14
220.2577594063197
 24
121.03040315692
 34
0.0
100
AcDbRotatedDimension
  0
LINE
  5
20E
330
1F
100
AcDbEntity
  8
実線
370
    30
100
AcDbLine
 10
42.49232530963347
 20
107.977740808684
 30
0.0
 11
84.79369723896343
 21
132.4004492791731
 31
0.0
  0
LINE
  5
20F
330
1F
100
AcDbEntity
  8
実線
370
    30
100
AcDbLine
 10
41.49232530963347
 20
109.7097916162529
 30
0.0
 11
83.79369723896343
 21
134.132500086742
 31
0.0
  0
LINE
  5
210
330
1F
100
AcDbEntity
  8
実線
370
    20
100
AcDbLine
 10
72.481104566257
 20
125.2917705851638
 30
0.0
 11
72.481104566257
 21
70.09561816245724
 31
0.0
  0
LINE
  5
211
330
1F
100
AcDbEntity
  8
実線
370
    20
100
AcDbLine
 10
54.481104566257
 20
114.8994657397506
 30
0.0
 11
54.481104566257
 21
70.09561816245724
 31
0.0
  0
LWPOLYLINE
  5
212
330
1F
100
AcDbEntity
  8
実線
100
AcDbPolyline
 90
        4
 70
     0
 43
0.0
 10
51.48110456625702
 20
113.1674149321817
 10
51.48110456625702
 20
70.09561816245724
 10
75.48110456625702
 20
70.09561816245724
 10
75.48110456625702
 20
127.0238213927327
  0
LINE
  5
213
330
1F
100
AcDbEntity
  8
実線
100
AcDbLine
 10
53.481104566257
 20
55.09561816245724
 30
0.0
 11
73.481104566257
 21
55.09561816245724
 31
0.0
  0
LINE
  5
214
102
{ACAD_REACTORS
330
237
102
}
330
1F
100
AcDbEntity
  8
中心線
100
AcDbLine
 10
202.2444310076034
 20
131.4304031569201
 30
0.0
 11
140.3651267698162
 21
131.4304031569201
 31
0.0
  0
LINE
  5
215
102
{ACAD_REACTORS
330
237
102
}
330
1F
100
AcDbEntity
  8
中心線
100
AcDbLine
 10
202.2444310076034
 20
131.4304031569201
 30
0.0
 11
263.6899555808412
 21
131.4304031569201
 31
0.0
  0
LINE
  5
217
330
1F
100
AcDbEntity
  8
実線
100
AcDbLine
 10
73.9811045662571
 20
55.09561816245718
 30
0.0
 11
52.98110456625699
 21
55.09561816245724
 31
0.0
  0
LINE
  5
229
330
1F
100
AcDbEntity
  8
実線
370
    30
100
AcDbLine
 10
52.98125283435772
 20
55.09567179682193
 30
0.0
 11
52.98125283435772
 21
55.09567179682193
 31
0.0
  0
DIMENSION
  5
22D
102
{ACAD_REACTORS
330
22F
102
}
102
{ACAD_XDICTIONARY
360
22E
102
}
330
1F
100
AcDbEntity
  8
文字
100
AcDbDimension
280
     0
  2
*D13
 10
122.7918198613772
 20
55.09561816245724
 30
0.0
 11
120.8912400523731
 21
62.59561816245724
 31
0.0
 70
    32
 71
     5
 42
15.00000000000001
 73
     0
 74
     0
 75
     0
  3
ISO-25
100
AcDbAlignedDimension
 13
84.28110456625703
 23
70.09561816245724
 33
0.0
 14
79.08110456625704
 24
55.09561816245724
 34
0.0
 50
90.0
100
AcDbRotatedDimension
  0
DIMENSION
  5
230
102
{ACAD_REACTORS
330
232
102
}
102
{ACAD_XDICTIONARY
360
231
102
}
330
1F
100
AcDbEntity
  8
文字
100
AcDbDimension
280
     0
  2
*D14
 10
122.7918198613773
 20
170.0956181624572
 30
0.0
 11
120.8912400523732
 21
120.0956181624572
 31
0.0
 70
    32
  1
200
 71
     5
 42
99.99999999999997
 73
     0
 74
     0
 75
     0
  3
ISO-25
100
AcDbAlignedDimension
 13
84.90610456625703
 23
70.09561816245724
 33
0.0
 14
72.48110456625702
 24
170.0956181624572
 34
0.0
 50
90.0
100
AcDbRotatedDimension
  0
CIRCLE
  5
233
102
{ACAD_REACTORS
330
237
102
}
330
1F
100
AcDbEntity
  8
実線
100
AcDbCircle
 10
202.2444310076034
 20
131.4304031569201
 30
0.0
 40
35.0
  0
CIRCLE
  5
234
330
1F
100
AcDbEntity
  8
実線
100
AcDbCircle
 10
202.2444310076034
 20
131.4304031569201
 30
0.0
 40
55.0
  0
DIMENSION
  5
235
102
{ACAD_REACTORS
330
237
102
}
102
{ACAD_XDICTIONARY
360
236
102
}
330
1F
100
AcDbEntity
  8
文字
100
AcDbDimension
280
     0
  2
*D15
 10
237.2444310076034
 20
53.81837374629219
 30
0.0
 11
202.2444310076034
 21
55.76670253210392
 31
0.0
 70
    32
  1
%%c<>
 71
     5
 42
70.0
 73
     0
 74
     0
 75
     0
  3
ISO-25
100
AcDbAlignedDimension
 13
167.2444310076034
 23
131.4304031569201
 33
0.0
 14
237.2444310076034
 24
131.4304031569201
 34
0.0
100
AcDbRotatedDimension
  0
CIRCLE
  5
238
330
1F
100
AcDbEntity
  8
実線
100
AcDbCircle
 10
156.2444310076034
 20
131.4304031569201
 30
0.0
 40
6.0
  0
CIRCLE
  5
239
102
{ACAD_REACTORS
330
242
102
}
330
1F
100
AcDbEntity
  8
実線
100
AcDbCircle
 10
248.2444310076034
 20
131.4304031569201
 30
0.0
 40
6.0
  0
MTEXT
  5
23F
102
{ACAD_REACTORS
330
240
102
}
330
1F
100
AcDbEntity
  8
文字
100
AcDbMText
 10
260.0082858766949
 20
166.4435165883095
 30
0.0
 40
2.5
 41
20.0
 46
0.0
 71
     7
 72
     1
  1
2-%%c12
 73
     1
 44
1.0
  0
LEADER
  5
240
102
{ACAD_REACTORS
330
242
102
}
102
{ACAD_XDICTIONARY
360
241
102
}
330
1F
100
AcDbEntity
  8
文字
100
AcDbLeader
  3
ISO-25
 73
     0
 74
     0
 40
2.6425
 41
8.8275
 76
     3
 10
248.2444310076034
 20
131.4304031569201
 30
0.0
 10
256.3796122434663
 20
165.8185165883095
 30
0.0
 10
259.3832858766949
 20
165.8185165883095
 30
0.0
340
23F
1001
ACAD
1000
DSTYLE
1002
{
1070
   147
1040
0.625
1070
    77
1070
     1
1002
}
  0
MTEXT
  5
2CF
330
1F
100
AcDbEntity
  8
文字・寸法線
 62
     0
100
AcDbMText
 10
45.74441000727982
 20
227.9572180965426
 30
0.0
 40
6.0
 41
0.0
 46
6.0
 71
     9
 72
     1
  1
{\fＭＳ ゴシック|b0|i0|c0|p0;S-G1 M24X200}
 73
     1
 44
1.0
1001
ACAD
1000
ACAD_MTEXT_DEFINED_HEIGHT_BEGIN
1070
    46
1040
6.0
1000
ACAD_MTEXT_DEFINED_HEIGHT_END
  0
DIMENSION
  5
307
102
{ACAD_XDICTIONARY
360
308
102
}
330
1F
100
AcDbEntity
  8
文字
100
AcDbDimension
280
     0
  2
*D18
 10
248.0768362325955
 20
40.4440017099592
 30
0.0
 11
201.9797370901451
 21
40.4440017099592
 31
0.0
 70
   160
 71
     5
 42
92.00000000000006
 73
     0
 74
     0
 75
     0
  3
ISO-25
100
AcDbAlignedDimension
 13
156.0768362325954
 23
131.3829409991152
 33
0.0
 14
248.0768362325955
 24
131.3829409991151
 34
0.0
100
AcDbRotatedDimension
  0
LINE
  5
37C
330
1F
100
AcDbEntity
  8
実線
100
AcDbLine
 10
79.2338686665849
 20
32.96794186174868
 30
0.0
 11
52.98386866658237
 21
32.96794186174872
 31
0.0
  0
LINE
  5
37D
330
1F
100
AcDbEntity
  8
実線
100
AcDbLine
 10
100.4646646140408
 20
32.96794186174866
 30
0.0
 11
118.4838686665824
 21
32.96794186174865
 31
0.0
  0
LINE
  5
37E
330
1F
100
AcDbEntity
  8
実線
100
AcDbLine
 10
26.50307271912403
 20
32.96794186174872
 30
0.0
 11
8.483868666582433
 21
32.96794186174873
 31
0.0
  0
ARC
  5
37F
330
1F
100
AcDbEntity
  8
実線
100
AcDbCircle
 10
63.79988963392191
 20
18.65450687689033
 30
0.0
 40
38.0
100
AcDbArc
 50
106.5365649756556
 51
155.4603227367469
  0
ARC
  5
380
330
1F
100
AcDbEntity
  8
実線
100
AcDbCircle
 10
62.74604808535039
 20
17.88553985974574
 30
0.0
 40
38.85776825211736
100
AcDbArc
 50
25.75758019451116
 51
73.18940608401108
  0
DIMENSION
  5
381
102
{ACAD_XDICTIONARY
360
382
102
}
330
1F
100
AcDbEntity
  8
文字
100
AcDbDimension
280
     0
  2
*D22
 10
118.4059982834063
 20
15.42613380552815
 30
0.0
 11
63.40599828340628
 21
17.37238380552815
 31
0.0
 70
    32
  1
%%c110
 71
     5
 42
110.0
 73
     0
 74
     0
 75
     0
  3
ISO-25
100
AcDbAlignedDimension
 13
8.405998283406285
 23
31.35449734285198
 33
0.0
 14
118.4059982834063
 24
31.35449734285191
 34
0.0
100
AcDbRotatedDimension
  0
ARC
  5
383
330
1F
100
AcDbEntity
  8
実線
100
AcDbCircle
 10
100.4719594408722
 20
36.01771307480653
 30
0.0
 40
3.0
100
AcDbArc
 50
204.5396772632533
 51
270.0
  0
ARC
  5
384
330
1F
100
AcDbEntity
  8
実線
100
AcDbCircle
 10
26.503072719124
 20
35.88334693864753
 30
0.0
 40
3.0
100
AcDbArc
 50
270.0
 51
335.4603227367464
  0
LINE
  5
385
330
1F
100
AcDbEntity
  8
実線
100
AcDbLine
 10
52.98386866658237
 20
32.96794186174872
 30
0.0
 11
26.50307271912403
 21
32.96794186174872
 31
0.0
  0
LINE
  5
386
330
1F
100
AcDbEntity
  8
実線
100
AcDbLine
 10
79.2338686665849
 20
32.96794186174868
 30
0.0
 11
100.4646646140408
 21
32.96794186174868
 31
0.0
  0
DIMENSION
  5
387
102
{ACAD_XDICTIONARY
360
388
102
}
330
1F
100
AcDbEntity
  8
文字
100
AcDbDimension
280
     0
  2
*D23
 10
3.157835173901352
 20
33.03960540784664
 30
0.0
 11
3.157835173901352
 21
49.53341246554952
 31
0.0
 70
   160
 71
     5
 42
2.002965801463674
 73
     0
 74
     0
 75
     0
  3
ISO-25
100
AcDbAlignedDimension
 13
9.33521625416215
 23
31.03663960638297
 33
0.0
 14
9.587248530138828
 24
33.03960540784664
 34
0.0
 50
90.0
100
AcDbRotatedDimension
  0
DIMENSION
  5
389
102
{ACAD_XDICTIONARY
360
38A
102
}
330
1F
100
AcDbEntity
  8
文字
100
AcDbDimension
280
     0
  2
*D24
 10
122.7947718742159
 20
31.08428883175082
 30
0.0
 11
120.9147718742159
 21
43.0835253061787
 31
0.0
 70
    32
 71
     5
 42
23.99847294885575
 73
     0
 74
     0
 75
     0
  3
ISO-25
100
AcDbAlignedDimension
 13
73.48405657909564
 23
55.08276178060657
 33
0.0
 14
116.4785480773728
 24
31.08428883175082
 34
0.0
 50
90.0
100
AcDbRotatedDimension
  0
LINE
  5
38B
330
1F
100
AcDbEntity
  8
実線
100
AcDbLine
 10
8.496303793148039
 20
31.08612791957531
 30
0.0
 11
118.5421693073729
 21
31.08612791957531
 31
0.0
  0
LINE
  5
38C
330
1F
100
AcDbEntity
  8
実線
100
AcDbLine
 10
118.5423572198861
 20
31.07612968528684
 30
0.0
 11
118.4840565790956
 21
32.95794362746016
 31
0.0
  0
LINE
  5
38D
330
1F
100
AcDbEntity
  8
実線
100
AcDbLine
 10
8.496303793148039
 20
31.08612791957531
 30
0.0
 11
8.496303793148039
 21
32.83288768964238
 31
0.0
  0
LINE
  5
3DC
330
1F
100
AcDbEntity
  8
中心線
100
AcDbLine
 10
202.2444310076033
 20
70.42703508199078
 30
0.0
 11
202.2444310076033
 21
195.0929590328048
 31
0.0
  0
ENDSEC
  0
SECTION
  2
OBJECTS
  0
DICTIONARY
  5
C
330
0
100
AcDbDictionary
281
     1
  3
ACAD_COLOR
350
73
  3
ACAD_DETAILVIEWSTYLE
350
122
  3
ACAD_GROUP
350
D
  3
ACAD_IMAGE_VARS
350
DC
  3
ACAD_LAYOUT
350
1A
  3
ACAD_MATERIAL
350
72
  3
ACAD_MLEADERSTYLE
350
B5
  3
ACAD_MLINESTYLE
350
17
  3
ACAD_PLOTSETTINGS
350
19
  3
ACAD_PLOTSTYLENAME
350
E
  3
ACAD_SCALELIST
350
B6
  3
ACAD_SECTIONVIEWSTYLE
350
123
  3
ACAD_TABLESTYLE
350
86
  3
ACAD_VISUALSTYLE
350
99
  3
ACDB_RECOMPOSE_DATA
350
3EB
  3
AcDbVariableDictionary
350
66
  3
APPDATA
350
E1
  0
SUN
  5
ED
330
94
100
AcDbSun
 90
        1
290
     0
 63
     7
421
 16777215
 40
1.0
291
     1
 91
  2455826
 92
 54000000
292
     0
 70
     2
 71
   256
280
     1
  0
DICTIONARY
  5
206
330
205
100
AcDbDictionary
280
     1
281
     1
  3
ACAD_DIMASSOC
360
207
  0
DICTIONARY
  5
20C
330
20B
100
AcDbDictionary
280
     1
281
     1
  3
ACAD_DIMASSOC
360
20D
  0
DICTIONARY
  5
22E
330
22D
100
AcDbDictionary
280
     1
281
     1
  3
ACAD_DIMASSOC
360
22F
  0
DICTIONARY
  5
231
330
230
100
AcDbDictionary
280
     1
281
     1
  3
ACAD_DIMASSOC
360
232
  0
DICTIONARY
  5
236
330
235
100
AcDbDictionary
280
     1
281
     1
  3
ACAD_DIMASSOC
360
237
  0
DICTIONARY
  5
241
330
240
100
AcDbDictionary
280
     1
281
     1
  3
ACAD_DIMASSOC
360
242
  0
DICTIONARY
  5
308
330
307
100
AcDbDictionary
280
     1
281
     1
  0
DICTIONARY
  5
382
330
381
100
AcDbDictionary
280
     1
281
     1
  0
DICTIONARY
  5
388
330
387
100
AcDbDictionary
280
     1
281
     1
  0
DICTIONARY
  5
38A
330
389
100
AcDbDictionary
280
     1
281
     1
  0
DICTIONARY
  5
73
102
{ACAD_REACTORS
330
C
102
}
330
C
100
AcDbDictionary
281
     1
  0
DICTIONARY
  5
122
102
{ACAD_REACTORS
330
C
102
}
330
C
100
AcDbDictionary
281
     1
  0
DICTIONARY
  5
D
102
{ACAD_REACTORS
330
C
102
}
330
C
100
AcDbDictionary
281
     1
  0
RASTERVARIABLES
  5
DC
102
{ACAD_REACTORS
330
C
102
}
330
C
100
AcDbRasterVariables
 90
        0
 70
     1
 71
     1
 72
     5
  0
DICTIONARY
  5
1A
102
{ACAD_REACTORS
330
C
102
}
330
C
100
AcDbDictionary
281
     1
  3
Model
350
22
  3
Sheet1
350
59
  3
Sheet2
350
5E
  0
DICTIONARY
  5
72
102
{ACAD_REACTORS
330
C
102
}
330
C
100
AcDbDictionary
281
     1
  3
ByBlock
350
E2
  3
ByLayer
350
96
  3
Global
350
98
  0
DICTIONARY
  5
B5
102
{ACAD_REACTORS
330
C
102
}
330
C
100
AcDbDictionary
281
     1
  0
DICTIONARY
  5
17
102
{ACAD_REACTORS
330
C
102
}
330
C
100
AcDbDictionary
281
     1
  3
Standard
350
18
  0
DICTIONARY
  5
19
102
{ACAD_REACTORS
330
C
102
}
330
C
100
AcDbDictionary
281
     1
  0
ACDBDICTIONARYWDFLT
  5
E
102
{ACAD_REACTORS
330
C
102
}
330
C
100
AcDbDictionary
281
     1
  3
Normal
350
F
100
AcDbDictionaryWithDefault
340
F
  0
DICTIONARY
  5
B6
102
{ACAD_REACTORS
330
C
102
}
330
C
100
AcDbDictionary
281
     1
  3
A0
350
B7
  3
A1
350
B8
  3
A2
350
B9
  3
A3
350
BA
  3
A4
350
BB
  3
A5
350
BC
  3
A6
350
BD
  3
A7
350
BE
  3
A8
350
BF
  3
A9
350
C0
  3
B0
350
C1
  3
B1
350
C2
  3
B2
350
C3
  3
B3
350
C4
  3
B4
350
C5
  3
B5
350
C6
  3
B6
350
C7
  3
B7
350
C8
  3
B8
350
C9
  3
B9
350
CA
  3
C0
350
CB
  3
C1
350
CC
  3
C2
350
CD
  3
C3
350
CE
  3
C4
350
CF
  3
C5
350
D0
  3
C6
350
D1
  3
C7
350
D2
  3
C8
350
D3
  3
C9
350
D4
  3
D0
350
D5
  3
D1
350
D6
  3
D2
350
D7
  0
DICTIONARY
  5
123
102
{ACAD_REACTORS
330
C
102
}
330
C
100
AcDbDictionary
281
     1
  0
DICTIONARY
  5
86
102
{ACAD_REACTORS
330
C
102
}
330
C
100
AcDbDictionary
281
     1
  3
Standard
350
87
  0
DICTIONARY
  5
99
102
{ACAD_REACTORS
330
C
102
}
330
C
100
AcDbDictionary
281
     1
  3
2dWireframe
350
9F
  3
3D Hidden
350
A1
  3
3dWireframe
350
A0
  3
Basic
350
9E
  3
Brighten
350
A5
  3
ColorChange
350
A9
  3
Conceptual
350
A2
  3
Dim
350
A4
  3
EdgeColorOff
350
E7
  3
Facepattern
350
A8
  3
Flat
350
9A
  3
FlatWithEdges
350
9B
  3
Gouraud
350
9C
  3
GouraudWithEdges
350
9D
  3
Hidden
350
E4
  3
JitterOff
350
E5
  3
Linepattern
350
A7
  3
OverhangOff
350
E6
  3
Realistic
350
A3
  3
Shaded
350
EC
  3
Shaded with edges
350
EB
  3
Shades of Gray
350
E8
  3
Sketchy
350
E9
  3
Thicken
350
A6
  3
Wireframe
350
E3
  3
X-Ray
350
EA
  0
XRECORD
  5
3EB
102
{ACAD_REACTORS
330
C
102
}
330
C
100
AcDbXrecord
280
     1
 90
        1
330
87
  0
DICTIONARY
  5
66
102
{ACAD_REACTORS
330
C
102
}
330
C
100
AcDbDictionary
281
     1
  3
CANNOSCALE
350
D8
  3
CTABLESTYLE
350
89
  3
DIMASSOC
350
67
  3
HIDETEXT
350
6B
  3
LIGHTSINBLOCKS
350
DF
  3
XCLIPFRAME
350
E0
  0
DICTIONARY
  5
E1
102
{ACAD_REACTORS
330
C
102
}
330
C
100
AcDbDictionary
281
     1
  0
DIMASSOC
  5
207
102
{ACAD_REACTORS
330
206
102
}
330
206
100
AcDbDimAssoc
330
205
 90
        3
 70
     0
 71
     0
  1
AcDbOsnapPointRef
 72
    13
331
202
 73
     2
 91
        0
 40
0.0
 10
0.0
 20
0.0
 30
2.000000000000000E+50
 75
     0
  1
AcDbOsnapPointRef
 72
     1
331
202
 73
     2
 91
        0
 40
1.0
 10
0.0
 20
0.0
 30
2.000000000000000E+50
 75
     0
  0
DIMASSOC
  5
20D
102
{ACAD_REACTORS
330
20C
102
}
330
20C
100
AcDbDimAssoc
330
20B
 90
        3
 70
     0
 71
     0
  1
AcDbOsnapPointRef
 72
     1
331
208
 73
     2
 91
        3
 40
1.0
 10
0.0
 20
0.0
 30
2.000000000000000E+50
 75
     0
  1
AcDbOsnapPointRef
 72
     1
331
208
 73
     2
 91
        5
 40
1.0
 10
0.0
 20
0.0
 30
2.000000000000000E+50
 75
     0
  0
DIMASSOC
  5
22F
102
{ACAD_REACTORS
330
22E
102
}
330
22E
100
AcDbDimAssoc
330
22D
 90
        3
 70
     0
 71
     0
  1
AcDbOsnapPointRef
 72
     1
331
1F9
 73
     2
 91
        1
 40
1.0
 10
0.0
 20
0.0
 30
2.000000000000000E+50
 75
     0
  1
AcDbOsnapPointRef
 72
     1
331
1FF
 73
     2
 91
        1
 40
1.0
 10
0.0
 20
0.0
 30
2.000000000000000E+50
 75
     0
  0
DIMASSOC
  5
232
102
{ACAD_REACTORS
330
231
102
}
330
231
100
AcDbDimAssoc
330
230
 90
        2
 70
     0
 71
     0
  1
AcDbOsnapPointRef
 72
    13
331
204
 73
     2
 91
        0
 40
0.0
 10
0.0
 20
0.0
 30
2.000000000000000E+50
 75
     0
  0
DIMASSOC
  5
237
102
{ACAD_REACTORS
330
236
102
}
330
236
100
AcDbDimAssoc
330
235
 90
        3
 70
     0
 71
     0
  1
AcDbOsnapPointRef
 72
     6
331
214
 73
     2
 91
        0
 40
0.5656172193776368
 10
0.0
 20
0.0
 30
0.0
332
233
 74
     2
 92
        0
 75
     0
  1
AcDbOsnapPointRef
 72
     6
331
215
 73
     2
 91
        0
 40
0.5696102400148442
 10
0.0
 20
0.0
 30
0.0
332
233
 74
     2
 92
        0
 75
     0
  0
DIMASSOC
  5
242
102
{ACAD_REACTORS
330
241
102
}
330
241
100
AcDbDimAssoc
330
240
 90
        1
 70
     0
 71
     0
  1
AcDbOsnapPointRef
 72
     3
331
239
 73
     2
 91
        0
 40
0.0
 10
0.0
 20
0.0
 30
0.0
 75
     0
  0
LAYOUT
  5
22
102
{ACAD_REACTORS
330
1A
102
}
330
1A
100
AcDbPlotSettings
  1

  2
none_device
  4
ANSI_A_(8.50_x_11.00_Inches)
  6

 40
6.35
 41
19.05
 42
6.35
 43
19.05
 44
215.9
 45
279.4
 46
11.11250000000003
 47
0.0000000000000142
 48
0.0
 49
0.0
140
0.0
141
0.0
142
1.0
143
1.263157894736842
 70
 11444
 72
     0
 73
     1
 74
     1
  7
monochrome.ctb
 75
     0
 76
     0
 77
     2
 78
   300
147
0.7916666666666665
148
-702.8076765758875
149
-496.2830551296954
100
AcDbLayout
  1
Model
 70
     1
 71
     0
 10
0.0
 20
0.0
 11
12.0
 21
9.0
 12
0.0
 22
0.0
 32
0.0
 14
-0.4435899927201846
 24
14.17613380552815
 34
0.0
 15
268.8357858766949
 25
233.9572180965426
 35
0.0
146
0.0
 13
0.0
 23
0.0
 33
0.0
 16
1.0
 26
0.0
 36
0.0
 17
0.0
 27
1.0
 37
0.0
 76
     0
330
1F
331
94
  0
LAYOUT
  5
59
102
{ACAD_REACTORS
330
1A
102
}
330
1A
100
AcDbPlotSettings
  1

  2
None
  4

  6

 40
0.0
 41
0.0
 42
0.0
 43
0.0
 44
0.0
 45
0.0
 46
0.0
 47
0.0
 48
0.0
 49
0.0
140
0.0
141
0.0
142
1.0
143
1.0
 70
   688
 72
     0
 73
     0
 74
     5
  7

 75
    16
 76
     0
 77
     2
 78
   300
147
1.0
148
0.0
149
0.0
100
AcDbLayout
  1
Sheet1
 70
     1
 71
     1
 10
0.0
 20
0.0
 11
12.0
 21
9.0
 12
0.0
 22
0.0
 32
0.0
 14
0.0
 24
0.0
 34
0.0
 15
0.0
 25
0.0
 35
0.0
146
0.0
 13
0.0
 23
0.0
 33
0.0
 16
1.0
 26
0.0
 36
0.0
 17
0.0
 27
1.0
 37
0.0
 76
     0
330
58
  0
LAYOUT
  5
5E
102
{ACAD_REACTORS
330
1A
102
}
330
1A
100
AcDbPlotSettings
  1

  2
None
  4

  6

 40
0.0
 41
0.0
 42
0.0
 43
0.0
 44
0.0
 45
0.0
 46
0.0
 47
0.0
 48
0.0
 49
0.0
140
0.0
141
0.0
142
1.0
143
1.0
 70
   688
 72
     0
 73
     0
 74
     5
  7

 75
    16
 76
     0
 77
     2
 78
   300
147
1.0
148
0.0
149
0.0
100
AcDbLayout
  1
Sheet2
 70
     1
 71
     2
 10
0.0
 20
0.0
 11
12.0
 21
9.0
 12
0.0
 22
0.0
 32
0.0
 14
0.0
 24
0.0
 34
0.0
 15
0.0
 25
0.0
 35
0.0
146
0.0
 13
0.0
 23
0.0
 33
0.0
 16
1.0
 26
0.0
 36
0.0
 17
0.0
 27
1.0
 37
0.0
 76
     0
330
5D
  0
MATERIAL
  5
E2
102
{ACAD_REACTORS
330
72
102
}
330
72
100
AcDbMaterial
  1
ByBlock
 72
     1
 94
      127
  0
MATERIAL
  5
96
102
{ACAD_REACTORS
330
72
102
}
330
72
100
AcDbMaterial
  1
ByLayer
 72
     1
 94
       63
  0
MATERIAL
  5
98
102
{ACAD_REACTORS
330
72
102
}
330
72
100
AcDbMaterial
  1
Global
 72
     1
 94
       63
  0
MLINESTYLE
  5
18
102
{ACAD_REACTORS
330
17
102
}
330
17
100
AcDbMlineStyle
  2
STANDARD
 70
     0
  3

 62
   256
 51
90.0
 52
90.0
 71
     2
 49
0.5
 62
   256
  6
BYLAYER
 49
-0.5
 62
   256
  6
BYLAYER
  0
ACDBPLACEHOLDER
  5
F
102
{ACAD_REACTORS
330
E
102
}
330
E
  0
SCALE
  5
B7
102
{ACAD_REACTORS
330
B6
102
}
330
B6
100
AcDbScale
 70
     0
300
1:1
140
1.0
141
1.0
290
     1
  0
SCALE
  5
B8
102
{ACAD_REACTORS
330
B6
102
}
330
B6
100
AcDbScale
 70
     0
300
1:2
140
1.0
141
2.0
290
     0
  0
SCALE
  5
B9
102
{ACAD_REACTORS
330
B6
102
}
330
B6
100
AcDbScale
 70
     0
300
1:4
140
1.0
141
4.0
290
     0
  0
SCALE
  5
BA
102
{ACAD_REACTORS
330
B6
102
}
330
B6
100
AcDbScale
 70
     0
300
1:5
140
1.0
141
5.0
290
     0
  0
SCALE
  5
BB
102
{ACAD_REACTORS
330
B6
102
}
330
B6
100
AcDbScale
 70
     0
300
1:8
140
1.0
141
8.0
290
     0
  0
SCALE
  5
BC
102
{ACAD_REACTORS
330
B6
102
}
330
B6
100
AcDbScale
 70
     0
300
1:10
140
1.0
141
10.0
290
     0
  0
SCALE
  5
BD
102
{ACAD_REACTORS
330
B6
102
}
330
B6
100
AcDbScale
 70
     0
300
1:16
140
1.0
141
16.0
290
     0
  0
SCALE
  5
BE
102
{ACAD_REACTORS
330
B6
102
}
330
B6
100
AcDbScale
 70
     0
300
1:20
140
1.0
141
20.0
290
     0
  0
SCALE
  5
BF
102
{ACAD_REACTORS
330
B6
102
}
330
B6
100
AcDbScale
 70
     0
300
1:30
140
1.0
141
30.0
290
     0
  0
SCALE
  5
C0
102
{ACAD_REACTORS
330
B6
102
}
330
B6
100
AcDbScale
 70
     0
300
1:40
140
1.0
141
40.0
290
     0
  0
SCALE
  5
C1
102
{ACAD_REACTORS
330
B6
102
}
330
B6
100
AcDbScale
 70
     0
300
1:50
140
1.0
141
50.0
290
     0
  0
SCALE
  5
C2
102
{ACAD_REACTORS
330
B6
102
}
330
B6
100
AcDbScale
 70
     0
300
1:100
140
1.0
141
100.0
290
     0
  0
SCALE
  5
C3
102
{ACAD_REACTORS
330
B6
102
}
330
B6
100
AcDbScale
 70
     0
300
2:1
140
2.0
141
1.0
290
     0
  0
SCALE
  5
C4
102
{ACAD_REACTORS
330
B6
102
}
330
B6
100
AcDbScale
 70
     0
300
4:1
140
4.0
141
1.0
290
     0
  0
SCALE
  5
C5
102
{ACAD_REACTORS
330
B6
102
}
330
B6
100
AcDbScale
 70
     0
300
8:1
140
8.0
141
1.0
290
     0
  0
SCALE
  5
C6
102
{ACAD_REACTORS
330
B6
102
}
330
B6
100
AcDbScale
 70
     0
300
10:1
140
10.0
141
1.0
290
     0
  0
SCALE
  5
C7
102
{ACAD_REACTORS
330
B6
102
}
330
B6
100
AcDbScale
 70
     0
300
100:1
140
100.0
141
1.0
290
     0
  0
SCALE
  5
C8
102
{ACAD_REACTORS
330
B6
102
}
330
B6
100
AcDbScale
 70
     0
300
1/128" = 1'-0"
140
0.0078125
141
12.0
290
     0
  0
SCALE
  5
C9
102
{ACAD_REACTORS
330
B6
102
}
330
B6
100
AcDbScale
 70
     0
300
1/64" = 1'-0"
140
0.015625
141
12.0
290
     0
  0
SCALE
  5
CA
102
{ACAD_REACTORS
330
B6
102
}
330
B6
100
AcDbScale
 70
     0
300
1/32" = 1'-0"
140
0.03125
141
12.0
290
     0
  0
SCALE
  5
CB
102
{ACAD_REACTORS
330
B6
102
}
330
B6
100
AcDbScale
 70
     0
300
1/16" = 1'-0"
140
0.0625
141
12.0
290
     0
  0
SCALE
  5
CC
102
{ACAD_REACTORS
330
B6
102
}
330
B6
100
AcDbScale
 70
     0
300
3/32" = 1'-0"
140
0.09375
141
12.0
290
     0
  0
SCALE
  5
CD
102
{ACAD_REACTORS
330
B6
102
}
330
B6
100
AcDbScale
 70
     0
300
1/8" = 1'-0"
140
0.125
141
12.0
290
     0
  0
SCALE
  5
CE
102
{ACAD_REACTORS
330
B6
102
}
330
B6
100
AcDbScale
 70
     0
300
3/16" = 1'-0"
140
0.1875
141
12.0
290
     0
  0
SCALE
  5
CF
102
{ACAD_REACTORS
330
B6
102
}
330
B6
100
AcDbScale
 70
     0
300
1/4" = 1'-0"
140
0.25
141
12.0
290
     0
  0
SCALE
  5
D0
102
{ACAD_REACTORS
330
B6
102
}
330
B6
100
AcDbScale
 70
     0
300
3/8" = 1'-0"
140
0.375
141
12.0
290
     0
  0
SCALE
  5
D1
102
{ACAD_REACTORS
330
B6
102
}
330
B6
100
AcDbScale
 70
     0
300
1/2" = 1'-0"
140
0.5
141
12.0
290
     0
  0
SCALE
  5
D2
102
{ACAD_REACTORS
330
B6
102
}
330
B6
100
AcDbScale
 70
     0
300
3/4" = 1'-0"
140
0.75
141
12.0
290
     0
  0
SCALE
  5
D3
102
{ACAD_REACTORS
330
B6
102
}
330
B6
100
AcDbScale
 70
     0
300
1" = 1'-0"
140
1.0
141
12.0
290
     0
  0
SCALE
  5
D4
102
{ACAD_REACTORS
330
B6
102
}
330
B6
100
AcDbScale
 70
     0
300
1-1/2" = 1'-0"
140
1.5
141
12.0
290
     0
  0
SCALE
  5
D5
102
{ACAD_REACTORS
330
B6
102
}
330
B6
100
AcDbScale
 70
     0
300
3" = 1'-0"
140
3.0
141
12.0
290
     0
  0
SCALE
  5
D6
102
{ACAD_REACTORS
330
B6
102
}
330
B6
100
AcDbScale
 70
     0
300
6" = 1'-0"
140
6.0
141
12.0
290
     0
  0
SCALE
  5
D7
102
{ACAD_REACTORS
330
B6
102
}
330
B6
100
AcDbScale
 70
     0
300
1'-0" = 1'-0"
140
12.0
141
12.0
290
     0
  0
TABLESTYLE
  5
87
102
{ACAD_REACTORS
330
86
102
}
102
{ACAD_XDICTIONARY
360
3E9
102
}
330
86
100
AcDbTableStyle
  3
Standard
 70
     0
 71
     0
 40
0.06
 41
0.06
280
     0
281
     0
  7
Standard
140
0.18
170
     2
 62
     0
 63
   257
283
     0
 90
      512
 91
        0
  1

274
    -2
284
     1
 64
     0
275
    -2
285
     1
 65
     0
276
    -2
286
     1
 66
     0
277
    -2
287
     1
 67
     0
278
    -2
288
     1
 68
     0
279
    -2
289
     1
 69
     0
  7
Standard
140
0.25
170
     5
 62
     0
 63
   257
283
     0
 90
      512
 91
        0
  1

274
    -2
284
     1
 64
     0
275
    -2
285
     1
 65
     0
276
    -2
286
     1
 66
     0
277
    -2
287
     1
 67
     0
278
    -2
288
     1
 68
     0
279
    -2
289
     1
 69
     0
  7
Standard
140
0.18
170
     5
 62
     0
 63
   257
283
     0
 90
      512
 91
        0
  1

274
    -2
284
     1
 64
     0
275
    -2
285
     1
 65
     0
276
    -2
286
     1
 66
     0
277
    -2
287
     1
 67
     0
278
    -2
288
     1
 68
     0
279
    -2
289
     1
 69
     0
  0
VISUALSTYLE
  5
9F
102
{ACAD_REACTORS
330
99
102
}
330
99
100
AcDbVisualStyle
  2
2dWireframe
 70
     4
177
     3
291
     0
 70
    58
 90
        0
176
     1
 90
        2
176
     1
 90
        1
176
     1
 90
        0
176
     1
 40
-0.6
176
     1
 40
-30.0
176
     1
 62
     7
420
 16777215
176
     1
 90
        1
176
     1
 90
        4
176
     1
 62
     7
176
     1
 62
   257
176
     1
 90
        1
176
     1
 90
        1
176
     1
 40
1.0
176
     1
 90
        0
176
     1
 62
   257
176
     1
 40
1.0
176
     1
 90
        1
176
     1
 90
        6
176
     1
 90
        2
176
     1
 62
     7
176
     1
 90
        5
176
     1
 90
        0
176
     1
 90
        0
176
     1
290
     0
176
     1
 90
        1
176
     1
 40
0.0
176
     1
 90
        0
176
     1
290
     1
176
     1
290
     1
176
     1
290
     0
176
     1
290
     0
176
     1
290
     0
176
     1
290
     0
176
     1
290
     0
176
     1
290
     0
176
     1
290
     0
176
     1
 90
       50
176
     1
 40
0.0
176
     1
 40
1.0
176
     1
 90
        0
176
     1
 62
    18
420
        0
176
     1
 90
       50
176
     1
 90
        3
176
     1
 62
     5
420
      255
176
     1
290
     0
176
     1
 90
       50
176
     1
 90
       50
176
     1
 90
       50
176
     1
290
     0
176
     1
 90
       50
176
     1
 62
   256
176
     0
 40
1.0
176
     0
 90
        2
176
     1
  1
strokes_ogs.tif
176
     1
290
     0
176
     1
 40
1.0
176
     1
 40
1.0
176
     1
  0
VISUALSTYLE
  5
A1
102
{ACAD_REACTORS
330
99
102
}
330
99
100
AcDbVisualStyle
  2
3D Hidden
 70
     6
177
     3
291
     0
 70
    58
 90
        1
176
     1
 90
        2
176
     1
 90
        2
176
     1
 90
        0
176
     1
 40
-0.6
176
     1
 40
-30.0
176
     1
 62
     7
420
 16777215
176
     1
 90
        2
176
     1
 90
        2
176
     1
 62
     7
176
     1
 62
   257
176
     1
 90
        2
176
     1
 90
        1
176
     1
 40
40.0
176
     1
 90
        0
176
     1
 62
   257
176
     1
 40
1.0
176
     1
 90
        1
176
     1
 90
        6
176
     1
 90
        2
176
     1
 62
     7
176
     1
 90
        3
176
     1
 90
        0
176
     1
 90
        0
176
     1
290
     0
176
     1
 90
        1
176
     1
 40
0.0
176
     1
 90
        0
176
     1
290
     0
176
     1
290
     1
176
     1
290
     1
176
     1
290
     0
176
     1
290
     0
176
     1
290
     0
176
     1
290
     0
176
     1
290
     0
176
     1
290
     0
176
     1
 90
       50
176
     1
 40
0.0
176
     1
 40
1.0
176
     1
 90
        0
176
     1
 62
    18
420
        0
176
     1
 90
       50
176
     1
 90
        3
176
     1
 62
     5
420
      255
176
     1
290
     0
176
     1
 90
       50
176
     1
 90
       50
176
     1
 90
       50
176
     1
290
     0
176
     1
 90
       50
176
     1
 62
   256
176
     0
 40
1.0
176
     0
 90
        2
176
     1
  1
strokes_ogs.tif
176
     1
290
     0
176
     1
 40
1.0
176
     1
 40
1.0
176
     1
  0
VISUALSTYLE
  5
A0
102
{ACAD_REACTORS
330
99
102
}
330
99
100
AcDbVisualStyle
  2
3dWireframe
 70
     5
177
     3
291
     0
 70
    58
 90
        0
176
     1
 90
        2
176
     1
 90
        1
176
     1
 90
        0
176
     1
 40
-0.6
176
     1
 40
-30.0
176
     1
 62
     7
420
 16777215
176
     1
 90
        1
176
     1
 90
        4
176
     1
 62
     7
176
     1
 62
   257
176
     1
 90
        1
176
     1
 90
        1
176
     1
 40
1.0
176
     1
 90
        0
176
     1
 62
   257
176
     1
 40
1.0
176
     1
 90
        1
176
     1
 90
        6
176
     1
 90
        2
176
     1
 62
     7
176
     1
 90
        5
176
     1
 90
        0
176
     1
 90
        0
176
     1
290
     0
176
     1
 90
        1
176
     1
 40
0.0
176
     1
 90
        0
176
     1
290
     0
176
     1
290
     1
176
     1
290
     1
176
     1
290
     0
176
     1
290
     0
176
     1
290
     0
176
     1
290
     0
176
     1
290
     0
176
     1
290
     0
176
     1
 90
       50
176
     1
 40
0.0
176
     1
 40
1.0
176
     1
 90
        0
176
     1
 62
    18
420
        0
176
     1
 90
       50
176
     1
 90
        3
176
     1
 62
     5
420
      255
176
     1
290
     0
176
     1
 90
       50
176
     1
 90
       50
176
     1
 90
       50
176
     1
290
     0
176
     1
 90
       50
176
     1
 62
   256
176
     0
 40
1.0
176
     0
 90
        2
176
     1
  1
strokes_ogs.tif
176
     1
290
     0
176
     1
 40
1.0
176
     1
 40
1.0
176
     1
  0
VISUALSTYLE
  5
9E
102
{ACAD_REACTORS
330
99
102
}
330
99
100
AcDbVisualStyle
  2
Basic
 70
     7
177
     3
291
     1
 70
    58
 90
        1
176
     1
 90
        0
176
     1
 90
        1
176
     1
 90
        0
176
     1
 40
-0.6
176
     1
 40
-30.0
176
     1
 62
     7
420
 16777215
176
     1
 90
        0
176
     1
 90
        4
176
     1
 62
     7
176
     1
 62
   257
176
     1
 90
        1
176
     1
 90
        1
176
     1
 40
1.0
176
     1
 90
        8
176
     1
 62
     7
176
     1
 40
1.0
176
     1
 90
        1
176
     1
 90
        6
176
     1
 90
        2
176
     1
 62
     7
176
     1
 90
        5
176
     1
 90
        0
176
     1
 90
        0
176
     1
290
     0
176
     1
 90
        1
176
     1
 40
0.0
176
     1
 90
        0
176
     1
290
     0
176
     1
290
     1
176
     1
290
     1
176
     1
290
     0
176
     1
290
     0
176
     1
290
     0
176
     1
290
     0
176
     1
290
     0
176
     1
290
     0
176
     1
 90
       50
176
     1
 40
0.0
176
     1
 40
1.0
176
     1
 90
        0
176
     1
 62
    18
420
        0
176
     1
 90
       50
176
     1
 90
        3
176
     1
 62
     5
420
      255
176
     1
290
     0
176
     1
 90
       50
176
     1
 90
       50
176
     1
 90
       50
176
     1
290
     0
176
     1
 90
       50
176
     1
 62
   256
176
     0
 40
1.0
176
     0
 90
        2
176
     1
  1
strokes_ogs.tif
176
     1
290
     0
176
     1
 40
1.0
176
     1
 40
1.0
176
     1
  0
VISUALSTYLE
  5
A5
102
{ACAD_REACTORS
330
99
102
}
330
99
100
AcDbVisualStyle
  2
Brighten
 70
    12
177
     3
291
     1
 70
    58
 90
        2
176
     1
 90
        2
176
     1
 90
        1
176
     1
 90
        0
176
     1
 40
-0.6
176
     1
 40
-30.0
176
     1
 62
     7
420
 16777215
176
     1
 90
        1
176
     1
 90
        4
176
     1
 62
     7
176
     1
 62
   257
176
     1
 90
        1
176
     1
 90
        1
176
     1
 40
1.0
176
     1
 90
        8
176
     1
 62
     7
176
     1
 40
1.0
176
     1
 90
        1
176
     1
 90
        6
176
     1
 90
        2
176
     1
 62
     7
176
     1
 90
        5
176
     1
 90
        0
176
     1
 90
        0
176
     1
290
     0
176
     1
 90
        1
176
     1
 40
50.0
176
     1
 90
        0
176
     1
290
     0
176
     1
290
     1
176
     1
290
     1
176
     1
290
     0
176
     1
290
     0
176
     1
290
     0
176
     1
290
     0
176
     1
290
     0
176
     1
290
     0
176
     1
 90
       50
176
     1
 40
0.0
176
     1
 40
1.0
176
     1
 90
        0
176
     1
 62
    18
420
        0
176
     1
 90
       50
176
     1
 90
        3
176
     1
 62
     5
420
      255
176
     1
290
     0
176
     1
 90
       50
176
     1
 90
       50
176
     1
 90
       50
176
     1
290
     0
176
     1
 90
       50
176
     1
 62
   256
176
     0
 40
1.0
176
     0
 90
        2
176
     1
  1
strokes_ogs.tif
176
     1
290
     0
176
     1
 40
1.0
176
     1
 40
1.0
176
     1
  0
VISUALSTYLE
  5
A9
102
{ACAD_REACTORS
330
99
102
}
330
99
100
AcDbVisualStyle
  2
ColorChange
 70
    16
177
     3
291
     1
 70
    58
 90
        2
176
     1
 90
        2
176
     1
 90
        3
176
     1
 90
        0
176
     1
 40
-0.6
176
     1
 40
-30.0
176
     1
 62
     8
420
  8421504
176
     1
 90
        1
176
     1
 90
        4
176
     1
 62
     7
176
     1
 62
   257
176
     1
 90
        1
176
     1
 90
        1
176
     1
 40
1.0
176
     1
 90
        8
176
     1
 62
     8
420
  8421504
176
     1
 40
1.0
176
     1
 90
        1
176
     1
 90
        6
176
     1
 90
        2
176
     1
 62
     7
176
     1
 90
        5
176
     1
 90
        0
176
     1
 90
        0
176
     1
290
     0
176
     1
 90
        1
176
     1
 40
0.0
176
     1
 90
        0
176
     1
290
     0
176
     1
290
     1
176
     1
290
     1
176
     1
290
     0
176
     1
290
     0
176
     1
290
     0
176
     1
290
     0
176
     1
290
     0
176
     1
290
     0
176
     1
 90
       50
176
     1
 40
0.0
176
     1
 40
1.0
176
     1
 90
        0
176
     1
 62
    18
420
        0
176
     1
 90
       50
176
     1
 90
        3
176
     1
 62
     5
420
      255
176
     1
290
     0
176
     1
 90
       50
176
     1
 90
       50
176
     1
 90
       50
176
     1
290
     0
176
     1
 90
       50
176
     1
 62
   256
176
     0
 40
1.0
176
     0
 90
        2
176
     1
  1
strokes_ogs.tif
176
     1
290
     0
176
     1
 40
1.0
176
     1
 40
1.0
176
     1
  0
VISUALSTYLE
  5
A2
102
{ACAD_REACTORS
330
99
102
}
330
99
100
AcDbVisualStyle
  2
Conceptual
 70
     9
177
     3
291
     0
 70
    58
 90
        3
176
     1
 90
        2
176
     1
 90
        1
176
     1
 90
        0
176
     1
 40
-0.6
176
     1
 40
-30.0
176
     1
 62
     7
420
 16777215
176
     1
 90
        2
176
     1
 90
        2
176
     1
 62
     7
176
     1
 62
   257
176
     1
 90
        1
176
     1
 90
        1
176
     1
 40
40.0
176
     1
 90
        8
176
     1
 62
     7
176
     1
 40
1.0
176
     1
 90
        1
176
     1
 90
        6
176
     1
 90
        2
176
     1
 62
     7
176
     1
 90
        3
176
     1
 90
        0
176
     1
 90
        0
176
     1
290
     0
176
     1
 90
        1
176
     1
 40
0.0
176
     1
 90
        0
176
     1
290
     0
176
     1
290
     1
176
     1
290
     1
176
     1
290
     0
176
     1
290
     0
176
     1
290
     0
176
     1
290
     0
176
     1
290
     0
176
     1
290
     0
176
     1
 90
       50
176
     1
 40
0.0
176
     1
 40
1.0
176
     1
 90
        0
176
     1
 62
    18
420
        0
176
     1
 90
       50
176
     1
 90
        3
176
     1
 62
     5
420
      255
176
     1
290
     0
176
     1
 90
       50
176
     1
 90
       50
176
     1
 90
       50
176
     1
290
     0
176
     1
 90
       50
176
     1
 62
   256
176
     0
 40
1.0
176
     0
 90
        2
176
     1
  1
strokes_ogs.tif
176
     1
290
     0
176
     1
 40
1.0
176
     1
 40
1.0
176
     1
  0
VISUALSTYLE
  5
A4
102
{ACAD_REACTORS
330
99
102
}
330
99
100
AcDbVisualStyle
  2
Dim
 70
    11
177
     3
291
     1
 70
    58
 90
        2
176
     1
 90
        2
176
     1
 90
        1
176
     1
 90
        0
176
     1
 40
-0.6
176
     1
 40
-30.0
176
     1
 62
     7
420
 16777215
176
     1
 90
        1
176
     1
 90
        4
176
     1
 62
     7
176
     1
 62
   257
176
     1
 90
        1
176
     1
 90
        1
176
     1
 40
1.0
176
     1
 90
        8
176
     1
 62
     7
176
     1
 40
1.0
176
     1
 90
        1
176
     1
 90
        6
176
     1
 90
        2
176
     1
 62
     7
176
     1
 90
        5
176
     1
 90
        0
176
     1
 90
        0
176
     1
290
     0
176
     1
 90
        1
176
     1
 40
-50.0
176
     1
 90
        0
176
     1
290
     0
176
     1
290
     1
176
     1
290
     1
176
     1
290
     0
176
     1
290
     0
176
     1
290
     0
176
     1
290
     0
176
     1
290
     0
176
     1
290
     0
176
     1
 90
       50
176
     1
 40
0.0
176
     1
 40
1.0
176
     1
 90
        0
176
     1
 62
    18
420
        0
176
     1
 90
       50
176
     1
 90
        3
176
     1
 62
     5
420
      255
176
     1
290
     0
176
     1
 90
       50
176
     1
 90
       50
176
     1
 90
       50
176
     1
290
     0
176
     1
 90
       50
176
     1
 62
   256
176
     0
 40
1.0
176
     0
 90
        2
176
     1
  1
strokes_ogs.tif
176
     1
290
     0
176
     1
 40
1.0
176
     1
 40
1.0
176
     1
  0
VISUALSTYLE
  5
E7
102
{ACAD_REACTORS
330
99
102
}
330
99
100
AcDbVisualStyle
  2
EdgeColorOff
 70
    22
177
     3
291
     1
 70
    58
 90
        2
176
     0
 90
        2
176
     0
 90
        0
176
     0
 90
        0
176
     0
 40
0.6
176
     0
 40
30.0
176
     0
 62
     7
420
 16777215
176
     0
 90
        1
176
     0
 90
        4
176
     0
 62
     7
176
     0
 62
   257
176
     0
 90
        1
176
     0
 90
        1
176
     0
 40
1.0
176
     0
 90
        8
176
     2
 62
     7
176
     0
 40
1.0
176
     0
 90
        1
176
     0
 90
        6
176
     0
 90
        2
176
     0
 62
     7
176
     0
 90
        5
176
     0
 90
        0
176
     0
 90
        0
176
     0
290
     0
176
     0
 90
        1
176
     0
 40
0.0
176
     0
 90
        0
176
     0
290
     0
176
     0
290
     1
176
     0
290
     1
176
     0
290
     0
176
     0
290
     0
176
     0
290
     0
176
     0
290
     0
176
     0
290
     0
176
     0
290
     0
176
     0
 90
       50
176
     0
 40
0.0
176
     0
 40
1.0
176
     0
 90
        0
176
     0
 62
    18
420
        0
176
     0
 90
       50
176
     0
 90
        3
176
     0
 62
     5
420
      255
176
     0
290
     0
176
     0
 90
       50
176
     0
 90
       50
176
     0
 90
       50
176
     0
290
     0
176
     0
 90
       50
176
     0
 62
   256
176
     0
 40
1.0
176
     0
 90
        2
176
     0
  1
strokes_ogs.tif
176
     0
290
     0
176
     0
 40
1.0
176
     0
 40
1.0
176
     0
  0
VISUALSTYLE
  5
A8
102
{ACAD_REACTORS
330
99
102
}
330
99
100
AcDbVisualStyle
  2
Facepattern
 70
    15
177
     3
291
     1
 70
    58
 90
        2
176
     1
 90
        2
176
     1
 90
        1
176
     1
 90
        0
176
     1
 40
-0.6
176
     1
 40
-30.0
176
     1
 62
     7
420
 16777215
176
     1
 90
        1
176
     1
 90
        4
176
     1
 62
     7
176
     1
 62
   257
176
     1
 90
        1
176
     1
 90
        1
176
     1
 40
1.0
176
     1
 90
        8
176
     1
 62
     7
176
     1
 40
1.0
176
     1
 90
        1
176
     1
 90
        6
176
     1
 90
        2
176
     1
 62
     7
176
     1
 90
        5
176
     1
 90
        0
176
     1
 90
        0
176
     1
290
     0
176
     1
 90
        1
176
     1
 40
0.0
176
     1
 90
        0
176
     1
290
     0
176
     1
290
     1
176
     1
290
     1
176
     1
290
     0
176
     1
290
     0
176
     1
290
     0
176
     1
290
     0
176
     1
290
     0
176
     1
290
     0
176
     1
 90
       50
176
     1
 40
0.0
176
     1
 40
1.0
176
     1
 90
        0
176
     1
 62
    18
420
        0
176
     1
 90
       50
176
     1
 90
        3
176
     1
 62
     5
420
      255
176
     1
290
     0
176
     1
 90
       50
176
     1
 90
       50
176
     1
 90
       50
176
     1
290
     0
176
     1
 90
       50
176
     1
 62
   256
176
     0
 40
1.0
176
     0
 90
        2
176
     1
  1
strokes_ogs.tif
176
     1
290
     0
176
     1
 40
1.0
176
     1
 40
1.0
176
     1
  0
VISUALSTYLE
  5
9A
102
{ACAD_REACTORS
330
99
102
}
330
99
100
AcDbVisualStyle
  2
Flat
 70
     0
177
     3
291
     1
 70
    58
 90
        2
176
     1
 90
        1
176
     1
 90
        1
176
     1
 90
        2
176
     1
 40
-0.6
176
     1
 40
30.0
176
     1
 62
     7
420
 16777215
176
     1
 90
        0
176
     1
 90
        4
176
     1
 62
     7
176
     1
 62
   257
176
     1
 90
        1
176
     1
 90
        1
176
     1
 40
1.0
176
     1
 90
        8
176
     1
 62
     7
176
     1
 40
1.0
176
     1
 90
        1
176
     1
 90
        6
176
     1
 90
        2
176
     1
 62
     7
176
     1
 90
        5
176
     1
 90
        0
176
     1
 90
        0
176
     1
290
     0
176
     1
 90
        1
176
     1
 40
0.0
176
     1
 90
        0
176
     1
290
     0
176
     1
290
     1
176
     1
290
     1
176
     1
290
     0
176
     1
290
     0
176
     1
290
     0
176
     1
290
     0
176
     1
290
     0
176
     1
290
     0
176
     1
 90
       50
176
     1
 40
0.0
176
     1
 40
1.0
176
     1
 90
        0
176
     1
 62
    18
420
        0
176
     1
 90
       50
176
     1
 90
        3
176
     1
 62
     5
420
      255
176
     1
290
     0
176
     1
 90
       50
176
     1
 90
       50
176
     1
 90
       50
176
     1
290
     0
176
     1
 90
       50
176
     1
 62
   256
176
     0
 40
1.0
176
     0
 90
        2
176
     1
  1
strokes_ogs.tif
176
     1
290
     0
176
     1
 40
1.0
176
     1
 40
1.0
176
     1
  0
VISUALSTYLE
  5
9B
102
{ACAD_REACTORS
330
99
102
}
330
99
100
AcDbVisualStyle
  2
FlatWithEdges
 70
     1
177
     3
291
     1
 70
    58
 90
        2
176
     1
 90
        1
176
     1
 90
        1
176
     1
 90
        2
176
     1
 40
-0.6
176
     1
 40
30.0
176
     1
 62
     7
420
 16777215
176
     1
 90
        1
176
     1
 90
        4
176
     1
 62
     7
176
     1
 62
   257
176
     1
 90
        1
176
     1
 90
        1
176
     1
 40
1.0
176
     1
 90
        0
176
     1
 62
   257
176
     1
 40
1.0
176
     1
 90
        1
176
     1
 90
        6
176
     1
 90
        2
176
     1
 62
     7
176
     1
 90
        5
176
     1
 90
        0
176
     1
 90
        0
176
     1
290
     0
176
     1
 90
        1
176
     1
 40
0.0
176
     1
 90
        0
176
     1
290
     0
176
     1
290
     1
176
     1
290
     1
176
     1
290
     0
176
     1
290
     0
176
     1
290
     0
176
     1
290
     0
176
     1
290
     0
176
     1
290
     0
176
     1
 90
       50
176
     1
 40
0.0
176
     1
 40
1.0
176
     1
 90
        0
176
     1
 62
    18
420
        0
176
     1
 90
       50
176
     1
 90
        3
176
     1
 62
     5
420
      255
176
     1
290
     0
176
     1
 90
       50
176
     1
 90
       50
176
     1
 90
       50
176
     1
290
     0
176
     1
 90
       50
176
     1
 62
   256
176
     0
 40
1.0
176
     0
 90
        2
176
     1
  1
strokes_ogs.tif
176
     1
290
     0
176
     1
 40
1.0
176
     1
 40
1.0
176
     1
  0
VISUALSTYLE
  5
9C
102
{ACAD_REACTORS
330
99
102
}
330
99
100
AcDbVisualStyle
  2
Gouraud
 70
     2
177
     3
291
     1
 70
    58
 90
        2
176
     1
 90
        2
176
     1
 90
        1
176
     1
 90
        2
176
     1
 40
-0.6
176
     1
 40
30.0
176
     1
 62
     7
420
 16777215
176
     1
 90
        0
176
     1
 90
        4
176
     1
 62
     7
176
     1
 62
   257
176
     1
 90
        1
176
     1
 90
        1
176
     1
 40
1.0
176
     1
 90
        0
176
     1
 62
     7
176
     1
 40
1.0
176
     1
 90
        1
176
     1
 90
        6
176
     1
 90
        2
176
     1
 62
     7
176
     1
 90
        5
176
     1
 90
        0
176
     1
 90
        0
176
     1
290
     0
176
     1
 90
        1
176
     1
 40
0.0
176
     1
 90
        0
176
     1
290
     0
176
     1
290
     1
176
     1
290
     1
176
     1
290
     0
176
     1
290
     0
176
     1
290
     0
176
     1
290
     0
176
     1
290
     0
176
     1
290
     0
176
     1
 90
       50
176
     1
 40
0.0
176
     1
 40
1.0
176
     1
 90
        0
176
     1
 62
    18
420
        0
176
     1
 90
       50
176
     1
 90
        3
176
     1
 62
     5
420
      255
176
     1
290
     0
176
     1
 90
       50
176
     1
 90
       50
176
     1
 90
       50
176
     1
290
     0
176
     1
 90
       50
176
     1
 62
   256
176
     0
 40
1.0
176
     0
 90
        2
176
     1
  1
strokes_ogs.tif
176
     1
290
     0
176
     1
 40
1.0
176
     1
 40
1.0
176
     1
  0
VISUALSTYLE
  5
9D
102
{ACAD_REACTORS
330
99
102
}
330
99
100
AcDbVisualStyle
  2
GouraudWithEdges
 70
     3
177
     3
291
     1
 70
    58
 90
        2
176
     1
 90
        2
176
     1
 90
        1
176
     1
 90
        2
176
     1
 40
-0.6
176
     1
 40
30.0
176
     1
 62
     7
420
 16777215
176
     1
 90
        1
176
     1
 90
        4
176
     1
 62
     7
176
     1
 62
   257
176
     1
 90
        1
176
     1
 90
        1
176
     1
 40
1.0
176
     1
 90
        0
176
     1
 62
   257
176
     1
 40
1.0
176
     1
 90
        1
176
     1
 90
        6
176
     1
 90
        2
176
     1
 62
     7
176
     1
 90
        5
176
     1
 90
        0
176
     1
 90
        0
176
     1
290
     0
176
     1
 90
        1
176
     1
 40
0.0
176
     1
 90
        0
176
     1
290
     0
176
     1
290
     1
176
     1
290
     1
176
     1
290
     0
176
     1
290
     0
176
     1
290
     0
176
     1
290
     0
176
     1
290
     0
176
     1
290
     0
176
     1
 90
       50
176
     1
 40
0.0
176
     1
 40
1.0
176
     1
 90
        0
176
     1
 62
    18
420
        0
176
     1
 90
       50
176
     1
 90
        3
176
     1
 62
     5
420
      255
176
     1
290
     0
176
     1
 90
       50
176
     1
 90
       50
176
     1
 90
       50
176
     1
290
     0
176
     1
 90
       50
176
     1
 62
   256
176
     0
 40
1.0
176
     0
 90
        2
176
     1
  1
strokes_ogs.tif
176
     1
290
     0
176
     1
 40
1.0
176
     1
 40
1.0
176
     1
  0
VISUALSTYLE
  5
E4
102
{ACAD_REACTORS
330
99
102
}
330
99
100
AcDbVisualStyle
  2
Hidden
 70
     6
177
     3
291
     0
 70
    58
 90
        1
176
     1
 90
        2
176
     1
 90
        2
176
     1
 90
        0
176
     1
 40
0.6
176
     1
 40
30.0
176
     1
 62
     7
420
 16777215
176
     1
 90
        2
176
     1
 90
        2
176
     1
 62
     7
176
     1
 62
   257
176
     1
 90
        2
176
     1
 90
        1
176
     1
 40
40.0
176
     1
 90
        0
176
     1
 62
   257
176
     1
 40
1.0
176
     1
 90
        1
176
     1
 90
        6
176
     1
 90
        2
176
     1
 62
     7
176
     1
 90
        3
176
     1
 90
        0
176
     1
 90
        0
176
     1
290
     0
176
     1
 90
        1
176
     1
 40
0.0
176
     1
 90
        0
176
     1
290
     0
176
     1
290
     1
176
     1
290
     1
176
     1
290
     0
176
     1
290
     0
176
     1
290
     0
176
     1
290
     0
176
     1
290
     0
176
     1
290
     0
176
     1
 90
       50
176
     1
 40
0.0
176
     1
 40
1.0
176
     1
 90
        0
176
     1
 62
    18
420
        0
176
     1
 90
       50
176
     1
 90
        3
176
     1
 62
     5
420
      255
176
     1
290
     0
176
     1
 90
       50
176
     1
 90
       50
176
     1
 90
       50
176
     1
290
     0
176
     1
 90
       50
176
     1
 62
   256
176
     0
 40
1.0
176
     0
 90
        2
176
     1
  1
strokes_ogs.tif
176
     1
290
     0
176
     1
 40
1.0
176
     1
 40
1.0
176
     1
  0
VISUALSTYLE
  5
E5
102
{ACAD_REACTORS
330
99
102
}
330
99
100
AcDbVisualStyle
  2
JitterOff
 70
    20
177
     3
291
     1
 70
    58
 90
        2
176
     0
 90
        2
176
     0
 90
        0
176
     0
 90
        0
176
     0
 40
0.6
176
     0
 40
30.0
176
     0
 62
     7
420
 16777215
176
     0
 90
        1
176
     0
 90
        4
176
     0
 62
     7
176
     0
 62
   257
176
     0
 90
        1
176
     0
 90
        1
176
     0
 40
1.0
176
     0
 90
       10
176
     2
 62
     7
176
     0
 40
1.0
176
     0
 90
        1
176
     0
 90
        6
176
     0
 90
        2
176
     0
 62
     7
176
     0
 90
        5
176
     0
 90
        0
176
     0
 90
        0
176
     0
290
     0
176
     0
 90
        1
176
     0
 40
0.0
176
     0
 90
        0
176
     0
290
     0
176
     0
290
     1
176
     0
290
     1
176
     0
290
     0
176
     0
290
     0
176
     0
290
     0
176
     0
290
     0
176
     0
290
     0
176
     0
290
     0
176
     0
 90
       50
176
     0
 40
0.0
176
     0
 40
1.0
176
     0
 90
        0
176
     0
 62
    18
420
        0
176
     0
 90
       50
176
     0
 90
        3
176
     0
 62
     5
420
      255
176
     0
290
     0
176
     0
 90
       50
176
     0
 90
       50
176
     0
 90
       50
176
     0
290
     0
176
     0
 90
       50
176
     0
 62
   256
176
     0
 40
1.0
176
     0
 90
        2
176
     0
  1
strokes_ogs.tif
176
     0
290
     0
176
     0
 40
1.0
176
     0
 40
1.0
176
     0
  0
VISUALSTYLE
  5
A7
102
{ACAD_REACTORS
330
99
102
}
330
99
100
AcDbVisualStyle
  2
Linepattern
 70
    14
177
     3
291
     1
 70
    58
 90
        2
176
     1
 90
        2
176
     1
 90
        1
176
     1
 90
        0
176
     1
 40
-0.6
176
     1
 40
-30.0
176
     1
 62
     7
420
 16777215
176
     1
 90
        1
176
     1
 90
        4
176
     1
 62
     7
176
     1
 62
   257
176
     1
 90
        7
176
     1
 90
        7
176
     1
 40
1.0
176
     1
 90
        8
176
     1
 62
     7
176
     1
 40
1.0
176
     1
 90
        1
176
     1
 90
        6
176
     1
 90
        2
176
     1
 62
     7
176
     1
 90
        5
176
     1
 90
        0
176
     1
 90
        0
176
     1
290
     0
176
     1
 90
        1
176
     1
 40
0.0
176
     1
 90
        0
176
     1
290
     0
176
     1
290
     1
176
     1
290
     1
176
     1
290
     0
176
     1
290
     0
176
     1
290
     0
176
     1
290
     0
176
     1
290
     0
176
     1
290
     0
176
     1
 90
       50
176
     1
 40
0.0
176
     1
 40
1.0
176
     1
 90
        0
176
     1
 62
    18
420
        0
176
     1
 90
       50
176
     1
 90
        3
176
     1
 62
     5
420
      255
176
     1
290
     0
176
     1
 90
       50
176
     1
 90
       50
176
     1
 90
       50
176
     1
290
     0
176
     1
 90
       50
176
     1
 62
   256
176
     0
 40
1.0
176
     0
 90
        2
176
     1
  1
strokes_ogs.tif
176
     1
290
     0
176
     1
 40
1.0
176
     1
 40
1.0
176
     1
  0
VISUALSTYLE
  5
E6
102
{ACAD_REACTORS
330
99
102
}
330
99
100
AcDbVisualStyle
  2
OverhangOff
 70
    21
177
     3
291
     1
 70
    58
 90
        2
176
     0
 90
        2
176
     0
 90
        0
176
     0
 90
        0
176
     0
 40
0.6
176
     0
 40
30.0
176
     0
 62
     7
420
 16777215
176
     0
 90
        1
176
     0
 90
        4
176
     0
 62
     7
176
     0
 62
   257
176
     0
 90
        1
176
     0
 90
        1
176
     0
 40
1.0
176
     0
 90
        9
176
     2
 62
     7
176
     0
 40
1.0
176
     0
 90
        1
176
     0
 90
        6
176
     0
 90
        2
176
     0
 62
     7
176
     0
 90
        5
176
     0
 90
        0
176
     0
 90
        0
176
     0
290
     0
176
     0
 90
        1
176
     0
 40
0.0
176
     0
 90
        0
176
     0
290
     0
176
     0
290
     1
176
     0
290
     1
176
     0
290
     0
176
     0
290
     0
176
     0
290
     0
176
     0
290
     0
176
     0
290
     0
176
     0
290
     0
176
     0
 90
       50
176
     0
 40
0.0
176
     0
 40
1.0
176
     0
 90
        0
176
     0
 62
    18
420
        0
176
     0
 90
       50
176
     0
 90
        3
176
     0
 62
     5
420
      255
176
     0
290
     0
176
     0
 90
       50
176
     0
 90
       50
176
     0
 90
       50
176
     0
290
     0
176
     0
 90
       50
176
     0
 62
   256
176
     0
 40
1.0
176
     0
 90
        2
176
     0
  1
strokes_ogs.tif
176
     0
290
     0
176
     0
 40
1.0
176
     0
 40
1.0
176
     0
  0
VISUALSTYLE
  5
A3
102
{ACAD_REACTORS
330
99
102
}
330
99
100
AcDbVisualStyle
  2
Realistic
 70
     8
177
     3
291
     0
 70
    58
 90
        2
176
     1
 90
        2
176
     1
 90
        1
176
     1
 90
        0
176
     1
 40
-0.6
176
     1
 40
-30.0
176
     1
 62
     7
420
 16777215
176
     1
 90
        1
176
     1
 90
        0
176
     1
 62
     7
176
     1
 62
   257
176
     1
 90
        1
176
     1
 90
        1
176
     1
 40
1.0
176
     1
 90
        8
176
     1
 62
     8
420
  7895160
176
     1
 40
1.0
176
     1
 90
        1
176
     1
 90
        6
176
     1
 90
        2
176
     1
 62
     7
176
     1
 90
        5
176
     1
 90
        0
176
     1
 90
        0
176
     1
290
     0
176
     1
 90
       13
176
     1
 40
0.0
176
     1
 90
        0
176
     1
290
     0
176
     1
290
     1
176
     1
290
     1
176
     1
290
     0
176
     1
290
     0
176
     1
290
     0
176
     1
290
     0
176
     1
290
     0
176
     1
290
     0
176
     1
 90
       50
176
     1
 40
0.0
176
     1
 40
1.0
176
     1
 90
        0
176
     1
 62
    18
420
        0
176
     1
 90
       50
176
     1
 90
        3
176
     1
 62
     5
420
      255
176
     1
290
     0
176
     1
 90
       50
176
     1
 90
       50
176
     1
 90
       50
176
     1
290
     0
176
     1
 90
       50
176
     1
 62
   256
176
     0
 40
1.0
176
     0
 90
        2
176
     1
  1
strokes_ogs.tif
176
     1
290
     0
176
     1
 40
1.0
176
     1
 40
1.0
176
     1
  0
VISUALSTYLE
  5
EC
102
{ACAD_REACTORS
330
99
102
}
330
99
100
AcDbVisualStyle
  2
Shaded
 70
    27
177
     3
291
     0
 70
    58
 90
        2
176
     1
 90
        2
176
     1
 90
        1
176
     1
 90
        2
176
     1
 40
0.6
176
     1
 40
30.0
176
     1
 62
     7
420
 16777215
176
     1
 90
        0
176
     1
 90
        4
176
     1
 62
     7
176
     1
 62
   257
176
     1
 90
        1
176
     1
 90
        1
176
     1
 40
1.0
176
     1
 90
        8
176
     1
 62
   257
176
     1
 40
1.0
176
     1
 90
        1
176
     1
 90
        6
176
     1
 90
        2
176
     1
 62
     8
420
  7895160
176
     1
 90
        3
176
     1
 90
        0
176
     1
 90
        0
176
     1
290
     0
176
     1
 90
        5
176
     1
 40
0.0
176
     1
 90
        0
176
     1
290
     0
176
     1
290
     1
176
     1
290
     1
176
     1
290
     0
176
     1
290
     0
176
     1
290
     0
176
     1
290
     0
176
     1
290
     0
176
     1
290
     0
176
     1
 90
       50
176
     1
 40
0.0
176
     1
 40
1.0
176
     1
 90
        0
176
     1
 62
    18
420
        0
176
     1
 90
       50
176
     1
 90
        3
176
     1
 62
     5
420
      255
176
     1
290
     0
176
     1
 90
       50
176
     1
 90
       50
176
     1
 90
       50
176
     1
290
     0
176
     1
 90
       50
176
     1
 62
   256
176
     0
 40
1.0
176
     0
 90
        2
176
     1
  1
strokes_ogs.tif
176
     1
290
     0
176
     1
 40
1.0
176
     1
 40
1.0
176
     1
  0
VISUALSTYLE
  5
EB
102
{ACAD_REACTORS
330
99
102
}
330
99
100
AcDbVisualStyle
  2
Shaded with edges
 70
    26
177
     3
291
     0
 70
    58
 90
        2
176
     1
 90
        2
176
     1
 90
        1
176
     1
 90
        2
176
     1
 40
0.6
176
     1
 40
30.0
176
     1
 62
     7
420
 16777215
176
     1
 90
        1
176
     1
 90
       10
176
     1
 62
     7
176
     1
 62
   257
176
     1
 90
        2
176
     1
 90
        1
176
     1
 40
1.0
176
     1
 90
        8
176
     1
 62
   257
176
     1
 40
1.0
176
     1
 90
        1
176
     1
 90
        6
176
     1
 90
        2
176
     1
 62
     7
176
     1
 90
        3
176
     1
 90
        0
176
     1
 90
        0
176
     1
290
     0
176
     1
 90
        5
176
     1
 40
0.0
176
     1
 90
        0
176
     1
290
     0
176
     1
290
     1
176
     1
290
     1
176
     1
290
     0
176
     1
290
     0
176
     1
290
     0
176
     1
290
     0
176
     1
290
     0
176
     1
290
     0
176
     1
 90
       50
176
     1
 40
0.0
176
     1
 40
1.0
176
     1
 90
        0
176
     1
 62
    18
420
        0
176
     1
 90
       50
176
     1
 90
        3
176
     1
 62
     5
420
      255
176
     1
290
     0
176
     1
 90
       50
176
     1
 90
       50
176
     1
 90
       50
176
     1
290
     0
176
     1
 90
       50
176
     1
 62
   256
176
     0
 40
1.0
176
     0
 90
        2
176
     1
  1
strokes_ogs.tif
176
     1
290
     0
176
     1
 40
1.0
176
     1
 40
1.0
176
     1
  0
VISUALSTYLE
  5
E8
102
{ACAD_REACTORS
330
99
102
}
330
99
100
AcDbVisualStyle
  2
Shades of Gray
 70
    23
177
     3
291
     0
 70
    58
 90
        2
176
     1
 90
        2
176
     1
 90
        3
176
     1
 90
        0
176
     1
 40
0.6
176
     1
 40
30.0
176
     1
 62
     7
420
 16777215
176
     1
 90
        2
176
     1
 90
        2
176
     1
 62
     7
176
     1
 62
     7
176
     1
 90
        1
176
     1
 90
        1
176
     1
 40
40.0
176
     1
 90
        8
176
     1
 62
     7
176
     1
 40
1.0
176
     1
 90
        1
176
     1
 90
        6
176
     1
 90
        2
176
     1
 62
     7
176
     1
 90
        3
176
     1
 90
        0
176
     1
 90
        0
176
     1
290
     0
176
     1
 90
        1
176
     1
 40
0.0
176
     1
 90
        0
176
     1
290
     0
176
     1
290
     1
176
     1
290
     1
176
     1
290
     0
176
     1
290
     0
176
     1
290
     0
176
     1
290
     0
176
     1
290
     0
176
     1
290
     0
176
     1
 90
       50
176
     1
 40
0.0
176
     1
 40
1.0
176
     1
 90
        0
176
     1
 62
    18
420
        0
176
     1
 90
       50
176
     1
 90
        3
176
     1
 62
     5
420
      255
176
     1
290
     0
176
     1
 90
       50
176
     1
 90
       50
176
     1
 90
       50
176
     1
290
     0
176
     1
 90
       50
176
     1
 62
   256
176
     0
 40
1.0
176
     0
 90
        2
176
     1
  1
strokes_ogs.tif
176
     1
290
     0
176
     1
 40
1.0
176
     1
 40
1.0
176
     1
  0
VISUALSTYLE
  5
E9
102
{ACAD_REACTORS
330
99
102
}
330
99
100
AcDbVisualStyle
  2
Sketchy
 70
    24
177
     3
291
     0
 70
    58
 90
        1
176
     1
 90
        2
176
     1
 90
        2
176
     1
 90
        0
176
     1
 40
0.6
176
     1
 40
30.0
176
     1
 62
     7
420
 16777215
176
     1
 90
        2
176
     1
 90
        2
176
     1
 62
     7
176
     1
 62
     7
176
     1
 90
        1
176
     1
 90
        1
176
     1
 40
40.0
176
     1
 90
       11
176
     1
 62
     7
176
     1
 40
1.0
176
     1
 90
        1
176
     1
 90
        6
176
     1
 90
        2
176
     1
 62
     7
176
     1
 90
        6
176
     1
 90
        0
176
     1
 90
        0
176
     1
290
     0
176
     1
 90
        1
176
     1
 40
0.0
176
     1
 90
        0
176
     1
290
     0
176
     1
290
     1
176
     1
290
     1
176
     1
290
     0
176
     1
290
     0
176
     1
290
     0
176
     1
290
     0
176
     1
290
     0
176
     1
290
     0
176
     1
 90
       50
176
     1
 40
0.0
176
     1
 40
1.0
176
     1
 90
        0
176
     1
 62
    18
420
        0
176
     1
 90
       50
176
     1
 90
        3
176
     1
 62
     5
420
      255
176
     1
290
     0
176
     1
 90
       50
176
     1
 90
       50
176
     1
 90
       50
176
     1
290
     0
176
     1
 90
       50
176
     1
 62
   256
176
     0
 40
1.0
176
     0
 90
        2
176
     1
  1
strokes_ogs.tif
176
     1
290
     0
176
     1
 40
1.0
176
     1
 40
1.0
176
     1
  0
VISUALSTYLE
  5
A6
102
{ACAD_REACTORS
330
99
102
}
330
99
100
AcDbVisualStyle
  2
Thicken
 70
    13
177
     3
291
     1
 70
    58
 90
        2
176
     1
 90
        2
176
     1
 90
        1
176
     1
 90
        0
176
     1
 40
-0.6
176
     1
 40
-30.0
176
     1
 62
     7
420
 16777215
176
     1
 90
        1
176
     1
 90
        4
176
     1
 62
     7
176
     1
 62
   257
176
     1
 90
        1
176
     1
 90
        1
176
     1
 40
1.0
176
     1
 90
       12
176
     1
 62
     7
176
     1
 40
1.0
176
     1
 90
        1
176
     1
 90
        6
176
     1
 90
        2
176
     1
 62
     7
176
     1
 90
        5
176
     1
 90
        0
176
     1
 90
        0
176
     1
290
     0
176
     1
 90
        1
176
     1
 40
0.0
176
     1
 90
        0
176
     1
290
     0
176
     1
290
     1
176
     1
290
     1
176
     1
290
     0
176
     1
290
     0
176
     1
290
     0
176
     1
290
     0
176
     1
290
     0
176
     1
290
     0
176
     1
 90
       50
176
     1
 40
0.0
176
     1
 40
1.0
176
     1
 90
        0
176
     1
 62
    18
420
        0
176
     1
 90
       50
176
     1
 90
        3
176
     1
 62
     5
420
      255
176
     1
290
     0
176
     1
 90
       50
176
     1
 90
       50
176
     1
 90
       50
176
     1
290
     0
176
     1
 90
       50
176
     1
 62
   256
176
     0
 40
1.0
176
     0
 90
        2
176
     1
  1
strokes_ogs.tif
176
     1
290
     0
176
     1
 40
1.0
176
     1
 40
1.0
176
     1
  0
VISUALSTYLE
  5
E3
102
{ACAD_REACTORS
330
99
102
}
330
99
100
AcDbVisualStyle
  2
Wireframe
 70
     5
177
     3
291
     0
 70
    58
 90
        0
176
     1
 90
        2
176
     1
 90
        0
176
     1
 90
        0
176
     1
 40
0.6
176
     1
 40
30.0
176
     1
 62
     7
420
 16777215
176
     1
 90
        1
176
     1
 90
        4
176
     1
 62
     7
176
     1
 62
   257
176
     1
 90
        1
176
     1
 90
        1
176
     1
 40
1.0
176
     1
 90
        0
176
     1
 62
   257
176
     1
 40
1.0
176
     1
 90
        1
176
     1
 90
        6
176
     1
 90
        2
176
     1
 62
     7
176
     1
 90
        3
176
     1
 90
        0
176
     1
 90
        0
176
     1
290
     0
176
     1
 90
        1
176
     1
 40
0.0
176
     1
 90
        0
176
     1
290
     0
176
     1
290
     1
176
     1
290
     1
176
     1
290
     0
176
     1
290
     0
176
     1
290
     0
176
     1
290
     0
176
     1
290
     0
176
     1
290
     0
176
     1
 90
       50
176
     1
 40
0.0
176
     1
 40
1.0
176
     1
 90
        0
176
     1
 62
    18
420
        0
176
     1
 90
       50
176
     1
 90
        3
176
     1
 62
     5
420
      255
176
     1
290
     0
176
     1
 90
       50
176
     1
 90
       50
176
     1
 90
       50
176
     1
290
     0
176
     1
 90
       50
176
     1
 62
   256
176
     0
 40
1.0
176
     0
 90
        2
176
     1
  1
strokes_ogs.tif
176
     1
290
     0
176
     1
 40
1.0
176
     1
 40
1.0
176
     1
  0
VISUALSTYLE
  5
EA
102
{ACAD_REACTORS
330
99
102
}
330
99
100
AcDbVisualStyle
  2
X-Ray
 70
    25
177
     3
291
     0
 70
    58
 90
        2
176
     1
 90
        2
176
     1
 90
        1
176
     1
 90
        1
176
     1
 40
0.5
176
     1
 40
30.0
176
     1
 62
     7
420
 16777215
176
     1
 90
        1
176
     1
 90
        0
176
     1
 62
     7
176
     1
 62
   257
176
     1
 90
        1
176
     1
 90
        1
176
     1
 40
1.0
176
     1
 90
        8
176
     1
 62
     7
176
     1
 40
1.0
176
     1
 90
        1
176
     1
 90
        6
176
     1
 90
        2
176
     1
 62
     7
176
     1
 90
        3
176
     1
 90
        0
176
     1
 90
        0
176
     1
290
     0
176
     1
 90
       13
176
     1
 40
0.0
176
     1
 90
        0
176
     1
290
     0
176
     1
290
     1
176
     1
290
     1
176
     1
290
     0
176
     1
290
     0
176
     1
290
     0
176
     1
290
     0
176
     1
290
     0
176
     1
290
     0
176
     1
 90
       50
176
     1
 40
0.0
176
     1
 40
1.0
176
     1
 90
        0
176
     1
 62
    18
420
        0
176
     1
 90
       50
176
     1
 90
        3
176
     1
 62
     5
420
      255
176
     1
290
     0
176
     1
 90
       50
176
     1
 90
       50
176
     1
 90
       50
176
     1
290
     0
176
     1
 90
       50
176
     1
 62
   256
176
     0
 40
1.0
176
     0
 90
        2
176
     1
  1
strokes_ogs.tif
176
     1
290
     0
176
     1
 40
1.0
176
     1
 40
1.0
176
     1
  0
DICTIONARYVAR
  5
D8
102
{ACAD_REACTORS
330
66
102
}
330
66
100
DictionaryVariables
280
     0
  1
1:1
  0
DICTIONARYVAR
  5
89
102
{ACAD_REACTORS
330
66
102
}
330
66
100
DictionaryVariables
280
     0
  1
Standard
  0
DICTIONARYVAR
  5
67
102
{ACAD_REACTORS
330
66
102
}
330
66
100
DictionaryVariables
280
     0
  1
2
  0
DICTIONARYVAR
  5
6B
102
{ACAD_REACTORS
330
66
102
}
330
66
100
DictionaryVariables
280
     0
  1
1
  0
DICTIONARYVAR
  5
DF
102
{ACAD_REACTORS
330
66
102
}
330
66
100
DictionaryVariables
280
     0
  1
0
  0
DICTIONARYVAR
  5
E0
102
{ACAD_REACTORS
330
66
102
}
330
66
100
DictionaryVariables
280
     0
  1
0
  0
DICTIONARY
  5
3E9
330
87
100
AcDbDictionary
280
     1
281
     1
  3
ACAD_ROUNDTRIP_2008_TABLESTYLE_CELLSTYLEMAP
360
3EA
  0
CELLSTYLEMAP
  5
3EA
102
{ACAD_REACTORS
330
3E9
102
}
330
3E9
100
AcDbCellStyleMap
 90
        3
300
CELLSTYLE
  1
TABLEFORMAT_BEGIN
 90
        5
170
     1
 91
        0
 92
    32768
 62
   257
 93
        1
300
CONTENTFORMAT
  1
CONTENTFORMAT_BEGIN
 90
        0
 91
        0
 92
      512
 93
        0
300

 40
0.0
140
1.0
 94
        5
 62
     0
340
11
144
0.25
309
CONTENTFORMAT_END
171
     0
 94
        6
 95
        1
302
GRIDFORMAT
  1
GRIDFORMAT_BEGIN
 90
        0
 91
        1
 62
     0
 92
       -2
340
0
 93
        0
 40
0.045
309
GRIDFORMAT_END
 95
        2
302
GRIDFORMAT
  1
GRIDFORMAT_BEGIN
 90
        0
 91
        1
 62
     0
 92
       -2
340
0
 93
        0
 40
0.045
309
GRIDFORMAT_END
 95
        4
302
GRIDFORMAT
  1
GRIDFORMAT_BEGIN
 90
        0
 91
        1
 62
     0
 92
       -2
340
0
 93
        0
 40
0.045
309
GRIDFORMAT_END
 95
        8
302
GRIDFORMAT
  1
GRIDFORMAT_BEGIN
 90
        0
 91
        1
 62
     0
 92
       -2
340
0
 93
        0
 40
0.045
309
GRIDFORMAT_END
 95
       16
302
GRIDFORMAT
  1
GRIDFORMAT_BEGIN
 90
        0
 91
        1
 62
     0
 92
       -2
340
0
 93
        0
 40
0.045
309
GRIDFORMAT_END
 95
       32
302
GRIDFORMAT
  1
GRIDFORMAT_BEGIN
 90
        0
 91
        1
 62
     0
 92
       -2
340
0
 93
        0
 40
0.045
309
GRIDFORMAT_END
309
TABLEFORMAT_END
  1
CELLSTYLE_BEGIN
 90
        1
 91
        1
300
_TITLE
309
CELLSTYLE_END
300
CELLSTYLE
  1
TABLEFORMAT_BEGIN
 90
        5
170
     1
 91
        0
 92
        0
 62
   257
 93
        1
300
CONTENTFORMAT
  1
CONTENTFORMAT_BEGIN
 90
        0
 91
        0
 92
      512
 93
        0
300

 40
0.0
140
1.0
 94
        5
 62
     0
340
11
144
0.18
309
CONTENTFORMAT_END
171
     0
 94
        6
 95
        1
302
GRIDFORMAT
  1
GRIDFORMAT_BEGIN
 90
        0
 91
        1
 62
     0
 92
       -2
340
0
 93
        0
 40
0.045
309
GRIDFORMAT_END
 95
        2
302
GRIDFORMAT
  1
GRIDFORMAT_BEGIN
 90
        0
 91
        1
 62
     0
 92
       -2
340
0
 93
        0
 40
0.045
309
GRIDFORMAT_END
 95
        4
302
GRIDFORMAT
  1
GRIDFORMAT_BEGIN
 90
        0
 91
        1
 62
     0
 92
       -2
340
0
 93
        0
 40
0.045
309
GRIDFORMAT_END
 95
        8
302
GRIDFORMAT
  1
GRIDFORMAT_BEGIN
 90
        0
 91
        1
 62
     0
 92
       -2
340
0
 93
        0
 40
0.045
309
GRIDFORMAT_END
 95
       16
302
GRIDFORMAT
  1
GRIDFORMAT_BEGIN
 90
        0
 91
        1
 62
     0
 92
       -2
340
0
 93
        0
 40
0.045
309
GRIDFORMAT_END
 95
       32
302
GRIDFORMAT
  1
GRIDFORMAT_BEGIN
 90
        0
 91
        1
 62
     0
 92
       -2
340
0
 93
        0
 40
0.045
309
GRIDFORMAT_END
309
TABLEFORMAT_END
  1
CELLSTYLE_BEGIN
 90
        2
 91
        1
300
_HEADER
309
CELLSTYLE_END
300
CELLSTYLE
  1
TABLEFORMAT_BEGIN
 90
        5
170
     1
 91
        0
 92
        0
 62
   257
 93
        1
300
CONTENTFORMAT
  1
CONTENTFORMAT_BEGIN
 90
        0
 91
        0
 92
      512
 93
        0
300

 40
0.0
140
1.0
 94
        2
 62
     0
340
11
144
0.18
309
CONTENTFORMAT_END
171
     0
 94
        6
 95
        1
302
GRIDFORMAT
  1
GRIDFORMAT_BEGIN
 90
        0
 91
        1
 62
     0
 92
       -2
340
0
 93
        0
 40
0.045
309
GRIDFORMAT_END
 95
        2
302
GRIDFORMAT
  1
GRIDFORMAT_BEGIN
 90
        0
 91
        1
 62
     0
 92
       -2
340
0
 93
        0
 40
0.045
309
GRIDFORMAT_END
 95
        4
302
GRIDFORMAT
  1
GRIDFORMAT_BEGIN
 90
        0
 91
        1
 62
     0
 92
       -2
340
0
 93
        0
 40
0.045
309
GRIDFORMAT_END
 95
        8
302
GRIDFORMAT
  1
GRIDFORMAT_BEGIN
 90
        0
 91
        1
 62
     0
 92
       -2
340
0
 93
        0
 40
0.045
309
GRIDFORMAT_END
 95
       16
302
GRIDFORMAT
  1
GRIDFORMAT_BEGIN
 90
        0
 91
        1
 62
     0
 92
       -2
340
0
 93
        0
 40
0.045
309
GRIDFORMAT_END
 95
       32
302
GRIDFORMAT
  1
GRIDFORMAT_BEGIN
 90
        0
 91
        1
 62
     0
 92
       -2
340
0
 93
        0
 40
0.045
309
GRIDFORMAT_END
309
TABLEFORMAT_END
  1
CELLSTYLE_BEGIN
 90
        3
 91
        2
300
_DATA
309
CELLSTYLE_END
  0
ENDSEC
  0
EOF
