  0
SECTION
  2
HEADER
  9
$ACADVER
  1
AC1027
  9
$ACADMAINTVER
 70
     8
  9
$DWGCODEPAGE
  3
ANSI_932
  9
$REQUIREDVERSIONS
160
                 0
  9
$LASTSAVEDBY
  1
Yasu
  9
$INSBASE
 10
0.0
 20
0.0
 30
0.0
  9
$EXTMIN
 10
55.16727000857502
 20
2.55408462688463
 30
0.0
  9
$EXTMAX
 10
351.2059017669563
 20
170.6798325575555
 30
0.0
  9
$LIMMIN
 10
0.0
 20
0.0
  9
$LIMMAX
 10
12.0
 20
9.0
  9
$ORTHOMODE
 70
     0
  9
$REGENMODE
 70
     1
  9
$FILLMODE
 70
     1
  9
$QTEXTMODE
 70
     0
  9
$MIRRTEXT
 70
     0
  9
$LTSCALE
 40
1.0
  9
$ATTMODE
 70
     1
  9
$TEXTSIZE
 40
0.2
  9
$TRACEWID
 40
0.05
  9
$TEXTSTYLE
  7
Standard
  9
$CLAYER
  8
0
  9
$CELTYPE
  6
ByLayer
  9
$CECOLOR
 62
   256
  9
$CELTSCALE
 40
1.0
  9
$DISPSILH
 70
     0
  9
$DIMSCALE
 40
1.0
  9
$DIMASZ
 40
0.18
  9
$DIMEXO
 40
0.0625
  9
$DIMDLI
 40
0.38
  9
$DIMRND
 40
0.0
  9
$DIMDLE
 40
0.0
  9
$DIMEXE
 40
0.18
  9
$DIMTP
 40
0.0
  9
$DIMTM
 40
0.0
  9
$DIMTXT
 40
0.18
  9
$DIMCEN
 40
0.09
  9
$DIMTSZ
 40
0.0
  9
$DIMTOL
 70
     0
  9
$DIMLIM
 70
     0
  9
$DIMTIH
 70
     1
  9
$DIMTOH
 70
     1
  9
$DIMSE1
 70
     0
  9
$DIMSE2
 70
     0
  9
$DIMTAD
 70
     0
  9
$DIMZIN
 70
     0
  9
$DIMBLK
  1

  9
$DIMASO
 70
     1
  9
$DIMSHO
 70
     1
  9
$DIMPOST
  1

  9
$DIMAPOST
  1

  9
$DIMALT
 70
     0
  9
$DIMALTD
 70
     2
  9
$DIMALTF
 40
25.4
  9
$DIMLFAC
 40
1.0
  9
$DIMTOFL
 70
     0
  9
$DIMTVP
 40
0.0
  9
$DIMTIX
 70
     0
  9
$DIMSOXD
 70
     0
  9
$DIMSAH
 70
     0
  9
$DIMBLK1
  1

  9
$DIMBLK2
  1

  9
$DIMSTYLE
  2
Standard
  9
$DIMCLRD
 70
     0
  9
$DIMCLRE
 70
     0
  9
$DIMCLRT
 70
     0
  9
$DIMTFAC
 40
1.0
  9
$DIMGAP
 40
0.09
  9
$DIMJUST
 70
     0
  9
$DIMSD1
 70
     0
  9
$DIMSD2
 70
     0
  9
$DIMTOLJ
 70
     1
  9
$DIMTZIN
 70
     0
  9
$DIMALTZ
 70
     0
  9
$DIMALTTZ
 70
     0
  9
$DIMUPT
 70
     0
  9
$DIMDEC
 70
     4
  9
$DIMTDEC
 70
     4
  9
$DIMALTU
 70
     2
  9
$DIMALTTD
 70
     2
  9
$DIMTXSTY
  7
Standard
  9
$DIMAUNIT
 70
     0
  9
$DIMADEC
 70
     0
  9
$DIMALTRND
 40
0.0
  9
$DIMAZIN
 70
     0
  9
$DIMDSEP
 70
    46
  9
$DIMATFIT
 70
     3
  9
$DIMFRAC
 70
     0
  9
$DIMLDRBLK
  1

  9
$DIMLUNIT
 70
     2
  9
$DIMLWD
 70
    -2
  9
$DIMLWE
 70
    -2
  9
$DIMTMOVE
 70
     0
  9
$DIMFXL
 40
1.0
  9
$DIMFXLON
 70
     0
  9
$DIMJOGANG
 40
0.7853981633974483
  9
$DIMTFILL
 70
     0
  9
$DIMTFILLCLR
 70
     0
  9
$DIMARCSYM
 70
     0
  9
$DIMLTYPE
  6

  9
$DIMLTEX1
  6

  9
$DIMLTEX2
  6

  9
$DIMTXTDIRECTION
 70
     0
  9
$LUNITS
 70
     2
  9
$LUPREC
 70
     4
  9
$SKETCHINC
 40
0.1
  9
$FILLETRAD
 40
0.0
  9
$AUNITS
 70
     0
  9
$AUPREC
 70
     0
  9
$MENU
  1
.
  9
$ELEVATION
 40
0.0
  9
$PELEVATION
 40
0.0
  9
$THICKNESS
 40
0.0
  9
$LIMCHECK
 70
     0
  9
$CHAMFERA
 40
0.0
  9
$CHAMFERB
 40
0.0
  9
$CHAMFERC
 40
0.0
  9
$CHAMFERD
 40
0.0
  9
$SKPOLY
 70
     0
  9
$TDCREATE
 40
2452643.438384271
  9
$TDUCREATE
 40
2452643.063384271
  9
$TDUPDATE
 40
2456738.767895891
  9
$TDUUPDATE
 40
2456738.392895891
  9
$TDINDWG
 40
0.010859375
  9
$TDUSRTIMER
 40
2456738.390011956
  9
$USRTIMER
 70
     1
  9
$ANGBASE
 50
0.0
  9
$ANGDIR
 70
     0
  9
$PDMODE
 70
     0
  9
$PDSIZE
 40
0.0
  9
$PLINEWID
 40
0.0
  9
$SPLFRAME
 70
     0
  9
$SPLINETYPE
 70
     6
  9
$SPLINESEGS
 70
     8
  9
$HANDSEED
  5
A6E
  9
$SURFTAB1
 70
     6
  9
$SURFTAB2
 70
     6
  9
$SURFTYPE
 70
     6
  9
$SURFU
 70
     6
  9
$SURFV
 70
     6
  9
$UCSBASE
  2

  9
$UCSNAME
  2

  9
$UCSORG
 10
0.0
 20
0.0
 30
0.0
  9
$UCSXDIR
 10
1.0
 20
0.0
 30
0.0
  9
$UCSYDIR
 10
0.0
 20
1.0
 30
0.0
  9
$UCSORTHOREF
  2

  9
$UCSORTHOVIEW
 70
     0
  9
$UCSORGTOP
 10
0.0
 20
0.0
 30
0.0
  9
$UCSORGBOTTOM
 10
0.0
 20
0.0
 30
0.0
  9
$UCSORGLEFT
 10
0.0
 20
0.0
 30
0.0
  9
$UCSORGRIGHT
 10
0.0
 20
0.0
 30
0.0
  9
$UCSORGFRONT
 10
0.0
 20
0.0
 30
0.0
  9
$UCSORGBACK
 10
0.0
 20
0.0
 30
0.0
  9
$PUCSBASE
  2

  9
$PUCSNAME
  2

  9
$PUCSORG
 10
0.0
 20
0.0
 30
0.0
  9
$PUCSXDIR
 10
1.0
 20
0.0
 30
0.0
  9
$PUCSYDIR
 10
0.0
 20
1.0
 30
0.0
  9
$PUCSORTHOREF
  2

  9
$PUCSORTHOVIEW
 70
     0
  9
$PUCSORGTOP
 10
0.0
 20
0.0
 30
0.0
  9
$PUCSORGBOTTOM
 10
0.0
 20
0.0
 30
0.0
  9
$PUCSORGLEFT
 10
0.0
 20
0.0
 30
0.0
  9
$PUCSORGRIGHT
 10
0.0
 20
0.0
 30
0.0
  9
$PUCSORGFRONT
 10
0.0
 20
0.0
 30
0.0
  9
$PUCSORGBACK
 10
0.0
 20
0.0
 30
0.0
  9
$USERI1
 70
     0
  9
$USERI2
 70
     0
  9
$USERI3
 70
     0
  9
$USERI4
 70
     0
  9
$USERI5
 70
     0
  9
$USERR1
 40
0.0
  9
$USERR2
 40
0.0
  9
$USERR3
 40
0.0
  9
$USERR4
 40
0.0
  9
$USERR5
 40
0.0
  9
$WORLDVIEW
 70
     1
  9
$SHADEDGE
 70
     3
  9
$SHADEDIF
 70
    70
  9
$TILEMODE
 70
     1
  9
$MAXACTVP
 70
    64
  9
$PINSBASE
 10
0.0
 20
0.0
 30
0.0
  9
$PLIMCHECK
 70
     0
  9
$PEXTMIN
 10
0.0
 20
0.0
 30
0.0
  9
$PEXTMAX
 10
0.0
 20
0.0
 30
0.0
  9
$PLIMMIN
 10
0.0
 20
0.0
  9
$PLIMMAX
 10
0.0
 20
0.0
  9
$UNITMODE
 70
     0
  9
$VISRETAIN
 70
     1
  9
$PLINEGEN
 70
     0
  9
$PSLTSCALE
 70
     1
  9
$TREEDEPTH
 70
  3020
  9
$CMLSTYLE
  2
Standard
  9
$CMLJUST
 70
     0
  9
$CMLSCALE
 40
1.0
  9
$PROXYGRAPHICS
 70
     1
  9
$MEASUREMENT
 70
     0
  9
$CELWEIGHT
370
    -1
  9
$ENDCAPS
280
     0
  9
$JOINSTYLE
280
     0
  9
$LWDISPLAY
290
     0
  9
$INSUNITS
 70
     1
  9
$HYPERLINKBASE
  1

  9
$STYLESHEET
  1

  9
$XEDIT
290
     1
  9
$CEPSNTYPE
380
     0
  9
$PSTYLEMODE
290
     1
  9
$FINGERPRINTGUID
  2
{FDEAD576-A652-11D2-9A35-0060089B3A3F}
  9
$VERSIONGUID
  2
{FBC2AE19-5C5C-49EC-81BC-71B1A3362A02}
  9
$EXTNAMES
290
     1
  9
$PSVPSCALE
 40
0.0
  9
$OLESTARTUP
290
     0
  9
$SORTENTS
280
   127
  9
$INDEXCTL
280
     0
  9
$HIDETEXT
280
     1
  9
$XCLIPFRAME
280
     0
  9
$HALOGAP
280
     0
  9
$OBSCOLOR
 70
   257
  9
$OBSLTYPE
280
     0
  9
$INTERSECTIONDISPLAY
280
     0
  9
$INTERSECTIONCOLOR
 70
   257
  9
$DIMASSOC
280
     2
  9
$PROJECTNAME
  1

  9
$CAMERADISPLAY
290
     0
  9
$LENSLENGTH
 40
50.0
  9
$CAMERAHEIGHT
 40
0.0
  9
$STEPSPERSEC
 40
2.0
  9
$STEPSIZE
 40
6.0
  9
$3DDWFPREC
 40
2.0
  9
$PSOLWIDTH
 40
0.25
  9
$PSOLHEIGHT
 40
4.0
  9
$LOFTANG1
 40
1.570796326794897
  9
$LOFTANG2
 40
1.570796326794897
  9
$LOFTMAG1
 40
0.0
  9
$LOFTMAG2
 40
0.0
  9
$LOFTPARAM
 70
     7
  9
$LOFTNORMALS
280
     1
  9
$LATITUDE
 40
37.795
  9
$LONGITUDE
 40
-122.394
  9
$NORTHDIRECTION
 40
0.0
  9
$TIMEZONE
 70
 -8000
  9
$LIGHTGLYPHDISPLAY
280
     1
  9
$TILEMODELIGHTSYNCH
280
     1
  9
$CMATERIAL
347
96
  9
$SOLIDHIST
280
     1
  9
$SHOWHIST
280
     1
  9
$DWFFRAME
280
     2
  9
$DGNFRAME
280
     0
  9
$REALWORLDSCALE
290
     1
  9
$INTERFERECOLOR
 62
     1
  9
$CSHADOW
280
     0
  9
$SHADOWPLANELOCATION
 40
0.0
  0
ENDSEC
  0
SECTION
  2
CLASSES
  0
CLASS
  1
ACDBDICTIONARYWDFLT
  2
AcDbDictionaryWithDefault
  3
ObjectDBX Classes
 90
        0
 91
        5
280
     0
281
     0
  0
CLASS
  1
ACDBPLACEHOLDER
  2
AcDbPlaceHolder
  3
ObjectDBX Classes
 90
        0
 91
        1
280
     0
281
     0
  0
CLASS
  1
LAYOUT
  2
AcDbLayout
  3
ObjectDBX Classes
 90
        0
 91
        1
280
     0
281
     0
  0
CLASS
  1
DICTIONARYVAR
  2
AcDbDictionaryVar
  3
ObjectDBX Classes
 90
        0
 91
        4
280
     0
281
     0
  0
CLASS
  1
TABLESTYLE
  2
AcDbTableStyle
  3
ObjectDBX Classes
 90
     4095
 91
        5
280
     0
281
     0
  0
CLASS
  1
MATERIAL
  2
AcDbMaterial
  3
ObjectDBX Classes
 90
     1153
 91
        5
280
     0
281
     0
  0
CLASS
  1
VISUALSTYLE
  2
AcDbVisualStyle
  3
ObjectDBX Classes
 90
     4095
 91
        5
280
     0
281
     0
  0
CLASS
  1
SCALE
  2
AcDbScale
  3
ObjectDBX Classes
 90
     1153
 91
        5
280
     0
281
     0
  0
CLASS
  1
CELLSTYLEMAP
  2
AcDbCellStyleMap
  3
ObjectDBX Classes
 90
     1152
 91
        4
280
     0
281
     0
  0
CLASS
  1
RASTERVARIABLES
  2
AcDbRasterVariables
  3
ISM
 90
        0
 91
        5
280
     0
281
     0
  0
CLASS
  1
SUN
  2
AcDbSun
  3
SCENEOE
 90
     1153
 91
        5
280
     0
281
     0
  0
CLASS
  1
DIMASSOC
  2
AcDbDimAssoc
  3
"AcDbDimAssoc|Product Desc:     AcDim ARX App For Dimension|Company:          Autodesk, Inc.|WEB Address:      www.autodesk.com"
 90
        0
 91
        4
280
     0
281
     0
  0
ENDSEC
  0
SECTION
  2
TABLES
  0
TABLE
  2
VPORT
  5
8
330
0
100
AcDbSymbolTable
 70
     1
  0
VPORT
  5
94
330
8
100
AcDbSymbolTableRecord
100
AcDbViewportTableRecord
  2
*Active
 70
     0
 10
0.0
 20
0.0
 11
1.0
 21
1.0
 12
230.8561794537455
 22
106.1556615500821
 13
0.0
 23
0.0
 14
0.5
 24
0.5
 15
0.5
 25
0.5
 16
0.0
 26
0.0
 36
1.0
 17
-27.66959356597985
 27
-19.53870295786204
 37
0.0
 40
171.4882628892843
 41
1.762376237623762
 42
50.0
 43
0.0
 44
0.0
 50
0.0
 51
0.0
 71
    16
 72
  1000
 73
     1
 74
     3
 75
     0
 76
     0
 77
     0
 78
     0
281
     0
 65
     1
110
0.0
120
0.0
130
0.0
111
1.0
121
0.0
131
0.0
112
0.0
122
1.0
132
0.0
 79
     0
146
0.0
348
9F
 60
     2
 61
     5
292
     1
282
     1
141
0.0
142
0.0
 63
   250
421
  3355443
361
ED
  0
ENDTAB
  0
TABLE
  2
LTYPE
  5
5
330
0
100
AcDbSymbolTable
 70
     3
  0
LTYPE
  5
14
330
5
100
AcDbSymbolTableRecord
100
AcDbLinetypeTableRecord
  2
ByBlock
 70
     0
  3

 72
    65
 73
     0
 40
0.0
  0
LTYPE
  5
15
330
5
100
AcDbSymbolTableRecord
100
AcDbLinetypeTableRecord
  2
ByLayer
 70
     0
  3

 72
    65
 73
     0
 40
0.0
  0
LTYPE
  5
16
330
5
100
AcDbSymbolTableRecord
100
AcDbLinetypeTableRecord
  2
Continuous
 70
     0
  3
Solid line
 72
    65
 73
     0
 40
0.0
  0
LTYPE
  5
128
330
5
100
AcDbSymbolTableRecord
100
AcDbLinetypeTableRecord
  2
CENTER
 70
     0
  3
Center ____ _ ____ _ ____ _ ____ _ ____ _ ____
 72
    65
 73
     4
 40
50.8
 49
31.75
 74
     0
 49
-6.35
 74
     0
 49
6.35
 74
     0
 49
-6.35
 74
     0
  0
LTYPE
  5
12B
330
5
100
AcDbSymbolTableRecord
100
AcDbLinetypeTableRecord
  2
DASHED
 70
     0
  3
Dashed __ __ __ __ __ __ __ __ __ __ __ __ __ _
 72
    65
 73
     2
 40
19.05
 49
12.7
 74
     0
 49
-6.35
 74
     0
  0
ENDTAB
  0
TABLE
  2
LAYER
  5
2
330
0
100
AcDbSymbolTable
 70
     7
  0
LAYER
  5
10
330
2
100
AcDbSymbolTableRecord
100
AcDbLayerTableRecord
  2
0
 70
     0
 62
     7
  6
Continuous
370
    -3
390
F
347
98
348
0
  0
LAYER
  5
125
330
2
100
AcDbSymbolTableRecord
100
AcDbLayerTableRecord
  2
Defpoints
 70
     0
 62
     7
  6
Continuous
290
     0
370
    -3
390
F
347
98
348
0
  0
LAYER
  5
126
330
2
100
AcDbSymbolTableRecord
100
AcDbLayerTableRecord
  2
中心線
 70
     0
 62
     7
  6
CENTER
370
    15
390
F
347
98
348
0
  0
LAYER
  5
129
330
2
100
AcDbSymbolTableRecord
100
AcDbLayerTableRecord
  2
実線
 70
     0
 62
     7
  6
Continuous
370
    25
390
F
347
98
348
0
  0
LAYER
  5
12A
330
2
100
AcDbSymbolTableRecord
100
AcDbLayerTableRecord
  2
破線
 70
     0
 62
     7
  6
DASHED
370
    15
390
F
347
98
348
0
  0
LAYER
  5
12C
330
2
100
AcDbSymbolTableRecord
100
AcDbLayerTableRecord
  2
細線
 70
     0
 62
     7
  6
Continuous
370
     9
390
F
347
98
348
0
  0
LAYER
  5
12D
330
2
100
AcDbSymbolTableRecord
100
AcDbLayerTableRecord
  2
文字・寸法線
 70
     0
 62
     7
  6
Continuous
370
    13
390
F
347
98
348
0
  0
ENDTAB
  0
TABLE
  2
STYLE
  5
3
330
0
100
AcDbSymbolTable
 70
     1
  0
STYLE
  5
11
330
3
100
AcDbSymbolTableRecord
100
AcDbTextStyleTableRecord
  2
Standard
 70
     0
 40
0.0
 41
1.0
 50
0.0
 71
     0
 42
0.2
  3
arial.ttf
  4

1001
ACAD
1000
Arial
1071
        0
  0
ENDTAB
  0
TABLE
  2
VIEW
  5
6
330
0
100
AcDbSymbolTable
 70
     0
  0
ENDTAB
  0
TABLE
  2
UCS
  5
7
330
0
100
AcDbSymbolTable
 70
     0
  0
ENDTAB
  0
TABLE
  2
APPID
  5
9
330
0
100
AcDbSymbolTable
 70
     1
  0
APPID
  5
12
330
9
100
AcDbSymbolTableRecord
100
AcDbRegAppTableRecord
  2
ACAD
 70
     0
  0
ENDTAB
  0
TABLE
  2
DIMSTYLE
  5
A
330
0
100
AcDbSymbolTable
 70
     2
100
AcDbDimStyleTable
  0
DIMSTYLE
105
27
330
A
100
AcDbSymbolTableRecord
100
AcDbDimStyleTableRecord
  2
Standard
 70
     0
178
     0
340
11
  0
DIMSTYLE
105
12E
102
{ACAD_REACTORS
330
2A3
330
2B7
330
2BF
330
2C6
330
2C9
330
352
330
362
330
9A5
102
}
330
A
100
AcDbSymbolTableRecord
100
AcDbDimStyleTableRecord
  2
ISO-25
 70
     0
 41
2.5
 42
0.625
 43
3.75
 44
0.5
 73
     0
 74
     0
 77
     1
 78
     8
140
3.0
141
2.5
143
0.03937007874016
147
0.625
171
     3
172
     1
178
     0
271
     2
272
     2
274
     3
283
     0
284
     8
340
11
  0
ENDTAB
  0
TABLE
  2
BLOCK_RECORD
  5
1
330
0
100
AcDbSymbolTable
 70
    65
  0
BLOCK_RECORD
  5
1F
330
1
100
AcDbSymbolTableRecord
100
AcDbBlockTableRecord
  2
*Model_Space
340
22
 70
     0
280
     1
281
     0
  0
BLOCK_RECORD
  5
58
330
1
100
AcDbSymbolTableRecord
100
AcDbBlockTableRecord
  2
*Paper_Space
340
59
 70
     0
280
     1
281
     0
  0
BLOCK_RECORD
  5
5D
330
1
100
AcDbSymbolTableRecord
100
AcDbBlockTableRecord
  2
*Paper_Space0
340
5E
 70
     0
280
     1
281
     0
  0
BLOCK_RECORD
  5
150
330
1
100
AcDbSymbolTableRecord
100
AcDbBlockTableRecord
  2
*D1
340
0
 70
     0
280
     1
281
     0
  0
BLOCK_RECORD
  5
164
330
1
100
AcDbSymbolTableRecord
100
AcDbBlockTableRecord
  2
*D2
340
0
 70
     0
280
     1
281
     0
  0
BLOCK_RECORD
  5
186
330
1
100
AcDbSymbolTableRecord
100
AcDbBlockTableRecord
  2
*D3
340
0
 70
     0
280
     1
281
     0
  0
BLOCK_RECORD
  5
198
330
1
100
AcDbSymbolTableRecord
100
AcDbBlockTableRecord
  2
*D4
340
0
 70
     0
280
     1
281
     0
  0
BLOCK_RECORD
  5
1A7
330
1
100
AcDbSymbolTableRecord
100
AcDbBlockTableRecord
  2
*D5
340
0
 70
     0
280
     1
281
     0
  0
BLOCK_RECORD
  5
1B8
330
1
100
AcDbSymbolTableRecord
100
AcDbBlockTableRecord
  2
*D6
340
0
 70
     0
280
     1
281
     0
  0
BLOCK_RECORD
  5
1C9
330
1
100
AcDbSymbolTableRecord
100
AcDbBlockTableRecord
  2
*D7
340
0
 70
     0
280
     1
281
     0
  0
BLOCK_RECORD
  5
1D8
330
1
100
AcDbSymbolTableRecord
100
AcDbBlockTableRecord
  2
*D8
340
0
 70
     0
280
     1
281
     0
  0
BLOCK_RECORD
  5
26A
330
1
100
AcDbSymbolTableRecord
100
AcDbBlockTableRecord
  2
*D9
340
0
 70
     0
280
     1
281
     0
  0
BLOCK_RECORD
  5
279
330
1
100
AcDbSymbolTableRecord
100
AcDbBlockTableRecord
  2
*D10
340
0
 70
     0
280
     1
281
     0
  0
BLOCK_RECORD
  5
365
330
1
100
AcDbSymbolTableRecord
100
AcDbBlockTableRecord
  2
*D11
340
0
 70
     0
280
     1
281
     0
  0
BLOCK_RECORD
  5
371
330
1
100
AcDbSymbolTableRecord
100
AcDbBlockTableRecord
  2
*D12
340
0
 70
     0
280
     1
281
     0
  0
BLOCK_RECORD
  5
37D
330
1
100
AcDbSymbolTableRecord
100
AcDbBlockTableRecord
  2
*D13
340
0
 70
     0
280
     1
281
     0
  0
BLOCK_RECORD
  5
389
330
1
100
AcDbSymbolTableRecord
100
AcDbBlockTableRecord
  2
*D14
340
0
 70
     0
280
     1
281
     0
  0
BLOCK_RECORD
  5
395
330
1
100
AcDbSymbolTableRecord
100
AcDbBlockTableRecord
  2
*D15
340
0
 70
     0
280
     1
281
     0
  0
BLOCK_RECORD
  5
3A4
330
1
100
AcDbSymbolTableRecord
100
AcDbBlockTableRecord
  2
*D16
340
0
 70
     0
280
     1
281
     0
  0
BLOCK_RECORD
  5
3B2
330
1
100
AcDbSymbolTableRecord
100
AcDbBlockTableRecord
  2
*D17
340
0
 70
     0
280
     1
281
     0
  0
BLOCK_RECORD
  5
3BE
330
1
100
AcDbSymbolTableRecord
100
AcDbBlockTableRecord
  2
*D18
340
0
 70
     0
280
     1
281
     0
  0
BLOCK_RECORD
  5
3CA
330
1
100
AcDbSymbolTableRecord
100
AcDbBlockTableRecord
  2
*D19
340
0
 70
     0
280
     1
281
     0
  0
BLOCK_RECORD
  5
3D6
330
1
100
AcDbSymbolTableRecord
100
AcDbBlockTableRecord
  2
*D20
340
0
 70
     0
280
     1
281
     0
  0
BLOCK_RECORD
  5
40D
330
1
100
AcDbSymbolTableRecord
100
AcDbBlockTableRecord
  2
*D21
340
0
 70
     0
280
     1
281
     0
  0
BLOCK_RECORD
  5
421
330
1
100
AcDbSymbolTableRecord
100
AcDbBlockTableRecord
  2
*D22
340
0
 70
     0
280
     1
281
     0
  0
BLOCK_RECORD
  5
443
330
1
100
AcDbSymbolTableRecord
100
AcDbBlockTableRecord
  2
*D23
340
0
 70
     0
280
     1
281
     0
  0
BLOCK_RECORD
  5
455
330
1
100
AcDbSymbolTableRecord
100
AcDbBlockTableRecord
  2
*D24
340
0
 70
     0
280
     1
281
     0
  0
BLOCK_RECORD
  5
464
330
1
100
AcDbSymbolTableRecord
100
AcDbBlockTableRecord
  2
*D25
340
0
 70
     0
280
     1
281
     0
  0
BLOCK_RECORD
  5
475
330
1
100
AcDbSymbolTableRecord
100
AcDbBlockTableRecord
  2
*D26
340
0
 70
     0
280
     1
281
     0
  0
BLOCK_RECORD
  5
486
330
1
100
AcDbSymbolTableRecord
100
AcDbBlockTableRecord
  2
*D27
340
0
 70
     0
280
     1
281
     0
  0
BLOCK_RECORD
  5
495
330
1
100
AcDbSymbolTableRecord
100
AcDbBlockTableRecord
  2
*D28
340
0
 70
     0
280
     1
281
     0
  0
BLOCK_RECORD
  5
527
330
1
100
AcDbSymbolTableRecord
100
AcDbBlockTableRecord
  2
*D29
340
0
 70
     0
280
     1
281
     0
  0
BLOCK_RECORD
  5
536
330
1
100
AcDbSymbolTableRecord
100
AcDbBlockTableRecord
  2
*D30
340
0
 70
     0
280
     1
281
     0
  0
BLOCK_RECORD
  5
622
330
1
100
AcDbSymbolTableRecord
100
AcDbBlockTableRecord
  2
*D31
340
0
 70
     0
280
     1
281
     0
  0
BLOCK_RECORD
  5
62E
330
1
100
AcDbSymbolTableRecord
100
AcDbBlockTableRecord
  2
*D32
340
0
 70
     0
280
     1
281
     0
  0
BLOCK_RECORD
  5
63A
330
1
100
AcDbSymbolTableRecord
100
AcDbBlockTableRecord
  2
*D33
340
0
 70
     0
280
     1
281
     0
  0
BLOCK_RECORD
  5
646
330
1
100
AcDbSymbolTableRecord
100
AcDbBlockTableRecord
  2
*D34
340
0
 70
     0
280
     1
281
     0
  0
BLOCK_RECORD
  5
652
330
1
100
AcDbSymbolTableRecord
100
AcDbBlockTableRecord
  2
*D35
340
0
 70
     0
280
     1
281
     0
  0
BLOCK_RECORD
  5
661
330
1
100
AcDbSymbolTableRecord
100
AcDbBlockTableRecord
  2
*D36
340
0
 70
     0
280
     1
281
     0
  0
BLOCK_RECORD
  5
66F
330
1
100
AcDbSymbolTableRecord
100
AcDbBlockTableRecord
  2
*D37
340
0
 70
     0
280
     1
281
     0
  0
BLOCK_RECORD
  5
67B
330
1
100
AcDbSymbolTableRecord
100
AcDbBlockTableRecord
  2
*D38
340
0
 70
     0
280
     1
281
     0
  0
BLOCK_RECORD
  5
687
330
1
100
AcDbSymbolTableRecord
100
AcDbBlockTableRecord
  2
*D39
340
0
 70
     0
280
     1
281
     0
  0
BLOCK_RECORD
  5
693
330
1
100
AcDbSymbolTableRecord
100
AcDbBlockTableRecord
  2
*D40
340
0
 70
     0
280
     1
281
     0
  0
BLOCK_RECORD
  5
6CA
330
1
100
AcDbSymbolTableRecord
100
AcDbBlockTableRecord
  2
*D41
340
0
 70
     0
280
     1
281
     0
  0
BLOCK_RECORD
  5
6DE
330
1
100
AcDbSymbolTableRecord
100
AcDbBlockTableRecord
  2
*D42
340
0
 70
     0
280
     1
281
     0
  0
BLOCK_RECORD
  5
700
330
1
100
AcDbSymbolTableRecord
100
AcDbBlockTableRecord
  2
*D43
340
0
 70
     0
280
     1
281
     0
  0
BLOCK_RECORD
  5
712
330
1
100
AcDbSymbolTableRecord
100
AcDbBlockTableRecord
  2
*D44
340
0
 70
     0
280
     1
281
     0
  0
BLOCK_RECORD
  5
721
330
1
100
AcDbSymbolTableRecord
100
AcDbBlockTableRecord
  2
*D45
340
0
 70
     0
280
     1
281
     0
  0
BLOCK_RECORD
  5
732
330
1
100
AcDbSymbolTableRecord
100
AcDbBlockTableRecord
  2
*D46
340
0
 70
     0
280
     1
281
     0
  0
BLOCK_RECORD
  5
743
330
1
100
AcDbSymbolTableRecord
100
AcDbBlockTableRecord
  2
*D47
340
0
 70
     0
280
     1
281
     0
  0
BLOCK_RECORD
  5
752
330
1
100
AcDbSymbolTableRecord
100
AcDbBlockTableRecord
  2
*D48
340
0
 70
     0
280
     1
281
     0
  0
BLOCK_RECORD
  5
7E4
330
1
100
AcDbSymbolTableRecord
100
AcDbBlockTableRecord
  2
*D49
340
0
 70
     0
280
     1
281
     0
  0
BLOCK_RECORD
  5
7F3
330
1
100
AcDbSymbolTableRecord
100
AcDbBlockTableRecord
  2
*D50
340
0
 70
     0
280
     1
281
     0
  0
BLOCK_RECORD
  5
8DF
330
1
100
AcDbSymbolTableRecord
100
AcDbBlockTableRecord
  2
*D51
340
0
 70
     0
280
     1
281
     0
  0
BLOCK_RECORD
  5
8EB
330
1
100
AcDbSymbolTableRecord
100
AcDbBlockTableRecord
  2
*D52
340
0
 70
     0
280
     1
281
     0
  0
BLOCK_RECORD
  5
8F7
330
1
100
AcDbSymbolTableRecord
100
AcDbBlockTableRecord
  2
*D53
340
0
 70
     0
280
     1
281
     0
  0
BLOCK_RECORD
  5
903
330
1
100
AcDbSymbolTableRecord
100
AcDbBlockTableRecord
  2
*D54
340
0
 70
     0
280
     1
281
     0
  0
BLOCK_RECORD
  5
90F
330
1
100
AcDbSymbolTableRecord
100
AcDbBlockTableRecord
  2
*D55
340
0
 70
     0
280
     1
281
     0
  0
BLOCK_RECORD
  5
91E
330
1
100
AcDbSymbolTableRecord
100
AcDbBlockTableRecord
  2
*D56
340
0
 70
     0
280
     1
281
     0
  0
BLOCK_RECORD
  5
92C
330
1
100
AcDbSymbolTableRecord
100
AcDbBlockTableRecord
  2
*D57
340
0
 70
     0
280
     1
281
     0
  0
BLOCK_RECORD
  5
938
330
1
100
AcDbSymbolTableRecord
100
AcDbBlockTableRecord
  2
*D58
340
0
 70
     0
280
     1
281
     0
  0
BLOCK_RECORD
  5
944
330
1
100
AcDbSymbolTableRecord
100
AcDbBlockTableRecord
  2
*D59
340
0
 70
     0
280
     1
281
     0
  0
BLOCK_RECORD
  5
950
330
1
100
AcDbSymbolTableRecord
100
AcDbBlockTableRecord
  2
*D60
340
0
 70
     0
280
     1
281
     0
  0
BLOCK_RECORD
  5
965
330
1
100
AcDbSymbolTableRecord
100
AcDbBlockTableRecord
  2
*D61
340
0
 70
     0
280
     1
281
     0
  0
BLOCK_RECORD
  5
996
330
1
100
AcDbSymbolTableRecord
100
AcDbBlockTableRecord
  2
*D62
340
0
 70
     0
280
     1
281
     0
  0
BLOCK_RECORD
  5
9A6
330
1
100
AcDbSymbolTableRecord
100
AcDbBlockTableRecord
  2
*D63
340
0
 70
     0
280
     1
281
     0
  0
ENDTAB
  0
ENDSEC
  0
SECTION
  2
BLOCKS
  0
BLOCK
  5
20
330
1F
100
AcDbEntity
  8
0
100
AcDbBlockBegin
  2
*Model_Space
 70
     0
 10
0.0
 20
0.0
 30
0.0
  3
*Model_Space
  1
*Model_Space
  0
ENDBLK
  5
21
330
1F
100
AcDbEntity
  8
0
100
AcDbBlockEnd
  0
BLOCK
  5
5A
330
58
100
AcDbEntity
 67
     1
  8
0
100
AcDbBlockBegin
  2
*Paper_Space
 70
     0
 10
0.0
 20
0.0
 30
0.0
  3
*Paper_Space
  1
*Paper_Space
  0
ENDBLK
  5
5B
330
58
100
AcDbEntity
 67
     1
  8
0
100
AcDbBlockEnd
  0
BLOCK
  5
5F
330
5D
100
AcDbEntity
  8
0
100
AcDbBlockBegin
  2
*Paper_Space0
 70
     0
 10
0.0
 20
0.0
 30
0.0
  3
*Paper_Space0
  1
*Paper_Space0
  0
ENDBLK
  5
60
330
5D
100
AcDbEntity
  8
0
100
AcDbBlockEnd
  0
BLOCK
  5
151
330
150
100
AcDbEntity
  8
0
 48
0.5
100
AcDbBlockBegin
  2
*D1
 70
     1
 10
0.0
 20
0.0
 30
0.0
  3
*D1
  1
*D2
  0
LINE
  5
152
330
150
100
AcDbEntity
  8
文字・寸法線
 62
     0
370
    -2
100
AcDbLine
 10
80.77104517425255
 20
71.179823520804
 30
0.0
 11
3.12500000000023
 21
71.179823520804
 31
0.0
  0
LINE
  5
153
330
150
100
AcDbEntity
  8
文字・寸法線
 62
     0
370
    -2
100
AcDbLine
 10
38.2681147282135
 20
32.41039150703909
 30
0.0
 11
3.125000000000227
 21
32.41039150703909
 31
0.0
  0
LINE
  5
154
330
150
100
AcDbEntity
  8
文字・寸法線
 62
     0
370
    -2
100
AcDbLine
 10
3.62500000000023
 20
68.679823520804
 30
0.0
 11
3.625000000000227
 21
34.91039150703909
 31
0.0
  0
SOLID
  5
155
330
150
100
AcDbEntity
  8
文字・寸法線
 62
     0
100
AcDbTrace
 10
4.041666666666896
 20
68.679823520804
 30
0.0
 11
3.208333333333563
 21
68.679823520804
 31
0.0
 12
3.62500000000023
 22
71.179823520804
 32
0.0
 13
3.62500000000023
 23
71.179823520804
 33
0.0
  0
SOLID
  5
156
330
150
100
AcDbEntity
  8
文字・寸法線
 62
     0
100
AcDbTrace
 10
3.208333333333561
 20
34.91039150703909
 30
0.0
 11
4.041666666666894
 21
34.91039150703909
 31
0.0
 12
3.625000000000227
 22
32.41039150703909
 32
0.0
 13
3.625000000000227
 23
32.41039150703909
 33
0.0
  0
MTEXT
  5
157
330
150
100
AcDbEntity
  8
文字・寸法線
 62
     0
100
AcDbMText
 10
1.469304229195317
 20
51.79510751392155
 30
0.0
 40
3.0
 41
0.0
 46
0.0
 71
     5
 72
     1
  1
33
 11
5.727311270544159E-17
 21
1.0
 31
0.0
 73
     1
 44
1.0
  0
POINT
  5
158
330
150
100
AcDbEntity
  8
Defpoints
 62
     0
100
AcDbPoint
 10
81.39604517425255
 20
71.179823520804
 30
0.0
  0
POINT
  5
159
330
150
100
AcDbEntity
  8
Defpoints
 62
     0
100
AcDbPoint
 10
38.8931147282135
 20
32.41039150703909
 30
0.0
  0
POINT
  5
15A
330
150
100
AcDbEntity
  8
Defpoints
 62
     0
100
AcDbPoint
 10
3.625000000000227
 20
32.41039150703909
 30
0.0
  0
ENDBLK
  5
15B
330
150
100
AcDbEntity
  8
0
 48
0.5
100
AcDbBlockEnd
  0
BLOCK
  5
165
330
164
100
AcDbEntity
  8
0
 48
0.5
100
AcDbBlockBegin
  2
*D2
 70
     1
 10
0.0
 20
0.0
 30
0.0
  3
*D2
  1
*D3
  0
LINE
  5
166
330
164
100
AcDbEntity
  8
文字・寸法線
 62
     0
370
    -2
100
AcDbLine
 10
81.39604517425255
 20
71.179823520804
 30
0.0
 11
19.53210558359865
 21
71.179823520804
 31
0.0
  0
LINE
  5
167
330
164
100
AcDbEntity
  8
文字・寸法線
 62
     0
370
    -2
100
AcDbLine
 10
77.9181147282136
 20
61.17982236409705
 30
0.0
 11
19.53210558359865
 21
61.17982236409706
 31
0.0
  0
LINE
  5
168
330
164
100
AcDbEntity
  8
文字・寸法線
 62
     0
370
    -2
100
AcDbLine
 10
20.03210558359865
 20
68.679823520804
 30
0.0
 11
20.03210558359865
 21
63.67982236409706
 31
0.0
  0
SOLID
  5
169
330
164
100
AcDbEntity
  8
文字・寸法線
 62
     0
100
AcDbTrace
 10
20.44877225026532
 20
68.679823520804
 30
0.0
 11
19.61543891693198
 21
68.679823520804
 31
0.0
 12
20.03210558359865
 22
71.179823520804
 32
0.0
 13
20.03210558359865
 23
71.179823520804
 33
0.0
  0
SOLID
  5
16A
330
164
100
AcDbEntity
  8
文字・寸法線
 62
     0
100
AcDbTrace
 10
19.61543891693198
 20
63.67982236409706
 30
0.0
 11
20.44877225026532
 21
63.67982236409706
 31
0.0
 12
20.03210558359865
 22
61.17982236409706
 32
0.0
 13
20.03210558359865
 23
61.17982236409706
 33
0.0
  0
MTEXT
  5
16B
330
164
100
AcDbEntity
  8
文字・寸法線
 62
     0
100
AcDbMText
 10
17.87640981279374
 20
66.17982294245053
 30
0.0
 40
3.0
 41
0.0
 46
0.0
 71
     5
 72
     1
  1
8
 11
0.0
 21
1.0
 31
0.0
 73
     1
 44
1.0
  0
POINT
  5
16C
330
164
100
AcDbEntity
  8
Defpoints
 62
     0
100
AcDbPoint
 10
82.02104517425255
 20
71.179823520804
 30
0.0
  0
POINT
  5
16D
330
164
100
AcDbEntity
  8
Defpoints
 62
     0
100
AcDbPoint
 10
78.5431147282136
 20
61.17982236409705
 30
0.0
  0
POINT
  5
16E
330
164
100
AcDbEntity
  8
Defpoints
 62
     0
100
AcDbPoint
 10
20.03210558359865
 20
61.17982236409706
 30
0.0
  0
ENDBLK
  5
16F
330
164
100
AcDbEntity
  8
0
 48
0.5
100
AcDbBlockEnd
  0
BLOCK
  5
187
330
186
100
AcDbEntity
  8
0
 48
0.5
100
AcDbBlockBegin
  2
*D3
 70
     1
 10
0.0
 20
0.0
 30
0.0
  3
*D3
  1
*D4
  0
LINE
  5
188
330
186
100
AcDbEntity
  8
文字・寸法線
 62
     0
370
    -2
100
AcDbLine
 10
84.83991149793815
 20
153.3667093091863
 30
0.0
 11
26.68908591384093
 21
153.3667093091863
 31
0.0
  0
LINE
  5
189
330
186
100
AcDbEntity
  8
文字・寸法線
 62
     0
370
    -2
100
AcDbLine
 10
84.83991149793769
 20
129.3667093091863
 30
0.0
 11
26.68908591384093
 21
129.3667093091863
 31
0.0
  0
LINE
  5
18A
330
186
100
AcDbEntity
  8
文字・寸法線
 62
     0
370
    -2
100
AcDbLine
 10
27.18908591384093
 20
150.8667093091863
 30
0.0
 11
27.18908591384093
 21
131.8667093091863
 31
0.0
  0
SOLID
  5
18B
330
186
100
AcDbEntity
  8
文字・寸法線
 62
     0
100
AcDbTrace
 10
27.60575258050759
 20
150.8667093091863
 30
0.0
 11
26.77241924717426
 21
150.8667093091863
 31
0.0
 12
27.18908591384093
 22
153.3667093091863
 32
0.0
 13
27.18908591384093
 23
153.3667093091863
 33
0.0
  0
SOLID
  5
18C
330
186
100
AcDbEntity
  8
文字・寸法線
 62
     0
100
AcDbTrace
 10
26.77241924717426
 20
131.8667093091863
 30
0.0
 11
27.60575258050759
 21
131.8667093091863
 31
0.0
 12
27.18908591384093
 22
129.3667093091863
 32
0.0
 13
27.18908591384093
 23
129.3667093091863
 33
0.0
  0
MTEXT
  5
18D
330
186
100
AcDbEntity
  8
文字・寸法線
 62
     0
100
AcDbMText
 10
25.033390143036
 20
141.5348010029375
 30
0.0
 40
3.0
 41
0.0
 46
0.0
 71
     5
 72
     1
  1
19
 11
0.0
 21
1.0
 31
0.0
 73
     1
 44
1.0
  0
POINT
  5
18E
330
186
100
AcDbEntity
  8
Defpoints
 62
     0
100
AcDbPoint
 10
85.46491149793815
 20
153.3667093091863
 30
0.0
  0
POINT
  5
18F
330
186
100
AcDbEntity
  8
Defpoints
 62
     0
100
AcDbPoint
 10
85.46491149793769
 20
129.3667093091863
 30
0.0
  0
POINT
  5
190
330
186
100
AcDbEntity
  8
Defpoints
 62
     0
100
AcDbPoint
 10
27.18908591384115
 20
129.3667093091863
 30
0.0
  0
ENDBLK
  5
191
330
186
100
AcDbEntity
  8
0
 48
0.5
100
AcDbBlockEnd
  0
BLOCK
  5
199
330
198
100
AcDbEntity
  8
0
 48
0.5
100
AcDbBlockBegin
  2
*D4
 70
     1
 10
0.0
 20
0.0
 30
0.0
  3
*D4
  1
*D5
  0
LINE
  5
19A
330
198
100
AcDbEntity
  8
文字・寸法線
 62
     0
370
    -2
100
AcDbLine
 10
38.2681147282135
 20
32.41039150703909
 30
0.0
 11
19.53210558359865
 21
32.41039150703909
 31
0.0
  0
LINE
  5
19B
330
198
100
AcDbEntity
  8
文字・寸法線
 62
     0
370
    -2
100
AcDbLine
 10
77.9181147282136
 20
61.17982236409705
 30
0.0
 11
19.53210558359865
 21
61.17982236409706
 31
0.0
  0
LINE
  5
19C
330
198
100
AcDbEntity
  8
文字・寸法線
 62
     0
370
    -2
100
AcDbLine
 10
20.03210558359865
 20
34.91039150703909
 30
0.0
 11
20.03210558359865
 21
58.67982236409706
 31
0.0
  0
SOLID
  5
19D
330
198
100
AcDbEntity
  8
文字・寸法線
 62
     0
100
AcDbTrace
 10
19.61543891693198
 20
34.91039150703909
 30
0.0
 11
20.44877225026532
 21
34.91039150703909
 31
0.0
 12
20.03210558359865
 22
32.41039150703909
 32
0.0
 13
20.03210558359865
 23
32.41039150703909
 33
0.0
  0
SOLID
  5
19E
330
198
100
AcDbEntity
  8
文字・寸法線
 62
     0
100
AcDbTrace
 10
20.44877225026532
 20
58.67982236409706
 30
0.0
 11
19.61543891693198
 21
58.67982236409706
 31
0.0
 12
20.03210558359865
 22
61.17982236409706
 32
0.0
 13
20.03210558359865
 23
61.17982236409706
 33
0.0
  0
MTEXT
  5
19F
330
198
100
AcDbEntity
  8
文字・寸法線
 62
     0
100
AcDbMText
 10
17.87640981279374
 20
46.79510693556807
 30
0.0
 40
3.0
 41
0.0
 46
0.0
 71
     5
 72
     1
  1
25
 11
0.0
 21
1.0
 31
0.0
 73
     1
 44
1.0
  0
POINT
  5
1A0
330
198
100
AcDbEntity
  8
Defpoints
 62
     0
100
AcDbPoint
 10
38.8931147282135
 20
32.41039150703909
 30
0.0
  0
POINT
  5
1A1
330
198
100
AcDbEntity
  8
Defpoints
 62
     0
100
AcDbPoint
 10
78.5431147282136
 20
61.17982236409705
 30
0.0
  0
POINT
  5
1A2
330
198
100
AcDbEntity
  8
Defpoints
 62
     0
100
AcDbPoint
 10
20.03210558359865
 20
61.17982236409706
 30
0.0
  0
ENDBLK
  5
1A3
330
198
100
AcDbEntity
  8
0
 48
0.5
100
AcDbBlockEnd
  0
BLOCK
  5
1A8
330
1A7
100
AcDbEntity
  8
0
 48
0.5
100
AcDbBlockBegin
  2
*D5
 70
     1
 10
0.0
 20
0.0
 30
0.0
  3
*D5
  1
*D6
  0
LINE
  5
1A9
330
1A7
100
AcDbEntity
  8
文字・寸法線
 62
     0
370
    -2
100
AcDbLine
 10
38.2681147282135
 20
32.41039150703909
 30
0.0
 11
3.125000000000227
 21
32.41039150703909
 31
0.0
  0
LINE
  5
1AA
330
1A7
100
AcDbEntity
  8
文字・寸法線
 62
     0
370
    -2
100
AcDbLine
 10
42.90423885604218
 20
31.41039150703864
 30
0.0
 11
3.125000000000227
 21
31.41039150703864
 31
0.0
  0
LINE
  5
1AB
330
1A7
100
AcDbEntity
  8
文字・寸法線
 62
     0
370
    -2
100
AcDbLine
 10
3.625000000000227
 20
31.41039150703864
 30
0.0
 11
3.625000000000227
 21
17.22405680944822
 31
0.0
  0
LINE
  5
1AC
330
1A7
100
AcDbEntity
  8
文字・寸法線
 62
     0
370
    -2
100
AcDbLine
 10
3.625000000000227
 20
32.41039150703909
 30
0.0
 11
3.625000000000227
 21
31.41039150703864
 31
0.0
  0
LINE
  5
1AD
330
1A7
100
AcDbEntity
  8
文字・寸法線
 62
     0
370
    -2
100
AcDbLine
 10
3.625000000000227
 20
34.91039150703909
 30
0.0
 11
3.625000000000227
 21
37.41039150703909
 31
0.0
  0
LINE
  5
1AE
330
1A7
100
AcDbEntity
  8
文字・寸法線
 62
     0
370
    -2
100
AcDbLine
 10
3.625000000000227
 20
28.91039150703864
 30
0.0
 11
3.625000000000227
 21
26.41039150703864
 31
0.0
  0
SOLID
  5
1AF
330
1A7
100
AcDbEntity
  8
文字・寸法線
 62
     0
100
AcDbTrace
 10
3.208333333333561
 20
34.91039150703909
 30
0.0
 11
4.041666666666894
 21
34.91039150703909
 31
0.0
 12
3.625000000000227
 22
32.41039150703909
 32
0.0
 13
3.625000000000227
 23
32.41039150703909
 33
0.0
  0
SOLID
  5
1B0
330
1A7
100
AcDbEntity
  8
文字・寸法線
 62
     0
100
AcDbTrace
 10
4.041666666666894
 20
28.91039150703864
 30
0.0
 11
3.208333333333561
 21
28.91039150703864
 31
0.0
 12
3.625000000000227
 22
31.41039150703864
 32
0.0
 13
3.625000000000227
 23
31.41039150703864
 33
0.0
  0
MTEXT
  5
1B1
330
1A7
100
AcDbEntity
  8
文字・寸法線
 62
     0
100
AcDbMText
 10
1.469304229195316
 20
20.4520581737047
 30
0.0
 40
3.0
 41
0.0
 46
0.0
 71
     5
 72
     1
  1
1.5
 11
0.0
 21
1.0
 31
0.0
 73
     1
 44
1.0
  0
POINT
  5
1B2
330
1A7
100
AcDbEntity
  8
Defpoints
 62
     0
100
AcDbPoint
 10
38.8931147282135
 20
32.41039150703909
 30
0.0
  0
POINT
  5
1B3
330
1A7
100
AcDbEntity
  8
Defpoints
 62
     0
100
AcDbPoint
 10
43.52923885604218
 20
31.41039150703864
 30
0.0
  0
POINT
  5
297
330
1A7
100
AcDbEntity
  8
Defpoints
 62
     0
100
AcDbPoint
 10
3.625000000000455
 20
31.41039150703864
 30
0.0
  0
ENDBLK
  5
1B4
330
1A7
100
AcDbEntity
  8
0
 48
0.5
100
AcDbBlockEnd
  0
BLOCK
  5
1B9
330
1B8
100
AcDbEntity
  8
0
 48
0.5
100
AcDbBlockBegin
  2
*D6
 70
     1
 10
0.0
 20
0.0
 30
0.0
  3
*D6
  1
*D7
  0
LINE
  5
1BA
330
1B8
100
AcDbEntity
  8
文字・寸法線
 62
     0
370
    -2
100
AcDbLine
 10
142.1542388560422
 20
36.41039150703955
 30
0.0
 11
158.4353440238353
 21
36.41039150703955
 31
0.0
  0
LINE
  5
1BB
330
1B8
100
AcDbEntity
  8
文字・寸法線
 62
     0
370
    -2
100
AcDbLine
 10
142.1542388560422
 20
31.41039150703955
 30
0.0
 11
158.4353440238353
 21
31.41039150703955
 31
0.0
  0
LINE
  5
1BC
330
1B8
100
AcDbEntity
  8
文字・寸法線
 62
     0
370
    -2
100
AcDbLine
 10
157.9353440238353
 20
36.41039150703955
 30
0.0
 11
157.9353440238353
 21
31.41039150703955
 31
0.0
  0
LINE
  5
1BD
330
1B8
100
AcDbEntity
  8
文字・寸法線
 62
     0
370
    -2
100
AcDbLine
 10
157.9353440238353
 20
38.91039150703955
 30
0.0
 11
157.9353440238353
 21
41.41039150703955
 31
0.0
  0
LINE
  5
1BE
330
1B8
100
AcDbEntity
  8
文字・寸法線
 62
     0
370
    -2
100
AcDbLine
 10
157.9353440238353
 20
28.91039150703955
 30
0.0
 11
157.9353440238353
 21
26.41039150703955
 31
0.0
  0
SOLID
  5
1BF
330
1B8
100
AcDbEntity
  8
文字・寸法線
 62
     0
100
AcDbTrace
 10
157.5186773571687
 20
38.91039150703955
 30
0.0
 11
158.352010690502
 21
38.91039150703955
 31
0.0
 12
157.9353440238353
 22
36.41039150703955
 32
0.0
 13
157.9353440238353
 23
36.41039150703955
 33
0.0
  0
SOLID
  5
1C0
330
1B8
100
AcDbEntity
  8
文字・寸法線
 62
     0
100
AcDbTrace
 10
158.352010690502
 20
28.91039150703955
 30
0.0
 11
157.5186773571687
 21
28.91039150703955
 31
0.0
 12
157.9353440238353
 22
31.41039150703955
 32
0.0
 13
157.9353440238353
 23
31.41039150703955
 33
0.0
  0
MTEXT
  5
1C1
330
1B8
100
AcDbEntity
  8
文字・寸法線
 62
     0
100
AcDbMText
 10
155.7857874071914
 20
33.91039150703955
 30
0.0
 40
3.0
 41
0.0
 46
0.0
 71
     5
 72
     1
  1
5
 11
0.0
 21
1.0
 31
0.0
 73
     1
 44
1.0
  0
POINT
  5
1C2
330
1B8
100
AcDbEntity
  8
Defpoints
 62
     0
100
AcDbPoint
 10
141.5292388560422
 20
36.41039150703955
 30
0.0
  0
POINT
  5
1C3
330
1B8
100
AcDbEntity
  8
Defpoints
 62
     0
100
AcDbPoint
 10
141.5292388560422
 20
31.41039150703955
 30
0.0
  0
POINT
  5
1C4
330
1B8
100
AcDbEntity
  8
Defpoints
 62
     0
100
AcDbPoint
 10
157.9353440238353
 20
31.41039150703955
 30
0.0
  0
ENDBLK
  5
1C5
330
1B8
100
AcDbEntity
  8
0
 48
0.5
100
AcDbBlockEnd
  0
BLOCK
  5
1CA
330
1C9
100
AcDbEntity
  8
0
 48
0.5
100
AcDbBlockBegin
  2
*D7
 70
     1
 10
0.0
 20
0.0
 30
0.0
  3
*D7
  1
*D8
  0
LINE
  5
1CB
330
1C9
100
AcDbEntity
  8
文字・寸法線
 62
     0
370
    -2
100
AcDbLine
 10
38.8931147282135
 20
31.78539150703909
 30
0.0
 11
38.8931147282135
 21
0.0
 31
0.0
  0
LINE
  5
1CC
330
1C9
100
AcDbEntity
  8
文字・寸法線
 62
     0
370
    -2
100
AcDbLine
 10
145.8931147282135
 20
31.78539150703909
 30
0.0
 11
145.8931147282135
 21
0.0
 31
0.0
  0
LINE
  5
1CD
330
1C9
100
AcDbEntity
  8
文字・寸法線
 62
     0
370
    -2
100
AcDbLine
 10
41.3931147282135
 20
0.5
 30
0.0
 11
143.3931147282135
 21
0.5
 31
0.0
  0
SOLID
  5
1CE
330
1C9
100
AcDbEntity
  8
文字・寸法線
 62
     0
100
AcDbTrace
 10
41.3931147282135
 20
0.9166666666666667
 30
0.0
 11
41.3931147282135
 21
0.0833333333333333
 31
0.0
 12
38.8931147282135
 22
0.5
 32
0.0
 13
38.8931147282135
 23
0.5
 33
0.0
  0
SOLID
  5
1CF
330
1C9
100
AcDbEntity
  8
文字・寸法線
 62
     0
100
AcDbTrace
 10
143.3931147282135
 20
0.0833333333333333
 30
0.0
 11
143.3931147282135
 21
0.9166666666666667
 31
0.0
 12
145.8931147282135
 22
0.5
 32
0.0
 13
145.8931147282135
 23
0.5
 33
0.0
  0
MTEXT
  5
1D0
330
1C9
100
AcDbEntity
  8
文字・寸法線
 62
     0
100
AcDbMText
 10
92.3931147282135
 20
3.093622100954979
 30
0.0
 40
3.0
 41
0.0
 46
0.0
 71
     5
 72
     1
  1
(%%c80)
 73
     1
 44
1.0
  0
POINT
  5
1D1
330
1C9
100
AcDbEntity
  8
Defpoints
 62
     0
100
AcDbPoint
 10
38.8931147282135
 20
32.41039150703909
 30
0.0
  0
POINT
  5
1D2
330
1C9
100
AcDbEntity
  8
Defpoints
 62
     0
100
AcDbPoint
 10
145.8931147282135
 20
32.41039150703909
 30
0.0
  0
POINT
  5
1D3
330
1C9
100
AcDbEntity
  8
Defpoints
 62
     0
100
AcDbPoint
 10
145.8931147282135
 20
0.5
 30
0.0
  0
ENDBLK
  5
1D4
330
1C9
100
AcDbEntity
  8
0
 48
0.5
100
AcDbBlockEnd
  0
BLOCK
  5
1D9
330
1D8
100
AcDbEntity
  8
0
 48
0.5
100
AcDbBlockBegin
  2
*D8
 70
     1
 10
0.0
 20
0.0
 30
0.0
  3
*D8
  1
*D9
  0
LINE
  5
1DA
330
1D8
100
AcDbEntity
  8
文字・寸法線
 62
     0
370
    -2
100
AcDbLine
 10
43.52923885604218
 20
30.78539150703864
 30
0.0
 11
43.52923885604218
 21
9.344787183214976
 31
0.0
  0
LINE
  5
1DB
330
1D8
100
AcDbEntity
  8
文字・寸法線
 62
     0
370
    -2
100
AcDbLine
 10
141.5292388560422
 20
30.78539150703955
 30
0.0
 11
141.5292388560422
 21
9.344787183214976
 31
0.0
  0
LINE
  5
1DC
330
1D8
100
AcDbEntity
  8
文字・寸法線
 62
     0
370
    -2
100
AcDbLine
 10
46.02923885604218
 20
9.844787183214976
 30
0.0
 11
139.0292388560422
 21
9.844787183214976
 31
0.0
  0
SOLID
  5
1DD
330
1D8
100
AcDbEntity
  8
文字・寸法線
 62
     0
100
AcDbTrace
 10
46.02923885604218
 20
10.26145384988164
 30
0.0
 11
46.02923885604218
 21
9.42812051654831
 31
0.0
 12
43.52923885604218
 22
9.844787183214976
 32
0.0
 13
43.52923885604218
 23
9.844787183214976
 33
0.0
  0
SOLID
  5
1DE
330
1D8
100
AcDbEntity
  8
文字・寸法線
 62
     0
100
AcDbTrace
 10
139.0292388560422
 20
9.42812051654831
 30
0.0
 11
139.0292388560422
 21
10.26145384988164
 31
0.0
 12
141.5292388560422
 22
9.844787183214976
 32
0.0
 13
141.5292388560422
 23
9.844787183214976
 33
0.0
  0
MTEXT
  5
1DF
330
1D8
100
AcDbEntity
  8
文字・寸法線
 62
     0
100
AcDbMText
 10
91.8418121381153
 20
12.05778172618905
 30
0.0
 40
3.0
 41
0.0
 46
0.0
 71
     5
 72
     1
  1
%%c73
 73
     1
 44
1.0
  0
POINT
  5
1E0
330
1D8
100
AcDbEntity
  8
Defpoints
 62
     0
100
AcDbPoint
 10
43.52923885604218
 20
31.41039150703864
 30
0.0
  0
POINT
  5
1E1
330
1D8
100
AcDbEntity
  8
Defpoints
 62
     0
100
AcDbPoint
 10
141.5292388560422
 20
31.41039150703955
 30
0.0
  0
POINT
  5
1E2
330
1D8
100
AcDbEntity
  8
Defpoints
 62
     0
100
AcDbPoint
 10
141.5292388560422
 20
9.844787183214976
 30
0.0
  0
ENDBLK
  5
1E3
330
1D8
100
AcDbEntity
  8
0
 48
0.5
100
AcDbBlockEnd
  0
BLOCK
  5
26B
330
26A
100
AcDbEntity
  8
0
 48
0.5
100
AcDbBlockBegin
  2
*D9
 70
     1
 10
0.0
 20
0.0
 30
0.0
  3
*D9
  1
*D10
  0
LINE
  5
26C
330
26A
100
AcDbEntity
  8
文字・寸法線
 62
     0
370
    -2
100
AcDbLine
 10
81.02923885604196
 20
35.78539150703909
 30
0.0
 11
81.02923885604196
 21
27.33512186285861
 31
0.0
  0
LINE
  5
26D
330
26A
100
AcDbEntity
  8
文字・寸法線
 62
     0
370
    -2
100
AcDbLine
 10
104.029238856042
 20
35.78539150703955
 30
0.0
 11
104.029238856042
 21
27.33512186285861
 31
0.0
  0
LINE
  5
26E
330
26A
100
AcDbEntity
  8
文字・寸法線
 62
     0
370
    -2
100
AcDbLine
 10
83.52923885604196
 20
27.83512186285861
 30
0.0
 11
101.529238856042
 21
27.83512186285861
 31
0.0
  0
SOLID
  5
26F
330
26A
100
AcDbEntity
  8
文字・寸法線
 62
     0
100
AcDbTrace
 10
83.52923885604196
 20
28.25178852952528
 30
0.0
 11
83.52923885604196
 21
27.41845519619195
 31
0.0
 12
81.02923885604196
 22
27.83512186285861
 32
0.0
 13
81.02923885604196
 23
27.83512186285861
 33
0.0
  0
SOLID
  5
270
330
26A
100
AcDbEntity
  8
文字・寸法線
 62
     0
100
AcDbTrace
 10
101.529238856042
 20
27.41845519619195
 30
0.0
 11
101.529238856042
 21
28.25178852952528
 31
0.0
 12
104.029238856042
 22
27.83512186285861
 32
0.0
 13
104.029238856042
 23
27.83512186285861
 33
0.0
  0
MTEXT
  5
271
330
26A
100
AcDbEntity
  8
文字・寸法線
 62
     0
100
AcDbMText
 10
92.52923885604196
 20
30.04811640583269
 30
0.0
 40
3.0
 41
0.0
 46
0.0
 71
     5
 72
     1
  1
%%c23
 73
     1
 44
1.0
  0
POINT
  5
272
330
26A
100
AcDbEntity
  8
Defpoints
 62
     0
100
AcDbPoint
 10
81.02923885604196
 20
36.41039150703909
 30
0.0
  0
POINT
  5
273
330
26A
100
AcDbEntity
  8
Defpoints
 62
     0
100
AcDbPoint
 10
104.029238856042
 20
36.41039150703955
 30
0.0
  0
POINT
  5
274
330
26A
100
AcDbEntity
  8
Defpoints
 62
     0
100
AcDbPoint
 10
104.029238856042
 20
27.83512186285861
 30
0.0
  0
ENDBLK
  5
275
330
26A
100
AcDbEntity
  8
0
 48
0.5
100
AcDbBlockEnd
  0
BLOCK
  5
27A
330
279
100
AcDbEntity
  8
0
 48
0.5
100
AcDbBlockBegin
  2
*D10
 70
     1
 10
0.0
 20
0.0
 30
0.0
  3
*D10
  1
*D11
  0
LINE
  5
27B
330
279
100
AcDbEntity
  8
文字・寸法線
 62
     0
370
    -2
100
AcDbLine
 10
77.02923885604196
 20
30.78539150703909
 30
0.0
 11
77.02923885604196
 21
17.71929868458301
 31
0.0
  0
LINE
  5
27C
330
279
100
AcDbEntity
  8
文字・寸法線
 62
     0
370
    -2
100
AcDbLine
 10
108.029238856042
 20
30.78539150703955
 30
0.0
 11
108.029238856042
 21
17.71929868458301
 31
0.0
  0
LINE
  5
27D
330
279
100
AcDbEntity
  8
文字・寸法線
 62
     0
370
    -2
100
AcDbLine
 10
79.52923885604196
 20
18.21929868458301
 30
0.0
 11
105.529238856042
 21
18.21929868458301
 31
0.0
  0
SOLID
  5
27E
330
279
100
AcDbEntity
  8
文字・寸法線
 62
     0
100
AcDbTrace
 10
79.52923885604196
 20
18.63596535124968
 30
0.0
 11
79.52923885604196
 21
17.80263201791634
 31
0.0
 12
77.02923885604196
 22
18.21929868458301
 32
0.0
 13
77.02923885604196
 23
18.21929868458301
 33
0.0
  0
SOLID
  5
27F
330
279
100
AcDbEntity
  8
文字・寸法線
 62
     0
100
AcDbTrace
 10
105.529238856042
 20
17.80263201791634
 30
0.0
 11
105.529238856042
 21
18.63596535124968
 31
0.0
 12
108.029238856042
 22
18.21929868458301
 32
0.0
 13
108.029238856042
 23
18.21929868458301
 33
0.0
  0
MTEXT
  5
280
330
279
100
AcDbEntity
  8
文字・寸法線
 62
     0
100
AcDbMText
 10
92.46925625041035
 20
20.43229322755709
 30
0.0
 40
3.0
 41
0.0
 46
0.0
 71
     5
 72
     1
  1
%%c25
 73
     1
 44
1.0
  0
POINT
  5
281
330
279
100
AcDbEntity
  8
Defpoints
 62
     0
100
AcDbPoint
 10
77.02923885604196
 20
31.41039150703909
 30
0.0
  0
POINT
  5
282
330
279
100
AcDbEntity
  8
Defpoints
 62
     0
100
AcDbPoint
 10
108.029238856042
 20
31.41039150703955
 30
0.0
  0
POINT
  5
283
330
279
100
AcDbEntity
  8
Defpoints
 62
     0
100
AcDbPoint
 10
108.029238856042
 20
18.21929868458301
 30
0.0
  0
ENDBLK
  5
284
330
279
100
AcDbEntity
  8
0
 48
0.5
100
AcDbBlockEnd
  0
BLOCK
  5
366
330
365
100
AcDbEntity
  8
0
100
AcDbBlockBegin
  2
*D11
 70
     1
 10
0.0
 20
0.0
 30
0.0
  3
*D11
  1
*D12
  0
LINE
  5
368
330
365
100
AcDbEntity
  8
文字・寸法線
 62
     0
370
    -2
100
AcDbLine
 10
119.5934053700338
 20
102.3897370276477
 30
0.0
 11
41.9473601957815
 21
102.3897370276477
 31
0.0
  0
LINE
  5
369
330
365
100
AcDbEntity
  8
文字・寸法線
 62
     0
370
    -2
100
AcDbLine
 10
77.09047492399478
 20
63.6203050138828
 30
0.0
 11
41.9473601957815
 21
63.6203050138828
 31
0.0
  0
LINE
  5
36A
330
365
100
AcDbEntity
  8
文字・寸法線
 62
     0
370
    -2
100
AcDbLine
 10
42.4473601957815
 20
99.88973702764773
 30
0.0
 11
42.4473601957815
 21
66.1203050138828
 31
0.0
  0
SOLID
  5
36B
330
365
100
AcDbEntity
  8
文字・寸法線
 62
     0
100
AcDbTrace
 10
42.86402686244816
 20
99.88973702764773
 30
0.0
 11
42.03069352911483
 21
99.88973702764773
 31
0.0
 12
42.4473601957815
 22
102.3897370276477
 32
0.0
 13
42.4473601957815
 23
102.3897370276477
 33
0.0
  0
SOLID
  5
36C
330
365
100
AcDbEntity
  8
文字・寸法線
 62
     0
100
AcDbTrace
 10
42.03069352911483
 20
66.1203050138828
 30
0.0
 11
42.86402686244816
 21
66.1203050138828
 31
0.0
 12
42.4473601957815
 22
63.6203050138828
 32
0.0
 13
42.4473601957815
 23
63.6203050138828
 33
0.0
  0
MTEXT
  5
36D
330
365
100
AcDbEntity
  8
文字・寸法線
 62
     0
100
AcDbMText
 10
40.29166442497659
 20
83.00502102076527
 30
0.0
 40
3.0
 41
0.0
 46
0.0
 71
     5
 72
     1
  1
33
 11
0.0
 21
1.0
 31
0.0
 73
     1
 44
1.0
  0
POINT
  5
36E
330
365
100
AcDbEntity
  8
Defpoints
 62
     0
100
AcDbPoint
 10
120.2184053700338
 20
102.3897370276477
 30
0.0
  0
POINT
  5
36F
330
365
100
AcDbEntity
  8
Defpoints
 62
     0
100
AcDbPoint
 10
77.71547492399478
 20
63.6203050138828
 30
0.0
  0
POINT
  5
370
330
365
100
AcDbEntity
  8
Defpoints
 62
     0
100
AcDbPoint
 10
42.4473601957815
 20
63.6203050138828
 30
0.0
  0
ENDBLK
  5
367
330
365
100
AcDbEntity
  8
0
100
AcDbBlockEnd
  0
BLOCK
  5
372
330
371
100
AcDbEntity
  8
0
100
AcDbBlockBegin
  2
*D12
 70
     1
 10
0.0
 20
0.0
 30
0.0
  3
*D12
  1
*D13
  0
LINE
  5
374
330
371
100
AcDbEntity
  8
文字・寸法線
 62
     0
370
    -2
100
AcDbLine
 10
120.2184053700338
 20
102.3897370276477
 30
0.0
 11
58.35446577937992
 21
102.3897370276477
 31
0.0
  0
LINE
  5
375
330
371
100
AcDbEntity
  8
文字・寸法線
 62
     0
370
    -2
100
AcDbLine
 10
116.7404749239949
 20
92.38973587094075
 30
0.0
 11
58.35446577937992
 21
92.38973587094075
 31
0.0
  0
LINE
  5
376
330
371
100
AcDbEntity
  8
文字・寸法線
 62
     0
370
    -2
100
AcDbLine
 10
58.85446577937992
 20
99.88973702764771
 30
0.0
 11
58.85446577937992
 21
94.88973587094075
 31
0.0
  0
SOLID
  5
377
330
371
100
AcDbEntity
  8
文字・寸法線
 62
     0
100
AcDbTrace
 10
59.27113244604659
 20
99.88973702764771
 30
0.0
 11
58.43779911271326
 21
99.88973702764771
 31
0.0
 12
58.85446577937992
 22
102.3897370276477
 32
0.0
 13
58.85446577937992
 23
102.3897370276477
 33
0.0
  0
SOLID
  5
378
330
371
100
AcDbEntity
  8
文字・寸法線
 62
     0
100
AcDbTrace
 10
58.43779911271326
 20
94.88973587094075
 30
0.0
 11
59.27113244604659
 21
94.88973587094075
 31
0.0
 12
58.85446577937992
 22
92.38973587094075
 32
0.0
 13
58.85446577937992
 23
92.38973587094075
 33
0.0
  0
MTEXT
  5
379
330
371
100
AcDbEntity
  8
文字・寸法線
 62
     0
100
AcDbMText
 10
56.69877000857501
 20
97.38973644929423
 30
0.0
 40
3.0
 41
0.0
 46
0.0
 71
     5
 72
     1
  1
8
 11
0.0
 21
1.0
 31
0.0
 73
     1
 44
1.0
  0
POINT
  5
37A
330
371
100
AcDbEntity
  8
Defpoints
 62
     0
100
AcDbPoint
 10
120.8434053700338
 20
102.3897370276477
 30
0.0
  0
POINT
  5
37B
330
371
100
AcDbEntity
  8
Defpoints
 62
     0
100
AcDbPoint
 10
117.3654749239949
 20
92.38973587094075
 30
0.0
  0
POINT
  5
37C
330
371
100
AcDbEntity
  8
Defpoints
 62
     0
100
AcDbPoint
 10
58.85446577937992
 20
92.38973587094075
 30
0.0
  0
ENDBLK
  5
373
330
371
100
AcDbEntity
  8
0
100
AcDbBlockEnd
  0
BLOCK
  5
37E
330
37D
100
AcDbEntity
  8
0
100
AcDbBlockBegin
  2
*D13
 70
     1
 10
0.0
 20
0.0
 30
0.0
  3
*D13
  1
*D14
  0
LINE
  5
380
330
37D
100
AcDbEntity
  8
文字・寸法線
 62
     0
370
    -2
100
AcDbLine
 10
262.840818029869
 20
75.74280089831879
 30
0.0
 11
262.840818029869
 21
2.554084626884633
 31
0.0
  0
LINE
  5
381
330
37D
100
AcDbEntity
  8
文字・寸法線
 62
     0
370
    -2
100
AcDbLine
 10
286.840818029869
 20
75.7428008983184
 30
0.0
 11
286.840818029869
 21
2.55408462688463
 31
0.0
  0
LINE
  5
382
330
37D
100
AcDbEntity
  8
文字・寸法線
 62
     0
370
    -2
100
AcDbLine
 10
265.340818029869
 20
3.054084626884632
 30
0.0
 11
284.340818029869
 21
3.05408462688463
 31
0.0
  0
SOLID
  5
383
330
37D
100
AcDbEntity
  8
文字・寸法線
 62
     0
100
AcDbTrace
 10
265.340818029869
 20
3.470751293551299
 30
0.0
 11
265.340818029869
 21
2.637417960217966
 31
0.0
 12
262.840818029869
 22
3.054084626884633
 32
0.0
 13
262.840818029869
 23
3.054084626884633
 33
0.0
  0
SOLID
  5
384
330
37D
100
AcDbEntity
  8
文字・寸法線
 62
     0
100
AcDbTrace
 10
284.340818029869
 20
2.637417960217963
 30
0.0
 11
284.340818029869
 21
3.470751293551297
 31
0.0
 12
286.840818029869
 22
3.05408462688463
 32
0.0
 13
286.840818029869
 23
3.05408462688463
 33
0.0
  0
MTEXT
  5
385
330
37D
100
AcDbEntity
  8
文字・寸法線
 62
     0
100
AcDbMText
 10
274.9014723794338
 20
5.210584626884631
 30
0.0
 40
3.0
 41
0.0
 46
0.0
 71
     5
 72
     1
  1
19
 73
     1
 44
1.0
  0
POINT
  5
386
330
37D
100
AcDbEntity
  8
Defpoints
 62
     0
100
AcDbPoint
 10
262.840818029869
 20
76.36780089831879
 30
0.0
  0
POINT
  5
387
330
37D
100
AcDbEntity
  8
Defpoints
 62
     0
100
AcDbPoint
 10
286.840818029869
 20
76.3678008983184
 30
0.0
  0
POINT
  5
388
330
37D
100
AcDbEntity
  8
Defpoints
 62
     0
100
AcDbPoint
 10
286.840818029869
 20
3.05408462688463
 30
0.0
  0
ENDBLK
  5
37F
330
37D
100
AcDbEntity
  8
0
100
AcDbBlockEnd
  0
BLOCK
  5
38A
330
389
100
AcDbEntity
  8
0
100
AcDbBlockBegin
  2
*D14
 70
     1
 10
0.0
 20
0.0
 30
0.0
  3
*D14
  1
*D15
  0
LINE
  5
38C
330
389
100
AcDbEntity
  8
文字・寸法線
 62
     0
370
    -2
100
AcDbLine
 10
77.09047492399478
 20
63.6203050138828
 30
0.0
 11
58.35446577937992
 21
63.6203050138828
 31
0.0
  0
LINE
  5
38D
330
389
100
AcDbEntity
  8
文字・寸法線
 62
     0
370
    -2
100
AcDbLine
 10
116.7404749239949
 20
92.38973587094075
 30
0.0
 11
58.35446577937992
 21
92.38973587094075
 31
0.0
  0
LINE
  5
38E
330
389
100
AcDbEntity
  8
文字・寸法線
 62
     0
370
    -2
100
AcDbLine
 10
58.85446577937992
 20
66.1203050138828
 30
0.0
 11
58.85446577937992
 21
89.88973587094075
 31
0.0
  0
SOLID
  5
38F
330
389
100
AcDbEntity
  8
文字・寸法線
 62
     0
100
AcDbTrace
 10
58.43779911271326
 20
66.1203050138828
 30
0.0
 11
59.27113244604659
 21
66.1203050138828
 31
0.0
 12
58.85446577937992
 22
63.6203050138828
 32
0.0
 13
58.85446577937992
 23
63.6203050138828
 33
0.0
  0
SOLID
  5
390
330
389
100
AcDbEntity
  8
文字・寸法線
 62
     0
100
AcDbTrace
 10
59.27113244604659
 20
89.88973587094075
 30
0.0
 11
58.43779911271326
 21
89.88973587094075
 31
0.0
 12
58.85446577937992
 22
92.38973587094075
 32
0.0
 13
58.85446577937992
 23
92.38973587094075
 33
0.0
  0
MTEXT
  5
391
330
389
100
AcDbEntity
  8
文字・寸法線
 62
     0
100
AcDbMText
 10
56.69877000857501
 20
78.00502044241178
 30
0.0
 40
3.0
 41
0.0
 46
0.0
 71
     5
 72
     1
  1
25
 11
0.0
 21
1.0
 31
0.0
 73
     1
 44
1.0
  0
POINT
  5
392
330
389
100
AcDbEntity
  8
Defpoints
 62
     0
100
AcDbPoint
 10
77.71547492399478
 20
63.6203050138828
 30
0.0
  0
POINT
  5
393
330
389
100
AcDbEntity
  8
Defpoints
 62
     0
100
AcDbPoint
 10
117.3654749239949
 20
92.38973587094075
 30
0.0
  0
POINT
  5
394
330
389
100
AcDbEntity
  8
Defpoints
 62
     0
100
AcDbPoint
 10
58.85446577937992
 20
92.38973587094075
 30
0.0
  0
ENDBLK
  5
38B
330
389
100
AcDbEntity
  8
0
100
AcDbBlockEnd
  0
BLOCK
  5
396
330
395
100
AcDbEntity
  8
0
100
AcDbBlockBegin
  2
*D15
 70
     1
 10
0.0
 20
0.0
 30
0.0
  3
*D15
  1
*D16
  0
LINE
  5
398
330
395
100
AcDbEntity
  8
文字・寸法線
 62
     0
370
    -2
100
AcDbLine
 10
77.09047492399478
 20
63.6203050138828
 30
0.0
 11
41.9473601957815
 21
63.6203050138828
 31
0.0
  0
LINE
  5
399
330
395
100
AcDbEntity
  8
文字・寸法線
 62
     0
370
    -2
100
AcDbLine
 10
81.72659905182346
 20
48.477929805392
 30
0.0
 11
41.9473601957815
 21
48.477929805392
 31
0.0
  0
LINE
  5
39A
330
395
100
AcDbEntity
  8
文字・寸法線
 62
     0
370
    -2
100
AcDbLine
 10
42.4473601957815
 20
48.477929805392
 30
0.0
 11
42.4473601957815
 21
34.29659647205806
 31
0.0
  0
LINE
  5
39B
330
395
100
AcDbEntity
  8
文字・寸法線
 62
     0
370
    -2
100
AcDbLine
 10
42.4473601957815
 20
61.1203050138828
 30
0.0
 11
42.4473601957815
 21
50.977929805392
 31
0.0
  0
SOLID
  5
39C
330
395
100
AcDbEntity
  8
文字・寸法線
 62
     0
100
AcDbTrace
 10
42.86402686244816
 20
61.1203050138828
 30
0.0
 11
42.03069352911483
 21
61.1203050138828
 31
0.0
 12
42.4473601957815
 22
63.6203050138828
 32
0.0
 13
42.4473601957815
 23
63.6203050138828
 33
0.0
  0
SOLID
  5
39D
330
395
100
AcDbEntity
  8
文字・寸法線
 62
     0
100
AcDbTrace
 10
42.03069352911483
 20
50.977929805392
 30
0.0
 11
42.86402686244816
 21
50.977929805392
 31
0.0
 12
42.4473601957815
 22
48.477929805392
 32
0.0
 13
42.4473601957815
 23
48.477929805392
 33
0.0
  0
MTEXT
  5
39E
330
395
100
AcDbEntity
  8
文字・寸法線
 62
     0
100
AcDbMText
 10
40.2908601957815
 20
37.51959647205806
 30
0.0
 40
3.0
 41
0.0
 46
0.0
 71
     5
 72
     1
  1
1.5
 11
0.0
 21
1.0
 31
0.0
 73
     1
 44
1.0
  0
POINT
  5
39F
330
395
100
AcDbEntity
  8
Defpoints
 62
     0
100
AcDbPoint
 10
77.71547492399478
 20
63.6203050138828
 30
0.0
  0
POINT
  5
3A0
330
395
100
AcDbEntity
  8
Defpoints
 62
     0
100
AcDbPoint
 10
82.35159905182346
 20
48.477929805392
 30
0.0
  0
POINT
  5
3A1
330
395
100
AcDbEntity
  8
Defpoints
 62
     0
100
AcDbPoint
 10
42.4473601957815
 20
48.477929805392
 30
0.0
  0
ENDBLK
  5
397
330
395
100
AcDbEntity
  8
0
100
AcDbBlockEnd
  0
BLOCK
  5
3A5
330
3A4
100
AcDbEntity
  8
0
100
AcDbBlockBegin
  2
*D16
 70
     1
 10
0.0
 20
0.0
 30
0.0
  3
*D16
  1
*D17
  0
LINE
  5
3A7
330
3A4
100
AcDbEntity
  8
文字・寸法線
 62
     0
370
    -2
100
AcDbLine
 10
180.9765990518235
 20
67.62030501388325
 30
0.0
 11
197.2577042196166
 21
67.62030501388325
 31
0.0
  0
LINE
  5
3A8
330
3A4
100
AcDbEntity
  8
文字・寸法線
 62
     0
370
    -2
100
AcDbLine
 10
180.9765990518235
 20
48.47792980539291
 30
0.0
 11
197.2577042196166
 21
48.47792980539291
 31
0.0
  0
LINE
  5
3A9
330
3A4
100
AcDbEntity
  8
文字・寸法線
 62
     0
370
    -2
100
AcDbLine
 10
196.7577042196166
 20
65.12030501388325
 30
0.0
 11
196.7577042196166
 21
50.97792980539291
 31
0.0
  0
SOLID
  5
3AA
330
3A4
100
AcDbEntity
  8
文字・寸法線
 62
     0
100
AcDbTrace
 10
197.1743708862833
 20
65.12030501388325
 30
0.0
 11
196.34103755295
 21
65.12030501388325
 31
0.0
 12
196.7577042196166
 22
67.62030501388325
 32
0.0
 13
196.7577042196166
 23
67.62030501388325
 33
0.0
  0
SOLID
  5
3AB
330
3A4
100
AcDbEntity
  8
文字・寸法線
 62
     0
100
AcDbTrace
 10
196.34103755295
 20
50.97792980539291
 30
0.0
 11
197.1743708862833
 21
50.97792980539291
 31
0.0
 12
196.7577042196166
 22
48.47792980539291
 32
0.0
 13
196.7577042196166
 23
48.47792980539291
 33
0.0
  0
MTEXT
  5
3AC
330
3A4
100
AcDbEntity
  8
文字・寸法線
 62
     0
100
AcDbMText
 10
194.6012042196166
 20
58.04911740963809
 30
0.0
 40
3.0
 41
0.0
 46
0.0
 71
     5
 72
     1
  1
19.14
 11
0.0
 21
1.0
 31
0.0
 73
     1
 44
1.0
  0
POINT
  5
3AD
330
3A4
100
AcDbEntity
  8
Defpoints
 62
     0
100
AcDbPoint
 10
180.3515990518235
 20
67.62030501388325
 30
0.0
  0
POINT
  5
3AE
330
3A4
100
AcDbEntity
  8
Defpoints
 62
     0
100
AcDbPoint
 10
180.3515990518235
 20
48.47792980539291
 30
0.0
  0
POINT
  5
3AF
330
3A4
100
AcDbEntity
  8
Defpoints
 62
     0
100
AcDbPoint
 10
196.7577042196166
 20
48.47792980539291
 30
0.0
  0
ENDBLK
  5
3A6
330
3A4
100
AcDbEntity
  8
0
100
AcDbBlockEnd
  0
BLOCK
  5
3B3
330
3B2
100
AcDbEntity
  8
0
100
AcDbBlockBegin
  2
*D17
 70
     1
 10
0.0
 20
0.0
 30
0.0
  3
*D17
  1
*D18
  0
LINE
  5
3B5
330
3B2
100
AcDbEntity
  8
文字・寸法線
 62
     0
370
    -2
100
AcDbLine
 10
77.71547492399478
 20
62.42128310958999
 30
0.0
 11
77.71547492399478
 21
30.63589160255091
 31
0.0
  0
LINE
  5
3B6
330
3B2
100
AcDbEntity
  8
文字・寸法線
 62
     0
370
    -2
100
AcDbLine
 10
184.7154749239948
 20
62.42128310958999
 30
0.0
 11
184.7154749239948
 21
30.63589160255091
 31
0.0
  0
LINE
  5
3B7
330
3B2
100
AcDbEntity
  8
文字・寸法線
 62
     0
370
    -2
100
AcDbLine
 10
80.21547492399478
 20
31.13589160255091
 30
0.0
 11
182.2154749239948
 21
31.13589160255091
 31
0.0
  0
SOLID
  5
3B8
330
3B2
100
AcDbEntity
  8
文字・寸法線
 62
     0
100
AcDbTrace
 10
80.21547492399478
 20
31.55255826921757
 30
0.0
 11
80.21547492399478
 21
30.71922493588424
 31
0.0
 12
77.71547492399478
 22
31.13589160255091
 32
0.0
 13
77.71547492399478
 23
31.13589160255091
 33
0.0
  0
SOLID
  5
3B9
330
3B2
100
AcDbEntity
  8
文字・寸法線
 62
     0
100
AcDbTrace
 10
182.2154749239948
 20
30.71922493588424
 30
0.0
 11
182.2154749239948
 21
31.55255826921757
 31
0.0
 12
184.7154749239948
 22
31.13589160255091
 32
0.0
 13
184.7154749239948
 23
31.13589160255091
 33
0.0
  0
MTEXT
  5
3BA
330
3B2
100
AcDbEntity
  8
文字・寸法線
 62
     0
100
AcDbMText
 10
131.2154749239948
 20
33.72589160255091
 30
0.0
 40
3.0
 41
0.0
 46
0.0
 71
     5
 72
     1
  1
(%%c80)
 73
     1
 44
1.0
  0
POINT
  5
3BB
330
3B2
100
AcDbEntity
  8
Defpoints
 62
     0
100
AcDbPoint
 10
77.71547492399478
 20
63.04628310958999
 30
0.0
  0
POINT
  5
3BC
330
3B2
100
AcDbEntity
  8
Defpoints
 62
     0
100
AcDbPoint
 10
184.7154749239948
 20
63.04628310958999
 30
0.0
  0
POINT
  5
3BD
330
3B2
100
AcDbEntity
  8
Defpoints
 62
     0
100
AcDbPoint
 10
184.7154749239948
 20
31.13589160255091
 30
0.0
  0
ENDBLK
  5
3B4
330
3B2
100
AcDbEntity
  8
0
100
AcDbBlockEnd
  0
BLOCK
  5
3BF
330
3BE
100
AcDbEntity
  8
0
100
AcDbBlockBegin
  2
*D18
 70
     1
 10
0.0
 20
0.0
 30
0.0
  3
*D18
  1
*D19
  0
LINE
  5
3C1
330
3BE
100
AcDbEntity
  8
文字・寸法線
 62
     0
370
    -2
100
AcDbLine
 10
82.35159905182346
 20
62.00793919076385
 30
0.0
 11
82.35159905182346
 21
40.56733486694019
 31
0.0
  0
LINE
  5
3C2
330
3BE
100
AcDbEntity
  8
文字・寸法線
 62
     0
370
    -2
100
AcDbLine
 10
180.3515990518235
 20
62.00793919076476
 30
0.0
 11
180.3515990518235
 21
40.56733486694019
 31
0.0
  0
LINE
  5
3C3
330
3BE
100
AcDbEntity
  8
文字・寸法線
 62
     0
370
    -2
100
AcDbLine
 10
84.85159905182346
 20
41.06733486694019
 30
0.0
 11
177.8515990518235
 21
41.06733486694019
 31
0.0
  0
SOLID
  5
3C4
330
3BE
100
AcDbEntity
  8
文字・寸法線
 62
     0
100
AcDbTrace
 10
84.85159905182346
 20
41.48400153360686
 30
0.0
 11
84.85159905182346
 21
40.65066820027353
 31
0.0
 12
82.35159905182346
 22
41.06733486694019
 32
0.0
 13
82.35159905182346
 23
41.06733486694019
 33
0.0
  0
SOLID
  5
3C5
330
3BE
100
AcDbEntity
  8
文字・寸法線
 62
     0
100
AcDbTrace
 10
177.8515990518235
 20
40.65066820027353
 30
0.0
 11
177.8515990518235
 21
41.48400153360686
 31
0.0
 12
180.3515990518235
 22
41.06733486694019
 32
0.0
 13
180.3515990518235
 23
41.06733486694019
 33
0.0
  0
MTEXT
  5
3C6
330
3BE
100
AcDbEntity
  8
文字・寸法線
 62
     0
100
AcDbMText
 10
130.6641723338966
 20
43.2778348669402
 30
0.0
 40
3.0
 41
0.0
 46
0.0
 71
     5
 72
     1
  1
%%c73
 73
     1
 44
1.0
  0
POINT
  5
3C7
330
3BE
100
AcDbEntity
  8
Defpoints
 62
     0
100
AcDbPoint
 10
82.35159905182346
 20
62.63293919076385
 30
0.0
  0
POINT
  5
3C8
330
3BE
100
AcDbEntity
  8
Defpoints
 62
     0
100
AcDbPoint
 10
180.3515990518235
 20
62.63293919076476
 30
0.0
  0
POINT
  5
3C9
330
3BE
100
AcDbEntity
  8
Defpoints
 62
     0
100
AcDbPoint
 10
180.3515990518235
 20
41.06733486694019
 30
0.0
  0
ENDBLK
  5
3C0
330
3BE
100
AcDbEntity
  8
0
100
AcDbBlockEnd
  0
BLOCK
  5
3CB
330
3CA
100
AcDbEntity
  8
0
100
AcDbBlockBegin
  2
*D19
 70
     1
 10
0.0
 20
0.0
 30
0.0
  3
*D19
  1
*D20
  0
LINE
  5
3CD
330
3CA
100
AcDbEntity
  8
文字・寸法線
 62
     0
370
    -2
100
AcDbLine
 10
119.8515990518232
 20
63.10776569107838
 30
0.0
 11
119.8515990518232
 21
54.6574960468979
 31
0.0
  0
LINE
  5
3CE
330
3CA
100
AcDbEntity
  8
文字・寸法線
 62
     0
370
    -2
100
AcDbLine
 10
142.8515990518232
 20
63.10776569107884
 30
0.0
 11
142.8515990518232
 21
54.6574960468979
 31
0.0
  0
LINE
  5
3CF
330
3CA
100
AcDbEntity
  8
文字・寸法線
 62
     0
370
    -2
100
AcDbLine
 10
122.3515990518232
 20
55.1574960468979
 30
0.0
 11
140.3515990518232
 21
55.1574960468979
 31
0.0
  0
SOLID
  5
3D0
330
3CA
100
AcDbEntity
  8
文字・寸法線
 62
     0
100
AcDbTrace
 10
122.3515990518232
 20
55.57416271356456
 30
0.0
 11
122.3515990518232
 21
54.74082938023123
 31
0.0
 12
119.8515990518232
 22
55.1574960468979
 32
0.0
 13
119.8515990518232
 23
55.1574960468979
 33
0.0
  0
SOLID
  5
3D1
330
3CA
100
AcDbEntity
  8
文字・寸法線
 62
     0
100
AcDbTrace
 10
140.3515990518232
 20
54.74082938023123
 30
0.0
 11
140.3515990518232
 21
55.57416271356456
 31
0.0
 12
142.8515990518232
 22
55.1574960468979
 32
0.0
 13
142.8515990518232
 23
55.1574960468979
 33
0.0
  0
MTEXT
  5
3D2
330
3CA
100
AcDbEntity
  8
文字・寸法線
 62
     0
100
AcDbMText
 10
131.3515990518232
 20
57.3679960468979
 30
0.0
 40
3.0
 41
0.0
 46
0.0
 71
     5
 72
     1
  1
%%c23
 73
     1
 44
1.0
  0
POINT
  5
3D3
330
3CA
100
AcDbEntity
  8
Defpoints
 62
     0
100
AcDbPoint
 10
119.8515990518232
 20
63.73276569107838
 30
0.0
  0
POINT
  5
3D4
330
3CA
100
AcDbEntity
  8
Defpoints
 62
     0
100
AcDbPoint
 10
142.8515990518232
 20
63.73276569107884
 30
0.0
  0
POINT
  5
3D5
330
3CA
100
AcDbEntity
  8
Defpoints
 62
     0
100
AcDbPoint
 10
142.8515990518232
 20
55.1574960468979
 30
0.0
  0
ENDBLK
  5
3CC
330
3CA
100
AcDbEntity
  8
0
100
AcDbBlockEnd
  0
BLOCK
  5
3D7
330
3D6
100
AcDbEntity
  8
0
100
AcDbBlockBegin
  2
*D20
 70
     1
 10
0.0
 20
0.0
 30
0.0
  3
*D20
  1
*D21
  0
LINE
  5
3D9
330
3D6
100
AcDbEntity
  8
文字・寸法線
 62
     0
370
    -2
100
AcDbLine
 10
118.807126868401
 20
61.46044519030431
 30
0.0
 11
118.807126868401
 21
48.9089933353538
 31
0.0
  0
LINE
  5
3DA
330
3D6
100
AcDbEntity
  8
文字・寸法線
 62
     0
370
    -2
100
AcDbLine
 10
143.8058612831556
 20
61.30219937763206
 30
0.0
 11
143.8058612831556
 21
48.9089933353538
 31
0.0
  0
LINE
  5
3DB
330
3D6
100
AcDbEntity
  8
文字・寸法線
 62
     0
370
    -2
100
AcDbLine
 10
121.307126868401
 20
49.4089933353538
 30
0.0
 11
141.3058612831556
 21
49.4089933353538
 31
0.0
  0
SOLID
  5
3DC
330
3D6
100
AcDbEntity
  8
文字・寸法線
 62
     0
100
AcDbTrace
 10
121.307126868401
 20
49.82566000202046
 30
0.0
 11
121.307126868401
 21
48.99232666868713
 31
0.0
 12
118.807126868401
 22
49.4089933353538
 32
0.0
 13
118.807126868401
 23
49.4089933353538
 33
0.0
  0
SOLID
  5
3DD
330
3D6
100
AcDbEntity
  8
文字・寸法線
 62
     0
100
AcDbTrace
 10
141.3058612831556
 20
48.99232666868713
 30
0.0
 11
141.3058612831556
 21
49.82566000202046
 31
0.0
 12
143.8058612831556
 22
49.4089933353538
 32
0.0
 13
143.8058612831556
 23
49.4089933353538
 33
0.0
  0
MTEXT
  5
3DE
330
3D6
100
AcDbEntity
  8
文字・寸法線
 62
     0
100
AcDbMText
 10
131.2916164461916
 20
51.6194933353538
 30
0.0
 40
3.0
 41
0.0
 46
0.0
 71
     5
 72
     1
  1
%%c25
 73
     1
 44
1.0
  0
POINT
  5
3DF
330
3D6
100
AcDbEntity
  8
Defpoints
 62
     0
100
AcDbPoint
 10
118.807126868401
 20
62.08544519030431
 30
0.0
  0
POINT
  5
3E0
330
3D6
100
AcDbEntity
  8
Defpoints
 62
     0
100
AcDbPoint
 10
143.8058612831556
 20
61.92719937763206
 30
0.0
  0
POINT
  5
3E1
330
3D6
100
AcDbEntity
  8
Defpoints
 62
     0
100
AcDbPoint
 10
143.8058612831556
 20
49.4089933353538
 30
0.0
  0
ENDBLK
  5
3D8
330
3D6
100
AcDbEntity
  8
0
100
AcDbBlockEnd
  0
BLOCK
  5
40E
330
40D
100
AcDbEntity
  8
0
 48
0.5
100
AcDbBlockBegin
  2
*D21
 70
     1
 10
0.0
 20
0.0
 30
0.0
  3
*D21
  1
*D23
  0
LINE
  5
40F
330
40D
100
AcDbEntity
  8
文字・寸法線
 62
     0
370
    -2
100
AcDbLine
 10
80.77104517425255
 20
71.179823520804
 30
0.0
 11
3.12500000000023
 21
71.179823520804
 31
0.0
  0
LINE
  5
410
330
40D
100
AcDbEntity
  8
文字・寸法線
 62
     0
370
    -2
100
AcDbLine
 10
38.2681147282135
 20
32.41039150703909
 30
0.0
 11
3.125000000000227
 21
32.41039150703909
 31
0.0
  0
LINE
  5
411
330
40D
100
AcDbEntity
  8
文字・寸法線
 62
     0
370
    -2
100
AcDbLine
 10
3.62500000000023
 20
68.679823520804
 30
0.0
 11
3.625000000000227
 21
34.91039150703909
 31
0.0
  0
SOLID
  5
412
330
40D
100
AcDbEntity
  8
文字・寸法線
 62
     0
100
AcDbTrace
 10
4.041666666666896
 20
68.679823520804
 30
0.0
 11
3.208333333333563
 21
68.679823520804
 31
0.0
 12
3.62500000000023
 22
71.179823520804
 32
0.0
 13
3.62500000000023
 23
71.179823520804
 33
0.0
  0
SOLID
  5
413
330
40D
100
AcDbEntity
  8
文字・寸法線
 62
     0
100
AcDbTrace
 10
3.208333333333561
 20
34.91039150703909
 30
0.0
 11
4.041666666666894
 21
34.91039150703909
 31
0.0
 12
3.625000000000227
 22
32.41039150703909
 32
0.0
 13
3.625000000000227
 23
32.41039150703909
 33
0.0
  0
MTEXT
  5
414
330
40D
100
AcDbEntity
  8
文字・寸法線
 62
     0
100
AcDbMText
 10
1.469304229195317
 20
51.79510751392155
 30
0.0
 40
3.0
 41
0.0
 46
0.0
 71
     5
 72
     1
  1
33
 11
5.727311270544159E-17
 21
1.0
 31
0.0
 73
     1
 44
1.0
  0
POINT
  5
415
330
40D
100
AcDbEntity
  8
Defpoints
 62
     0
100
AcDbPoint
 10
81.39604517425255
 20
71.179823520804
 30
0.0
  0
POINT
  5
416
330
40D
100
AcDbEntity
  8
Defpoints
 62
     0
100
AcDbPoint
 10
38.8931147282135
 20
32.41039150703909
 30
0.0
  0
POINT
  5
417
330
40D
100
AcDbEntity
  8
Defpoints
 62
     0
100
AcDbPoint
 10
3.625000000000227
 20
32.41039150703909
 30
0.0
  0
ENDBLK
  5
418
330
40D
100
AcDbEntity
  8
0
 48
0.5
100
AcDbBlockEnd
  0
BLOCK
  5
422
330
421
100
AcDbEntity
  8
0
 48
0.5
100
AcDbBlockBegin
  2
*D22
 70
     1
 10
0.0
 20
0.0
 30
0.0
  3
*D22
  1
*D24
  0
LINE
  5
423
330
421
100
AcDbEntity
  8
文字・寸法線
 62
     0
370
    -2
100
AcDbLine
 10
81.39604517425255
 20
71.179823520804
 30
0.0
 11
19.53210558359865
 21
71.179823520804
 31
0.0
  0
LINE
  5
424
330
421
100
AcDbEntity
  8
文字・寸法線
 62
     0
370
    -2
100
AcDbLine
 10
77.9181147282136
 20
61.17982236409705
 30
0.0
 11
19.53210558359865
 21
61.17982236409706
 31
0.0
  0
LINE
  5
425
330
421
100
AcDbEntity
  8
文字・寸法線
 62
     0
370
    -2
100
AcDbLine
 10
20.03210558359865
 20
68.679823520804
 30
0.0
 11
20.03210558359865
 21
63.67982236409706
 31
0.0
  0
SOLID
  5
426
330
421
100
AcDbEntity
  8
文字・寸法線
 62
     0
100
AcDbTrace
 10
20.44877225026532
 20
68.679823520804
 30
0.0
 11
19.61543891693198
 21
68.679823520804
 31
0.0
 12
20.03210558359865
 22
71.179823520804
 32
0.0
 13
20.03210558359865
 23
71.179823520804
 33
0.0
  0
SOLID
  5
427
330
421
100
AcDbEntity
  8
文字・寸法線
 62
     0
100
AcDbTrace
 10
19.61543891693198
 20
63.67982236409706
 30
0.0
 11
20.44877225026532
 21
63.67982236409706
 31
0.0
 12
20.03210558359865
 22
61.17982236409706
 32
0.0
 13
20.03210558359865
 23
61.17982236409706
 33
0.0
  0
MTEXT
  5
428
330
421
100
AcDbEntity
  8
文字・寸法線
 62
     0
100
AcDbMText
 10
17.87640981279374
 20
66.17982294245053
 30
0.0
 40
3.0
 41
0.0
 46
0.0
 71
     5
 72
     1
  1
8
 11
0.0
 21
1.0
 31
0.0
 73
     1
 44
1.0
  0
POINT
  5
429
330
421
100
AcDbEntity
  8
Defpoints
 62
     0
100
AcDbPoint
 10
82.02104517425255
 20
71.179823520804
 30
0.0
  0
POINT
  5
42A
330
421
100
AcDbEntity
  8
Defpoints
 62
     0
100
AcDbPoint
 10
78.5431147282136
 20
61.17982236409705
 30
0.0
  0
POINT
  5
42B
330
421
100
AcDbEntity
  8
Defpoints
 62
     0
100
AcDbPoint
 10
20.03210558359865
 20
61.17982236409706
 30
0.0
  0
ENDBLK
  5
42C
330
421
100
AcDbEntity
  8
0
 48
0.5
100
AcDbBlockEnd
  0
BLOCK
  5
444
330
443
100
AcDbEntity
  8
0
 48
0.5
100
AcDbBlockBegin
  2
*D23
 70
     1
 10
0.0
 20
0.0
 30
0.0
  3
*D23
  1
*D25
  0
LINE
  5
445
330
443
100
AcDbEntity
  8
文字・寸法線
 62
     0
370
    -2
100
AcDbLine
 10
84.83991149793815
 20
153.3667093091863
 30
0.0
 11
26.68908591384093
 21
153.3667093091863
 31
0.0
  0
LINE
  5
446
330
443
100
AcDbEntity
  8
文字・寸法線
 62
     0
370
    -2
100
AcDbLine
 10
84.83991149793769
 20
129.3667093091863
 30
0.0
 11
26.68908591384093
 21
129.3667093091863
 31
0.0
  0
LINE
  5
447
330
443
100
AcDbEntity
  8
文字・寸法線
 62
     0
370
    -2
100
AcDbLine
 10
27.18908591384093
 20
150.8667093091863
 30
0.0
 11
27.18908591384093
 21
131.8667093091863
 31
0.0
  0
SOLID
  5
448
330
443
100
AcDbEntity
  8
文字・寸法線
 62
     0
100
AcDbTrace
 10
27.60575258050759
 20
150.8667093091863
 30
0.0
 11
26.77241924717426
 21
150.8667093091863
 31
0.0
 12
27.18908591384093
 22
153.3667093091863
 32
0.0
 13
27.18908591384093
 23
153.3667093091863
 33
0.0
  0
SOLID
  5
449
330
443
100
AcDbEntity
  8
文字・寸法線
 62
     0
100
AcDbTrace
 10
26.77241924717426
 20
131.8667093091863
 30
0.0
 11
27.60575258050759
 21
131.8667093091863
 31
0.0
 12
27.18908591384093
 22
129.3667093091863
 32
0.0
 13
27.18908591384093
 23
129.3667093091863
 33
0.0
  0
MTEXT
  5
44A
330
443
100
AcDbEntity
  8
文字・寸法線
 62
     0
100
AcDbMText
 10
25.033390143036
 20
141.5348010029375
 30
0.0
 40
3.0
 41
0.0
 46
0.0
 71
     5
 72
     1
  1
19
 11
0.0
 21
1.0
 31
0.0
 73
     1
 44
1.0
  0
POINT
  5
44B
330
443
100
AcDbEntity
  8
Defpoints
 62
     0
100
AcDbPoint
 10
85.46491149793815
 20
153.3667093091863
 30
0.0
  0
POINT
  5
44C
330
443
100
AcDbEntity
  8
Defpoints
 62
     0
100
AcDbPoint
 10
85.46491149793769
 20
129.3667093091863
 30
0.0
  0
POINT
  5
44D
330
443
100
AcDbEntity
  8
Defpoints
 62
     0
100
AcDbPoint
 10
27.18908591384115
 20
129.3667093091863
 30
0.0
  0
ENDBLK
  5
44E
330
443
100
AcDbEntity
  8
0
 48
0.5
100
AcDbBlockEnd
  0
BLOCK
  5
456
330
455
100
AcDbEntity
  8
0
 48
0.5
100
AcDbBlockBegin
  2
*D24
 70
     1
 10
0.0
 20
0.0
 30
0.0
  3
*D24
  1
*D26
  0
LINE
  5
457
330
455
100
AcDbEntity
  8
文字・寸法線
 62
     0
370
    -2
100
AcDbLine
 10
38.2681147282135
 20
32.41039150703909
 30
0.0
 11
19.53210558359865
 21
32.41039150703909
 31
0.0
  0
LINE
  5
458
330
455
100
AcDbEntity
  8
文字・寸法線
 62
     0
370
    -2
100
AcDbLine
 10
77.9181147282136
 20
61.17982236409705
 30
0.0
 11
19.53210558359865
 21
61.17982236409706
 31
0.0
  0
LINE
  5
459
330
455
100
AcDbEntity
  8
文字・寸法線
 62
     0
370
    -2
100
AcDbLine
 10
20.03210558359865
 20
34.91039150703909
 30
0.0
 11
20.03210558359865
 21
58.67982236409706
 31
0.0
  0
SOLID
  5
45A
330
455
100
AcDbEntity
  8
文字・寸法線
 62
     0
100
AcDbTrace
 10
19.61543891693198
 20
34.91039150703909
 30
0.0
 11
20.44877225026532
 21
34.91039150703909
 31
0.0
 12
20.03210558359865
 22
32.41039150703909
 32
0.0
 13
20.03210558359865
 23
32.41039150703909
 33
0.0
  0
SOLID
  5
45B
330
455
100
AcDbEntity
  8
文字・寸法線
 62
     0
100
AcDbTrace
 10
20.44877225026532
 20
58.67982236409706
 30
0.0
 11
19.61543891693198
 21
58.67982236409706
 31
0.0
 12
20.03210558359865
 22
61.17982236409706
 32
0.0
 13
20.03210558359865
 23
61.17982236409706
 33
0.0
  0
MTEXT
  5
45C
330
455
100
AcDbEntity
  8
文字・寸法線
 62
     0
100
AcDbMText
 10
17.87640981279374
 20
46.79510693556807
 30
0.0
 40
3.0
 41
0.0
 46
0.0
 71
     5
 72
     1
  1
25
 11
0.0
 21
1.0
 31
0.0
 73
     1
 44
1.0
  0
POINT
  5
45D
330
455
100
AcDbEntity
  8
Defpoints
 62
     0
100
AcDbPoint
 10
38.8931147282135
 20
32.41039150703909
 30
0.0
  0
POINT
  5
45E
330
455
100
AcDbEntity
  8
Defpoints
 62
     0
100
AcDbPoint
 10
78.5431147282136
 20
61.17982236409705
 30
0.0
  0
POINT
  5
45F
330
455
100
AcDbEntity
  8
Defpoints
 62
     0
100
AcDbPoint
 10
20.03210558359865
 20
61.17982236409706
 30
0.0
  0
ENDBLK
  5
460
330
455
100
AcDbEntity
  8
0
 48
0.5
100
AcDbBlockEnd
  0
BLOCK
  5
465
330
464
100
AcDbEntity
  8
0
 48
0.5
100
AcDbBlockBegin
  2
*D25
 70
     1
 10
0.0
 20
0.0
 30
0.0
  3
*D25
  1
*D27
  0
LINE
  5
466
330
464
100
AcDbEntity
  8
文字・寸法線
 62
     0
370
    -2
100
AcDbLine
 10
38.2681147282135
 20
32.41039150703909
 30
0.0
 11
3.125000000000227
 21
32.41039150703909
 31
0.0
  0
LINE
  5
467
330
464
100
AcDbEntity
  8
文字・寸法線
 62
     0
370
    -2
100
AcDbLine
 10
42.90423885604218
 20
31.41039150703864
 30
0.0
 11
3.125000000000227
 21
31.41039150703864
 31
0.0
  0
LINE
  5
468
330
464
100
AcDbEntity
  8
文字・寸法線
 62
     0
370
    -2
100
AcDbLine
 10
3.625000000000227
 20
31.41039150703864
 30
0.0
 11
3.625000000000227
 21
17.22405680944822
 31
0.0
  0
LINE
  5
469
330
464
100
AcDbEntity
  8
文字・寸法線
 62
     0
370
    -2
100
AcDbLine
 10
3.625000000000227
 20
32.41039150703909
 30
0.0
 11
3.625000000000227
 21
31.41039150703864
 31
0.0
  0
LINE
  5
46A
330
464
100
AcDbEntity
  8
文字・寸法線
 62
     0
370
    -2
100
AcDbLine
 10
3.625000000000227
 20
34.91039150703909
 30
0.0
 11
3.625000000000227
 21
37.41039150703909
 31
0.0
  0
LINE
  5
46B
330
464
100
AcDbEntity
  8
文字・寸法線
 62
     0
370
    -2
100
AcDbLine
 10
3.625000000000227
 20
28.91039150703864
 30
0.0
 11
3.625000000000227
 21
26.41039150703864
 31
0.0
  0
SOLID
  5
46C
330
464
100
AcDbEntity
  8
文字・寸法線
 62
     0
100
AcDbTrace
 10
3.208333333333561
 20
34.91039150703909
 30
0.0
 11
4.041666666666894
 21
34.91039150703909
 31
0.0
 12
3.625000000000227
 22
32.41039150703909
 32
0.0
 13
3.625000000000227
 23
32.41039150703909
 33
0.0
  0
SOLID
  5
46D
330
464
100
AcDbEntity
  8
文字・寸法線
 62
     0
100
AcDbTrace
 10
4.041666666666894
 20
28.91039150703864
 30
0.0
 11
3.208333333333561
 21
28.91039150703864
 31
0.0
 12
3.625000000000227
 22
31.41039150703864
 32
0.0
 13
3.625000000000227
 23
31.41039150703864
 33
0.0
  0
MTEXT
  5
46E
330
464
100
AcDbEntity
  8
文字・寸法線
 62
     0
100
AcDbMText
 10
1.469304229195316
 20
20.4520581737047
 30
0.0
 40
3.0
 41
0.0
 46
0.0
 71
     5
 72
     1
  1
1.5
 11
0.0
 21
1.0
 31
0.0
 73
     1
 44
1.0
  0
POINT
  5
46F
330
464
100
AcDbEntity
  8
Defpoints
 62
     0
100
AcDbPoint
 10
38.8931147282135
 20
32.41039150703909
 30
0.0
  0
POINT
  5
470
330
464
100
AcDbEntity
  8
Defpoints
 62
     0
100
AcDbPoint
 10
43.52923885604218
 20
31.41039150703864
 30
0.0
  0
POINT
  5
554
330
464
100
AcDbEntity
  8
Defpoints
 62
     0
100
AcDbPoint
 10
3.625000000000455
 20
31.41039150703864
 30
0.0
  0
ENDBLK
  5
471
330
464
100
AcDbEntity
  8
0
 48
0.5
100
AcDbBlockEnd
  0
BLOCK
  5
476
330
475
100
AcDbEntity
  8
0
 48
0.5
100
AcDbBlockBegin
  2
*D26
 70
     1
 10
0.0
 20
0.0
 30
0.0
  3
*D26
  1
*D28
  0
LINE
  5
477
330
475
100
AcDbEntity
  8
文字・寸法線
 62
     0
370
    -2
100
AcDbLine
 10
142.1542388560422
 20
36.41039150703955
 30
0.0
 11
158.4353440238353
 21
36.41039150703955
 31
0.0
  0
LINE
  5
478
330
475
100
AcDbEntity
  8
文字・寸法線
 62
     0
370
    -2
100
AcDbLine
 10
142.1542388560422
 20
31.41039150703955
 30
0.0
 11
158.4353440238353
 21
31.41039150703955
 31
0.0
  0
LINE
  5
479
330
475
100
AcDbEntity
  8
文字・寸法線
 62
     0
370
    -2
100
AcDbLine
 10
157.9353440238353
 20
36.41039150703955
 30
0.0
 11
157.9353440238353
 21
31.41039150703955
 31
0.0
  0
LINE
  5
47A
330
475
100
AcDbEntity
  8
文字・寸法線
 62
     0
370
    -2
100
AcDbLine
 10
157.9353440238353
 20
38.91039150703955
 30
0.0
 11
157.9353440238353
 21
41.41039150703955
 31
0.0
  0
LINE
  5
47B
330
475
100
AcDbEntity
  8
文字・寸法線
 62
     0
370
    -2
100
AcDbLine
 10
157.9353440238353
 20
28.91039150703955
 30
0.0
 11
157.9353440238353
 21
26.41039150703955
 31
0.0
  0
SOLID
  5
47C
330
475
100
AcDbEntity
  8
文字・寸法線
 62
     0
100
AcDbTrace
 10
157.5186773571687
 20
38.91039150703955
 30
0.0
 11
158.352010690502
 21
38.91039150703955
 31
0.0
 12
157.9353440238353
 22
36.41039150703955
 32
0.0
 13
157.9353440238353
 23
36.41039150703955
 33
0.0
  0
SOLID
  5
47D
330
475
100
AcDbEntity
  8
文字・寸法線
 62
     0
100
AcDbTrace
 10
158.352010690502
 20
28.91039150703955
 30
0.0
 11
157.5186773571687
 21
28.91039150703955
 31
0.0
 12
157.9353440238353
 22
31.41039150703955
 32
0.0
 13
157.9353440238353
 23
31.41039150703955
 33
0.0
  0
MTEXT
  5
47E
330
475
100
AcDbEntity
  8
文字・寸法線
 62
     0
100
AcDbMText
 10
155.7857874071914
 20
33.91039150703955
 30
0.0
 40
3.0
 41
0.0
 46
0.0
 71
     5
 72
     1
  1
5
 11
0.0
 21
1.0
 31
0.0
 73
     1
 44
1.0
  0
POINT
  5
47F
330
475
100
AcDbEntity
  8
Defpoints
 62
     0
100
AcDbPoint
 10
141.5292388560422
 20
36.41039150703955
 30
0.0
  0
POINT
  5
480
330
475
100
AcDbEntity
  8
Defpoints
 62
     0
100
AcDbPoint
 10
141.5292388560422
 20
31.41039150703955
 30
0.0
  0
POINT
  5
481
330
475
100
AcDbEntity
  8
Defpoints
 62
     0
100
AcDbPoint
 10
157.9353440238353
 20
31.41039150703955
 30
0.0
  0
ENDBLK
  5
482
330
475
100
AcDbEntity
  8
0
 48
0.5
100
AcDbBlockEnd
  0
BLOCK
  5
487
330
486
100
AcDbEntity
  8
0
 48
0.5
100
AcDbBlockBegin
  2
*D27
 70
     1
 10
0.0
 20
0.0
 30
0.0
  3
*D27
  1
*D29
  0
LINE
  5
488
330
486
100
AcDbEntity
  8
文字・寸法線
 62
     0
370
    -2
100
AcDbLine
 10
38.8931147282135
 20
31.78539150703909
 30
0.0
 11
38.8931147282135
 21
0.0
 31
0.0
  0
LINE
  5
489
330
486
100
AcDbEntity
  8
文字・寸法線
 62
     0
370
    -2
100
AcDbLine
 10
145.8931147282135
 20
31.78539150703909
 30
0.0
 11
145.8931147282135
 21
0.0
 31
0.0
  0
LINE
  5
48A
330
486
100
AcDbEntity
  8
文字・寸法線
 62
     0
370
    -2
100
AcDbLine
 10
41.3931147282135
 20
0.5
 30
0.0
 11
143.3931147282135
 21
0.5
 31
0.0
  0
SOLID
  5
48B
330
486
100
AcDbEntity
  8
文字・寸法線
 62
     0
100
AcDbTrace
 10
41.3931147282135
 20
0.9166666666666667
 30
0.0
 11
41.3931147282135
 21
0.0833333333333333
 31
0.0
 12
38.8931147282135
 22
0.5
 32
0.0
 13
38.8931147282135
 23
0.5
 33
0.0
  0
SOLID
  5
48C
330
486
100
AcDbEntity
  8
文字・寸法線
 62
     0
100
AcDbTrace
 10
143.3931147282135
 20
0.0833333333333333
 30
0.0
 11
143.3931147282135
 21
0.9166666666666667
 31
0.0
 12
145.8931147282135
 22
0.5
 32
0.0
 13
145.8931147282135
 23
0.5
 33
0.0
  0
MTEXT
  5
48D
330
486
100
AcDbEntity
  8
文字・寸法線
 62
     0
100
AcDbMText
 10
92.3931147282135
 20
3.093622100954979
 30
0.0
 40
3.0
 41
0.0
 46
0.0
 71
     5
 72
     1
  1
(%%c80)
 73
     1
 44
1.0
  0
POINT
  5
48E
330
486
100
AcDbEntity
  8
Defpoints
 62
     0
100
AcDbPoint
 10
38.8931147282135
 20
32.41039150703909
 30
0.0
  0
POINT
  5
48F
330
486
100
AcDbEntity
  8
Defpoints
 62
     0
100
AcDbPoint
 10
145.8931147282135
 20
32.41039150703909
 30
0.0
  0
POINT
  5
490
330
486
100
AcDbEntity
  8
Defpoints
 62
     0
100
AcDbPoint
 10
145.8931147282135
 20
0.5
 30
0.0
  0
ENDBLK
  5
491
330
486
100
AcDbEntity
  8
0
 48
0.5
100
AcDbBlockEnd
  0
BLOCK
  5
496
330
495
100
AcDbEntity
  8
0
 48
0.5
100
AcDbBlockBegin
  2
*D28
 70
     1
 10
0.0
 20
0.0
 30
0.0
  3
*D28
  1
*D30
  0
LINE
  5
497
330
495
100
AcDbEntity
  8
文字・寸法線
 62
     0
370
    -2
100
AcDbLine
 10
43.52923885604218
 20
30.78539150703864
 30
0.0
 11
43.52923885604218
 21
9.344787183214976
 31
0.0
  0
LINE
  5
498
330
495
100
AcDbEntity
  8
文字・寸法線
 62
     0
370
    -2
100
AcDbLine
 10
141.5292388560422
 20
30.78539150703955
 30
0.0
 11
141.5292388560422
 21
9.344787183214976
 31
0.0
  0
LINE
  5
499
330
495
100
AcDbEntity
  8
文字・寸法線
 62
     0
370
    -2
100
AcDbLine
 10
46.02923885604218
 20
9.844787183214976
 30
0.0
 11
139.0292388560422
 21
9.844787183214976
 31
0.0
  0
SOLID
  5
49A
330
495
100
AcDbEntity
  8
文字・寸法線
 62
     0
100
AcDbTrace
 10
46.02923885604218
 20
10.26145384988164
 30
0.0
 11
46.02923885604218
 21
9.42812051654831
 31
0.0
 12
43.52923885604218
 22
9.844787183214976
 32
0.0
 13
43.52923885604218
 23
9.844787183214976
 33
0.0
  0
SOLID
  5
49B
330
495
100
AcDbEntity
  8
文字・寸法線
 62
     0
100
AcDbTrace
 10
139.0292388560422
 20
9.42812051654831
 30
0.0
 11
139.0292388560422
 21
10.26145384988164
 31
0.0
 12
141.5292388560422
 22
9.844787183214976
 32
0.0
 13
141.5292388560422
 23
9.844787183214976
 33
0.0
  0
MTEXT
  5
49C
330
495
100
AcDbEntity
  8
文字・寸法線
 62
     0
100
AcDbMText
 10
91.8418121381153
 20
12.05778172618905
 30
0.0
 40
3.0
 41
0.0
 46
0.0
 71
     5
 72
     1
  1
%%c73
 73
     1
 44
1.0
  0
POINT
  5
49D
330
495
100
AcDbEntity
  8
Defpoints
 62
     0
100
AcDbPoint
 10
43.52923885604218
 20
31.41039150703864
 30
0.0
  0
POINT
  5
49E
330
495
100
AcDbEntity
  8
Defpoints
 62
     0
100
AcDbPoint
 10
141.5292388560422
 20
31.41039150703955
 30
0.0
  0
POINT
  5
49F
330
495
100
AcDbEntity
  8
Defpoints
 62
     0
100
AcDbPoint
 10
141.5292388560422
 20
9.844787183214976
 30
0.0
  0
ENDBLK
  5
4A0
330
495
100
AcDbEntity
  8
0
 48
0.5
100
AcDbBlockEnd
  0
BLOCK
  5
528
330
527
100
AcDbEntity
  8
0
 48
0.5
100
AcDbBlockBegin
  2
*D29
 70
     1
 10
0.0
 20
0.0
 30
0.0
  3
*D29
  1
*D31
  0
LINE
  5
529
330
527
100
AcDbEntity
  8
文字・寸法線
 62
     0
370
    -2
100
AcDbLine
 10
81.02923885604196
 20
35.78539150703909
 30
0.0
 11
81.02923885604196
 21
27.33512186285861
 31
0.0
  0
LINE
  5
52A
330
527
100
AcDbEntity
  8
文字・寸法線
 62
     0
370
    -2
100
AcDbLine
 10
104.029238856042
 20
35.78539150703955
 30
0.0
 11
104.029238856042
 21
27.33512186285861
 31
0.0
  0
LINE
  5
52B
330
527
100
AcDbEntity
  8
文字・寸法線
 62
     0
370
    -2
100
AcDbLine
 10
83.52923885604196
 20
27.83512186285861
 30
0.0
 11
101.529238856042
 21
27.83512186285861
 31
0.0
  0
SOLID
  5
52C
330
527
100
AcDbEntity
  8
文字・寸法線
 62
     0
100
AcDbTrace
 10
83.52923885604196
 20
28.25178852952528
 30
0.0
 11
83.52923885604196
 21
27.41845519619195
 31
0.0
 12
81.02923885604196
 22
27.83512186285861
 32
0.0
 13
81.02923885604196
 23
27.83512186285861
 33
0.0
  0
SOLID
  5
52D
330
527
100
AcDbEntity
  8
文字・寸法線
 62
     0
100
AcDbTrace
 10
101.529238856042
 20
27.41845519619195
 30
0.0
 11
101.529238856042
 21
28.25178852952528
 31
0.0
 12
104.029238856042
 22
27.83512186285861
 32
0.0
 13
104.029238856042
 23
27.83512186285861
 33
0.0
  0
MTEXT
  5
52E
330
527
100
AcDbEntity
  8
文字・寸法線
 62
     0
100
AcDbMText
 10
92.52923885604196
 20
30.04811640583269
 30
0.0
 40
3.0
 41
0.0
 46
0.0
 71
     5
 72
     1
  1
%%c23
 73
     1
 44
1.0
  0
POINT
  5
52F
330
527
100
AcDbEntity
  8
Defpoints
 62
     0
100
AcDbPoint
 10
81.02923885604196
 20
36.41039150703909
 30
0.0
  0
POINT
  5
530
330
527
100
AcDbEntity
  8
Defpoints
 62
     0
100
AcDbPoint
 10
104.029238856042
 20
36.41039150703955
 30
0.0
  0
POINT
  5
531
330
527
100
AcDbEntity
  8
Defpoints
 62
     0
100
AcDbPoint
 10
104.029238856042
 20
27.83512186285861
 30
0.0
  0
ENDBLK
  5
532
330
527
100
AcDbEntity
  8
0
 48
0.5
100
AcDbBlockEnd
  0
BLOCK
  5
537
330
536
100
AcDbEntity
  8
0
 48
0.5
100
AcDbBlockBegin
  2
*D30
 70
     1
 10
0.0
 20
0.0
 30
0.0
  3
*D30
  1
*D32
  0
LINE
  5
538
330
536
100
AcDbEntity
  8
文字・寸法線
 62
     0
370
    -2
100
AcDbLine
 10
77.02923885604196
 20
30.78539150703909
 30
0.0
 11
77.02923885604196
 21
17.71929868458301
 31
0.0
  0
LINE
  5
539
330
536
100
AcDbEntity
  8
文字・寸法線
 62
     0
370
    -2
100
AcDbLine
 10
108.029238856042
 20
30.78539150703955
 30
0.0
 11
108.029238856042
 21
17.71929868458301
 31
0.0
  0
LINE
  5
53A
330
536
100
AcDbEntity
  8
文字・寸法線
 62
     0
370
    -2
100
AcDbLine
 10
79.52923885604196
 20
18.21929868458301
 30
0.0
 11
105.529238856042
 21
18.21929868458301
 31
0.0
  0
SOLID
  5
53B
330
536
100
AcDbEntity
  8
文字・寸法線
 62
     0
100
AcDbTrace
 10
79.52923885604196
 20
18.63596535124968
 30
0.0
 11
79.52923885604196
 21
17.80263201791634
 31
0.0
 12
77.02923885604196
 22
18.21929868458301
 32
0.0
 13
77.02923885604196
 23
18.21929868458301
 33
0.0
  0
SOLID
  5
53C
330
536
100
AcDbEntity
  8
文字・寸法線
 62
     0
100
AcDbTrace
 10
105.529238856042
 20
17.80263201791634
 30
0.0
 11
105.529238856042
 21
18.63596535124968
 31
0.0
 12
108.029238856042
 22
18.21929868458301
 32
0.0
 13
108.029238856042
 23
18.21929868458301
 33
0.0
  0
MTEXT
  5
53D
330
536
100
AcDbEntity
  8
文字・寸法線
 62
     0
100
AcDbMText
 10
92.46925625041035
 20
20.43229322755709
 30
0.0
 40
3.0
 41
0.0
 46
0.0
 71
     5
 72
     1
  1
%%c25
 73
     1
 44
1.0
  0
POINT
  5
53E
330
536
100
AcDbEntity
  8
Defpoints
 62
     0
100
AcDbPoint
 10
77.02923885604196
 20
31.41039150703909
 30
0.0
  0
POINT
  5
53F
330
536
100
AcDbEntity
  8
Defpoints
 62
     0
100
AcDbPoint
 10
108.029238856042
 20
31.41039150703955
 30
0.0
  0
POINT
  5
540
330
536
100
AcDbEntity
  8
Defpoints
 62
     0
100
AcDbPoint
 10
108.029238856042
 20
18.21929868458301
 30
0.0
  0
ENDBLK
  5
541
330
536
100
AcDbEntity
  8
0
 48
0.5
100
AcDbBlockEnd
  0
BLOCK
  5
623
330
622
100
AcDbEntity
  8
0
100
AcDbBlockBegin
  2
*D31
 70
     1
 10
0.0
 20
0.0
 30
0.0
  3
*D31
  1
*D33
  0
LINE
  5
625
330
622
100
AcDbEntity
  8
文字・寸法線
 62
     0
370
    -2
100
AcDbLine
 10
321.9395909592643
 20
147.8712191096307
 30
0.0
 11
244.2935457850119
 21
147.8712191096307
 31
0.0
  0
LINE
  5
626
330
622
100
AcDbEntity
  8
文字・寸法線
 62
     0
370
    -2
100
AcDbLine
 10
279.4366605132252
 20
109.1017870958658
 30
0.0
 11
244.2935457850119
 21
109.1017870958658
 31
0.0
  0
LINE
  5
627
330
622
100
AcDbEntity
  8
文字・寸法線
 62
     0
370
    -2
100
AcDbLine
 10
244.7935457850119
 20
145.3712191096307
 30
0.0
 11
244.7935457850119
 21
111.6017870958658
 31
0.0
  0
SOLID
  5
628
330
622
100
AcDbEntity
  8
文字・寸法線
 62
     0
100
AcDbTrace
 10
245.2102124516786
 20
145.3712191096307
 30
0.0
 11
244.3768791183452
 21
145.3712191096307
 31
0.0
 12
244.7935457850119
 22
147.8712191096307
 32
0.0
 13
244.7935457850119
 23
147.8712191096307
 33
0.0
  0
SOLID
  5
629
330
622
100
AcDbEntity
  8
文字・寸法線
 62
     0
100
AcDbTrace
 10
244.3768791183452
 20
111.6017870958658
 30
0.0
 11
245.2102124516786
 21
111.6017870958658
 31
0.0
 12
244.7935457850119
 22
109.1017870958658
 32
0.0
 13
244.7935457850119
 23
109.1017870958658
 33
0.0
  0
MTEXT
  5
62A
330
622
100
AcDbEntity
  8
文字・寸法線
 62
     0
100
AcDbMText
 10
242.637850014207
 20
128.4865031027483
 30
0.0
 40
3.0
 41
0.0
 46
0.0
 71
     5
 72
     1
  1
33
 11
0.0
 21
1.0
 31
0.0
 73
     1
 44
1.0
  0
POINT
  5
62B
330
622
100
AcDbEntity
  8
Defpoints
 62
     0
100
AcDbPoint
 10
322.5645909592643
 20
147.8712191096307
 30
0.0
  0
POINT
  5
62C
330
622
100
AcDbEntity
  8
Defpoints
 62
     0
100
AcDbPoint
 10
280.0616605132252
 20
109.1017870958658
 30
0.0
  0
POINT
  5
62D
330
622
100
AcDbEntity
  8
Defpoints
 62
     0
100
AcDbPoint
 10
244.7935457850119
 20
109.1017870958658
 30
0.0
  0
ENDBLK
  5
624
330
622
100
AcDbEntity
  8
0
100
AcDbBlockEnd
  0
BLOCK
  5
62F
330
62E
100
AcDbEntity
  8
0
100
AcDbBlockBegin
  2
*D32
 70
     1
 10
0.0
 20
0.0
 30
0.0
  3
*D32
  1
*D34
  0
LINE
  5
631
330
62E
100
AcDbEntity
  8
文字・寸法線
 62
     0
370
    -2
100
AcDbLine
 10
322.5645909592643
 20
147.8712191096307
 30
0.0
 11
260.7006513686104
 21
147.8712191096307
 31
0.0
  0
LINE
  5
632
330
62E
100
AcDbEntity
  8
文字・寸法線
 62
     0
370
    -2
100
AcDbLine
 10
319.0866605132253
 20
137.8712179529238
 30
0.0
 11
260.7006513686104
 21
137.8712179529238
 31
0.0
  0
LINE
  5
633
330
62E
100
AcDbEntity
  8
文字・寸法線
 62
     0
370
    -2
100
AcDbLine
 10
261.2006513686104
 20
145.3712191096307
 30
0.0
 11
261.2006513686104
 21
140.3712179529238
 31
0.0
  0
SOLID
  5
634
330
62E
100
AcDbEntity
  8
文字・寸法線
 62
     0
100
AcDbTrace
 10
261.617318035277
 20
145.3712191096307
 30
0.0
 11
260.7839847019437
 21
145.3712191096307
 31
0.0
 12
261.2006513686104
 22
147.8712191096307
 32
0.0
 13
261.2006513686104
 23
147.8712191096307
 33
0.0
  0
SOLID
  5
635
330
62E
100
AcDbEntity
  8
文字・寸法線
 62
     0
100
AcDbTrace
 10
260.7839847019437
 20
140.3712179529238
 30
0.0
 11
261.617318035277
 21
140.3712179529238
 31
0.0
 12
261.2006513686104
 22
137.8712179529238
 32
0.0
 13
261.2006513686104
 23
137.8712179529238
 33
0.0
  0
MTEXT
  5
636
330
62E
100
AcDbEntity
  8
文字・寸法線
 62
     0
100
AcDbMText
 10
259.0449555978054
 20
142.8712185312772
 30
0.0
 40
3.0
 41
0.0
 46
0.0
 71
     5
 72
     1
  1
8
 11
0.0
 21
1.0
 31
0.0
 73
     1
 44
1.0
  0
POINT
  5
637
330
62E
100
AcDbEntity
  8
Defpoints
 62
     0
100
AcDbPoint
 10
323.1895909592643
 20
147.8712191096307
 30
0.0
  0
POINT
  5
638
330
62E
100
AcDbEntity
  8
Defpoints
 62
     0
100
AcDbPoint
 10
319.7116605132253
 20
137.8712179529238
 30
0.0
  0
POINT
  5
639
330
62E
100
AcDbEntity
  8
Defpoints
 62
     0
100
AcDbPoint
 10
261.2006513686104
 20
137.8712179529238
 30
0.0
  0
ENDBLK
  5
630
330
62E
100
AcDbEntity
  8
0
100
AcDbBlockEnd
  0
BLOCK
  5
63B
330
63A
100
AcDbEntity
  8
0
100
AcDbBlockBegin
  2
*D33
 70
     1
 10
0.0
 20
0.0
 30
0.0
  3
*D33
  1
*D35
  0
LINE
  5
63D
330
63A
100
AcDbEntity
  8
文字・寸法線
 62
     0
370
    -2
100
AcDbLine
 10
326.0084572829498
 20
230.058104898013
 30
0.0
 11
267.8576316988526
 21
230.058104898013
 31
0.0
  0
LINE
  5
63E
330
63A
100
AcDbEntity
  8
文字・寸法線
 62
     0
370
    -2
100
AcDbLine
 10
326.0084572829494
 20
206.058104898013
 30
0.0
 11
267.8576316988526
 21
206.058104898013
 31
0.0
  0
LINE
  5
63F
330
63A
100
AcDbEntity
  8
文字・寸法線
 62
     0
370
    -2
100
AcDbLine
 10
268.3576316988526
 20
227.558104898013
 30
0.0
 11
268.3576316988526
 21
208.558104898013
 31
0.0
  0
SOLID
  5
640
330
63A
100
AcDbEntity
  8
文字・寸法線
 62
     0
100
AcDbTrace
 10
268.7742983655193
 20
227.558104898013
 30
0.0
 11
267.9409650321859
 21
227.558104898013
 31
0.0
 12
268.3576316988526
 22
230.058104898013
 32
0.0
 13
268.3576316988526
 23
230.058104898013
 33
0.0
  0
SOLID
  5
641
330
63A
100
AcDbEntity
  8
文字・寸法線
 62
     0
100
AcDbTrace
 10
267.9409650321859
 20
208.558104898013
 30
0.0
 11
268.7742983655193
 21
208.558104898013
 31
0.0
 12
268.3576316988526
 22
206.058104898013
 32
0.0
 13
268.3576316988526
 23
206.058104898013
 33
0.0
  0
MTEXT
  5
642
330
63A
100
AcDbEntity
  8
文字・寸法線
 62
     0
100
AcDbMText
 10
266.2019359280477
 20
218.2261965917642
 30
0.0
 40
3.0
 41
0.0
 46
0.0
 71
     5
 72
     1
  1
19
 11
0.0
 21
1.0
 31
0.0
 73
     1
 44
1.0
  0
POINT
  5
643
330
63A
100
AcDbEntity
  8
Defpoints
 62
     0
100
AcDbPoint
 10
326.6334572829498
 20
230.058104898013
 30
0.0
  0
POINT
  5
644
330
63A
100
AcDbEntity
  8
Defpoints
 62
     0
100
AcDbPoint
 10
326.6334572829494
 20
206.058104898013
 30
0.0
  0
POINT
  5
645
330
63A
100
AcDbEntity
  8
Defpoints
 62
     0
100
AcDbPoint
 10
268.3576316988526
 20
206.058104898013
 30
0.0
  0
ENDBLK
  5
63C
330
63A
100
AcDbEntity
  8
0
100
AcDbBlockEnd
  0
BLOCK
  5
647
330
646
100
AcDbEntity
  8
0
100
AcDbBlockBegin
  2
*D34
 70
     1
 10
0.0
 20
0.0
 30
0.0
  3
*D34
  1
*D36
  0
LINE
  5
649
330
646
100
AcDbEntity
  8
文字・寸法線
 62
     0
370
    -2
100
AcDbLine
 10
279.4366605132252
 20
109.1017870958658
 30
0.0
 11
260.7006513686104
 21
109.1017870958658
 31
0.0
  0
LINE
  5
64A
330
646
100
AcDbEntity
  8
文字・寸法線
 62
     0
370
    -2
100
AcDbLine
 10
319.0866605132253
 20
137.8712179529238
 30
0.0
 11
260.7006513686104
 21
137.8712179529238
 31
0.0
  0
LINE
  5
64B
330
646
100
AcDbEntity
  8
文字・寸法線
 62
     0
370
    -2
100
AcDbLine
 10
261.2006513686104
 20
111.6017870958658
 30
0.0
 11
261.2006513686104
 21
135.3712179529238
 31
0.0
  0
SOLID
  5
64C
330
646
100
AcDbEntity
  8
文字・寸法線
 62
     0
100
AcDbTrace
 10
260.7839847019437
 20
111.6017870958658
 30
0.0
 11
261.617318035277
 21
111.6017870958658
 31
0.0
 12
261.2006513686104
 22
109.1017870958658
 32
0.0
 13
261.2006513686104
 23
109.1017870958658
 33
0.0
  0
SOLID
  5
64D
330
646
100
AcDbEntity
  8
文字・寸法線
 62
     0
100
AcDbTrace
 10
261.617318035277
 20
135.3712179529238
 30
0.0
 11
260.7839847019437
 21
135.3712179529238
 31
0.0
 12
261.2006513686104
 22
137.8712179529238
 32
0.0
 13
261.2006513686104
 23
137.8712179529238
 33
0.0
  0
MTEXT
  5
64E
330
646
100
AcDbEntity
  8
文字・寸法線
 62
     0
100
AcDbMText
 10
259.0449555978054
 20
123.4865025243948
 30
0.0
 40
3.0
 41
0.0
 46
0.0
 71
     5
 72
     1
  1
25
 11
0.0
 21
1.0
 31
0.0
 73
     1
 44
1.0
  0
POINT
  5
64F
330
646
100
AcDbEntity
  8
Defpoints
 62
     0
100
AcDbPoint
 10
280.0616605132252
 20
109.1017870958658
 30
0.0
  0
POINT
  5
650
330
646
100
AcDbEntity
  8
Defpoints
 62
     0
100
AcDbPoint
 10
319.7116605132253
 20
137.8712179529238
 30
0.0
  0
POINT
  5
651
330
646
100
AcDbEntity
  8
Defpoints
 62
     0
100
AcDbPoint
 10
261.2006513686104
 20
137.8712179529238
 30
0.0
  0
ENDBLK
  5
648
330
646
100
AcDbEntity
  8
0
100
AcDbBlockEnd
  0
BLOCK
  5
653
330
652
100
AcDbEntity
  8
0
100
AcDbBlockBegin
  2
*D35
 70
     1
 10
0.0
 20
0.0
 30
0.0
  3
*D35
  1
*D37
  0
LINE
  5
655
330
652
100
AcDbEntity
  8
文字・寸法線
 62
     0
370
    -2
100
AcDbLine
 10
279.4366605132252
 20
109.1017870958658
 30
0.0
 11
244.2935457850119
 21
109.1017870958658
 31
0.0
  0
LINE
  5
656
330
652
100
AcDbEntity
  8
文字・寸法線
 62
     0
370
    -2
100
AcDbLine
 10
284.0727846410539
 20
108.1017870958653
 30
0.0
 11
244.2935457850119
 21
108.1017870958653
 31
0.0
  0
LINE
  5
657
330
652
100
AcDbEntity
  8
文字・寸法線
 62
     0
370
    -2
100
AcDbLine
 10
244.7935457850119
 20
108.1017870958653
 30
0.0
 11
244.7935457850119
 21
93.91545239827492
 31
0.0
  0
LINE
  5
658
330
652
100
AcDbEntity
  8
文字・寸法線
 62
     0
370
    -2
100
AcDbLine
 10
244.7935457850119
 20
109.1017870958658
 30
0.0
 11
244.7935457850119
 21
108.1017870958653
 31
0.0
  0
LINE
  5
659
330
652
100
AcDbEntity
  8
文字・寸法線
 62
     0
370
    -2
100
AcDbLine
 10
244.7935457850119
 20
111.6017870958658
 30
0.0
 11
244.7935457850119
 21
114.1017870958658
 31
0.0
  0
LINE
  5
65A
330
652
100
AcDbEntity
  8
文字・寸法線
 62
     0
370
    -2
100
AcDbLine
 10
244.7935457850119
 20
105.6017870958653
 30
0.0
 11
244.7935457850119
 21
103.1017870958653
 31
0.0
  0
SOLID
  5
65B
330
652
100
AcDbEntity
  8
文字・寸法線
 62
     0
100
AcDbTrace
 10
244.3768791183452
 20
111.6017870958658
 30
0.0
 11
245.2102124516786
 21
111.6017870958658
 31
0.0
 12
244.7935457850119
 22
109.1017870958658
 32
0.0
 13
244.7935457850119
 23
109.1017870958658
 33
0.0
  0
SOLID
  5
65C
330
652
100
AcDbEntity
  8
文字・寸法線
 62
     0
100
AcDbTrace
 10
245.2102124516786
 20
105.6017870958653
 30
0.0
 11
244.3768791183452
 21
105.6017870958653
 31
0.0
 12
244.7935457850119
 22
108.1017870958653
 32
0.0
 13
244.7935457850119
 23
108.1017870958653
 33
0.0
  0
MTEXT
  5
65D
330
652
100
AcDbEntity
  8
文字・寸法線
 62
     0
100
AcDbMText
 10
242.637850014207
 20
97.1434537625314
 30
0.0
 40
3.0
 41
0.0
 46
0.0
 71
     5
 72
     1
  1
1.5
 11
0.0
 21
1.0
 31
0.0
 73
     1
 44
1.0
  0
POINT
  5
65E
330
652
100
AcDbEntity
  8
Defpoints
 62
     0
100
AcDbPoint
 10
280.0616605132252
 20
109.1017870958658
 30
0.0
  0
POINT
  5
65F
330
652
100
AcDbEntity
  8
Defpoints
 62
     0
100
AcDbPoint
 10
284.6977846410539
 20
108.1017870958653
 30
0.0
  0
POINT
  5
660
330
652
100
AcDbEntity
  8
Defpoints
 62
     0
100
AcDbPoint
 10
244.7935457850119
 20
108.1017870958653
 30
0.0
  0
ENDBLK
  5
654
330
652
100
AcDbEntity
  8
0
100
AcDbBlockEnd
  0
BLOCK
  5
662
330
661
100
AcDbEntity
  8
0
100
AcDbBlockBegin
  2
*D36
 70
     1
 10
0.0
 20
0.0
 30
0.0
  3
*D36
  1
*D38
  0
LINE
  5
664
330
661
100
AcDbEntity
  8
文字・寸法線
 62
     0
370
    -2
100
AcDbLine
 10
383.3227846410539
 20
113.1017870958662
 30
0.0
 11
399.603889808847
 21
113.1017870958662
 31
0.0
  0
LINE
  5
665
330
661
100
AcDbEntity
  8
文字・寸法線
 62
     0
370
    -2
100
AcDbLine
 10
383.3227846410539
 20
108.1017870958662
 30
0.0
 11
399.603889808847
 21
108.1017870958662
 31
0.0
  0
LINE
  5
666
330
661
100
AcDbEntity
  8
文字・寸法線
 62
     0
370
    -2
100
AcDbLine
 10
399.103889808847
 20
113.1017870958662
 30
0.0
 11
399.103889808847
 21
108.1017870958662
 31
0.0
  0
LINE
  5
667
330
661
100
AcDbEntity
  8
文字・寸法線
 62
     0
370
    -2
100
AcDbLine
 10
399.103889808847
 20
115.6017870958662
 30
0.0
 11
399.103889808847
 21
118.1017870958662
 31
0.0
  0
LINE
  5
668
330
661
100
AcDbEntity
  8
文字・寸法線
 62
     0
370
    -2
100
AcDbLine
 10
399.103889808847
 20
105.6017870958662
 30
0.0
 11
399.103889808847
 21
103.1017870958662
 31
0.0
  0
SOLID
  5
669
330
661
100
AcDbEntity
  8
文字・寸法線
 62
     0
100
AcDbTrace
 10
398.6872231421804
 20
115.6017870958662
 30
0.0
 11
399.5205564755137
 21
115.6017870958662
 31
0.0
 12
399.103889808847
 22
113.1017870958662
 32
0.0
 13
399.103889808847
 23
113.1017870958662
 33
0.0
  0
SOLID
  5
66A
330
661
100
AcDbEntity
  8
文字・寸法線
 62
     0
100
AcDbTrace
 10
399.5205564755137
 20
105.6017870958662
 30
0.0
 11
398.6872231421804
 21
105.6017870958662
 31
0.0
 12
399.103889808847
 22
108.1017870958662
 32
0.0
 13
399.103889808847
 23
108.1017870958662
 33
0.0
  0
MTEXT
  5
66B
330
661
100
AcDbEntity
  8
文字・寸法線
 62
     0
100
AcDbMText
 10
396.9543331922031
 20
110.6017870958662
 30
0.0
 40
3.0
 41
0.0
 46
0.0
 71
     5
 72
     1
  1
5
 11
0.0
 21
1.0
 31
0.0
 73
     1
 44
1.0
  0
POINT
  5
66C
330
661
100
AcDbEntity
  8
Defpoints
 62
     0
100
AcDbPoint
 10
382.6977846410539
 20
113.1017870958662
 30
0.0
  0
POINT
  5
66D
330
661
100
AcDbEntity
  8
Defpoints
 62
     0
100
AcDbPoint
 10
382.6977846410539
 20
108.1017870958662
 30
0.0
  0
POINT
  5
66E
330
661
100
AcDbEntity
  8
Defpoints
 62
     0
100
AcDbPoint
 10
399.103889808847
 20
108.1017870958662
 30
0.0
  0
ENDBLK
  5
663
330
661
100
AcDbEntity
  8
0
100
AcDbBlockEnd
  0
BLOCK
  5
670
330
66F
100
AcDbEntity
  8
0
100
AcDbBlockBegin
  2
*D37
 70
     1
 10
0.0
 20
0.0
 30
0.0
  3
*D37
  1
*D39
  0
LINE
  5
672
330
66F
100
AcDbEntity
  8
文字・寸法線
 62
     0
370
    -2
100
AcDbLine
 10
280.0616605132252
 20
108.4767870958658
 30
0.0
 11
280.0616605132252
 21
76.6913955888267
 31
0.0
  0
LINE
  5
673
330
66F
100
AcDbEntity
  8
文字・寸法線
 62
     0
370
    -2
100
AcDbLine
 10
387.0616605132252
 20
108.4767870958658
 30
0.0
 11
387.0616605132252
 21
76.6913955888267
 31
0.0
  0
LINE
  5
674
330
66F
100
AcDbEntity
  8
文字・寸法線
 62
     0
370
    -2
100
AcDbLine
 10
282.5616605132252
 20
77.1913955888267
 30
0.0
 11
384.5616605132252
 21
77.1913955888267
 31
0.0
  0
SOLID
  5
675
330
66F
100
AcDbEntity
  8
文字・寸法線
 62
     0
100
AcDbTrace
 10
282.5616605132252
 20
77.60806225549337
 30
0.0
 11
282.5616605132252
 21
76.77472892216002
 31
0.0
 12
280.0616605132252
 22
77.1913955888267
 32
0.0
 13
280.0616605132252
 23
77.1913955888267
 33
0.0
  0
SOLID
  5
676
330
66F
100
AcDbEntity
  8
文字・寸法線
 62
     0
100
AcDbTrace
 10
384.5616605132252
 20
76.77472892216002
 30
0.0
 11
384.5616605132252
 21
77.60806225549337
 31
0.0
 12
387.0616605132252
 22
77.1913955888267
 32
0.0
 13
387.0616605132252
 23
77.1913955888267
 33
0.0
  0
MTEXT
  5
677
330
66F
100
AcDbEntity
  8
文字・寸法線
 62
     0
100
AcDbMText
 10
333.5616605132252
 20
79.78501768978167
 30
0.0
 40
3.0
 41
0.0
 46
0.0
 71
     5
 72
     1
  1
(%%c80)
 73
     1
 44
1.0
  0
POINT
  5
678
330
66F
100
AcDbEntity
  8
Defpoints
 62
     0
100
AcDbPoint
 10
280.0616605132252
 20
109.1017870958658
 30
0.0
  0
POINT
  5
679
330
66F
100
AcDbEntity
  8
Defpoints
 62
     0
100
AcDbPoint
 10
387.0616605132252
 20
109.1017870958658
 30
0.0
  0
POINT
  5
67A
330
66F
100
AcDbEntity
  8
Defpoints
 62
     0
100
AcDbPoint
 10
387.0616605132252
 20
77.1913955888267
 30
0.0
  0
ENDBLK
  5
671
330
66F
100
AcDbEntity
  8
0
100
AcDbBlockEnd
  0
BLOCK
  5
67C
330
67B
100
AcDbEntity
  8
0
100
AcDbBlockBegin
  2
*D38
 70
     1
 10
0.0
 20
0.0
 30
0.0
  3
*D38
  1
*D40
  0
LINE
  5
67E
330
67B
100
AcDbEntity
  8
文字・寸法線
 62
     0
370
    -2
100
AcDbLine
 10
284.6977846410539
 20
107.4767870958653
 30
0.0
 11
284.6977846410539
 21
86.03618277204167
 31
0.0
  0
LINE
  5
67F
330
67B
100
AcDbEntity
  8
文字・寸法線
 62
     0
370
    -2
100
AcDbLine
 10
382.6977846410539
 20
107.4767870958662
 30
0.0
 11
382.6977846410539
 21
86.03618277204167
 31
0.0
  0
LINE
  5
680
330
67B
100
AcDbEntity
  8
文字・寸法線
 62
     0
370
    -2
100
AcDbLine
 10
287.1977846410539
 20
86.53618277204167
 30
0.0
 11
380.1977846410539
 21
86.53618277204167
 31
0.0
  0
SOLID
  5
681
330
67B
100
AcDbEntity
  8
文字・寸法線
 62
     0
100
AcDbTrace
 10
287.1977846410539
 20
86.95284943870834
 30
0.0
 11
287.1977846410539
 21
86.119516105375
 31
0.0
 12
284.6977846410539
 22
86.53618277204167
 32
0.0
 13
284.6977846410539
 23
86.53618277204167
 33
0.0
  0
SOLID
  5
682
330
67B
100
AcDbEntity
  8
文字・寸法線
 62
     0
100
AcDbTrace
 10
380.1977846410539
 20
86.119516105375
 30
0.0
 11
380.1977846410539
 21
86.95284943870834
 31
0.0
 12
382.6977846410539
 22
86.53618277204167
 32
0.0
 13
382.6977846410539
 23
86.53618277204167
 33
0.0
  0
MTEXT
  5
683
330
67B
100
AcDbEntity
  8
文字・寸法線
 62
     0
100
AcDbMText
 10
333.010357923127
 20
88.74917731501574
 30
0.0
 40
3.0
 41
0.0
 46
0.0
 71
     5
 72
     1
  1
%%c73
 73
     1
 44
1.0
  0
POINT
  5
684
330
67B
100
AcDbEntity
  8
Defpoints
 62
     0
100
AcDbPoint
 10
284.6977846410539
 20
108.1017870958653
 30
0.0
  0
POINT
  5
685
330
67B
100
AcDbEntity
  8
Defpoints
 62
     0
100
AcDbPoint
 10
382.6977846410539
 20
108.1017870958662
 30
0.0
  0
POINT
  5
686
330
67B
100
AcDbEntity
  8
Defpoints
 62
     0
100
AcDbPoint
 10
382.6977846410539
 20
86.53618277204167
 30
0.0
  0
ENDBLK
  5
67D
330
67B
100
AcDbEntity
  8
0
100
AcDbBlockEnd
  0
BLOCK
  5
688
330
687
100
AcDbEntity
  8
0
100
AcDbBlockBegin
  2
*D39
 70
     1
 10
0.0
 20
0.0
 30
0.0
  3
*D39
  1
*D41
  0
LINE
  5
68A
330
687
100
AcDbEntity
  8
文字・寸法線
 62
     0
370
    -2
100
AcDbLine
 10
322.1977846410537
 20
112.4767870958658
 30
0.0
 11
322.1977846410537
 21
104.0265174516853
 31
0.0
  0
LINE
  5
68B
330
687
100
AcDbEntity
  8
文字・寸法線
 62
     0
370
    -2
100
AcDbLine
 10
345.1977846410537
 20
112.4767870958662
 30
0.0
 11
345.1977846410537
 21
104.0265174516853
 31
0.0
  0
LINE
  5
68C
330
687
100
AcDbEntity
  8
文字・寸法線
 62
     0
370
    -2
100
AcDbLine
 10
324.6977846410537
 20
104.5265174516853
 30
0.0
 11
342.6977846410537
 21
104.5265174516853
 31
0.0
  0
SOLID
  5
68D
330
687
100
AcDbEntity
  8
文字・寸法線
 62
     0
100
AcDbTrace
 10
324.6977846410537
 20
104.943184118352
 30
0.0
 11
324.6977846410537
 21
104.1098507850186
 31
0.0
 12
322.1977846410537
 22
104.5265174516853
 32
0.0
 13
322.1977846410537
 23
104.5265174516853
 33
0.0
  0
SOLID
  5
68E
330
687
100
AcDbEntity
  8
文字・寸法線
 62
     0
100
AcDbTrace
 10
342.6977846410537
 20
104.1098507850186
 30
0.0
 11
342.6977846410537
 21
104.943184118352
 31
0.0
 12
345.1977846410537
 22
104.5265174516853
 32
0.0
 13
345.1977846410537
 23
104.5265174516853
 33
0.0
  0
MTEXT
  5
68F
330
687
100
AcDbEntity
  8
文字・寸法線
 62
     0
100
AcDbMText
 10
333.6977846410537
 20
106.7395119946594
 30
0.0
 40
3.0
 41
0.0
 46
0.0
 71
     5
 72
     1
  1
%%c23
 73
     1
 44
1.0
  0
POINT
  5
690
330
687
100
AcDbEntity
  8
Defpoints
 62
     0
100
AcDbPoint
 10
322.1977846410537
 20
113.1017870958658
 30
0.0
  0
POINT
  5
691
330
687
100
AcDbEntity
  8
Defpoints
 62
     0
100
AcDbPoint
 10
345.1977846410537
 20
113.1017870958662
 30
0.0
  0
POINT
  5
692
330
687
100
AcDbEntity
  8
Defpoints
 62
     0
100
AcDbPoint
 10
345.1977846410537
 20
104.5265174516853
 30
0.0
  0
ENDBLK
  5
689
330
687
100
AcDbEntity
  8
0
100
AcDbBlockEnd
  0
BLOCK
  5
694
330
693
100
AcDbEntity
  8
0
100
AcDbBlockBegin
  2
*D40
 70
     1
 10
0.0
 20
0.0
 30
0.0
  3
*D40
  1
*D42
  0
LINE
  5
696
330
693
100
AcDbEntity
  8
文字・寸法線
 62
     0
370
    -2
100
AcDbLine
 10
318.1977846410537
 20
107.4767870958658
 30
0.0
 11
318.1977846410537
 21
94.4106942734097
 31
0.0
  0
LINE
  5
697
330
693
100
AcDbEntity
  8
文字・寸法線
 62
     0
370
    -2
100
AcDbLine
 10
349.1977846410537
 20
107.4767870958662
 30
0.0
 11
349.1977846410537
 21
94.4106942734097
 31
0.0
  0
LINE
  5
698
330
693
100
AcDbEntity
  8
文字・寸法線
 62
     0
370
    -2
100
AcDbLine
 10
320.6977846410537
 20
94.9106942734097
 30
0.0
 11
346.6977846410537
 21
94.9106942734097
 31
0.0
  0
SOLID
  5
699
330
693
100
AcDbEntity
  8
文字・寸法線
 62
     0
100
AcDbTrace
 10
320.6977846410537
 20
95.32736094007637
 30
0.0
 11
320.6977846410537
 21
94.49402760674303
 31
0.0
 12
318.1977846410537
 22
94.9106942734097
 32
0.0
 13
318.1977846410537
 23
94.9106942734097
 33
0.0
  0
SOLID
  5
69A
330
693
100
AcDbEntity
  8
文字・寸法線
 62
     0
100
AcDbTrace
 10
346.6977846410537
 20
94.49402760674303
 30
0.0
 11
346.6977846410537
 21
95.32736094007637
 31
0.0
 12
349.1977846410537
 22
94.9106942734097
 32
0.0
 13
349.1977846410537
 23
94.9106942734097
 33
0.0
  0
MTEXT
  5
69B
330
693
100
AcDbEntity
  8
文字・寸法線
 62
     0
100
AcDbMText
 10
333.6378020354221
 20
97.12368881638378
 30
0.0
 40
3.0
 41
0.0
 46
0.0
 71
     5
 72
     1
  1
%%c25
 73
     1
 44
1.0
  0
POINT
  5
69C
330
693
100
AcDbEntity
  8
Defpoints
 62
     0
100
AcDbPoint
 10
318.1977846410537
 20
108.1017870958658
 30
0.0
  0
POINT
  5
69D
330
693
100
AcDbEntity
  8
Defpoints
 62
     0
100
AcDbPoint
 10
349.1977846410537
 20
108.1017870958662
 30
0.0
  0
POINT
  5
69E
330
693
100
AcDbEntity
  8
Defpoints
 62
     0
100
AcDbPoint
 10
349.1977846410537
 20
94.9106942734097
 30
0.0
  0
ENDBLK
  5
695
330
693
100
AcDbEntity
  8
0
100
AcDbBlockEnd
  0
BLOCK
  5
6CB
330
6CA
100
AcDbEntity
  8
0
 48
0.5
100
AcDbBlockBegin
  2
*D41
 70
     1
 10
0.0
 20
0.0
 30
0.0
  3
*D41
  1
*D44
  0
LINE
  5
6CC
330
6CA
100
AcDbEntity
  8
文字・寸法線
 62
     0
370
    -2
100
AcDbLine
 10
80.77104517425255
 20
71.179823520804
 30
0.0
 11
3.12500000000023
 21
71.179823520804
 31
0.0
  0
LINE
  5
6CD
330
6CA
100
AcDbEntity
  8
文字・寸法線
 62
     0
370
    -2
100
AcDbLine
 10
38.2681147282135
 20
32.41039150703909
 30
0.0
 11
3.125000000000227
 21
32.41039150703909
 31
0.0
  0
LINE
  5
6CE
330
6CA
100
AcDbEntity
  8
文字・寸法線
 62
     0
370
    -2
100
AcDbLine
 10
3.62500000000023
 20
68.679823520804
 30
0.0
 11
3.625000000000227
 21
34.91039150703909
 31
0.0
  0
SOLID
  5
6CF
330
6CA
100
AcDbEntity
  8
文字・寸法線
 62
     0
100
AcDbTrace
 10
4.041666666666896
 20
68.679823520804
 30
0.0
 11
3.208333333333563
 21
68.679823520804
 31
0.0
 12
3.62500000000023
 22
71.179823520804
 32
0.0
 13
3.62500000000023
 23
71.179823520804
 33
0.0
  0
SOLID
  5
6D0
330
6CA
100
AcDbEntity
  8
文字・寸法線
 62
     0
100
AcDbTrace
 10
3.208333333333561
 20
34.91039150703909
 30
0.0
 11
4.041666666666894
 21
34.91039150703909
 31
0.0
 12
3.625000000000227
 22
32.41039150703909
 32
0.0
 13
3.625000000000227
 23
32.41039150703909
 33
0.0
  0
MTEXT
  5
6D1
330
6CA
100
AcDbEntity
  8
文字・寸法線
 62
     0
100
AcDbMText
 10
1.469304229195317
 20
51.79510751392155
 30
0.0
 40
3.0
 41
0.0
 46
0.0
 71
     5
 72
     1
  1
33
 11
5.727311270544159E-17
 21
1.0
 31
0.0
 73
     1
 44
1.0
  0
POINT
  5
6D2
330
6CA
100
AcDbEntity
  8
Defpoints
 62
     0
100
AcDbPoint
 10
81.39604517425255
 20
71.179823520804
 30
0.0
  0
POINT
  5
6D3
330
6CA
100
AcDbEntity
  8
Defpoints
 62
     0
100
AcDbPoint
 10
38.8931147282135
 20
32.41039150703909
 30
0.0
  0
POINT
  5
6D4
330
6CA
100
AcDbEntity
  8
Defpoints
 62
     0
100
AcDbPoint
 10
3.625000000000227
 20
32.41039150703909
 30
0.0
  0
ENDBLK
  5
6D5
330
6CA
100
AcDbEntity
  8
0
 48
0.5
100
AcDbBlockEnd
  0
BLOCK
  5
6DF
330
6DE
100
AcDbEntity
  8
0
 48
0.5
100
AcDbBlockBegin
  2
*D42
 70
     1
 10
0.0
 20
0.0
 30
0.0
  3
*D42
  1
*D45
  0
LINE
  5
6E0
330
6DE
100
AcDbEntity
  8
文字・寸法線
 62
     0
370
    -2
100
AcDbLine
 10
81.39604517425255
 20
71.179823520804
 30
0.0
 11
19.53210558359865
 21
71.179823520804
 31
0.0
  0
LINE
  5
6E1
330
6DE
100
AcDbEntity
  8
文字・寸法線
 62
     0
370
    -2
100
AcDbLine
 10
77.9181147282136
 20
61.17982236409705
 30
0.0
 11
19.53210558359865
 21
61.17982236409706
 31
0.0
  0
LINE
  5
6E2
330
6DE
100
AcDbEntity
  8
文字・寸法線
 62
     0
370
    -2
100
AcDbLine
 10
20.03210558359865
 20
68.679823520804
 30
0.0
 11
20.03210558359865
 21
63.67982236409706
 31
0.0
  0
SOLID
  5
6E3
330
6DE
100
AcDbEntity
  8
文字・寸法線
 62
     0
100
AcDbTrace
 10
20.44877225026532
 20
68.679823520804
 30
0.0
 11
19.61543891693198
 21
68.679823520804
 31
0.0
 12
20.03210558359865
 22
71.179823520804
 32
0.0
 13
20.03210558359865
 23
71.179823520804
 33
0.0
  0
SOLID
  5
6E4
330
6DE
100
AcDbEntity
  8
文字・寸法線
 62
     0
100
AcDbTrace
 10
19.61543891693198
 20
63.67982236409706
 30
0.0
 11
20.44877225026532
 21
63.67982236409706
 31
0.0
 12
20.03210558359865
 22
61.17982236409706
 32
0.0
 13
20.03210558359865
 23
61.17982236409706
 33
0.0
  0
MTEXT
  5
6E5
330
6DE
100
AcDbEntity
  8
文字・寸法線
 62
     0
100
AcDbMText
 10
17.87640981279374
 20
66.17982294245053
 30
0.0
 40
3.0
 41
0.0
 46
0.0
 71
     5
 72
     1
  1
8
 11
0.0
 21
1.0
 31
0.0
 73
     1
 44
1.0
  0
POINT
  5
6E6
330
6DE
100
AcDbEntity
  8
Defpoints
 62
     0
100
AcDbPoint
 10
82.02104517425255
 20
71.179823520804
 30
0.0
  0
POINT
  5
6E7
330
6DE
100
AcDbEntity
  8
Defpoints
 62
     0
100
AcDbPoint
 10
78.5431147282136
 20
61.17982236409705
 30
0.0
  0
POINT
  5
6E8
330
6DE
100
AcDbEntity
  8
Defpoints
 62
     0
100
AcDbPoint
 10
20.03210558359865
 20
61.17982236409706
 30
0.0
  0
ENDBLK
  5
6E9
330
6DE
100
AcDbEntity
  8
0
 48
0.5
100
AcDbBlockEnd
  0
BLOCK
  5
701
330
700
100
AcDbEntity
  8
0
 48
0.5
100
AcDbBlockBegin
  2
*D43
 70
     1
 10
0.0
 20
0.0
 30
0.0
  3
*D43
  1
*D46
  0
LINE
  5
702
330
700
100
AcDbEntity
  8
文字・寸法線
 62
     0
370
    -2
100
AcDbLine
 10
84.83991149793815
 20
153.3667093091863
 30
0.0
 11
26.68908591384093
 21
153.3667093091863
 31
0.0
  0
LINE
  5
703
330
700
100
AcDbEntity
  8
文字・寸法線
 62
     0
370
    -2
100
AcDbLine
 10
84.83991149793769
 20
129.3667093091863
 30
0.0
 11
26.68908591384093
 21
129.3667093091863
 31
0.0
  0
LINE
  5
704
330
700
100
AcDbEntity
  8
文字・寸法線
 62
     0
370
    -2
100
AcDbLine
 10
27.18908591384093
 20
150.8667093091863
 30
0.0
 11
27.18908591384093
 21
131.8667093091863
 31
0.0
  0
SOLID
  5
705
330
700
100
AcDbEntity
  8
文字・寸法線
 62
     0
100
AcDbTrace
 10
27.60575258050759
 20
150.8667093091863
 30
0.0
 11
26.77241924717426
 21
150.8667093091863
 31
0.0
 12
27.18908591384093
 22
153.3667093091863
 32
0.0
 13
27.18908591384093
 23
153.3667093091863
 33
0.0
  0
SOLID
  5
706
330
700
100
AcDbEntity
  8
文字・寸法線
 62
     0
100
AcDbTrace
 10
26.77241924717426
 20
131.8667093091863
 30
0.0
 11
27.60575258050759
 21
131.8667093091863
 31
0.0
 12
27.18908591384093
 22
129.3667093091863
 32
0.0
 13
27.18908591384093
 23
129.3667093091863
 33
0.0
  0
MTEXT
  5
707
330
700
100
AcDbEntity
  8
文字・寸法線
 62
     0
100
AcDbMText
 10
25.033390143036
 20
141.5348010029375
 30
0.0
 40
3.0
 41
0.0
 46
0.0
 71
     5
 72
     1
  1
19
 11
0.0
 21
1.0
 31
0.0
 73
     1
 44
1.0
  0
POINT
  5
708
330
700
100
AcDbEntity
  8
Defpoints
 62
     0
100
AcDbPoint
 10
85.46491149793815
 20
153.3667093091863
 30
0.0
  0
POINT
  5
709
330
700
100
AcDbEntity
  8
Defpoints
 62
     0
100
AcDbPoint
 10
85.46491149793769
 20
129.3667093091863
 30
0.0
  0
POINT
  5
70A
330
700
100
AcDbEntity
  8
Defpoints
 62
     0
100
AcDbPoint
 10
27.18908591384115
 20
129.3667093091863
 30
0.0
  0
ENDBLK
  5
70B
330
700
100
AcDbEntity
  8
0
 48
0.5
100
AcDbBlockEnd
  0
BLOCK
  5
713
330
712
100
AcDbEntity
  8
0
 48
0.5
100
AcDbBlockBegin
  2
*D44
 70
     1
 10
0.0
 20
0.0
 30
0.0
  3
*D44
  1
*D47
  0
LINE
  5
714
330
712
100
AcDbEntity
  8
文字・寸法線
 62
     0
370
    -2
100
AcDbLine
 10
38.2681147282135
 20
32.41039150703909
 30
0.0
 11
19.53210558359865
 21
32.41039150703909
 31
0.0
  0
LINE
  5
715
330
712
100
AcDbEntity
  8
文字・寸法線
 62
     0
370
    -2
100
AcDbLine
 10
77.9181147282136
 20
61.17982236409705
 30
0.0
 11
19.53210558359865
 21
61.17982236409706
 31
0.0
  0
LINE
  5
716
330
712
100
AcDbEntity
  8
文字・寸法線
 62
     0
370
    -2
100
AcDbLine
 10
20.03210558359865
 20
34.91039150703909
 30
0.0
 11
20.03210558359865
 21
58.67982236409706
 31
0.0
  0
SOLID
  5
717
330
712
100
AcDbEntity
  8
文字・寸法線
 62
     0
100
AcDbTrace
 10
19.61543891693198
 20
34.91039150703909
 30
0.0
 11
20.44877225026532
 21
34.91039150703909
 31
0.0
 12
20.03210558359865
 22
32.41039150703909
 32
0.0
 13
20.03210558359865
 23
32.41039150703909
 33
0.0
  0
SOLID
  5
718
330
712
100
AcDbEntity
  8
文字・寸法線
 62
     0
100
AcDbTrace
 10
20.44877225026532
 20
58.67982236409706
 30
0.0
 11
19.61543891693198
 21
58.67982236409706
 31
0.0
 12
20.03210558359865
 22
61.17982236409706
 32
0.0
 13
20.03210558359865
 23
61.17982236409706
 33
0.0
  0
MTEXT
  5
719
330
712
100
AcDbEntity
  8
文字・寸法線
 62
     0
100
AcDbMText
 10
17.87640981279374
 20
46.79510693556807
 30
0.0
 40
3.0
 41
0.0
 46
0.0
 71
     5
 72
     1
  1
25
 11
0.0
 21
1.0
 31
0.0
 73
     1
 44
1.0
  0
POINT
  5
71A
330
712
100
AcDbEntity
  8
Defpoints
 62
     0
100
AcDbPoint
 10
38.8931147282135
 20
32.41039150703909
 30
0.0
  0
POINT
  5
71B
330
712
100
AcDbEntity
  8
Defpoints
 62
     0
100
AcDbPoint
 10
78.5431147282136
 20
61.17982236409705
 30
0.0
  0
POINT
  5
71C
330
712
100
AcDbEntity
  8
Defpoints
 62
     0
100
AcDbPoint
 10
20.03210558359865
 20
61.17982236409706
 30
0.0
  0
ENDBLK
  5
71D
330
712
100
AcDbEntity
  8
0
 48
0.5
100
AcDbBlockEnd
  0
BLOCK
  5
722
330
721
100
AcDbEntity
  8
0
 48
0.5
100
AcDbBlockBegin
  2
*D45
 70
     1
 10
0.0
 20
0.0
 30
0.0
  3
*D45
  1
*D48
  0
LINE
  5
723
330
721
100
AcDbEntity
  8
文字・寸法線
 62
     0
370
    -2
100
AcDbLine
 10
38.2681147282135
 20
32.41039150703909
 30
0.0
 11
3.125000000000227
 21
32.41039150703909
 31
0.0
  0
LINE
  5
724
330
721
100
AcDbEntity
  8
文字・寸法線
 62
     0
370
    -2
100
AcDbLine
 10
42.90423885604218
 20
31.41039150703864
 30
0.0
 11
3.125000000000227
 21
31.41039150703864
 31
0.0
  0
LINE
  5
725
330
721
100
AcDbEntity
  8
文字・寸法線
 62
     0
370
    -2
100
AcDbLine
 10
3.625000000000227
 20
31.41039150703864
 30
0.0
 11
3.625000000000227
 21
17.22405680944822
 31
0.0
  0
LINE
  5
726
330
721
100
AcDbEntity
  8
文字・寸法線
 62
     0
370
    -2
100
AcDbLine
 10
3.625000000000227
 20
32.41039150703909
 30
0.0
 11
3.625000000000227
 21
31.41039150703864
 31
0.0
  0
LINE
  5
727
330
721
100
AcDbEntity
  8
文字・寸法線
 62
     0
370
    -2
100
AcDbLine
 10
3.625000000000227
 20
34.91039150703909
 30
0.0
 11
3.625000000000227
 21
37.41039150703909
 31
0.0
  0
LINE
  5
728
330
721
100
AcDbEntity
  8
文字・寸法線
 62
     0
370
    -2
100
AcDbLine
 10
3.625000000000227
 20
28.91039150703864
 30
0.0
 11
3.625000000000227
 21
26.41039150703864
 31
0.0
  0
SOLID
  5
729
330
721
100
AcDbEntity
  8
文字・寸法線
 62
     0
100
AcDbTrace
 10
3.208333333333561
 20
34.91039150703909
 30
0.0
 11
4.041666666666894
 21
34.91039150703909
 31
0.0
 12
3.625000000000227
 22
32.41039150703909
 32
0.0
 13
3.625000000000227
 23
32.41039150703909
 33
0.0
  0
SOLID
  5
72A
330
721
100
AcDbEntity
  8
文字・寸法線
 62
     0
100
AcDbTrace
 10
4.041666666666894
 20
28.91039150703864
 30
0.0
 11
3.208333333333561
 21
28.91039150703864
 31
0.0
 12
3.625000000000227
 22
31.41039150703864
 32
0.0
 13
3.625000000000227
 23
31.41039150703864
 33
0.0
  0
MTEXT
  5
72B
330
721
100
AcDbEntity
  8
文字・寸法線
 62
     0
100
AcDbMText
 10
1.469304229195316
 20
20.4520581737047
 30
0.0
 40
3.0
 41
0.0
 46
0.0
 71
     5
 72
     1
  1
1.5
 11
0.0
 21
1.0
 31
0.0
 73
     1
 44
1.0
  0
POINT
  5
72C
330
721
100
AcDbEntity
  8
Defpoints
 62
     0
100
AcDbPoint
 10
38.8931147282135
 20
32.41039150703909
 30
0.0
  0
POINT
  5
72D
330
721
100
AcDbEntity
  8
Defpoints
 62
     0
100
AcDbPoint
 10
43.52923885604218
 20
31.41039150703864
 30
0.0
  0
POINT
  5
811
330
721
100
AcDbEntity
  8
Defpoints
 62
     0
100
AcDbPoint
 10
3.625000000000455
 20
31.41039150703864
 30
0.0
  0
ENDBLK
  5
72E
330
721
100
AcDbEntity
  8
0
 48
0.5
100
AcDbBlockEnd
  0
BLOCK
  5
733
330
732
100
AcDbEntity
  8
0
 48
0.5
100
AcDbBlockBegin
  2
*D46
 70
     1
 10
0.0
 20
0.0
 30
0.0
  3
*D46
  1
*D49
  0
LINE
  5
734
330
732
100
AcDbEntity
  8
文字・寸法線
 62
     0
370
    -2
100
AcDbLine
 10
142.1542388560422
 20
36.41039150703955
 30
0.0
 11
158.4353440238353
 21
36.41039150703955
 31
0.0
  0
LINE
  5
735
330
732
100
AcDbEntity
  8
文字・寸法線
 62
     0
370
    -2
100
AcDbLine
 10
142.1542388560422
 20
31.41039150703955
 30
0.0
 11
158.4353440238353
 21
31.41039150703955
 31
0.0
  0
LINE
  5
736
330
732
100
AcDbEntity
  8
文字・寸法線
 62
     0
370
    -2
100
AcDbLine
 10
157.9353440238353
 20
36.41039150703955
 30
0.0
 11
157.9353440238353
 21
31.41039150703955
 31
0.0
  0
LINE
  5
737
330
732
100
AcDbEntity
  8
文字・寸法線
 62
     0
370
    -2
100
AcDbLine
 10
157.9353440238353
 20
38.91039150703955
 30
0.0
 11
157.9353440238353
 21
41.41039150703955
 31
0.0
  0
LINE
  5
738
330
732
100
AcDbEntity
  8
文字・寸法線
 62
     0
370
    -2
100
AcDbLine
 10
157.9353440238353
 20
28.91039150703955
 30
0.0
 11
157.9353440238353
 21
26.41039150703955
 31
0.0
  0
SOLID
  5
739
330
732
100
AcDbEntity
  8
文字・寸法線
 62
     0
100
AcDbTrace
 10
157.5186773571687
 20
38.91039150703955
 30
0.0
 11
158.352010690502
 21
38.91039150703955
 31
0.0
 12
157.9353440238353
 22
36.41039150703955
 32
0.0
 13
157.9353440238353
 23
36.41039150703955
 33
0.0
  0
SOLID
  5
73A
330
732
100
AcDbEntity
  8
文字・寸法線
 62
     0
100
AcDbTrace
 10
158.352010690502
 20
28.91039150703955
 30
0.0
 11
157.5186773571687
 21
28.91039150703955
 31
0.0
 12
157.9353440238353
 22
31.41039150703955
 32
0.0
 13
157.9353440238353
 23
31.41039150703955
 33
0.0
  0
MTEXT
  5
73B
330
732
100
AcDbEntity
  8
文字・寸法線
 62
     0
100
AcDbMText
 10
155.7857874071914
 20
33.91039150703955
 30
0.0
 40
3.0
 41
0.0
 46
0.0
 71
     5
 72
     1
  1
5
 11
0.0
 21
1.0
 31
0.0
 73
     1
 44
1.0
  0
POINT
  5
73C
330
732
100
AcDbEntity
  8
Defpoints
 62
     0
100
AcDbPoint
 10
141.5292388560422
 20
36.41039150703955
 30
0.0
  0
POINT
  5
73D
330
732
100
AcDbEntity
  8
Defpoints
 62
     0
100
AcDbPoint
 10
141.5292388560422
 20
31.41039150703955
 30
0.0
  0
POINT
  5
73E
330
732
100
AcDbEntity
  8
Defpoints
 62
     0
100
AcDbPoint
 10
157.9353440238353
 20
31.41039150703955
 30
0.0
  0
ENDBLK
  5
73F
330
732
100
AcDbEntity
  8
0
 48
0.5
100
AcDbBlockEnd
  0
BLOCK
  5
744
330
743
100
AcDbEntity
  8
0
 48
0.5
100
AcDbBlockBegin
  2
*D47
 70
     1
 10
0.0
 20
0.0
 30
0.0
  3
*D47
  1
*D50
  0
LINE
  5
745
330
743
100
AcDbEntity
  8
文字・寸法線
 62
     0
370
    -2
100
AcDbLine
 10
38.8931147282135
 20
31.78539150703909
 30
0.0
 11
38.8931147282135
 21
0.0
 31
0.0
  0
LINE
  5
746
330
743
100
AcDbEntity
  8
文字・寸法線
 62
     0
370
    -2
100
AcDbLine
 10
145.8931147282135
 20
31.78539150703909
 30
0.0
 11
145.8931147282135
 21
0.0
 31
0.0
  0
LINE
  5
747
330
743
100
AcDbEntity
  8
文字・寸法線
 62
     0
370
    -2
100
AcDbLine
 10
41.3931147282135
 20
0.5
 30
0.0
 11
143.3931147282135
 21
0.5
 31
0.0
  0
SOLID
  5
748
330
743
100
AcDbEntity
  8
文字・寸法線
 62
     0
100
AcDbTrace
 10
41.3931147282135
 20
0.9166666666666667
 30
0.0
 11
41.3931147282135
 21
0.0833333333333333
 31
0.0
 12
38.8931147282135
 22
0.5
 32
0.0
 13
38.8931147282135
 23
0.5
 33
0.0
  0
SOLID
  5
749
330
743
100
AcDbEntity
  8
文字・寸法線
 62
     0
100
AcDbTrace
 10
143.3931147282135
 20
0.0833333333333333
 30
0.0
 11
143.3931147282135
 21
0.9166666666666667
 31
0.0
 12
145.8931147282135
 22
0.5
 32
0.0
 13
145.8931147282135
 23
0.5
 33
0.0
  0
MTEXT
  5
74A
330
743
100
AcDbEntity
  8
文字・寸法線
 62
     0
100
AcDbMText
 10
92.3931147282135
 20
3.093622100954979
 30
0.0
 40
3.0
 41
0.0
 46
0.0
 71
     5
 72
     1
  1
(%%c80)
 73
     1
 44
1.0
  0
POINT
  5
74B
330
743
100
AcDbEntity
  8
Defpoints
 62
     0
100
AcDbPoint
 10
38.8931147282135
 20
32.41039150703909
 30
0.0
  0
POINT
  5
74C
330
743
100
AcDbEntity
  8
Defpoints
 62
     0
100
AcDbPoint
 10
145.8931147282135
 20
32.41039150703909
 30
0.0
  0
POINT
  5
74D
330
743
100
AcDbEntity
  8
Defpoints
 62
     0
100
AcDbPoint
 10
145.8931147282135
 20
0.5
 30
0.0
  0
ENDBLK
  5
74E
330
743
100
AcDbEntity
  8
0
 48
0.5
100
AcDbBlockEnd
  0
BLOCK
  5
753
330
752
100
AcDbEntity
  8
0
 48
0.5
100
AcDbBlockBegin
  2
*D48
 70
     1
 10
0.0
 20
0.0
 30
0.0
  3
*D48
  1
*D51
  0
LINE
  5
754
330
752
100
AcDbEntity
  8
文字・寸法線
 62
     0
370
    -2
100
AcDbLine
 10
43.52923885604218
 20
30.78539150703864
 30
0.0
 11
43.52923885604218
 21
9.344787183214976
 31
0.0
  0
LINE
  5
755
330
752
100
AcDbEntity
  8
文字・寸法線
 62
     0
370
    -2
100
AcDbLine
 10
141.5292388560422
 20
30.78539150703955
 30
0.0
 11
141.5292388560422
 21
9.344787183214976
 31
0.0
  0
LINE
  5
756
330
752
100
AcDbEntity
  8
文字・寸法線
 62
     0
370
    -2
100
AcDbLine
 10
46.02923885604218
 20
9.844787183214976
 30
0.0
 11
139.0292388560422
 21
9.844787183214976
 31
0.0
  0
SOLID
  5
757
330
752
100
AcDbEntity
  8
文字・寸法線
 62
     0
100
AcDbTrace
 10
46.02923885604218
 20
10.26145384988164
 30
0.0
 11
46.02923885604218
 21
9.42812051654831
 31
0.0
 12
43.52923885604218
 22
9.844787183214976
 32
0.0
 13
43.52923885604218
 23
9.844787183214976
 33
0.0
  0
SOLID
  5
758
330
752
100
AcDbEntity
  8
文字・寸法線
 62
     0
100
AcDbTrace
 10
139.0292388560422
 20
9.42812051654831
 30
0.0
 11
139.0292388560422
 21
10.26145384988164
 31
0.0
 12
141.5292388560422
 22
9.844787183214976
 32
0.0
 13
141.5292388560422
 23
9.844787183214976
 33
0.0
  0
MTEXT
  5
759
330
752
100
AcDbEntity
  8
文字・寸法線
 62
     0
100
AcDbMText
 10
91.8418121381153
 20
12.05778172618905
 30
0.0
 40
3.0
 41
0.0
 46
0.0
 71
     5
 72
     1
  1
%%c73
 73
     1
 44
1.0
  0
POINT
  5
75A
330
752
100
AcDbEntity
  8
Defpoints
 62
     0
100
AcDbPoint
 10
43.52923885604218
 20
31.41039150703864
 30
0.0
  0
POINT
  5
75B
330
752
100
AcDbEntity
  8
Defpoints
 62
     0
100
AcDbPoint
 10
141.5292388560422
 20
31.41039150703955
 30
0.0
  0
POINT
  5
75C
330
752
100
AcDbEntity
  8
Defpoints
 62
     0
100
AcDbPoint
 10
141.5292388560422
 20
9.844787183214976
 30
0.0
  0
ENDBLK
  5
75D
330
752
100
AcDbEntity
  8
0
 48
0.5
100
AcDbBlockEnd
  0
BLOCK
  5
7E5
330
7E4
100
AcDbEntity
  8
0
 48
0.5
100
AcDbBlockBegin
  2
*D49
 70
     1
 10
0.0
 20
0.0
 30
0.0
  3
*D49
  1
*D52
  0
LINE
  5
7E6
330
7E4
100
AcDbEntity
  8
文字・寸法線
 62
     0
370
    -2
100
AcDbLine
 10
81.02923885604196
 20
35.78539150703909
 30
0.0
 11
81.02923885604196
 21
27.33512186285861
 31
0.0
  0
LINE
  5
7E7
330
7E4
100
AcDbEntity
  8
文字・寸法線
 62
     0
370
    -2
100
AcDbLine
 10
104.029238856042
 20
35.78539150703955
 30
0.0
 11
104.029238856042
 21
27.33512186285861
 31
0.0
  0
LINE
  5
7E8
330
7E4
100
AcDbEntity
  8
文字・寸法線
 62
     0
370
    -2
100
AcDbLine
 10
83.52923885604196
 20
27.83512186285861
 30
0.0
 11
101.529238856042
 21
27.83512186285861
 31
0.0
  0
SOLID
  5
7E9
330
7E4
100
AcDbEntity
  8
文字・寸法線
 62
     0
100
AcDbTrace
 10
83.52923885604196
 20
28.25178852952528
 30
0.0
 11
83.52923885604196
 21
27.41845519619195
 31
0.0
 12
81.02923885604196
 22
27.83512186285861
 32
0.0
 13
81.02923885604196
 23
27.83512186285861
 33
0.0
  0
SOLID
  5
7EA
330
7E4
100
AcDbEntity
  8
文字・寸法線
 62
     0
100
AcDbTrace
 10
101.529238856042
 20
27.41845519619195
 30
0.0
 11
101.529238856042
 21
28.25178852952528
 31
0.0
 12
104.029238856042
 22
27.83512186285861
 32
0.0
 13
104.029238856042
 23
27.83512186285861
 33
0.0
  0
MTEXT
  5
7EB
330
7E4
100
AcDbEntity
  8
文字・寸法線
 62
     0
100
AcDbMText
 10
92.52923885604196
 20
30.04811640583269
 30
0.0
 40
3.0
 41
0.0
 46
0.0
 71
     5
 72
     1
  1
%%c23
 73
     1
 44
1.0
  0
POINT
  5
7EC
330
7E4
100
AcDbEntity
  8
Defpoints
 62
     0
100
AcDbPoint
 10
81.02923885604196
 20
36.41039150703909
 30
0.0
  0
POINT
  5
7ED
330
7E4
100
AcDbEntity
  8
Defpoints
 62
     0
100
AcDbPoint
 10
104.029238856042
 20
36.41039150703955
 30
0.0
  0
POINT
  5
7EE
330
7E4
100
AcDbEntity
  8
Defpoints
 62
     0
100
AcDbPoint
 10
104.029238856042
 20
27.83512186285861
 30
0.0
  0
ENDBLK
  5
7EF
330
7E4
100
AcDbEntity
  8
0
 48
0.5
100
AcDbBlockEnd
  0
BLOCK
  5
7F4
330
7F3
100
AcDbEntity
  8
0
 48
0.5
100
AcDbBlockBegin
  2
*D50
 70
     1
 10
0.0
 20
0.0
 30
0.0
  3
*D50
  1
*D53
  0
LINE
  5
7F5
330
7F3
100
AcDbEntity
  8
文字・寸法線
 62
     0
370
    -2
100
AcDbLine
 10
77.02923885604196
 20
30.78539150703909
 30
0.0
 11
77.02923885604196
 21
17.71929868458301
 31
0.0
  0
LINE
  5
7F6
330
7F3
100
AcDbEntity
  8
文字・寸法線
 62
     0
370
    -2
100
AcDbLine
 10
108.029238856042
 20
30.78539150703955
 30
0.0
 11
108.029238856042
 21
17.71929868458301
 31
0.0
  0
LINE
  5
7F7
330
7F3
100
AcDbEntity
  8
文字・寸法線
 62
     0
370
    -2
100
AcDbLine
 10
79.52923885604196
 20
18.21929868458301
 30
0.0
 11
105.529238856042
 21
18.21929868458301
 31
0.0
  0
SOLID
  5
7F8
330
7F3
100
AcDbEntity
  8
文字・寸法線
 62
     0
100
AcDbTrace
 10
79.52923885604196
 20
18.63596535124968
 30
0.0
 11
79.52923885604196
 21
17.80263201791634
 31
0.0
 12
77.02923885604196
 22
18.21929868458301
 32
0.0
 13
77.02923885604196
 23
18.21929868458301
 33
0.0
  0
SOLID
  5
7F9
330
7F3
100
AcDbEntity
  8
文字・寸法線
 62
     0
100
AcDbTrace
 10
105.529238856042
 20
17.80263201791634
 30
0.0
 11
105.529238856042
 21
18.63596535124968
 31
0.0
 12
108.029238856042
 22
18.21929868458301
 32
0.0
 13
108.029238856042
 23
18.21929868458301
 33
0.0
  0
MTEXT
  5
7FA
330
7F3
100
AcDbEntity
  8
文字・寸法線
 62
     0
100
AcDbMText
 10
92.46925625041035
 20
20.43229322755709
 30
0.0
 40
3.0
 41
0.0
 46
0.0
 71
     5
 72
     1
  1
%%c25
 73
     1
 44
1.0
  0
POINT
  5
7FB
330
7F3
100
AcDbEntity
  8
Defpoints
 62
     0
100
AcDbPoint
 10
77.02923885604196
 20
31.41039150703909
 30
0.0
  0
POINT
  5
7FC
330
7F3
100
AcDbEntity
  8
Defpoints
 62
     0
100
AcDbPoint
 10
108.029238856042
 20
31.41039150703955
 30
0.0
  0
POINT
  5
7FD
330
7F3
100
AcDbEntity
  8
Defpoints
 62
     0
100
AcDbPoint
 10
108.029238856042
 20
18.21929868458301
 30
0.0
  0
ENDBLK
  5
7FE
330
7F3
100
AcDbEntity
  8
0
 48
0.5
100
AcDbBlockEnd
  0
BLOCK
  5
8E0
330
8DF
100
AcDbEntity
  8
0
100
AcDbBlockBegin
  2
*D51
 70
     1
 10
0.0
 20
0.0
 30
0.0
  3
*D51
  1
*D54
  0
LINE
  5
8E2
330
8DF
100
AcDbEntity
  8
文字・寸法線
 62
     0
370
    -2
100
AcDbLine
 10
320.7225455602274
 20
152.5847017871321
 30
0.0
 11
243.0765003859751
 21
152.5847017871321
 31
0.0
  0
LINE
  5
8E3
330
8DF
100
AcDbEntity
  8
文字・寸法線
 62
     0
370
    -2
100
AcDbLine
 10
278.2196151141883
 20
113.8152697733672
 30
0.0
 11
243.0765003859751
 21
113.8152697733672
 31
0.0
  0
LINE
  5
8E4
330
8DF
100
AcDbEntity
  8
文字・寸法線
 62
     0
370
    -2
100
AcDbLine
 10
243.5765003859751
 20
150.0847017871321
 30
0.0
 11
243.5765003859751
 21
116.3152697733672
 31
0.0
  0
SOLID
  5
8E5
330
8DF
100
AcDbEntity
  8
文字・寸法線
 62
     0
100
AcDbTrace
 10
243.9931670526417
 20
150.0847017871321
 30
0.0
 11
243.1598337193084
 21
150.0847017871321
 31
0.0
 12
243.5765003859751
 22
152.5847017871321
 32
0.0
 13
243.5765003859751
 23
152.5847017871321
 33
0.0
  0
SOLID
  5
8E6
330
8DF
100
AcDbEntity
  8
文字・寸法線
 62
     0
100
AcDbTrace
 10
243.1598337193084
 20
116.3152697733672
 30
0.0
 11
243.9931670526417
 21
116.3152697733672
 31
0.0
 12
243.5765003859751
 22
113.8152697733672
 32
0.0
 13
243.5765003859751
 23
113.8152697733672
 33
0.0
  0
MTEXT
  5
8E7
330
8DF
100
AcDbEntity
  8
文字・寸法線
 62
     0
100
AcDbMText
 10
241.4208046151701
 20
133.1999857802497
 30
0.0
 40
3.0
 41
0.0
 46
0.0
 71
     5
 72
     1
  1
33
 11
0.0
 21
1.0
 31
0.0
 73
     1
 44
1.0
  0
POINT
  5
8E8
330
8DF
100
AcDbEntity
  8
Defpoints
 62
     0
100
AcDbPoint
 10
321.3475455602274
 20
152.5847017871321
 30
0.0
  0
POINT
  5
8E9
330
8DF
100
AcDbEntity
  8
Defpoints
 62
     0
100
AcDbPoint
 10
278.8446151141883
 20
113.8152697733672
 30
0.0
  0
POINT
  5
8EA
330
8DF
100
AcDbEntity
  8
Defpoints
 62
     0
100
AcDbPoint
 10
243.5765003859751
 20
113.8152697733672
 30
0.0
  0
ENDBLK
  5
8E1
330
8DF
100
AcDbEntity
  8
0
100
AcDbBlockEnd
  0
BLOCK
  5
8EC
330
8EB
100
AcDbEntity
  8
0
100
AcDbBlockBegin
  2
*D52
 70
     1
 10
0.0
 20
0.0
 30
0.0
  3
*D52
  1
*D55
  0
LINE
  5
8EE
330
8EB
100
AcDbEntity
  8
文字・寸法線
 62
     0
370
    -2
100
AcDbLine
 10
321.3475455602274
 20
152.5847017871321
 30
0.0
 11
259.4836059695735
 21
152.5847017871321
 31
0.0
  0
LINE
  5
8EF
330
8EB
100
AcDbEntity
  8
文字・寸法線
 62
     0
370
    -2
100
AcDbLine
 10
317.8696151141884
 20
142.5847006304252
 30
0.0
 11
259.4836059695735
 21
142.5847006304252
 31
0.0
  0
LINE
  5
8F0
330
8EB
100
AcDbEntity
  8
文字・寸法線
 62
     0
370
    -2
100
AcDbLine
 10
259.9836059695735
 20
150.0847017871321
 30
0.0
 11
259.9836059695735
 21
145.0847006304252
 31
0.0
  0
SOLID
  5
8F1
330
8EB
100
AcDbEntity
  8
文字・寸法線
 62
     0
100
AcDbTrace
 10
260.4002726362402
 20
150.0847017871321
 30
0.0
 11
259.5669393029068
 21
150.0847017871321
 31
0.0
 12
259.9836059695735
 22
152.5847017871321
 32
0.0
 13
259.9836059695735
 23
152.5847017871321
 33
0.0
  0
SOLID
  5
8F2
330
8EB
100
AcDbEntity
  8
文字・寸法線
 62
     0
100
AcDbTrace
 10
259.5669393029068
 20
145.0847006304252
 30
0.0
 11
260.4002726362402
 21
145.0847006304252
 31
0.0
 12
259.9836059695735
 22
142.5847006304252
 32
0.0
 13
259.9836059695735
 23
142.5847006304252
 33
0.0
  0
MTEXT
  5
8F3
330
8EB
100
AcDbEntity
  8
文字・寸法線
 62
     0
100
AcDbMText
 10
257.8279101987686
 20
147.5847012087787
 30
0.0
 40
3.0
 41
0.0
 46
0.0
 71
     5
 72
     1
  1
8
 11
0.0
 21
1.0
 31
0.0
 73
     1
 44
1.0
  0
POINT
  5
8F4
330
8EB
100
AcDbEntity
  8
Defpoints
 62
     0
100
AcDbPoint
 10
321.9725455602274
 20
152.5847017871321
 30
0.0
  0
POINT
  5
8F5
330
8EB
100
AcDbEntity
  8
Defpoints
 62
     0
100
AcDbPoint
 10
318.4946151141884
 20
142.5847006304252
 30
0.0
  0
POINT
  5
8F6
330
8EB
100
AcDbEntity
  8
Defpoints
 62
     0
100
AcDbPoint
 10
259.9836059695735
 20
142.5847006304252
 30
0.0
  0
ENDBLK
  5
8ED
330
8EB
100
AcDbEntity
  8
0
100
AcDbBlockEnd
  0
BLOCK
  5
8F8
330
8F7
100
AcDbEntity
  8
0
100
AcDbBlockBegin
  2
*D53
 70
     1
 10
0.0
 20
0.0
 30
0.0
  3
*D53
  1
*D56
  0
LINE
  5
8FA
330
8F7
100
AcDbEntity
  8
文字・寸法線
 62
     0
370
    -2
100
AcDbLine
 10
324.791411883913
 20
234.7715875755144
 30
0.0
 11
266.6405862998158
 21
234.7715875755144
 31
0.0
  0
LINE
  5
8FB
330
8F7
100
AcDbEntity
  8
文字・寸法線
 62
     0
370
    -2
100
AcDbLine
 10
324.7914118839125
 20
210.7715875755144
 30
0.0
 11
266.6405862998158
 21
210.7715875755144
 31
0.0
  0
LINE
  5
8FC
330
8F7
100
AcDbEntity
  8
文字・寸法線
 62
     0
370
    -2
100
AcDbLine
 10
267.1405862998158
 20
232.2715875755144
 30
0.0
 11
267.1405862998158
 21
213.2715875755144
 31
0.0
  0
SOLID
  5
8FD
330
8F7
100
AcDbEntity
  8
文字・寸法線
 62
     0
100
AcDbTrace
 10
267.5572529664825
 20
232.2715875755144
 30
0.0
 11
266.7239196331491
 21
232.2715875755144
 31
0.0
 12
267.1405862998158
 22
234.7715875755144
 32
0.0
 13
267.1405862998158
 23
234.7715875755144
 33
0.0
  0
SOLID
  5
8FE
330
8F7
100
AcDbEntity
  8
文字・寸法線
 62
     0
100
AcDbTrace
 10
266.7239196331491
 20
213.2715875755144
 30
0.0
 11
267.5572529664825
 21
213.2715875755144
 31
0.0
 12
267.1405862998158
 22
210.7715875755144
 32
0.0
 13
267.1405862998158
 23
210.7715875755144
 33
0.0
  0
MTEXT
  5
8FF
330
8F7
100
AcDbEntity
  8
文字・寸法線
 62
     0
100
AcDbMText
 10
264.9848905290108
 20
222.9396792692656
 30
0.0
 40
3.0
 41
0.0
 46
0.0
 71
     5
 72
     1
  1
19
 11
0.0
 21
1.0
 31
0.0
 73
     1
 44
1.0
  0
POINT
  5
900
330
8F7
100
AcDbEntity
  8
Defpoints
 62
     0
100
AcDbPoint
 10
325.416411883913
 20
234.7715875755144
 30
0.0
  0
POINT
  5
901
330
8F7
100
AcDbEntity
  8
Defpoints
 62
     0
100
AcDbPoint
 10
325.4164118839125
 20
210.7715875755144
 30
0.0
  0
POINT
  5
902
330
8F7
100
AcDbEntity
  8
Defpoints
 62
     0
100
AcDbPoint
 10
267.1405862998158
 20
210.7715875755144
 30
0.0
  0
ENDBLK
  5
8F9
330
8F7
100
AcDbEntity
  8
0
100
AcDbBlockEnd
  0
BLOCK
  5
904
330
903
100
AcDbEntity
  8
0
100
AcDbBlockBegin
  2
*D54
 70
     1
 10
0.0
 20
0.0
 30
0.0
  3
*D54
  1
*D57
  0
LINE
  5
906
330
903
100
AcDbEntity
  8
文字・寸法線
 62
     0
370
    -2
100
AcDbLine
 10
278.2196151141883
 20
113.8152697733672
 30
0.0
 11
259.4836059695735
 21
113.8152697733672
 31
0.0
  0
LINE
  5
907
330
903
100
AcDbEntity
  8
文字・寸法線
 62
     0
370
    -2
100
AcDbLine
 10
317.8696151141884
 20
142.5847006304252
 30
0.0
 11
259.4836059695735
 21
142.5847006304252
 31
0.0
  0
LINE
  5
908
330
903
100
AcDbEntity
  8
文字・寸法線
 62
     0
370
    -2
100
AcDbLine
 10
259.9836059695735
 20
116.3152697733672
 30
0.0
 11
259.9836059695735
 21
140.0847006304252
 31
0.0
  0
SOLID
  5
909
330
903
100
AcDbEntity
  8
文字・寸法線
 62
     0
100
AcDbTrace
 10
259.5669393029068
 20
116.3152697733672
 30
0.0
 11
260.4002726362402
 21
116.3152697733672
 31
0.0
 12
259.9836059695735
 22
113.8152697733672
 32
0.0
 13
259.9836059695735
 23
113.8152697733672
 33
0.0
  0
SOLID
  5
90A
330
903
100
AcDbEntity
  8
文字・寸法線
 62
     0
100
AcDbTrace
 10
260.4002726362402
 20
140.0847006304252
 30
0.0
 11
259.5669393029068
 21
140.0847006304252
 31
0.0
 12
259.9836059695735
 22
142.5847006304252
 32
0.0
 13
259.9836059695735
 23
142.5847006304252
 33
0.0
  0
MTEXT
  5
90B
330
903
100
AcDbEntity
  8
文字・寸法線
 62
     0
100
AcDbMText
 10
257.8279101987686
 20
128.1999852018962
 30
0.0
 40
3.0
 41
0.0
 46
0.0
 71
     5
 72
     1
  1
25
 11
0.0
 21
1.0
 31
0.0
 73
     1
 44
1.0
  0
POINT
  5
90C
330
903
100
AcDbEntity
  8
Defpoints
 62
     0
100
AcDbPoint
 10
278.8446151141883
 20
113.8152697733672
 30
0.0
  0
POINT
  5
90D
330
903
100
AcDbEntity
  8
Defpoints
 62
     0
100
AcDbPoint
 10
318.4946151141884
 20
142.5847006304252
 30
0.0
  0
POINT
  5
90E
330
903
100
AcDbEntity
  8
Defpoints
 62
     0
100
AcDbPoint
 10
259.9836059695735
 20
142.5847006304252
 30
0.0
  0
ENDBLK
  5
905
330
903
100
AcDbEntity
  8
0
100
AcDbBlockEnd
  0
BLOCK
  5
910
330
90F
100
AcDbEntity
  8
0
100
AcDbBlockBegin
  2
*D55
 70
     1
 10
0.0
 20
0.0
 30
0.0
  3
*D55
  1
*D58
  0
LINE
  5
912
330
90F
100
AcDbEntity
  8
文字・寸法線
 62
     0
370
    -2
100
AcDbLine
 10
278.2196151141883
 20
113.8152697733672
 30
0.0
 11
243.0765003859751
 21
113.8152697733672
 31
0.0
  0
LINE
  5
913
330
90F
100
AcDbEntity
  8
文字・寸法線
 62
     0
370
    -2
100
AcDbLine
 10
282.855739242017
 20
112.8152697733668
 30
0.0
 11
243.0765003859751
 21
112.8152697733668
 31
0.0
  0
LINE
  5
914
330
90F
100
AcDbEntity
  8
文字・寸法線
 62
     0
370
    -2
100
AcDbLine
 10
243.5765003859751
 20
112.8152697733668
 30
0.0
 11
243.5765003859751
 21
98.62893507577637
 31
0.0
  0
LINE
  5
915
330
90F
100
AcDbEntity
  8
文字・寸法線
 62
     0
370
    -2
100
AcDbLine
 10
243.5765003859751
 20
113.8152697733672
 30
0.0
 11
243.5765003859751
 21
112.8152697733668
 31
0.0
  0
LINE
  5
916
330
90F
100
AcDbEntity
  8
文字・寸法線
 62
     0
370
    -2
100
AcDbLine
 10
243.5765003859751
 20
116.3152697733672
 30
0.0
 11
243.5765003859751
 21
118.8152697733672
 31
0.0
  0
LINE
  5
917
330
90F
100
AcDbEntity
  8
文字・寸法線
 62
     0
370
    -2
100
AcDbLine
 10
243.5765003859751
 20
110.3152697733668
 30
0.0
 11
243.5765003859751
 21
107.8152697733668
 31
0.0
  0
SOLID
  5
918
330
90F
100
AcDbEntity
  8
文字・寸法線
 62
     0
100
AcDbTrace
 10
243.1598337193084
 20
116.3152697733672
 30
0.0
 11
243.9931670526417
 21
116.3152697733672
 31
0.0
 12
243.5765003859751
 22
113.8152697733672
 32
0.0
 13
243.5765003859751
 23
113.8152697733672
 33
0.0
  0
SOLID
  5
919
330
90F
100
AcDbEntity
  8
文字・寸法線
 62
     0
100
AcDbTrace
 10
243.9931670526417
 20
110.3152697733668
 30
0.0
 11
243.1598337193084
 21
110.3152697733668
 31
0.0
 12
243.5765003859751
 22
112.8152697733668
 32
0.0
 13
243.5765003859751
 23
112.8152697733668
 33
0.0
  0
MTEXT
  5
91A
330
90F
100
AcDbEntity
  8
文字・寸法線
 62
     0
100
AcDbMText
 10
241.4208046151701
 20
101.8569364400328
 30
0.0
 40
3.0
 41
0.0
 46
0.0
 71
     5
 72
     1
  1
1.5
 11
0.0
 21
1.0
 31
0.0
 73
     1
 44
1.0
  0
POINT
  5
91B
330
90F
100
AcDbEntity
  8
Defpoints
 62
     0
100
AcDbPoint
 10
278.8446151141883
 20
113.8152697733672
 30
0.0
  0
POINT
  5
91C
330
90F
100
AcDbEntity
  8
Defpoints
 62
     0
100
AcDbPoint
 10
283.480739242017
 20
112.8152697733668
 30
0.0
  0
POINT
  5
91D
330
90F
100
AcDbEntity
  8
Defpoints
 62
     0
100
AcDbPoint
 10
243.5765003859751
 20
112.8152697733668
 30
0.0
  0
ENDBLK
  5
911
330
90F
100
AcDbEntity
  8
0
100
AcDbBlockEnd
  0
BLOCK
  5
91F
330
91E
100
AcDbEntity
  8
0
100
AcDbBlockBegin
  2
*D56
 70
     1
 10
0.0
 20
0.0
 30
0.0
  3
*D56
  1
*D59
  0
LINE
  5
921
330
91E
100
AcDbEntity
  8
文字・寸法線
 62
     0
370
    -2
100
AcDbLine
 10
382.105739242017
 20
117.8152697733677
 30
0.0
 11
398.3868444098102
 21
117.8152697733677
 31
0.0
  0
LINE
  5
922
330
91E
100
AcDbEntity
  8
文字・寸法線
 62
     0
370
    -2
100
AcDbLine
 10
382.105739242017
 20
112.8152697733677
 30
0.0
 11
398.3868444098102
 21
112.8152697733677
 31
0.0
  0
LINE
  5
923
330
91E
100
AcDbEntity
  8
文字・寸法線
 62
     0
370
    -2
100
AcDbLine
 10
397.8868444098102
 20
117.8152697733677
 30
0.0
 11
397.8868444098102
 21
112.8152697733677
 31
0.0
  0
LINE
  5
924
330
91E
100
AcDbEntity
  8
文字・寸法線
 62
     0
370
    -2
100
AcDbLine
 10
397.8868444098102
 20
120.3152697733677
 30
0.0
 11
397.8868444098102
 21
122.8152697733677
 31
0.0
  0
LINE
  5
925
330
91E
100
AcDbEntity
  8
文字・寸法線
 62
     0
370
    -2
100
AcDbLine
 10
397.8868444098102
 20
110.3152697733677
 30
0.0
 11
397.8868444098102
 21
107.8152697733677
 31
0.0
  0
SOLID
  5
926
330
91E
100
AcDbEntity
  8
文字・寸法線
 62
     0
100
AcDbTrace
 10
397.4701777431435
 20
120.3152697733677
 30
0.0
 11
398.3035110764769
 21
120.3152697733677
 31
0.0
 12
397.8868444098102
 22
117.8152697733677
 32
0.0
 13
397.8868444098102
 23
117.8152697733677
 33
0.0
  0
SOLID
  5
927
330
91E
100
AcDbEntity
  8
文字・寸法線
 62
     0
100
AcDbTrace
 10
398.3035110764769
 20
110.3152697733677
 30
0.0
 11
397.4701777431435
 21
110.3152697733677
 31
0.0
 12
397.8868444098102
 22
112.8152697733677
 32
0.0
 13
397.8868444098102
 23
112.8152697733677
 33
0.0
  0
MTEXT
  5
928
330
91E
100
AcDbEntity
  8
文字・寸法線
 62
     0
100
AcDbMText
 10
395.7372877931663
 20
115.3152697733677
 30
0.0
 40
3.0
 41
0.0
 46
0.0
 71
     5
 72
     1
  1
5
 11
0.0
 21
1.0
 31
0.0
 73
     1
 44
1.0
  0
POINT
  5
929
330
91E
100
AcDbEntity
  8
Defpoints
 62
     0
100
AcDbPoint
 10
381.480739242017
 20
117.8152697733677
 30
0.0
  0
POINT
  5
92A
330
91E
100
AcDbEntity
  8
Defpoints
 62
     0
100
AcDbPoint
 10
381.480739242017
 20
112.8152697733677
 30
0.0
  0
POINT
  5
92B
330
91E
100
AcDbEntity
  8
Defpoints
 62
     0
100
AcDbPoint
 10
397.8868444098102
 20
112.8152697733677
 30
0.0
  0
ENDBLK
  5
920
330
91E
100
AcDbEntity
  8
0
100
AcDbBlockEnd
  0
BLOCK
  5
92D
330
92C
100
AcDbEntity
  8
0
100
AcDbBlockBegin
  2
*D57
 70
     1
 10
0.0
 20
0.0
 30
0.0
  3
*D57
  1
*D60
  0
LINE
  5
92F
330
92C
100
AcDbEntity
  8
文字・寸法線
 62
     0
370
    -2
100
AcDbLine
 10
278.8446151141883
 20
113.1902697733672
 30
0.0
 11
278.8446151141883
 21
81.40487826632814
 31
0.0
  0
LINE
  5
930
330
92C
100
AcDbEntity
  8
文字・寸法線
 62
     0
370
    -2
100
AcDbLine
 10
385.8446151141883
 20
113.1902697733672
 30
0.0
 11
385.8446151141883
 21
81.40487826632814
 31
0.0
  0
LINE
  5
931
330
92C
100
AcDbEntity
  8
文字・寸法線
 62
     0
370
    -2
100
AcDbLine
 10
281.3446151141883
 20
81.90487826632814
 30
0.0
 11
383.3446151141883
 21
81.90487826632814
 31
0.0
  0
SOLID
  5
932
330
92C
100
AcDbEntity
  8
文字・寸法線
 62
     0
100
AcDbTrace
 10
281.3446151141883
 20
82.32154493299481
 30
0.0
 11
281.3446151141883
 21
81.48821159966147
 31
0.0
 12
278.8446151141883
 22
81.90487826632814
 32
0.0
 13
278.8446151141883
 23
81.90487826632814
 33
0.0
  0
SOLID
  5
933
330
92C
100
AcDbEntity
  8
文字・寸法線
 62
     0
100
AcDbTrace
 10
383.3446151141883
 20
81.48821159966147
 30
0.0
 11
383.3446151141883
 21
82.32154493299481
 31
0.0
 12
385.8446151141883
 22
81.90487826632814
 32
0.0
 13
385.8446151141883
 23
81.90487826632814
 33
0.0
  0
MTEXT
  5
934
330
92C
100
AcDbEntity
  8
文字・寸法線
 62
     0
100
AcDbMText
 10
332.3446151141883
 20
84.49850036728311
 30
0.0
 40
3.0
 41
0.0
 46
0.0
 71
     5
 72
     1
  1
(%%c80)
 73
     1
 44
1.0
  0
POINT
  5
935
330
92C
100
AcDbEntity
  8
Defpoints
 62
     0
100
AcDbPoint
 10
278.8446151141883
 20
113.8152697733672
 30
0.0
  0
POINT
  5
936
330
92C
100
AcDbEntity
  8
Defpoints
 62
     0
100
AcDbPoint
 10
385.8446151141883
 20
113.8152697733672
 30
0.0
  0
POINT
  5
937
330
92C
100
AcDbEntity
  8
Defpoints
 62
     0
100
AcDbPoint
 10
385.8446151141883
 20
81.90487826632814
 30
0.0
  0
ENDBLK
  5
92E
330
92C
100
AcDbEntity
  8
0
100
AcDbBlockEnd
  0
BLOCK
  5
939
330
938
100
AcDbEntity
  8
0
100
AcDbBlockBegin
  2
*D58
 70
     1
 10
0.0
 20
0.0
 30
0.0
  3
*D58
  1
*D61
  0
LINE
  5
93B
330
938
100
AcDbEntity
  8
文字・寸法線
 62
     0
370
    -2
100
AcDbLine
 10
283.480739242017
 20
112.1902697733668
 30
0.0
 11
283.480739242017
 21
90.74966544954312
 31
0.0
  0
LINE
  5
93C
330
938
100
AcDbEntity
  8
文字・寸法線
 62
     0
370
    -2
100
AcDbLine
 10
381.480739242017
 20
112.1902697733677
 30
0.0
 11
381.480739242017
 21
90.74966544954312
 31
0.0
  0
LINE
  5
93D
330
938
100
AcDbEntity
  8
文字・寸法線
 62
     0
370
    -2
100
AcDbLine
 10
285.980739242017
 20
91.24966544954312
 30
0.0
 11
378.980739242017
 21
91.24966544954312
 31
0.0
  0
SOLID
  5
93E
330
938
100
AcDbEntity
  8
文字・寸法線
 62
     0
100
AcDbTrace
 10
285.980739242017
 20
91.66633211620979
 30
0.0
 11
285.980739242017
 21
90.83299878287644
 31
0.0
 12
283.480739242017
 22
91.24966544954312
 32
0.0
 13
283.480739242017
 23
91.24966544954312
 33
0.0
  0
SOLID
  5
93F
330
938
100
AcDbEntity
  8
文字・寸法線
 62
     0
100
AcDbTrace
 10
378.980739242017
 20
90.83299878287644
 30
0.0
 11
378.980739242017
 21
91.66633211620979
 31
0.0
 12
381.480739242017
 22
91.24966544954312
 32
0.0
 13
381.480739242017
 23
91.24966544954312
 33
0.0
  0
MTEXT
  5
940
330
938
100
AcDbEntity
  8
文字・寸法線
 62
     0
100
AcDbMText
 10
331.7933125240901
 20
93.46265999251719
 30
0.0
 40
3.0
 41
0.0
 46
0.0
 71
     5
 72
     1
  1
%%c73
 73
     1
 44
1.0
  0
POINT
  5
941
330
938
100
AcDbEntity
  8
Defpoints
 62
     0
100
AcDbPoint
 10
283.480739242017
 20
112.8152697733668
 30
0.0
  0
POINT
  5
942
330
938
100
AcDbEntity
  8
Defpoints
 62
     0
100
AcDbPoint
 10
381.480739242017
 20
112.8152697733677
 30
0.0
  0
POINT
  5
943
330
938
100
AcDbEntity
  8
Defpoints
 62
     0
100
AcDbPoint
 10
381.480739242017
 20
91.24966544954312
 30
0.0
  0
ENDBLK
  5
93A
330
938
100
AcDbEntity
  8
0
100
AcDbBlockEnd
  0
BLOCK
  5
945
330
944
100
AcDbEntity
  8
0
100
AcDbBlockBegin
  2
*D59
 70
     1
 10
0.0
 20
0.0
 30
0.0
  3
*D59
  1
*D62
  0
LINE
  5
947
330
944
100
AcDbEntity
  8
文字・寸法線
 62
     0
370
    -2
100
AcDbLine
 10
320.9807392420168
 20
117.1902697733672
 30
0.0
 11
320.9807392420168
 21
108.7400001291868
 31
0.0
  0
LINE
  5
948
330
944
100
AcDbEntity
  8
文字・寸法線
 62
     0
370
    -2
100
AcDbLine
 10
343.9807392420168
 20
117.1902697733677
 30
0.0
 11
343.9807392420168
 21
108.7400001291868
 31
0.0
  0
LINE
  5
949
330
944
100
AcDbEntity
  8
文字・寸法線
 62
     0
370
    -2
100
AcDbLine
 10
323.4807392420168
 20
109.2400001291868
 30
0.0
 11
341.4807392420168
 21
109.2400001291868
 31
0.0
  0
SOLID
  5
94A
330
944
100
AcDbEntity
  8
文字・寸法線
 62
     0
100
AcDbTrace
 10
323.4807392420168
 20
109.6566667958534
 30
0.0
 11
323.4807392420168
 21
108.8233334625201
 31
0.0
 12
320.9807392420168
 22
109.2400001291868
 32
0.0
 13
320.9807392420168
 23
109.2400001291868
 33
0.0
  0
SOLID
  5
94B
330
944
100
AcDbEntity
  8
文字・寸法線
 62
     0
100
AcDbTrace
 10
341.4807392420168
 20
108.8233334625201
 30
0.0
 11
341.4807392420168
 21
109.6566667958534
 31
0.0
 12
343.9807392420168
 22
109.2400001291868
 32
0.0
 13
343.9807392420168
 23
109.2400001291868
 33
0.0
  0
MTEXT
  5
94C
330
944
100
AcDbEntity
  8
文字・寸法線
 62
     0
100
AcDbMText
 10
332.4807392420168
 20
111.4529946721608
 30
0.0
 40
3.0
 41
0.0
 46
0.0
 71
     5
 72
     1
  1
%%c23
 73
     1
 44
1.0
  0
POINT
  5
94D
330
944
100
AcDbEntity
  8
Defpoints
 62
     0
100
AcDbPoint
 10
320.9807392420168
 20
117.8152697733672
 30
0.0
  0
POINT
  5
94E
330
944
100
AcDbEntity
  8
Defpoints
 62
     0
100
AcDbPoint
 10
343.9807392420168
 20
117.8152697733677
 30
0.0
  0
POINT
  5
94F
330
944
100
AcDbEntity
  8
Defpoints
 62
     0
100
AcDbPoint
 10
343.9807392420168
 20
109.2400001291868
 30
0.0
  0
ENDBLK
  5
946
330
944
100
AcDbEntity
  8
0
100
AcDbBlockEnd
  0
BLOCK
  5
951
330
950
100
AcDbEntity
  8
0
100
AcDbBlockBegin
  2
*D60
 70
     1
 10
0.0
 20
0.0
 30
0.0
  3
*D60
  1
*D63
  0
LINE
  5
953
330
950
100
AcDbEntity
  8
文字・寸法線
 62
     0
370
    -2
100
AcDbLine
 10
316.9807392420168
 20
112.1902697733672
 30
0.0
 11
316.9807392420168
 21
99.12417695091115
 31
0.0
  0
LINE
  5
954
330
950
100
AcDbEntity
  8
文字・寸法線
 62
     0
370
    -2
100
AcDbLine
 10
347.9807392420168
 20
112.1902697733677
 30
0.0
 11
347.9807392420168
 21
99.12417695091115
 31
0.0
  0
LINE
  5
955
330
950
100
AcDbEntity
  8
文字・寸法線
 62
     0
370
    -2
100
AcDbLine
 10
319.4807392420168
 20
99.62417695091115
 30
0.0
 11
345.4807392420168
 21
99.62417695091115
 31
0.0
  0
SOLID
  5
956
330
950
100
AcDbEntity
  8
文字・寸法線
 62
     0
100
AcDbTrace
 10
319.4807392420168
 20
100.0408436175778
 30
0.0
 11
319.4807392420168
 21
99.20751028424448
 31
0.0
 12
316.9807392420168
 22
99.62417695091115
 32
0.0
 13
316.9807392420168
 23
99.62417695091115
 33
0.0
  0
SOLID
  5
957
330
950
100
AcDbEntity
  8
文字・寸法線
 62
     0
100
AcDbTrace
 10
345.4807392420168
 20
99.20751028424448
 30
0.0
 11
345.4807392420168
 21
100.0408436175778
 31
0.0
 12
347.9807392420168
 22
99.62417695091115
 32
0.0
 13
347.9807392420168
 23
99.62417695091115
 33
0.0
  0
MTEXT
  5
958
330
950
100
AcDbEntity
  8
文字・寸法線
 62
     0
100
AcDbMText
 10
332.4207566363852
 20
101.8371714938852
 30
0.0
 40
3.0
 41
0.0
 46
0.0
 71
     5
 72
     1
  1
%%c25
 73
     1
 44
1.0
  0
POINT
  5
959
330
950
100
AcDbEntity
  8
Defpoints
 62
     0
100
AcDbPoint
 10
316.9807392420168
 20
112.8152697733672
 30
0.0
  0
POINT
  5
95A
330
950
100
AcDbEntity
  8
Defpoints
 62
     0
100
AcDbPoint
 10
347.9807392420168
 20
112.8152697733677
 30
0.0
  0
POINT
  5
95B
330
950
100
AcDbEntity
  8
Defpoints
 62
     0
100
AcDbPoint
 10
347.9807392420168
 20
99.62417695091115
 30
0.0
  0
ENDBLK
  5
952
330
950
100
AcDbEntity
  8
0
100
AcDbBlockEnd
  0
BLOCK
  5
966
330
965
100
AcDbEntity
  8
0
100
AcDbBlockBegin
  2
*D61
 70
     1
 10
0.0
 20
0.0
 30
0.0
  3
*D61
  1
*D61
  0
LINE
  5
968
330
965
100
AcDbEntity
  8
0
 62
     0
370
    -2
100
AcDbLine
 10
77.71547492399478
 20
63.5578050138828
 30
0.0
 11
77.71547492399478
 21
55.61392659378463
 31
0.0
  0
LINE
  5
969
330
965
100
AcDbEntity
  8
0
 62
     0
370
    -2
100
AcDbLine
 10
58.85446577937992
 20
63.5578050138828
 30
0.0
 11
58.85446577937992
 21
55.61392659378463
 31
0.0
  0
LINE
  5
96A
330
965
100
AcDbEntity
  8
0
 62
     0
370
    -2
100
AcDbLine
 10
77.53547492399477
 20
55.79392659378463
 30
0.0
 11
68.80922035168736
 21
55.79392659378463
 31
0.0
  0
LINE
  5
96B
330
965
100
AcDbEntity
  8
0
 62
     0
370
    -2
100
AcDbLine
 10
59.03446577937992
 20
55.79392659378463
 30
0.0
 11
67.76072035168734
 21
55.79392659378463
 31
0.0
  0
SOLID
  5
96C
330
965
100
AcDbEntity
  8
0
 62
     0
100
AcDbTrace
 10
77.53547492399477
 20
55.76392659378463
 30
0.0
 11
77.53547492399477
 21
55.82392659378463
 31
0.0
 12
77.71547492399478
 22
55.79392659378463
 32
0.0
 13
77.71547492399478
 23
55.79392659378463
 33
0.0
  0
SOLID
  5
96D
330
965
100
AcDbEntity
  8
0
 62
     0
100
AcDbTrace
 10
59.03446577937992
 20
55.82392659378463
 30
0.0
 11
59.03446577937992
 21
55.76392659378463
 31
0.0
 12
58.85446577937992
 22
55.79392659378463
 32
0.0
 13
58.85446577937992
 23
55.79392659378463
 33
0.0
  0
MTEXT
  5
96E
330
965
100
AcDbEntity
  8
0
 62
     0
100
AcDbMText
 10
68.28497035168735
 20
55.79392659378463
 30
0.0
 40
0.18
 41
0.0
 46
0.0
 71
     5
 72
     1
  1
\A1;18.8610
 73
     1
 44
1.0
  0
POINT
  5
96F
330
965
100
AcDbEntity
  8
Defpoints
 62
     0
100
AcDbPoint
 10
77.71547492399478
 20
63.6203050138828
 30
0.0
  0
POINT
  5
970
330
965
100
AcDbEntity
  8
Defpoints
 62
     0
100
AcDbPoint
 10
58.85446577937992
 20
63.6203050138828
 30
0.0
  0
POINT
  5
971
330
965
100
AcDbEntity
  8
Defpoints
 62
     0
100
AcDbPoint
 10
58.85446577937992
 20
55.79392659378463
 30
0.0
  0
ENDBLK
  5
967
330
965
100
AcDbEntity
  8
0
100
AcDbBlockEnd
  0
BLOCK
  5
997
330
996
100
AcDbEntity
  8
0
100
AcDbBlockBegin
  2
*D62
 70
     1
 10
0.0
 20
0.0
 30
0.0
  3
*D62
  1
*D13
  0
LINE
  5
998
330
996
100
AcDbEntity
  8
文字・寸法線
 62
     0
370
    -2
100
AcDbLine
 10
65.05193959065387
 20
10.00000115670694
 30
0.0
 11
3.187999999999989
 21
10.00000115670695
 31
0.0
  0
LINE
  5
999
330
996
100
AcDbEntity
  8
文字・寸法線
 62
     0
370
    -2
100
AcDbLine
 10
61.57400914461496
 20
0.0
 30
0.0
 11
3.187999999999988
 21
0.0000000000000036
 31
0.0
  0
LINE
  5
99A
330
996
100
AcDbEntity
  8
文字・寸法線
 62
     0
370
    -2
100
AcDbLine
 10
3.687999999999989
 20
7.500001156706947
 30
0.0
 11
3.687999999999988
 21
2.500000000000004
 31
0.0
  0
SOLID
  5
99B
330
996
100
AcDbEntity
  8
文字・寸法線
 62
     0
100
AcDbTrace
 10
4.104666666666655
 20
7.500001156706947
 30
0.0
 11
3.271333333333322
 21
7.500001156706947
 31
0.0
 12
3.687999999999989
 22
10.00000115670695
 32
0.0
 13
3.687999999999989
 23
10.00000115670695
 33
0.0
  0
SOLID
  5
99C
330
996
100
AcDbEntity
  8
文字・寸法線
 62
     0
100
AcDbTrace
 10
3.271333333333322
 20
2.500000000000004
 30
0.0
 11
4.104666666666655
 21
2.500000000000004
 31
0.0
 12
3.687999999999988
 22
0.0000000000000036
 32
0.0
 13
3.687999999999988
 23
0.0000000000000036
 33
0.0
  0
MTEXT
  5
99D
330
996
100
AcDbEntity
  8
文字・寸法線
 62
     0
100
AcDbMText
 10
1.531499999999988
 20
5.000000578353475
 30
0.0
 40
3.0
 41
0.0
 46
0.0
 71
     5
 72
     1
  1
8
 11
4.440891584819613E-17
 21
1.0
 31
0.0
 73
     1
 44
1.0
  0
POINT
  5
99E
330
996
100
AcDbEntity
  8
Defpoints
 62
     0
100
AcDbPoint
 10
65.67693959065387
 20
10.00000115670694
 30
0.0
  0
POINT
  5
99F
330
996
100
AcDbEntity
  8
Defpoints
 62
     0
100
AcDbPoint
 10
62.19900914461496
 20
0.0
 30
0.0
  0
POINT
  5
9A0
330
996
100
AcDbEntity
  8
Defpoints
 62
     0
100
AcDbPoint
 10
3.687999999999988
 20
0.0000000000000036
 30
0.0
  0
ENDBLK
  5
9A1
330
996
100
AcDbEntity
  8
0
100
AcDbBlockEnd
  0
BLOCK
  5
9A7
330
9A6
100
AcDbEntity
  8
0
100
AcDbBlockBegin
  2
*D63
 70
     1
 10
0.0
 20
0.0
 30
0.0
  3
*D63
  1
*D64
  0
LINE
  5
9A9
330
9A6
100
AcDbEntity
  8
文字・寸法線
 62
     0
370
    -2
100
AcDbLine
 10
77.09047492399478
 20
63.6203050138828
 30
0.0
 11
58.37057610148747
 21
63.6203050138828
 31
0.0
  0
LINE
  5
9AA
330
9A6
100
AcDbEntity
  8
文字・寸法線
 62
     0
370
    -2
100
AcDbLine
 10
81.46013889334722
 20
62.12247618653593
 30
0.0
 11
58.37057610148747
 21
62.12247618653593
 31
0.0
  0
LINE
  5
9AB
330
9A6
100
AcDbEntity
  8
文字・寸法線
 62
     0
370
    -2
100
AcDbLine
 10
58.87057610148747
 20
62.12247618653593
 30
0.0
 11
58.87057610148747
 21
44.94942126767666
 31
0.0
  0
LINE
  5
9AC
330
9A6
100
AcDbEntity
  8
文字・寸法線
 62
     0
370
    -2
100
AcDbLine
 10
58.87057610148747
 20
63.6203050138828
 30
0.0
 11
58.87057610148747
 21
62.12247618653593
 31
0.0
  0
LINE
  5
9AD
330
9A6
100
AcDbEntity
  8
文字・寸法線
 62
     0
370
    -2
100
AcDbLine
 10
58.87057610148747
 20
66.1203050138828
 30
0.0
 11
58.87057610148747
 21
68.6203050138828
 31
0.0
  0
LINE
  5
9AE
330
9A6
100
AcDbEntity
  8
文字・寸法線
 62
     0
370
    -2
100
AcDbLine
 10
58.87057610148747
 20
59.62247618653593
 30
0.0
 11
58.87057610148747
 21
57.12247618653593
 31
0.0
  0
SOLID
  5
9AF
330
9A6
100
AcDbEntity
  8
文字・寸法線
 62
     0
100
AcDbTrace
 10
58.45390943482081
 20
66.1203050138828
 30
0.0
 11
59.28724276815414
 21
66.1203050138828
 31
0.0
 12
58.87057610148747
 22
63.6203050138828
 32
0.0
 13
58.87057610148747
 23
63.6203050138828
 33
0.0
  0
SOLID
  5
9B0
330
9A6
100
AcDbEntity
  8
文字・寸法線
 62
     0
100
AcDbTrace
 10
59.28724276815414
 20
59.62247618653593
 30
0.0
 11
58.45390943482081
 21
59.62247618653593
 31
0.0
 12
58.87057610148747
 22
62.12247618653593
 32
0.0
 13
58.87057610148747
 23
62.12247618653593
 33
0.0
  0
MTEXT
  5
9B1
330
9A6
100
AcDbEntity
  8
文字・寸法線
 62
     0
100
AcDbMText
 10
56.71407610148747
 20
48.17242126767665
 30
0.0
 40
3.0
 41
0.0
 46
0.0
 71
     5
 72
     1
  1
1.5
 11
0.0
 21
1.0
 31
0.0
 73
     1
 44
1.0
  0
POINT
  5
9B2
330
9A6
100
AcDbEntity
  8
Defpoints
 62
     0
100
AcDbPoint
 10
77.71547492399478
 20
63.6203050138828
 30
0.0
  0
POINT
  5
9B5
330
9A6
100
AcDbEntity
  8
Defpoints
 62
     0
100
AcDbPoint
 10
82.08513889334722
 20
62.12247618653593
 30
0.0
  0
POINT
  5
9B6
330
9A6
100
AcDbEntity
  8
Defpoints
 62
     0
100
AcDbPoint
 10
58.87057610148747
 20
62.12247618653593
 30
0.0
  0
ENDBLK
  5
9A8
330
9A6
100
AcDbEntity
  8
0
100
AcDbBlockEnd
  0
ENDSEC
  0
SECTION
  2
ENTITIES
  0
LINE
  5
29C
330
1F
100
AcDbEntity
  8
実線
100
AcDbLine
 10
120.8654749239949
 20
102.3897737885719
 30
0.0
 11
141.5654866892516
 21
102.3897370276371
 31
0.0
  0
ARC
  5
29D
330
1F
100
AcDbEntity
  8
実線
100
AcDbCircle
 10
120.8654749239949
 20
95.76498706644078
 30
0.0
 40
6.624786722131047
100
AcDbArc
 50
58.10806045489737
 51
121.8919395451026
  0
ARC
  5
29E
102
{ACAD_REACTORS
330
364
102
}
330
1F
100
AcDbEntity
  8
実線
100
AcDbCircle
 10
131.2154749239948
 20
78.4284858709408
 30
0.0
 40
23.96124999999989
100
AcDbArc
 50
73.38864758888587
 51
106.6113524111142
  0
ARC
  5
29F
330
1F
100
AcDbEntity
  8
実線
100
AcDbCircle
 10
141.5654749239947
 20
95.7647435341163
 30
0.0
 40
6.624993493531275
100
AcDbArc
 50
58.10917318524856
 51
121.8908268147514
  0
LINE
  5
2A0
330
1F
100
AcDbEntity
  8
実線
100
AcDbLine
 10
124.3654749239949
 20
92.38973587094087
 30
0.0
 11
124.3654749239949
 21
101.3897358709409
 31
0.0
  0
LINE
  5
2A1
330
1F
100
AcDbEntity
  8
実線
100
AcDbLine
 10
138.0654749239947
 20
92.38973587094064
 30
0.0
 11
138.0654749239947
 21
101.3897358709406
 31
0.0
  0
LWPOLYLINE
  5
2A2
330
1F
100
AcDbEntity
  8
実線
100
AcDbPolyline
 90
        4
 70
     0
 43
0.0
 10
117.3654749239949
 20
101.3897358709409
 10
117.3654749239949
 20
92.38973587094087
 10
145.0654749239947
 20
92.38973587094064
 10
145.0654749239947
 20
101.3897358709406
  0
DIMENSION
  5
2A3
330
1F
100
AcDbEntity
  8
文字・寸法線
100
AcDbDimension
280
     0
  2
*D12
 10
58.85446577937992
 20
92.38973587094075
 30
0.0
 11
56.69877000857501
 21
97.38973644929423
 31
0.0
 70
    32
  1
8
 71
     5
 42
10.00000115670696
 73
     0
 74
     0
 75
     0
  3
ISO-25
100
AcDbAlignedDimension
 13
120.8434053700338
 23
102.3897370276477
 33
0.0
 14
117.3654749239949
 24
92.38973587094075
 34
0.0
 50
90.0
100
AcDbRotatedDimension
1001
ACAD
1000
DSTYLE
1002
{
1070
   140
1040
3.0
1002
}
  0
LINE
  5
2B1
330
1F
100
AcDbEntity
  8
文字・寸法線
100
AcDbLine
 10
121.6284924954402
 20
92.38973587094075
 30
0.0
 11
140.8024573525494
 21
92.38973587094075
 31
0.0
  0
LINE
  5
2B6
330
1F
100
AcDbEntity
  8
実線
100
AcDbLine
 10
140.8024573525492
 20
102.3897370276477
 30
0.0
 11
121.6284924954404
 21
102.3897370276477
 31
0.0
  0
DIMENSION
  5
2B7
102
{ACAD_REACTORS
330
2B9
102
}
102
{ACAD_XDICTIONARY
360
2B8
102
}
330
1F
100
AcDbEntity
  8
文字・寸法線
100
AcDbDimension
280
     0
  2
*D13
 10
286.840818029869
 20
3.05408462688463
 30
0.0
 11
274.9014723794338
 21
3.054084626884631
 31
0.0
 70
   160
  1
19
 71
     5
 42
24.0
 73
     0
 74
     0
 75
     0
 52
-270.0
  3
ISO-25
100
AcDbAlignedDimension
 13
262.840818029869
 23
76.36780089831879
 33
0.0
 14
286.840818029869
 24
76.3678008983184
 34
0.0
 50
180.0
100
AcDbRotatedDimension
1001
ACAD
1000
DSTYLE
1002
{
1070
   140
1040
3.0
1002
}
  0
CIRCLE
  5
2BA
330
1F
100
AcDbEntity
  8
実線
100
AcDbCircle
 10
274.8408180298693
 20
83.2960041285942
 30
0.0
 40
7.75
  0
CIRCLE
  5
2BB
330
1F
100
AcDbEntity
  8
実線
100
AcDbCircle
 10
274.8408180298693
 20
83.2960041285942
 30
0.0
 40
12.0
  0
CIRCLE
  5
2BC
330
1F
100
AcDbEntity
  8
実線
100
AcDbCircle
 10
274.8408180298693
 20
83.2960041285942
 30
0.0
 40
7.0
  0
CIRCLE
  5
2BD
330
1F
100
AcDbEntity
  8
実線
100
AcDbCircle
 10
274.8408180298693
 20
83.2960041285942
 30
0.0
 40
8.0
  0
LWPOLYLINE
  5
2BE
102
{ACAD_REACTORS
330
2B9
102
}
330
1F
100
AcDbEntity
  8
実線
100
AcDbPolyline
 90
        6
 70
     1
 43
0.0
 10
262.840818029869
 20
76.36780089831879
 10
274.8408180298688
 20
69.43959766804304
 10
286.840818029869
 20
76.3678008983184
 10
286.840818029869
 20
90.22420735886911
 10
274.840818029869
 20
97.15241058914526
 10
262.840818029869
 20
90.2242073588695
  0
DIMENSION
  5
2BF
330
1F
100
AcDbEntity
  8
文字・寸法線
100
AcDbDimension
280
     0
  2
*D14
 10
58.85446577937992
 20
92.38973587094075
 30
0.0
 11
56.69877000857501
 21
78.00502044241178
 31
0.0
 70
    32
  1
25
 71
     5
 42
28.76943085705796
 73
     0
 74
     0
 75
     0
  3
ISO-25
100
AcDbAlignedDimension
 13
77.71547492399478
 23
63.6203050138828
 33
0.0
 14
117.3654749239949
 24
92.38973587094075
 34
0.0
 50
90.0
100
AcDbRotatedDimension
1001
ACAD
1000
DSTYLE
1002
{
1070
   140
1040
3.0
1002
}
  0
DIMENSION
  5
2C6
102
{ACAD_XDICTIONARY
360
2C7
102
}
330
1F
100
AcDbEntity
  8
文字・寸法線
100
AcDbDimension
280
     0
  2
*D17
 10
184.7154749239948
 20
31.13589160255091
 30
0.0
 11
131.2154749239948
 21
31.13589160255091
 31
0.0
 70
   160
  1
(%%c80)
 71
     5
 42
107.0
 73
     0
 74
     0
 75
     0
  3
ISO-25
100
AcDbAlignedDimension
 13
77.71547492399478
 23
63.04628310958999
 33
0.0
 14
184.7154749239948
 24
63.04628310958999
 34
0.0
100
AcDbRotatedDimension
1001
ACAD
1000
DSTYLE
1002
{
1070
   140
1040
3.0
1002
}
  0
DIMENSION
  5
2C9
102
{ACAD_XDICTIONARY
360
2CA
102
}
330
1F
100
AcDbEntity
  8
文字・寸法線
100
AcDbDimension
280
     0
  2
*D18
 10
180.3515990518235
 20
41.06733486694019
 30
0.0
 11
130.6641723338966
 21
41.06733486694019
 31
0.0
 70
   160
  1
%%c73
 71
     5
 42
98.00000000000006
 73
     0
 74
     0
 75
     0
  3
ISO-25
100
AcDbAlignedDimension
 13
82.35159905182346
 23
62.63293919076385
 33
0.0
 14
180.3515990518235
 24
62.63293919076476
 34
0.0
100
AcDbRotatedDimension
1001
ACAD
1000
DSTYLE
1002
{
1070
   140
1040
3.0
1002
}
  0
LINE
  5
2D0
330
1F
100
AcDbEntity
  8
実線
100
AcDbLine
 10
118.7878129602895
 20
63.6203050138828
 30
0.0
 11
118.7867286293787
 21
62.10732643114095
 31
0.0
  0
LINE
  5
2D1
330
1F
100
AcDbEntity
  8
文字・寸法線
100
AcDbLine
 10
76.46547492399478
 20
63.6203050138828
 30
0.0
 11
65.96044957771156
 21
63.6203050138828
 31
0.0
  0
LINE
  5
2E7
330
1F
100
AcDbEntity
  8
実線
100
AcDbLine
 10
82.32083214832132
 20
62.10688384153597
 30
0.0
 11
118.807126868401
 21
62.08544519030431
 31
0.0
  0
LINE
  5
2E8
330
1F
100
AcDbEntity
  8
実線
100
AcDbLine
 10
82.32083214832132
 20
62.10688384153597
 30
0.0
 11
82.31169811081585
 21
63.6203050138828
 31
0.0
  0
LINE
  5
2EB
330
1F
100
AcDbEntity
  8
破線
100
AcDbLine
 10
181.716715502785
 20
63.6203050138828
 30
0.0
 11
182.716715502785
 21
63.6203050138828
 31
0.0
  0
LINE
  5
2EC
330
1F
100
AcDbEntity
  8
実線
100
AcDbLine
 10
79.71547492399478
 20
63.6203050138828
 30
0.0
 11
181.716715502785
 21
63.6203050138828
 31
0.0
  0
ARC
  5
2FC
330
1F
100
AcDbEntity
  8
実線
100
AcDbCircle
 10
134.8444553935762
 20
59.07155603663206
 30
0.0
 40
33.60433462893175
100
AcDbArc
 50
23.03925167264828
 51
82.51745807748489
  0
LINE
  5
2FD
330
1F
100
AcDbEntity
  8
実線
100
AcDbLine
 10
184.7154749239948
 20
65.6203050138828
 30
0.0
 11
184.7154749239948
 21
63.6203050138828
 31
0.0
  0
LINE
  5
2FE
330
1F
100
AcDbEntity
  8
実線
100
AcDbLine
 10
184.7154749239948
 20
63.6203050138828
 30
0.0
 11
182.7154749239948
 21
63.6203050138828
 31
0.0
  0
LINE
  5
2FF
330
1F
100
AcDbEntity
  8
実線
100
AcDbLine
 10
179.7154749239948
 20
70.6203050138828
 30
0.0
 11
168.4146137936426
 21
70.6203050138828
 31
0.0
  0
ARC
  5
300
330
1F
100
AcDbEntity
  8
実線
100
AcDbCircle
 10
179.7154749239948
 20
65.6203050138828
 30
0.0
 40
5.0
100
AcDbArc
 50
0.0
 51
90.0
  0
ARC
  5
301
330
1F
100
AcDbEntity
  8
実線
100
AcDbCircle
 10
168.4188709893682
 20
73.60640439296903
 30
0.0
 40
2.98610241376509
100
AcDbArc
 50
207.5236826542403
 51
270.0816848838459
  0
LINE
  5
33F
330
1F
100
AcDbEntity
  8
細線
100
AcDbLine
 10
77.09047492399478
 20
63.6203050138828
 30
0.0
 11
66.78586073922853
 21
63.6203050138828
 31
0.0
  0
LINE
  5
340
330
1F
100
AcDbEntity
  8
中心線
 48
0.5
100
AcDbLine
 10
131.2154749239948
 20
129.8525265311968
 30
0.0
 11
131.2154749239948
 21
57.60538061483986
 31
0.0
  0
ARC
  5
342
330
1F
100
AcDbEntity
  8
実線
100
AcDbCircle
 10
94.01207885862132
 20
73.60640439296903
 30
0.0
 40
2.98610241376509
100
AcDbArc
 50
269.918315116154
 51
332.4763173457598
  0
ARC
  5
343
330
1F
100
AcDbEntity
  8
実線
100
AcDbCircle
 10
82.71547492399478
 20
65.6203050138828
 30
0.0
 40
5.0
100
AcDbArc
 50
90.0
 51
180.0
  0
LINE
  5
344
330
1F
100
AcDbEntity
  8
実線
100
AcDbLine
 10
82.71547492399478
 20
70.6203050138828
 30
0.0
 11
94.01633605434691
 21
70.6203050138828
 31
0.0
  0
LINE
  5
345
330
1F
100
AcDbEntity
  8
実線
100
AcDbLine
 10
77.71547492399478
 20
63.6203050138828
 30
0.0
 11
79.71547492399478
 21
63.6203050138828
 31
0.0
  0
LINE
  5
346
330
1F
100
AcDbEntity
  8
実線
100
AcDbLine
 10
77.71547492399478
 20
65.6203050138828
 30
0.0
 11
77.71547492399478
 21
63.6203050138828
 31
0.0
  0
ARC
  5
347
330
1F
100
AcDbEntity
  8
実線
100
AcDbCircle
 10
127.6117932381204
 20
59.04063324513017
 30
0.0
 40
33.63972261681563
100
AcDbArc
 50
97.53680586670697
 51
156.9291445682988
  0
CIRCLE
  5
34D
330
1F
100
AcDbEntity
  8
実線
100
AcDbCircle
 10
274.8408180298693
 20
83.2960041285942
 30
0.0
 40
53.5
  0
CIRCLE
  5
34E
330
1F
100
AcDbEntity
  8
実線
100
AcDbCircle
 10
274.8408180298693
 20
83.2960041285942
 30
0.0
 40
35.25
  0
DIMENSION
  5
352
102
{ACAD_XDICTIONARY
360
353
102
}
330
1F
100
AcDbEntity
  8
文字・寸法線
100
AcDbDimension
280
     0
  2
*D20
 10
143.8058612831556
 20
49.4089933353538
 30
0.0
 11
131.2916164461916
 21
49.4089933353538
 31
0.0
 70
   160
  1
%%c<>
 71
     5
 42
24.99873441475461
 73
     0
 74
     0
 75
     0
  3
ISO-25
100
AcDbAlignedDimension
 13
118.807126868401
 23
62.08544519030431
 33
0.0
 14
143.8058612831556
 24
61.92719937763206
 34
0.0
100
AcDbRotatedDimension
1001
ACAD
1000
DSTYLE
1002
{
1070
   140
1040
3.0
1002
}
  0
CIRCLE
  5
35D
330
1F
100
AcDbEntity
  8
実線
100
AcDbCircle
 10
274.8408180298693
 20
83.2960041285942
 30
0.0
 40
48.5
  0
MTEXT
  5
361
102
{ACAD_REACTORS
330
362
102
}
330
1F
100
AcDbEntity
  8
文字・寸法線
 48
0.5
100
AcDbMText
 10
149.8666645025473
 20
111.3410094101477
 30
0.0
 40
3.0
 41
74.10566502519487
 46
3.0
 71
     7
 72
     1
  1
{\fＭＳ ゴシック|b0|i0|c0|p0;Ｍ12}
 73
     1
 44
1.0
1001
ACAD
1000
ACAD_MTEXT_DEFINED_HEIGHT_BEGIN
1070
    46
1040
3.0
1000
ACAD_MTEXT_DEFINED_HEIGHT_END
  0
LEADER
  5
362
102
{ACAD_REACTORS
330
364
102
}
102
{ACAD_XDICTIONARY
360
363
102
}
330
1F
100
AcDbEntity
  8
文字・寸法線
 48
0.5
100
AcDbLeader
  3
ISO-25
 73
     0
 74
     0
 40
3.0
 41
7.098000000000001
 76
     3
 10
133.5310247428964
 20
102.2775892209345
 30
0.0
 10
143.9133546701309
 20
110.7160094101477
 30
0.0
 10
149.2416645025473
 20
110.7160094101477
 30
0.0
340
361
1001
ACAD
1000
DSTYLE
1002
{
1070
   147
1040
0.625
1070
    77
1070
     1
1002
}
  0
DIMENSION
  5
9A5
330
1F
100
AcDbEntity
  8
文字・寸法線
100
AcDbDimension
280
     0
  2
*D63
 10
58.87057610148747
 20
62.12247618653593
 30
0.0
 11
58.87057610148747
 21
48.17242126767665
 31
0.0
 70
   160
 71
     5
 42
1.497828827346865
 73
     0
 74
     0
 75
     0
  3
ISO-25
100
AcDbAlignedDimension
 13
77.71547492399478
 23
63.6203050138828
 33
0.0
 14
82.08513889334722
 24
62.12247618653593
 34
0.0
 50
90.0
100
AcDbRotatedDimension
1001
ACAD
1000
DSTYLE
1002
{
1070
    77
1070
     1
1070
   140
1040
3.0
1002
}
  0
LINE
  5
A08
330
1F
100
AcDbEntity
  8
実線
100
AcDbLine
 10
143.7742162352083
 20
62.11752384894558
 30
0.0
 11
143.7650821977029
 21
63.6309450212924
 31
0.0
  0
LINE
  5
A09
330
1F
100
AcDbEntity
  8
実線
100
AcDbLine
 10
143.7742162352083
 20
62.11752384894558
 30
0.0
 11
180.3817050640024
 21
62.11796643855055
 31
0.0
  0
LINE
  5
A0A
330
1F
100
AcDbEntity
  8
実線
100
AcDbLine
 10
180.3827893949132
 20
63.6309450212924
 30
0.0
 11
180.3817050640024
 21
62.11796643855055
 31
0.0
  0
MTEXT
  5
A31
330
1F
100
AcDbEntity
  8
文字・寸法線
 62
     0
100
AcDbMText
 10
75.48960604401879
 20
164.6798325575555
 30
0.0
 40
6.0
 41
0.0
 46
6.0
 71
     9
 72
     1
  1
{\fＭＳ ゴシック|b0|i0|c0|p0;S-HA}
 73
     1
 44
1.0
1001
ACAD
1000
ACAD_MTEXT_DEFINED_HEIGHT_BEGIN
1070
    46
1040
6.0
1000
ACAD_MTEXT_DEFINED_HEIGHT_END
  0
LINE
  5
A3E
330
1F
100
AcDbEntity
  8
0
100
AcDbLine
 10
94.00782166292097
 20
70.62030501388291
 30
0.0
 11
168.4231281850685
 21
70.62030501388291
 31
0.0
  0
LINE
  5
A69
330
1F
100
AcDbEntity
  8
中心線
 48
0.5
100
AcDbLine
 10
274.8408180298693
 20
150.6955205275886
 30
0.0
 11
274.8408180298693
 21
15.89648772959983
 31
0.0
  0
LINE
  5
A6A
330
1F
100
AcDbEntity
  8
0
  6
CENTER
 48
0.5
100
AcDbLine
 10
203.0333470260696
 20
83.2960041285942
 30
0.0
 11
351.2059017669563
 21
83.2960041285942
 31
0.0
  0
ENDSEC
  0
SECTION
  2
OBJECTS
  0
DICTIONARY
  5
C
330
0
100
AcDbDictionary
281
     1
  3
ACAD_COLOR
350
73
  3
ACAD_DETAILVIEWSTYLE
350
122
  3
ACAD_GROUP
350
D
  3
ACAD_IMAGE_VARS
350
DC
  3
ACAD_LAYOUT
350
1A
  3
ACAD_MATERIAL
350
72
  3
ACAD_MLEADERSTYLE
350
B5
  3
ACAD_MLINESTYLE
350
17
  3
ACAD_PLOTSETTINGS
350
19
  3
ACAD_PLOTSTYLENAME
350
E
  3
ACAD_SCALELIST
350
B6
  3
ACAD_SECTIONVIEWSTYLE
350
123
  3
ACAD_TABLESTYLE
350
86
  3
ACAD_VISUALSTYLE
350
99
  3
ACDB_RECOMPOSE_DATA
350
A6D
  3
AcDbVariableDictionary
350
66
  3
APPDATA
350
E1
  0
SUN
  5
ED
330
94
100
AcDbSun
 90
        1
290
     0
 63
     7
421
 16777215
 40
1.0
291
     1
 91
  2455826
 92
 54000000
292
     0
 70
     2
 71
   256
280
     1
  0
DICTIONARY
  5
2B8
330
2B7
100
AcDbDictionary
280
     1
281
     1
  3
ACAD_DIMASSOC
360
2B9
  0
DICTIONARY
  5
2C7
330
2C6
100
AcDbDictionary
280
     1
281
     1
  0
DICTIONARY
  5
2CA
330
2C9
100
AcDbDictionary
280
     1
281
     1
  0
DICTIONARY
  5
353
330
352
100
AcDbDictionary
280
     1
281
     1
  0
DICTIONARY
  5
363
330
362
100
AcDbDictionary
280
     1
281
     1
  3
ACAD_DIMASSOC
360
364
  0
DICTIONARY
  5
73
102
{ACAD_REACTORS
330
C
102
}
330
C
100
AcDbDictionary
281
     1
  0
DICTIONARY
  5
122
102
{ACAD_REACTORS
330
C
102
}
330
C
100
AcDbDictionary
281
     1
  0
DICTIONARY
  5
D
102
{ACAD_REACTORS
330
C
102
}
330
C
100
AcDbDictionary
281
     1
  0
RASTERVARIABLES
  5
DC
102
{ACAD_REACTORS
330
C
102
}
330
C
100
AcDbRasterVariables
 90
        0
 70
     1
 71
     1
 72
     5
  0
DICTIONARY
  5
1A
102
{ACAD_REACTORS
330
C
102
}
330
C
100
AcDbDictionary
281
     1
  3
Model
350
22
  3
Sheet1
350
59
  3
Sheet2
350
5E
  0
DICTIONARY
  5
72
102
{ACAD_REACTORS
330
C
102
}
330
C
100
AcDbDictionary
281
     1
  3
ByBlock
350
E2
  3
ByLayer
350
96
  3
Global
350
98
  0
DICTIONARY
  5
B5
102
{ACAD_REACTORS
330
C
102
}
330
C
100
AcDbDictionary
281
     1
  0
DICTIONARY
  5
17
102
{ACAD_REACTORS
330
C
102
}
330
C
100
AcDbDictionary
281
     1
  3
Standard
350
18
  0
DICTIONARY
  5
19
102
{ACAD_REACTORS
330
C
102
}
330
C
100
AcDbDictionary
281
     1
  0
ACDBDICTIONARYWDFLT
  5
E
102
{ACAD_REACTORS
330
C
102
}
330
C
100
AcDbDictionary
281
     1
  3
Normal
350
F
100
AcDbDictionaryWithDefault
340
F
  0
DICTIONARY
  5
B6
102
{ACAD_REACTORS
330
C
102
}
330
C
100
AcDbDictionary
281
     1
  3
A0
350
B7
  3
A1
350
B8
  3
A2
350
B9
  3
A3
350
BA
  3
A4
350
BB
  3
A5
350
BC
  3
A6
350
BD
  3
A7
350
BE
  3
A8
350
BF
  3
A9
350
C0
  3
B0
350
C1
  3
B1
350
C2
  3
B2
350
C3
  3
B3
350
C4
  3
B4
350
C5
  3
B5
350
C6
  3
B6
350
C7
  3
B7
350
C8
  3
B8
350
C9
  3
B9
350
CA
  3
C0
350
CB
  3
C1
350
CC
  3
C2
350
CD
  3
C3
350
CE
  3
C4
350
CF
  3
C5
350
D0
  3
C6
350
D1
  3
C7
350
D2
  3
C8
350
D3
  3
C9
350
D4
  3
D0
350
D5
  3
D1
350
D6
  3
D2
350
D7
  0
DICTIONARY
  5
123
102
{ACAD_REACTORS
330
C
102
}
330
C
100
AcDbDictionary
281
     1
  0
DICTIONARY
  5
86
102
{ACAD_REACTORS
330
C
102
}
330
C
100
AcDbDictionary
281
     1
  3
Standard
350
87
  0
DICTIONARY
  5
99
102
{ACAD_REACTORS
330
C
102
}
330
C
100
AcDbDictionary
281
     1
  3
2dWireframe
350
9F
  3
3D Hidden
350
A1
  3
3dWireframe
350
A0
  3
Basic
350
9E
  3
Brighten
350
A5
  3
ColorChange
350
A9
  3
Conceptual
350
A2
  3
Dim
350
A4
  3
EdgeColorOff
350
E7
  3
Facepattern
350
A8
  3
Flat
350
9A
  3
FlatWithEdges
350
9B
  3
Gouraud
350
9C
  3
GouraudWithEdges
350
9D
  3
Hidden
350
E4
  3
JitterOff
350
E5
  3
Linepattern
350
A7
  3
OverhangOff
350
E6
  3
Realistic
350
A3
  3
Shaded
350
EC
  3
Shaded with edges
350
EB
  3
Shades of Gray
350
E8
  3
Sketchy
350
E9
  3
Thicken
350
A6
  3
Wireframe
350
E3
  3
X-Ray
350
EA
  0
XRECORD
  5
A6D
102
{ACAD_REACTORS
330
C
102
}
330
C
100
AcDbXrecord
280
     1
 90
        1
330
87
  0
DICTIONARY
  5
66
102
{ACAD_REACTORS
330
C
102
}
330
C
100
AcDbDictionary
281
     1
  3
CANNOSCALE
350
D8
  3
CTABLESTYLE
350
89
  3
DIMASSOC
350
67
  3
HIDETEXT
350
6B
  3
LIGHTSINBLOCKS
350
DF
  3
XCLIPFRAME
350
E0
  0
DICTIONARY
  5
E1
102
{ACAD_REACTORS
330
C
102
}
330
C
100
AcDbDictionary
281
     1
  0
DIMASSOC
  5
2B9
102
{ACAD_REACTORS
330
2B8
102
}
330
2B8
100
AcDbDimAssoc
330
2B7
 90
        3
 70
     0
 71
     0
  1
AcDbOsnapPointRef
 72
    13
331
2BE
 73
     2
 91
        1
 40
0.0
 10
0.0
 20
0.0
 30
2.000000000000000E+50
 75
     0
  1
AcDbOsnapPointRef
 72
     1
331
2BE
 73
     2
 91
        2
 40
0.9999999999999999
 10
0.0
 20
0.0
 30
2.000000000000000E+50
 75
     0
  0
DIMASSOC
  5
364
102
{ACAD_REACTORS
330
363
102
}
330
363
100
AcDbDimAssoc
330
362
 90
        1
 70
     0
 71
     0
  1
AcDbOsnapPointRef
 72
    10
331
29E
 73
     2
 91
        0
 40
1.474008007695343
 10
0.0
 20
0.0
 30
0.0
 75
     0
  0
LAYOUT
  5
22
102
{ACAD_REACTORS
330
1A
102
}
330
1A
100
AcDbPlotSettings
  1

  2
none_device
  4
ANSI_A_(8.50_x_11.00_Inches)
  6

 40
6.35
 41
19.05
 42
6.35
 43
19.05
 44
215.9
 45
279.4
 46
11.11250000000003
 47
0.0000000000000142
 48
0.0
 49
0.0
140
0.0
141
0.0
142
1.0
143
1.263157894736842
 70
 11444
 72
     0
 73
     1
 74
     1
  7
monochrome.ctb
 75
     0
 76
     0
 77
     2
 78
   300
147
0.7916666666666665
148
-702.8076765758875
149
-496.2830551296954
100
AcDbLayout
  1
Model
 70
     1
 71
     0
 10
0.0
 20
0.0
 11
12.0
 21
9.0
 12
0.0
 22
0.0
 32
0.0
 14
55.16727000857502
 24
2.55408462688463
 34
0.0
 15
351.2059017669563
 25
170.6798325575555
 35
0.0
146
0.0
 13
0.0
 23
0.0
 33
0.0
 16
1.0
 26
0.0
 36
0.0
 17
0.0
 27
1.0
 37
0.0
 76
     0
330
1F
331
94
  0
LAYOUT
  5
59
102
{ACAD_REACTORS
330
1A
102
}
330
1A
100
AcDbPlotSettings
  1

  2
None
  4

  6

 40
0.0
 41
0.0
 42
0.0
 43
0.0
 44
0.0
 45
0.0
 46
0.0
 47
0.0
 48
0.0
 49
0.0
140
0.0
141
0.0
142
1.0
143
1.0
 70
   688
 72
     0
 73
     0
 74
     5
  7

 75
    16
 76
     0
 77
     2
 78
   300
147
1.0
148
0.0
149
0.0
100
AcDbLayout
  1
Sheet1
 70
     1
 71
     1
 10
0.0
 20
0.0
 11
12.0
 21
9.0
 12
0.0
 22
0.0
 32
0.0
 14
0.0
 24
0.0
 34
0.0
 15
0.0
 25
0.0
 35
0.0
146
0.0
 13
0.0
 23
0.0
 33
0.0
 16
1.0
 26
0.0
 36
0.0
 17
0.0
 27
1.0
 37
0.0
 76
     0
330
58
  0
LAYOUT
  5
5E
102
{ACAD_REACTORS
330
1A
102
}
330
1A
100
AcDbPlotSettings
  1

  2
None
  4

  6

 40
0.0
 41
0.0
 42
0.0
 43
0.0
 44
0.0
 45
0.0
 46
0.0
 47
0.0
 48
0.0
 49
0.0
140
0.0
141
0.0
142
1.0
143
1.0
 70
   688
 72
     0
 73
     0
 74
     5
  7

 75
    16
 76
     0
 77
     2
 78
   300
147
1.0
148
0.0
149
0.0
100
AcDbLayout
  1
Sheet2
 70
     1
 71
     2
 10
0.0
 20
0.0
 11
12.0
 21
9.0
 12
0.0
 22
0.0
 32
0.0
 14
0.0
 24
0.0
 34
0.0
 15
0.0
 25
0.0
 35
0.0
146
0.0
 13
0.0
 23
0.0
 33
0.0
 16
1.0
 26
0.0
 36
0.0
 17
0.0
 27
1.0
 37
0.0
 76
     0
330
5D
  0
MATERIAL
  5
E2
102
{ACAD_REACTORS
330
72
102
}
330
72
100
AcDbMaterial
  1
ByBlock
 72
     1
 94
      127
  0
MATERIAL
  5
96
102
{ACAD_REACTORS
330
72
102
}
330
72
100
AcDbMaterial
  1
ByLayer
 72
     1
 94
       63
  0
MATERIAL
  5
98
102
{ACAD_REACTORS
330
72
102
}
330
72
100
AcDbMaterial
  1
Global
 72
     1
 94
       63
  0
MLINESTYLE
  5
18
102
{ACAD_REACTORS
330
17
102
}
330
17
100
AcDbMlineStyle
  2
STANDARD
 70
     0
  3

 62
   256
 51
90.0
 52
90.0
 71
     2
 49
0.5
 62
   256
  6
BYLAYER
 49
-0.5
 62
   256
  6
BYLAYER
  0
ACDBPLACEHOLDER
  5
F
102
{ACAD_REACTORS
330
E
102
}
330
E
  0
SCALE
  5
B7
102
{ACAD_REACTORS
330
B6
102
}
330
B6
100
AcDbScale
 70
     0
300
1:1
140
1.0
141
1.0
290
     1
  0
SCALE
  5
B8
102
{ACAD_REACTORS
330
B6
102
}
330
B6
100
AcDbScale
 70
     0
300
1:2
140
1.0
141
2.0
290
     0
  0
SCALE
  5
B9
102
{ACAD_REACTORS
330
B6
102
}
330
B6
100
AcDbScale
 70
     0
300
1:4
140
1.0
141
4.0
290
     0
  0
SCALE
  5
BA
102
{ACAD_REACTORS
330
B6
102
}
330
B6
100
AcDbScale
 70
     0
300
1:5
140
1.0
141
5.0
290
     0
  0
SCALE
  5
BB
102
{ACAD_REACTORS
330
B6
102
}
330
B6
100
AcDbScale
 70
     0
300
1:8
140
1.0
141
8.0
290
     0
  0
SCALE
  5
BC
102
{ACAD_REACTORS
330
B6
102
}
330
B6
100
AcDbScale
 70
     0
300
1:10
140
1.0
141
10.0
290
     0
  0
SCALE
  5
BD
102
{ACAD_REACTORS
330
B6
102
}
330
B6
100
AcDbScale
 70
     0
300
1:16
140
1.0
141
16.0
290
     0
  0
SCALE
  5
BE
102
{ACAD_REACTORS
330
B6
102
}
330
B6
100
AcDbScale
 70
     0
300
1:20
140
1.0
141
20.0
290
     0
  0
SCALE
  5
BF
102
{ACAD_REACTORS
330
B6
102
}
330
B6
100
AcDbScale
 70
     0
300
1:30
140
1.0
141
30.0
290
     0
  0
SCALE
  5
C0
102
{ACAD_REACTORS
330
B6
102
}
330
B6
100
AcDbScale
 70
     0
300
1:40
140
1.0
141
40.0
290
     0
  0
SCALE
  5
C1
102
{ACAD_REACTORS
330
B6
102
}
330
B6
100
AcDbScale
 70
     0
300
1:50
140
1.0
141
50.0
290
     0
  0
SCALE
  5
C2
102
{ACAD_REACTORS
330
B6
102
}
330
B6
100
AcDbScale
 70
     0
300
1:100
140
1.0
141
100.0
290
     0
  0
SCALE
  5
C3
102
{ACAD_REACTORS
330
B6
102
}
330
B6
100
AcDbScale
 70
     0
300
2:1
140
2.0
141
1.0
290
     0
  0
SCALE
  5
C4
102
{ACAD_REACTORS
330
B6
102
}
330
B6
100
AcDbScale
 70
     0
300
4:1
140
4.0
141
1.0
290
     0
  0
SCALE
  5
C5
102
{ACAD_REACTORS
330
B6
102
}
330
B6
100
AcDbScale
 70
     0
300
8:1
140
8.0
141
1.0
290
     0
  0
SCALE
  5
C6
102
{ACAD_REACTORS
330
B6
102
}
330
B6
100
AcDbScale
 70
     0
300
10:1
140
10.0
141
1.0
290
     0
  0
SCALE
  5
C7
102
{ACAD_REACTORS
330
B6
102
}
330
B6
100
AcDbScale
 70
     0
300
100:1
140
100.0
141
1.0
290
     0
  0
SCALE
  5
C8
102
{ACAD_REACTORS
330
B6
102
}
330
B6
100
AcDbScale
 70
     0
300
1/128" = 1'-0"
140
0.0078125
141
12.0
290
     0
  0
SCALE
  5
C9
102
{ACAD_REACTORS
330
B6
102
}
330
B6
100
AcDbScale
 70
     0
300
1/64" = 1'-0"
140
0.015625
141
12.0
290
     0
  0
SCALE
  5
CA
102
{ACAD_REACTORS
330
B6
102
}
330
B6
100
AcDbScale
 70
     0
300
1/32" = 1'-0"
140
0.03125
141
12.0
290
     0
  0
SCALE
  5
CB
102
{ACAD_REACTORS
330
B6
102
}
330
B6
100
AcDbScale
 70
     0
300
1/16" = 1'-0"
140
0.0625
141
12.0
290
     0
  0
SCALE
  5
CC
102
{ACAD_REACTORS
330
B6
102
}
330
B6
100
AcDbScale
 70
     0
300
3/32" = 1'-0"
140
0.09375
141
12.0
290
     0
  0
SCALE
  5
CD
102
{ACAD_REACTORS
330
B6
102
}
330
B6
100
AcDbScale
 70
     0
300
1/8" = 1'-0"
140
0.125
141
12.0
290
     0
  0
SCALE
  5
CE
102
{ACAD_REACTORS
330
B6
102
}
330
B6
100
AcDbScale
 70
     0
300
3/16" = 1'-0"
140
0.1875
141
12.0
290
     0
  0
SCALE
  5
CF
102
{ACAD_REACTORS
330
B6
102
}
330
B6
100
AcDbScale
 70
     0
300
1/4" = 1'-0"
140
0.25
141
12.0
290
     0
  0
SCALE
  5
D0
102
{ACAD_REACTORS
330
B6
102
}
330
B6
100
AcDbScale
 70
     0
300
3/8" = 1'-0"
140
0.375
141
12.0
290
     0
  0
SCALE
  5
D1
102
{ACAD_REACTORS
330
B6
102
}
330
B6
100
AcDbScale
 70
     0
300
1/2" = 1'-0"
140
0.5
141
12.0
290
     0
  0
SCALE
  5
D2
102
{ACAD_REACTORS
330
B6
102
}
330
B6
100
AcDbScale
 70
     0
300
3/4" = 1'-0"
140
0.75
141
12.0
290
     0
  0
SCALE
  5
D3
102
{ACAD_REACTORS
330
B6
102
}
330
B6
100
AcDbScale
 70
     0
300
1" = 1'-0"
140
1.0
141
12.0
290
     0
  0
SCALE
  5
D4
102
{ACAD_REACTORS
330
B6
102
}
330
B6
100
AcDbScale
 70
     0
300
1-1/2" = 1'-0"
140
1.5
141
12.0
290
     0
  0
SCALE
  5
D5
102
{ACAD_REACTORS
330
B6
102
}
330
B6
100
AcDbScale
 70
     0
300
3" = 1'-0"
140
3.0
141
12.0
290
     0
  0
SCALE
  5
D6
102
{ACAD_REACTORS
330
B6
102
}
330
B6
100
AcDbScale
 70
     0
300
6" = 1'-0"
140
6.0
141
12.0
290
     0
  0
SCALE
  5
D7
102
{ACAD_REACTORS
330
B6
102
}
330
B6
100
AcDbScale
 70
     0
300
1'-0" = 1'-0"
140
12.0
141
12.0
290
     0
  0
TABLESTYLE
  5
87
102
{ACAD_REACTORS
330
86
102
}
102
{ACAD_XDICTIONARY
360
A6B
102
}
330
86
100
AcDbTableStyle
  3
Standard
 70
     0
 71
     0
 40
0.06
 41
0.06
280
     0
281
     0
  7
Standard
140
0.18
170
     2
 62
     0
 63
   257
283
     0
 90
      512
 91
        0
  1

274
    -2
284
     1
 64
     0
275
    -2
285
     1
 65
     0
276
    -2
286
     1
 66
     0
277
    -2
287
     1
 67
     0
278
    -2
288
     1
 68
     0
279
    -2
289
     1
 69
     0
  7
Standard
140
0.25
170
     5
 62
     0
 63
   257
283
     0
 90
      512
 91
        0
  1

274
    -2
284
     1
 64
     0
275
    -2
285
     1
 65
     0
276
    -2
286
     1
 66
     0
277
    -2
287
     1
 67
     0
278
    -2
288
     1
 68
     0
279
    -2
289
     1
 69
     0
  7
Standard
140
0.18
170
     5
 62
     0
 63
   257
283
     0
 90
      512
 91
        0
  1

274
    -2
284
     1
 64
     0
275
    -2
285
     1
 65
     0
276
    -2
286
     1
 66
     0
277
    -2
287
     1
 67
     0
278
    -2
288
     1
 68
     0
279
    -2
289
     1
 69
     0
  0
VISUALSTYLE
  5
9F
102
{ACAD_REACTORS
330
99
102
}
330
99
100
AcDbVisualStyle
  2
2dWireframe
 70
     4
177
     3
291
     0
 70
    58
 90
        0
176
     1
 90
        2
176
     1
 90
        1
176
     1
 90
        0
176
     1
 40
-0.6
176
     1
 40
-30.0
176
     1
 62
     7
420
 16777215
176
     1
 90
        1
176
     1
 90
        4
176
     1
 62
     7
176
     1
 62
   257
176
     1
 90
        1
176
     1
 90
        1
176
     1
 40
1.0
176
     1
 90
        0
176
     1
 62
   257
176
     1
 40
1.0
176
     1
 90
        1
176
     1
 90
        6
176
     1
 90
        2
176
     1
 62
     7
176
     1
 90
        5
176
     1
 90
        0
176
     1
 90
        0
176
     1
290
     0
176
     1
 90
        1
176
     1
 40
0.0
176
     1
 90
        0
176
     1
290
     1
176
     1
290
     1
176
     1
290
     0
176
     1
290
     0
176
     1
290
     0
176
     1
290
     0
176
     1
290
     0
176
     1
290
     0
176
     1
290
     0
176
     1
 90
       50
176
     1
 40
0.0
176
     1
 40
1.0
176
     1
 90
        0
176
     1
 62
    18
420
        0
176
     1
 90
       50
176
     1
 90
        3
176
     1
 62
     5
420
      255
176
     1
290
     0
176
     1
 90
       50
176
     1
 90
       50
176
     1
 90
       50
176
     1
290
     0
176
     1
 90
       50
176
     1
 62
   256
176
     0
 40
1.0
176
     0
 90
        2
176
     1
  1
strokes_ogs.tif
176
     1
290
     0
176
     1
 40
1.0
176
     1
 40
1.0
176
     1
  0
VISUALSTYLE
  5
A1
102
{ACAD_REACTORS
330
99
102
}
330
99
100
AcDbVisualStyle
  2
3D Hidden
 70
     6
177
     3
291
     0
 70
    58
 90
        1
176
     1
 90
        2
176
     1
 90
        2
176
     1
 90
        0
176
     1
 40
-0.6
176
     1
 40
-30.0
176
     1
 62
     7
420
 16777215
176
     1
 90
        2
176
     1
 90
        2
176
     1
 62
     7
176
     1
 62
   257
176
     1
 90
        2
176
     1
 90
        1
176
     1
 40
40.0
176
     1
 90
        0
176
     1
 62
   257
176
     1
 40
1.0
176
     1
 90
        1
176
     1
 90
        6
176
     1
 90
        2
176
     1
 62
     7
176
     1
 90
        3
176
     1
 90
        0
176
     1
 90
        0
176
     1
290
     0
176
     1
 90
        1
176
     1
 40
0.0
176
     1
 90
        0
176
     1
290
     0
176
     1
290
     1
176
     1
290
     1
176
     1
290
     0
176
     1
290
     0
176
     1
290
     0
176
     1
290
     0
176
     1
290
     0
176
     1
290
     0
176
     1
 90
       50
176
     1
 40
0.0
176
     1
 40
1.0
176
     1
 90
        0
176
     1
 62
    18
420
        0
176
     1
 90
       50
176
     1
 90
        3
176
     1
 62
     5
420
      255
176
     1
290
     0
176
     1
 90
       50
176
     1
 90
       50
176
     1
 90
       50
176
     1
290
     0
176
     1
 90
       50
176
     1
 62
   256
176
     0
 40
1.0
176
     0
 90
        2
176
     1
  1
strokes_ogs.tif
176
     1
290
     0
176
     1
 40
1.0
176
     1
 40
1.0
176
     1
  0
VISUALSTYLE
  5
A0
102
{ACAD_REACTORS
330
99
102
}
330
99
100
AcDbVisualStyle
  2
3dWireframe
 70
     5
177
     3
291
     0
 70
    58
 90
        0
176
     1
 90
        2
176
     1
 90
        1
176
     1
 90
        0
176
     1
 40
-0.6
176
     1
 40
-30.0
176
     1
 62
     7
420
 16777215
176
     1
 90
        1
176
     1
 90
        4
176
     1
 62
     7
176
     1
 62
   257
176
     1
 90
        1
176
     1
 90
        1
176
     1
 40
1.0
176
     1
 90
        0
176
     1
 62
   257
176
     1
 40
1.0
176
     1
 90
        1
176
     1
 90
        6
176
     1
 90
        2
176
     1
 62
     7
176
     1
 90
        5
176
     1
 90
        0
176
     1
 90
        0
176
     1
290
     0
176
     1
 90
        1
176
     1
 40
0.0
176
     1
 90
        0
176
     1
290
     0
176
     1
290
     1
176
     1
290
     1
176
     1
290
     0
176
     1
290
     0
176
     1
290
     0
176
     1
290
     0
176
     1
290
     0
176
     1
290
     0
176
     1
 90
       50
176
     1
 40
0.0
176
     1
 40
1.0
176
     1
 90
        0
176
     1
 62
    18
420
        0
176
     1
 90
       50
176
     1
 90
        3
176
     1
 62
     5
420
      255
176
     1
290
     0
176
     1
 90
       50
176
     1
 90
       50
176
     1
 90
       50
176
     1
290
     0
176
     1
 90
       50
176
     1
 62
   256
176
     0
 40
1.0
176
     0
 90
        2
176
     1
  1
strokes_ogs.tif
176
     1
290
     0
176
     1
 40
1.0
176
     1
 40
1.0
176
     1
  0
VISUALSTYLE
  5
9E
102
{ACAD_REACTORS
330
99
102
}
330
99
100
AcDbVisualStyle
  2
Basic
 70
     7
177
     3
291
     1
 70
    58
 90
        1
176
     1
 90
        0
176
     1
 90
        1
176
     1
 90
        0
176
     1
 40
-0.6
176
     1
 40
-30.0
176
     1
 62
     7
420
 16777215
176
     1
 90
        0
176
     1
 90
        4
176
     1
 62
     7
176
     1
 62
   257
176
     1
 90
        1
176
     1
 90
        1
176
     1
 40
1.0
176
     1
 90
        8
176
     1
 62
     7
176
     1
 40
1.0
176
     1
 90
        1
176
     1
 90
        6
176
     1
 90
        2
176
     1
 62
     7
176
     1
 90
        5
176
     1
 90
        0
176
     1
 90
        0
176
     1
290
     0
176
     1
 90
        1
176
     1
 40
0.0
176
     1
 90
        0
176
     1
290
     0
176
     1
290
     1
176
     1
290
     1
176
     1
290
     0
176
     1
290
     0
176
     1
290
     0
176
     1
290
     0
176
     1
290
     0
176
     1
290
     0
176
     1
 90
       50
176
     1
 40
0.0
176
     1
 40
1.0
176
     1
 90
        0
176
     1
 62
    18
420
        0
176
     1
 90
       50
176
     1
 90
        3
176
     1
 62
     5
420
      255
176
     1
290
     0
176
     1
 90
       50
176
     1
 90
       50
176
     1
 90
       50
176
     1
290
     0
176
     1
 90
       50
176
     1
 62
   256
176
     0
 40
1.0
176
     0
 90
        2
176
     1
  1
strokes_ogs.tif
176
     1
290
     0
176
     1
 40
1.0
176
     1
 40
1.0
176
     1
  0
VISUALSTYLE
  5
A5
102
{ACAD_REACTORS
330
99
102
}
330
99
100
AcDbVisualStyle
  2
Brighten
 70
    12
177
     3
291
     1
 70
    58
 90
        2
176
     1
 90
        2
176
     1
 90
        1
176
     1
 90
        0
176
     1
 40
-0.6
176
     1
 40
-30.0
176
     1
 62
     7
420
 16777215
176
     1
 90
        1
176
     1
 90
        4
176
     1
 62
     7
176
     1
 62
   257
176
     1
 90
        1
176
     1
 90
        1
176
     1
 40
1.0
176
     1
 90
        8
176
     1
 62
     7
176
     1
 40
1.0
176
     1
 90
        1
176
     1
 90
        6
176
     1
 90
        2
176
     1
 62
     7
176
     1
 90
        5
176
     1
 90
        0
176
     1
 90
        0
176
     1
290
     0
176
     1
 90
        1
176
     1
 40
50.0
176
     1
 90
        0
176
     1
290
     0
176
     1
290
     1
176
     1
290
     1
176
     1
290
     0
176
     1
290
     0
176
     1
290
     0
176
     1
290
     0
176
     1
290
     0
176
     1
290
     0
176
     1
 90
       50
176
     1
 40
0.0
176
     1
 40
1.0
176
     1
 90
        0
176
     1
 62
    18
420
        0
176
     1
 90
       50
176
     1
 90
        3
176
     1
 62
     5
420
      255
176
     1
290
     0
176
     1
 90
       50
176
     1
 90
       50
176
     1
 90
       50
176
     1
290
     0
176
     1
 90
       50
176
     1
 62
   256
176
     0
 40
1.0
176
     0
 90
        2
176
     1
  1
strokes_ogs.tif
176
     1
290
     0
176
     1
 40
1.0
176
     1
 40
1.0
176
     1
  0
VISUALSTYLE
  5
A9
102
{ACAD_REACTORS
330
99
102
}
330
99
100
AcDbVisualStyle
  2
ColorChange
 70
    16
177
     3
291
     1
 70
    58
 90
        2
176
     1
 90
        2
176
     1
 90
        3
176
     1
 90
        0
176
     1
 40
-0.6
176
     1
 40
-30.0
176
     1
 62
     8
420
  8421504
176
     1
 90
        1
176
     1
 90
        4
176
     1
 62
     7
176
     1
 62
   257
176
     1
 90
        1
176
     1
 90
        1
176
     1
 40
1.0
176
     1
 90
        8
176
     1
 62
     8
420
  8421504
176
     1
 40
1.0
176
     1
 90
        1
176
     1
 90
        6
176
     1
 90
        2
176
     1
 62
     7
176
     1
 90
        5
176
     1
 90
        0
176
     1
 90
        0
176
     1
290
     0
176
     1
 90
        1
176
     1
 40
0.0
176
     1
 90
        0
176
     1
290
     0
176
     1
290
     1
176
     1
290
     1
176
     1
290
     0
176
     1
290
     0
176
     1
290
     0
176
     1
290
     0
176
     1
290
     0
176
     1
290
     0
176
     1
 90
       50
176
     1
 40
0.0
176
     1
 40
1.0
176
     1
 90
        0
176
     1
 62
    18
420
        0
176
     1
 90
       50
176
     1
 90
        3
176
     1
 62
     5
420
      255
176
     1
290
     0
176
     1
 90
       50
176
     1
 90
       50
176
     1
 90
       50
176
     1
290
     0
176
     1
 90
       50
176
     1
 62
   256
176
     0
 40
1.0
176
     0
 90
        2
176
     1
  1
strokes_ogs.tif
176
     1
290
     0
176
     1
 40
1.0
176
     1
 40
1.0
176
     1
  0
VISUALSTYLE
  5
A2
102
{ACAD_REACTORS
330
99
102
}
330
99
100
AcDbVisualStyle
  2
Conceptual
 70
     9
177
     3
291
     0
 70
    58
 90
        3
176
     1
 90
        2
176
     1
 90
        1
176
     1
 90
        0
176
     1
 40
-0.6
176
     1
 40
-30.0
176
     1
 62
     7
420
 16777215
176
     1
 90
        2
176
     1
 90
        2
176
     1
 62
     7
176
     1
 62
   257
176
     1
 90
        1
176
     1
 90
        1
176
     1
 40
40.0
176
     1
 90
        8
176
     1
 62
     7
176
     1
 40
1.0
176
     1
 90
        1
176
     1
 90
        6
176
     1
 90
        2
176
     1
 62
     7
176
     1
 90
        3
176
     1
 90
        0
176
     1
 90
        0
176
     1
290
     0
176
     1
 90
        1
176
     1
 40
0.0
176
     1
 90
        0
176
     1
290
     0
176
     1
290
     1
176
     1
290
     1
176
     1
290
     0
176
     1
290
     0
176
     1
290
     0
176
     1
290
     0
176
     1
290
     0
176
     1
290
     0
176
     1
 90
       50
176
     1
 40
0.0
176
     1
 40
1.0
176
     1
 90
        0
176
     1
 62
    18
420
        0
176
     1
 90
       50
176
     1
 90
        3
176
     1
 62
     5
420
      255
176
     1
290
     0
176
     1
 90
       50
176
     1
 90
       50
176
     1
 90
       50
176
     1
290
     0
176
     1
 90
       50
176
     1
 62
   256
176
     0
 40
1.0
176
     0
 90
        2
176
     1
  1
strokes_ogs.tif
176
     1
290
     0
176
     1
 40
1.0
176
     1
 40
1.0
176
     1
  0
VISUALSTYLE
  5
A4
102
{ACAD_REACTORS
330
99
102
}
330
99
100
AcDbVisualStyle
  2
Dim
 70
    11
177
     3
291
     1
 70
    58
 90
        2
176
     1
 90
        2
176
     1
 90
        1
176
     1
 90
        0
176
     1
 40
-0.6
176
     1
 40
-30.0
176
     1
 62
     7
420
 16777215
176
     1
 90
        1
176
     1
 90
        4
176
     1
 62
     7
176
     1
 62
   257
176
     1
 90
        1
176
     1
 90
        1
176
     1
 40
1.0
176
     1
 90
        8
176
     1
 62
     7
176
     1
 40
1.0
176
     1
 90
        1
176
     1
 90
        6
176
     1
 90
        2
176
     1
 62
     7
176
     1
 90
        5
176
     1
 90
        0
176
     1
 90
        0
176
     1
290
     0
176
     1
 90
        1
176
     1
 40
-50.0
176
     1
 90
        0
176
     1
290
     0
176
     1
290
     1
176
     1
290
     1
176
     1
290
     0
176
     1
290
     0
176
     1
290
     0
176
     1
290
     0
176
     1
290
     0
176
     1
290
     0
176
     1
 90
       50
176
     1
 40
0.0
176
     1
 40
1.0
176
     1
 90
        0
176
     1
 62
    18
420
        0
176
     1
 90
       50
176
     1
 90
        3
176
     1
 62
     5
420
      255
176
     1
290
     0
176
     1
 90
       50
176
     1
 90
       50
176
     1
 90
       50
176
     1
290
     0
176
     1
 90
       50
176
     1
 62
   256
176
     0
 40
1.0
176
     0
 90
        2
176
     1
  1
strokes_ogs.tif
176
     1
290
     0
176
     1
 40
1.0
176
     1
 40
1.0
176
     1
  0
VISUALSTYLE
  5
E7
102
{ACAD_REACTORS
330
99
102
}
330
99
100
AcDbVisualStyle
  2
EdgeColorOff
 70
    22
177
     3
291
     1
 70
    58
 90
        2
176
     0
 90
        2
176
     0
 90
        0
176
     0
 90
        0
176
     0
 40
0.6
176
     0
 40
30.0
176
     0
 62
     7
420
 16777215
176
     0
 90
        1
176
     0
 90
        4
176
     0
 62
     7
176
     0
 62
   257
176
     0
 90
        1
176
     0
 90
        1
176
     0
 40
1.0
176
     0
 90
        8
176
     2
 62
     7
176
     0
 40
1.0
176
     0
 90
        1
176
     0
 90
        6
176
     0
 90
        2
176
     0
 62
     7
176
     0
 90
        5
176
     0
 90
        0
176
     0
 90
        0
176
     0
290
     0
176
     0
 90
        1
176
     0
 40
0.0
176
     0
 90
        0
176
     0
290
     0
176
     0
290
     1
176
     0
290
     1
176
     0
290
     0
176
     0
290
     0
176
     0
290
     0
176
     0
290
     0
176
     0
290
     0
176
     0
290
     0
176
     0
 90
       50
176
     0
 40
0.0
176
     0
 40
1.0
176
     0
 90
        0
176
     0
 62
    18
420
        0
176
     0
 90
       50
176
     0
 90
        3
176
     0
 62
     5
420
      255
176
     0
290
     0
176
     0
 90
       50
176
     0
 90
       50
176
     0
 90
       50
176
     0
290
     0
176
     0
 90
       50
176
     0
 62
   256
176
     0
 40
1.0
176
     0
 90
        2
176
     0
  1
strokes_ogs.tif
176
     0
290
     0
176
     0
 40
1.0
176
     0
 40
1.0
176
     0
  0
VISUALSTYLE
  5
A8
102
{ACAD_REACTORS
330
99
102
}
330
99
100
AcDbVisualStyle
  2
Facepattern
 70
    15
177
     3
291
     1
 70
    58
 90
        2
176
     1
 90
        2
176
     1
 90
        1
176
     1
 90
        0
176
     1
 40
-0.6
176
     1
 40
-30.0
176
     1
 62
     7
420
 16777215
176
     1
 90
        1
176
     1
 90
        4
176
     1
 62
     7
176
     1
 62
   257
176
     1
 90
        1
176
     1
 90
        1
176
     1
 40
1.0
176
     1
 90
        8
176
     1
 62
     7
176
     1
 40
1.0
176
     1
 90
        1
176
     1
 90
        6
176
     1
 90
        2
176
     1
 62
     7
176
     1
 90
        5
176
     1
 90
        0
176
     1
 90
        0
176
     1
290
     0
176
     1
 90
        1
176
     1
 40
0.0
176
     1
 90
        0
176
     1
290
     0
176
     1
290
     1
176
     1
290
     1
176
     1
290
     0
176
     1
290
     0
176
     1
290
     0
176
     1
290
     0
176
     1
290
     0
176
     1
290
     0
176
     1
 90
       50
176
     1
 40
0.0
176
     1
 40
1.0
176
     1
 90
        0
176
     1
 62
    18
420
        0
176
     1
 90
       50
176
     1
 90
        3
176
     1
 62
     5
420
      255
176
     1
290
     0
176
     1
 90
       50
176
     1
 90
       50
176
     1
 90
       50
176
     1
290
     0
176
     1
 90
       50
176
     1
 62
   256
176
     0
 40
1.0
176
     0
 90
        2
176
     1
  1
strokes_ogs.tif
176
     1
290
     0
176
     1
 40
1.0
176
     1
 40
1.0
176
     1
  0
VISUALSTYLE
  5
9A
102
{ACAD_REACTORS
330
99
102
}
330
99
100
AcDbVisualStyle
  2
Flat
 70
     0
177
     3
291
     1
 70
    58
 90
        2
176
     1
 90
        1
176
     1
 90
        1
176
     1
 90
        2
176
     1
 40
-0.6
176
     1
 40
30.0
176
     1
 62
     7
420
 16777215
176
     1
 90
        0
176
     1
 90
        4
176
     1
 62
     7
176
     1
 62
   257
176
     1
 90
        1
176
     1
 90
        1
176
     1
 40
1.0
176
     1
 90
        8
176
     1
 62
     7
176
     1
 40
1.0
176
     1
 90
        1
176
     1
 90
        6
176
     1
 90
        2
176
     1
 62
     7
176
     1
 90
        5
176
     1
 90
        0
176
     1
 90
        0
176
     1
290
     0
176
     1
 90
        1
176
     1
 40
0.0
176
     1
 90
        0
176
     1
290
     0
176
     1
290
     1
176
     1
290
     1
176
     1
290
     0
176
     1
290
     0
176
     1
290
     0
176
     1
290
     0
176
     1
290
     0
176
     1
290
     0
176
     1
 90
       50
176
     1
 40
0.0
176
     1
 40
1.0
176
     1
 90
        0
176
     1
 62
    18
420
        0
176
     1
 90
       50
176
     1
 90
        3
176
     1
 62
     5
420
      255
176
     1
290
     0
176
     1
 90
       50
176
     1
 90
       50
176
     1
 90
       50
176
     1
290
     0
176
     1
 90
       50
176
     1
 62
   256
176
     0
 40
1.0
176
     0
 90
        2
176
     1
  1
strokes_ogs.tif
176
     1
290
     0
176
     1
 40
1.0
176
     1
 40
1.0
176
     1
  0
VISUALSTYLE
  5
9B
102
{ACAD_REACTORS
330
99
102
}
330
99
100
AcDbVisualStyle
  2
FlatWithEdges
 70
     1
177
     3
291
     1
 70
    58
 90
        2
176
     1
 90
        1
176
     1
 90
        1
176
     1
 90
        2
176
     1
 40
-0.6
176
     1
 40
30.0
176
     1
 62
     7
420
 16777215
176
     1
 90
        1
176
     1
 90
        4
176
     1
 62
     7
176
     1
 62
   257
176
     1
 90
        1
176
     1
 90
        1
176
     1
 40
1.0
176
     1
 90
        0
176
     1
 62
   257
176
     1
 40
1.0
176
     1
 90
        1
176
     1
 90
        6
176
     1
 90
        2
176
     1
 62
     7
176
     1
 90
        5
176
     1
 90
        0
176
     1
 90
        0
176
     1
290
     0
176
     1
 90
        1
176
     1
 40
0.0
176
     1
 90
        0
176
     1
290
     0
176
     1
290
     1
176
     1
290
     1
176
     1
290
     0
176
     1
290
     0
176
     1
290
     0
176
     1
290
     0
176
     1
290
     0
176
     1
290
     0
176
     1
 90
       50
176
     1
 40
0.0
176
     1
 40
1.0
176
     1
 90
        0
176
     1
 62
    18
420
        0
176
     1
 90
       50
176
     1
 90
        3
176
     1
 62
     5
420
      255
176
     1
290
     0
176
     1
 90
       50
176
     1
 90
       50
176
     1
 90
       50
176
     1
290
     0
176
     1
 90
       50
176
     1
 62
   256
176
     0
 40
1.0
176
     0
 90
        2
176
     1
  1
strokes_ogs.tif
176
     1
290
     0
176
     1
 40
1.0
176
     1
 40
1.0
176
     1
  0
VISUALSTYLE
  5
9C
102
{ACAD_REACTORS
330
99
102
}
330
99
100
AcDbVisualStyle
  2
Gouraud
 70
     2
177
     3
291
     1
 70
    58
 90
        2
176
     1
 90
        2
176
     1
 90
        1
176
     1
 90
        2
176
     1
 40
-0.6
176
     1
 40
30.0
176
     1
 62
     7
420
 16777215
176
     1
 90
        0
176
     1
 90
        4
176
     1
 62
     7
176
     1
 62
   257
176
     1
 90
        1
176
     1
 90
        1
176
     1
 40
1.0
176
     1
 90
        0
176
     1
 62
     7
176
     1
 40
1.0
176
     1
 90
        1
176
     1
 90
        6
176
     1
 90
        2
176
     1
 62
     7
176
     1
 90
        5
176
     1
 90
        0
176
     1
 90
        0
176
     1
290
     0
176
     1
 90
        1
176
     1
 40
0.0
176
     1
 90
        0
176
     1
290
     0
176
     1
290
     1
176
     1
290
     1
176
     1
290
     0
176
     1
290
     0
176
     1
290
     0
176
     1
290
     0
176
     1
290
     0
176
     1
290
     0
176
     1
 90
       50
176
     1
 40
0.0
176
     1
 40
1.0
176
     1
 90
        0
176
     1
 62
    18
420
        0
176
     1
 90
       50
176
     1
 90
        3
176
     1
 62
     5
420
      255
176
     1
290
     0
176
     1
 90
       50
176
     1
 90
       50
176
     1
 90
       50
176
     1
290
     0
176
     1
 90
       50
176
     1
 62
   256
176
     0
 40
1.0
176
     0
 90
        2
176
     1
  1
strokes_ogs.tif
176
     1
290
     0
176
     1
 40
1.0
176
     1
 40
1.0
176
     1
  0
VISUALSTYLE
  5
9D
102
{ACAD_REACTORS
330
99
102
}
330
99
100
AcDbVisualStyle
  2
GouraudWithEdges
 70
     3
177
     3
291
     1
 70
    58
 90
        2
176
     1
 90
        2
176
     1
 90
        1
176
     1
 90
        2
176
     1
 40
-0.6
176
     1
 40
30.0
176
     1
 62
     7
420
 16777215
176
     1
 90
        1
176
     1
 90
        4
176
     1
 62
     7
176
     1
 62
   257
176
     1
 90
        1
176
     1
 90
        1
176
     1
 40
1.0
176
     1
 90
        0
176
     1
 62
   257
176
     1
 40
1.0
176
     1
 90
        1
176
     1
 90
        6
176
     1
 90
        2
176
     1
 62
     7
176
     1
 90
        5
176
     1
 90
        0
176
     1
 90
        0
176
     1
290
     0
176
     1
 90
        1
176
     1
 40
0.0
176
     1
 90
        0
176
     1
290
     0
176
     1
290
     1
176
     1
290
     1
176
     1
290
     0
176
     1
290
     0
176
     1
290
     0
176
     1
290
     0
176
     1
290
     0
176
     1
290
     0
176
     1
 90
       50
176
     1
 40
0.0
176
     1
 40
1.0
176
     1
 90
        0
176
     1
 62
    18
420
        0
176
     1
 90
       50
176
     1
 90
        3
176
     1
 62
     5
420
      255
176
     1
290
     0
176
     1
 90
       50
176
     1
 90
       50
176
     1
 90
       50
176
     1
290
     0
176
     1
 90
       50
176
     1
 62
   256
176
     0
 40
1.0
176
     0
 90
        2
176
     1
  1
strokes_ogs.tif
176
     1
290
     0
176
     1
 40
1.0
176
     1
 40
1.0
176
     1
  0
VISUALSTYLE
  5
E4
102
{ACAD_REACTORS
330
99
102
}
330
99
100
AcDbVisualStyle
  2
Hidden
 70
     6
177
     3
291
     0
 70
    58
 90
        1
176
     1
 90
        2
176
     1
 90
        2
176
     1
 90
        0
176
     1
 40
0.6
176
     1
 40
30.0
176
     1
 62
     7
420
 16777215
176
     1
 90
        2
176
     1
 90
        2
176
     1
 62
     7
176
     1
 62
   257
176
     1
 90
        2
176
     1
 90
        1
176
     1
 40
40.0
176
     1
 90
        0
176
     1
 62
   257
176
     1
 40
1.0
176
     1
 90
        1
176
     1
 90
        6
176
     1
 90
        2
176
     1
 62
     7
176
     1
 90
        3
176
     1
 90
        0
176
     1
 90
        0
176
     1
290
     0
176
     1
 90
        1
176
     1
 40
0.0
176
     1
 90
        0
176
     1
290
     0
176
     1
290
     1
176
     1
290
     1
176
     1
290
     0
176
     1
290
     0
176
     1
290
     0
176
     1
290
     0
176
     1
290
     0
176
     1
290
     0
176
     1
 90
       50
176
     1
 40
0.0
176
     1
 40
1.0
176
     1
 90
        0
176
     1
 62
    18
420
        0
176
     1
 90
       50
176
     1
 90
        3
176
     1
 62
     5
420
      255
176
     1
290
     0
176
     1
 90
       50
176
     1
 90
       50
176
     1
 90
       50
176
     1
290
     0
176
     1
 90
       50
176
     1
 62
   256
176
     0
 40
1.0
176
     0
 90
        2
176
     1
  1
strokes_ogs.tif
176
     1
290
     0
176
     1
 40
1.0
176
     1
 40
1.0
176
     1
  0
VISUALSTYLE
  5
E5
102
{ACAD_REACTORS
330
99
102
}
330
99
100
AcDbVisualStyle
  2
JitterOff
 70
    20
177
     3
291
     1
 70
    58
 90
        2
176
     0
 90
        2
176
     0
 90
        0
176
     0
 90
        0
176
     0
 40
0.6
176
     0
 40
30.0
176
     0
 62
     7
420
 16777215
176
     0
 90
        1
176
     0
 90
        4
176
     0
 62
     7
176
     0
 62
   257
176
     0
 90
        1
176
     0
 90
        1
176
     0
 40
1.0
176
     0
 90
       10
176
     2
 62
     7
176
     0
 40
1.0
176
     0
 90
        1
176
     0
 90
        6
176
     0
 90
        2
176
     0
 62
     7
176
     0
 90
        5
176
     0
 90
        0
176
     0
 90
        0
176
     0
290
     0
176
     0
 90
        1
176
     0
 40
0.0
176
     0
 90
        0
176
     0
290
     0
176
     0
290
     1
176
     0
290
     1
176
     0
290
     0
176
     0
290
     0
176
     0
290
     0
176
     0
290
     0
176
     0
290
     0
176
     0
290
     0
176
     0
 90
       50
176
     0
 40
0.0
176
     0
 40
1.0
176
     0
 90
        0
176
     0
 62
    18
420
        0
176
     0
 90
       50
176
     0
 90
        3
176
     0
 62
     5
420
      255
176
     0
290
     0
176
     0
 90
       50
176
     0
 90
       50
176
     0
 90
       50
176
     0
290
     0
176
     0
 90
       50
176
     0
 62
   256
176
     0
 40
1.0
176
     0
 90
        2
176
     0
  1
strokes_ogs.tif
176
     0
290
     0
176
     0
 40
1.0
176
     0
 40
1.0
176
     0
  0
VISUALSTYLE
  5
A7
102
{ACAD_REACTORS
330
99
102
}
330
99
100
AcDbVisualStyle
  2
Linepattern
 70
    14
177
     3
291
     1
 70
    58
 90
        2
176
     1
 90
        2
176
     1
 90
        1
176
     1
 90
        0
176
     1
 40
-0.6
176
     1
 40
-30.0
176
     1
 62
     7
420
 16777215
176
     1
 90
        1
176
     1
 90
        4
176
     1
 62
     7
176
     1
 62
   257
176
     1
 90
        7
176
     1
 90
        7
176
     1
 40
1.0
176
     1
 90
        8
176
     1
 62
     7
176
     1
 40
1.0
176
     1
 90
        1
176
     1
 90
        6
176
     1
 90
        2
176
     1
 62
     7
176
     1
 90
        5
176
     1
 90
        0
176
     1
 90
        0
176
     1
290
     0
176
     1
 90
        1
176
     1
 40
0.0
176
     1
 90
        0
176
     1
290
     0
176
     1
290
     1
176
     1
290
     1
176
     1
290
     0
176
     1
290
     0
176
     1
290
     0
176
     1
290
     0
176
     1
290
     0
176
     1
290
     0
176
     1
 90
       50
176
     1
 40
0.0
176
     1
 40
1.0
176
     1
 90
        0
176
     1
 62
    18
420
        0
176
     1
 90
       50
176
     1
 90
        3
176
     1
 62
     5
420
      255
176
     1
290
     0
176
     1
 90
       50
176
     1
 90
       50
176
     1
 90
       50
176
     1
290
     0
176
     1
 90
       50
176
     1
 62
   256
176
     0
 40
1.0
176
     0
 90
        2
176
     1
  1
strokes_ogs.tif
176
     1
290
     0
176
     1
 40
1.0
176
     1
 40
1.0
176
     1
  0
VISUALSTYLE
  5
E6
102
{ACAD_REACTORS
330
99
102
}
330
99
100
AcDbVisualStyle
  2
OverhangOff
 70
    21
177
     3
291
     1
 70
    58
 90
        2
176
     0
 90
        2
176
     0
 90
        0
176
     0
 90
        0
176
     0
 40
0.6
176
     0
 40
30.0
176
     0
 62
     7
420
 16777215
176
     0
 90
        1
176
     0
 90
        4
176
     0
 62
     7
176
     0
 62
   257
176
     0
 90
        1
176
     0
 90
        1
176
     0
 40
1.0
176
     0
 90
        9
176
     2
 62
     7
176
     0
 40
1.0
176
     0
 90
        1
176
     0
 90
        6
176
     0
 90
        2
176
     0
 62
     7
176
     0
 90
        5
176
     0
 90
        0
176
     0
 90
        0
176
     0
290
     0
176
     0
 90
        1
176
     0
 40
0.0
176
     0
 90
        0
176
     0
290
     0
176
     0
290
     1
176
     0
290
     1
176
     0
290
     0
176
     0
290
     0
176
     0
290
     0
176
     0
290
     0
176
     0
290
     0
176
     0
290
     0
176
     0
 90
       50
176
     0
 40
0.0
176
     0
 40
1.0
176
     0
 90
        0
176
     0
 62
    18
420
        0
176
     0
 90
       50
176
     0
 90
        3
176
     0
 62
     5
420
      255
176
     0
290
     0
176
     0
 90
       50
176
     0
 90
       50
176
     0
 90
       50
176
     0
290
     0
176
     0
 90
       50
176
     0
 62
   256
176
     0
 40
1.0
176
     0
 90
        2
176
     0
  1
strokes_ogs.tif
176
     0
290
     0
176
     0
 40
1.0
176
     0
 40
1.0
176
     0
  0
VISUALSTYLE
  5
A3
102
{ACAD_REACTORS
330
99
102
}
330
99
100
AcDbVisualStyle
  2
Realistic
 70
     8
177
     3
291
     0
 70
    58
 90
        2
176
     1
 90
        2
176
     1
 90
        1
176
     1
 90
        0
176
     1
 40
-0.6
176
     1
 40
-30.0
176
     1
 62
     7
420
 16777215
176
     1
 90
        1
176
     1
 90
        0
176
     1
 62
     7
176
     1
 62
   257
176
     1
 90
        1
176
     1
 90
        1
176
     1
 40
1.0
176
     1
 90
        8
176
     1
 62
     8
420
  7895160
176
     1
 40
1.0
176
     1
 90
        1
176
     1
 90
        6
176
     1
 90
        2
176
     1
 62
     7
176
     1
 90
        5
176
     1
 90
        0
176
     1
 90
        0
176
     1
290
     0
176
     1
 90
       13
176
     1
 40
0.0
176
     1
 90
        0
176
     1
290
     0
176
     1
290
     1
176
     1
290
     1
176
     1
290
     0
176
     1
290
     0
176
     1
290
     0
176
     1
290
     0
176
     1
290
     0
176
     1
290
     0
176
     1
 90
       50
176
     1
 40
0.0
176
     1
 40
1.0
176
     1
 90
        0
176
     1
 62
    18
420
        0
176
     1
 90
       50
176
     1
 90
        3
176
     1
 62
     5
420
      255
176
     1
290
     0
176
     1
 90
       50
176
     1
 90
       50
176
     1
 90
       50
176
     1
290
     0
176
     1
 90
       50
176
     1
 62
   256
176
     0
 40
1.0
176
     0
 90
        2
176
     1
  1
strokes_ogs.tif
176
     1
290
     0
176
     1
 40
1.0
176
     1
 40
1.0
176
     1
  0
VISUALSTYLE
  5
EC
102
{ACAD_REACTORS
330
99
102
}
330
99
100
AcDbVisualStyle
  2
Shaded
 70
    27
177
     3
291
     0
 70
    58
 90
        2
176
     1
 90
        2
176
     1
 90
        1
176
     1
 90
        2
176
     1
 40
0.6
176
     1
 40
30.0
176
     1
 62
     7
420
 16777215
176
     1
 90
        0
176
     1
 90
        4
176
     1
 62
     7
176
     1
 62
   257
176
     1
 90
        1
176
     1
 90
        1
176
     1
 40
1.0
176
     1
 90
        8
176
     1
 62
   257
176
     1
 40
1.0
176
     1
 90
        1
176
     1
 90
        6
176
     1
 90
        2
176
     1
 62
     8
420
  7895160
176
     1
 90
        3
176
     1
 90
        0
176
     1
 90
        0
176
     1
290
     0
176
     1
 90
        5
176
     1
 40
0.0
176
     1
 90
        0
176
     1
290
     0
176
     1
290
     1
176
     1
290
     1
176
     1
290
     0
176
     1
290
     0
176
     1
290
     0
176
     1
290
     0
176
     1
290
     0
176
     1
290
     0
176
     1
 90
       50
176
     1
 40
0.0
176
     1
 40
1.0
176
     1
 90
        0
176
     1
 62
    18
420
        0
176
     1
 90
       50
176
     1
 90
        3
176
     1
 62
     5
420
      255
176
     1
290
     0
176
     1
 90
       50
176
     1
 90
       50
176
     1
 90
       50
176
     1
290
     0
176
     1
 90
       50
176
     1
 62
   256
176
     0
 40
1.0
176
     0
 90
        2
176
     1
  1
strokes_ogs.tif
176
     1
290
     0
176
     1
 40
1.0
176
     1
 40
1.0
176
     1
  0
VISUALSTYLE
  5
EB
102
{ACAD_REACTORS
330
99
102
}
330
99
100
AcDbVisualStyle
  2
Shaded with edges
 70
    26
177
     3
291
     0
 70
    58
 90
        2
176
     1
 90
        2
176
     1
 90
        1
176
     1
 90
        2
176
     1
 40
0.6
176
     1
 40
30.0
176
     1
 62
     7
420
 16777215
176
     1
 90
        1
176
     1
 90
       10
176
     1
 62
     7
176
     1
 62
   257
176
     1
 90
        2
176
     1
 90
        1
176
     1
 40
1.0
176
     1
 90
        8
176
     1
 62
   257
176
     1
 40
1.0
176
     1
 90
        1
176
     1
 90
        6
176
     1
 90
        2
176
     1
 62
     7
176
     1
 90
        3
176
     1
 90
        0
176
     1
 90
        0
176
     1
290
     0
176
     1
 90
        5
176
     1
 40
0.0
176
     1
 90
        0
176
     1
290
     0
176
     1
290
     1
176
     1
290
     1
176
     1
290
     0
176
     1
290
     0
176
     1
290
     0
176
     1
290
     0
176
     1
290
     0
176
     1
290
     0
176
     1
 90
       50
176
     1
 40
0.0
176
     1
 40
1.0
176
     1
 90
        0
176
     1
 62
    18
420
        0
176
     1
 90
       50
176
     1
 90
        3
176
     1
 62
     5
420
      255
176
     1
290
     0
176
     1
 90
       50
176
     1
 90
       50
176
     1
 90
       50
176
     1
290
     0
176
     1
 90
       50
176
     1
 62
   256
176
     0
 40
1.0
176
     0
 90
        2
176
     1
  1
strokes_ogs.tif
176
     1
290
     0
176
     1
 40
1.0
176
     1
 40
1.0
176
     1
  0
VISUALSTYLE
  5
E8
102
{ACAD_REACTORS
330
99
102
}
330
99
100
AcDbVisualStyle
  2
Shades of Gray
 70
    23
177
     3
291
     0
 70
    58
 90
        2
176
     1
 90
        2
176
     1
 90
        3
176
     1
 90
        0
176
     1
 40
0.6
176
     1
 40
30.0
176
     1
 62
     7
420
 16777215
176
     1
 90
        2
176
     1
 90
        2
176
     1
 62
     7
176
     1
 62
     7
176
     1
 90
        1
176
     1
 90
        1
176
     1
 40
40.0
176
     1
 90
        8
176
     1
 62
     7
176
     1
 40
1.0
176
     1
 90
        1
176
     1
 90
        6
176
     1
 90
        2
176
     1
 62
     7
176
     1
 90
        3
176
     1
 90
        0
176
     1
 90
        0
176
     1
290
     0
176
     1
 90
        1
176
     1
 40
0.0
176
     1
 90
        0
176
     1
290
     0
176
     1
290
     1
176
     1
290
     1
176
     1
290
     0
176
     1
290
     0
176
     1
290
     0
176
     1
290
     0
176
     1
290
     0
176
     1
290
     0
176
     1
 90
       50
176
     1
 40
0.0
176
     1
 40
1.0
176
     1
 90
        0
176
     1
 62
    18
420
        0
176
     1
 90
       50
176
     1
 90
        3
176
     1
 62
     5
420
      255
176
     1
290
     0
176
     1
 90
       50
176
     1
 90
       50
176
     1
 90
       50
176
     1
290
     0
176
     1
 90
       50
176
     1
 62
   256
176
     0
 40
1.0
176
     0
 90
        2
176
     1
  1
strokes_ogs.tif
176
     1
290
     0
176
     1
 40
1.0
176
     1
 40
1.0
176
     1
  0
VISUALSTYLE
  5
E9
102
{ACAD_REACTORS
330
99
102
}
330
99
100
AcDbVisualStyle
  2
Sketchy
 70
    24
177
     3
291
     0
 70
    58
 90
        1
176
     1
 90
        2
176
     1
 90
        2
176
     1
 90
        0
176
     1
 40
0.6
176
     1
 40
30.0
176
     1
 62
     7
420
 16777215
176
     1
 90
        2
176
     1
 90
        2
176
     1
 62
     7
176
     1
 62
     7
176
     1
 90
        1
176
     1
 90
        1
176
     1
 40
40.0
176
     1
 90
       11
176
     1
 62
     7
176
     1
 40
1.0
176
     1
 90
        1
176
     1
 90
        6
176
     1
 90
        2
176
     1
 62
     7
176
     1
 90
        6
176
     1
 90
        0
176
     1
 90
        0
176
     1
290
     0
176
     1
 90
        1
176
     1
 40
0.0
176
     1
 90
        0
176
     1
290
     0
176
     1
290
     1
176
     1
290
     1
176
     1
290
     0
176
     1
290
     0
176
     1
290
     0
176
     1
290
     0
176
     1
290
     0
176
     1
290
     0
176
     1
 90
       50
176
     1
 40
0.0
176
     1
 40
1.0
176
     1
 90
        0
176
     1
 62
    18
420
        0
176
     1
 90
       50
176
     1
 90
        3
176
     1
 62
     5
420
      255
176
     1
290
     0
176
     1
 90
       50
176
     1
 90
       50
176
     1
 90
       50
176
     1
290
     0
176
     1
 90
       50
176
     1
 62
   256
176
     0
 40
1.0
176
     0
 90
        2
176
     1
  1
strokes_ogs.tif
176
     1
290
     0
176
     1
 40
1.0
176
     1
 40
1.0
176
     1
  0
VISUALSTYLE
  5
A6
102
{ACAD_REACTORS
330
99
102
}
330
99
100
AcDbVisualStyle
  2
Thicken
 70
    13
177
     3
291
     1
 70
    58
 90
        2
176
     1
 90
        2
176
     1
 90
        1
176
     1
 90
        0
176
     1
 40
-0.6
176
     1
 40
-30.0
176
     1
 62
     7
420
 16777215
176
     1
 90
        1
176
     1
 90
        4
176
     1
 62
     7
176
     1
 62
   257
176
     1
 90
        1
176
     1
 90
        1
176
     1
 40
1.0
176
     1
 90
       12
176
     1
 62
     7
176
     1
 40
1.0
176
     1
 90
        1
176
     1
 90
        6
176
     1
 90
        2
176
     1
 62
     7
176
     1
 90
        5
176
     1
 90
        0
176
     1
 90
        0
176
     1
290
     0
176
     1
 90
        1
176
     1
 40
0.0
176
     1
 90
        0
176
     1
290
     0
176
     1
290
     1
176
     1
290
     1
176
     1
290
     0
176
     1
290
     0
176
     1
290
     0
176
     1
290
     0
176
     1
290
     0
176
     1
290
     0
176
     1
 90
       50
176
     1
 40
0.0
176
     1
 40
1.0
176
     1
 90
        0
176
     1
 62
    18
420
        0
176
     1
 90
       50
176
     1
 90
        3
176
     1
 62
     5
420
      255
176
     1
290
     0
176
     1
 90
       50
176
     1
 90
       50
176
     1
 90
       50
176
     1
290
     0
176
     1
 90
       50
176
     1
 62
   256
176
     0
 40
1.0
176
     0
 90
        2
176
     1
  1
strokes_ogs.tif
176
     1
290
     0
176
     1
 40
1.0
176
     1
 40
1.0
176
     1
  0
VISUALSTYLE
  5
E3
102
{ACAD_REACTORS
330
99
102
}
330
99
100
AcDbVisualStyle
  2
Wireframe
 70
     5
177
     3
291
     0
 70
    58
 90
        0
176
     1
 90
        2
176
     1
 90
        0
176
     1
 90
        0
176
     1
 40
0.6
176
     1
 40
30.0
176
     1
 62
     7
420
 16777215
176
     1
 90
        1
176
     1
 90
        4
176
     1
 62
     7
176
     1
 62
   257
176
     1
 90
        1
176
     1
 90
        1
176
     1
 40
1.0
176
     1
 90
        0
176
     1
 62
   257
176
     1
 40
1.0
176
     1
 90
        1
176
     1
 90
        6
176
     1
 90
        2
176
     1
 62
     7
176
     1
 90
        3
176
     1
 90
        0
176
     1
 90
        0
176
     1
290
     0
176
     1
 90
        1
176
     1
 40
0.0
176
     1
 90
        0
176
     1
290
     0
176
     1
290
     1
176
     1
290
     1
176
     1
290
     0
176
     1
290
     0
176
     1
290
     0
176
     1
290
     0
176
     1
290
     0
176
     1
290
     0
176
     1
 90
       50
176
     1
 40
0.0
176
     1
 40
1.0
176
     1
 90
        0
176
     1
 62
    18
420
        0
176
     1
 90
       50
176
     1
 90
        3
176
     1
 62
     5
420
      255
176
     1
290
     0
176
     1
 90
       50
176
     1
 90
       50
176
     1
 90
       50
176
     1
290
     0
176
     1
 90
       50
176
     1
 62
   256
176
     0
 40
1.0
176
     0
 90
        2
176
     1
  1
strokes_ogs.tif
176
     1
290
     0
176
     1
 40
1.0
176
     1
 40
1.0
176
     1
  0
VISUALSTYLE
  5
EA
102
{ACAD_REACTORS
330
99
102
}
330
99
100
AcDbVisualStyle
  2
X-Ray
 70
    25
177
     3
291
     0
 70
    58
 90
        2
176
     1
 90
        2
176
     1
 90
        1
176
     1
 90
        1
176
     1
 40
0.5
176
     1
 40
30.0
176
     1
 62
     7
420
 16777215
176
     1
 90
        1
176
     1
 90
        0
176
     1
 62
     7
176
     1
 62
   257
176
     1
 90
        1
176
     1
 90
        1
176
     1
 40
1.0
176
     1
 90
        8
176
     1
 62
     7
176
     1
 40
1.0
176
     1
 90
        1
176
     1
 90
        6
176
     1
 90
        2
176
     1
 62
     7
176
     1
 90
        3
176
     1
 90
        0
176
     1
 90
        0
176
     1
290
     0
176
     1
 90
       13
176
     1
 40
0.0
176
     1
 90
        0
176
     1
290
     0
176
     1
290
     1
176
     1
290
     1
176
     1
290
     0
176
     1
290
     0
176
     1
290
     0
176
     1
290
     0
176
     1
290
     0
176
     1
290
     0
176
     1
 90
       50
176
     1
 40
0.0
176
     1
 40
1.0
176
     1
 90
        0
176
     1
 62
    18
420
        0
176
     1
 90
       50
176
     1
 90
        3
176
     1
 62
     5
420
      255
176
     1
290
     0
176
     1
 90
       50
176
     1
 90
       50
176
     1
 90
       50
176
     1
290
     0
176
     1
 90
       50
176
     1
 62
   256
176
     0
 40
1.0
176
     0
 90
        2
176
     1
  1
strokes_ogs.tif
176
     1
290
     0
176
     1
 40
1.0
176
     1
 40
1.0
176
     1
  0
DICTIONARYVAR
  5
D8
102
{ACAD_REACTORS
330
66
102
}
330
66
100
DictionaryVariables
280
     0
  1
1:1
  0
DICTIONARYVAR
  5
89
102
{ACAD_REACTORS
330
66
102
}
330
66
100
DictionaryVariables
280
     0
  1
Standard
  0
DICTIONARYVAR
  5
67
102
{ACAD_REACTORS
330
66
102
}
330
66
100
DictionaryVariables
280
     0
  1
2
  0
DICTIONARYVAR
  5
6B
102
{ACAD_REACTORS
330
66
102
}
330
66
100
DictionaryVariables
280
     0
  1
1
  0
DICTIONARYVAR
  5
DF
102
{ACAD_REACTORS
330
66
102
}
330
66
100
DictionaryVariables
280
     0
  1
0
  0
DICTIONARYVAR
  5
E0
102
{ACAD_REACTORS
330
66
102
}
330
66
100
DictionaryVariables
280
     0
  1
0
  0
DICTIONARY
  5
A6B
330
87
100
AcDbDictionary
280
     1
281
     1
  3
ACAD_ROUNDTRIP_2008_TABLESTYLE_CELLSTYLEMAP
360
A6C
  0
CELLSTYLEMAP
  5
A6C
102
{ACAD_REACTORS
330
A6B
102
}
330
A6B
100
AcDbCellStyleMap
 90
        3
300
CELLSTYLE
  1
TABLEFORMAT_BEGIN
 90
        5
170
     1
 91
        0
 92
    32768
 62
   257
 93
        1
300
CONTENTFORMAT
  1
CONTENTFORMAT_BEGIN
 90
        0
 91
        0
 92
      512
 93
        0
300

 40
0.0
140
1.0
 94
        5
 62
     0
340
11
144
0.25
309
CONTENTFORMAT_END
171
     0
 94
        6
 95
        1
302
GRIDFORMAT
  1
GRIDFORMAT_BEGIN
 90
        0
 91
        1
 62
     0
 92
       -2
340
0
 93
        0
 40
0.045
309
GRIDFORMAT_END
 95
        2
302
GRIDFORMAT
  1
GRIDFORMAT_BEGIN
 90
        0
 91
        1
 62
     0
 92
       -2
340
0
 93
        0
 40
0.045
309
GRIDFORMAT_END
 95
        4
302
GRIDFORMAT
  1
GRIDFORMAT_BEGIN
 90
        0
 91
        1
 62
     0
 92
       -2
340
0
 93
        0
 40
0.045
309
GRIDFORMAT_END
 95
        8
302
GRIDFORMAT
  1
GRIDFORMAT_BEGIN
 90
        0
 91
        1
 62
     0
 92
       -2
340
0
 93
        0
 40
0.045
309
GRIDFORMAT_END
 95
       16
302
GRIDFORMAT
  1
GRIDFORMAT_BEGIN
 90
        0
 91
        1
 62
     0
 92
       -2
340
0
 93
        0
 40
0.045
309
GRIDFORMAT_END
 95
       32
302
GRIDFORMAT
  1
GRIDFORMAT_BEGIN
 90
        0
 91
        1
 62
     0
 92
       -2
340
0
 93
        0
 40
0.045
309
GRIDFORMAT_END
309
TABLEFORMAT_END
  1
CELLSTYLE_BEGIN
 90
        1
 91
        1
300
_TITLE
309
CELLSTYLE_END
300
CELLSTYLE
  1
TABLEFORMAT_BEGIN
 90
        5
170
     1
 91
        0
 92
        0
 62
   257
 93
        1
300
CONTENTFORMAT
  1
CONTENTFORMAT_BEGIN
 90
        0
 91
        0
 92
      512
 93
        0
300

 40
0.0
140
1.0
 94
        5
 62
     0
340
11
144
0.18
309
CONTENTFORMAT_END
171
     0
 94
        6
 95
        1
302
GRIDFORMAT
  1
GRIDFORMAT_BEGIN
 90
        0
 91
        1
 62
     0
 92
       -2
340
0
 93
        0
 40
0.045
309
GRIDFORMAT_END
 95
        2
302
GRIDFORMAT
  1
GRIDFORMAT_BEGIN
 90
        0
 91
        1
 62
     0
 92
       -2
340
0
 93
        0
 40
0.045
309
GRIDFORMAT_END
 95
        4
302
GRIDFORMAT
  1
GRIDFORMAT_BEGIN
 90
        0
 91
        1
 62
     0
 92
       -2
340
0
 93
        0
 40
0.045
309
GRIDFORMAT_END
 95
        8
302
GRIDFORMAT
  1
GRIDFORMAT_BEGIN
 90
        0
 91
        1
 62
     0
 92
       -2
340
0
 93
        0
 40
0.045
309
GRIDFORMAT_END
 95
       16
302
GRIDFORMAT
  1
GRIDFORMAT_BEGIN
 90
        0
 91
        1
 62
     0
 92
       -2
340
0
 93
        0
 40
0.045
309
GRIDFORMAT_END
 95
       32
302
GRIDFORMAT
  1
GRIDFORMAT_BEGIN
 90
        0
 91
        1
 62
     0
 92
       -2
340
0
 93
        0
 40
0.045
309
GRIDFORMAT_END
309
TABLEFORMAT_END
  1
CELLSTYLE_BEGIN
 90
        2
 91
        1
300
_HEADER
309
CELLSTYLE_END
300
CELLSTYLE
  1
TABLEFORMAT_BEGIN
 90
        5
170
     1
 91
        0
 92
        0
 62
   257
 93
        1
300
CONTENTFORMAT
  1
CONTENTFORMAT_BEGIN
 90
        0
 91
        0
 92
      512
 93
        0
300

 40
0.0
140
1.0
 94
        2
 62
     0
340
11
144
0.18
309
CONTENTFORMAT_END
171
     0
 94
        6
 95
        1
302
GRIDFORMAT
  1
GRIDFORMAT_BEGIN
 90
        0
 91
        1
 62
     0
 92
       -2
340
0
 93
        0
 40
0.045
309
GRIDFORMAT_END
 95
        2
302
GRIDFORMAT
  1
GRIDFORMAT_BEGIN
 90
        0
 91
        1
 62
     0
 92
       -2
340
0
 93
        0
 40
0.045
309
GRIDFORMAT_END
 95
        4
302
GRIDFORMAT
  1
GRIDFORMAT_BEGIN
 90
        0
 91
        1
 62
     0
 92
       -2
340
0
 93
        0
 40
0.045
309
GRIDFORMAT_END
 95
        8
302
GRIDFORMAT
  1
GRIDFORMAT_BEGIN
 90
        0
 91
        1
 62
     0
 92
       -2
340
0
 93
        0
 40
0.045
309
GRIDFORMAT_END
 95
       16
302
GRIDFORMAT
  1
GRIDFORMAT_BEGIN
 90
        0
 91
        1
 62
     0
 92
       -2
340
0
 93
        0
 40
0.045
309
GRIDFORMAT_END
 95
       32
302
GRIDFORMAT
  1
GRIDFORMAT_BEGIN
 90
        0
 91
        1
 62
     0
 92
       -2
340
0
 93
        0
 40
0.045
309
GRIDFORMAT_END
309
TABLEFORMAT_END
  1
CELLSTYLE_BEGIN
 90
        3
 91
        2
300
_DATA
309
CELLSTYLE_END
  0
ENDSEC
  0
EOF
