  0
SECTION
  2
HEADER
  9
$ACADVER
  1
AC1027
  9
$ACADMAINTVER
 70
     8
  9
$DWGCODEPAGE
  3
ANSI_932
  9
$REQUIREDVERSIONS
160
                 0
  9
$LASTSAVEDBY
  1
akihiro
  9
$INSBASE
 10
0.0
 20
0.0
 30
0.0
  9
$EXTMIN
 10
21.49628544583797
 20
-22.8192037061433
 30
0.0
  9
$EXTMAX
 10
318.5006584394972
 20
156.1653114609284
 30
0.0
  9
$LIMMIN
 10
0.0
 20
0.0
  9
$LIMMAX
 10
12.0
 20
9.0
  9
$ORTHOMODE
 70
     0
  9
$REGENMODE
 70
     1
  9
$FILLMODE
 70
     1
  9
$QTEXTMODE
 70
     0
  9
$MIRRTEXT
 70
     0
  9
$LTSCALE
 40
1.0
  9
$ATTMODE
 70
     1
  9
$TEXTSIZE
 40
0.2
  9
$TRACEWID
 40
0.05
  9
$TEXTSTYLE
  7
Standard
  9
$CLAYER
  8
0
  9
$CELTYPE
  6
ByLayer
  9
$CECOLOR
 62
   256
  9
$CELTSCALE
 40
1.0
  9
$DISPSILH
 70
     0
  9
$DIMSCALE
 40
1.0
  9
$DIMASZ
 40
0.18
  9
$DIMEXO
 40
0.0625
  9
$DIMDLI
 40
0.38
  9
$DIMRND
 40
0.0
  9
$DIMDLE
 40
0.0
  9
$DIMEXE
 40
0.18
  9
$DIMTP
 40
0.0
  9
$DIMTM
 40
0.0
  9
$DIMTXT
 40
0.18
  9
$DIMCEN
 40
0.09
  9
$DIMTSZ
 40
0.0
  9
$DIMTOL
 70
     0
  9
$DIMLIM
 70
     0
  9
$DIMTIH
 70
     1
  9
$DIMTOH
 70
     1
  9
$DIMSE1
 70
     0
  9
$DIMSE2
 70
     0
  9
$DIMTAD
 70
     0
  9
$DIMZIN
 70
     0
  9
$DIMBLK
  1

  9
$DIMASO
 70
     1
  9
$DIMSHO
 70
     1
  9
$DIMPOST
  1

  9
$DIMAPOST
  1

  9
$DIMALT
 70
     0
  9
$DIMALTD
 70
     2
  9
$DIMALTF
 40
25.4
  9
$DIMLFAC
 40
1.0
  9
$DIMTOFL
 70
     0
  9
$DIMTVP
 40
0.0
  9
$DIMTIX
 70
     0
  9
$DIMSOXD
 70
     0
  9
$DIMSAH
 70
     0
  9
$DIMBLK1
  1

  9
$DIMBLK2
  1

  9
$DIMSTYLE
  2
Standard
  9
$DIMCLRD
 70
     0
  9
$DIMCLRE
 70
     0
  9
$DIMCLRT
 70
     0
  9
$DIMTFAC
 40
1.0
  9
$DIMGAP
 40
0.09
  9
$DIMJUST
 70
     0
  9
$DIMSD1
 70
     0
  9
$DIMSD2
 70
     0
  9
$DIMTOLJ
 70
     1
  9
$DIMTZIN
 70
     0
  9
$DIMALTZ
 70
     0
  9
$DIMALTTZ
 70
     0
  9
$DIMUPT
 70
     0
  9
$DIMDEC
 70
     4
  9
$DIMTDEC
 70
     4
  9
$DIMALTU
 70
     2
  9
$DIMALTTD
 70
     2
  9
$DIMTXSTY
  7
Standard
  9
$DIMAUNIT
 70
     0
  9
$DIMADEC
 70
     0
  9
$DIMALTRND
 40
0.0
  9
$DIMAZIN
 70
     0
  9
$DIMDSEP
 70
    46
  9
$DIMATFIT
 70
     3
  9
$DIMFRAC
 70
     0
  9
$DIMLDRBLK
  1

  9
$DIMLUNIT
 70
     2
  9
$DIMLWD
 70
    -2
  9
$DIMLWE
 70
    -2
  9
$DIMTMOVE
 70
     0
  9
$DIMFXL
 40
1.0
  9
$DIMFXLON
 70
     0
  9
$DIMJOGANG
 40
0.7853981633974483
  9
$DIMTFILL
 70
     0
  9
$DIMTFILLCLR
 70
     0
  9
$DIMARCSYM
 70
     0
  9
$DIMLTYPE
  6

  9
$DIMLTEX1
  6

  9
$DIMLTEX2
  6

  9
$DIMTXTDIRECTION
 70
     0
  9
$LUNITS
 70
     2
  9
$LUPREC
 70
     4
  9
$SKETCHINC
 40
0.1
  9
$FILLETRAD
 40
0.0
  9
$AUNITS
 70
     0
  9
$AUPREC
 70
     0
  9
$MENU
  1
.
  9
$ELEVATION
 40
0.0
  9
$PELEVATION
 40
0.0
  9
$THICKNESS
 40
0.0
  9
$LIMCHECK
 70
     0
  9
$CHAMFERA
 40
0.0
  9
$CHAMFERB
 40
0.0
  9
$CHAMFERC
 40
0.0
  9
$CHAMFERD
 40
0.0
  9
$SKPOLY
 70
     0
  9
$TDCREATE
 40
2452643.438384271
  9
$TDUCREATE
 40
2452643.063384271
  9
$TDUPDATE
 40
2456756.681615833
  9
$TDUUPDATE
 40
2456756.306615833
  9
$TDINDWG
 40
0.0273634028
  9
$TDUSRTIMER
 40
2456756.304859641
  9
$USRTIMER
 70
     1
  9
$ANGBASE
 50
0.0
  9
$ANGDIR
 70
     0
  9
$PDMODE
 70
     0
  9
$PDSIZE
 40
0.0
  9
$PLINEWID
 40
0.0
  9
$SPLFRAME
 70
     0
  9
$SPLINETYPE
 70
     6
  9
$SPLINESEGS
 70
     8
  9
$HANDSEED
  5
76A
  9
$SURFTAB1
 70
     6
  9
$SURFTAB2
 70
     6
  9
$SURFTYPE
 70
     6
  9
$SURFU
 70
     6
  9
$SURFV
 70
     6
  9
$UCSBASE
  2

  9
$UCSNAME
  2

  9
$UCSORG
 10
0.0
 20
0.0
 30
0.0
  9
$UCSXDIR
 10
1.0
 20
0.0
 30
0.0
  9
$UCSYDIR
 10
0.0
 20
1.0
 30
0.0
  9
$UCSORTHOREF
  2

  9
$UCSORTHOVIEW
 70
     0
  9
$UCSORGTOP
 10
0.0
 20
0.0
 30
0.0
  9
$UCSORGBOTTOM
 10
0.0
 20
0.0
 30
0.0
  9
$UCSORGLEFT
 10
0.0
 20
0.0
 30
0.0
  9
$UCSORGRIGHT
 10
0.0
 20
0.0
 30
0.0
  9
$UCSORGFRONT
 10
0.0
 20
0.0
 30
0.0
  9
$UCSORGBACK
 10
0.0
 20
0.0
 30
0.0
  9
$PUCSBASE
  2

  9
$PUCSNAME
  2

  9
$PUCSORG
 10
0.0
 20
0.0
 30
0.0
  9
$PUCSXDIR
 10
1.0
 20
0.0
 30
0.0
  9
$PUCSYDIR
 10
0.0
 20
1.0
 30
0.0
  9
$PUCSORTHOREF
  2

  9
$PUCSORTHOVIEW
 70
     0
  9
$PUCSORGTOP
 10
0.0
 20
0.0
 30
0.0
  9
$PUCSORGBOTTOM
 10
0.0
 20
0.0
 30
0.0
  9
$PUCSORGLEFT
 10
0.0
 20
0.0
 30
0.0
  9
$PUCSORGRIGHT
 10
0.0
 20
0.0
 30
0.0
  9
$PUCSORGFRONT
 10
0.0
 20
0.0
 30
0.0
  9
$PUCSORGBACK
 10
0.0
 20
0.0
 30
0.0
  9
$USERI1
 70
     0
  9
$USERI2
 70
     0
  9
$USERI3
 70
     0
  9
$USERI4
 70
     0
  9
$USERI5
 70
     0
  9
$USERR1
 40
0.0
  9
$USERR2
 40
0.0
  9
$USERR3
 40
0.0
  9
$USERR4
 40
0.0
  9
$USERR5
 40
0.0
  9
$WORLDVIEW
 70
     1
  9
$SHADEDGE
 70
     3
  9
$SHADEDIF
 70
    70
  9
$TILEMODE
 70
     1
  9
$MAXACTVP
 70
    64
  9
$PINSBASE
 10
0.0
 20
0.0
 30
0.0
  9
$PLIMCHECK
 70
     0
  9
$PEXTMIN
 10
0.0
 20
0.0
 30
0.0
  9
$PEXTMAX
 10
0.0
 20
0.0
 30
0.0
  9
$PLIMMIN
 10
0.0
 20
0.0
  9
$PLIMMAX
 10
0.0
 20
0.0
  9
$UNITMODE
 70
     0
  9
$VISRETAIN
 70
     1
  9
$PLINEGEN
 70
     0
  9
$PSLTSCALE
 70
     1
  9
$TREEDEPTH
 70
  3020
  9
$CMLSTYLE
  2
Standard
  9
$CMLJUST
 70
     0
  9
$CMLSCALE
 40
1.0
  9
$PROXYGRAPHICS
 70
     1
  9
$MEASUREMENT
 70
     0
  9
$CELWEIGHT
370
    -1
  9
$ENDCAPS
280
     0
  9
$JOINSTYLE
280
     0
  9
$LWDISPLAY
290
     0
  9
$INSUNITS
 70
     1
  9
$HYPERLINKBASE
  1

  9
$STYLESHEET
  1

  9
$XEDIT
290
     1
  9
$CEPSNTYPE
380
     0
  9
$PSTYLEMODE
290
     1
  9
$FINGERPRINTGUID
  2
{FDEAD576-A652-11D2-9A35-0060089B3A3F}
  9
$VERSIONGUID
  2
{FBC2AE19-5C5C-49EC-81BC-71B1A3362A02}
  9
$EXTNAMES
290
     1
  9
$PSVPSCALE
 40
0.0
  9
$OLESTARTUP
290
     0
  9
$SORTENTS
280
   127
  9
$INDEXCTL
280
     0
  9
$HIDETEXT
280
     1
  9
$XCLIPFRAME
280
     0
  9
$HALOGAP
280
     0
  9
$OBSCOLOR
 70
   257
  9
$OBSLTYPE
280
     0
  9
$INTERSECTIONDISPLAY
280
     0
  9
$INTERSECTIONCOLOR
 70
   257
  9
$DIMASSOC
280
     2
  9
$PROJECTNAME
  1

  9
$CAMERADISPLAY
290
     0
  9
$LENSLENGTH
 40
50.0
  9
$CAMERAHEIGHT
 40
0.0
  9
$STEPSPERSEC
 40
2.0
  9
$STEPSIZE
 40
6.0
  9
$3DDWFPREC
 40
2.0
  9
$PSOLWIDTH
 40
0.25
  9
$PSOLHEIGHT
 40
4.0
  9
$LOFTANG1
 40
1.570796326794897
  9
$LOFTANG2
 40
1.570796326794897
  9
$LOFTMAG1
 40
0.0
  9
$LOFTMAG2
 40
0.0
  9
$LOFTPARAM
 70
     7
  9
$LOFTNORMALS
280
     1
  9
$LATITUDE
 40
37.795
  9
$LONGITUDE
 40
-122.394
  9
$NORTHDIRECTION
 40
0.0
  9
$TIMEZONE
 70
 -8000
  9
$LIGHTGLYPHDISPLAY
280
     1
  9
$TILEMODELIGHTSYNCH
280
     1
  9
$CMATERIAL
347
96
  9
$SOLIDHIST
280
     1
  9
$SHOWHIST
280
     1
  9
$DWFFRAME
280
     2
  9
$DGNFRAME
280
     0
  9
$REALWORLDSCALE
290
     1
  9
$INTERFERECOLOR
 62
     1
  9
$CSHADOW
280
     0
  9
$SHADOWPLANELOCATION
 40
0.0
  0
ENDSEC
  0
SECTION
  2
CLASSES
  0
CLASS
  1
ACDBDICTIONARYWDFLT
  2
AcDbDictionaryWithDefault
  3
ObjectDBX Classes
 90
        0
 91
        7
280
     0
281
     0
  0
CLASS
  1
ACDBPLACEHOLDER
  2
AcDbPlaceHolder
  3
ObjectDBX Classes
 90
        0
 91
        1
280
     0
281
     0
  0
CLASS
  1
LAYOUT
  2
AcDbLayout
  3
ObjectDBX Classes
 90
        0
 91
        1
280
     0
281
     0
  0
CLASS
  1
DICTIONARYVAR
  2
AcDbDictionaryVar
  3
ObjectDBX Classes
 90
        0
 91
        5
280
     0
281
     0
  0
CLASS
  1
TABLESTYLE
  2
AcDbTableStyle
  3
ObjectDBX Classes
 90
     4095
 91
        7
280
     0
281
     0
  0
CLASS
  1
MATERIAL
  2
AcDbMaterial
  3
ObjectDBX Classes
 90
     1153
 91
        7
280
     0
281
     0
  0
CLASS
  1
VISUALSTYLE
  2
AcDbVisualStyle
  3
ObjectDBX Classes
 90
     4095
 91
        7
280
     0
281
     0
  0
CLASS
  1
SCALE
  2
AcDbScale
  3
ObjectDBX Classes
 90
     1153
 91
        7
280
     0
281
     0
  0
CLASS
  1
CELLSTYLEMAP
  2
AcDbCellStyleMap
  3
ObjectDBX Classes
 90
     1152
 91
        5
280
     0
281
     0
  0
CLASS
  1
RASTERVARIABLES
  2
AcDbRasterVariables
  3
ISM
 90
        0
 91
        7
280
     0
281
     0
  0
CLASS
  1
SUN
  2
AcDbSun
  3
SCENEOE
 90
     1153
 91
        7
280
     0
281
     0
  0
CLASS
  1
DIMASSOC
  2
AcDbDimAssoc
  3
"AcDbDimAssoc|Product Desc:     AcDim ARX App For Dimension|Company:          Autodesk, Inc.|WEB Address:      www.autodesk.com"
 90
        0
 91
        4
280
     0
281
     0
  0
ENDSEC
  0
SECTION
  2
TABLES
  0
TABLE
  2
VPORT
  5
8
330
0
100
AcDbSymbolTable
 70
     1
  0
VPORT
  5
94
330
8
100
AcDbSymbolTableRecord
100
AcDbViewportTableRecord
  2
*Active
 70
     0
 10
0.0
 20
0.0
 11
1.0
 21
1.0
 12
197.6680655086473
 22
86.21175683525458
 13
0.0
 23
0.0
 14
0.5
 24
0.5
 15
0.5
 25
0.5
 16
0.0
 26
0.0
 36
1.0
 17
-27.66959356597977
 27
-19.53870295786204
 37
0.0
 40
274.8139034114187
 41
1.102362204724409
 42
50.0
 43
0.0
 44
0.0
 50
0.0
 51
0.0
 71
    16
 72
  1000
 73
     1
 74
     3
 75
     0
 76
     0
 77
     0
 78
     0
281
     0
 65
     1
110
0.0
120
0.0
130
0.0
111
1.0
121
0.0
131
0.0
112
0.0
122
1.0
132
0.0
 79
     0
146
0.0
348
9F
 60
     2
 61
     5
292
     1
282
     1
141
0.0
142
0.0
 63
   250
421
  3355443
361
ED
  0
ENDTAB
  0
TABLE
  2
LTYPE
  5
5
330
0
100
AcDbSymbolTable
 70
     3
  0
LTYPE
  5
14
330
5
100
AcDbSymbolTableRecord
100
AcDbLinetypeTableRecord
  2
ByBlock
 70
     0
  3

 72
    65
 73
     0
 40
0.0
  0
LTYPE
  5
15
330
5
100
AcDbSymbolTableRecord
100
AcDbLinetypeTableRecord
  2
ByLayer
 70
     0
  3

 72
    65
 73
     0
 40
0.0
  0
LTYPE
  5
16
330
5
100
AcDbSymbolTableRecord
100
AcDbLinetypeTableRecord
  2
Continuous
 70
     0
  3
Solid line
 72
    65
 73
     0
 40
0.0
  0
LTYPE
  5
128
330
5
100
AcDbSymbolTableRecord
100
AcDbLinetypeTableRecord
  2
CENTER
 70
     0
  3
Center ____ _ ____ _ ____ _ ____ _ ____ _ ____
 72
    65
 73
     4
 40
50.8
 49
31.75
 74
     0
 49
-6.35
 74
     0
 49
6.35
 74
     0
 49
-6.35
 74
     0
  0
LTYPE
  5
12B
330
5
100
AcDbSymbolTableRecord
100
AcDbLinetypeTableRecord
  2
DASHED
 70
     0
  3
Dashed __ __ __ __ __ __ __ __ __ __ __ __ __ _
 72
    65
 73
     2
 40
19.05
 49
12.7
 74
     0
 49
-6.35
 74
     0
  0
ENDTAB
  0
TABLE
  2
LAYER
  5
2
330
0
100
AcDbSymbolTable
 70
     8
  0
LAYER
  5
10
330
2
100
AcDbSymbolTableRecord
100
AcDbLayerTableRecord
  2
0
 70
     0
 62
     7
  6
Continuous
370
    -3
390
F
347
98
348
0
  0
LAYER
  5
125
330
2
100
AcDbSymbolTableRecord
100
AcDbLayerTableRecord
  2
Defpoints
 70
     0
 62
     7
  6
Continuous
290
     0
370
    -3
390
F
347
98
348
0
  0
LAYER
  5
126
330
2
100
AcDbSymbolTableRecord
100
AcDbLayerTableRecord
  2
中心線
 70
     0
 62
     7
  6
CENTER
370
    15
390
F
347
98
348
0
  0
LAYER
  5
129
330
2
100
AcDbSymbolTableRecord
100
AcDbLayerTableRecord
  2
実線
 70
     0
 62
     7
  6
Continuous
370
    25
390
F
347
98
348
0
  0
LAYER
  5
12A
330
2
100
AcDbSymbolTableRecord
100
AcDbLayerTableRecord
  2
破線
 70
     0
 62
     7
  6
DASHED
370
    15
390
F
347
98
348
0
  0
LAYER
  5
12C
330
2
100
AcDbSymbolTableRecord
100
AcDbLayerTableRecord
  2
文字・寸法線
 70
     0
 62
     7
  6
Continuous
370
    13
390
F
347
98
348
0
  0
LAYER
  5
12D
330
2
100
AcDbSymbolTableRecord
100
AcDbLayerTableRecord
  2
細線
 70
     0
 62
     7
  6
Continuous
370
     9
390
F
347
98
348
0
  0
LAYER
  5
6AB
330
2
100
AcDbSymbolTableRecord
100
AcDbLayerTableRecord
  2
文字
 70
     0
 62
     7
  6
Continuous
370
    25
390
F
347
98
348
0
  0
ENDTAB
  0
TABLE
  2
STYLE
  5
3
330
0
100
AcDbSymbolTable
 70
     1
  0
STYLE
  5
11
330
3
100
AcDbSymbolTableRecord
100
AcDbTextStyleTableRecord
  2
Standard
 70
     0
 40
0.0
 41
1.0
 50
0.0
 71
     0
 42
0.2
  3
arial.ttf
  4

1001
ACAD
1000
Arial
1071
        0
  0
ENDTAB
  0
TABLE
  2
VIEW
  5
6
330
0
100
AcDbSymbolTable
 70
     0
  0
ENDTAB
  0
TABLE
  2
UCS
  5
7
330
0
100
AcDbSymbolTable
 70
     0
  0
ENDTAB
  0
TABLE
  2
APPID
  5
9
330
0
100
AcDbSymbolTable
 70
     1
  0
APPID
  5
12
330
9
100
AcDbSymbolTableRecord
100
AcDbRegAppTableRecord
  2
ACAD
 70
     0
  0
ENDTAB
  0
TABLE
  2
DIMSTYLE
  5
A
330
0
100
AcDbSymbolTable
 70
     2
100
AcDbDimStyleTable
  0
DIMSTYLE
105
27
330
A
100
AcDbSymbolTableRecord
100
AcDbDimStyleTableRecord
  2
Standard
 70
     0
178
     0
340
11
  0
DIMSTYLE
105
12E
102
{ACAD_REACTORS
330
608
330
61E
330
620
330
62B
330
634
330
63A
330
63C
330
6F7
102
}
330
A
100
AcDbSymbolTableRecord
100
AcDbDimStyleTableRecord
  2
ISO-25
 70
     0
 41
3.0
 42
0.625
 43
3.75
 44
0.5
 73
     0
 74
     0
 77
     1
 78
     8
140
4.0
141
2.5
143
0.03937007874016
147
0.625
171
     3
172
     1
178
     0
271
     2
272
     2
274
     3
283
     0
284
     8
340
11
  0
ENDTAB
  0
TABLE
  2
BLOCK_RECORD
  5
1
330
0
100
AcDbSymbolTable
 70
    39
  0
BLOCK_RECORD
  5
1F
330
1
100
AcDbSymbolTableRecord
100
AcDbBlockTableRecord
  2
*Model_Space
340
22
 70
     0
280
     1
281
     0
  0
BLOCK_RECORD
  5
58
330
1
100
AcDbSymbolTableRecord
100
AcDbBlockTableRecord
  2
*Paper_Space
340
59
 70
     0
280
     1
281
     0
  0
BLOCK_RECORD
  5
5D
330
1
100
AcDbSymbolTableRecord
100
AcDbBlockTableRecord
  2
*Paper_Space0
340
5E
 70
     0
280
     1
281
     0
  0
BLOCK_RECORD
  5
15C
330
1
100
AcDbSymbolTableRecord
100
AcDbBlockTableRecord
  2
*D1
340
0
 70
     0
280
     1
281
     0
  0
BLOCK_RECORD
  5
16B
330
1
100
AcDbSymbolTableRecord
100
AcDbBlockTableRecord
  2
*D2
340
0
 70
     0
280
     1
281
     0
  0
BLOCK_RECORD
  5
1FD
330
1
100
AcDbSymbolTableRecord
100
AcDbBlockTableRecord
  2
*D3
340
0
 70
     0
280
     1
281
     0
  0
BLOCK_RECORD
  5
20C
330
1
100
AcDbSymbolTableRecord
100
AcDbBlockTableRecord
  2
*D4
340
0
 70
     0
280
     1
281
     0
  0
BLOCK_RECORD
  5
21B
330
1
100
AcDbSymbolTableRecord
100
AcDbBlockTableRecord
  2
*D5
340
0
 70
     0
280
     1
281
     0
  0
BLOCK_RECORD
  5
22C
330
1
100
AcDbSymbolTableRecord
100
AcDbBlockTableRecord
  2
*D6
340
0
 70
     0
280
     1
281
     0
  0
BLOCK_RECORD
  5
23B
330
1
100
AcDbSymbolTableRecord
100
AcDbBlockTableRecord
  2
*D7
340
0
 70
     0
280
     1
281
     0
  0
BLOCK_RECORD
  5
24F
330
1
100
AcDbSymbolTableRecord
100
AcDbBlockTableRecord
  2
*D8
340
0
 70
     0
280
     1
281
     0
  0
BLOCK_RECORD
  5
26F
330
1
100
AcDbSymbolTableRecord
100
AcDbBlockTableRecord
  2
*D9
340
0
 70
     0
280
     1
281
     0
  0
BLOCK_RECORD
  5
285
330
1
100
AcDbSymbolTableRecord
100
AcDbBlockTableRecord
  2
*D10
340
0
 70
     0
280
     1
281
     0
  0
BLOCK_RECORD
  5
365
330
1
100
AcDbSymbolTableRecord
100
AcDbBlockTableRecord
  2
*D11
340
0
 70
     0
280
     1
281
     0
  0
BLOCK_RECORD
  5
371
330
1
100
AcDbSymbolTableRecord
100
AcDbBlockTableRecord
  2
*D12
340
0
 70
     0
280
     1
281
     0
  0
BLOCK_RECORD
  5
37D
330
1
100
AcDbSymbolTableRecord
100
AcDbBlockTableRecord
  2
*D13
340
0
 70
     0
280
     1
281
     0
  0
BLOCK_RECORD
  5
389
330
1
100
AcDbSymbolTableRecord
100
AcDbBlockTableRecord
  2
*D14
340
0
 70
     0
280
     1
281
     0
  0
BLOCK_RECORD
  5
395
330
1
100
AcDbSymbolTableRecord
100
AcDbBlockTableRecord
  2
*D15
340
0
 70
     0
280
     1
281
     0
  0
BLOCK_RECORD
  5
3A3
330
1
100
AcDbSymbolTableRecord
100
AcDbBlockTableRecord
  2
*D16
340
0
 70
     0
280
     1
281
     0
  0
BLOCK_RECORD
  5
3B2
330
1
100
AcDbSymbolTableRecord
100
AcDbBlockTableRecord
  2
*D17
340
0
 70
     0
280
     1
281
     0
  0
BLOCK_RECORD
  5
3BE
330
1
100
AcDbSymbolTableRecord
100
AcDbBlockTableRecord
  2
*D18
340
0
 70
     0
280
     1
281
     0
  0
BLOCK_RECORD
  5
3CA
330
1
100
AcDbSymbolTableRecord
100
AcDbBlockTableRecord
  2
*D19
340
0
 70
     0
280
     1
281
     0
  0
BLOCK_RECORD
  5
3D6
330
1
100
AcDbSymbolTableRecord
100
AcDbBlockTableRecord
  2
*D20
340
0
 70
     0
280
     1
281
     0
  0
BLOCK_RECORD
  5
56A
330
1
100
AcDbSymbolTableRecord
100
AcDbBlockTableRecord
  2
*D21
340
0
 70
     0
280
     1
281
     0
  0
BLOCK_RECORD
  5
58C
330
1
100
AcDbSymbolTableRecord
100
AcDbBlockTableRecord
  2
*D22
340
0
 70
     0
280
     1
281
     0
  0
BLOCK_RECORD
  5
59C
330
1
100
AcDbSymbolTableRecord
100
AcDbBlockTableRecord
  2
*D23
340
0
 70
     0
280
     1
281
     0
  0
BLOCK_RECORD
  5
5B0
330
1
100
AcDbSymbolTableRecord
100
AcDbBlockTableRecord
  2
*D24
340
0
 70
     0
280
     1
281
     0
  0
BLOCK_RECORD
  5
5BF
330
1
100
AcDbSymbolTableRecord
100
AcDbBlockTableRecord
  2
*D25
340
0
 70
     0
280
     1
281
     0
  0
BLOCK_RECORD
  5
5D9
330
1
100
AcDbSymbolTableRecord
100
AcDbBlockTableRecord
  2
*D26
340
0
 70
     0
280
     1
281
     0
  0
BLOCK_RECORD
  5
5E7
330
1
100
AcDbSymbolTableRecord
100
AcDbBlockTableRecord
  2
*D27
340
0
 70
     0
280
     1
281
     0
  0
BLOCK_RECORD
  5
5F5
330
1
100
AcDbSymbolTableRecord
100
AcDbBlockTableRecord
  2
*D28
340
0
 70
     0
280
     1
281
     0
  0
BLOCK_RECORD
  5
641
330
1
100
AcDbSymbolTableRecord
100
AcDbBlockTableRecord
  2
*D29
340
0
 70
     0
280
     1
281
     0
  0
BLOCK_RECORD
  5
64D
330
1
100
AcDbSymbolTableRecord
100
AcDbBlockTableRecord
  2
*D30
340
0
 70
     0
280
     1
281
     0
  0
BLOCK_RECORD
  5
65C
330
1
100
AcDbSymbolTableRecord
100
AcDbBlockTableRecord
  2
*D31
340
0
 70
     0
280
     1
281
     0
  0
BLOCK_RECORD
  5
668
330
1
100
AcDbSymbolTableRecord
100
AcDbBlockTableRecord
  2
*D32
340
0
 70
     0
280
     1
281
     0
  0
BLOCK_RECORD
  5
674
330
1
100
AcDbSymbolTableRecord
100
AcDbBlockTableRecord
  2
*D33
340
0
 70
     0
280
     1
281
     0
  0
BLOCK_RECORD
  5
680
330
1
100
AcDbSymbolTableRecord
100
AcDbBlockTableRecord
  2
*D34
340
0
 70
     0
280
     1
281
     0
  0
BLOCK_RECORD
  5
68C
330
1
100
AcDbSymbolTableRecord
100
AcDbBlockTableRecord
  2
*D35
340
0
 70
     0
280
     1
281
     0
  0
BLOCK_RECORD
  5
698
330
1
100
AcDbSymbolTableRecord
100
AcDbBlockTableRecord
  2
*D36
340
0
 70
     0
280
     1
281
     0
  0
BLOCK_RECORD
  5
6DC
330
1
100
AcDbSymbolTableRecord
100
AcDbBlockTableRecord
  2
*D37
340
0
 70
     0
280
     1
281
     0
  0
BLOCK_RECORD
  5
6FA
330
1
100
AcDbSymbolTableRecord
100
AcDbBlockTableRecord
  2
*D38
340
0
 70
     0
280
     1
281
     0
  0
ENDTAB
  0
ENDSEC
  0
SECTION
  2
BLOCKS
  0
BLOCK
  5
20
330
1F
100
AcDbEntity
  8
0
100
AcDbBlockBegin
  2
*Model_Space
 70
     0
 10
0.0
 20
0.0
 30
0.0
  3
*Model_Space
  1
*Model_Space
  0
ENDBLK
  5
21
330
1F
100
AcDbEntity
  8
0
100
AcDbBlockEnd
  0
BLOCK
  5
5A
330
58
100
AcDbEntity
 67
     1
  8
0
100
AcDbBlockBegin
  2
*Paper_Space
 70
     0
 10
0.0
 20
0.0
 30
0.0
  3
*Paper_Space
  1
*Paper_Space
  0
ENDBLK
  5
5B
330
58
100
AcDbEntity
 67
     1
  8
0
100
AcDbBlockEnd
  0
BLOCK
  5
5F
330
5D
100
AcDbEntity
  8
0
100
AcDbBlockBegin
  2
*Paper_Space0
 70
     0
 10
0.0
 20
0.0
 30
0.0
  3
*Paper_Space0
  1
*Paper_Space0
  0
ENDBLK
  5
60
330
5D
100
AcDbEntity
  8
0
100
AcDbBlockEnd
  0
BLOCK
  5
15D
330
15C
100
AcDbEntity
  8
0
100
AcDbBlockBegin
  2
*D1
 70
     1
 10
0.0
 20
0.0
 30
0.0
  3
*D1
  1
*D2
  0
LINE
  5
15E
330
15C
100
AcDbEntity
  8
文字・寸法線
 62
     0
370
    -2
100
AcDbLine
 10
74.02923885604173
 20
30.78539150703909
 30
0.0
 11
74.02923885604173
 21
17.71929868458301
 31
0.0
  0
LINE
  5
15F
330
15C
100
AcDbEntity
  8
文字・寸法線
 62
     0
370
    -2
100
AcDbLine
 10
111.0292388560417
 20
30.78539150703955
 30
0.0
 11
111.0292388560417
 21
17.71929868458301
 31
0.0
  0
LINE
  5
160
330
15C
100
AcDbEntity
  8
文字・寸法線
 62
     0
370
    -2
100
AcDbLine
 10
77.02923885604173
 20
18.21929868458301
 30
0.0
 11
108.0292388560417
 21
18.21929868458301
 31
0.0
  0
SOLID
  5
161
330
15C
100
AcDbEntity
  8
文字・寸法線
 62
     0
100
AcDbTrace
 10
77.02923885604173
 20
18.71929868458301
 30
0.0
 11
77.02923885604173
 21
17.71929868458301
 31
0.0
 12
74.02923885604173
 22
18.21929868458301
 32
0.0
 13
74.02923885604173
 23
18.21929868458301
 33
0.0
  0
SOLID
  5
162
330
15C
100
AcDbEntity
  8
文字・寸法線
 62
     0
100
AcDbTrace
 10
108.0292388560417
 20
17.71929868458301
 30
0.0
 11
108.0292388560417
 21
18.71929868458301
 31
0.0
 12
111.0292388560417
 22
18.21929868458301
 32
0.0
 13
111.0292388560417
 23
18.21929868458301
 33
0.0
  0
MTEXT
  5
163
330
15C
100
AcDbEntity
  8
文字・寸法線
 62
     0
100
AcDbMText
 10
92.46925625041013
 20
20.43229322755709
 30
0.0
 40
3.0
 41
0.0
 46
0.0
 71
     5
 72
     1
  1
%%c31
 73
     1
 44
1.0
  0
POINT
  5
164
330
15C
100
AcDbEntity
  8
Defpoints
 62
     0
100
AcDbPoint
 10
74.02923885604173
 20
31.41039150703909
 30
0.0
  0
POINT
  5
165
330
15C
100
AcDbEntity
  8
Defpoints
 62
     0
100
AcDbPoint
 10
111.0292388560417
 20
31.41039150703955
 30
0.0
  0
POINT
  5
166
330
15C
100
AcDbEntity
  8
Defpoints
 62
     0
100
AcDbPoint
 10
111.0292388560417
 20
18.21929868458301
 30
0.0
  0
ENDBLK
  5
167
330
15C
100
AcDbEntity
  8
0
100
AcDbBlockEnd
  0
BLOCK
  5
16C
330
16B
100
AcDbEntity
  8
0
100
AcDbBlockBegin
  2
*D2
 70
     1
 10
0.0
 20
0.0
 30
0.0
  3
*D2
  1
*D3
  0
LINE
  5
16D
330
16B
100
AcDbEntity
  8
文字・寸法線
 62
     0
370
    -2
100
AcDbLine
 10
78.02923885604173
 20
35.78539150703909
 30
0.0
 11
78.02923885604173
 21
27.33512186285861
 31
0.0
  0
LINE
  5
16E
330
16B
100
AcDbEntity
  8
文字・寸法線
 62
     0
370
    -2
100
AcDbLine
 10
107.0292388560417
 20
35.78539150703955
 30
0.0
 11
107.0292388560417
 21
27.33512186285861
 31
0.0
  0
LINE
  5
16F
330
16B
100
AcDbEntity
  8
文字・寸法線
 62
     0
370
    -2
100
AcDbLine
 10
81.02923885604173
 20
27.83512186285861
 30
0.0
 11
104.0292388560417
 21
27.83512186285861
 31
0.0
  0
SOLID
  5
170
330
16B
100
AcDbEntity
  8
文字・寸法線
 62
     0
100
AcDbTrace
 10
81.02923885604173
 20
28.33512186285861
 30
0.0
 11
81.02923885604173
 21
27.33512186285861
 31
0.0
 12
78.02923885604173
 22
27.83512186285861
 32
0.0
 13
78.02923885604173
 23
27.83512186285861
 33
0.0
  0
SOLID
  5
171
330
16B
100
AcDbEntity
  8
文字・寸法線
 62
     0
100
AcDbTrace
 10
104.0292388560417
 20
27.33512186285861
 30
0.0
 11
104.0292388560417
 21
28.33512186285861
 31
0.0
 12
107.0292388560417
 22
27.83512186285861
 32
0.0
 13
107.0292388560417
 23
27.83512186285861
 33
0.0
  0
MTEXT
  5
172
330
16B
100
AcDbEntity
  8
文字・寸法線
 62
     0
100
AcDbMText
 10
92.52923885604173
 20
30.04811640583269
 30
0.0
 40
3.0
 41
0.0
 46
0.0
 71
     5
 72
     1
  1
%%c29
 73
     1
 44
1.0
  0
POINT
  5
173
330
16B
100
AcDbEntity
  8
Defpoints
 62
     0
100
AcDbPoint
 10
78.02923885604173
 20
36.41039150703909
 30
0.0
  0
POINT
  5
174
330
16B
100
AcDbEntity
  8
Defpoints
 62
     0
100
AcDbPoint
 10
107.0292388560417
 20
36.41039150703955
 30
0.0
  0
POINT
  5
175
330
16B
100
AcDbEntity
  8
Defpoints
 62
     0
100
AcDbPoint
 10
107.0292388560417
 20
27.83512186285861
 30
0.0
  0
ENDBLK
  5
176
330
16B
100
AcDbEntity
  8
0
100
AcDbBlockEnd
  0
BLOCK
  5
1FE
330
1FD
100
AcDbEntity
  8
0
100
AcDbBlockBegin
  2
*D3
 70
     1
 10
0.0
 20
0.0
 30
0.0
  3
*D3
  1
*D4
  0
LINE
  5
1FF
330
1FD
100
AcDbEntity
  8
文字・寸法線
 62
     0
370
    -2
100
AcDbLine
 10
43.52923885604196
 20
30.78539150703864
 30
0.0
 11
43.52923885604196
 21
9.344787183214976
 31
0.0
  0
LINE
  5
200
330
1FD
100
AcDbEntity
  8
文字・寸法線
 62
     0
370
    -2
100
AcDbLine
 10
141.529238856042
 20
30.78539150703955
 30
0.0
 11
141.529238856042
 21
9.344787183214976
 31
0.0
  0
LINE
  5
201
330
1FD
100
AcDbEntity
  8
文字・寸法線
 62
     0
370
    -2
100
AcDbLine
 10
46.52923885604196
 20
9.844787183214976
 30
0.0
 11
138.529238856042
 21
9.844787183214976
 31
0.0
  0
SOLID
  5
202
330
1FD
100
AcDbEntity
  8
文字・寸法線
 62
     0
100
AcDbTrace
 10
46.52923885604196
 20
10.34478718321498
 30
0.0
 11
46.52923885604196
 21
9.344787183214976
 31
0.0
 12
43.52923885604196
 22
9.844787183214976
 32
0.0
 13
43.52923885604196
 23
9.844787183214976
 33
0.0
  0
SOLID
  5
203
330
1FD
100
AcDbEntity
  8
文字・寸法線
 62
     0
100
AcDbTrace
 10
138.529238856042
 20
9.344787183214976
 30
0.0
 11
138.529238856042
 21
10.34478718321498
 31
0.0
 12
141.529238856042
 22
9.844787183214976
 32
0.0
 13
141.529238856042
 23
9.844787183214976
 33
0.0
  0
MTEXT
  5
204
330
1FD
100
AcDbEntity
  8
文字・寸法線
 62
     0
100
AcDbMText
 10
91.84181213811507
 20
12.05778172618905
 30
0.0
 40
3.0
 41
0.0
 46
0.0
 71
     5
 72
     1
  1
%%c99
 73
     1
 44
1.0
  0
POINT
  5
205
330
1FD
100
AcDbEntity
  8
Defpoints
 62
     0
100
AcDbPoint
 10
43.52923885604196
 20
31.41039150703864
 30
0.0
  0
POINT
  5
206
330
1FD
100
AcDbEntity
  8
Defpoints
 62
     0
100
AcDbPoint
 10
141.529238856042
 20
31.41039150703955
 30
0.0
  0
POINT
  5
207
330
1FD
100
AcDbEntity
  8
Defpoints
 62
     0
100
AcDbPoint
 10
141.529238856042
 20
9.844787183214976
 30
0.0
  0
ENDBLK
  5
208
330
1FD
100
AcDbEntity
  8
0
100
AcDbBlockEnd
  0
BLOCK
  5
20D
330
20C
100
AcDbEntity
  8
0
100
AcDbBlockBegin
  2
*D4
 70
     1
 10
0.0
 20
0.0
 30
0.0
  3
*D4
  1
*D5
  0
LINE
  5
20E
330
20C
100
AcDbEntity
  8
文字・寸法線
 62
     0
370
    -2
100
AcDbLine
 10
38.89311472821328
 20
31.78539150703909
 30
0.0
 11
38.89311472821328
 21
0.0
 31
0.0
  0
LINE
  5
20F
330
20C
100
AcDbEntity
  8
文字・寸法線
 62
     0
370
    -2
100
AcDbLine
 10
145.8931147282133
 20
31.78539150703909
 30
0.0
 11
145.8931147282133
 21
0.0
 31
0.0
  0
LINE
  5
210
330
20C
100
AcDbEntity
  8
文字・寸法線
 62
     0
370
    -2
100
AcDbLine
 10
41.89311472821328
 20
0.5
 30
0.0
 11
142.8931147282133
 21
0.5
 31
0.0
  0
SOLID
  5
211
330
20C
100
AcDbEntity
  8
文字・寸法線
 62
     0
100
AcDbTrace
 10
41.89311472821328
 20
1.0
 30
0.0
 11
41.89311472821328
 21
0.0
 31
0.0
 12
38.89311472821328
 22
0.5
 32
0.0
 13
38.89311472821328
 23
0.5
 33
0.0
  0
SOLID
  5
212
330
20C
100
AcDbEntity
  8
文字・寸法線
 62
     0
100
AcDbTrace
 10
142.8931147282133
 20
0.0
 30
0.0
 11
142.8931147282133
 21
1.0
 31
0.0
 12
145.8931147282133
 22
0.5
 32
0.0
 13
145.8931147282133
 23
0.5
 33
0.0
  0
MTEXT
  5
213
330
20C
100
AcDbEntity
  8
文字・寸法線
 62
     0
100
AcDbMText
 10
92.39311472821328
 20
3.093622100954979
 30
0.0
 40
3.0
 41
0.0
 46
0.0
 71
     5
 72
     1
  1
(%%c107)
 73
     1
 44
1.0
  0
POINT
  5
214
330
20C
100
AcDbEntity
  8
Defpoints
 62
     0
100
AcDbPoint
 10
38.89311472821328
 20
32.41039150703909
 30
0.0
  0
POINT
  5
215
330
20C
100
AcDbEntity
  8
Defpoints
 62
     0
100
AcDbPoint
 10
145.8931147282133
 20
32.41039150703909
 30
0.0
  0
POINT
  5
216
330
20C
100
AcDbEntity
  8
Defpoints
 62
     0
100
AcDbPoint
 10
145.8931147282133
 20
0.5
 30
0.0
  0
ENDBLK
  5
217
330
20C
100
AcDbEntity
  8
0
100
AcDbBlockEnd
  0
BLOCK
  5
21C
330
21B
100
AcDbEntity
  8
0
100
AcDbBlockBegin
  2
*D5
 70
     1
 10
0.0
 20
0.0
 30
0.0
  3
*D5
  1
*D6
  0
LINE
  5
21D
330
21B
100
AcDbEntity
  8
文字・寸法線
 62
     0
370
    -2
100
AcDbLine
 10
142.154238856042
 20
36.41039150703955
 30
0.0
 11
158.4353440238351
 21
36.41039150703955
 31
0.0
  0
LINE
  5
21E
330
21B
100
AcDbEntity
  8
文字・寸法線
 62
     0
370
    -2
100
AcDbLine
 10
142.154238856042
 20
31.41039150703955
 30
0.0
 11
158.4353440238351
 21
31.41039150703955
 31
0.0
  0
LINE
  5
21F
330
21B
100
AcDbEntity
  8
文字・寸法線
 62
     0
370
    -2
100
AcDbLine
 10
157.9353440238351
 20
36.41039150703955
 30
0.0
 11
157.9353440238351
 21
31.41039150703955
 31
0.0
  0
LINE
  5
220
330
21B
100
AcDbEntity
  8
文字・寸法線
 62
     0
370
    -2
100
AcDbLine
 10
157.9353440238351
 20
39.41039150703955
 30
0.0
 11
157.9353440238351
 21
42.41039150703955
 31
0.0
  0
LINE
  5
221
330
21B
100
AcDbEntity
  8
文字・寸法線
 62
     0
370
    -2
100
AcDbLine
 10
157.9353440238351
 20
28.41039150703955
 30
0.0
 11
157.9353440238351
 21
25.41039150703955
 31
0.0
  0
SOLID
  5
222
330
21B
100
AcDbEntity
  8
文字・寸法線
 62
     0
100
AcDbTrace
 10
157.4353440238351
 20
39.41039150703955
 30
0.0
 11
158.4353440238351
 21
39.41039150703955
 31
0.0
 12
157.9353440238351
 22
36.41039150703955
 32
0.0
 13
157.9353440238351
 23
36.41039150703955
 33
0.0
  0
SOLID
  5
223
330
21B
100
AcDbEntity
  8
文字・寸法線
 62
     0
100
AcDbTrace
 10
158.4353440238351
 20
28.41039150703955
 30
0.0
 11
157.4353440238351
 21
28.41039150703955
 31
0.0
 12
157.9353440238351
 22
31.41039150703955
 32
0.0
 13
157.9353440238351
 23
31.41039150703955
 33
0.0
  0
MTEXT
  5
224
330
21B
100
AcDbEntity
  8
文字・寸法線
 62
     0
100
AcDbMText
 10
155.7857874071912
 20
33.91039150703955
 30
0.0
 40
3.0
 41
0.0
 46
0.0
 71
     5
 72
     1
  1
5
 11
0.0
 21
1.0
 31
0.0
 73
     1
 44
1.0
  0
POINT
  5
225
330
21B
100
AcDbEntity
  8
Defpoints
 62
     0
100
AcDbPoint
 10
141.529238856042
 20
36.41039150703955
 30
0.0
  0
POINT
  5
226
330
21B
100
AcDbEntity
  8
Defpoints
 62
     0
100
AcDbPoint
 10
141.529238856042
 20
31.41039150703955
 30
0.0
  0
POINT
  5
227
330
21B
100
AcDbEntity
  8
Defpoints
 62
     0
100
AcDbPoint
 10
157.9353440238351
 20
31.41039150703955
 30
0.0
  0
ENDBLK
  5
228
330
21B
100
AcDbEntity
  8
0
100
AcDbBlockEnd
  0
BLOCK
  5
22D
330
22C
100
AcDbEntity
  8
0
100
AcDbBlockBegin
  2
*D6
 70
     1
 10
0.0
 20
0.0
 30
0.0
  3
*D6
  1
*D7
  0
LINE
  5
22E
330
22C
100
AcDbEntity
  8
文字・寸法線
 62
     0
370
    -2
100
AcDbLine
 10
38.26811472821328
 20
32.41039150703909
 30
0.0
 11
3.125
 21
32.41039150703909
 31
0.0
  0
LINE
  5
22F
330
22C
100
AcDbEntity
  8
文字・寸法線
 62
     0
370
    -2
100
AcDbLine
 10
42.90423885604196
 20
31.41039150703864
 30
0.0
 11
3.125
 21
31.41039150703864
 31
0.0
  0
LINE
  5
230
330
22C
100
AcDbEntity
  8
文字・寸法線
 62
     0
370
    -2
100
AcDbLine
 10
3.625
 20
31.41039150703864
 30
0.0
 11
3.625
 21
17.22405680944822
 31
0.0
  0
LINE
  5
231
330
22C
100
AcDbEntity
  8
文字・寸法線
 62
     0
370
    -2
100
AcDbLine
 10
3.625
 20
32.41039150703909
 30
0.0
 11
3.625
 21
31.41039150703864
 31
0.0
  0
LINE
  5
232
330
22C
100
AcDbEntity
  8
文字・寸法線
 62
     0
370
    -2
100
AcDbLine
 10
3.625
 20
35.41039150703909
 30
0.0
 11
3.625
 21
38.41039150703909
 31
0.0
  0
LINE
  5
233
330
22C
100
AcDbEntity
  8
文字・寸法線
 62
     0
370
    -2
100
AcDbLine
 10
3.625
 20
28.41039150703864
 30
0.0
 11
3.625
 21
25.41039150703864
 31
0.0
  0
SOLID
  5
234
330
22C
100
AcDbEntity
  8
文字・寸法線
 62
     0
100
AcDbTrace
 10
3.125
 20
35.41039150703909
 30
0.0
 11
4.125
 21
35.41039150703909
 31
0.0
 12
3.625
 22
32.41039150703909
 32
0.0
 13
3.625
 23
32.41039150703909
 33
0.0
  0
SOLID
  5
235
330
22C
100
AcDbEntity
  8
文字・寸法線
 62
     0
100
AcDbTrace
 10
4.125
 20
28.41039150703864
 30
0.0
 11
3.125
 21
28.41039150703864
 31
0.0
 12
3.625
 22
31.41039150703864
 32
0.0
 13
3.625
 23
31.41039150703864
 33
0.0
  0
MTEXT
  5
236
330
22C
100
AcDbEntity
  8
文字・寸法線
 62
     0
100
AcDbMText
 10
1.469304229195089
 20
20.4520581737047
 30
0.0
 40
3.0
 41
0.0
 46
0.0
 71
     5
 72
     1
  1
1.5
 11
0.0
 21
1.0
 31
0.0
 73
     1
 44
1.0
  0
POINT
  5
237
330
22C
100
AcDbEntity
  8
Defpoints
 62
     0
100
AcDbPoint
 10
38.89311472821328
 20
32.41039150703909
 30
0.0
  0
POINT
  5
238
330
22C
100
AcDbEntity
  8
Defpoints
 62
     0
100
AcDbPoint
 10
43.52923885604196
 20
31.41039150703864
 30
0.0
  0
POINT
  5
297
330
22C
100
AcDbEntity
  8
Defpoints
 62
     0
100
AcDbPoint
 10
3.625000000000071
 20
31.41039150703864
 30
0.0
  0
ENDBLK
  5
239
330
22C
100
AcDbEntity
  8
0
100
AcDbBlockEnd
  0
BLOCK
  5
23C
330
23B
100
AcDbEntity
  8
0
100
AcDbBlockBegin
  2
*D7
 70
     1
 10
0.0
 20
0.0
 30
0.0
  3
*D7
  1
*D8
  0
LINE
  5
23D
330
23B
100
AcDbEntity
  8
文字・寸法線
 62
     0
370
    -2
100
AcDbLine
 10
38.26811472821328
 20
32.41039150703909
 30
0.0
 11
19.53210558359842
 21
32.41039150703909
 31
0.0
  0
LINE
  5
23E
330
23B
100
AcDbEntity
  8
文字・寸法線
 62
     0
370
    -2
100
AcDbLine
 10
77.91811472821325
 20
61.17982236409705
 30
0.0
 11
19.53210558359842
 21
61.17982236409706
 31
0.0
  0
LINE
  5
23F
330
23B
100
AcDbEntity
  8
文字・寸法線
 62
     0
370
    -2
100
AcDbLine
 10
20.03210558359842
 20
35.41039150703909
 30
0.0
 11
20.03210558359842
 21
58.17982236409706
 31
0.0
  0
SOLID
  5
240
330
23B
100
AcDbEntity
  8
文字・寸法線
 62
     0
100
AcDbTrace
 10
19.53210558359842
 20
35.41039150703909
 30
0.0
 11
20.53210558359842
 21
35.41039150703909
 31
0.0
 12
20.03210558359842
 22
32.41039150703909
 32
0.0
 13
20.03210558359842
 23
32.41039150703909
 33
0.0
  0
SOLID
  5
241
330
23B
100
AcDbEntity
  8
文字・寸法線
 62
     0
100
AcDbTrace
 10
20.53210558359842
 20
58.17982236409706
 30
0.0
 11
19.53210558359842
 21
58.17982236409706
 31
0.0
 12
20.03210558359842
 22
61.17982236409706
 32
0.0
 13
20.03210558359842
 23
61.17982236409706
 33
0.0
  0
MTEXT
  5
242
330
23B
100
AcDbEntity
  8
文字・寸法線
 62
     0
100
AcDbMText
 10
17.87640981279351
 20
46.79510693556807
 30
0.0
 40
3.0
 41
0.0
 46
0.0
 71
     5
 72
     1
  1
28
 11
0.0
 21
1.0
 31
0.0
 73
     1
 44
1.0
  0
POINT
  5
243
330
23B
100
AcDbEntity
  8
Defpoints
 62
     0
100
AcDbPoint
 10
38.89311472821328
 20
32.41039150703909
 30
0.0
  0
POINT
  5
244
330
23B
100
AcDbEntity
  8
Defpoints
 62
     0
100
AcDbPoint
 10
78.54311472821325
 20
61.17982236409705
 30
0.0
  0
POINT
  5
245
330
23B
100
AcDbEntity
  8
Defpoints
 62
     0
100
AcDbPoint
 10
20.03210558359842
 20
61.17982236409706
 30
0.0
  0
ENDBLK
  5
246
330
23B
100
AcDbEntity
  8
0
100
AcDbBlockEnd
  0
BLOCK
  5
250
330
24F
100
AcDbEntity
  8
0
100
AcDbBlockBegin
  2
*D8
 70
     1
 10
0.0
 20
0.0
 30
0.0
  3
*D8
  1
*D9
  0
LINE
  5
251
330
24F
100
AcDbEntity
  8
文字・寸法線
 62
     0
370
    -2
100
AcDbLine
 10
84.8399114979378
 20
153.3667093091863
 30
0.0
 11
26.6890859138407
 21
153.3667093091863
 31
0.0
  0
LINE
  5
252
330
24F
100
AcDbEntity
  8
文字・寸法線
 62
     0
370
    -2
100
AcDbLine
 10
84.83991149793758
 20
129.3667093091863
 30
0.0
 11
26.6890859138407
 21
129.3667093091863
 31
0.0
  0
LINE
  5
253
330
24F
100
AcDbEntity
  8
文字・寸法線
 62
     0
370
    -2
100
AcDbLine
 10
27.1890859138407
 20
150.3667093091863
 30
0.0
 11
27.1890859138407
 21
132.3667093091863
 31
0.0
  0
SOLID
  5
254
330
24F
100
AcDbEntity
  8
文字・寸法線
 62
     0
100
AcDbTrace
 10
27.6890859138407
 20
150.3667093091863
 30
0.0
 11
26.6890859138407
 21
150.3667093091863
 31
0.0
 12
27.1890859138407
 22
153.3667093091863
 32
0.0
 13
27.1890859138407
 23
153.3667093091863
 33
0.0
  0
SOLID
  5
255
330
24F
100
AcDbEntity
  8
文字・寸法線
 62
     0
100
AcDbTrace
 10
26.6890859138407
 20
132.3667093091863
 30
0.0
 11
27.6890859138407
 21
132.3667093091863
 31
0.0
 12
27.1890859138407
 22
129.3667093091863
 32
0.0
 13
27.1890859138407
 23
129.3667093091863
 33
0.0
  0
MTEXT
  5
256
330
24F
100
AcDbEntity
  8
文字・寸法線
 62
     0
100
AcDbMText
 10
25.05794675967971
 20
141.5348010029375
 30
0.0
 40
3.0
 41
0.0
 46
0.0
 71
     5
 72
     1
  1
24
 11
0.0
 21
1.0
 31
0.0
 73
     1
 44
1.0
  0
POINT
  5
257
330
24F
100
AcDbEntity
  8
Defpoints
 62
     0
100
AcDbPoint
 10
85.4649114979378
 20
153.3667093091863
 30
0.0
  0
POINT
  5
258
330
24F
100
AcDbEntity
  8
Defpoints
 62
     0
100
AcDbPoint
 10
85.46491149793758
 20
129.3667093091863
 30
0.0
  0
POINT
  5
259
330
24F
100
AcDbEntity
  8
Defpoints
 62
     0
100
AcDbPoint
 10
27.18908591384078
 20
129.3667093091863
 30
0.0
  0
ENDBLK
  5
25A
330
24F
100
AcDbEntity
  8
0
100
AcDbBlockEnd
  0
BLOCK
  5
270
330
26F
100
AcDbEntity
  8
0
100
AcDbBlockBegin
  2
*D9
 70
     1
 10
0.0
 20
0.0
 30
0.0
  3
*D9
  1
*D10
  0
LINE
  5
271
330
26F
100
AcDbEntity
  8
文字・寸法線
 62
     0
370
    -2
100
AcDbLine
 10
81.39604517425244
 20
71.179823520804
 30
0.0
 11
19.53210558359842
 21
71.179823520804
 31
0.0
  0
LINE
  5
272
330
26F
100
AcDbEntity
  8
文字・寸法線
 62
     0
370
    -2
100
AcDbLine
 10
77.91811472821325
 20
61.17982236409705
 30
0.0
 11
19.53210558359842
 21
61.17982236409706
 31
0.0
  0
LINE
  5
273
330
26F
100
AcDbEntity
  8
文字・寸法線
 62
     0
370
    -2
100
AcDbLine
 10
20.03210558359842
 20
68.179823520804
 30
0.0
 11
20.03210558359842
 21
64.17982236409705
 31
0.0
  0
SOLID
  5
274
330
26F
100
AcDbEntity
  8
文字・寸法線
 62
     0
100
AcDbTrace
 10
20.53210558359842
 20
68.179823520804
 30
0.0
 11
19.53210558359842
 21
68.179823520804
 31
0.0
 12
20.03210558359842
 22
71.179823520804
 32
0.0
 13
20.03210558359842
 23
71.179823520804
 33
0.0
  0
SOLID
  5
275
330
26F
100
AcDbEntity
  8
文字・寸法線
 62
     0
100
AcDbTrace
 10
19.53210558359842
 20
64.17982236409705
 30
0.0
 11
20.53210558359842
 21
64.17982236409705
 31
0.0
 12
20.03210558359842
 22
61.17982236409706
 32
0.0
 13
20.03210558359842
 23
61.17982236409706
 33
0.0
  0
MTEXT
  5
276
330
26F
100
AcDbEntity
  8
文字・寸法線
 62
     0
100
AcDbMText
 10
17.87640981279351
 20
66.17982294245053
 30
0.0
 40
3.0
 41
0.0
 46
0.0
 71
     5
 72
     1
  1
10
 11
0.0
 21
1.0
 31
0.0
 73
     1
 44
1.0
  0
POINT
  5
277
330
26F
100
AcDbEntity
  8
Defpoints
 62
     0
100
AcDbPoint
 10
82.02104517425244
 20
71.179823520804
 30
0.0
  0
POINT
  5
278
330
26F
100
AcDbEntity
  8
Defpoints
 62
     0
100
AcDbPoint
 10
78.54311472821325
 20
61.17982236409705
 30
0.0
  0
POINT
  5
279
330
26F
100
AcDbEntity
  8
Defpoints
 62
     0
100
AcDbPoint
 10
20.03210558359842
 20
61.17982236409706
 30
0.0
  0
ENDBLK
  5
27A
330
26F
100
AcDbEntity
  8
0
100
AcDbBlockEnd
  0
BLOCK
  5
286
330
285
100
AcDbEntity
  8
0
100
AcDbBlockBegin
  2
*D10
 70
     1
 10
0.0
 20
0.0
 30
0.0
  3
*D10
  1
*D11
  0
LINE
  5
287
330
285
100
AcDbEntity
  8
文字・寸法線
 62
     0
370
    -2
100
AcDbLine
 10
80.77104517425244
 20
71.179823520804
 30
0.0
 11
3.125000000000073
 21
71.179823520804
 31
0.0
  0
LINE
  5
288
330
285
100
AcDbEntity
  8
文字・寸法線
 62
     0
370
    -2
100
AcDbLine
 10
38.26811472821328
 20
32.41039150703909
 30
0.0
 11
3.125000000000071
 21
32.41039150703909
 31
0.0
  0
LINE
  5
289
330
285
100
AcDbEntity
  8
文字・寸法線
 62
     0
370
    -2
100
AcDbLine
 10
3.625000000000073
 20
68.179823520804
 30
0.0
 11
3.625000000000071
 21
35.41039150703909
 31
0.0
  0
SOLID
  5
28A
330
285
100
AcDbEntity
  8
文字・寸法線
 62
     0
100
AcDbTrace
 10
4.125000000000073
 20
68.179823520804
 30
0.0
 11
3.125000000000073
 21
68.179823520804
 31
0.0
 12
3.625000000000073
 22
71.179823520804
 32
0.0
 13
3.625000000000073
 23
71.179823520804
 33
0.0
  0
SOLID
  5
28B
330
285
100
AcDbEntity
  8
文字・寸法線
 62
     0
100
AcDbTrace
 10
3.125000000000071
 20
35.41039150703909
 30
0.0
 11
4.125000000000071
 21
35.41039150703909
 31
0.0
 12
3.625000000000071
 22
32.41039150703909
 32
0.0
 13
3.625000000000071
 23
32.41039150703909
 33
0.0
  0
MTEXT
  5
28C
330
285
100
AcDbEntity
  8
文字・寸法線
 62
     0
100
AcDbMText
 10
1.469304229195161
 20
51.79510751392155
 30
0.0
 40
3.0
 41
0.0
 46
0.0
 71
     5
 72
     1
  1
38
 11
5.727311270544159E-17
 21
1.0
 31
0.0
 73
     1
 44
1.0
  0
POINT
  5
28D
330
285
100
AcDbEntity
  8
Defpoints
 62
     0
100
AcDbPoint
 10
81.39604517425244
 20
71.179823520804
 30
0.0
  0
POINT
  5
28E
330
285
100
AcDbEntity
  8
Defpoints
 62
     0
100
AcDbPoint
 10
38.89311472821328
 20
32.41039150703909
 30
0.0
  0
POINT
  5
28F
330
285
100
AcDbEntity
  8
Defpoints
 62
     0
100
AcDbPoint
 10
3.625000000000071
 20
32.41039150703909
 30
0.0
  0
ENDBLK
  5
290
330
285
100
AcDbEntity
  8
0
100
AcDbBlockEnd
  0
BLOCK
  5
366
330
365
100
AcDbEntity
  8
0
100
AcDbBlockBegin
  2
*D11
 70
     1
 10
0.0
 20
0.0
 30
0.0
  3
*D11
  1
*D12
  0
LINE
  5
368
330
365
100
AcDbEntity
  8
文字・寸法線
 62
     0
370
    -2
100
AcDbLine
 10
119.6844995664801
 20
69.7177707597115
 30
0.0
 11
119.6844995664801
 21
56.65167793725541
 31
0.0
  0
LINE
  5
369
330
365
100
AcDbEntity
  8
文字・寸法線
 62
     0
370
    -2
100
AcDbLine
 10
156.68449956648
 20
69.71777075971195
 30
0.0
 11
156.68449956648
 21
56.65167793725541
 31
0.0
  0
LINE
  5
36A
330
365
100
AcDbEntity
  8
文字・寸法線
 62
     0
370
    -2
100
AcDbLine
 10
122.6844995664801
 20
57.15167793725541
 30
0.0
 11
153.68449956648
 21
57.15167793725541
 31
0.0
  0
SOLID
  5
36B
330
365
100
AcDbEntity
  8
文字・寸法線
 62
     0
100
AcDbTrace
 10
122.6844995664801
 20
57.65167793725541
 30
0.0
 11
122.6844995664801
 21
56.65167793725541
 31
0.0
 12
119.6844995664801
 22
57.15167793725541
 32
0.0
 13
119.6844995664801
 23
57.15167793725541
 33
0.0
  0
SOLID
  5
36C
330
365
100
AcDbEntity
  8
文字・寸法線
 62
     0
100
AcDbTrace
 10
153.68449956648
 20
56.65167793725541
 30
0.0
 11
153.68449956648
 21
57.65167793725541
 31
0.0
 12
156.68449956648
 22
57.15167793725541
 32
0.0
 13
156.68449956648
 23
57.15167793725541
 33
0.0
  0
MTEXT
  5
36D
330
365
100
AcDbEntity
  8
文字・寸法線
 62
     0
100
AcDbMText
 10
138.1245169608484
 20
59.36467248022949
 30
0.0
 40
3.0
 41
0.0
 46
0.0
 71
     5
 72
     1
  1
%%c31
 73
     1
 44
1.0
  0
POINT
  5
36E
330
365
100
AcDbEntity
  8
Defpoints
 62
     0
100
AcDbPoint
 10
119.6844995664801
 20
70.3427707597115
 30
0.0
  0
POINT
  5
36F
330
365
100
AcDbEntity
  8
Defpoints
 62
     0
100
AcDbPoint
 10
156.68449956648
 20
70.34277075971195
 30
0.0
  0
POINT
  5
370
330
365
100
AcDbEntity
  8
Defpoints
 62
     0
100
AcDbPoint
 10
156.68449956648
 20
57.15167793725541
 30
0.0
  0
ENDBLK
  5
367
330
365
100
AcDbEntity
  8
0
100
AcDbBlockEnd
  0
BLOCK
  5
372
330
371
100
AcDbEntity
  8
0
100
AcDbBlockBegin
  2
*D12
 70
     1
 10
0.0
 20
0.0
 30
0.0
  3
*D12
  1
*D13
  0
LINE
  5
374
330
371
100
AcDbEntity
  8
文字・寸法線
 62
     0
370
    -2
100
AcDbLine
 10
123.6844995664801
 20
74.7177707597115
 30
0.0
 11
123.6844995664801
 21
66.26750111553102
 31
0.0
  0
LINE
  5
375
330
371
100
AcDbEntity
  8
文字・寸法線
 62
     0
370
    -2
100
AcDbLine
 10
152.68449956648
 20
74.71777075971195
 30
0.0
 11
152.68449956648
 21
66.26750111553102
 31
0.0
  0
LINE
  5
376
330
371
100
AcDbEntity
  8
文字・寸法線
 62
     0
370
    -2
100
AcDbLine
 10
126.6844995664801
 20
66.76750111553102
 30
0.0
 11
149.68449956648
 21
66.76750111553102
 31
0.0
  0
SOLID
  5
377
330
371
100
AcDbEntity
  8
文字・寸法線
 62
     0
100
AcDbTrace
 10
126.6844995664801
 20
67.26750111553102
 30
0.0
 11
126.6844995664801
 21
66.26750111553102
 31
0.0
 12
123.6844995664801
 22
66.76750111553102
 32
0.0
 13
123.6844995664801
 23
66.76750111553102
 33
0.0
  0
SOLID
  5
378
330
371
100
AcDbEntity
  8
文字・寸法線
 62
     0
100
AcDbTrace
 10
149.68449956648
 20
66.26750111553102
 30
0.0
 11
149.68449956648
 21
67.26750111553102
 31
0.0
 12
152.68449956648
 22
66.76750111553102
 32
0.0
 13
152.68449956648
 23
66.76750111553102
 33
0.0
  0
MTEXT
  5
379
330
371
100
AcDbEntity
  8
文字・寸法線
 62
     0
100
AcDbMText
 10
138.18449956648
 20
68.98049565850509
 30
0.0
 40
3.0
 41
0.0
 46
0.0
 71
     5
 72
     1
  1
%%c29
 73
     1
 44
1.0
  0
POINT
  5
37A
330
371
100
AcDbEntity
  8
Defpoints
 62
     0
100
AcDbPoint
 10
123.6844995664801
 20
75.3427707597115
 30
0.0
  0
POINT
  5
37B
330
371
100
AcDbEntity
  8
Defpoints
 62
     0
100
AcDbPoint
 10
152.68449956648
 20
75.34277075971195
 30
0.0
  0
POINT
  5
37C
330
371
100
AcDbEntity
  8
Defpoints
 62
     0
100
AcDbPoint
 10
152.68449956648
 20
66.76750111553102
 30
0.0
  0
ENDBLK
  5
373
330
371
100
AcDbEntity
  8
0
100
AcDbBlockEnd
  0
BLOCK
  5
37E
330
37D
100
AcDbEntity
  8
0
100
AcDbBlockBegin
  2
*D13
 70
     1
 10
0.0
 20
0.0
 30
0.0
  3
*D13
  1
*D14
  0
LINE
  5
380
330
37D
100
AcDbEntity
  8
文字・寸法線
 62
     0
370
    -2
100
AcDbLine
 10
89.18449956648028
 20
69.71777075971104
 30
0.0
 11
89.18449956648028
 21
48.27716643588738
 31
0.0
  0
LINE
  5
381
330
37D
100
AcDbEntity
  8
文字・寸法線
 62
     0
370
    -2
100
AcDbLine
 10
187.1844995664803
 20
69.71777075971195
 30
0.0
 11
187.1844995664803
 21
48.27716643588738
 31
0.0
  0
LINE
  5
382
330
37D
100
AcDbEntity
  8
文字・寸法線
 62
     0
370
    -2
100
AcDbLine
 10
92.18449956648028
 20
48.77716643588738
 30
0.0
 11
184.1844995664803
 21
48.77716643588738
 31
0.0
  0
SOLID
  5
383
330
37D
100
AcDbEntity
  8
文字・寸法線
 62
     0
100
AcDbTrace
 10
92.18449956648028
 20
49.27716643588738
 30
0.0
 11
92.18449956648028
 21
48.27716643588738
 31
0.0
 12
89.18449956648028
 22
48.77716643588738
 32
0.0
 13
89.18449956648028
 23
48.77716643588738
 33
0.0
  0
SOLID
  5
384
330
37D
100
AcDbEntity
  8
文字・寸法線
 62
     0
100
AcDbTrace
 10
184.1844995664803
 20
48.27716643588738
 30
0.0
 11
184.1844995664803
 21
49.27716643588738
 31
0.0
 12
187.1844995664803
 22
48.77716643588738
 32
0.0
 13
187.1844995664803
 23
48.77716643588738
 33
0.0
  0
MTEXT
  5
385
330
37D
100
AcDbEntity
  8
文字・寸法線
 62
     0
100
AcDbMText
 10
137.4970728485534
 20
50.99016097886146
 30
0.0
 40
3.0
 41
0.0
 46
0.0
 71
     5
 72
     1
  1
%%c99
 73
     1
 44
1.0
  0
POINT
  5
386
330
37D
100
AcDbEntity
  8
Defpoints
 62
     0
100
AcDbPoint
 10
89.18449956648028
 20
70.34277075971104
 30
0.0
  0
POINT
  5
387
330
37D
100
AcDbEntity
  8
Defpoints
 62
     0
100
AcDbPoint
 10
187.1844995664803
 20
70.34277075971195
 30
0.0
  0
POINT
  5
388
330
37D
100
AcDbEntity
  8
Defpoints
 62
     0
100
AcDbPoint
 10
187.1844995664803
 20
48.77716643588738
 30
0.0
  0
ENDBLK
  5
37F
330
37D
100
AcDbEntity
  8
0
100
AcDbBlockEnd
  0
BLOCK
  5
38A
330
389
100
AcDbEntity
  8
0
100
AcDbBlockBegin
  2
*D14
 70
     1
 10
0.0
 20
0.0
 30
0.0
  3
*D14
  1
*D15
  0
LINE
  5
38C
330
389
100
AcDbEntity
  8
文字・寸法線
 62
     0
370
    -2
100
AcDbLine
 10
84.5483754386516
 20
70.7177707597115
 30
0.0
 11
84.5483754386516
 21
38.9323792526724
 31
0.0
  0
LINE
  5
38D
330
389
100
AcDbEntity
  8
文字・寸法線
 62
     0
370
    -2
100
AcDbLine
 10
191.5483754386516
 20
70.7177707597115
 30
0.0
 11
191.5483754386516
 21
38.9323792526724
 31
0.0
  0
LINE
  5
38E
330
389
100
AcDbEntity
  8
文字・寸法線
 62
     0
370
    -2
100
AcDbLine
 10
87.5483754386516
 20
39.4323792526724
 30
0.0
 11
188.5483754386516
 21
39.4323792526724
 31
0.0
  0
SOLID
  5
38F
330
389
100
AcDbEntity
  8
文字・寸法線
 62
     0
100
AcDbTrace
 10
87.5483754386516
 20
39.9323792526724
 30
0.0
 11
87.5483754386516
 21
38.9323792526724
 31
0.0
 12
84.5483754386516
 22
39.4323792526724
 32
0.0
 13
84.5483754386516
 23
39.4323792526724
 33
0.0
  0
SOLID
  5
390
330
389
100
AcDbEntity
  8
文字・寸法線
 62
     0
100
AcDbTrace
 10
188.5483754386516
 20
38.9323792526724
 30
0.0
 11
188.5483754386516
 21
39.9323792526724
 31
0.0
 12
191.5483754386516
 22
39.4323792526724
 32
0.0
 13
191.5483754386516
 23
39.4323792526724
 33
0.0
  0
MTEXT
  5
391
330
389
100
AcDbEntity
  8
文字・寸法線
 62
     0
100
AcDbMText
 10
138.0483754386516
 20
42.02600135362739
 30
0.0
 40
3.0
 41
0.0
 46
0.0
 71
     5
 72
     1
  1
(%%c107)
 73
     1
 44
1.0
  0
POINT
  5
392
330
389
100
AcDbEntity
  8
Defpoints
 62
     0
100
AcDbPoint
 10
84.5483754386516
 20
71.3427707597115
 30
0.0
  0
POINT
  5
393
330
389
100
AcDbEntity
  8
Defpoints
 62
     0
100
AcDbPoint
 10
191.5483754386516
 20
71.3427707597115
 30
0.0
  0
POINT
  5
394
330
389
100
AcDbEntity
  8
Defpoints
 62
     0
100
AcDbPoint
 10
191.5483754386516
 20
39.4323792526724
 30
0.0
  0
ENDBLK
  5
38B
330
389
100
AcDbEntity
  8
0
100
AcDbBlockEnd
  0
BLOCK
  5
396
330
395
100
AcDbEntity
  8
0
100
AcDbBlockBegin
  2
*D15
 70
     1
 10
0.0
 20
0.0
 30
0.0
  3
*D15
  1
*D16
  0
LINE
  5
398
330
395
100
AcDbEntity
  8
文字・寸法線
 62
     0
370
    -2
100
AcDbLine
 10
187.8094995664803
 20
75.34277075971195
 30
0.0
 11
204.0906047342734
 21
75.34277075971195
 31
0.0
  0
LINE
  5
399
330
395
100
AcDbEntity
  8
文字・寸法線
 62
     0
370
    -2
100
AcDbLine
 10
187.8094995664803
 20
70.34277075971195
 30
0.0
 11
204.0906047342734
 21
70.34277075971195
 31
0.0
  0
LINE
  5
39A
330
395
100
AcDbEntity
  8
文字・寸法線
 62
     0
370
    -2
100
AcDbLine
 10
203.5906047342734
 20
75.34277075971195
 30
0.0
 11
203.5906047342734
 21
70.34277075971195
 31
0.0
  0
LINE
  5
39B
330
395
100
AcDbEntity
  8
文字・寸法線
 62
     0
370
    -2
100
AcDbLine
 10
203.5906047342734
 20
78.34277075971195
 30
0.0
 11
203.5906047342734
 21
81.34277075971195
 31
0.0
  0
LINE
  5
39C
330
395
100
AcDbEntity
  8
文字・寸法線
 62
     0
370
    -2
100
AcDbLine
 10
203.5906047342734
 20
67.34277075971195
 30
0.0
 11
203.5906047342734
 21
64.34277075971195
 31
0.0
  0
SOLID
  5
39D
330
395
100
AcDbEntity
  8
文字・寸法線
 62
     0
100
AcDbTrace
 10
203.0906047342734
 20
78.34277075971195
 30
0.0
 11
204.0906047342734
 21
78.34277075971195
 31
0.0
 12
203.5906047342734
 22
75.34277075971195
 32
0.0
 13
203.5906047342734
 23
75.34277075971195
 33
0.0
  0
SOLID
  5
39E
330
395
100
AcDbEntity
  8
文字・寸法線
 62
     0
100
AcDbTrace
 10
204.0906047342734
 20
67.34277075971195
 30
0.0
 11
203.0906047342734
 21
67.34277075971195
 31
0.0
 12
203.5906047342734
 22
70.34277075971195
 32
0.0
 13
203.5906047342734
 23
70.34277075971195
 33
0.0
  0
MTEXT
  5
39F
330
395
100
AcDbEntity
  8
文字・寸法線
 62
     0
100
AcDbMText
 10
201.4410481176295
 20
72.84277075971195
 30
0.0
 40
3.0
 41
0.0
 46
0.0
 71
     5
 72
     1
  1
5
 11
0.0
 21
1.0
 31
0.0
 73
     1
 44
1.0
  0
POINT
  5
3A0
330
395
100
AcDbEntity
  8
Defpoints
 62
     0
100
AcDbPoint
 10
187.1844995664803
 20
75.34277075971195
 30
0.0
  0
POINT
  5
3A1
330
395
100
AcDbEntity
  8
Defpoints
 62
     0
100
AcDbPoint
 10
187.1844995664803
 20
70.34277075971195
 30
0.0
  0
POINT
  5
3A2
330
395
100
AcDbEntity
  8
Defpoints
 62
     0
100
AcDbPoint
 10
203.5906047342734
 20
70.34277075971195
 30
0.0
  0
ENDBLK
  5
397
330
395
100
AcDbEntity
  8
0
100
AcDbBlockEnd
  0
BLOCK
  5
3A4
330
3A3
100
AcDbEntity
  8
0
100
AcDbBlockBegin
  2
*D16
 70
     1
 10
0.0
 20
0.0
 30
0.0
  3
*D16
  1
*D17
  0
LINE
  5
3A6
330
3A3
100
AcDbEntity
  8
文字・寸法線
 62
     0
370
    -2
100
AcDbLine
 10
83.9233754386516
 20
71.3427707597115
 30
0.0
 11
48.78026071043833
 21
71.3427707597115
 31
0.0
  0
LINE
  5
3A7
330
3A3
100
AcDbEntity
  8
文字・寸法線
 62
     0
370
    -2
100
AcDbLine
 10
88.55949956648028
 20
70.34277075971104
 30
0.0
 11
48.78026071043833
 21
70.34277075971104
 31
0.0
  0
LINE
  5
3A8
330
3A3
100
AcDbEntity
  8
文字・寸法線
 62
     0
370
    -2
100
AcDbLine
 10
49.28026071043833
 20
70.34277075971104
 30
0.0
 11
49.28026071043833
 21
56.15643606212063
 31
0.0
  0
LINE
  5
3A9
330
3A3
100
AcDbEntity
  8
文字・寸法線
 62
     0
370
    -2
100
AcDbLine
 10
49.28026071043833
 20
71.3427707597115
 30
0.0
 11
49.28026071043833
 21
70.34277075971104
 31
0.0
  0
LINE
  5
3AA
330
3A3
100
AcDbEntity
  8
文字・寸法線
 62
     0
370
    -2
100
AcDbLine
 10
49.28026071043833
 20
74.3427707597115
 30
0.0
 11
49.28026071043833
 21
77.3427707597115
 31
0.0
  0
LINE
  5
3AB
330
3A3
100
AcDbEntity
  8
文字・寸法線
 62
     0
370
    -2
100
AcDbLine
 10
49.28026071043833
 20
67.34277075971104
 30
0.0
 11
49.28026071043833
 21
64.34277075971104
 31
0.0
  0
SOLID
  5
3AC
330
3A3
100
AcDbEntity
  8
文字・寸法線
 62
     0
100
AcDbTrace
 10
48.78026071043833
 20
74.3427707597115
 30
0.0
 11
49.78026071043833
 21
74.3427707597115
 31
0.0
 12
49.28026071043833
 22
71.3427707597115
 32
0.0
 13
49.28026071043833
 23
71.3427707597115
 33
0.0
  0
SOLID
  5
3AD
330
3A3
100
AcDbEntity
  8
文字・寸法線
 62
     0
100
AcDbTrace
 10
49.78026071043833
 20
67.34277075971104
 30
0.0
 11
48.78026071043833
 21
67.34277075971104
 31
0.0
 12
49.28026071043833
 22
70.34277075971104
 32
0.0
 13
49.28026071043833
 23
70.34277075971104
 33
0.0
  0
MTEXT
  5
3AE
330
3A3
100
AcDbEntity
  8
文字・寸法線
 62
     0
100
AcDbMText
 10
47.12456493963342
 20
59.3844374263771
 30
0.0
 40
3.0
 41
0.0
 46
0.0
 71
     5
 72
     1
  1
1.5
 11
0.0
 21
1.0
 31
0.0
 73
     1
 44
1.0
  0
POINT
  5
3AF
330
3A3
100
AcDbEntity
  8
Defpoints
 62
     0
100
AcDbPoint
 10
84.5483754386516
 20
71.3427707597115
 30
0.0
  0
POINT
  5
3B0
330
3A3
100
AcDbEntity
  8
Defpoints
 62
     0
100
AcDbPoint
 10
89.18449956648028
 20
70.34277075971104
 30
0.0
  0
POINT
  5
3B1
330
3A3
100
AcDbEntity
  8
Defpoints
 62
     0
100
AcDbPoint
 10
49.28026071043833
 20
70.34277075971104
 30
0.0
  0
ENDBLK
  5
3A5
330
3A3
100
AcDbEntity
  8
0
100
AcDbBlockEnd
  0
BLOCK
  5
3B3
330
3B2
100
AcDbEntity
  8
0
100
AcDbBlockBegin
  2
*D17
 70
     1
 10
0.0
 20
0.0
 30
0.0
  3
*D17
  1
*D18
  0
LINE
  5
3B5
330
3B2
100
AcDbEntity
  8
文字・寸法線
 62
     0
370
    -2
100
AcDbLine
 10
83.9233754386516
 20
71.3427707597115
 30
0.0
 11
65.18736629403675
 21
71.3427707597115
 31
0.0
  0
LINE
  5
3B6
330
3B2
100
AcDbEntity
  8
文字・寸法線
 62
     0
370
    -2
100
AcDbLine
 10
123.5733754386516
 20
100.1122016167695
 30
0.0
 11
65.18736629403675
 21
100.1122016167695
 31
0.0
  0
LINE
  5
3B7
330
3B2
100
AcDbEntity
  8
文字・寸法線
 62
     0
370
    -2
100
AcDbLine
 10
65.68736629403675
 20
74.3427707597115
 30
0.0
 11
65.68736629403675
 21
97.11220161676945
 31
0.0
  0
SOLID
  5
3B8
330
3B2
100
AcDbEntity
  8
文字・寸法線
 62
     0
100
AcDbTrace
 10
65.18736629403675
 20
74.3427707597115
 30
0.0
 11
66.18736629403675
 21
74.3427707597115
 31
0.0
 12
65.68736629403675
 22
71.3427707597115
 32
0.0
 13
65.68736629403675
 23
71.3427707597115
 33
0.0
  0
SOLID
  5
3B9
330
3B2
100
AcDbEntity
  8
文字・寸法線
 62
     0
100
AcDbTrace
 10
66.18736629403675
 20
97.11220161676945
 30
0.0
 11
65.18736629403675
 21
97.11220161676945
 31
0.0
 12
65.68736629403675
 22
100.1122016167695
 32
0.0
 13
65.68736629403675
 23
100.1122016167695
 33
0.0
  0
MTEXT
  5
3BA
330
3B2
100
AcDbEntity
  8
文字・寸法線
 62
     0
100
AcDbMText
 10
63.53167052323184
 20
85.72748618824048
 30
0.0
 40
3.0
 41
0.0
 46
0.0
 71
     5
 72
     1
  1
28
 11
0.0
 21
1.0
 31
0.0
 73
     1
 44
1.0
  0
POINT
  5
3BB
330
3B2
100
AcDbEntity
  8
Defpoints
 62
     0
100
AcDbPoint
 10
84.5483754386516
 20
71.3427707597115
 30
0.0
  0
POINT
  5
3BC
330
3B2
100
AcDbEntity
  8
Defpoints
 62
     0
100
AcDbPoint
 10
124.1983754386516
 20
100.1122016167695
 30
0.0
  0
POINT
  5
3BD
330
3B2
100
AcDbEntity
  8
Defpoints
 62
     0
100
AcDbPoint
 10
65.68736629403675
 20
100.1122016167695
 30
0.0
  0
ENDBLK
  5
3B4
330
3B2
100
AcDbEntity
  8
0
100
AcDbBlockEnd
  0
BLOCK
  5
3BF
330
3BE
100
AcDbEntity
  8
0
100
AcDbBlockBegin
  2
*D18
 70
     1
 10
0.0
 20
0.0
 30
0.0
  3
*D18
  1
*D19
  0
LINE
  5
3C1
330
3BE
100
AcDbEntity
  8
文字・寸法線
 62
     0
370
    -2
100
AcDbLine
 10
130.4951722083761
 20
192.2990885618587
 30
0.0
 11
72.34434662427903
 21
192.2990885618587
 31
0.0
  0
LINE
  5
3C2
330
3BE
100
AcDbEntity
  8
文字・寸法線
 62
     0
370
    -2
100
AcDbLine
 10
130.4951722083759
 20
168.2990885618587
 30
0.0
 11
72.34434662427903
 21
168.2990885618587
 31
0.0
  0
LINE
  5
3C3
330
3BE
100
AcDbEntity
  8
文字・寸法線
 62
     0
370
    -2
100
AcDbLine
 10
72.84434662427903
 20
189.2990885618587
 30
0.0
 11
72.84434662427903
 21
171.2990885618587
 31
0.0
  0
SOLID
  5
3C4
330
3BE
100
AcDbEntity
  8
文字・寸法線
 62
     0
100
AcDbTrace
 10
73.34434662427903
 20
189.2990885618587
 30
0.0
 11
72.34434662427903
 21
189.2990885618587
 31
0.0
 12
72.84434662427903
 22
192.2990885618587
 32
0.0
 13
72.84434662427903
 23
192.2990885618587
 33
0.0
  0
SOLID
  5
3C5
330
3BE
100
AcDbEntity
  8
文字・寸法線
 62
     0
100
AcDbTrace
 10
72.34434662427903
 20
171.2990885618587
 30
0.0
 11
73.34434662427903
 21
171.2990885618587
 31
0.0
 12
72.84434662427903
 22
168.2990885618587
 32
0.0
 13
72.84434662427903
 23
168.2990885618587
 33
0.0
  0
MTEXT
  5
3C6
330
3BE
100
AcDbEntity
  8
文字・寸法線
 62
     0
100
AcDbMText
 10
70.71320747011804
 20
180.4671802556099
 30
0.0
 40
3.0
 41
0.0
 46
0.0
 71
     5
 72
     1
  1
24
 11
0.0
 21
1.0
 31
0.0
 73
     1
 44
1.0
  0
POINT
  5
3C7
330
3BE
100
AcDbEntity
  8
Defpoints
 62
     0
100
AcDbPoint
 10
131.1201722083761
 20
192.2990885618587
 30
0.0
  0
POINT
  5
3C8
330
3BE
100
AcDbEntity
  8
Defpoints
 62
     0
100
AcDbPoint
 10
131.1201722083759
 20
168.2990885618587
 30
0.0
  0
POINT
  5
3C9
330
3BE
100
AcDbEntity
  8
Defpoints
 62
     0
100
AcDbPoint
 10
72.84434662427903
 20
168.2990885618587
 30
0.0
  0
ENDBLK
  5
3C0
330
3BE
100
AcDbEntity
  8
0
100
AcDbBlockEnd
  0
BLOCK
  5
3CB
330
3CA
100
AcDbEntity
  8
0
100
AcDbBlockBegin
  2
*D19
 70
     1
 10
0.0
 20
0.0
 30
0.0
  3
*D19
  1
*D20
  0
LINE
  5
3CD
330
3CA
100
AcDbEntity
  8
文字・寸法線
 62
     0
370
    -2
100
AcDbLine
 10
127.0513058846908
 20
110.1122027734764
 30
0.0
 11
65.18736629403675
 21
110.1122027734764
 31
0.0
  0
LINE
  5
3CE
330
3CA
100
AcDbEntity
  8
文字・寸法線
 62
     0
370
    -2
100
AcDbLine
 10
123.5733754386516
 20
100.1122016167695
 30
0.0
 11
65.18736629403675
 21
100.1122016167695
 31
0.0
  0
LINE
  5
3CF
330
3CA
100
AcDbEntity
  8
文字・寸法線
 62
     0
370
    -2
100
AcDbLine
 10
65.68736629403675
 20
107.1122027734764
 30
0.0
 11
65.68736629403675
 21
103.1122016167695
 31
0.0
  0
SOLID
  5
3D0
330
3CA
100
AcDbEntity
  8
文字・寸法線
 62
     0
100
AcDbTrace
 10
66.18736629403675
 20
107.1122027734764
 30
0.0
 11
65.18736629403675
 21
107.1122027734764
 31
0.0
 12
65.68736629403675
 22
110.1122027734764
 32
0.0
 13
65.68736629403675
 23
110.1122027734764
 33
0.0
  0
SOLID
  5
3D1
330
3CA
100
AcDbEntity
  8
文字・寸法線
 62
     0
100
AcDbTrace
 10
65.18736629403675
 20
103.1122016167695
 30
0.0
 11
66.18736629403675
 21
103.1122016167695
 31
0.0
 12
65.68736629403675
 22
100.1122016167695
 32
0.0
 13
65.68736629403675
 23
100.1122016167695
 33
0.0
  0
MTEXT
  5
3D2
330
3CA
100
AcDbEntity
  8
文字・寸法線
 62
     0
100
AcDbMText
 10
63.53167052323184
 20
105.1122021951229
 30
0.0
 40
3.0
 41
0.0
 46
0.0
 71
     5
 72
     1
  1
10
 11
0.0
 21
1.0
 31
0.0
 73
     1
 44
1.0
  0
POINT
  5
3D3
330
3CA
100
AcDbEntity
  8
Defpoints
 62
     0
100
AcDbPoint
 10
127.6763058846908
 20
110.1122027734764
 30
0.0
  0
POINT
  5
3D4
330
3CA
100
AcDbEntity
  8
Defpoints
 62
     0
100
AcDbPoint
 10
124.1983754386516
 20
100.1122016167695
 30
0.0
  0
POINT
  5
3D5
330
3CA
100
AcDbEntity
  8
Defpoints
 62
     0
100
AcDbPoint
 10
65.68736629403675
 20
100.1122016167695
 30
0.0
  0
ENDBLK
  5
3CC
330
3CA
100
AcDbEntity
  8
0
100
AcDbBlockEnd
  0
BLOCK
  5
3D7
330
3D6
100
AcDbEntity
  8
0
100
AcDbBlockBegin
  2
*D20
 70
     1
 10
0.0
 20
0.0
 30
0.0
  3
*D20
  1
*D21
  0
LINE
  5
3D9
330
3D6
100
AcDbEntity
  8
文字・寸法線
 62
     0
370
    -2
100
AcDbLine
 10
126.4263058846908
 20
110.1122027734764
 30
0.0
 11
48.7802607104384
 21
110.1122027734764
 31
0.0
  0
LINE
  5
3DA
330
3D6
100
AcDbEntity
  8
文字・寸法線
 62
     0
370
    -2
100
AcDbLine
 10
83.9233754386516
 20
71.3427707597115
 30
0.0
 11
48.7802607104384
 21
71.3427707597115
 31
0.0
  0
LINE
  5
3DB
330
3D6
100
AcDbEntity
  8
文字・寸法線
 62
     0
370
    -2
100
AcDbLine
 10
49.2802607104384
 20
107.1122027734764
 30
0.0
 11
49.2802607104384
 21
74.3427707597115
 31
0.0
  0
SOLID
  5
3DC
330
3D6
100
AcDbEntity
  8
文字・寸法線
 62
     0
100
AcDbTrace
 10
49.7802607104384
 20
107.1122027734764
 30
0.0
 11
48.7802607104384
 21
107.1122027734764
 31
0.0
 12
49.2802607104384
 22
110.1122027734764
 32
0.0
 13
49.2802607104384
 23
110.1122027734764
 33
0.0
  0
SOLID
  5
3DD
330
3D6
100
AcDbEntity
  8
文字・寸法線
 62
     0
100
AcDbTrace
 10
48.7802607104384
 20
74.3427707597115
 30
0.0
 11
49.7802607104384
 21
74.3427707597115
 31
0.0
 12
49.2802607104384
 22
71.3427707597115
 32
0.0
 13
49.2802607104384
 23
71.3427707597115
 33
0.0
  0
MTEXT
  5
3DE
330
3D6
100
AcDbEntity
  8
文字・寸法線
 62
     0
100
AcDbMText
 10
47.12456493963349
 20
90.72748676659396
 30
0.0
 40
3.0
 41
0.0
 46
0.0
 71
     5
 72
     1
  1
38
 11
0.0
 21
1.0
 31
0.0
 73
     1
 44
1.0
  0
POINT
  5
3DF
330
3D6
100
AcDbEntity
  8
Defpoints
 62
     0
100
AcDbPoint
 10
127.0513058846908
 20
110.1122027734764
 30
0.0
  0
POINT
  5
3E0
330
3D6
100
AcDbEntity
  8
Defpoints
 62
     0
100
AcDbPoint
 10
84.5483754386516
 20
71.3427707597115
 30
0.0
  0
POINT
  5
3E1
330
3D6
100
AcDbEntity
  8
Defpoints
 62
     0
100
AcDbPoint
 10
49.2802607104384
 20
71.3427707597115
 30
0.0
  0
ENDBLK
  5
3D8
330
3D6
100
AcDbEntity
  8
0
100
AcDbBlockEnd
  0
BLOCK
  5
56B
330
56A
100
AcDbEntity
  8
0
100
AcDbBlockBegin
  2
*D21
 70
     1
 10
0.0
 20
0.0
 30
0.0
  3
*D21
  1
*D13
  0
LINE
  5
56C
330
56A
100
AcDbEntity
  8
文字・寸法線
 62
     0
370
    -2
100
AcDbLine
 10
61.68513327244347
 20
61.0943259613897
 30
0.0
 11
61.68513327244347
 21
52.64405631720922
 31
0.0
  0
LINE
  5
56D
330
56A
100
AcDbEntity
  8
文字・寸法線
 62
     0
370
    -2
100
AcDbLine
 10
90.68513327244347
 20
61.09432596139015
 30
0.0
 11
90.68513327244347
 21
52.64405631720922
 31
0.0
  0
LINE
  5
56E
330
56A
100
AcDbEntity
  8
文字・寸法線
 62
     0
370
    -2
100
AcDbLine
 10
64.68513327244347
 20
53.14405631720922
 30
0.0
 11
87.68513327244347
 21
53.14405631720922
 31
0.0
  0
SOLID
  5
56F
330
56A
100
AcDbEntity
  8
文字・寸法線
 62
     0
100
AcDbTrace
 10
64.68513327244347
 20
53.64405631720922
 30
0.0
 11
64.68513327244347
 21
52.64405631720922
 31
0.0
 12
61.68513327244347
 22
53.14405631720922
 32
0.0
 13
61.68513327244347
 23
53.14405631720922
 33
0.0
  0
SOLID
  5
570
330
56A
100
AcDbEntity
  8
文字・寸法線
 62
     0
100
AcDbTrace
 10
87.68513327244347
 20
52.64405631720922
 30
0.0
 11
87.68513327244347
 21
53.64405631720922
 31
0.0
 12
90.68513327244347
 22
53.14405631720922
 32
0.0
 13
90.68513327244347
 23
53.14405631720922
 33
0.0
  0
MTEXT
  5
571
330
56A
100
AcDbEntity
  8
文字・寸法線
 62
     0
100
AcDbMText
 10
76.18513327244347
 20
55.35455631720922
 30
0.0
 40
3.0
 41
0.0
 46
0.0
 71
     5
 72
     1
  1
%%c29
 73
     1
 44
1.0
  0
POINT
  5
572
330
56A
100
AcDbEntity
  8
Defpoints
 62
     0
100
AcDbPoint
 10
61.68513327244347
 20
61.7193259613897
 30
0.0
  0
POINT
  5
573
330
56A
100
AcDbEntity
  8
Defpoints
 62
     0
100
AcDbPoint
 10
90.68513327244347
 20
61.71932596139015
 30
0.0
  0
POINT
  5
574
330
56A
100
AcDbEntity
  8
Defpoints
 62
     0
100
AcDbPoint
 10
90.68513327244347
 20
53.14405631720922
 30
0.0
  0
ENDBLK
  5
575
330
56A
100
AcDbEntity
  8
0
100
AcDbBlockEnd
  0
BLOCK
  5
58D
330
58C
100
AcDbEntity
  8
0
100
AcDbBlockBegin
  2
*D22
 70
     1
 10
0.0
 20
0.0
 30
0.0
  3
*D22
  1
*D17
  0
LINE
  5
58E
330
58C
100
AcDbEntity
  8
文字・寸法線
 62
     0
370
    -2
100
AcDbLine
 10
21.92400914461501
 20
61.89053213243324
 30
0.0
 11
3.188000000000216
 21
61.89053213243324
 31
0.0
  0
LINE
  5
58F
330
58C
100
AcDbEntity
  8
文字・寸法線
 62
     0
370
    -2
100
AcDbLine
 10
26.56013327244369
 20
60.39232602847392
 30
0.0
 11
3.188000000000216
 21
60.39232602847392
 31
0.0
  0
LINE
  5
590
330
58C
100
AcDbEntity
  8
文字・寸法線
 62
     0
370
    -2
100
AcDbLine
 10
3.688000000000216
 20
60.39232602847392
 30
0.0
 11
3.688000000000216
 21
46.44842908045366
 31
0.0
  0
LINE
  5
591
330
58C
100
AcDbEntity
  8
文字・寸法線
 62
     0
370
    -2
100
AcDbLine
 10
3.688000000000216
 20
61.89053213243324
 30
0.0
 11
3.688000000000216
 21
60.39232602847392
 31
0.0
  0
LINE
  5
592
330
58C
100
AcDbEntity
  8
文字・寸法線
 62
     0
370
    -2
100
AcDbLine
 10
3.688000000000216
 20
64.89053213243324
 30
0.0
 11
3.688000000000216
 21
67.89053213243324
 31
0.0
  0
LINE
  5
593
330
58C
100
AcDbEntity
  8
文字・寸法線
 62
     0
370
    -2
100
AcDbLine
 10
3.688000000000216
 20
57.39232602847392
 30
0.0
 11
3.688000000000216
 21
54.39232602847392
 31
0.0
  0
SOLID
  5
594
330
58C
100
AcDbEntity
  8
文字・寸法線
 62
     0
100
AcDbTrace
 10
3.188000000000216
 20
64.89053213243324
 30
0.0
 11
4.188000000000216
 21
64.89053213243324
 31
0.0
 12
3.688000000000216
 22
61.89053213243324
 32
0.0
 13
3.688000000000216
 23
61.89053213243324
 33
0.0
  0
SOLID
  5
595
330
58C
100
AcDbEntity
  8
文字・寸法線
 62
     0
100
AcDbTrace
 10
4.188000000000216
 20
57.39232602847392
 30
0.0
 11
3.188000000000216
 21
57.39232602847392
 31
0.0
 12
3.688000000000216
 22
60.39232602847392
 32
0.0
 13
3.688000000000216
 23
60.39232602847392
 33
0.0
  0
MTEXT
  5
596
330
58C
100
AcDbEntity
  8
文字・寸法線
 62
     0
100
AcDbMText
 10
1.531500000000214
 20
49.67142908045366
 30
0.0
 40
3.0
 41
0.0
 46
0.0
 71
     5
 72
     1
  1
1.5
 11
0.0
 21
1.0
 31
0.0
 73
     1
 44
1.0
  0
POINT
  5
597
330
58C
100
AcDbEntity
  8
Defpoints
 62
     0
100
AcDbPoint
 10
22.54900914461501
 20
61.89053213243324
 30
0.0
  0
POINT
  5
598
330
58C
100
AcDbEntity
  8
Defpoints
 62
     0
100
AcDbPoint
 10
27.18513327244369
 20
60.39232602847392
 30
0.0
  0
POINT
  5
599
330
58C
100
AcDbEntity
  8
Defpoints
 62
     0
100
AcDbPoint
 10
3.688000000000216
 20
60.39232602847392
 30
0.0
  0
ENDBLK
  5
59A
330
58C
100
AcDbEntity
  8
0
100
AcDbBlockEnd
  0
BLOCK
  5
59D
330
59C
100
AcDbEntity
  8
0
100
AcDbBlockBegin
  2
*D23
 70
     1
 10
0.0
 20
0.0
 30
0.0
  3
*D23
  1
*D18
  0
LINE
  5
59E
330
59C
100
AcDbEntity
  8
文字・寸法線
 62
     0
370
    -2
100
AcDbLine
 10
21.92400914461501
 20
61.89053213243324
 30
0.0
 11
3.188000000000214
 21
61.89053213243324
 31
0.0
  0
LINE
  5
59F
330
59C
100
AcDbEntity
  8
文字・寸法線
 62
     0
370
    -2
100
AcDbLine
 10
61.57400914461499
 20
90.65996298949119
 30
0.0
 11
3.188000000000216
 21
90.65996298949119
 31
0.0
  0
LINE
  5
5A0
330
59C
100
AcDbEntity
  8
文字・寸法線
 62
     0
370
    -2
100
AcDbLine
 10
3.688000000000214
 20
64.89053213243324
 30
0.0
 11
3.688000000000216
 21
87.65996298949119
 31
0.0
  0
SOLID
  5
5A1
330
59C
100
AcDbEntity
  8
文字・寸法線
 62
     0
100
AcDbTrace
 10
3.188000000000214
 20
64.89053213243324
 30
0.0
 11
4.188000000000214
 21
64.89053213243324
 31
0.0
 12
3.688000000000214
 22
61.89053213243324
 32
0.0
 13
3.688000000000214
 23
61.89053213243324
 33
0.0
  0
SOLID
  5
5A2
330
59C
100
AcDbEntity
  8
文字・寸法線
 62
     0
100
AcDbTrace
 10
4.188000000000216
 20
87.65996298949119
 30
0.0
 11
3.188000000000216
 21
87.65996298949119
 31
0.0
 12
3.688000000000216
 22
90.65996298949119
 32
0.0
 13
3.688000000000216
 23
90.65996298949119
 33
0.0
  0
MTEXT
  5
5A3
330
59C
100
AcDbEntity
  8
文字・寸法線
 62
     0
100
AcDbMText
 10
1.531500000000221
 20
76.27524756096221
 30
0.0
 40
3.0
 41
0.0
 46
0.0
 71
     5
 72
     1
  1
28
 11
6.174459440042971E-17
 21
1.0
 31
0.0
 73
     1
 44
1.0
  0
POINT
  5
5A4
330
59C
100
AcDbEntity
  8
Defpoints
 62
     0
100
AcDbPoint
 10
22.54900914461501
 20
61.89053213243324
 30
0.0
  0
POINT
  5
5A5
330
59C
100
AcDbEntity
  8
Defpoints
 62
     0
100
AcDbPoint
 10
62.19900914461499
 20
90.65996298949119
 30
0.0
  0
POINT
  5
5A6
330
59C
100
AcDbEntity
  8
Defpoints
 62
     0
100
AcDbPoint
 10
3.688000000000216
 20
90.65996298949119
 30
0.0
  0
ENDBLK
  5
5A7
330
59C
100
AcDbEntity
  8
0
100
AcDbBlockEnd
  0
BLOCK
  5
5B1
330
5B0
100
AcDbEntity
  8
0
100
AcDbBlockBegin
  2
*D24
 70
     1
 10
0.0
 20
0.0
 30
0.0
  3
*D24
  1
*D19
  0
LINE
  5
5B2
330
5B0
100
AcDbEntity
  8
文字・寸法線
 62
     0
370
    -2
100
AcDbLine
 10
68.49580591433948
 20
182.8468499345804
 30
0.0
 11
10.34498033024238
 21
182.8468499345804
 31
0.0
  0
LINE
  5
5B3
330
5B0
100
AcDbEntity
  8
文字・寸法線
 62
     0
370
    -2
100
AcDbLine
 10
68.49580591433931
 20
158.8468499345804
 30
0.0
 11
10.34498033024238
 21
158.8468499345804
 31
0.0
  0
LINE
  5
5B4
330
5B0
100
AcDbEntity
  8
文字・寸法線
 62
     0
370
    -2
100
AcDbLine
 10
10.84498033024238
 20
179.8468499345804
 30
0.0
 11
10.84498033024238
 21
161.8468499345804
 31
0.0
  0
SOLID
  5
5B5
330
5B0
100
AcDbEntity
  8
文字・寸法線
 62
     0
100
AcDbTrace
 10
11.34498033024238
 20
179.8468499345804
 30
0.0
 11
10.34498033024238
 21
179.8468499345804
 31
0.0
 12
10.84498033024238
 22
182.8468499345804
 32
0.0
 13
10.84498033024238
 23
182.8468499345804
 33
0.0
  0
SOLID
  5
5B6
330
5B0
100
AcDbEntity
  8
文字・寸法線
 62
     0
100
AcDbTrace
 10
10.34498033024238
 20
161.8468499345804
 30
0.0
 11
11.34498033024238
 21
161.8468499345804
 31
0.0
 12
10.84498033024238
 22
158.8468499345804
 32
0.0
 13
10.84498033024238
 23
158.8468499345804
 33
0.0
  0
MTEXT
  5
5B7
330
5B0
100
AcDbEntity
  8
文字・寸法線
 62
     0
100
AcDbMText
 10
8.713980330242379
 20
171.0149416283316
 30
0.0
 40
3.0
 41
0.0
 46
0.0
 71
     5
 72
     1
  1
24
 11
7.401486830834377E-17
 21
1.0
 31
0.0
 73
     1
 44
1.0
  0
POINT
  5
5B8
330
5B0
100
AcDbEntity
  8
Defpoints
 62
     0
100
AcDbPoint
 10
69.12080591433948
 20
182.8468499345804
 30
0.0
  0
POINT
  5
5B9
330
5B0
100
AcDbEntity
  8
Defpoints
 62
     0
100
AcDbPoint
 10
69.12080591433931
 20
158.8468499345804
 30
0.0
  0
POINT
  5
5BA
330
5B0
100
AcDbEntity
  8
Defpoints
 62
     0
100
AcDbPoint
 10
10.84498033024238
 20
158.8468499345804
 30
0.0
  0
ENDBLK
  5
5BB
330
5B0
100
AcDbEntity
  8
0
100
AcDbBlockEnd
  0
BLOCK
  5
5C0
330
5BF
100
AcDbEntity
  8
0
100
AcDbBlockBegin
  2
*D25
 70
     1
 10
0.0
 20
0.0
 30
0.0
  3
*D25
  1
*D20
  0
LINE
  5
5C1
330
5BF
100
AcDbEntity
  8
文字・寸法線
 62
     0
370
    -2
100
AcDbLine
 10
65.05193959065417
 20
100.6599641461981
 30
0.0
 11
3.188000000000216
 21
100.6599641461981
 31
0.0
  0
LINE
  5
5C2
330
5BF
100
AcDbEntity
  8
文字・寸法線
 62
     0
370
    -2
100
AcDbLine
 10
61.57400914461499
 20
90.65996298949119
 30
0.0
 11
3.188000000000216
 21
90.65996298949119
 31
0.0
  0
LINE
  5
5C3
330
5BF
100
AcDbEntity
  8
文字・寸法線
 62
     0
370
    -2
100
AcDbLine
 10
3.688000000000216
 20
97.65996414619815
 30
0.0
 11
3.688000000000216
 21
93.65996298949119
 31
0.0
  0
SOLID
  5
5C4
330
5BF
100
AcDbEntity
  8
文字・寸法線
 62
     0
100
AcDbTrace
 10
4.188000000000216
 20
97.65996414619815
 30
0.0
 11
3.188000000000216
 21
97.65996414619815
 31
0.0
 12
3.688000000000216
 22
100.6599641461981
 32
0.0
 13
3.688000000000216
 23
100.6599641461981
 33
0.0
  0
SOLID
  5
5C5
330
5BF
100
AcDbEntity
  8
文字・寸法線
 62
     0
100
AcDbTrace
 10
3.188000000000216
 20
93.65996298949119
 30
0.0
 11
4.188000000000216
 21
93.65996298949119
 31
0.0
 12
3.688000000000216
 22
90.65996298949119
 32
0.0
 13
3.688000000000216
 23
90.65996298949119
 33
0.0
  0
MTEXT
  5
5C6
330
5BF
100
AcDbEntity
  8
文字・寸法線
 62
     0
100
AcDbMText
 10
1.531500000000221
 20
95.65996356784467
 30
0.0
 40
3.0
 41
0.0
 46
0.0
 71
     5
 72
     1
  1
10
 11
4.440891584819607E-17
 21
1.0
 31
0.0
 73
     1
 44
1.0
  0
POINT
  5
5C7
330
5BF
100
AcDbEntity
  8
Defpoints
 62
     0
100
AcDbPoint
 10
65.67693959065417
 20
100.6599641461981
 30
0.0
  0
POINT
  5
5C8
330
5BF
100
AcDbEntity
  8
Defpoints
 62
     0
100
AcDbPoint
 10
62.19900914461499
 20
90.65996298949119
 30
0.0
  0
POINT
  5
5C9
330
5BF
100
AcDbEntity
  8
Defpoints
 62
     0
100
AcDbPoint
 10
3.688000000000216
 20
90.65996298949119
 30
0.0
  0
ENDBLK
  5
5CA
330
5BF
100
AcDbEntity
  8
0
100
AcDbBlockEnd
  0
BLOCK
  5
5DA
330
5D9
100
AcDbEntity
  8
0
100
AcDbBlockBegin
  2
*D26
 70
     1
 10
0.0
 20
0.0
 30
0.0
  3
*D26
  1
*D23
  0
LINE
  5
5DB
330
5D9
100
AcDbEntity
  8
文字・寸法線
 62
     0
370
    -2
100
AcDbLine
 10
57.00379132762299
 20
60.12095165876281
 30
0.0
 11
57.00379132762299
 21
47.05485883630672
 31
0.0
  0
LINE
  5
5DC
330
5D9
100
AcDbEntity
  8
文字・寸法線
 62
     0
370
    -2
100
AcDbLine
 10
94.00379132762299
 20
60.12095165876326
 30
0.0
 11
94.00379132762299
 21
47.05485883630672
 31
0.0
  0
LINE
  5
5DD
330
5D9
100
AcDbEntity
  8
文字・寸法線
 62
     0
370
    -2
100
AcDbLine
 10
60.00379132762299
 20
47.55485883630672
 30
0.0
 11
91.00379132762299
 21
47.55485883630672
 31
0.0
  0
SOLID
  5
5DE
330
5D9
100
AcDbEntity
  8
文字・寸法線
 62
     0
100
AcDbTrace
 10
60.00379132762299
 20
48.05485883630672
 30
0.0
 11
60.00379132762299
 21
47.05485883630672
 31
0.0
 12
57.00379132762299
 22
47.55485883630672
 32
0.0
 13
57.00379132762299
 23
47.55485883630672
 33
0.0
  0
SOLID
  5
5DF
330
5D9
100
AcDbEntity
  8
文字・寸法線
 62
     0
100
AcDbTrace
 10
91.00379132762299
 20
47.05485883630672
 30
0.0
 11
91.00379132762299
 21
48.05485883630672
 31
0.0
 12
94.00379132762299
 22
47.55485883630672
 32
0.0
 13
94.00379132762299
 23
47.55485883630672
 33
0.0
  0
MTEXT
  5
5E0
330
5D9
100
AcDbEntity
  8
文字・寸法線
 62
     0
100
AcDbMText
 10
75.4438087219915
 20
49.76535883630672
 30
0.0
 40
3.0
 41
0.0
 46
0.0
 71
     5
 72
     1
  1
%%c31
 73
     1
 44
1.0
  0
POINT
  5
5E1
330
5D9
100
AcDbEntity
  8
Defpoints
 62
     0
100
AcDbPoint
 10
57.00379132762299
 20
60.74595165876281
 30
0.0
  0
POINT
  5
5E2
330
5D9
100
AcDbEntity
  8
Defpoints
 62
     0
100
AcDbPoint
 10
94.00379132762299
 20
60.74595165876326
 30
0.0
  0
POINT
  5
5E3
330
5D9
100
AcDbEntity
  8
Defpoints
 62
     0
100
AcDbPoint
 10
94.00379132762299
 20
47.55485883630672
 30
0.0
  0
ENDBLK
  5
5E4
330
5D9
100
AcDbEntity
  8
0
100
AcDbBlockEnd
  0
BLOCK
  5
5E8
330
5E7
100
AcDbEntity
  8
0
100
AcDbBlockBegin
  2
*D27
 70
     1
 10
0.0
 20
0.0
 30
0.0
  3
*D27
  1
*D26
  0
LINE
  5
5E9
330
5E7
100
AcDbEntity
  8
文字・寸法線
 62
     0
370
    -2
100
AcDbLine
 10
26.46460328962587
 20
60.69928019758459
 30
0.0
 11
26.46460328962587
 21
39.25867587376092
 31
0.0
  0
LINE
  5
5EA
330
5E7
100
AcDbEntity
  8
文字・寸法線
 62
     0
370
    -2
100
AcDbLine
 10
124.4646032896259
 20
60.69928019758549
 30
0.0
 11
124.4646032896259
 21
39.25867587376092
 31
0.0
  0
LINE
  5
5EB
330
5E7
100
AcDbEntity
  8
文字・寸法線
 62
     0
370
    -2
100
AcDbLine
 10
29.46460328962587
 20
39.75867587376092
 30
0.0
 11
121.4646032896259
 21
39.75867587376092
 31
0.0
  0
SOLID
  5
5EC
330
5E7
100
AcDbEntity
  8
文字・寸法線
 62
     0
100
AcDbTrace
 10
29.46460328962587
 20
40.25867587376092
 30
0.0
 11
29.46460328962587
 21
39.25867587376092
 31
0.0
 12
26.46460328962587
 22
39.75867587376092
 32
0.0
 13
26.46460328962587
 23
39.75867587376092
 33
0.0
  0
SOLID
  5
5ED
330
5E7
100
AcDbEntity
  8
文字・寸法線
 62
     0
100
AcDbTrace
 10
121.4646032896259
 20
39.25867587376092
 30
0.0
 11
121.4646032896259
 21
40.25867587376092
 31
0.0
 12
124.4646032896259
 22
39.75867587376092
 32
0.0
 13
124.4646032896259
 23
39.75867587376092
 33
0.0
  0
MTEXT
  5
5EE
330
5E7
100
AcDbEntity
  8
文字・寸法線
 62
     0
100
AcDbMText
 10
74.77717657169899
 20
41.96917587376092
 30
0.0
 40
3.0
 41
0.0
 46
0.0
 71
     5
 72
     1
  1
%%c99
 73
     1
 44
1.0
  0
POINT
  5
5EF
330
5E7
100
AcDbEntity
  8
Defpoints
 62
     0
100
AcDbPoint
 10
26.46460328962587
 20
61.32428019758459
 30
0.0
  0
POINT
  5
5F0
330
5E7
100
AcDbEntity
  8
Defpoints
 62
     0
100
AcDbPoint
 10
124.4646032896259
 20
61.32428019758549
 30
0.0
  0
POINT
  5
5F1
330
5E7
100
AcDbEntity
  8
Defpoints
 62
     0
100
AcDbPoint
 10
124.4646032896259
 20
39.75867587376092
 30
0.0
  0
ENDBLK
  5
5F2
330
5E7
100
AcDbEntity
  8
0
100
AcDbBlockEnd
  0
BLOCK
  5
5F6
330
5F5
100
AcDbEntity
  8
0
100
AcDbBlockBegin
  2
*D28
 70
     1
 10
0.0
 20
0.0
 30
0.0
  3
*D28
  1
*D29
  0
LINE
  5
5F7
330
5F5
100
AcDbEntity
  8
文字・寸法線
 62
     0
370
    -2
100
AcDbLine
 10
22.49202598387018
 20
61.60919627963017
 30
0.0
 11
22.49202598387018
 21
29.82380477259107
 31
0.0
  0
LINE
  5
5F8
330
5F5
100
AcDbEntity
  8
文字・寸法線
 62
     0
370
    -2
100
AcDbLine
 10
129.4920259838702
 20
61.60919627963017
 30
0.0
 11
129.4920259838702
 21
29.82380477259107
 31
0.0
  0
LINE
  5
5F9
330
5F5
100
AcDbEntity
  8
文字・寸法線
 62
     0
370
    -2
100
AcDbLine
 10
25.49202598387018
 20
30.32380477259107
 30
0.0
 11
126.4920259838702
 21
30.32380477259107
 31
0.0
  0
SOLID
  5
5FA
330
5F5
100
AcDbEntity
  8
文字・寸法線
 62
     0
100
AcDbTrace
 10
25.49202598387018
 20
30.82380477259107
 30
0.0
 11
25.49202598387018
 21
29.82380477259107
 31
0.0
 12
22.49202598387018
 22
30.32380477259107
 32
0.0
 13
22.49202598387018
 23
30.32380477259107
 33
0.0
  0
SOLID
  5
5FB
330
5F5
100
AcDbEntity
  8
文字・寸法線
 62
     0
100
AcDbTrace
 10
126.4920259838702
 20
29.82380477259107
 30
0.0
 11
126.4920259838702
 21
30.82380477259107
 31
0.0
 12
129.4920259838702
 22
30.32380477259107
 32
0.0
 13
129.4920259838702
 23
30.32380477259107
 33
0.0
  0
MTEXT
  5
5FC
330
5F5
100
AcDbEntity
  8
文字・寸法線
 62
     0
100
AcDbMText
 10
75.99202598387018
 20
32.91380477259108
 30
0.0
 40
3.0
 41
0.0
 46
0.0
 71
     5
 72
     1
  1
(%%c107)
 73
     1
 44
1.0
  0
POINT
  5
5FD
330
5F5
100
AcDbEntity
  8
Defpoints
 62
     0
100
AcDbPoint
 10
22.49202598387018
 20
62.23419627963017
 30
0.0
  0
POINT
  5
5FE
330
5F5
100
AcDbEntity
  8
Defpoints
 62
     0
100
AcDbPoint
 10
129.4920259838702
 20
62.23419627963017
 30
0.0
  0
POINT
  5
5FF
330
5F5
100
AcDbEntity
  8
Defpoints
 62
     0
100
AcDbPoint
 10
129.4920259838702
 20
30.32380477259107
 30
0.0
  0
ENDBLK
  5
600
330
5F5
100
AcDbEntity
  8
0
100
AcDbBlockEnd
  0
BLOCK
  5
642
330
641
100
AcDbEntity
  8
0
100
AcDbBlockBegin
  2
*D29
 70
     1
 10
0.0
 20
0.0
 30
0.0
  3
*D29
  1
*D30
  0
LINE
  5
644
330
641
100
AcDbEntity
  8
文字・寸法線
 62
     0
370
    -2
100
AcDbLine
 10
78.49641871828122
 20
43.95545128865454
 30
0.0
 11
78.49641871828122
 21
18.01965595233153
 31
0.0
  0
LINE
  5
645
330
641
100
AcDbEntity
  8
文字・寸法線
 62
     0
370
    -2
100
AcDbLine
 10
116.4998454947622
 20
43.83650063069773
 30
0.0
 11
116.4998454947622
 21
18.01965595233153
 31
0.0
  0
LINE
  5
646
330
641
100
AcDbEntity
  8
文字・寸法線
 62
     0
370
    -2
100
AcDbLine
 10
81.49641871828122
 20
18.51965595233153
 30
0.0
 11
113.4998454947622
 21
18.51965595233153
 31
0.0
  0
SOLID
  5
647
330
641
100
AcDbEntity
  8
文字・寸法線
 62
     0
100
AcDbTrace
 10
81.49641871828122
 20
19.01965595233153
 30
0.0
 11
81.49641871828122
 21
18.01965595233153
 31
0.0
 12
78.49641871828122
 22
18.51965595233153
 32
0.0
 13
78.49641871828122
 23
18.51965595233153
 33
0.0
  0
SOLID
  5
648
330
641
100
AcDbEntity
  8
文字・寸法線
 62
     0
100
AcDbTrace
 10
113.4998454947622
 20
18.01965595233153
 30
0.0
 11
113.4998454947622
 21
19.01965595233153
 31
0.0
 12
116.4998454947622
 22
18.51965595233153
 32
0.0
 13
116.4998454947622
 23
18.51965595233153
 33
0.0
  0
MTEXT
  5
649
330
641
100
AcDbEntity
  8
文字・寸法線
 62
     0
100
AcDbMText
 10
97.20402415316616
 20
20.73015595233153
 30
0.0
 40
3.0
 41
0.0
 46
0.0
 71
     5
 72
     1
  1
%%c38
 73
     1
 44
1.0
  0
POINT
  5
64A
330
641
100
AcDbEntity
  8
Defpoints
 62
     0
100
AcDbPoint
 10
78.49641871828122
 20
44.58045128865454
 30
0.0
  0
POINT
  5
64B
330
641
100
AcDbEntity
  8
Defpoints
 62
     0
100
AcDbPoint
 10
116.4998454947622
 20
44.46150063069773
 30
0.0
  0
POINT
  5
64C
330
641
100
AcDbEntity
  8
Defpoints
 62
     0
100
AcDbPoint
 10
116.4998454947622
 20
18.51965595233153
 30
0.0
  0
ENDBLK
  5
643
330
641
100
AcDbEntity
  8
0
100
AcDbBlockEnd
  0
BLOCK
  5
64E
330
64D
100
AcDbEntity
  8
0
100
AcDbBlockBegin
  2
*D30
 70
     1
 10
0.0
 20
0.0
 30
0.0
  3
*D30
  1
*D31
  0
LINE
  5
650
330
64D
100
AcDbEntity
  8
文字・寸法線
 62
     0
370
    -2
100
AcDbLine
 10
43.42029459045277
 20
44.58045128865454
 30
0.0
 11
24.68428544583797
 21
44.58045128865454
 31
0.0
  0
LINE
  5
651
330
64D
100
AcDbEntity
  8
文字・寸法線
 62
     0
370
    -2
100
AcDbLine
 10
48.05641871828145
 20
43.08224518469522
 30
0.0
 11
24.68428544583797
 21
43.08224518469522
 31
0.0
  0
LINE
  5
652
330
64D
100
AcDbEntity
  8
文字・寸法線
 62
     0
370
    -2
100
AcDbLine
 10
25.18428544583797
 20
43.08224518469522
 30
0.0
 11
25.18428544583797
 21
29.13834823667497
 31
0.0
  0
LINE
  5
653
330
64D
100
AcDbEntity
  8
文字・寸法線
 62
     0
370
    -2
100
AcDbLine
 10
25.18428544583797
 20
44.58045128865454
 30
0.0
 11
25.18428544583797
 21
43.08224518469522
 31
0.0
  0
LINE
  5
654
330
64D
100
AcDbEntity
  8
文字・寸法線
 62
     0
370
    -2
100
AcDbLine
 10
25.18428544583797
 20
47.58045128865454
 30
0.0
 11
25.18428544583797
 21
50.58045128865454
 31
0.0
  0
LINE
  5
655
330
64D
100
AcDbEntity
  8
文字・寸法線
 62
     0
370
    -2
100
AcDbLine
 10
25.18428544583797
 20
40.08224518469522
 30
0.0
 11
25.18428544583797
 21
37.08224518469522
 31
0.0
  0
SOLID
  5
656
330
64D
100
AcDbEntity
  8
文字・寸法線
 62
     0
100
AcDbTrace
 10
24.68428544583797
 20
47.58045128865454
 30
0.0
 11
25.68428544583797
 21
47.58045128865454
 31
0.0
 12
25.18428544583797
 22
44.58045128865454
 32
0.0
 13
25.18428544583797
 23
44.58045128865454
 33
0.0
  0
SOLID
  5
657
330
64D
100
AcDbEntity
  8
文字・寸法線
 62
     0
100
AcDbTrace
 10
25.68428544583797
 20
40.08224518469522
 30
0.0
 11
24.68428544583797
 21
40.08224518469522
 31
0.0
 12
25.18428544583797
 22
43.08224518469522
 32
0.0
 13
25.18428544583797
 23
43.08224518469522
 33
0.0
  0
MTEXT
  5
658
330
64D
100
AcDbEntity
  8
文字・寸法線
 62
     0
100
AcDbMText
 10
23.02778544583797
 20
32.36134823667497
 30
0.0
 40
3.0
 41
0.0
 46
0.0
 71
     5
 72
     1
  1
1.5
 11
0.0
 21
1.0
 31
0.0
 73
     1
 44
1.0
  0
POINT
  5
659
330
64D
100
AcDbEntity
  8
Defpoints
 62
     0
100
AcDbPoint
 10
44.04529459045277
 20
44.58045128865454
 30
0.0
  0
POINT
  5
65A
330
64D
100
AcDbEntity
  8
Defpoints
 62
     0
100
AcDbPoint
 10
48.68141871828145
 20
43.08224518469522
 30
0.0
  0
POINT
  5
65B
330
64D
100
AcDbEntity
  8
Defpoints
 62
     0
100
AcDbPoint
 10
25.18428544583797
 20
43.08224518469522
 30
0.0
  0
ENDBLK
  5
64F
330
64D
100
AcDbEntity
  8
0
100
AcDbBlockEnd
  0
BLOCK
  5
65D
330
65C
100
AcDbEntity
  8
0
100
AcDbBlockBegin
  2
*D31
 70
     1
 10
0.0
 20
0.0
 30
0.0
  3
*D31
  1
*D32
  0
LINE
  5
65F
330
65C
100
AcDbEntity
  8
文字・寸法線
 62
     0
370
    -2
100
AcDbLine
 10
43.42029459045277
 20
44.58045128865454
 30
0.0
 11
24.68428544583797
 21
44.58045128865454
 31
0.0
  0
LINE
  5
660
330
65C
100
AcDbEntity
  8
文字・寸法線
 62
     0
370
    -2
100
AcDbLine
 10
83.07029459045275
 20
73.3498821457125
 30
0.0
 11
24.68428544583797
 21
73.3498821457125
 31
0.0
  0
LINE
  5
661
330
65C
100
AcDbEntity
  8
文字・寸法線
 62
     0
370
    -2
100
AcDbLine
 10
25.18428544583797
 20
47.58045128865454
 30
0.0
 11
25.18428544583797
 21
70.3498821457125
 31
0.0
  0
SOLID
  5
662
330
65C
100
AcDbEntity
  8
文字・寸法線
 62
     0
100
AcDbTrace
 10
24.68428544583797
 20
47.58045128865454
 30
0.0
 11
25.68428544583797
 21
47.58045128865454
 31
0.0
 12
25.18428544583797
 22
44.58045128865454
 32
0.0
 13
25.18428544583797
 23
44.58045128865454
 33
0.0
  0
SOLID
  5
663
330
65C
100
AcDbEntity
  8
文字・寸法線
 62
     0
100
AcDbTrace
 10
25.68428544583797
 20
70.3498821457125
 30
0.0
 11
24.68428544583797
 21
70.3498821457125
 31
0.0
 12
25.18428544583797
 22
73.3498821457125
 32
0.0
 13
25.18428544583797
 23
73.3498821457125
 33
0.0
  0
MTEXT
  5
664
330
65C
100
AcDbEntity
  8
文字・寸法線
 62
     0
100
AcDbMText
 10
23.02778544583797
 20
58.96516671718352
 30
0.0
 40
3.0
 41
0.0
 46
0.0
 71
     5
 72
     1
  1
28
 11
0.0
 21
1.0
 31
0.0
 73
     1
 44
1.0
  0
POINT
  5
665
330
65C
100
AcDbEntity
  8
Defpoints
 62
     0
100
AcDbPoint
 10
44.04529459045277
 20
44.58045128865454
 30
0.0
  0
POINT
  5
666
330
65C
100
AcDbEntity
  8
Defpoints
 62
     0
100
AcDbPoint
 10
83.69529459045275
 20
73.3498821457125
 30
0.0
  0
POINT
  5
667
330
65C
100
AcDbEntity
  8
Defpoints
 62
     0
100
AcDbPoint
 10
25.18428544583797
 20
73.3498821457125
 30
0.0
  0
ENDBLK
  5
65E
330
65C
100
AcDbEntity
  8
0
100
AcDbBlockEnd
  0
BLOCK
  5
669
330
668
100
AcDbEntity
  8
0
100
AcDbBlockBegin
  2
*D32
 70
     1
 10
0.0
 20
0.0
 30
0.0
  3
*D32
  1
*D33
  0
LINE
  5
66B
330
668
100
AcDbEntity
  8
文字・寸法線
 62
     0
370
    -2
100
AcDbLine
 10
3.359530785099466
 20
164.8118104249015
 30
0.0
 11
-54.79129479899763
 21
164.8118104249015
 31
0.0
  0
LINE
  5
66C
330
668
100
AcDbEntity
  8
文字・寸法線
 62
     0
370
    -2
100
AcDbLine
 10
3.359530785099295
 20
140.8118104249015
 30
0.0
 11
-54.79129479899763
 21
140.8118104249015
 31
0.0
  0
LINE
  5
66D
330
668
100
AcDbEntity
  8
文字・寸法線
 62
     0
370
    -2
100
AcDbLine
 10
-54.29129479899763
 20
161.8118104249015
 30
0.0
 11
-54.29129479899763
 21
143.8118104249015
 31
0.0
  0
SOLID
  5
66E
330
668
100
AcDbEntity
  8
文字・寸法線
 62
     0
100
AcDbTrace
 10
-53.79129479899763
 20
161.8118104249015
 30
0.0
 11
-54.79129479899763
 21
161.8118104249015
 31
0.0
 12
-54.29129479899763
 22
164.8118104249015
 32
0.0
 13
-54.29129479899763
 23
164.8118104249015
 33
0.0
  0
SOLID
  5
66F
330
668
100
AcDbEntity
  8
文字・寸法線
 62
     0
100
AcDbTrace
 10
-54.79129479899763
 20
143.8118104249015
 30
0.0
 11
-53.79129479899763
 21
143.8118104249015
 31
0.0
 12
-54.29129479899763
 22
140.8118104249015
 32
0.0
 13
-54.29129479899763
 23
140.8118104249015
 33
0.0
  0
MTEXT
  5
670
330
668
100
AcDbEntity
  8
文字・寸法線
 62
     0
100
AcDbMText
 10
-56.42229479899763
 20
152.9799021186527
 30
0.0
 40
3.0
 41
0.0
 46
0.0
 71
     5
 72
     1
  1
24
 11
0.0
 21
1.0
 31
0.0
 73
     1
 44
1.0
  0
POINT
  5
671
330
668
100
AcDbEntity
  8
Defpoints
 62
     0
100
AcDbPoint
 10
3.984530785099466
 20
164.8118104249015
 30
0.0
  0
POINT
  5
672
330
668
100
AcDbEntity
  8
Defpoints
 62
     0
100
AcDbPoint
 10
3.984530785099295
 20
140.8118104249015
 30
0.0
  0
POINT
  5
673
330
668
100
AcDbEntity
  8
Defpoints
 62
     0
100
AcDbPoint
 10
-54.29129479899763
 20
140.8118104249015
 30
0.0
  0
ENDBLK
  5
66A
330
668
100
AcDbEntity
  8
0
100
AcDbBlockEnd
  0
BLOCK
  5
675
330
674
100
AcDbEntity
  8
0
100
AcDbBlockBegin
  2
*D33
 70
     1
 10
0.0
 20
0.0
 30
0.0
  3
*D33
  1
*D34
  0
LINE
  5
677
330
674
100
AcDbEntity
  8
文字・寸法線
 62
     0
370
    -2
100
AcDbLine
 10
79.65492684704245
 20
86.35347226143377
 30
0.0
 11
24.68428544583797
 21
86.35347226143377
 31
0.0
  0
LINE
  5
678
330
674
100
AcDbEntity
  8
文字・寸法線
 62
     0
370
    -2
100
AcDbLine
 10
83.07029459045275
 20
73.3498821457125
 30
0.0
 11
24.68428544583797
 21
73.3498821457125
 31
0.0
  0
LINE
  5
679
330
674
100
AcDbEntity
  8
文字・寸法線
 62
     0
370
    -2
100
AcDbLine
 10
25.18428544583797
 20
83.35347226143377
 30
0.0
 11
25.18428544583797
 21
76.3498821457125
 31
0.0
  0
SOLID
  5
67A
330
674
100
AcDbEntity
  8
文字・寸法線
 62
     0
100
AcDbTrace
 10
25.68428544583797
 20
83.35347226143377
 30
0.0
 11
24.68428544583797
 21
83.35347226143377
 31
0.0
 12
25.18428544583797
 22
86.35347226143377
 32
0.0
 13
25.18428544583797
 23
86.35347226143377
 33
0.0
  0
SOLID
  5
67B
330
674
100
AcDbEntity
  8
文字・寸法線
 62
     0
100
AcDbTrace
 10
24.68428544583797
 20
76.3498821457125
 30
0.0
 11
25.68428544583797
 21
76.3498821457125
 31
0.0
 12
25.18428544583797
 22
73.3498821457125
 32
0.0
 13
25.18428544583797
 23
73.3498821457125
 33
0.0
  0
MTEXT
  5
67C
330
674
100
AcDbEntity
  8
文字・寸法線
 62
     0
100
AcDbMText
 10
23.02778544583797
 20
79.85167720357313
 30
0.0
 40
3.0
 41
0.0
 46
0.0
 71
     5
 72
     1
  1
13
 11
0.0
 21
1.0
 31
0.0
 73
     1
 44
1.0
  0
POINT
  5
67D
330
674
100
AcDbEntity
  8
Defpoints
 62
     0
100
AcDbPoint
 10
80.27992684704245
 20
86.35347226143377
 30
0.0
  0
POINT
  5
67E
330
674
100
AcDbEntity
  8
Defpoints
 62
     0
100
AcDbPoint
 10
83.69529459045275
 20
73.3498821457125
 30
0.0
  0
POINT
  5
67F
330
674
100
AcDbEntity
  8
Defpoints
 62
     0
100
AcDbPoint
 10
25.18428544583797
 20
73.3498821457125
 30
0.0
  0
ENDBLK
  5
676
330
674
100
AcDbEntity
  8
0
100
AcDbBlockEnd
  0
BLOCK
  5
681
330
680
100
AcDbEntity
  8
0
100
AcDbBlockBegin
  2
*D34
 70
     1
 10
0.0
 20
0.0
 30
0.0
  3
*D34
  1
*D35
  0
LINE
  5
683
330
680
100
AcDbEntity
  8
文字・寸法線
 62
     0
370
    -2
100
AcDbLine
 10
79.50137238704772
 20
43.80901818494444
 30
0.0
 11
79.50137238704772
 21
35.65640074228464
 31
0.0
  0
LINE
  5
684
330
680
100
AcDbEntity
  8
文字・寸法線
 62
     0
370
    -2
100
AcDbLine
 10
115.5000767734607
 20
44.0901816797185
 30
0.0
 11
115.5000767734607
 21
35.65640074228464
 31
0.0
  0
LINE
  5
685
330
680
100
AcDbEntity
  8
文字・寸法線
 62
     0
370
    -2
100
AcDbLine
 10
82.50137238704772
 20
36.15640074228464
 30
0.0
 11
112.5000767734607
 21
36.15640074228464
 31
0.0
  0
SOLID
  5
686
330
680
100
AcDbEntity
  8
文字・寸法線
 62
     0
100
AcDbTrace
 10
82.50137238704772
 20
36.65640074228464
 30
0.0
 11
82.50137238704772
 21
35.65640074228464
 31
0.0
 12
79.50137238704772
 22
36.15640074228464
 32
0.0
 13
79.50137238704772
 23
36.15640074228464
 33
0.0
  0
SOLID
  5
687
330
680
100
AcDbEntity
  8
文字・寸法線
 62
     0
100
AcDbTrace
 10
112.5000767734607
 20
35.65640074228464
 30
0.0
 11
112.5000767734607
 21
36.65640074228464
 31
0.0
 12
115.5000767734607
 22
36.15640074228464
 32
0.0
 13
115.5000767734607
 23
36.15640074228464
 33
0.0
  0
MTEXT
  5
688
330
680
100
AcDbEntity
  8
文字・寸法線
 62
     0
100
AcDbMText
 10
97.4785829644538
 20
38.36690074228464
 30
0.0
 40
3.0
 41
0.0
 46
0.0
 71
     5
 72
     1
  1
%%c36
 73
     1
 44
1.0
  0
POINT
  5
689
330
680
100
AcDbEntity
  8
Defpoints
 62
     0
100
AcDbPoint
 10
79.50137238704772
 20
44.43401818494444
 30
0.0
  0
POINT
  5
68A
330
680
100
AcDbEntity
  8
Defpoints
 62
     0
100
AcDbPoint
 10
115.5000767734607
 20
44.7151816797185
 30
0.0
  0
POINT
  5
68B
330
680
100
AcDbEntity
  8
Defpoints
 62
     0
100
AcDbPoint
 10
115.5000767734607
 20
36.15640074228464
 30
0.0
  0
ENDBLK
  5
682
330
680
100
AcDbEntity
  8
0
100
AcDbBlockEnd
  0
BLOCK
  5
68D
330
68C
100
AcDbEntity
  8
0
100
AcDbBlockBegin
  2
*D35
 70
     1
 10
0.0
 20
0.0
 30
0.0
  3
*D35
  1
*D36
  0
LINE
  5
68F
330
68C
100
AcDbEntity
  8
文字・寸法線
 62
     0
370
    -2
100
AcDbLine
 10
47.96088873546363
 20
43.38919935380589
 30
0.0
 11
47.96088873546363
 21
5.087350393814518
 31
0.0
  0
LINE
  5
690
330
68C
100
AcDbEntity
  8
文字・寸法線
 62
     0
370
    -2
100
AcDbLine
 10
145.9608887354636
 20
43.3891993538068
 30
0.0
 11
145.9608887354636
 21
5.087350393814518
 31
0.0
  0
LINE
  5
691
330
68C
100
AcDbEntity
  8
文字・寸法線
 62
     0
370
    -2
100
AcDbLine
 10
50.96088873546363
 20
5.587350393814518
 30
0.0
 11
142.9608887354636
 21
5.587350393814518
 31
0.0
  0
SOLID
  5
692
330
68C
100
AcDbEntity
  8
文字・寸法線
 62
     0
100
AcDbTrace
 10
50.96088873546363
 20
6.087350393814518
 30
0.0
 11
50.96088873546363
 21
5.087350393814518
 31
0.0
 12
47.96088873546363
 22
5.587350393814518
 32
0.0
 13
47.96088873546363
 23
5.587350393814518
 33
0.0
  0
SOLID
  5
693
330
68C
100
AcDbEntity
  8
文字・寸法線
 62
     0
100
AcDbTrace
 10
142.9608887354636
 20
5.087350393814518
 30
0.0
 11
142.9608887354636
 21
6.087350393814518
 31
0.0
 12
145.9608887354636
 22
5.587350393814518
 32
0.0
 13
145.9608887354636
 23
5.587350393814518
 33
0.0
  0
MTEXT
  5
694
330
68C
100
AcDbEntity
  8
文字・寸法線
 62
     0
100
AcDbMText
 10
97.20402415316616
 20
7.797850393814517
 30
0.0
 40
3.0
 41
0.0
 46
0.0
 71
     5
 72
     1
  1
%%c99
 73
     1
 44
1.0
  0
POINT
  5
695
330
68C
100
AcDbEntity
  8
Defpoints
 62
     0
100
AcDbPoint
 10
47.96088873546363
 20
44.01419935380589
 30
0.0
  0
POINT
  5
696
330
68C
100
AcDbEntity
  8
Defpoints
 62
     0
100
AcDbPoint
 10
145.9608887354636
 20
44.0141993538068
 30
0.0
  0
POINT
  5
697
330
68C
100
AcDbEntity
  8
Defpoints
 62
     0
100
AcDbPoint
 10
145.9608887354636
 20
5.587350393814518
 30
0.0
  0
ENDBLK
  5
68E
330
68C
100
AcDbEntity
  8
0
100
AcDbBlockEnd
  0
BLOCK
  5
699
330
698
100
AcDbEntity
  8
0
100
AcDbBlockBegin
  2
*D36
 70
     1
 10
0.0
 20
0.0
 30
0.0
  3
*D36
  1
*D37
  0
LINE
  5
69B
330
698
100
AcDbEntity
  8
文字・寸法線
 62
     0
370
    -2
100
AcDbLine
 10
43.98831142970793
 20
44.29911543585148
 30
0.0
 11
43.98831142970792
 21
-17.81008084377869
 31
0.0
  0
LINE
  5
69C
330
698
100
AcDbEntity
  8
文字・寸法線
 62
     0
370
    -2
100
AcDbLine
 10
150.9883114297079
 20
44.29911543585148
 30
0.0
 11
150.9883114297079
 21
-17.81008084377869
 31
0.0
  0
LINE
  5
69D
330
698
100
AcDbEntity
  8
文字・寸法線
 62
     0
370
    -2
100
AcDbLine
 10
46.98831142970792
 20
-17.31008084377869
 30
0.0
 11
147.9883114297079
 21
-17.31008084377869
 31
0.0
  0
SOLID
  5
69E
330
698
100
AcDbEntity
  8
文字・寸法線
 62
     0
100
AcDbTrace
 10
46.98831142970792
 20
-16.81008084377869
 30
0.0
 11
46.98831142970792
 21
-17.81008084377869
 31
0.0
 12
43.98831142970792
 22
-17.31008084377869
 32
0.0
 13
43.98831142970792
 23
-17.31008084377869
 33
0.0
  0
SOLID
  5
69F
330
698
100
AcDbEntity
  8
文字・寸法線
 62
     0
100
AcDbTrace
 10
147.9883114297079
 20
-17.81008084377869
 30
0.0
 11
147.9883114297079
 21
-16.81008084377869
 31
0.0
 12
150.9883114297079
 22
-17.31008084377869
 32
0.0
 13
150.9883114297079
 23
-17.31008084377869
 33
0.0
  0
MTEXT
  5
6A0
330
698
100
AcDbEntity
  8
文字・寸法線
 62
     0
100
AcDbMText
 10
97.60437337689045
 20
-14.72008084377869
 30
0.0
 40
3.0
 41
0.0
 46
0.0
 71
     5
 72
     1
  1
(%%c107)
 73
     1
 44
1.0
  0
POINT
  5
6A1
330
698
100
AcDbEntity
  8
Defpoints
 62
     0
100
AcDbPoint
 10
43.98831142970793
 20
44.92411543585148
 30
0.0
  0
POINT
  5
6A2
330
698
100
AcDbEntity
  8
Defpoints
 62
     0
100
AcDbPoint
 10
150.9883114297079
 20
44.92411543585148
 30
0.0
  0
POINT
  5
6A3
330
698
100
AcDbEntity
  8
Defpoints
 62
     0
100
AcDbPoint
 10
150.9883114297079
 20
-17.31008084377869
 30
0.0
  0
ENDBLK
  5
69A
330
698
100
AcDbEntity
  8
0
100
AcDbBlockEnd
  0
BLOCK
  5
6DD
330
6DC
100
AcDbEntity
  8
0
100
AcDbBlockBegin
  2
*D37
 70
     1
 10
0.0
 20
0.0
 30
0.0
  3
*D37
  1
*D38
  0
LINE
  5
6DE
330
6DC
100
AcDbEntity
  8
文字
 62
     0
370
    -2
100
AcDbLine
 10
49.03167038604479
 20
39.9897533973791
 30
0.0
 11
49.03167038604479
 21
0.75
 31
0.0
  0
LINE
  5
6DF
330
6DC
100
AcDbEntity
  8
文字
 62
     0
370
    -2
100
AcDbLine
 10
78.9961493569864
 20
39.98975339737899
 30
0.0
 11
78.9961493569864
 21
0.75
 31
0.0
  0
LINE
  5
6E0
330
6DC
100
AcDbEntity
  8
文字
 62
     0
370
    -2
100
AcDbLine
 10
52.03167038604479
 20
1.25
 30
0.0
 11
75.9961493569864
 21
1.25
 31
0.0
  0
SOLID
  5
6E1
330
6DC
100
AcDbEntity
  8
文字
 62
     0
100
AcDbTrace
 10
52.03167038604479
 20
1.75
 30
0.0
 11
52.03167038604479
 21
0.75
 31
0.0
 12
49.03167038604479
 22
1.25
 32
0.0
 13
49.03167038604479
 23
1.25
 33
0.0
  0
SOLID
  5
6E2
330
6DC
100
AcDbEntity
  8
文字
 62
     0
100
AcDbTrace
 10
75.9961493569864
 20
0.75
 30
0.0
 11
75.9961493569864
 21
1.75
 31
0.0
 12
78.9961493569864
 22
1.25
 32
0.0
 13
78.9961493569864
 23
1.25
 33
0.0
  0
MTEXT
  5
6E3
330
6DC
100
AcDbEntity
  8
文字
 62
     0
100
AcDbMText
 10
64.0139098715156
 20
3.917
 30
0.0
 40
4.0
 41
0.0
 46
0.0
 71
     5
 72
     1
  1
30
 73
     1
 44
1.0
  0
POINT
  5
6E4
330
6DC
100
AcDbEntity
  8
Defpoints
 62
     0
100
AcDbPoint
 10
49.03167038604479
 20
40.6147533973791
 30
0.0
  0
POINT
  5
6E5
330
6DC
100
AcDbEntity
  8
Defpoints
 62
     0
100
AcDbPoint
 10
78.9961493569864
 20
40.61475339737899
 30
0.0
  0
POINT
  5
6E6
330
6DC
100
AcDbEntity
  8
Defpoints
 62
     0
100
AcDbPoint
 10
78.9961493569864
 20
1.25
 30
0.0
  0
ENDBLK
  5
6E7
330
6DC
100
AcDbEntity
  8
0
100
AcDbBlockEnd
  0
BLOCK
  5
6FB
330
6FA
100
AcDbEntity
  8
0
100
AcDbBlockBegin
  2
*D38
 70
     1
 10
0.0
 20
0.0
 30
0.0
  3
*D38
  1
*D39
  0
LINE
  5
6FD
330
6FA
100
AcDbEntity
  8
文字
 62
     0
370
    -2
100
AcDbLine
 10
227.1439233470811
 20
64.05116283452762
 30
0.0
 11
227.1439233470811
 21
-22.8192037061433
 31
0.0
  0
LINE
  5
6FE
330
6FA
100
AcDbEntity
  8
文字
 62
     0
370
    -2
100
AcDbLine
 10
257.1084023180227
 20
64.0511628345275
 30
0.0
 11
257.1084023180227
 21
-22.8192037061433
 31
0.0
  0
LINE
  5
6FF
330
6FA
100
AcDbEntity
  8
文字
 62
     0
370
    -2
100
AcDbLine
 10
230.1439233470811
 20
-22.3192037061433
 30
0.0
 11
254.1084023180227
 21
-22.3192037061433
 31
0.0
  0
SOLID
  5
700
330
6FA
100
AcDbEntity
  8
文字
 62
     0
100
AcDbTrace
 10
230.1439233470811
 20
-21.8192037061433
 30
0.0
 11
230.1439233470811
 21
-22.8192037061433
 31
0.0
 12
227.1439233470811
 22
-22.3192037061433
 32
0.0
 13
227.1439233470811
 23
-22.3192037061433
 33
0.0
  0
SOLID
  5
701
330
6FA
100
AcDbEntity
  8
文字
 62
     0
100
AcDbTrace
 10
254.1084023180227
 20
-22.8192037061433
 30
0.0
 11
254.1084023180227
 21
-21.8192037061433
 31
0.0
 12
257.1084023180227
 22
-22.3192037061433
 32
0.0
 13
257.1084023180227
 23
-22.3192037061433
 33
0.0
  0
MTEXT
  5
702
330
6FA
100
AcDbEntity
  8
文字
 62
     0
100
AcDbMText
 10
242.4804407799161
 20
-19.6522037061433
 30
0.0
 40
4.0
 41
0.0
 46
0.0
 71
     5
 72
     1
  1
30
 73
     1
 44
1.0
  0
POINT
  5
703
330
6FA
100
AcDbEntity
  8
Defpoints
 62
     0
100
AcDbPoint
 10
227.1439233470811
 20
64.67616283452762
 30
0.0
  0
POINT
  5
704
330
6FA
100
AcDbEntity
  8
Defpoints
 62
     0
100
AcDbPoint
 10
257.1084023180227
 20
64.6761628345275
 30
0.0
  0
POINT
  5
705
330
6FA
100
AcDbEntity
  8
Defpoints
 62
     0
100
AcDbPoint
 10
257.1084023180227
 20
-22.3192037061433
 30
0.0
  0
ENDBLK
  5
6FC
330
6FA
100
AcDbEntity
  8
0
100
AcDbBlockEnd
  0
ENDSEC
  0
SECTION
  2
ENTITIES
  0
CIRCLE
  5
607
330
1F
100
AcDbEntity
  8
実線
100
AcDbCircle
 10
242.3993599772982
 20
72.81526962106823
 30
0.0
 40
48.5
  0
DIMENSION
  5
608
102
{ACAD_XDICTIONARY
360
609
102
}
330
1F
100
AcDbEntity
  8
文字・寸法線
100
AcDbDimension
280
     0
  2
*D29
 10
116.4998454947622
 20
18.51965595233153
 30
0.0
 11
97.20402415316616
 21
18.51965595233153
 31
0.0
 70
   160
  1
%%c<>
 71
     5
 42
38.00342677648098
 73
     0
 74
     0
 75
     0
  3
ISO-25
100
AcDbAlignedDimension
 13
78.49641871828122
 23
44.58045128865454
 33
0.0
 14
116.4998454947622
 24
44.46150063069773
 34
0.0
100
AcDbRotatedDimension
1001
ACAD
1000
DSTYLE
1002
{
1070
   140
1040
3.0
1002
}
  0
CIRCLE
  5
60A
330
1F
100
AcDbEntity
  8
実線
100
AcDbCircle
 10
242.3993599772982
 20
72.81526962106823
 30
0.0
 40
35.25
  0
CIRCLE
  5
60B
330
1F
100
AcDbEntity
  8
実線
100
AcDbCircle
 10
242.3993599772982
 20
72.81526962106823
 30
0.0
 40
53.5
  0
ARC
  5
60C
330
1F
100
AcDbEntity
  8
実線
100
AcDbCircle
 10
93.94161290457855
 20
40.00077951990191
 30
0.0
 40
33.63972261681563
100
AcDbArc
 50
97.53680586671149
 51
156.9291445682994
  0
LINE
  5
60D
330
1F
100
AcDbEntity
  8
実線
100
AcDbLine
 10
44.04529459045277
 20
46.58045128865454
 30
0.0
 11
44.04529459045277
 21
44.58045128865454
 31
0.0
  0
LINE
  5
60E
330
1F
100
AcDbEntity
  8
実線
100
AcDbLine
 10
49.04529459045277
 20
51.58045128865454
 30
0.0
 11
60.34615572080496
 21
51.58045128865454
 31
0.0
  0
ARC
  5
60F
330
1F
100
AcDbEntity
  8
実線
100
AcDbCircle
 10
49.04529459045277
 20
46.58045128865454
 30
0.0
 40
5.0
100
AcDbArc
 50
90.0
 51
180.0
  0
ARC
  5
610
330
1F
100
AcDbEntity
  8
実線
100
AcDbCircle
 10
60.34189852507937
 20
54.56655066774077
 30
0.0
 40
2.98610241376509
100
AcDbArc
 50
269.918315116152
 51
332.4763173457591
  0
LINE
  5
611
330
1F
100
AcDbEntity
  8
細線
100
AcDbLine
 10
43.42029459045277
 20
44.58045128865454
 30
0.0
 11
33.11568040568658
 21
44.58045128865454
 31
0.0
  0
ARC
  5
612
330
1F
100
AcDbEntity
  8
実線
100
AcDbCircle
 10
134.7486906558262
 20
54.56655066774077
 30
0.0
 40
2.98610241376509
100
AcDbArc
 50
207.5236826542408
 51
270.081684883848
  0
ARC
  5
613
330
1F
100
AcDbEntity
  8
実線
100
AcDbCircle
 10
146.0452945904528
 20
46.58045128865454
 30
0.0
 40
5.0
100
AcDbArc
 50
0.0
 51
90.0
  0
LINE
  5
614
330
1F
100
AcDbEntity
  8
実線
100
AcDbLine
 10
146.0452945904528
 20
51.58045128865454
 30
0.0
 11
134.7444334601007
 21
51.58045128865454
 31
0.0
  0
LINE
  5
615
330
1F
100
AcDbEntity
  8
実線
100
AcDbLine
 10
151.0452945904528
 20
46.58045128865454
 30
0.0
 11
151.0452945904528
 21
44.58045128865454
 31
0.0
  0
ARC
  5
616
330
1F
100
AcDbEntity
  8
実線
100
AcDbCircle
 10
101.1742750600342
 20
40.03170231140381
 30
0.0
 40
33.60433462893175
100
AcDbArc
 50
23.03925167264823
 51
82.5174580774872
  0
LINE
  5
617
330
1F
100
AcDbEntity
  8
実線
100
AcDbLine
 10
146.0564187182815
 20
43.08224518469613
 30
0.0
 11
146.0564187182815
 21
44.58045128865454
 31
0.0
  0
LINE
  5
618
330
1F
100
AcDbEntity
  8
実線
100
AcDbLine
 10
48.05641871828145
 20
43.08224518469522
 30
0.0
 11
48.05641871828145
 21
44.58045128865454
 31
0.0
  0
LINE
  5
619
330
1F
100
AcDbEntity
  8
実線
100
AcDbLine
 10
48.05641871828145
 20
43.08224518469522
 30
0.0
 11
78.55641871828122
 21
43.08224518469568
 31
0.0
  0
LINE
  5
61A
330
1F
100
AcDbEntity
  8
実線
100
AcDbLine
 10
116.4998454947622
 20
43.08224518469613
 30
0.0
 11
146.0564187182815
 21
43.08224518469613
 31
0.0
  0
LINE
  5
61B
330
1F
100
AcDbEntity
  8
文字・寸法線
100
AcDbLine
 10
42.79529459045277
 20
44.58045128865454
 30
0.0
 11
32.29026924416955
 21
44.58045128865454
 31
0.0
  0
LINE
  5
61C
330
1F
100
AcDbEntity
  8
実線
100
AcDbLine
 10
78.55641871828122
 20
44.58045128865454
 30
0.0
 11
78.55641871828122
 21
43.08224518469568
 31
0.0
  0
LINE
  5
61D
330
1F
100
AcDbEntity
  8
実線
100
AcDbLine
 10
115.5564187182812
 20
44.58045128865454
 30
0.0
 11
115.5564187182812
 21
43.08224518469613
 31
0.0
  0
DIMENSION
  5
61E
102
{ACAD_XDICTIONARY
360
61F
102
}
330
1F
100
AcDbEntity
  8
文字・寸法線
100
AcDbDimension
280
     0
  2
*D30
 10
25.18428544583797
 20
43.08224518469522
 30
0.0
 11
25.18428544583797
 21
32.36134823667497
 31
0.0
 70
   160
 71
     5
 42
1.498206103959319
 73
     0
 74
     0
 75
     0
  3
ISO-25
100
AcDbAlignedDimension
 13
44.04529459045277
 23
44.58045128865454
 33
0.0
 14
48.68141871828145
 24
43.08224518469522
 34
0.0
 50
90.0
100
AcDbRotatedDimension
1001
ACAD
1000
DSTYLE
1002
{
1070
   140
1040
3.0
1002
}
  0
DIMENSION
  5
620
330
1F
100
AcDbEntity
  8
文字・寸法線
100
AcDbDimension
280
     0
  2
*D31
 10
25.18428544583797
 20
73.3498821457125
 30
0.0
 11
23.02778544583797
 21
58.96516671718352
 31
0.0
 70
    32
  1
28
 71
     5
 42
28.76943085705796
 73
     0
 74
     0
 75
     0
  3
ISO-25
100
AcDbAlignedDimension
 13
44.04529459045277
 23
44.58045128865454
 33
0.0
 14
83.69529459045275
 24
73.3498821457125
 34
0.0
 50
90.0
100
AcDbRotatedDimension
1001
ACAD
1000
DSTYLE
1002
{
1070
   140
1040
3.0
1002
}
  0
DIMENSION
  5
62B
330
1F
100
AcDbEntity
  8
文字・寸法線
100
AcDbDimension
280
     0
  2
*D33
 10
25.18428544583797
 20
73.3498821457125
 30
0.0
 11
23.02778544583797
 21
79.85167720357313
 31
0.0
 70
    32
 71
     5
 42
13.00359011572127
 73
     0
 74
     0
 75
     0
  3
ISO-25
100
AcDbAlignedDimension
 13
80.27992684704245
 23
86.35347226143377
 33
0.0
 14
83.69529459045275
 24
73.3498821457125
 34
0.0
 50
90.0
100
AcDbRotatedDimension
1001
ACAD
1000
DSTYLE
1002
{
1070
   140
1040
3.0
1002
}
  0
MTEXT
  5
633
102
{ACAD_REACTORS
330
634
102
}
330
1F
100
AcDbEntity
  8
文字・寸法線
100
AcDbMText
 10
128.0468148268868
 20
97.25904073988671
 30
0.0
 40
3.0
 41
24.19359414000337
 46
3.0
 71
     7
 72
     1
  1
{\fＭＳ ゴシック|b0|i0|c0|p0;Ｍ20}
 73
     1
 44
1.0
1001
ACAD
1000
ACAD_MTEXT_DEFINED_HEIGHT_BEGIN
1070
    46
1040
3.0
1000
ACAD_MTEXT_DEFINED_HEIGHT_END
  0
LEADER
  5
634
102
{ACAD_XDICTIONARY
360
635
102
}
330
1F
100
AcDbEntity
  8
文字・寸法線
100
AcDbLeader
  3
ISO-25
 73
     0
 74
     0
 40
3.0
 41
7.161
 76
     3
 10
116.6853104108532
 20
88.24368909235082
 30
0.0
 10
123.9262116356869
 20
96.63404073988671
 30
0.0
 10
127.4218148268868
 20
96.63404073988671
 30
0.0
340
633
1001
ACAD
1000
DSTYLE
1002
{
1070
   147
1040
0.625
1070
    77
1070
     1
1002
}
  0
LINE
  5
637
330
1F
100
AcDbEntity
  8
0
100
AcDbLine
 10
151.0452945904528
 20
44.58045128865454
 30
0.0
 11
44.04529459045277
 21
44.58045128865454
 31
0.0
  0
DIMENSION
  5
63A
102
{ACAD_XDICTIONARY
360
63B
102
}
330
1F
100
AcDbEntity
  8
文字・寸法線
100
AcDbDimension
280
     0
  2
*D35
 10
145.9608887354636
 20
5.587350393814518
 30
0.0
 11
97.20402415316616
 21
5.587350393814518
 31
0.0
 70
   160
  1
%%c99
 71
     5
 42
97.99999999999999
 73
     0
 74
     0
 75
     0
  3
ISO-25
100
AcDbAlignedDimension
 13
47.96088873546363
 23
44.01419935380589
 33
0.0
 14
145.9608887354636
 24
44.0141993538068
 34
0.0
100
AcDbRotatedDimension
1001
ACAD
1000
DSTYLE
1002
{
1070
   140
1040
3.0
1002
}
  0
DIMENSION
  5
63C
102
{ACAD_XDICTIONARY
360
63D
102
}
330
1F
100
AcDbEntity
  8
文字・寸法線
100
AcDbDimension
280
     0
  2
*D36
 10
150.9883114297079
 20
-17.31008084377869
 30
0.0
 11
97.60437337689045
 21
-17.31008084377869
 31
0.0
 70
   160
  1
(%%c<>)
 71
     5
 42
107.0
 73
     0
 74
     0
 75
     0
  3
ISO-25
100
AcDbAlignedDimension
 13
43.98831142970793
 23
44.92411543585148
 33
0.0
 14
150.9883114297079
 24
44.92411543585148
 34
0.0
100
AcDbRotatedDimension
1001
ACAD
1000
DSTYLE
1002
{
1070
   140
1040
3.0
1002
}
  0
MTEXT
  5
63E
330
1F
100
AcDbEntity
  8
文字・寸法線
 62
     0
100
AcDbMText
 10
43.34859033692011
 20
150.0887350799555
 30
0.0
 40
6.0
 41
0.0
 46
6.0
 71
     9
 72
     1
  1
{\fＭＳ ゴシック|b0|i0|c0|p0;S-HC}
 11
0.9999870255941714
 21
-0.005093981087704841
 31
0.0
 73
     1
 44
1.0
1001
ACAD
1000
ACAD_MTEXT_DEFINED_HEIGHT_BEGIN
1070
    46
1040
6.0
1000
ACAD_MTEXT_DEFINED_HEIGHT_END
  0
LINE
  5
63F
330
1F
100
AcDbEntity
  8
0
  6
CENTER
 48
0.5
100
AcDbLine
 10
97.60437337689045
 20
132.6682256970457
 30
0.0
 11
97.60437337689045
 21
32.87609502998222
 31
0.0
  0
LINE
  5
6EB
330
1F
100
AcDbEntity
  8
実線
100
AcDbLine
 10
88.96886572931221
 20
73.35452947188165
 30
0.0
 11
88.96886572931221
 21
85.35452947188165
 31
0.0
  0
ARC
  5
6ED
330
1F
100
AcDbEntity
  8
実線
100
AcDbCircle
 10
97.61886572931215
 20
48.44327947188168
 30
0.0
 40
37.91124999999995
100
AcDbArc
 50
76.8109699355429
 51
103.1890300644553
  0
ARC
  5
6EE
330
1F
100
AcDbEntity
  8
実線
100
AcDbCircle
 10
84.64386572931221
 20
76.50171697188162
 30
0.0
 40
9.852812500000026
100
AcDbArc
 50
63.96239514042908
 51
116.0376048595691
  0
LWPOLYLINE
  5
6EF
330
1F
100
AcDbEntity
  8
実線
100
AcDbPolyline
 90
        4
 70
     0
 43
0.0
 10
80.31886572931221
 20
85.35452947188165
 10
80.31886572931221
 20
73.35452947188165
 10
114.9188657293122
 20
73.35452947188165
 10
114.9188657293122
 20
85.35452947188165
  0
ARC
  5
6F0
330
1F
100
AcDbEntity
  8
実線
100
AcDbCircle
 10
110.6083755480305
 20
76.51804744159486
 30
0.0
 40
9.852812499999981
100
AcDbArc
 50
63.96239514042912
 51
116.037604859569
  0
LINE
  5
6F1
330
1F
100
AcDbEntity
  8
実線
100
AcDbLine
 10
106.2688657293122
 20
73.35452947188165
 30
0.0
 11
106.2688657293122
 21
85.35452947188165
 31
0.0
  0
LINE
  5
6F2
330
1F
100
AcDbEntity
  8
実線
100
AcDbLine
 10
108.9588657293123
 20
86.35451637063028
 30
0.0
 11
86.27754501759661
 21
86.35454257465884
 31
0.0
  0
LWPOLYLINE
  5
6F4
102
{ACAD_REACTORS
330
6F9
102
}
330
1F
100
AcDbEntity
  8
実線
100
AcDbPolyline
 90
        6
 70
     1
 43
0.0
 10
257.1084023180227
 20
81.97616283452766
 10
242.1261628325519
 20
90.62616283452758
 10
227.1439233470811
 20
81.97616283452766
 10
227.1439233470811
 20
64.67616283452762
 10
242.1261628325519
 20
56.02616283452764
 10
257.1084023180227
 20
64.6761628345275
  0
CIRCLE
  5
6F5
330
1F
100
AcDbEntity
  8
実線
100
AcDbCircle
 10
242.1261628325519
 20
73.32616283452765
 30
0.0
 40
10.0
  0
CIRCLE
  5
6F6
330
1F
100
AcDbEntity
  8
実線
370
    20
100
AcDbCircle
 10
242.1261628325519
 20
73.32616283452765
 30
0.0
 40
8.0
  0
DIMENSION
  5
6F7
102
{ACAD_REACTORS
330
6F9
102
}
102
{ACAD_XDICTIONARY
360
6F8
102
}
330
1F
100
AcDbEntity
  8
文字
100
AcDbDimension
280
     0
  2
*D38
 10
257.1084023180227
 20
-22.3192037061433
 30
0.0
 11
242.4804407799161
 21
-22.3192037061433
 31
0.0
 70
   160
  1
30
 71
     5
 42
29.9644789709416
 73
     0
 74
     0
 75
     0
  3
ISO-25
100
AcDbAlignedDimension
 13
227.1439233470811
 23
64.67616283452762
 33
0.0
 14
257.1084023180227
 24
64.6761628345275
 34
0.0
 50
-0.0000000000000254
100
AcDbRotatedDimension
  0
LINE
  5
715
330
1F
100
AcDbEntity
  8
0
100
AcDbLine
 10
60.33764132937891
 20
51.58045128865466
 30
0.0
 11
134.7529478515267
 21
51.58045128865466
 31
0.0
  0
LINE
  5
73C
330
1F
100
AcDbEntity
  8
0
  6
CENTER
 48
0.5
100
AcDbLine
 10
242.3993599772982
 20
148.9280255031653
 30
0.0
 11
242.3993599772982
 21
0.0363496649757451
 31
0.0
  0
LINE
  5
763
330
1F
100
AcDbEntity
  8
0
  6
CENTER
 48
0.5
100
AcDbLine
 10
318.5006584394972
 20
72.15575514909882
 30
0.0
 11
158.3091679171592
 21
72.15575514909882
 31
0.0
  0
ENDSEC
  0
SECTION
  2
OBJECTS
  0
DICTIONARY
  5
C
330
0
100
AcDbDictionary
281
     1
  3
ACAD_COLOR
350
73
  3
ACAD_DETAILVIEWSTYLE
350
122
  3
ACAD_GROUP
350
D
  3
ACAD_IMAGE_VARS
350
DC
  3
ACAD_LAYOUT
350
1A
  3
ACAD_MATERIAL
350
72
  3
ACAD_MLEADERSTYLE
350
B5
  3
ACAD_MLINESTYLE
350
17
  3
ACAD_PLOTSETTINGS
350
19
  3
ACAD_PLOTSTYLENAME
350
E
  3
ACAD_SCALELIST
350
B6
  3
ACAD_SECTIONVIEWSTYLE
350
123
  3
ACAD_TABLESTYLE
350
86
  3
ACAD_VISUALSTYLE
350
99
  3
ACDB_RECOMPOSE_DATA
350
769
  3
AcDbVariableDictionary
350
66
  3
APPDATA
350
E1
  0
SUN
  5
ED
330
94
100
AcDbSun
 90
        1
290
     0
 63
     7
421
 16777215
 40
1.0
291
     1
 91
  2455826
 92
 54000000
292
     0
 70
     2
 71
   256
280
     1
  0
DICTIONARY
  5
609
330
608
100
AcDbDictionary
280
     1
281
     1
  0
DICTIONARY
  5
61F
330
61E
100
AcDbDictionary
280
     1
281
     1
  0
DICTIONARY
  5
635
330
634
100
AcDbDictionary
280
     1
281
     1
  0
DICTIONARY
  5
63B
330
63A
100
AcDbDictionary
280
     1
281
     1
  0
DICTIONARY
  5
63D
330
63C
100
AcDbDictionary
280
     1
281
     1
  0
DICTIONARY
  5
6F8
330
6F7
100
AcDbDictionary
280
     1
281
     1
  3
ACAD_DIMASSOC
360
6F9
  0
DICTIONARY
  5
73
102
{ACAD_REACTORS
330
C
102
}
330
C
100
AcDbDictionary
281
     1
  0
DICTIONARY
  5
122
102
{ACAD_REACTORS
330
C
102
}
330
C
100
AcDbDictionary
281
     1
  0
DICTIONARY
  5
D
102
{ACAD_REACTORS
330
C
102
}
330
C
100
AcDbDictionary
281
     1
  0
RASTERVARIABLES
  5
DC
102
{ACAD_REACTORS
330
C
102
}
330
C
100
AcDbRasterVariables
 90
        0
 70
     1
 71
     1
 72
     5
  0
DICTIONARY
  5
1A
102
{ACAD_REACTORS
330
C
102
}
330
C
100
AcDbDictionary
281
     1
  3
Model
350
22
  3
Sheet1
350
59
  3
Sheet2
350
5E
  0
DICTIONARY
  5
72
102
{ACAD_REACTORS
330
C
102
}
330
C
100
AcDbDictionary
281
     1
  3
ByBlock
350
E2
  3
ByLayer
350
96
  3
Global
350
98
  0
DICTIONARY
  5
B5
102
{ACAD_REACTORS
330
C
102
}
330
C
100
AcDbDictionary
281
     1
  0
DICTIONARY
  5
17
102
{ACAD_REACTORS
330
C
102
}
330
C
100
AcDbDictionary
281
     1
  3
Standard
350
18
  0
DICTIONARY
  5
19
102
{ACAD_REACTORS
330
C
102
}
330
C
100
AcDbDictionary
281
     1
  0
ACDBDICTIONARYWDFLT
  5
E
102
{ACAD_REACTORS
330
C
102
}
330
C
100
AcDbDictionary
281
     1
  3
Normal
350
F
100
AcDbDictionaryWithDefault
340
F
  0
DICTIONARY
  5
B6
102
{ACAD_REACTORS
330
C
102
}
330
C
100
AcDbDictionary
281
     1
  3
A0
350
B7
  3
A1
350
B8
  3
A2
350
B9
  3
A3
350
BA
  3
A4
350
BB
  3
A5
350
BC
  3
A6
350
BD
  3
A7
350
BE
  3
A8
350
BF
  3
A9
350
C0
  3
B0
350
C1
  3
B1
350
C2
  3
B2
350
C3
  3
B3
350
C4
  3
B4
350
C5
  3
B5
350
C6
  3
B6
350
C7
  3
B7
350
C8
  3
B8
350
C9
  3
B9
350
CA
  3
C0
350
CB
  3
C1
350
CC
  3
C2
350
CD
  3
C3
350
CE
  3
C4
350
CF
  3
C5
350
D0
  3
C6
350
D1
  3
C7
350
D2
  3
C8
350
D3
  3
C9
350
D4
  3
D0
350
D5
  3
D1
350
D6
  3
D2
350
D7
  0
DICTIONARY
  5
123
102
{ACAD_REACTORS
330
C
102
}
330
C
100
AcDbDictionary
281
     1
  0
DICTIONARY
  5
86
102
{ACAD_REACTORS
330
C
102
}
330
C
100
AcDbDictionary
281
     1
  3
Standard
350
87
  0
DICTIONARY
  5
99
102
{ACAD_REACTORS
330
C
102
}
330
C
100
AcDbDictionary
281
     1
  3
2dWireframe
350
9F
  3
3D Hidden
350
A1
  3
3dWireframe
350
A0
  3
Basic
350
9E
  3
Brighten
350
A5
  3
ColorChange
350
A9
  3
Conceptual
350
A2
  3
Dim
350
A4
  3
EdgeColorOff
350
E7
  3
Facepattern
350
A8
  3
Flat
350
9A
  3
FlatWithEdges
350
9B
  3
Gouraud
350
9C
  3
GouraudWithEdges
350
9D
  3
Hidden
350
E4
  3
JitterOff
350
E5
  3
Linepattern
350
A7
  3
OverhangOff
350
E6
  3
Realistic
350
A3
  3
Shaded
350
EC
  3
Shaded with edges
350
EB
  3
Shades of Gray
350
E8
  3
Sketchy
350
E9
  3
Thicken
350
A6
  3
Wireframe
350
E3
  3
X-Ray
350
EA
  0
XRECORD
  5
769
102
{ACAD_REACTORS
330
C
102
}
330
C
100
AcDbXrecord
280
     1
 90
        1
330
87
  0
DICTIONARY
  5
66
102
{ACAD_REACTORS
330
C
102
}
330
C
100
AcDbDictionary
281
     1
  3
CANNOSCALE
350
D8
  3
CTABLESTYLE
350
89
  3
DIMASSOC
350
67
  3
HIDETEXT
350
6B
  3
LIGHTSINBLOCKS
350
DF
  3
XCLIPFRAME
350
E0
  0
DICTIONARY
  5
E1
102
{ACAD_REACTORS
330
C
102
}
330
C
100
AcDbDictionary
281
     1
  0
DIMASSOC
  5
6F9
102
{ACAD_REACTORS
330
6F8
102
}
330
6F8
100
AcDbDimAssoc
330
6F7
 90
        3
 70
     0
 71
     0
  1
AcDbOsnapPointRef
 72
     1
331
6F4
 73
     2
 91
        3
 40
1.0
 10
0.0
 20
0.0
 30
2.000000000000000E+50
 75
     0
  1
AcDbOsnapPointRef
 72
     1
331
6F4
 73
     2
 91
        5
 40
1.0
 10
0.0
 20
0.0
 30
2.000000000000000E+50
 75
     0
  0
LAYOUT
  5
22
102
{ACAD_REACTORS
330
1A
102
}
330
1A
100
AcDbPlotSettings
  1

  2
none_device
  4
ANSI_A_(8.50_x_11.00_Inches)
  6

 40
6.35
 41
19.05
 42
6.35
 43
19.05
 44
215.9
 45
279.4
 46
11.11250000000003
 47
0.0000000000000142
 48
0.0
 49
0.0
140
0.0
141
0.0
142
1.0
143
1.263157894736842
 70
 11444
 72
     0
 73
     1
 74
     1
  7
monochrome.ctb
 75
     0
 76
     0
 77
     2
 78
   300
147
0.7916666666666665
148
-702.8076765758875
149
-496.2830551296954
100
AcDbLayout
  1
Model
 70
     1
 71
     0
 10
0.0
 20
0.0
 11
12.0
 21
9.0
 12
0.0
 22
0.0
 32
0.0
 14
21.49628544583797
 24
-22.8192037061433
 34
0.0
 15
318.5006584394972
 25
156.1653114609284
 35
0.0
146
0.0
 13
0.0
 23
0.0
 33
0.0
 16
1.0
 26
0.0
 36
0.0
 17
0.0
 27
1.0
 37
0.0
 76
     0
330
1F
331
94
  0
LAYOUT
  5
59
102
{ACAD_REACTORS
330
1A
102
}
330
1A
100
AcDbPlotSettings
  1

  2
None
  4

  6

 40
0.0
 41
0.0
 42
0.0
 43
0.0
 44
0.0
 45
0.0
 46
0.0
 47
0.0
 48
0.0
 49
0.0
140
0.0
141
0.0
142
1.0
143
1.0
 70
   688
 72
     0
 73
     0
 74
     5
  7

 75
    16
 76
     0
 77
     2
 78
   300
147
1.0
148
0.0
149
0.0
100
AcDbLayout
  1
Sheet1
 70
     1
 71
     1
 10
0.0
 20
0.0
 11
12.0
 21
9.0
 12
0.0
 22
0.0
 32
0.0
 14
0.0
 24
0.0
 34
0.0
 15
0.0
 25
0.0
 35
0.0
146
0.0
 13
0.0
 23
0.0
 33
0.0
 16
1.0
 26
0.0
 36
0.0
 17
0.0
 27
1.0
 37
0.0
 76
     0
330
58
  0
LAYOUT
  5
5E
102
{ACAD_REACTORS
330
1A
102
}
330
1A
100
AcDbPlotSettings
  1

  2
None
  4

  6

 40
0.0
 41
0.0
 42
0.0
 43
0.0
 44
0.0
 45
0.0
 46
0.0
 47
0.0
 48
0.0
 49
0.0
140
0.0
141
0.0
142
1.0
143
1.0
 70
   688
 72
     0
 73
     0
 74
     5
  7

 75
    16
 76
     0
 77
     2
 78
   300
147
1.0
148
0.0
149
0.0
100
AcDbLayout
  1
Sheet2
 70
     1
 71
     2
 10
0.0
 20
0.0
 11
12.0
 21
9.0
 12
0.0
 22
0.0
 32
0.0
 14
0.0
 24
0.0
 34
0.0
 15
0.0
 25
0.0
 35
0.0
146
0.0
 13
0.0
 23
0.0
 33
0.0
 16
1.0
 26
0.0
 36
0.0
 17
0.0
 27
1.0
 37
0.0
 76
     0
330
5D
  0
MATERIAL
  5
E2
102
{ACAD_REACTORS
330
72
102
}
330
72
100
AcDbMaterial
  1
ByBlock
 72
     1
 94
      127
  0
MATERIAL
  5
96
102
{ACAD_REACTORS
330
72
102
}
330
72
100
AcDbMaterial
  1
ByLayer
 72
     1
 94
       63
  0
MATERIAL
  5
98
102
{ACAD_REACTORS
330
72
102
}
330
72
100
AcDbMaterial
  1
Global
 72
     1
 94
       63
  0
MLINESTYLE
  5
18
102
{ACAD_REACTORS
330
17
102
}
330
17
100
AcDbMlineStyle
  2
STANDARD
 70
     0
  3

 62
   256
 51
90.0
 52
90.0
 71
     2
 49
0.5
 62
   256
  6
BYLAYER
 49
-0.5
 62
   256
  6
BYLAYER
  0
ACDBPLACEHOLDER
  5
F
102
{ACAD_REACTORS
330
E
102
}
330
E
  0
SCALE
  5
B7
102
{ACAD_REACTORS
330
B6
102
}
330
B6
100
AcDbScale
 70
     0
300
1:1
140
1.0
141
1.0
290
     1
  0
SCALE
  5
B8
102
{ACAD_REACTORS
330
B6
102
}
330
B6
100
AcDbScale
 70
     0
300
1:2
140
1.0
141
2.0
290
     0
  0
SCALE
  5
B9
102
{ACAD_REACTORS
330
B6
102
}
330
B6
100
AcDbScale
 70
     0
300
1:4
140
1.0
141
4.0
290
     0
  0
SCALE
  5
BA
102
{ACAD_REACTORS
330
B6
102
}
330
B6
100
AcDbScale
 70
     0
300
1:5
140
1.0
141
5.0
290
     0
  0
SCALE
  5
BB
102
{ACAD_REACTORS
330
B6
102
}
330
B6
100
AcDbScale
 70
     0
300
1:8
140
1.0
141
8.0
290
     0
  0
SCALE
  5
BC
102
{ACAD_REACTORS
330
B6
102
}
330
B6
100
AcDbScale
 70
     0
300
1:10
140
1.0
141
10.0
290
     0
  0
SCALE
  5
BD
102
{ACAD_REACTORS
330
B6
102
}
330
B6
100
AcDbScale
 70
     0
300
1:16
140
1.0
141
16.0
290
     0
  0
SCALE
  5
BE
102
{ACAD_REACTORS
330
B6
102
}
330
B6
100
AcDbScale
 70
     0
300
1:20
140
1.0
141
20.0
290
     0
  0
SCALE
  5
BF
102
{ACAD_REACTORS
330
B6
102
}
330
B6
100
AcDbScale
 70
     0
300
1:30
140
1.0
141
30.0
290
     0
  0
SCALE
  5
C0
102
{ACAD_REACTORS
330
B6
102
}
330
B6
100
AcDbScale
 70
     0
300
1:40
140
1.0
141
40.0
290
     0
  0
SCALE
  5
C1
102
{ACAD_REACTORS
330
B6
102
}
330
B6
100
AcDbScale
 70
     0
300
1:50
140
1.0
141
50.0
290
     0
  0
SCALE
  5
C2
102
{ACAD_REACTORS
330
B6
102
}
330
B6
100
AcDbScale
 70
     0
300
1:100
140
1.0
141
100.0
290
     0
  0
SCALE
  5
C3
102
{ACAD_REACTORS
330
B6
102
}
330
B6
100
AcDbScale
 70
     0
300
2:1
140
2.0
141
1.0
290
     0
  0
SCALE
  5
C4
102
{ACAD_REACTORS
330
B6
102
}
330
B6
100
AcDbScale
 70
     0
300
4:1
140
4.0
141
1.0
290
     0
  0
SCALE
  5
C5
102
{ACAD_REACTORS
330
B6
102
}
330
B6
100
AcDbScale
 70
     0
300
8:1
140
8.0
141
1.0
290
     0
  0
SCALE
  5
C6
102
{ACAD_REACTORS
330
B6
102
}
330
B6
100
AcDbScale
 70
     0
300
10:1
140
10.0
141
1.0
290
     0
  0
SCALE
  5
C7
102
{ACAD_REACTORS
330
B6
102
}
330
B6
100
AcDbScale
 70
     0
300
100:1
140
100.0
141
1.0
290
     0
  0
SCALE
  5
C8
102
{ACAD_REACTORS
330
B6
102
}
330
B6
100
AcDbScale
 70
     0
300
1/128" = 1'-0"
140
0.0078125
141
12.0
290
     0
  0
SCALE
  5
C9
102
{ACAD_REACTORS
330
B6
102
}
330
B6
100
AcDbScale
 70
     0
300
1/64" = 1'-0"
140
0.015625
141
12.0
290
     0
  0
SCALE
  5
CA
102
{ACAD_REACTORS
330
B6
102
}
330
B6
100
AcDbScale
 70
     0
300
1/32" = 1'-0"
140
0.03125
141
12.0
290
     0
  0
SCALE
  5
CB
102
{ACAD_REACTORS
330
B6
102
}
330
B6
100
AcDbScale
 70
     0
300
1/16" = 1'-0"
140
0.0625
141
12.0
290
     0
  0
SCALE
  5
CC
102
{ACAD_REACTORS
330
B6
102
}
330
B6
100
AcDbScale
 70
     0
300
3/32" = 1'-0"
140
0.09375
141
12.0
290
     0
  0
SCALE
  5
CD
102
{ACAD_REACTORS
330
B6
102
}
330
B6
100
AcDbScale
 70
     0
300
1/8" = 1'-0"
140
0.125
141
12.0
290
     0
  0
SCALE
  5
CE
102
{ACAD_REACTORS
330
B6
102
}
330
B6
100
AcDbScale
 70
     0
300
3/16" = 1'-0"
140
0.1875
141
12.0
290
     0
  0
SCALE
  5
CF
102
{ACAD_REACTORS
330
B6
102
}
330
B6
100
AcDbScale
 70
     0
300
1/4" = 1'-0"
140
0.25
141
12.0
290
     0
  0
SCALE
  5
D0
102
{ACAD_REACTORS
330
B6
102
}
330
B6
100
AcDbScale
 70
     0
300
3/8" = 1'-0"
140
0.375
141
12.0
290
     0
  0
SCALE
  5
D1
102
{ACAD_REACTORS
330
B6
102
}
330
B6
100
AcDbScale
 70
     0
300
1/2" = 1'-0"
140
0.5
141
12.0
290
     0
  0
SCALE
  5
D2
102
{ACAD_REACTORS
330
B6
102
}
330
B6
100
AcDbScale
 70
     0
300
3/4" = 1'-0"
140
0.75
141
12.0
290
     0
  0
SCALE
  5
D3
102
{ACAD_REACTORS
330
B6
102
}
330
B6
100
AcDbScale
 70
     0
300
1" = 1'-0"
140
1.0
141
12.0
290
     0
  0
SCALE
  5
D4
102
{ACAD_REACTORS
330
B6
102
}
330
B6
100
AcDbScale
 70
     0
300
1-1/2" = 1'-0"
140
1.5
141
12.0
290
     0
  0
SCALE
  5
D5
102
{ACAD_REACTORS
330
B6
102
}
330
B6
100
AcDbScale
 70
     0
300
3" = 1'-0"
140
3.0
141
12.0
290
     0
  0
SCALE
  5
D6
102
{ACAD_REACTORS
330
B6
102
}
330
B6
100
AcDbScale
 70
     0
300
6" = 1'-0"
140
6.0
141
12.0
290
     0
  0
SCALE
  5
D7
102
{ACAD_REACTORS
330
B6
102
}
330
B6
100
AcDbScale
 70
     0
300
1'-0" = 1'-0"
140
12.0
141
12.0
290
     0
  0
TABLESTYLE
  5
87
102
{ACAD_REACTORS
330
86
102
}
102
{ACAD_XDICTIONARY
360
767
102
}
330
86
100
AcDbTableStyle
  3
Standard
 70
     0
 71
     0
 40
0.06
 41
0.06
280
     0
281
     0
  7
Standard
140
0.18
170
     2
 62
     0
 63
   257
283
     0
 90
      512
 91
        0
  1

274
    -2
284
     1
 64
     0
275
    -2
285
     1
 65
     0
276
    -2
286
     1
 66
     0
277
    -2
287
     1
 67
     0
278
    -2
288
     1
 68
     0
279
    -2
289
     1
 69
     0
  7
Standard
140
0.25
170
     5
 62
     0
 63
   257
283
     0
 90
      512
 91
        0
  1

274
    -2
284
     1
 64
     0
275
    -2
285
     1
 65
     0
276
    -2
286
     1
 66
     0
277
    -2
287
     1
 67
     0
278
    -2
288
     1
 68
     0
279
    -2
289
     1
 69
     0
  7
Standard
140
0.18
170
     5
 62
     0
 63
   257
283
     0
 90
      512
 91
        0
  1

274
    -2
284
     1
 64
     0
275
    -2
285
     1
 65
     0
276
    -2
286
     1
 66
     0
277
    -2
287
     1
 67
     0
278
    -2
288
     1
 68
     0
279
    -2
289
     1
 69
     0
  0
VISUALSTYLE
  5
9F
102
{ACAD_REACTORS
330
99
102
}
330
99
100
AcDbVisualStyle
  2
2dWireframe
 70
     4
177
     3
291
     0
 70
    58
 90
        0
176
     1
 90
        2
176
     1
 90
        1
176
     1
 90
        0
176
     1
 40
-0.6
176
     1
 40
-30.0
176
     1
 62
     7
420
 16777215
176
     1
 90
        1
176
     1
 90
        4
176
     1
 62
     7
176
     1
 62
   257
176
     1
 90
        1
176
     1
 90
        1
176
     1
 40
1.0
176
     1
 90
        0
176
     1
 62
   257
176
     1
 40
1.0
176
     1
 90
        1
176
     1
 90
        6
176
     1
 90
        2
176
     1
 62
     7
176
     1
 90
        5
176
     1
 90
        0
176
     1
 90
        0
176
     1
290
     0
176
     1
 90
        1
176
     1
 40
0.0
176
     1
 90
        0
176
     1
290
     1
176
     1
290
     1
176
     1
290
     0
176
     1
290
     0
176
     1
290
     0
176
     1
290
     0
176
     1
290
     0
176
     1
290
     0
176
     1
290
     0
176
     1
 90
       50
176
     1
 40
0.0
176
     1
 40
1.0
176
     1
 90
        0
176
     1
 62
    18
420
        0
176
     1
 90
       50
176
     1
 90
        3
176
     1
 62
     5
420
      255
176
     1
290
     0
176
     1
 90
       50
176
     1
 90
       50
176
     1
 90
       50
176
     1
290
     0
176
     1
 90
       50
176
     1
 62
   256
176
     0
 40
1.0
176
     0
 90
        2
176
     1
  1
strokes_ogs.tif
176
     1
290
     0
176
     1
 40
1.0
176
     1
 40
1.0
176
     1
  0
VISUALSTYLE
  5
A1
102
{ACAD_REACTORS
330
99
102
}
330
99
100
AcDbVisualStyle
  2
3D Hidden
 70
     6
177
     3
291
     0
 70
    58
 90
        1
176
     1
 90
        2
176
     1
 90
        2
176
     1
 90
        0
176
     1
 40
-0.6
176
     1
 40
-30.0
176
     1
 62
     7
420
 16777215
176
     1
 90
        2
176
     1
 90
        2
176
     1
 62
     7
176
     1
 62
   257
176
     1
 90
        2
176
     1
 90
        1
176
     1
 40
40.0
176
     1
 90
        0
176
     1
 62
   257
176
     1
 40
1.0
176
     1
 90
        1
176
     1
 90
        6
176
     1
 90
        2
176
     1
 62
     7
176
     1
 90
        3
176
     1
 90
        0
176
     1
 90
        0
176
     1
290
     0
176
     1
 90
        1
176
     1
 40
0.0
176
     1
 90
        0
176
     1
290
     0
176
     1
290
     1
176
     1
290
     1
176
     1
290
     0
176
     1
290
     0
176
     1
290
     0
176
     1
290
     0
176
     1
290
     0
176
     1
290
     0
176
     1
 90
       50
176
     1
 40
0.0
176
     1
 40
1.0
176
     1
 90
        0
176
     1
 62
    18
420
        0
176
     1
 90
       50
176
     1
 90
        3
176
     1
 62
     5
420
      255
176
     1
290
     0
176
     1
 90
       50
176
     1
 90
       50
176
     1
 90
       50
176
     1
290
     0
176
     1
 90
       50
176
     1
 62
   256
176
     0
 40
1.0
176
     0
 90
        2
176
     1
  1
strokes_ogs.tif
176
     1
290
     0
176
     1
 40
1.0
176
     1
 40
1.0
176
     1
  0
VISUALSTYLE
  5
A0
102
{ACAD_REACTORS
330
99
102
}
330
99
100
AcDbVisualStyle
  2
3dWireframe
 70
     5
177
     3
291
     0
 70
    58
 90
        0
176
     1
 90
        2
176
     1
 90
        1
176
     1
 90
        0
176
     1
 40
-0.6
176
     1
 40
-30.0
176
     1
 62
     7
420
 16777215
176
     1
 90
        1
176
     1
 90
        4
176
     1
 62
     7
176
     1
 62
   257
176
     1
 90
        1
176
     1
 90
        1
176
     1
 40
1.0
176
     1
 90
        0
176
     1
 62
   257
176
     1
 40
1.0
176
     1
 90
        1
176
     1
 90
        6
176
     1
 90
        2
176
     1
 62
     7
176
     1
 90
        5
176
     1
 90
        0
176
     1
 90
        0
176
     1
290
     0
176
     1
 90
        1
176
     1
 40
0.0
176
     1
 90
        0
176
     1
290
     0
176
     1
290
     1
176
     1
290
     1
176
     1
290
     0
176
     1
290
     0
176
     1
290
     0
176
     1
290
     0
176
     1
290
     0
176
     1
290
     0
176
     1
 90
       50
176
     1
 40
0.0
176
     1
 40
1.0
176
     1
 90
        0
176
     1
 62
    18
420
        0
176
     1
 90
       50
176
     1
 90
        3
176
     1
 62
     5
420
      255
176
     1
290
     0
176
     1
 90
       50
176
     1
 90
       50
176
     1
 90
       50
176
     1
290
     0
176
     1
 90
       50
176
     1
 62
   256
176
     0
 40
1.0
176
     0
 90
        2
176
     1
  1
strokes_ogs.tif
176
     1
290
     0
176
     1
 40
1.0
176
     1
 40
1.0
176
     1
  0
VISUALSTYLE
  5
9E
102
{ACAD_REACTORS
330
99
102
}
330
99
100
AcDbVisualStyle
  2
Basic
 70
     7
177
     3
291
     1
 70
    58
 90
        1
176
     1
 90
        0
176
     1
 90
        1
176
     1
 90
        0
176
     1
 40
-0.6
176
     1
 40
-30.0
176
     1
 62
     7
420
 16777215
176
     1
 90
        0
176
     1
 90
        4
176
     1
 62
     7
176
     1
 62
   257
176
     1
 90
        1
176
     1
 90
        1
176
     1
 40
1.0
176
     1
 90
        8
176
     1
 62
     7
176
     1
 40
1.0
176
     1
 90
        1
176
     1
 90
        6
176
     1
 90
        2
176
     1
 62
     7
176
     1
 90
        5
176
     1
 90
        0
176
     1
 90
        0
176
     1
290
     0
176
     1
 90
        1
176
     1
 40
0.0
176
     1
 90
        0
176
     1
290
     0
176
     1
290
     1
176
     1
290
     1
176
     1
290
     0
176
     1
290
     0
176
     1
290
     0
176
     1
290
     0
176
     1
290
     0
176
     1
290
     0
176
     1
 90
       50
176
     1
 40
0.0
176
     1
 40
1.0
176
     1
 90
        0
176
     1
 62
    18
420
        0
176
     1
 90
       50
176
     1
 90
        3
176
     1
 62
     5
420
      255
176
     1
290
     0
176
     1
 90
       50
176
     1
 90
       50
176
     1
 90
       50
176
     1
290
     0
176
     1
 90
       50
176
     1
 62
   256
176
     0
 40
1.0
176
     0
 90
        2
176
     1
  1
strokes_ogs.tif
176
     1
290
     0
176
     1
 40
1.0
176
     1
 40
1.0
176
     1
  0
VISUALSTYLE
  5
A5
102
{ACAD_REACTORS
330
99
102
}
330
99
100
AcDbVisualStyle
  2
Brighten
 70
    12
177
     3
291
     1
 70
    58
 90
        2
176
     1
 90
        2
176
     1
 90
        1
176
     1
 90
        0
176
     1
 40
-0.6
176
     1
 40
-30.0
176
     1
 62
     7
420
 16777215
176
     1
 90
        1
176
     1
 90
        4
176
     1
 62
     7
176
     1
 62
   257
176
     1
 90
        1
176
     1
 90
        1
176
     1
 40
1.0
176
     1
 90
        8
176
     1
 62
     7
176
     1
 40
1.0
176
     1
 90
        1
176
     1
 90
        6
176
     1
 90
        2
176
     1
 62
     7
176
     1
 90
        5
176
     1
 90
        0
176
     1
 90
        0
176
     1
290
     0
176
     1
 90
        1
176
     1
 40
50.0
176
     1
 90
        0
176
     1
290
     0
176
     1
290
     1
176
     1
290
     1
176
     1
290
     0
176
     1
290
     0
176
     1
290
     0
176
     1
290
     0
176
     1
290
     0
176
     1
290
     0
176
     1
 90
       50
176
     1
 40
0.0
176
     1
 40
1.0
176
     1
 90
        0
176
     1
 62
    18
420
        0
176
     1
 90
       50
176
     1
 90
        3
176
     1
 62
     5
420
      255
176
     1
290
     0
176
     1
 90
       50
176
     1
 90
       50
176
     1
 90
       50
176
     1
290
     0
176
     1
 90
       50
176
     1
 62
   256
176
     0
 40
1.0
176
     0
 90
        2
176
     1
  1
strokes_ogs.tif
176
     1
290
     0
176
     1
 40
1.0
176
     1
 40
1.0
176
     1
  0
VISUALSTYLE
  5
A9
102
{ACAD_REACTORS
330
99
102
}
330
99
100
AcDbVisualStyle
  2
ColorChange
 70
    16
177
     3
291
     1
 70
    58
 90
        2
176
     1
 90
        2
176
     1
 90
        3
176
     1
 90
        0
176
     1
 40
-0.6
176
     1
 40
-30.0
176
     1
 62
     8
420
  8421504
176
     1
 90
        1
176
     1
 90
        4
176
     1
 62
     7
176
     1
 62
   257
176
     1
 90
        1
176
     1
 90
        1
176
     1
 40
1.0
176
     1
 90
        8
176
     1
 62
     8
420
  8421504
176
     1
 40
1.0
176
     1
 90
        1
176
     1
 90
        6
176
     1
 90
        2
176
     1
 62
     7
176
     1
 90
        5
176
     1
 90
        0
176
     1
 90
        0
176
     1
290
     0
176
     1
 90
        1
176
     1
 40
0.0
176
     1
 90
        0
176
     1
290
     0
176
     1
290
     1
176
     1
290
     1
176
     1
290
     0
176
     1
290
     0
176
     1
290
     0
176
     1
290
     0
176
     1
290
     0
176
     1
290
     0
176
     1
 90
       50
176
     1
 40
0.0
176
     1
 40
1.0
176
     1
 90
        0
176
     1
 62
    18
420
        0
176
     1
 90
       50
176
     1
 90
        3
176
     1
 62
     5
420
      255
176
     1
290
     0
176
     1
 90
       50
176
     1
 90
       50
176
     1
 90
       50
176
     1
290
     0
176
     1
 90
       50
176
     1
 62
   256
176
     0
 40
1.0
176
     0
 90
        2
176
     1
  1
strokes_ogs.tif
176
     1
290
     0
176
     1
 40
1.0
176
     1
 40
1.0
176
     1
  0
VISUALSTYLE
  5
A2
102
{ACAD_REACTORS
330
99
102
}
330
99
100
AcDbVisualStyle
  2
Conceptual
 70
     9
177
     3
291
     0
 70
    58
 90
        3
176
     1
 90
        2
176
     1
 90
        1
176
     1
 90
        0
176
     1
 40
-0.6
176
     1
 40
-30.0
176
     1
 62
     7
420
 16777215
176
     1
 90
        2
176
     1
 90
        2
176
     1
 62
     7
176
     1
 62
   257
176
     1
 90
        1
176
     1
 90
        1
176
     1
 40
40.0
176
     1
 90
        8
176
     1
 62
     7
176
     1
 40
1.0
176
     1
 90
        1
176
     1
 90
        6
176
     1
 90
        2
176
     1
 62
     7
176
     1
 90
        3
176
     1
 90
        0
176
     1
 90
        0
176
     1
290
     0
176
     1
 90
        1
176
     1
 40
0.0
176
     1
 90
        0
176
     1
290
     0
176
     1
290
     1
176
     1
290
     1
176
     1
290
     0
176
     1
290
     0
176
     1
290
     0
176
     1
290
     0
176
     1
290
     0
176
     1
290
     0
176
     1
 90
       50
176
     1
 40
0.0
176
     1
 40
1.0
176
     1
 90
        0
176
     1
 62
    18
420
        0
176
     1
 90
       50
176
     1
 90
        3
176
     1
 62
     5
420
      255
176
     1
290
     0
176
     1
 90
       50
176
     1
 90
       50
176
     1
 90
       50
176
     1
290
     0
176
     1
 90
       50
176
     1
 62
   256
176
     0
 40
1.0
176
     0
 90
        2
176
     1
  1
strokes_ogs.tif
176
     1
290
     0
176
     1
 40
1.0
176
     1
 40
1.0
176
     1
  0
VISUALSTYLE
  5
A4
102
{ACAD_REACTORS
330
99
102
}
330
99
100
AcDbVisualStyle
  2
Dim
 70
    11
177
     3
291
     1
 70
    58
 90
        2
176
     1
 90
        2
176
     1
 90
        1
176
     1
 90
        0
176
     1
 40
-0.6
176
     1
 40
-30.0
176
     1
 62
     7
420
 16777215
176
     1
 90
        1
176
     1
 90
        4
176
     1
 62
     7
176
     1
 62
   257
176
     1
 90
        1
176
     1
 90
        1
176
     1
 40
1.0
176
     1
 90
        8
176
     1
 62
     7
176
     1
 40
1.0
176
     1
 90
        1
176
     1
 90
        6
176
     1
 90
        2
176
     1
 62
     7
176
     1
 90
        5
176
     1
 90
        0
176
     1
 90
        0
176
     1
290
     0
176
     1
 90
        1
176
     1
 40
-50.0
176
     1
 90
        0
176
     1
290
     0
176
     1
290
     1
176
     1
290
     1
176
     1
290
     0
176
     1
290
     0
176
     1
290
     0
176
     1
290
     0
176
     1
290
     0
176
     1
290
     0
176
     1
 90
       50
176
     1
 40
0.0
176
     1
 40
1.0
176
     1
 90
        0
176
     1
 62
    18
420
        0
176
     1
 90
       50
176
     1
 90
        3
176
     1
 62
     5
420
      255
176
     1
290
     0
176
     1
 90
       50
176
     1
 90
       50
176
     1
 90
       50
176
     1
290
     0
176
     1
 90
       50
176
     1
 62
   256
176
     0
 40
1.0
176
     0
 90
        2
176
     1
  1
strokes_ogs.tif
176
     1
290
     0
176
     1
 40
1.0
176
     1
 40
1.0
176
     1
  0
VISUALSTYLE
  5
E7
102
{ACAD_REACTORS
330
99
102
}
330
99
100
AcDbVisualStyle
  2
EdgeColorOff
 70
    22
177
     3
291
     1
 70
    58
 90
        2
176
     1
 90
        2
176
     1
 90
        0
176
     1
 90
        0
176
     1
 40
0.6
176
     1
 40
30.0
176
     1
 62
     7
420
 16777215
176
     1
 90
        1
176
     1
 90
        4
176
     1
 62
     7
176
     1
 62
   257
176
     1
 90
        1
176
     1
 90
        1
176
     1
 40
1.0
176
     1
 90
        8
176
     1
 62
     7
176
     1
 40
1.0
176
     1
 90
        1
176
     1
 90
        6
176
     1
 90
        2
176
     1
 62
     7
176
     1
 90
        5
176
     1
 90
        0
176
     1
 90
        0
176
     1
290
     0
176
     1
 90
        1
176
     1
 40
0.0
176
     1
 90
        0
176
     1
290
     0
176
     1
290
     1
176
     1
290
     1
176
     1
290
     0
176
     1
290
     0
176
     1
290
     0
176
     1
290
     0
176
     1
290
     0
176
     1
290
     0
176
     1
 90
       50
176
     1
 40
0.0
176
     1
 40
1.0
176
     1
 90
        0
176
     1
 62
    18
420
        0
176
     1
 90
       50
176
     1
 90
        3
176
     1
 62
     5
420
      255
176
     1
290
     0
176
     1
 90
       50
176
     1
 90
       50
176
     1
 90
       50
176
     1
290
     0
176
     1
 90
       50
176
     1
 62
   256
176
     0
 40
1.0
176
     0
 90
        2
176
     1
  1
strokes_ogs.tif
176
     1
290
     0
176
     1
 40
1.0
176
     1
 40
1.0
176
     1
  0
VISUALSTYLE
  5
A8
102
{ACAD_REACTORS
330
99
102
}
330
99
100
AcDbVisualStyle
  2
Facepattern
 70
    15
177
     3
291
     1
 70
    58
 90
        2
176
     1
 90
        2
176
     1
 90
        1
176
     1
 90
        0
176
     1
 40
-0.6
176
     1
 40
-30.0
176
     1
 62
     7
420
 16777215
176
     1
 90
        1
176
     1
 90
        4
176
     1
 62
     7
176
     1
 62
   257
176
     1
 90
        1
176
     1
 90
        1
176
     1
 40
1.0
176
     1
 90
        8
176
     1
 62
     7
176
     1
 40
1.0
176
     1
 90
        1
176
     1
 90
        6
176
     1
 90
        2
176
     1
 62
     7
176
     1
 90
        5
176
     1
 90
        0
176
     1
 90
        0
176
     1
290
     0
176
     1
 90
        1
176
     1
 40
0.0
176
     1
 90
        0
176
     1
290
     0
176
     1
290
     1
176
     1
290
     1
176
     1
290
     0
176
     1
290
     0
176
     1
290
     0
176
     1
290
     0
176
     1
290
     0
176
     1
290
     0
176
     1
 90
       50
176
     1
 40
0.0
176
     1
 40
1.0
176
     1
 90
        0
176
     1
 62
    18
420
        0
176
     1
 90
       50
176
     1
 90
        3
176
     1
 62
     5
420
      255
176
     1
290
     0
176
     1
 90
       50
176
     1
 90
       50
176
     1
 90
       50
176
     1
290
     0
176
     1
 90
       50
176
     1
 62
   256
176
     0
 40
1.0
176
     0
 90
        2
176
     1
  1
strokes_ogs.tif
176
     1
290
     0
176
     1
 40
1.0
176
     1
 40
1.0
176
     1
  0
VISUALSTYLE
  5
9A
102
{ACAD_REACTORS
330
99
102
}
330
99
100
AcDbVisualStyle
  2
Flat
 70
     0
177
     3
291
     1
 70
    58
 90
        2
176
     1
 90
        1
176
     1
 90
        1
176
     1
 90
        2
176
     1
 40
-0.6
176
     1
 40
30.0
176
     1
 62
     7
420
 16777215
176
     1
 90
        0
176
     1
 90
        4
176
     1
 62
     7
176
     1
 62
   257
176
     1
 90
        1
176
     1
 90
        1
176
     1
 40
1.0
176
     1
 90
        8
176
     1
 62
     7
176
     1
 40
1.0
176
     1
 90
        1
176
     1
 90
        6
176
     1
 90
        2
176
     1
 62
     7
176
     1
 90
        5
176
     1
 90
        0
176
     1
 90
        0
176
     1
290
     0
176
     1
 90
        1
176
     1
 40
0.0
176
     1
 90
        0
176
     1
290
     0
176
     1
290
     1
176
     1
290
     1
176
     1
290
     0
176
     1
290
     0
176
     1
290
     0
176
     1
290
     0
176
     1
290
     0
176
     1
290
     0
176
     1
 90
       50
176
     1
 40
0.0
176
     1
 40
1.0
176
     1
 90
        0
176
     1
 62
    18
420
        0
176
     1
 90
       50
176
     1
 90
        3
176
     1
 62
     5
420
      255
176
     1
290
     0
176
     1
 90
       50
176
     1
 90
       50
176
     1
 90
       50
176
     1
290
     0
176
     1
 90
       50
176
     1
 62
   256
176
     0
 40
1.0
176
     0
 90
        2
176
     1
  1
strokes_ogs.tif
176
     1
290
     0
176
     1
 40
1.0
176
     1
 40
1.0
176
     1
  0
VISUALSTYLE
  5
9B
102
{ACAD_REACTORS
330
99
102
}
330
99
100
AcDbVisualStyle
  2
FlatWithEdges
 70
     1
177
     3
291
     1
 70
    58
 90
        2
176
     1
 90
        1
176
     1
 90
        1
176
     1
 90
        2
176
     1
 40
-0.6
176
     1
 40
30.0
176
     1
 62
     7
420
 16777215
176
     1
 90
        1
176
     1
 90
        4
176
     1
 62
     7
176
     1
 62
   257
176
     1
 90
        1
176
     1
 90
        1
176
     1
 40
1.0
176
     1
 90
        0
176
     1
 62
   257
176
     1
 40
1.0
176
     1
 90
        1
176
     1
 90
        6
176
     1
 90
        2
176
     1
 62
     7
176
     1
 90
        5
176
     1
 90
        0
176
     1
 90
        0
176
     1
290
     0
176
     1
 90
        1
176
     1
 40
0.0
176
     1
 90
        0
176
     1
290
     0
176
     1
290
     1
176
     1
290
     1
176
     1
290
     0
176
     1
290
     0
176
     1
290
     0
176
     1
290
     0
176
     1
290
     0
176
     1
290
     0
176
     1
 90
       50
176
     1
 40
0.0
176
     1
 40
1.0
176
     1
 90
        0
176
     1
 62
    18
420
        0
176
     1
 90
       50
176
     1
 90
        3
176
     1
 62
     5
420
      255
176
     1
290
     0
176
     1
 90
       50
176
     1
 90
       50
176
     1
 90
       50
176
     1
290
     0
176
     1
 90
       50
176
     1
 62
   256
176
     0
 40
1.0
176
     0
 90
        2
176
     1
  1
strokes_ogs.tif
176
     1
290
     0
176
     1
 40
1.0
176
     1
 40
1.0
176
     1
  0
VISUALSTYLE
  5
9C
102
{ACAD_REACTORS
330
99
102
}
330
99
100
AcDbVisualStyle
  2
Gouraud
 70
     2
177
     3
291
     1
 70
    58
 90
        2
176
     1
 90
        2
176
     1
 90
        1
176
     1
 90
        2
176
     1
 40
-0.6
176
     1
 40
30.0
176
     1
 62
     7
420
 16777215
176
     1
 90
        0
176
     1
 90
        4
176
     1
 62
     7
176
     1
 62
   257
176
     1
 90
        1
176
     1
 90
        1
176
     1
 40
1.0
176
     1
 90
        0
176
     1
 62
     7
176
     1
 40
1.0
176
     1
 90
        1
176
     1
 90
        6
176
     1
 90
        2
176
     1
 62
     7
176
     1
 90
        5
176
     1
 90
        0
176
     1
 90
        0
176
     1
290
     0
176
     1
 90
        1
176
     1
 40
0.0
176
     1
 90
        0
176
     1
290
     0
176
     1
290
     1
176
     1
290
     1
176
     1
290
     0
176
     1
290
     0
176
     1
290
     0
176
     1
290
     0
176
     1
290
     0
176
     1
290
     0
176
     1
 90
       50
176
     1
 40
0.0
176
     1
 40
1.0
176
     1
 90
        0
176
     1
 62
    18
420
        0
176
     1
 90
       50
176
     1
 90
        3
176
     1
 62
     5
420
      255
176
     1
290
     0
176
     1
 90
       50
176
     1
 90
       50
176
     1
 90
       50
176
     1
290
     0
176
     1
 90
       50
176
     1
 62
   256
176
     0
 40
1.0
176
     0
 90
        2
176
     1
  1
strokes_ogs.tif
176
     1
290
     0
176
     1
 40
1.0
176
     1
 40
1.0
176
     1
  0
VISUALSTYLE
  5
9D
102
{ACAD_REACTORS
330
99
102
}
330
99
100
AcDbVisualStyle
  2
GouraudWithEdges
 70
     3
177
     3
291
     1
 70
    58
 90
        2
176
     1
 90
        2
176
     1
 90
        1
176
     1
 90
        2
176
     1
 40
-0.6
176
     1
 40
30.0
176
     1
 62
     7
420
 16777215
176
     1
 90
        1
176
     1
 90
        4
176
     1
 62
     7
176
     1
 62
   257
176
     1
 90
        1
176
     1
 90
        1
176
     1
 40
1.0
176
     1
 90
        0
176
     1
 62
   257
176
     1
 40
1.0
176
     1
 90
        1
176
     1
 90
        6
176
     1
 90
        2
176
     1
 62
     7
176
     1
 90
        5
176
     1
 90
        0
176
     1
 90
        0
176
     1
290
     0
176
     1
 90
        1
176
     1
 40
0.0
176
     1
 90
        0
176
     1
290
     0
176
     1
290
     1
176
     1
290
     1
176
     1
290
     0
176
     1
290
     0
176
     1
290
     0
176
     1
290
     0
176
     1
290
     0
176
     1
290
     0
176
     1
 90
       50
176
     1
 40
0.0
176
     1
 40
1.0
176
     1
 90
        0
176
     1
 62
    18
420
        0
176
     1
 90
       50
176
     1
 90
        3
176
     1
 62
     5
420
      255
176
     1
290
     0
176
     1
 90
       50
176
     1
 90
       50
176
     1
 90
       50
176
     1
290
     0
176
     1
 90
       50
176
     1
 62
   256
176
     0
 40
1.0
176
     0
 90
        2
176
     1
  1
strokes_ogs.tif
176
     1
290
     0
176
     1
 40
1.0
176
     1
 40
1.0
176
     1
  0
VISUALSTYLE
  5
E4
102
{ACAD_REACTORS
330
99
102
}
330
99
100
AcDbVisualStyle
  2
Hidden
 70
     6
177
     3
291
     0
 70
    58
 90
        1
176
     1
 90
        2
176
     1
 90
        2
176
     1
 90
        0
176
     1
 40
0.6
176
     1
 40
30.0
176
     1
 62
     7
420
 16777215
176
     1
 90
        2
176
     1
 90
        2
176
     1
 62
     7
176
     1
 62
   257
176
     1
 90
        2
176
     1
 90
        1
176
     1
 40
40.0
176
     1
 90
        0
176
     1
 62
   257
176
     1
 40
1.0
176
     1
 90
        1
176
     1
 90
        6
176
     1
 90
        2
176
     1
 62
     7
176
     1
 90
        3
176
     1
 90
        0
176
     1
 90
        0
176
     1
290
     0
176
     1
 90
        1
176
     1
 40
0.0
176
     1
 90
        0
176
     1
290
     0
176
     1
290
     1
176
     1
290
     1
176
     1
290
     0
176
     1
290
     0
176
     1
290
     0
176
     1
290
     0
176
     1
290
     0
176
     1
290
     0
176
     1
 90
       50
176
     1
 40
0.0
176
     1
 40
1.0
176
     1
 90
        0
176
     1
 62
    18
420
        0
176
     1
 90
       50
176
     1
 90
        3
176
     1
 62
     5
420
      255
176
     1
290
     0
176
     1
 90
       50
176
     1
 90
       50
176
     1
 90
       50
176
     1
290
     0
176
     1
 90
       50
176
     1
 62
   256
176
     0
 40
1.0
176
     0
 90
        2
176
     1
  1
strokes_ogs.tif
176
     1
290
     0
176
     1
 40
1.0
176
     1
 40
1.0
176
     1
  0
VISUALSTYLE
  5
E5
102
{ACAD_REACTORS
330
99
102
}
330
99
100
AcDbVisualStyle
  2
JitterOff
 70
    20
177
     3
291
     1
 70
    58
 90
        2
176
     1
 90
        2
176
     1
 90
        0
176
     1
 90
        0
176
     1
 40
0.6
176
     1
 40
30.0
176
     1
 62
     7
420
 16777215
176
     1
 90
        1
176
     1
 90
        4
176
     1
 62
     7
176
     1
 62
   257
176
     1
 90
        1
176
     1
 90
        1
176
     1
 40
1.0
176
     1
 90
       10
176
     1
 62
     7
176
     1
 40
1.0
176
     1
 90
        1
176
     1
 90
        6
176
     1
 90
        2
176
     1
 62
     7
176
     1
 90
        5
176
     1
 90
        0
176
     1
 90
        0
176
     1
290
     0
176
     1
 90
        1
176
     1
 40
0.0
176
     1
 90
        0
176
     1
290
     0
176
     1
290
     1
176
     1
290
     1
176
     1
290
     0
176
     1
290
     0
176
     1
290
     0
176
     1
290
     0
176
     1
290
     0
176
     1
290
     0
176
     1
 90
       50
176
     1
 40
0.0
176
     1
 40
1.0
176
     1
 90
        0
176
     1
 62
    18
420
        0
176
     1
 90
       50
176
     1
 90
        3
176
     1
 62
     5
420
      255
176
     1
290
     0
176
     1
 90
       50
176
     1
 90
       50
176
     1
 90
       50
176
     1
290
     0
176
     1
 90
       50
176
     1
 62
   256
176
     0
 40
1.0
176
     0
 90
        2
176
     1
  1
strokes_ogs.tif
176
     1
290
     0
176
     1
 40
1.0
176
     1
 40
1.0
176
     1
  0
VISUALSTYLE
  5
A7
102
{ACAD_REACTORS
330
99
102
}
330
99
100
AcDbVisualStyle
  2
Linepattern
 70
    14
177
     3
291
     1
 70
    58
 90
        2
176
     1
 90
        2
176
     1
 90
        1
176
     1
 90
        0
176
     1
 40
-0.6
176
     1
 40
-30.0
176
     1
 62
     7
420
 16777215
176
     1
 90
        1
176
     1
 90
        4
176
     1
 62
     7
176
     1
 62
   257
176
     1
 90
        7
176
     1
 90
        7
176
     1
 40
1.0
176
     1
 90
        8
176
     1
 62
     7
176
     1
 40
1.0
176
     1
 90
        1
176
     1
 90
        6
176
     1
 90
        2
176
     1
 62
     7
176
     1
 90
        5
176
     1
 90
        0
176
     1
 90
        0
176
     1
290
     0
176
     1
 90
        1
176
     1
 40
0.0
176
     1
 90
        0
176
     1
290
     0
176
     1
290
     1
176
     1
290
     1
176
     1
290
     0
176
     1
290
     0
176
     1
290
     0
176
     1
290
     0
176
     1
290
     0
176
     1
290
     0
176
     1
 90
       50
176
     1
 40
0.0
176
     1
 40
1.0
176
     1
 90
        0
176
     1
 62
    18
420
        0
176
     1
 90
       50
176
     1
 90
        3
176
     1
 62
     5
420
      255
176
     1
290
     0
176
     1
 90
       50
176
     1
 90
       50
176
     1
 90
       50
176
     1
290
     0
176
     1
 90
       50
176
     1
 62
   256
176
     0
 40
1.0
176
     0
 90
        2
176
     1
  1
strokes_ogs.tif
176
     1
290
     0
176
     1
 40
1.0
176
     1
 40
1.0
176
     1
  0
VISUALSTYLE
  5
E6
102
{ACAD_REACTORS
330
99
102
}
330
99
100
AcDbVisualStyle
  2
OverhangOff
 70
    21
177
     3
291
     1
 70
    58
 90
        2
176
     1
 90
        2
176
     1
 90
        0
176
     1
 90
        0
176
     1
 40
0.6
176
     1
 40
30.0
176
     1
 62
     7
420
 16777215
176
     1
 90
        1
176
     1
 90
        4
176
     1
 62
     7
176
     1
 62
   257
176
     1
 90
        1
176
     1
 90
        1
176
     1
 40
1.0
176
     1
 90
        9
176
     1
 62
     7
176
     1
 40
1.0
176
     1
 90
        1
176
     1
 90
        6
176
     1
 90
        2
176
     1
 62
     7
176
     1
 90
        5
176
     1
 90
        0
176
     1
 90
        0
176
     1
290
     0
176
     1
 90
        1
176
     1
 40
0.0
176
     1
 90
        0
176
     1
290
     0
176
     1
290
     1
176
     1
290
     1
176
     1
290
     0
176
     1
290
     0
176
     1
290
     0
176
     1
290
     0
176
     1
290
     0
176
     1
290
     0
176
     1
 90
       50
176
     1
 40
0.0
176
     1
 40
1.0
176
     1
 90
        0
176
     1
 62
    18
420
        0
176
     1
 90
       50
176
     1
 90
        3
176
     1
 62
     5
420
      255
176
     1
290
     0
176
     1
 90
       50
176
     1
 90
       50
176
     1
 90
       50
176
     1
290
     0
176
     1
 90
       50
176
     1
 62
   256
176
     0
 40
1.0
176
     0
 90
        2
176
     1
  1
strokes_ogs.tif
176
     1
290
     0
176
     1
 40
1.0
176
     1
 40
1.0
176
     1
  0
VISUALSTYLE
  5
A3
102
{ACAD_REACTORS
330
99
102
}
330
99
100
AcDbVisualStyle
  2
Realistic
 70
     8
177
     3
291
     0
 70
    58
 90
        2
176
     1
 90
        2
176
     1
 90
        1
176
     1
 90
        0
176
     1
 40
-0.6
176
     1
 40
-30.0
176
     1
 62
     7
420
 16777215
176
     1
 90
        1
176
     1
 90
        0
176
     1
 62
     7
176
     1
 62
   257
176
     1
 90
        1
176
     1
 90
        1
176
     1
 40
1.0
176
     1
 90
        8
176
     1
 62
     8
420
  7895160
176
     1
 40
1.0
176
     1
 90
        1
176
     1
 90
        6
176
     1
 90
        2
176
     1
 62
     7
176
     1
 90
        5
176
     1
 90
        0
176
     1
 90
        0
176
     1
290
     0
176
     1
 90
       13
176
     1
 40
0.0
176
     1
 90
        0
176
     1
290
     0
176
     1
290
     1
176
     1
290
     1
176
     1
290
     0
176
     1
290
     0
176
     1
290
     0
176
     1
290
     0
176
     1
290
     0
176
     1
290
     0
176
     1
 90
       50
176
     1
 40
0.0
176
     1
 40
1.0
176
     1
 90
        0
176
     1
 62
    18
420
        0
176
     1
 90
       50
176
     1
 90
        3
176
     1
 62
     5
420
      255
176
     1
290
     0
176
     1
 90
       50
176
     1
 90
       50
176
     1
 90
       50
176
     1
290
     0
176
     1
 90
       50
176
     1
 62
   256
176
     0
 40
1.0
176
     0
 90
        2
176
     1
  1
strokes_ogs.tif
176
     1
290
     0
176
     1
 40
1.0
176
     1
 40
1.0
176
     1
  0
VISUALSTYLE
  5
EC
102
{ACAD_REACTORS
330
99
102
}
330
99
100
AcDbVisualStyle
  2
Shaded
 70
    27
177
     3
291
     0
 70
    58
 90
        2
176
     1
 90
        2
176
     1
 90
        1
176
     1
 90
        2
176
     1
 40
0.6
176
     1
 40
30.0
176
     1
 62
     7
420
 16777215
176
     1
 90
        0
176
     1
 90
        4
176
     1
 62
     7
176
     1
 62
   257
176
     1
 90
        1
176
     1
 90
        1
176
     1
 40
1.0
176
     1
 90
        8
176
     1
 62
   257
176
     1
 40
1.0
176
     1
 90
        1
176
     1
 90
        6
176
     1
 90
        2
176
     1
 62
     8
420
  7895160
176
     1
 90
        3
176
     1
 90
        0
176
     1
 90
        0
176
     1
290
     0
176
     1
 90
        5
176
     1
 40
0.0
176
     1
 90
        0
176
     1
290
     0
176
     1
290
     1
176
     1
290
     1
176
     1
290
     0
176
     1
290
     0
176
     1
290
     0
176
     1
290
     0
176
     1
290
     0
176
     1
290
     0
176
     1
 90
       50
176
     1
 40
0.0
176
     1
 40
1.0
176
     1
 90
        0
176
     1
 62
    18
420
        0
176
     1
 90
       50
176
     1
 90
        3
176
     1
 62
     5
420
      255
176
     1
290
     0
176
     1
 90
       50
176
     1
 90
       50
176
     1
 90
       50
176
     1
290
     0
176
     1
 90
       50
176
     1
 62
   256
176
     0
 40
1.0
176
     0
 90
        2
176
     1
  1
strokes_ogs.tif
176
     1
290
     0
176
     1
 40
1.0
176
     1
 40
1.0
176
     1
  0
VISUALSTYLE
  5
EB
102
{ACAD_REACTORS
330
99
102
}
330
99
100
AcDbVisualStyle
  2
Shaded with edges
 70
    26
177
     3
291
     0
 70
    58
 90
        2
176
     1
 90
        2
176
     1
 90
        1
176
     1
 90
        2
176
     1
 40
0.6
176
     1
 40
30.0
176
     1
 62
     7
420
 16777215
176
     1
 90
        1
176
     1
 90
       10
176
     1
 62
     7
176
     1
 62
   257
176
     1
 90
        2
176
     1
 90
        1
176
     1
 40
1.0
176
     1
 90
        8
176
     1
 62
   257
176
     1
 40
1.0
176
     1
 90
        1
176
     1
 90
        6
176
     1
 90
        2
176
     1
 62
     7
176
     1
 90
        3
176
     1
 90
        0
176
     1
 90
        0
176
     1
290
     0
176
     1
 90
        5
176
     1
 40
0.0
176
     1
 90
        0
176
     1
290
     0
176
     1
290
     1
176
     1
290
     1
176
     1
290
     0
176
     1
290
     0
176
     1
290
     0
176
     1
290
     0
176
     1
290
     0
176
     1
290
     0
176
     1
 90
       50
176
     1
 40
0.0
176
     1
 40
1.0
176
     1
 90
        0
176
     1
 62
    18
420
        0
176
     1
 90
       50
176
     1
 90
        3
176
     1
 62
     5
420
      255
176
     1
290
     0
176
     1
 90
       50
176
     1
 90
       50
176
     1
 90
       50
176
     1
290
     0
176
     1
 90
       50
176
     1
 62
   256
176
     0
 40
1.0
176
     0
 90
        2
176
     1
  1
strokes_ogs.tif
176
     1
290
     0
176
     1
 40
1.0
176
     1
 40
1.0
176
     1
  0
VISUALSTYLE
  5
E8
102
{ACAD_REACTORS
330
99
102
}
330
99
100
AcDbVisualStyle
  2
Shades of Gray
 70
    23
177
     3
291
     0
 70
    58
 90
        2
176
     1
 90
        2
176
     1
 90
        3
176
     1
 90
        0
176
     1
 40
0.6
176
     1
 40
30.0
176
     1
 62
     7
420
 16777215
176
     1
 90
        2
176
     1
 90
        2
176
     1
 62
     7
176
     1
 62
     7
176
     1
 90
        1
176
     1
 90
        1
176
     1
 40
40.0
176
     1
 90
        8
176
     1
 62
     7
176
     1
 40
1.0
176
     1
 90
        1
176
     1
 90
        6
176
     1
 90
        2
176
     1
 62
     7
176
     1
 90
        3
176
     1
 90
        0
176
     1
 90
        0
176
     1
290
     0
176
     1
 90
        1
176
     1
 40
0.0
176
     1
 90
        0
176
     1
290
     0
176
     1
290
     1
176
     1
290
     1
176
     1
290
     0
176
     1
290
     0
176
     1
290
     0
176
     1
290
     0
176
     1
290
     0
176
     1
290
     0
176
     1
 90
       50
176
     1
 40
0.0
176
     1
 40
1.0
176
     1
 90
        0
176
     1
 62
    18
420
        0
176
     1
 90
       50
176
     1
 90
        3
176
     1
 62
     5
420
      255
176
     1
290
     0
176
     1
 90
       50
176
     1
 90
       50
176
     1
 90
       50
176
     1
290
     0
176
     1
 90
       50
176
     1
 62
   256
176
     0
 40
1.0
176
     0
 90
        2
176
     1
  1
strokes_ogs.tif
176
     1
290
     0
176
     1
 40
1.0
176
     1
 40
1.0
176
     1
  0
VISUALSTYLE
  5
E9
102
{ACAD_REACTORS
330
99
102
}
330
99
100
AcDbVisualStyle
  2
Sketchy
 70
    24
177
     3
291
     0
 70
    58
 90
        1
176
     1
 90
        2
176
     1
 90
        2
176
     1
 90
        0
176
     1
 40
0.6
176
     1
 40
30.0
176
     1
 62
     7
420
 16777215
176
     1
 90
        2
176
     1
 90
        2
176
     1
 62
     7
176
     1
 62
     7
176
     1
 90
        1
176
     1
 90
        1
176
     1
 40
40.0
176
     1
 90
       11
176
     1
 62
     7
176
     1
 40
1.0
176
     1
 90
        1
176
     1
 90
        6
176
     1
 90
        2
176
     1
 62
     7
176
     1
 90
        6
176
     1
 90
        0
176
     1
 90
        0
176
     1
290
     0
176
     1
 90
        1
176
     1
 40
0.0
176
     1
 90
        0
176
     1
290
     0
176
     1
290
     1
176
     1
290
     1
176
     1
290
     0
176
     1
290
     0
176
     1
290
     0
176
     1
290
     0
176
     1
290
     0
176
     1
290
     0
176
     1
 90
       50
176
     1
 40
0.0
176
     1
 40
1.0
176
     1
 90
        0
176
     1
 62
    18
420
        0
176
     1
 90
       50
176
     1
 90
        3
176
     1
 62
     5
420
      255
176
     1
290
     0
176
     1
 90
       50
176
     1
 90
       50
176
     1
 90
       50
176
     1
290
     0
176
     1
 90
       50
176
     1
 62
   256
176
     0
 40
1.0
176
     0
 90
        2
176
     1
  1
strokes_ogs.tif
176
     1
290
     0
176
     1
 40
1.0
176
     1
 40
1.0
176
     1
  0
VISUALSTYLE
  5
A6
102
{ACAD_REACTORS
330
99
102
}
330
99
100
AcDbVisualStyle
  2
Thicken
 70
    13
177
     3
291
     1
 70
    58
 90
        2
176
     1
 90
        2
176
     1
 90
        1
176
     1
 90
        0
176
     1
 40
-0.6
176
     1
 40
-30.0
176
     1
 62
     7
420
 16777215
176
     1
 90
        1
176
     1
 90
        4
176
     1
 62
     7
176
     1
 62
   257
176
     1
 90
        1
176
     1
 90
        1
176
     1
 40
1.0
176
     1
 90
       12
176
     1
 62
     7
176
     1
 40
1.0
176
     1
 90
        1
176
     1
 90
        6
176
     1
 90
        2
176
     1
 62
     7
176
     1
 90
        5
176
     1
 90
        0
176
     1
 90
        0
176
     1
290
     0
176
     1
 90
        1
176
     1
 40
0.0
176
     1
 90
        0
176
     1
290
     0
176
     1
290
     1
176
     1
290
     1
176
     1
290
     0
176
     1
290
     0
176
     1
290
     0
176
     1
290
     0
176
     1
290
     0
176
     1
290
     0
176
     1
 90
       50
176
     1
 40
0.0
176
     1
 40
1.0
176
     1
 90
        0
176
     1
 62
    18
420
        0
176
     1
 90
       50
176
     1
 90
        3
176
     1
 62
     5
420
      255
176
     1
290
     0
176
     1
 90
       50
176
     1
 90
       50
176
     1
 90
       50
176
     1
290
     0
176
     1
 90
       50
176
     1
 62
   256
176
     0
 40
1.0
176
     0
 90
        2
176
     1
  1
strokes_ogs.tif
176
     1
290
     0
176
     1
 40
1.0
176
     1
 40
1.0
176
     1
  0
VISUALSTYLE
  5
E3
102
{ACAD_REACTORS
330
99
102
}
330
99
100
AcDbVisualStyle
  2
Wireframe
 70
     5
177
     3
291
     0
 70
    58
 90
        0
176
     1
 90
        2
176
     1
 90
        0
176
     1
 90
        0
176
     1
 40
0.6
176
     1
 40
30.0
176
     1
 62
     7
420
 16777215
176
     1
 90
        1
176
     1
 90
        4
176
     1
 62
     7
176
     1
 62
   257
176
     1
 90
        1
176
     1
 90
        1
176
     1
 40
1.0
176
     1
 90
        0
176
     1
 62
   257
176
     1
 40
1.0
176
     1
 90
        1
176
     1
 90
        6
176
     1
 90
        2
176
     1
 62
     7
176
     1
 90
        3
176
     1
 90
        0
176
     1
 90
        0
176
     1
290
     0
176
     1
 90
        1
176
     1
 40
0.0
176
     1
 90
        0
176
     1
290
     0
176
     1
290
     1
176
     1
290
     1
176
     1
290
     0
176
     1
290
     0
176
     1
290
     0
176
     1
290
     0
176
     1
290
     0
176
     1
290
     0
176
     1
 90
       50
176
     1
 40
0.0
176
     1
 40
1.0
176
     1
 90
        0
176
     1
 62
    18
420
        0
176
     1
 90
       50
176
     1
 90
        3
176
     1
 62
     5
420
      255
176
     1
290
     0
176
     1
 90
       50
176
     1
 90
       50
176
     1
 90
       50
176
     1
290
     0
176
     1
 90
       50
176
     1
 62
   256
176
     0
 40
1.0
176
     0
 90
        2
176
     1
  1
strokes_ogs.tif
176
     1
290
     0
176
     1
 40
1.0
176
     1
 40
1.0
176
     1
  0
VISUALSTYLE
  5
EA
102
{ACAD_REACTORS
330
99
102
}
330
99
100
AcDbVisualStyle
  2
X-Ray
 70
    25
177
     3
291
     0
 70
    58
 90
        2
176
     1
 90
        2
176
     1
 90
        1
176
     1
 90
        1
176
     1
 40
0.5
176
     1
 40
30.0
176
     1
 62
     7
420
 16777215
176
     1
 90
        1
176
     1
 90
        0
176
     1
 62
     7
176
     1
 62
   257
176
     1
 90
        1
176
     1
 90
        1
176
     1
 40
1.0
176
     1
 90
        8
176
     1
 62
     7
176
     1
 40
1.0
176
     1
 90
        1
176
     1
 90
        6
176
     1
 90
        2
176
     1
 62
     7
176
     1
 90
        3
176
     1
 90
        0
176
     1
 90
        0
176
     1
290
     0
176
     1
 90
       13
176
     1
 40
0.0
176
     1
 90
        0
176
     1
290
     0
176
     1
290
     1
176
     1
290
     1
176
     1
290
     0
176
     1
290
     0
176
     1
290
     0
176
     1
290
     0
176
     1
290
     0
176
     1
290
     0
176
     1
 90
       50
176
     1
 40
0.0
176
     1
 40
1.0
176
     1
 90
        0
176
     1
 62
    18
420
        0
176
     1
 90
       50
176
     1
 90
        3
176
     1
 62
     5
420
      255
176
     1
290
     0
176
     1
 90
       50
176
     1
 90
       50
176
     1
 90
       50
176
     1
290
     0
176
     1
 90
       50
176
     1
 62
   256
176
     0
 40
1.0
176
     0
 90
        2
176
     1
  1
strokes_ogs.tif
176
     1
290
     0
176
     1
 40
1.0
176
     1
 40
1.0
176
     1
  0
DICTIONARYVAR
  5
D8
102
{ACAD_REACTORS
330
66
102
}
330
66
100
DictionaryVariables
280
     0
  1
1:1
  0
DICTIONARYVAR
  5
89
102
{ACAD_REACTORS
330
66
102
}
330
66
100
DictionaryVariables
280
     0
  1
Standard
  0
DICTIONARYVAR
  5
67
102
{ACAD_REACTORS
330
66
102
}
330
66
100
DictionaryVariables
280
     0
  1
2
  0
DICTIONARYVAR
  5
6B
102
{ACAD_REACTORS
330
66
102
}
330
66
100
DictionaryVariables
280
     0
  1
1
  0
DICTIONARYVAR
  5
DF
102
{ACAD_REACTORS
330
66
102
}
330
66
100
DictionaryVariables
280
     0
  1
0
  0
DICTIONARYVAR
  5
E0
102
{ACAD_REACTORS
330
66
102
}
330
66
100
DictionaryVariables
280
     0
  1
0
  0
DICTIONARY
  5
767
330
87
100
AcDbDictionary
280
     1
281
     1
  3
ACAD_ROUNDTRIP_2008_TABLESTYLE_CELLSTYLEMAP
360
768
  0
CELLSTYLEMAP
  5
768
102
{ACAD_REACTORS
330
767
102
}
330
767
100
AcDbCellStyleMap
 90
        3
300
CELLSTYLE
  1
TABLEFORMAT_BEGIN
 90
        5
170
     1
 91
        0
 92
    32768
 62
   257
 93
        1
300
CONTENTFORMAT
  1
CONTENTFORMAT_BEGIN
 90
        0
 91
        0
 92
      512
 93
        0
300

 40
0.0
140
1.0
 94
        5
 62
     0
340
11
144
0.25
309
CONTENTFORMAT_END
171
     0
 94
        6
 95
        1
302
GRIDFORMAT
  1
GRIDFORMAT_BEGIN
 90
        0
 91
        1
 62
     0
 92
       -2
340
0
 93
        0
 40
0.045
309
GRIDFORMAT_END
 95
        2
302
GRIDFORMAT
  1
GRIDFORMAT_BEGIN
 90
        0
 91
        1
 62
     0
 92
       -2
340
0
 93
        0
 40
0.045
309
GRIDFORMAT_END
 95
        4
302
GRIDFORMAT
  1
GRIDFORMAT_BEGIN
 90
        0
 91
        1
 62
     0
 92
       -2
340
0
 93
        0
 40
0.045
309
GRIDFORMAT_END
 95
        8
302
GRIDFORMAT
  1
GRIDFORMAT_BEGIN
 90
        0
 91
        1
 62
     0
 92
       -2
340
0
 93
        0
 40
0.045
309
GRIDFORMAT_END
 95
       16
302
GRIDFORMAT
  1
GRIDFORMAT_BEGIN
 90
        0
 91
        1
 62
     0
 92
       -2
340
0
 93
        0
 40
0.045
309
GRIDFORMAT_END
 95
       32
302
GRIDFORMAT
  1
GRIDFORMAT_BEGIN
 90
        0
 91
        1
 62
     0
 92
       -2
340
0
 93
        0
 40
0.045
309
GRIDFORMAT_END
309
TABLEFORMAT_END
  1
CELLSTYLE_BEGIN
 90
        1
 91
        1
300
_TITLE
309
CELLSTYLE_END
300
CELLSTYLE
  1
TABLEFORMAT_BEGIN
 90
        5
170
     1
 91
        0
 92
        0
 62
   257
 93
        1
300
CONTENTFORMAT
  1
CONTENTFORMAT_BEGIN
 90
        0
 91
        0
 92
      512
 93
        0
300

 40
0.0
140
1.0
 94
        5
 62
     0
340
11
144
0.18
309
CONTENTFORMAT_END
171
     0
 94
        6
 95
        1
302
GRIDFORMAT
  1
GRIDFORMAT_BEGIN
 90
        0
 91
        1
 62
     0
 92
       -2
340
0
 93
        0
 40
0.045
309
GRIDFORMAT_END
 95
        2
302
GRIDFORMAT
  1
GRIDFORMAT_BEGIN
 90
        0
 91
        1
 62
     0
 92
       -2
340
0
 93
        0
 40
0.045
309
GRIDFORMAT_END
 95
        4
302
GRIDFORMAT
  1
GRIDFORMAT_BEGIN
 90
        0
 91
        1
 62
     0
 92
       -2
340
0
 93
        0
 40
0.045
309
GRIDFORMAT_END
 95
        8
302
GRIDFORMAT
  1
GRIDFORMAT_BEGIN
 90
        0
 91
        1
 62
     0
 92
       -2
340
0
 93
        0
 40
0.045
309
GRIDFORMAT_END
 95
       16
302
GRIDFORMAT
  1
GRIDFORMAT_BEGIN
 90
        0
 91
        1
 62
     0
 92
       -2
340
0
 93
        0
 40
0.045
309
GRIDFORMAT_END
 95
       32
302
GRIDFORMAT
  1
GRIDFORMAT_BEGIN
 90
        0
 91
        1
 62
     0
 92
       -2
340
0
 93
        0
 40
0.045
309
GRIDFORMAT_END
309
TABLEFORMAT_END
  1
CELLSTYLE_BEGIN
 90
        2
 91
        1
300
_HEADER
309
CELLSTYLE_END
300
CELLSTYLE
  1
TABLEFORMAT_BEGIN
 90
        5
170
     1
 91
        0
 92
        0
 62
   257
 93
        1
300
CONTENTFORMAT
  1
CONTENTFORMAT_BEGIN
 90
        0
 91
        0
 92
      512
 93
        0
300

 40
0.0
140
1.0
 94
        2
 62
     0
340
11
144
0.18
309
CONTENTFORMAT_END
171
     0
 94
        6
 95
        1
302
GRIDFORMAT
  1
GRIDFORMAT_BEGIN
 90
        0
 91
        1
 62
     0
 92
       -2
340
0
 93
        0
 40
0.045
309
GRIDFORMAT_END
 95
        2
302
GRIDFORMAT
  1
GRIDFORMAT_BEGIN
 90
        0
 91
        1
 62
     0
 92
       -2
340
0
 93
        0
 40
0.045
309
GRIDFORMAT_END
 95
        4
302
GRIDFORMAT
  1
GRIDFORMAT_BEGIN
 90
        0
 91
        1
 62
     0
 92
       -2
340
0
 93
        0
 40
0.045
309
GRIDFORMAT_END
 95
        8
302
GRIDFORMAT
  1
GRIDFORMAT_BEGIN
 90
        0
 91
        1
 62
     0
 92
       -2
340
0
 93
        0
 40
0.045
309
GRIDFORMAT_END
 95
       16
302
GRIDFORMAT
  1
GRIDFORMAT_BEGIN
 90
        0
 91
        1
 62
     0
 92
       -2
340
0
 93
        0
 40
0.045
309
GRIDFORMAT_END
 95
       32
302
GRIDFORMAT
  1
GRIDFORMAT_BEGIN
 90
        0
 91
        1
 62
     0
 92
       -2
340
0
 93
        0
 40
0.045
309
GRIDFORMAT_END
309
TABLEFORMAT_END
  1
CELLSTYLE_BEGIN
 90
        3
 91
        2
300
_DATA
309
CELLSTYLE_END
  0
ENDSEC
  0
EOF
