  0
SECTION
  2
HEADER
  9
$ACADVER
  1
AC1021
  9
$ACADMAINTVER
 70
    25
  9
$DWGCODEPAGE
  3
ANSI_932
  9
$LASTSAVEDBY
  1
Yasu
  9
$INSBASE
 10
0.0
 20
0.0
 30
0.0
  9
$EXTMIN
 10
3.27638663431653
 20
43.48669041171462
 30
0.0
  9
$EXTMAX
 10
251.1511364449687
 20
233.8895748058821
 30
0.0
  9
$LIMMIN
 10
0.0
 20
0.0
  9
$LIMMAX
 10
12.0
 20
9.0
  9
$ORTHOMODE
 70
     0
  9
$REGENMODE
 70
     1
  9
$FILLMODE
 70
     1
  9
$QTEXTMODE
 70
     0
  9
$MIRRTEXT
 70
     0
  9
$LTSCALE
 40
1.0
  9
$ATTMODE
 70
     1
  9
$TEXTSIZE
 40
0.2
  9
$TRACEWID
 40
0.05
  9
$TEXTSTYLE
  7
Standard
  9
$CLAYER
  8
0
  9
$CELTYPE
  6
ByLayer
  9
$CECOLOR
 62
   256
  9
$CELTSCALE
 40
1.0
  9
$DISPSILH
 70
     0
  9
$DIMSCALE
 40
1.0
  9
$DIMASZ
 40
0.18
  9
$DIMEXO
 40
0.0625
  9
$DIMDLI
 40
0.38
  9
$DIMRND
 40
0.0
  9
$DIMDLE
 40
0.0
  9
$DIMEXE
 40
0.18
  9
$DIMTP
 40
0.0
  9
$DIMTM
 40
0.0
  9
$DIMTXT
 40
0.18
  9
$DIMCEN
 40
0.09
  9
$DIMTSZ
 40
0.0
  9
$DIMTOL
 70
     0
  9
$DIMLIM
 70
     0
  9
$DIMTIH
 70
     1
  9
$DIMTOH
 70
     1
  9
$DIMSE1
 70
     0
  9
$DIMSE2
 70
     0
  9
$DIMTAD
 70
     0
  9
$DIMZIN
 70
     0
  9
$DIMBLK
  1

  9
$DIMASO
 70
     1
  9
$DIMSHO
 70
     1
  9
$DIMPOST
  1

  9
$DIMAPOST
  1

  9
$DIMALT
 70
     0
  9
$DIMALTD
 70
     2
  9
$DIMALTF
 40
25.4
  9
$DIMLFAC
 40
1.0
  9
$DIMTOFL
 70
     0
  9
$DIMTVP
 40
0.0
  9
$DIMTIX
 70
     0
  9
$DIMSOXD
 70
     0
  9
$DIMSAH
 70
     0
  9
$DIMBLK1
  1

  9
$DIMBLK2
  1

  9
$DIMSTYLE
  2
Standard
  9
$DIMCLRD
 70
     0
  9
$DIMCLRE
 70
     0
  9
$DIMCLRT
 70
     0
  9
$DIMTFAC
 40
1.0
  9
$DIMGAP
 40
0.09
  9
$DIMJUST
 70
     0
  9
$DIMSD1
 70
     0
  9
$DIMSD2
 70
     0
  9
$DIMTOLJ
 70
     1
  9
$DIMTZIN
 70
     0
  9
$DIMALTZ
 70
     0
  9
$DIMALTTZ
 70
     0
  9
$DIMUPT
 70
     0
  9
$DIMDEC
 70
     4
  9
$DIMTDEC
 70
     4
  9
$DIMALTU
 70
     2
  9
$DIMALTTD
 70
     2
  9
$DIMTXSTY
  7
Standard
  9
$DIMAUNIT
 70
     0
  9
$DIMADEC
 70
     0
  9
$DIMALTRND
 40
0.0
  9
$DIMAZIN
 70
     0
  9
$DIMDSEP
 70
    46
  9
$DIMATFIT
 70
     3
  9
$DIMFRAC
 70
     0
  9
$DIMLDRBLK
  1

  9
$DIMLUNIT
 70
     2
  9
$DIMLWD
 70
    -2
  9
$DIMLWE
 70
    -2
  9
$DIMTMOVE
 70
     0
  9
$DIMFXL
 40
1.0
  9
$DIMFXLON
 70
     0
  9
$DIMJOGANG
 40
0.7853981633974483
  9
$DIMTFILL
 70
     0
  9
$DIMTFILLCLR
 70
     0
  9
$DIMARCSYM
 70
     0
  9
$DIMLTYPE
  6

  9
$DIMLTEX1
  6

  9
$DIMLTEX2
  6

  9
$LUNITS
 70
     2
  9
$LUPREC
 70
     4
  9
$SKETCHINC
 40
0.1
  9
$FILLETRAD
 40
0.0
  9
$AUNITS
 70
     0
  9
$AUPREC
 70
     0
  9
$MENU
  1
.
  9
$ELEVATION
 40
0.0
  9
$PELEVATION
 40
0.0
  9
$THICKNESS
 40
0.0
  9
$LIMCHECK
 70
     0
  9
$CHAMFERA
 40
0.0
  9
$CHAMFERB
 40
0.0
  9
$CHAMFERC
 40
0.0
  9
$CHAMFERD
 40
0.0
  9
$SKPOLY
 70
     0
  9
$TDCREATE
 40
2452643.438384271
  9
$TDUCREATE
 40
2452643.063384271
  9
$TDUPDATE
 40
2456739.9171286
  9
$TDUUPDATE
 40
2456739.5421286
  9
$TDINDWG
 40
0.0018034375
  9
$TDUSRTIMER
 40
2456739.541946748
  9
$USRTIMER
 70
     1
  9
$ANGBASE
 50
0.0
  9
$ANGDIR
 70
     0
  9
$PDMODE
 70
     0
  9
$PDSIZE
 40
0.0
  9
$PLINEWID
 40
0.0
  9
$SPLFRAME
 70
     0
  9
$SPLINETYPE
 70
     6
  9
$SPLINESEGS
 70
     8
  9
$HANDSEED
  5
2F1
  9
$SURFTAB1
 70
     6
  9
$SURFTAB2
 70
     6
  9
$SURFTYPE
 70
     6
  9
$SURFU
 70
     6
  9
$SURFV
 70
     6
  9
$UCSBASE
  2

  9
$UCSNAME
  2

  9
$UCSORG
 10
0.0
 20
0.0
 30
0.0
  9
$UCSXDIR
 10
1.0
 20
0.0
 30
0.0
  9
$UCSYDIR
 10
0.0
 20
1.0
 30
0.0
  9
$UCSORTHOREF
  2

  9
$UCSORTHOVIEW
 70
     0
  9
$UCSORGTOP
 10
0.0
 20
0.0
 30
0.0
  9
$UCSORGBOTTOM
 10
0.0
 20
0.0
 30
0.0
  9
$UCSORGLEFT
 10
0.0
 20
0.0
 30
0.0
  9
$UCSORGRIGHT
 10
0.0
 20
0.0
 30
0.0
  9
$UCSORGFRONT
 10
0.0
 20
0.0
 30
0.0
  9
$UCSORGBACK
 10
0.0
 20
0.0
 30
0.0
  9
$PUCSBASE
  2

  9
$PUCSNAME
  2

  9
$PUCSORG
 10
0.0
 20
0.0
 30
0.0
  9
$PUCSXDIR
 10
1.0
 20
0.0
 30
0.0
  9
$PUCSYDIR
 10
0.0
 20
1.0
 30
0.0
  9
$PUCSORTHOREF
  2

  9
$PUCSORTHOVIEW
 70
     0
  9
$PUCSORGTOP
 10
0.0
 20
0.0
 30
0.0
  9
$PUCSORGBOTTOM
 10
0.0
 20
0.0
 30
0.0
  9
$PUCSORGLEFT
 10
0.0
 20
0.0
 30
0.0
  9
$PUCSORGRIGHT
 10
0.0
 20
0.0
 30
0.0
  9
$PUCSORGFRONT
 10
0.0
 20
0.0
 30
0.0
  9
$PUCSORGBACK
 10
0.0
 20
0.0
 30
0.0
  9
$USERI1
 70
     0
  9
$USERI2
 70
     0
  9
$USERI3
 70
     0
  9
$USERI4
 70
     0
  9
$USERI5
 70
     0
  9
$USERR1
 40
0.0
  9
$USERR2
 40
0.0
  9
$USERR3
 40
0.0
  9
$USERR4
 40
0.0
  9
$USERR5
 40
0.0
  9
$WORLDVIEW
 70
     1
  9
$SHADEDGE
 70
     3
  9
$SHADEDIF
 70
    70
  9
$TILEMODE
 70
     1
  9
$MAXACTVP
 70
    64
  9
$PINSBASE
 10
0.0
 20
0.0
 30
0.0
  9
$PLIMCHECK
 70
     0
  9
$PEXTMIN
 10
0.0
 20
0.0
 30
0.0
  9
$PEXTMAX
 10
0.0
 20
0.0
 30
0.0
  9
$PLIMMIN
 10
0.0
 20
0.0
  9
$PLIMMAX
 10
0.0
 20
0.0
  9
$UNITMODE
 70
     0
  9
$VISRETAIN
 70
     1
  9
$PLINEGEN
 70
     0
  9
$PSLTSCALE
 70
     1
  9
$TREEDEPTH
 70
  3020
  9
$CMLSTYLE
  2
Standard
  9
$CMLJUST
 70
     0
  9
$CMLSCALE
 40
1.0
  9
$PROXYGRAPHICS
 70
     1
  9
$MEASUREMENT
 70
     0
  9
$CELWEIGHT
370
    -1
  9
$ENDCAPS
280
     0
  9
$JOINSTYLE
280
     0
  9
$LWDISPLAY
290
     0
  9
$INSUNITS
 70
     1
  9
$HYPERLINKBASE
  1

  9
$STYLESHEET
  1

  9
$XEDIT
290
     1
  9
$CEPSNTYPE
380
     0
  9
$PSTYLEMODE
290
     1
  9
$FINGERPRINTGUID
  2
{FDEAD576-A652-11D2-9A35-0060089B3A3F}
  9
$VERSIONGUID
  2
{FBC2AE19-5C5C-49EC-81BC-71B1A3362A02}
  9
$EXTNAMES
290
     1
  9
$PSVPSCALE
 40
0.0
  9
$OLESTARTUP
290
     0
  9
$SORTENTS
280
   127
  9
$INDEXCTL
280
     0
  9
$HIDETEXT
280
     1
  9
$XCLIPFRAME
290
     0
  9
$HALOGAP
280
     0
  9
$OBSCOLOR
 70
   257
  9
$OBSLTYPE
280
     0
  9
$INTERSECTIONDISPLAY
280
     0
  9
$INTERSECTIONCOLOR
 70
   257
  9
$DIMASSOC
280
     2
  9
$PROJECTNAME
  1

  9
$CAMERADISPLAY
290
     0
  9
$LENSLENGTH
 40
50.0
  9
$CAMERAHEIGHT
 40
0.0
  9
$STEPSPERSEC
 40
2.0
  9
$STEPSIZE
 40
6.0
  9
$3DDWFPREC
 40
2.0
  9
$PSOLWIDTH
 40
0.25
  9
$PSOLHEIGHT
 40
4.0
  9
$LOFTANG1
 40
1.570796326794897
  9
$LOFTANG2
 40
1.570796326794897
  9
$LOFTMAG1
 40
0.0
  9
$LOFTMAG2
 40
0.0
  9
$LOFTPARAM
 70
     7
  9
$LOFTNORMALS
280
     1
  9
$LATITUDE
 40
37.795
  9
$LONGITUDE
 40
-122.394
  9
$NORTHDIRECTION
 40
0.0
  9
$TIMEZONE
 70
 -8000
  9
$LIGHTGLYPHDISPLAY
280
     1
  9
$TILEMODELIGHTSYNCH
280
     1
  9
$CMATERIAL
347
96
  9
$SOLIDHIST
280
     1
  9
$SHOWHIST
280
     1
  9
$DWFFRAME
280
     2
  9
$DGNFRAME
280
     0
  9
$REALWORLDSCALE
290
     1
  9
$INTERFERECOLOR
 62
     1
  9
$CSHADOW
280
     0
  9
$SHADOWPLANELOCATION
 40
0.0
  0
ENDSEC
  0
SECTION
  2
CLASSES
  0
CLASS
  1
ACDBDICTIONARYWDFLT
  2
AcDbDictionaryWithDefault
  3
ObjectDBX Classes
 90
        0
 91
        5
280
     0
281
     0
  0
CLASS
  1
ACDBPLACEHOLDER
  2
AcDbPlaceHolder
  3
ObjectDBX Classes
 90
        0
 91
        1
280
     0
281
     0
  0
CLASS
  1
LAYOUT
  2
AcDbLayout
  3
ObjectDBX Classes
 90
        0
 91
        1
280
     0
281
     0
  0
CLASS
  1
DICTIONARYVAR
  2
AcDbDictionaryVar
  3
ObjectDBX Classes
 90
        0
 91
        4
280
     0
281
     0
  0
CLASS
  1
TABLESTYLE
  2
AcDbTableStyle
  3
ObjectDBX Classes
 90
     4095
 91
        5
280
     0
281
     0
  0
CLASS
  1
MATERIAL
  2
AcDbMaterial
  3
ObjectDBX Classes
 90
     1153
 91
        5
280
     0
281
     0
  0
CLASS
  1
VISUALSTYLE
  2
AcDbVisualStyle
  3
ObjectDBX Classes
 90
     4095
 91
        5
280
     0
281
     0
  0
CLASS
  1
SCALE
  2
AcDbScale
  3
ObjectDBX Classes
 90
     1153
 91
        5
280
     0
281
     0
  0
CLASS
  1
CELLSTYLEMAP
  2
AcDbCellStyleMap
  3
ObjectDBX Classes
 90
     1152
 91
        4
280
     0
281
     0
  0
CLASS
  1
RASTERVARIABLES
  2
AcDbRasterVariables
  3
ISM
 90
        0
 91
        5
280
     0
281
     0
  0
CLASS
  1
SUN
  2
AcDbSun
  3
SCENEOE
 90
     1153
 91
        5
280
     0
281
     0
  0
CLASS
  1
DIMASSOC
  2
AcDbDimAssoc
  3
"AcDbDimAssoc|Product Desc:     AcDim ARX App For Dimension|Company:          Autodesk, Inc.|WEB Address:      www.autodesk.com"
 90
        0
 91
        4
280
     0
281
     0
  0
ENDSEC
  0
SECTION
  2
TABLES
  0
TABLE
  2
VPORT
  5
8
330
0
100
AcDbSymbolTable
 70
     1
  0
VPORT
  5
94
330
8
100
AcDbSymbolTableRecord
100
AcDbViewportTableRecord
  2
*Active
 70
     0
 10
0.0
 20
0.0
 11
1.0
 21
1.0
 12
154.8833551056225
 22
158.2268355666604
 13
0.0
 23
0.0
 14
0.5
 24
0.5
 15
0.5
 25
0.5
 16
0.0
 26
0.0
 36
1.0
 17
-27.66959356597988
 27
-19.53870295786203
 37
0.0
 40
194.2109420820508
 41
1.762376237623762
 42
50.0
 43
0.0
 44
0.0
 50
0.0
 51
0.0
 71
    16
 72
  1000
 73
     1
 74
     3
 75
     0
 76
     0
 77
     0
 78
     0
281
     0
 65
     1
110
0.0
120
0.0
130
0.0
111
1.0
121
0.0
131
0.0
112
0.0
122
1.0
132
0.0
 79
     0
146
0.0
348
9F
 60
     2
 61
     5
292
     1
282
     1
141
0.0
142
0.0
 63
   250
421
  3355443
361
ED
  0
ENDTAB
  0
TABLE
  2
LTYPE
  5
5
330
0
100
AcDbSymbolTable
 70
     2
  0
LTYPE
  5
14
330
5
100
AcDbSymbolTableRecord
100
AcDbLinetypeTableRecord
  2
ByBlock
 70
     0
  3

 72
    65
 73
     0
 40
0.0
  0
LTYPE
  5
15
330
5
100
AcDbSymbolTableRecord
100
AcDbLinetypeTableRecord
  2
ByLayer
 70
     0
  3

 72
    65
 73
     0
 40
0.0
  0
LTYPE
  5
16
330
5
100
AcDbSymbolTableRecord
100
AcDbLinetypeTableRecord
  2
Continuous
 70
     0
  3
Solid line
 72
    65
 73
     0
 40
0.0
  0
LTYPE
  5
12A
330
5
100
AcDbSymbolTableRecord
100
AcDbLinetypeTableRecord
  2
CENTER
 70
     0
  3
Center ____ _ ____ _ ____ _ ____ _ ____ _ ____
 72
    65
 73
     4
 40
50.8
 49
31.75
 74
     0
 49
-6.35
 74
     0
 49
6.35
 74
     0
 49
-6.35
 74
     0
  0
ENDTAB
  0
TABLE
  2
LAYER
  5
2
330
0
100
AcDbSymbolTable
 70
     7
  0
LAYER
  5
10
330
2
100
AcDbSymbolTableRecord
100
AcDbLayerTableRecord
  2
0
 70
     0
 62
     7
  6
Continuous
370
    -3
390
F
347
98
  0
LAYER
  5
125
330
2
100
AcDbSymbolTableRecord
100
AcDbLayerTableRecord
  2
Defpoints
 70
     0
 62
     7
  6
Continuous
290
     0
370
    -3
390
F
347
98
  0
LAYER
  5
126
330
2
100
AcDbSymbolTableRecord
100
AcDbLayerTableRecord
  2
枠
 70
     0
 62
     1
  6
Continuous
370
    30
390
F
347
98
  0
LAYER
  5
128
330
2
100
AcDbSymbolTableRecord
100
AcDbLayerTableRecord
  2
文字
 70
     0
 62
     7
  6
Continuous
370
    25
390
F
347
98
  0
LAYER
  5
129
330
2
100
AcDbSymbolTableRecord
100
AcDbLayerTableRecord
  2
中心線
 70
     0
 62
     7
  6
CENTER
370
    30
390
F
347
98
  0
LAYER
  5
12B
330
2
100
AcDbSymbolTableRecord
100
AcDbLayerTableRecord
  2
実線
 70
     0
 62
     7
  6
Continuous
370
    50
390
F
347
98
  0
LAYER
  5
2BC
330
2
100
AcDbSymbolTableRecord
100
AcDbLayerTableRecord
  2
文字・寸法線
 70
     0
 62
     7
  6
Continuous
370
    13
390
F
347
98
  0
ENDTAB
  0
TABLE
  2
STYLE
  5
3
330
0
100
AcDbSymbolTable
 70
     1
  0
STYLE
  5
11
330
3
100
AcDbSymbolTableRecord
100
AcDbTextStyleTableRecord
  2
Standard
 70
     0
 40
0.0
 41
1.0
 50
0.0
 71
     0
 42
0.2
  3
arial.ttf
  4

1001
ACAD
1000
Arial
1071
        0
  0
ENDTAB
  0
TABLE
  2
VIEW
  5
6
330
0
100
AcDbSymbolTable
 70
     0
  0
ENDTAB
  0
TABLE
  2
UCS
  5
7
330
0
100
AcDbSymbolTable
 70
     0
  0
ENDTAB
  0
TABLE
  2
APPID
  5
9
330
0
100
AcDbSymbolTable
 70
     1
  0
APPID
  5
12
330
9
100
AcDbSymbolTableRecord
100
AcDbRegAppTableRecord
  2
ACAD
 70
     0
  0
ENDTAB
  0
TABLE
  2
DIMSTYLE
  5
A
330
0
100
AcDbSymbolTable
 70
     2
100
AcDbDimStyleTable
  0
DIMSTYLE
105
27
330
A
100
AcDbSymbolTableRecord
100
AcDbDimStyleTableRecord
  2
Standard
 70
     0
178
     0
340
11
  0
DIMSTYLE
105
12C
102
{ACAD_REACTORS
330
235
330
238
330
23E
330
23F
330
242
330
250
330
257
102
}
330
A
100
AcDbSymbolTableRecord
100
AcDbDimStyleTableRecord
  2
ISO-25
 70
     0
 41
2.5
 42
0.625
 43
3.75
 44
1.25
 73
     0
 74
     0
 77
     1
 78
     8
140
2.5
141
2.5
143
0.03937007874016
147
0.625
171
     3
172
     1
178
     0
271
     2
272
     2
274
     3
283
     0
284
     8
340
11
  0
ENDTAB
  0
TABLE
  2
BLOCK_RECORD
  5
1
330
0
100
AcDbSymbolTable
 70
    17
  0
BLOCK_RECORD
  5
1F
330
1
100
AcDbSymbolTableRecord
100
AcDbBlockTableRecord
  2
*Model_Space
340
22
 70
     0
280
     1
281
     0
  0
BLOCK_RECORD
  5
58
330
1
100
AcDbSymbolTableRecord
100
AcDbBlockTableRecord
  2
*Paper_Space
340
59
 70
     0
280
     1
281
     0
  0
BLOCK_RECORD
  5
5D
330
1
100
AcDbSymbolTableRecord
100
AcDbBlockTableRecord
  2
*Paper_Space0
340
5E
 70
     0
280
     1
281
     0
  0
BLOCK_RECORD
  5
180
330
1
100
AcDbSymbolTableRecord
100
AcDbBlockTableRecord
  2
*D1
340
0
 70
     0
280
     1
281
     0
  0
BLOCK_RECORD
  5
18F
330
1
100
AcDbSymbolTableRecord
100
AcDbBlockTableRecord
  2
*D2
340
0
 70
     0
280
     1
281
     0
  0
BLOCK_RECORD
  5
19E
330
1
100
AcDbSymbolTableRecord
100
AcDbBlockTableRecord
  2
*D3
340
0
 70
     0
280
     1
281
     0
  0
BLOCK_RECORD
  5
1AB
330
1
100
AcDbSymbolTableRecord
100
AcDbBlockTableRecord
  2
*D4
340
0
 70
     0
280
     1
281
     0
  0
BLOCK_RECORD
  5
1BA
330
1
100
AcDbSymbolTableRecord
100
AcDbBlockTableRecord
  2
*D5
340
0
 70
     0
280
     1
281
     0
  0
BLOCK_RECORD
  5
1C7
330
1
100
AcDbSymbolTableRecord
100
AcDbBlockTableRecord
  2
*D6
340
0
 70
     0
280
     1
281
     0
  0
BLOCK_RECORD
  5
1E3
330
1
100
AcDbSymbolTableRecord
100
AcDbBlockTableRecord
  2
*D7
340
0
 70
     0
280
     1
281
     0
  0
BLOCK_RECORD
  5
1F4
330
1
100
AcDbSymbolTableRecord
100
AcDbBlockTableRecord
  2
*D8
340
0
 70
     0
280
     1
281
     0
  0
BLOCK_RECORD
  5
258
330
1
100
AcDbSymbolTableRecord
100
AcDbBlockTableRecord
  2
*D9
340
0
 70
     0
280
     1
281
     0
  0
BLOCK_RECORD
  5
264
330
1
100
AcDbSymbolTableRecord
100
AcDbBlockTableRecord
  2
*D10
340
0
 70
     0
280
     1
281
     0
  0
BLOCK_RECORD
  5
270
330
1
100
AcDbSymbolTableRecord
100
AcDbBlockTableRecord
  2
*D11
340
0
 70
     0
280
     1
281
     0
  0
BLOCK_RECORD
  5
27C
330
1
100
AcDbSymbolTableRecord
100
AcDbBlockTableRecord
  2
*D12
340
0
 70
     0
280
     1
281
     0
  0
BLOCK_RECORD
  5
288
330
1
100
AcDbSymbolTableRecord
100
AcDbBlockTableRecord
  2
*D13
340
0
 70
     0
280
     1
281
     0
  0
BLOCK_RECORD
  5
294
330
1
100
AcDbSymbolTableRecord
100
AcDbBlockTableRecord
  2
*D14
340
0
 70
     0
280
     1
281
     0
  0
BLOCK_RECORD
  5
2A0
330
1
100
AcDbSymbolTableRecord
100
AcDbBlockTableRecord
  2
*D15
340
0
 70
     0
280
     1
281
     0
  0
BLOCK_RECORD
  5
2AC
330
1
100
AcDbSymbolTableRecord
100
AcDbBlockTableRecord
  2
*D16
340
0
 70
     0
280
     1
281
     0
  0
ENDTAB
  0
ENDSEC
  0
SECTION
  2
BLOCKS
  0
BLOCK
  5
20
330
1F
100
AcDbEntity
  8
0
100
AcDbBlockBegin
  2
*Model_Space
 70
     0
 10
0.0
 20
0.0
 30
0.0
  3
*Model_Space
  1
*Model_Space
  0
ENDBLK
  5
21
330
1F
100
AcDbEntity
  8
0
100
AcDbBlockEnd
  0
BLOCK
  5
5A
330
58
100
AcDbEntity
 67
     1
  8
0
100
AcDbBlockBegin
  2
*Paper_Space
 70
     0
 10
0.0
 20
0.0
 30
0.0
  3
*Paper_Space
  1
*Paper_Space
  0
ENDBLK
  5
5B
330
58
100
AcDbEntity
 67
     1
  8
0
100
AcDbBlockEnd
  0
BLOCK
  5
5F
330
5D
100
AcDbEntity
  8
0
100
AcDbBlockBegin
  2
*Paper_Space0
 70
     0
 10
0.0
 20
0.0
 30
0.0
  3
*Paper_Space0
  1
*Paper_Space0
  0
ENDBLK
  5
60
330
5D
100
AcDbEntity
  8
0
100
AcDbBlockEnd
  0
BLOCK
  5
181
330
180
100
AcDbEntity
  8
0
100
AcDbBlockBegin
  2
*D1
 70
     1
 10
0.0
 20
0.0
 30
0.0
  3
*D1
  1
*D2
  0
LINE
  5
182
330
180
100
AcDbEntity
  8
文字
 62
     0
370
    -2
100
AcDbLine
 10
148.60752516424
 20
113.3142925395108
 30
0.0
 11
148.60752516424
 21
56.04579839180828
 31
0.0
  0
LINE
  5
183
330
180
100
AcDbEntity
  8
文字
 62
     0
370
    -2
100
AcDbLine
 10
180.60752516424
 20
113.3142925395108
 30
0.0
 11
180.60752516424
 21
56.04579839180828
 31
0.0
  0
LINE
  5
184
330
180
100
AcDbEntity
  8
文字
 62
     0
370
    -2
100
AcDbLine
 10
151.10752516424
 20
57.29579839180828
 30
0.0
 11
178.10752516424
 21
57.29579839180828
 31
0.0
  0
SOLID
  5
185
330
180
100
AcDbEntity
  8
文字
 62
     0
100
AcDbTrace
 10
151.10752516424
 20
57.71246505847494
 30
0.0
 11
151.10752516424
 21
56.87913172514161
 31
0.0
 12
148.60752516424
 22
57.29579839180828
 32
0.0
 13
148.60752516424
 23
57.29579839180828
 33
0.0
  0
SOLID
  5
186
330
180
100
AcDbEntity
  8
文字
 62
     0
100
AcDbTrace
 10
178.10752516424
 20
56.87913172514161
 30
0.0
 11
178.10752516424
 21
57.71246505847494
 31
0.0
 12
180.60752516424
 22
57.29579839180828
 32
0.0
 13
180.60752516424
 23
57.29579839180828
 33
0.0
  0
MTEXT
  5
187
330
180
100
AcDbEntity
  8
文字
 62
     0
100
AcDbMText
 10
164.60752516424
 20
59.24412717762001
 30
0.0
 40
2.5
 41
0.0
 46
0.0
 71
     5
 72
     1
  1
%%c32
 73
     1
 44
1.0
  0
POINT
  5
188
330
180
100
AcDbEntity
  8
Defpoints
 62
     0
100
AcDbPoint
 10
148.60752516424
 20
113.9392925395108
 30
0.0
  0
POINT
  5
189
330
180
100
AcDbEntity
  8
Defpoints
 62
     0
100
AcDbPoint
 10
180.60752516424
 20
113.9392925395108
 30
0.0
  0
POINT
  5
18A
330
180
100
AcDbEntity
  8
Defpoints
 62
     0
100
AcDbPoint
 10
180.60752516424
 20
57.29579839180828
 30
0.0
  0
ENDBLK
  5
18B
330
180
100
AcDbEntity
  8
0
100
AcDbBlockEnd
  0
BLOCK
  5
190
330
18F
100
AcDbEntity
  8
0
100
AcDbBlockBegin
  2
*D2
 70
     1
 10
0.0
 20
0.0
 30
0.0
  3
*D2
  1
*D3
  0
LINE
  5
191
330
18F
100
AcDbEntity
  8
文字
 62
     0
370
    -2
100
AcDbLine
 10
139.60752516424
 20
113.3142925395108
 30
0.0
 11
139.60752516424
 21
47.85685701394938
 31
0.0
  0
LINE
  5
192
330
18F
100
AcDbEntity
  8
文字
 62
     0
370
    -2
100
AcDbLine
 10
189.60752516424
 20
113.3142925395108
 30
0.0
 11
189.60752516424
 21
47.85685701394938
 31
0.0
  0
LINE
  5
193
330
18F
100
AcDbEntity
  8
文字
 62
     0
370
    -2
100
AcDbLine
 10
142.10752516424
 20
49.10685701394938
 30
0.0
 11
187.10752516424
 21
49.10685701394938
 31
0.0
  0
SOLID
  5
194
330
18F
100
AcDbEntity
  8
文字
 62
     0
100
AcDbTrace
 10
142.10752516424
 20
49.52352368061604
 30
0.0
 11
142.10752516424
 21
48.69019034728272
 31
0.0
 12
139.60752516424
 22
49.10685701394938
 32
0.0
 13
139.60752516424
 23
49.10685701394938
 33
0.0
  0
SOLID
  5
195
330
18F
100
AcDbEntity
  8
文字
 62
     0
100
AcDbTrace
 10
187.10752516424
 20
48.69019034728272
 30
0.0
 11
187.10752516424
 21
49.52352368061604
 31
0.0
 12
189.60752516424
 22
49.10685701394938
 32
0.0
 13
189.60752516424
 23
49.10685701394938
 33
0.0
  0
MTEXT
  5
196
330
18F
100
AcDbEntity
  8
文字
 62
     0
100
AcDbMText
 10
164.60752516424
 20
51.05518579976111
 30
0.0
 40
2.5
 41
0.0
 46
0.0
 71
     5
 72
     1
  1
%%c50
 73
     1
 44
1.0
  0
POINT
  5
197
330
18F
100
AcDbEntity
  8
Defpoints
 62
     0
100
AcDbPoint
 10
139.60752516424
 20
113.9392925395108
 30
0.0
  0
POINT
  5
198
330
18F
100
AcDbEntity
  8
Defpoints
 62
     0
100
AcDbPoint
 10
189.60752516424
 20
113.9392925395108
 30
0.0
  0
POINT
  5
199
330
18F
100
AcDbEntity
  8
Defpoints
 62
     0
100
AcDbPoint
 10
189.60752516424
 20
49.10685701394938
 30
0.0
  0
ENDBLK
  5
19A
330
18F
100
AcDbEntity
  8
0
100
AcDbBlockEnd
  0
BLOCK
  5
19F
330
19E
100
AcDbEntity
  8
0
100
AcDbBlockBegin
  2
*D3
 70
     1
 10
0.0
 20
0.0
 30
0.0
  3
*D3
  1
*D4
  0
LINE
  5
1A0
330
19E
100
AcDbEntity
  8
文字
 62
     0
370
    -2
100
AcDbLine
 10
2.0
 20
24.66359071806519
 30
0.0
 11
2.0
 21
4.138731003619878
 31
0.0
  0
LINE
  5
1A1
330
19E
100
AcDbEntity
  8
文字
 62
     0
370
    -2
100
AcDbLine
 10
48.0
 20
24.66359071806519
 30
0.0
 11
48.0
 21
4.138731003619878
 31
0.0
  0
LINE
  5
1A2
330
19E
100
AcDbEntity
  8
文字
 62
     0
370
    -2
100
AcDbLine
 10
4.5
 20
5.388731003619878
 30
0.0
 11
45.5
 21
5.388731003619878
 31
0.0
  0
SOLID
  5
1A3
330
19E
100
AcDbEntity
  8
文字
 62
     0
100
AcDbTrace
 10
4.5
 20
5.805397670286545
 30
0.0
 11
4.5
 21
4.972064336953211
 31
0.0
 12
2.0
 22
5.388731003619878
 32
0.0
 13
2.0
 23
5.388731003619878
 33
0.0
  0
SOLID
  5
1A4
330
19E
100
AcDbEntity
  8
文字
 62
     0
100
AcDbTrace
 10
45.5
 20
4.972064336953211
 30
0.0
 11
45.5
 21
5.805397670286545
 31
0.0
 12
48.0
 22
5.388731003619878
 32
0.0
 13
48.0
 23
5.388731003619878
 33
0.0
  0
MTEXT
  5
1A5
330
19E
100
AcDbEntity
  8
文字
 62
     0
100
AcDbMText
 10
25.0
 20
7.33705978943161
 30
0.0
 40
2.5
 41
0.0
 46
0.0
 71
     5
 72
     1
  1
%%c46
 73
     1
 44
1.0
  0
POINT
  5
1A6
330
19E
100
AcDbEntity
  8
Defpoints
 62
     0
100
AcDbPoint
 10
2.0
 20
25.28859071806519
 30
0.0
  0
POINT
  5
1A7
330
19E
100
AcDbEntity
  8
Defpoints
 62
     0
100
AcDbPoint
 10
48.0
 20
25.28859071806519
 30
0.0
  0
POINT
  5
1A8
330
19E
100
AcDbEntity
  8
Defpoints
 62
     0
100
AcDbPoint
 10
48.0
 20
5.388731003619878
 30
0.0
  0
ENDBLK
  5
1A9
330
19E
100
AcDbEntity
  8
0
100
AcDbBlockEnd
  0
BLOCK
  5
1AC
330
1AB
100
AcDbEntity
  8
0
100
AcDbBlockBegin
  2
*D4
 70
     1
 10
0.0
 20
0.0
 30
0.0
  3
*D4
  1
*D5
  0
LINE
  5
1AD
330
1AB
100
AcDbEntity
  8
文字
 62
     0
370
    -2
100
AcDbLine
 10
18.93820839067194
 20
151.2885907180653
 30
0.0
 11
18.93820839067194
 21
164.4859278777339
 31
0.0
  0
LINE
  5
1AE
330
1AB
100
AcDbEntity
  8
文字
 62
     0
370
    -2
100
AcDbLine
 10
30.93820839067193
 20
151.2885907180653
 30
0.0
 11
30.93820839067193
 21
164.4859278777339
 31
0.0
  0
LINE
  5
1AF
330
1AB
100
AcDbEntity
  8
文字
 62
     0
370
    -2
100
AcDbLine
 10
21.43820839067194
 20
163.2359278777339
 30
0.0
 11
28.43820839067193
 21
163.2359278777339
 31
0.0
  0
SOLID
  5
1B0
330
1AB
100
AcDbEntity
  8
文字
 62
     0
100
AcDbTrace
 10
21.43820839067194
 20
163.6525945444006
 30
0.0
 11
21.43820839067194
 21
162.8192612110673
 31
0.0
 12
18.93820839067194
 22
163.2359278777339
 32
0.0
 13
18.93820839067194
 23
163.2359278777339
 33
0.0
  0
SOLID
  5
1B1
330
1AB
100
AcDbEntity
  8
文字
 62
     0
100
AcDbTrace
 10
28.43820839067193
 20
162.8192612110673
 30
0.0
 11
28.43820839067193
 21
163.6525945444006
 31
0.0
 12
30.93820839067193
 22
163.2359278777339
 32
0.0
 13
30.93820839067193
 23
163.2359278777339
 33
0.0
  0
MTEXT
  5
1B2
330
1AB
100
AcDbEntity
  8
文字
 62
     0
100
AcDbMText
 10
24.93820839067194
 20
165.1160438395347
 30
0.0
 40
2.5
 41
0.0
 46
0.0
 71
     5
 72
     1
  1
{\fArial|b0|i0|c0|p32;M }12
 73
     1
 44
1.0
  0
POINT
  5
1B3
330
1AB
100
AcDbEntity
  8
Defpoints
 62
     0
100
AcDbPoint
 10
18.93820839067194
 20
150.6635907180653
 30
0.0
  0
POINT
  5
1B4
330
1AB
100
AcDbEntity
  8
Defpoints
 62
     0
100
AcDbPoint
 10
30.93820839067193
 20
150.6635907180653
 30
0.0
  0
POINT
  5
1B5
330
1AB
100
AcDbEntity
  8
Defpoints
 62
     0
100
AcDbPoint
 10
30.93820839067193
 20
163.2359278777339
 30
0.0
  0
ENDBLK
  5
1B6
330
1AB
100
AcDbEntity
  8
0
100
AcDbBlockEnd
  0
BLOCK
  5
1BB
330
1BA
100
AcDbEntity
  8
0
100
AcDbBlockBegin
  2
*D5
 70
     1
 10
0.0
 20
0.0
 30
0.0
  3
*D5
  1
*D6
  0
LINE
  5
1BC
330
1BA
100
AcDbEntity
  8
文字
 62
     0
370
    -2
100
AcDbLine
 10
155.1245469928004
 20
107.8392925395109
 30
0.0
 11
155.1245469928004
 21
63.81367494565497
 31
0.0
  0
LINE
  5
1BD
330
1BA
100
AcDbEntity
  8
文字
 62
     0
370
    -2
100
AcDbLine
 10
174.0905033356796
 20
107.8392925395109
 30
0.0
 11
174.0905033356796
 21
63.81367494565497
 31
0.0
  0
LINE
  5
1BE
330
1BA
100
AcDbEntity
  8
文字
 62
     0
370
    -2
100
AcDbLine
 10
157.6245469928004
 20
65.06367494565497
 30
0.0
 11
171.5905033356796
 21
65.06367494565497
 31
0.0
  0
SOLID
  5
1BF
330
1BA
100
AcDbEntity
  8
文字
 62
     0
100
AcDbTrace
 10
157.6245469928004
 20
65.48034161232164
 30
0.0
 11
157.6245469928004
 21
64.6470082789883
 31
0.0
 12
155.1245469928004
 22
65.06367494565497
 32
0.0
 13
155.1245469928004
 23
65.06367494565497
 33
0.0
  0
SOLID
  5
1C0
330
1BA
100
AcDbEntity
  8
文字
 62
     0
100
AcDbTrace
 10
171.5905033356796
 20
64.6470082789883
 30
0.0
 11
171.5905033356796
 21
65.48034161232164
 31
0.0
 12
174.0905033356796
 22
65.06367494565497
 32
0.0
 13
174.0905033356796
 23
65.06367494565497
 33
0.0
  0
MTEXT
  5
1C1
330
1BA
100
AcDbEntity
  8
文字
 62
     0
100
AcDbMText
 10
164.7036859132444
 20
66.96425475465907
 30
0.0
 40
2.5
 41
0.0
 46
0.0
 71
     5
 72
     1
  1
19
 73
     1
 44
1.0
  0
POINT
  5
1C2
330
1BA
100
AcDbEntity
  8
Defpoints
 62
     0
100
AcDbPoint
 10
155.1245469928004
 20
108.4642925395109
 30
0.0
  0
POINT
  5
1C3
330
1BA
100
AcDbEntity
  8
Defpoints
 62
     0
100
AcDbPoint
 10
174.0905033356796
 20
108.4642925395109
 30
0.0
  0
POINT
  5
1C4
330
1BA
100
AcDbEntity
  8
Defpoints
 62
     0
100
AcDbPoint
 10
174.0905033356796
 20
65.06367494565497
 30
0.0
  0
ENDBLK
  5
1C5
330
1BA
100
AcDbEntity
  8
0
100
AcDbBlockEnd
  0
BLOCK
  5
1C8
330
1C7
100
AcDbEntity
  8
0
100
AcDbBlockBegin
  2
*D6
 70
     1
 10
0.0
 20
0.0
 30
0.0
  3
*D6
  1
*D7
  0
LINE
  5
1C9
330
1C7
100
AcDbEntity
  8
文字
 62
     0
370
    -2
100
AcDbLine
 10
36.57499999999993
 20
43.25305681213247
 30
0.0
 11
69.82965090719648
 21
43.25305681213247
 31
0.0
  0
LINE
  5
1CA
330
1C7
100
AcDbEntity
  8
文字
 62
     0
370
    -2
100
AcDbLine
 10
36.57499999999993
 20
51.28859071806521
 30
0.0
 11
69.82965090719648
 21
51.28859071806521
 31
0.0
  0
LINE
  5
1CB
330
1C7
100
AcDbEntity
  8
文字
 62
     0
370
    -2
100
AcDbLine
 10
68.57965090719648
 20
45.75305681213247
 30
0.0
 11
68.57965090719648
 21
48.78859071806521
 31
0.0
  0
SOLID
  5
1CC
330
1C7
100
AcDbEntity
  8
文字
 62
     0
100
AcDbTrace
 10
68.16298424052981
 20
45.75305681213247
 30
0.0
 11
68.99631757386315
 21
45.75305681213247
 31
0.0
 12
68.57965090719648
 22
43.25305681213247
 32
0.0
 13
68.57965090719648
 23
43.25305681213247
 33
0.0
  0
SOLID
  5
1CD
330
1C7
100
AcDbEntity
  8
文字
 62
     0
100
AcDbTrace
 10
68.99631757386315
 20
48.78859071806521
 30
0.0
 11
68.16298424052981
 21
48.78859071806521
 31
0.0
 12
68.57965090719648
 22
51.28859071806521
 32
0.0
 13
68.57965090719648
 23
51.28859071806521
 33
0.0
  0
MTEXT
  5
1CE
330
1C7
100
AcDbEntity
  8
文字
 62
     0
100
AcDbMText
 10
66.6790710981924
 20
47.27082376509884
 30
0.0
 40
2.5
 41
0.0
 46
0.0
 71
     5
 72
     1
  1
8
 11
0.0
 21
1.0
 31
0.0
 73
     1
 44
1.0
  0
POINT
  5
1CF
330
1C7
100
AcDbEntity
  8
Defpoints
 62
     0
100
AcDbPoint
 10
35.94999999999993
 20
43.25305681213247
 30
0.0
  0
POINT
  5
1D0
330
1C7
100
AcDbEntity
  8
Defpoints
 62
     0
100
AcDbPoint
 10
35.94999999999993
 20
51.28859071806521
 30
0.0
  0
POINT
  5
1D1
330
1C7
100
AcDbEntity
  8
Defpoints
 62
     0
100
AcDbPoint
 10
68.57965090719648
 20
51.28859071806521
 30
0.0
  0
ENDBLK
  5
1D2
330
1C7
100
AcDbEntity
  8
0
100
AcDbBlockEnd
  0
BLOCK
  5
1E4
330
1E3
100
AcDbEntity
  8
0
100
AcDbBlockBegin
  2
*D7
 70
     1
 10
0.0
 20
0.0
 30
0.0
  3
*D7
  1
*D8
  0
LINE
  5
1E5
330
1E3
100
AcDbEntity
  8
文字
 62
     0
370
    -2
100
AcDbLine
 10
35.98619151048361
 20
43.28858956135818
 30
0.0
 11
69.82965090719648
 21
43.28858956135818
 31
0.0
  0
LINE
  5
1E6
330
1E3
100
AcDbEntity
  8
文字
 62
     0
370
    -2
100
AcDbLine
 10
48.625
 20
25.28859071806519
 30
0.0
 11
69.82965090719648
 21
25.28859071806519
 31
0.0
  0
LINE
  5
1E7
330
1E3
100
AcDbEntity
  8
文字
 62
     0
370
    -2
100
AcDbLine
 10
68.57965090719648
 20
40.78858956135818
 30
0.0
 11
68.57965090719648
 21
27.78859071806519
 31
0.0
  0
SOLID
  5
1E8
330
1E3
100
AcDbEntity
  8
文字
 62
     0
100
AcDbTrace
 10
68.99631757386315
 20
40.78858956135818
 30
0.0
 11
68.16298424052981
 21
40.78858956135818
 31
0.0
 12
68.57965090719648
 22
43.28858956135818
 32
0.0
 13
68.57965090719648
 23
43.28858956135818
 33
0.0
  0
SOLID
  5
1E9
330
1E3
100
AcDbEntity
  8
文字
 62
     0
100
AcDbTrace
 10
68.16298424052981
 20
27.78859071806519
 30
0.0
 11
68.99631757386315
 21
27.78859071806519
 31
0.0
 12
68.57965090719648
 22
25.28859071806519
 32
0.0
 13
68.57965090719648
 23
25.28859071806519
 33
0.0
  0
MTEXT
  5
1EA
330
1E3
100
AcDbEntity
  8
文字
 62
     0
100
AcDbMText
 10
66.6790710981924
 20
34.28859013971169
 30
0.0
 40
2.5
 41
0.0
 46
0.0
 71
     5
 72
     1
  1
19
 11
0.0
 21
1.0
 31
0.0
 73
     1
 44
1.0
  0
POINT
  5
1EB
330
1E3
100
AcDbEntity
  8
Defpoints
 62
     0
100
AcDbPoint
 10
35.36119151048361
 20
43.28858956135818
 30
0.0
  0
POINT
  5
1EC
330
1E3
100
AcDbEntity
  8
Defpoints
 62
     0
100
AcDbPoint
 10
48.0
 20
25.28859071806519
 30
0.0
  0
POINT
  5
1ED
330
1E3
100
AcDbEntity
  8
Defpoints
 62
     0
100
AcDbPoint
 10
68.57965090719648
 20
25.28859071806519
 30
0.0
  0
ENDBLK
  5
1EE
330
1E3
100
AcDbEntity
  8
0
100
AcDbBlockEnd
  0
BLOCK
  5
1F5
330
1F4
100
AcDbEntity
  8
0
100
AcDbBlockBegin
  2
*D8
 70
     1
 10
0.0
 20
0.0
 30
0.0
  3
*D8
  1
*D9
  0
LINE
  5
1F6
330
1F4
100
AcDbEntity
  8
文字
 62
     0
370
    -2
100
AcDbLine
 10
31.56320839067193
 20
151.2885907180653
 30
0.0
 11
69.82965090719648
 21
151.2885907180653
 31
0.0
  0
LINE
  5
1F7
330
1F4
100
AcDbEntity
  8
文字
 62
     0
370
    -2
100
AcDbLine
 10
37.19999999999993
 20
51.28859071806521
 30
0.0
 11
69.82965090719648
 21
51.28859071806521
 31
0.0
  0
LINE
  5
1F8
330
1F4
100
AcDbEntity
  8
文字
 62
     0
370
    -2
100
AcDbLine
 10
68.57965090719648
 20
148.7885907180653
 30
0.0
 11
68.57965090719648
 21
53.78859071806521
 31
0.0
  0
SOLID
  5
1F9
330
1F4
100
AcDbEntity
  8
文字
 62
     0
100
AcDbTrace
 10
68.99631757386315
 20
148.7885907180653
 30
0.0
 11
68.16298424052981
 21
148.7885907180653
 31
0.0
 12
68.57965090719648
 22
151.2885907180653
 32
0.0
 13
68.57965090719648
 23
151.2885907180653
 33
0.0
  0
SOLID
  5
1FA
330
1F4
100
AcDbEntity
  8
文字
 62
     0
100
AcDbTrace
 10
68.16298424052981
 20
53.78859071806521
 30
0.0
 11
68.99631757386315
 21
53.78859071806521
 31
0.0
 12
68.57965090719648
 22
51.28859071806521
 32
0.0
 13
68.57965090719648
 23
51.28859071806521
 33
0.0
  0
MTEXT
  5
1FB
330
1F4
100
AcDbEntity
  8
文字
 62
     0
100
AcDbMText
 10
66.67907109819238
 20
101.2885907180652
 30
0.0
 40
2.5
 41
0.0
 46
0.0
 71
     5
 72
     1
  1
100
 11
0.0
 21
1.0
 31
0.0
 73
     1
 44
1.0
  0
POINT
  5
1FC
330
1F4
100
AcDbEntity
  8
Defpoints
 62
     0
100
AcDbPoint
 10
30.93820839067193
 20
151.2885907180653
 30
0.0
  0
POINT
  5
1FD
330
1F4
100
AcDbEntity
  8
Defpoints
 62
     0
100
AcDbPoint
 10
36.57499999999993
 20
51.28859071806521
 30
0.0
  0
POINT
  5
1FE
330
1F4
100
AcDbEntity
  8
Defpoints
 62
     0
100
AcDbPoint
 10
68.57965090719648
 20
51.28859071806521
 30
0.0
  0
ENDBLK
  5
1FF
330
1F4
100
AcDbEntity
  8
0
100
AcDbBlockEnd
  0
BLOCK
  5
259
330
258
100
AcDbEntity
  8
0
100
AcDbBlockBegin
  2
*D9
 70
     1
 10
0.0
 20
0.0
 30
0.0
  3
*D9
  1
*D10
  0
LINE
  5
25B
330
258
100
AcDbEntity
  8
文字
 62
     0
370
    -2
100
AcDbLine
 10
187.6791292197119
 20
151.9959957186381
 30
0.0
 11
187.6791292197119
 21
94.72750157093554
 31
0.0
  0
LINE
  5
25C
330
258
100
AcDbEntity
  8
文字
 62
     0
370
    -2
100
AcDbLine
 10
219.6791292197119
 20
151.9959957186381
 30
0.0
 11
219.6791292197119
 21
94.72750157093554
 31
0.0
  0
LINE
  5
25D
330
258
100
AcDbEntity
  8
文字
 62
     0
370
    -2
100
AcDbLine
 10
190.1791292197119
 20
95.97750157093554
 30
0.0
 11
217.1791292197119
 21
95.97750157093554
 31
0.0
  0
SOLID
  5
25E
330
258
100
AcDbEntity
  8
文字
 62
     0
100
AcDbTrace
 10
190.1791292197119
 20
96.39416823760222
 30
0.0
 11
190.1791292197119
 21
95.56083490426887
 31
0.0
 12
187.6791292197119
 22
95.97750157093554
 32
0.0
 13
187.6791292197119
 23
95.97750157093554
 33
0.0
  0
SOLID
  5
25F
330
258
100
AcDbEntity
  8
文字
 62
     0
100
AcDbTrace
 10
217.1791292197119
 20
95.56083490426887
 30
0.0
 11
217.1791292197119
 21
96.39416823760222
 31
0.0
 12
219.6791292197119
 22
95.97750157093554
 32
0.0
 13
219.6791292197119
 23
95.97750157093554
 33
0.0
  0
MTEXT
  5
260
330
258
100
AcDbEntity
  8
文字
 62
     0
100
AcDbMText
 10
203.6791292197119
 20
97.92583035674728
 30
0.0
 40
2.5
 41
0.0
 46
0.0
 71
     5
 72
     1
  1
%%c32
 73
     1
 44
1.0
  0
POINT
  5
261
330
258
100
AcDbEntity
  8
Defpoints
 62
     0
100
AcDbPoint
 10
187.6791292197119
 20
152.6209957186381
 30
0.0
  0
POINT
  5
262
330
258
100
AcDbEntity
  8
Defpoints
 62
     0
100
AcDbPoint
 10
219.6791292197119
 20
152.6209957186381
 30
0.0
  0
POINT
  5
263
330
258
100
AcDbEntity
  8
Defpoints
 62
     0
100
AcDbPoint
 10
219.6791292197119
 20
95.97750157093554
 30
0.0
  0
ENDBLK
  5
25A
330
258
100
AcDbEntity
  8
0
100
AcDbBlockEnd
  0
BLOCK
  5
265
330
264
100
AcDbEntity
  8
0
100
AcDbBlockBegin
  2
*D10
 70
     1
 10
0.0
 20
0.0
 30
0.0
  3
*D10
  1
*D11
  0
LINE
  5
267
330
264
100
AcDbEntity
  8
文字
 62
     0
370
    -2
100
AcDbLine
 10
39.16048304653907
 20
68.52320442016907
 30
0.0
 11
39.16048304653907
 21
43.48669041171462
 31
0.0
  0
LINE
  5
268
330
264
100
AcDbEntity
  8
文字
 62
     0
370
    -2
100
AcDbLine
 10
89.16048304653907
 20
68.52320442016907
 30
0.0
 11
89.16048304653907
 21
43.48669041171462
 31
0.0
  0
LINE
  5
269
330
264
100
AcDbEntity
  8
文字
 62
     0
370
    -2
100
AcDbLine
 10
41.66048304653907
 20
44.73669041171462
 30
0.0
 11
86.66048304653907
 21
44.73669041171462
 31
0.0
  0
SOLID
  5
26A
330
264
100
AcDbEntity
  8
文字
 62
     0
100
AcDbTrace
 10
41.66048304653907
 20
45.15335707838128
 30
0.0
 11
41.66048304653907
 21
44.32002374504795
 31
0.0
 12
39.16048304653907
 22
44.73669041171462
 32
0.0
 13
39.16048304653907
 23
44.73669041171462
 33
0.0
  0
SOLID
  5
26B
330
264
100
AcDbEntity
  8
文字
 62
     0
100
AcDbTrace
 10
86.66048304653907
 20
44.32002374504795
 30
0.0
 11
86.66048304653907
 21
45.15335707838128
 31
0.0
 12
89.16048304653907
 22
44.73669041171462
 32
0.0
 13
89.16048304653907
 23
44.73669041171462
 33
0.0
  0
MTEXT
  5
26C
330
264
100
AcDbEntity
  8
文字
 62
     0
100
AcDbMText
 10
64.18536730124274
 20
46.68294041171462
 30
0.0
 40
2.5
 41
0.0
 46
0.0
 71
     5
 72
     1
  1
%%c50
 73
     1
 44
1.0
  0
POINT
  5
26D
330
264
100
AcDbEntity
  8
Defpoints
 62
     0
100
AcDbPoint
 10
39.16048304653907
 20
69.14820442016907
 30
0.0
  0
POINT
  5
26E
330
264
100
AcDbEntity
  8
Defpoints
 62
     0
100
AcDbPoint
 10
89.16048304653907
 20
69.14820442016907
 30
0.0
  0
POINT
  5
26F
330
264
100
AcDbEntity
  8
Defpoints
 62
     0
100
AcDbPoint
 10
89.16048304653907
 20
44.73669041171462
 30
0.0
  0
ENDBLK
  5
266
330
264
100
AcDbEntity
  8
0
100
AcDbBlockEnd
  0
BLOCK
  5
271
330
270
100
AcDbEntity
  8
0
100
AcDbBlockBegin
  2
*D11
 70
     1
 10
0.0
 20
0.0
 30
0.0
  3
*D11
  1
*D12
  0
LINE
  5
273
330
270
100
AcDbEntity
  8
文字
 62
     0
370
    -2
100
AcDbLine
 10
41.07160405547187
 20
63.34529389719246
 30
0.0
 11
41.07160405547187
 21
42.82043418274715
 31
0.0
  0
LINE
  5
274
330
270
100
AcDbEntity
  8
文字
 62
     0
370
    -2
100
AcDbLine
 10
87.07160405547187
 20
63.34529389719246
 30
0.0
 11
87.07160405547187
 21
42.82043418274715
 31
0.0
  0
LINE
  5
275
330
270
100
AcDbEntity
  8
文字
 62
     0
370
    -2
100
AcDbLine
 10
43.57160405547187
 20
44.07043418274715
 30
0.0
 11
84.57160405547187
 21
44.07043418274715
 31
0.0
  0
SOLID
  5
276
330
270
100
AcDbEntity
  8
文字
 62
     0
100
AcDbTrace
 10
43.57160405547187
 20
44.48710084941381
 30
0.0
 11
43.57160405547187
 21
43.65376751608049
 31
0.0
 12
41.07160405547187
 22
44.07043418274715
 32
0.0
 13
41.07160405547187
 23
44.07043418274715
 33
0.0
  0
SOLID
  5
277
330
270
100
AcDbEntity
  8
文字
 62
     0
100
AcDbTrace
 10
84.57160405547187
 20
43.65376751608049
 30
0.0
 11
84.57160405547187
 21
44.48710084941381
 31
0.0
 12
87.07160405547187
 22
44.07043418274715
 32
0.0
 13
87.07160405547187
 23
44.07043418274715
 33
0.0
  0
MTEXT
  5
278
330
270
100
AcDbEntity
  8
文字
 62
     0
100
AcDbMText
 10
64.07160405547187
 20
46.01876296855888
 30
0.0
 40
2.5
 41
0.0
 46
0.0
 71
     5
 72
     1
  1
%%c46
 73
     1
 44
1.0
  0
POINT
  5
279
330
270
100
AcDbEntity
  8
Defpoints
 62
     0
100
AcDbPoint
 10
41.07160405547187
 20
63.97029389719246
 30
0.0
  0
POINT
  5
27A
330
270
100
AcDbEntity
  8
Defpoints
 62
     0
100
AcDbPoint
 10
87.07160405547187
 20
63.97029389719246
 30
0.0
  0
POINT
  5
27B
330
270
100
AcDbEntity
  8
Defpoints
 62
     0
100
AcDbPoint
 10
87.07160405547187
 20
44.07043418274715
 30
0.0
  0
ENDBLK
  5
272
330
270
100
AcDbEntity
  8
0
100
AcDbBlockEnd
  0
BLOCK
  5
27D
330
27C
100
AcDbEntity
  8
0
100
AcDbBlockBegin
  2
*D12
 70
     1
 10
0.0
 20
0.0
 30
0.0
  3
*D12
  1
*D13
  0
LINE
  5
27F
330
27C
100
AcDbEntity
  8
文字
 62
     0
370
    -2
100
AcDbLine
 10
58.0098124461438
 20
189.9702938971925
 30
0.0
 11
58.0098124461438
 21
203.1676310568612
 31
0.0
  0
LINE
  5
280
330
27C
100
AcDbEntity
  8
文字
 62
     0
370
    -2
100
AcDbLine
 10
70.0098124461438
 20
189.9702938971925
 30
0.0
 11
70.0098124461438
 21
203.1676310568612
 31
0.0
  0
LINE
  5
281
330
27C
100
AcDbEntity
  8
文字
 62
     0
370
    -2
100
AcDbLine
 10
60.5098124461438
 20
201.9176310568612
 30
0.0
 11
67.5098124461438
 21
201.9176310568612
 31
0.0
  0
SOLID
  5
282
330
27C
100
AcDbEntity
  8
文字
 62
     0
100
AcDbTrace
 10
60.5098124461438
 20
202.3342977235278
 30
0.0
 11
60.5098124461438
 21
201.5009643901945
 31
0.0
 12
58.0098124461438
 22
201.9176310568612
 32
0.0
 13
58.0098124461438
 23
201.9176310568612
 33
0.0
  0
SOLID
  5
283
330
27C
100
AcDbEntity
  8
文字
 62
     0
100
AcDbTrace
 10
67.5098124461438
 20
201.5009643901945
 30
0.0
 11
67.5098124461438
 21
202.3342977235278
 31
0.0
 12
70.0098124461438
 22
201.9176310568612
 32
0.0
 13
70.0098124461438
 23
201.9176310568612
 33
0.0
  0
MTEXT
  5
284
330
27C
100
AcDbEntity
  8
文字
 62
     0
100
AcDbMText
 10
64.0098124461438
 20
203.797747018662
 30
0.0
 40
2.5
 41
0.0
 46
0.0
 71
     5
 72
     1
  1
{\fArial|b0|i0|c0|p32;M }12
 73
     1
 44
1.0
  0
POINT
  5
285
330
27C
100
AcDbEntity
  8
Defpoints
 62
     0
100
AcDbPoint
 10
58.0098124461438
 20
189.3452938971925
 30
0.0
  0
POINT
  5
286
330
27C
100
AcDbEntity
  8
Defpoints
 62
     0
100
AcDbPoint
 10
70.0098124461438
 20
189.3452938971925
 30
0.0
  0
POINT
  5
287
330
27C
100
AcDbEntity
  8
Defpoints
 62
     0
100
AcDbPoint
 10
70.0098124461438
 20
201.9176310568612
 30
0.0
  0
ENDBLK
  5
27E
330
27C
100
AcDbEntity
  8
0
100
AcDbBlockEnd
  0
BLOCK
  5
289
330
288
100
AcDbEntity
  8
0
100
AcDbBlockBegin
  2
*D13
 70
     1
 10
0.0
 20
0.0
 30
0.0
  3
*D13
  1
*D14
  0
LINE
  5
28B
330
288
100
AcDbEntity
  8
文字
 62
     0
370
    -2
100
AcDbLine
 10
194.1961510482723
 20
146.5209957186381
 30
0.0
 11
194.1961510482723
 21
102.4953781247822
 31
0.0
  0
LINE
  5
28C
330
288
100
AcDbEntity
  8
文字
 62
     0
370
    -2
100
AcDbLine
 10
213.1621073911515
 20
146.5209957186381
 30
0.0
 11
213.1621073911515
 21
102.4953781247822
 31
0.0
  0
LINE
  5
28D
330
288
100
AcDbEntity
  8
文字
 62
     0
370
    -2
100
AcDbLine
 10
196.6961510482723
 20
103.7453781247822
 30
0.0
 11
210.6621073911515
 21
103.7453781247822
 31
0.0
  0
SOLID
  5
28E
330
288
100
AcDbEntity
  8
文字
 62
     0
100
AcDbTrace
 10
196.6961510482723
 20
104.1620447914489
 30
0.0
 11
196.6961510482723
 21
103.3287114581156
 31
0.0
 12
194.1961510482723
 22
103.7453781247822
 32
0.0
 13
194.1961510482723
 23
103.7453781247822
 33
0.0
  0
SOLID
  5
28F
330
288
100
AcDbEntity
  8
文字
 62
     0
100
AcDbTrace
 10
210.6621073911515
 20
103.3287114581156
 30
0.0
 11
210.6621073911515
 21
104.1620447914489
 31
0.0
 12
213.1621073911515
 22
103.7453781247822
 32
0.0
 13
213.1621073911515
 23
103.7453781247822
 33
0.0
  0
MTEXT
  5
290
330
288
100
AcDbEntity
  8
文字
 62
     0
100
AcDbMText
 10
203.7752899687163
 20
105.6459579337863
 30
0.0
 40
2.5
 41
0.0
 46
0.0
 71
     5
 72
     1
  1
19
 73
     1
 44
1.0
  0
POINT
  5
291
330
288
100
AcDbEntity
  8
Defpoints
 62
     0
100
AcDbPoint
 10
194.1961510482723
 20
147.1459957186381
 30
0.0
  0
POINT
  5
292
330
288
100
AcDbEntity
  8
Defpoints
 62
     0
100
AcDbPoint
 10
213.1621073911515
 20
147.1459957186381
 30
0.0
  0
POINT
  5
293
330
288
100
AcDbEntity
  8
Defpoints
 62
     0
100
AcDbPoint
 10
213.1621073911515
 20
103.7453781247822
 30
0.0
  0
ENDBLK
  5
28A
330
288
100
AcDbEntity
  8
0
100
AcDbBlockEnd
  0
BLOCK
  5
295
330
294
100
AcDbEntity
  8
0
100
AcDbBlockBegin
  2
*D14
 70
     1
 10
0.0
 20
0.0
 30
0.0
  3
*D14
  1
*D15
  0
LINE
  5
297
330
294
100
AcDbEntity
  8
文字
 62
     0
370
    -2
100
AcDbLine
 10
75.6466040554718
 20
81.93475999125974
 30
0.0
 11
108.9012549626683
 21
81.93475999125974
 31
0.0
  0
LINE
  5
298
330
294
100
AcDbEntity
  8
文字
 62
     0
370
    -2
100
AcDbLine
 10
75.6466040554718
 20
89.97029389719248
 30
0.0
 11
108.9012549626683
 21
89.97029389719248
 31
0.0
  0
LINE
  5
299
330
294
100
AcDbEntity
  8
文字
 62
     0
370
    -2
100
AcDbLine
 10
107.6512549626683
 20
84.43475999125974
 30
0.0
 11
107.6512549626683
 21
87.47029389719248
 31
0.0
  0
SOLID
  5
29A
330
294
100
AcDbEntity
  8
文字
 62
     0
100
AcDbTrace
 10
107.2345882960017
 20
84.43475999125974
 30
0.0
 11
108.067921629335
 21
84.43475999125974
 31
0.0
 12
107.6512549626683
 22
81.93475999125974
 32
0.0
 13
107.6512549626683
 23
81.93475999125974
 33
0.0
  0
SOLID
  5
29B
330
294
100
AcDbEntity
  8
文字
 62
     0
100
AcDbTrace
 10
108.067921629335
 20
87.47029389719248
 30
0.0
 11
107.2345882960017
 21
87.47029389719248
 31
0.0
 12
107.6512549626683
 22
89.97029389719248
 32
0.0
 13
107.6512549626683
 23
89.97029389719248
 33
0.0
  0
MTEXT
  5
29C
330
294
100
AcDbEntity
  8
文字
 62
     0
100
AcDbMText
 10
105.7506751536642
 20
85.95252694422611
 30
0.0
 40
2.5
 41
0.0
 46
0.0
 71
     5
 72
     1
  1
8
 11
0.0
 21
1.0
 31
0.0
 73
     1
 44
1.0
  0
POINT
  5
29D
330
294
100
AcDbEntity
  8
Defpoints
 62
     0
100
AcDbPoint
 10
75.0216040554718
 20
81.93475999125974
 30
0.0
  0
POINT
  5
29E
330
294
100
AcDbEntity
  8
Defpoints
 62
     0
100
AcDbPoint
 10
75.0216040554718
 20
89.97029389719248
 30
0.0
  0
POINT
  5
29F
330
294
100
AcDbEntity
  8
Defpoints
 62
     0
100
AcDbPoint
 10
107.6512549626683
 20
89.97029389719248
 30
0.0
  0
ENDBLK
  5
296
330
294
100
AcDbEntity
  8
0
100
AcDbBlockEnd
  0
BLOCK
  5
2A1
330
2A0
100
AcDbEntity
  8
0
100
AcDbBlockBegin
  2
*D15
 70
     1
 10
0.0
 20
0.0
 30
0.0
  3
*D15
  1
*D16
  0
LINE
  5
2A3
330
2A0
100
AcDbEntity
  8
文字
 62
     0
370
    -2
100
AcDbLine
 10
75.05779556595547
 20
81.97029274048545
 30
0.0
 11
108.9012549626683
 21
81.97029274048545
 31
0.0
  0
LINE
  5
2A4
330
2A0
100
AcDbEntity
  8
文字
 62
     0
370
    -2
100
AcDbLine
 10
87.69660405547187
 20
63.97029389719246
 30
0.0
 11
108.9012549626683
 21
63.97029389719246
 31
0.0
  0
LINE
  5
2A5
330
2A0
100
AcDbEntity
  8
文字
 62
     0
370
    -2
100
AcDbLine
 10
107.6512549626683
 20
79.47029274048545
 30
0.0
 11
107.6512549626683
 21
66.47029389719246
 31
0.0
  0
SOLID
  5
2A6
330
2A0
100
AcDbEntity
  8
文字
 62
     0
100
AcDbTrace
 10
108.067921629335
 20
79.47029274048545
 30
0.0
 11
107.2345882960016
 21
79.47029274048545
 31
0.0
 12
107.6512549626683
 22
81.97029274048545
 32
0.0
 13
107.6512549626683
 23
81.97029274048545
 33
0.0
  0
SOLID
  5
2A7
330
2A0
100
AcDbEntity
  8
文字
 62
     0
100
AcDbTrace
 10
107.2345882960016
 20
66.47029389719246
 30
0.0
 11
108.067921629335
 21
66.47029389719246
 31
0.0
 12
107.6512549626683
 22
63.97029389719246
 32
0.0
 13
107.6512549626683
 23
63.97029389719246
 33
0.0
  0
MTEXT
  5
2A8
330
2A0
100
AcDbEntity
  8
文字
 62
     0
100
AcDbMText
 10
105.7500049626683
 20
72.97029331883896
 30
0.0
 40
2.5
 41
0.0
 46
0.0
 71
     5
 72
     1
  1
18
 11
0.0
 21
1.0
 31
0.0
 73
     1
 44
1.0
  0
POINT
  5
2A9
330
2A0
100
AcDbEntity
  8
Defpoints
 62
     0
100
AcDbPoint
 10
74.43279556595547
 20
81.97029274048545
 30
0.0
  0
POINT
  5
2AA
330
2A0
100
AcDbEntity
  8
Defpoints
 62
     0
100
AcDbPoint
 10
87.07160405547187
 20
63.97029389719246
 30
0.0
  0
POINT
  5
2AB
330
2A0
100
AcDbEntity
  8
Defpoints
 62
     0
100
AcDbPoint
 10
107.6512549626683
 20
63.97029389719246
 30
0.0
  0
ENDBLK
  5
2A2
330
2A0
100
AcDbEntity
  8
0
100
AcDbBlockEnd
  0
BLOCK
  5
2AD
330
2AC
100
AcDbEntity
  8
0
100
AcDbBlockBegin
  2
*D16
 70
     1
 10
0.0
 20
0.0
 30
0.0
  3
*D16
  1
*D17
  0
LINE
  5
2AF
330
2AC
100
AcDbEntity
  8
文字
 62
     0
370
    -2
100
AcDbLine
 10
70.6348124461438
 20
189.9702938971925
 30
0.0
 11
108.9012549626683
 21
189.9702938971925
 31
0.0
  0
LINE
  5
2B0
330
2AC
100
AcDbEntity
  8
文字
 62
     0
370
    -2
100
AcDbLine
 10
76.2716040554718
 20
89.97029389719248
 30
0.0
 11
108.9012549626683
 21
89.97029389719248
 31
0.0
  0
LINE
  5
2B1
330
2AC
100
AcDbEntity
  8
文字
 62
     0
370
    -2
100
AcDbLine
 10
107.6512549626683
 20
187.4702938971925
 30
0.0
 11
107.6512549626683
 21
92.47029389719248
 31
0.0
  0
SOLID
  5
2B2
330
2AC
100
AcDbEntity
  8
文字
 62
     0
100
AcDbTrace
 10
108.067921629335
 20
187.4702938971925
 30
0.0
 11
107.2345882960017
 21
187.4702938971925
 31
0.0
 12
107.6512549626683
 22
189.9702938971925
 32
0.0
 13
107.6512549626683
 23
189.9702938971925
 33
0.0
  0
SOLID
  5
2B3
330
2AC
100
AcDbEntity
  8
文字
 62
     0
100
AcDbTrace
 10
107.2345882960017
 20
92.47029389719248
 30
0.0
 11
108.067921629335
 21
92.47029389719248
 31
0.0
 12
107.6512549626683
 22
89.97029389719248
 32
0.0
 13
107.6512549626683
 23
89.97029389719248
 33
0.0
  0
MTEXT
  5
2B4
330
2AC
100
AcDbEntity
  8
文字
 62
     0
100
AcDbMText
 10
105.7506751536643
 20
139.9702938971925
 30
0.0
 40
2.5
 41
0.0
 46
0.0
 71
     5
 72
     1
  1
100
 11
0.0
 21
1.0
 31
0.0
 73
     1
 44
1.0
  0
POINT
  5
2B5
330
2AC
100
AcDbEntity
  8
Defpoints
 62
     0
100
AcDbPoint
 10
70.0098124461438
 20
189.9702938971925
 30
0.0
  0
POINT
  5
2B6
330
2AC
100
AcDbEntity
  8
Defpoints
 62
     0
100
AcDbPoint
 10
75.6466040554718
 20
89.97029389719248
 30
0.0
  0
POINT
  5
2B7
330
2AC
100
AcDbEntity
  8
Defpoints
 62
     0
100
AcDbPoint
 10
107.6512549626683
 20
89.97029389719248
 30
0.0
  0
ENDBLK
  5
2AE
330
2AC
100
AcDbEntity
  8
0
100
AcDbBlockEnd
  0
ENDSEC
  0
SECTION
  2
ENTITIES
  0
LINE
  5
203
330
1F
100
AcDbEntity
  8
実線
100
AcDbLine
 10
53.72160405547179
 20
81.97029274048545
 30
0.0
 11
74.4436736094326
 21
81.97029274048545
 31
0.0
  0
LINE
  5
21A
330
1F
100
AcDbEntity
  8
中心線
 48
0.5
100
AcDbLine
 10
203.6791292197119
 20
152.6209957186381
 30
0.0
 11
203.6791292197119
 21
198.1588213583884
 31
0.0
  0
LINE
  5
21B
330
1F
100
AcDbEntity
  8
中心線
 48
0.5
100
AcDbLine
 10
203.6791292197119
 20
152.6209957186381
 30
0.0
 11
203.6791292197119
 21
110.8022295056851
 31
0.0
  0
LINE
  5
21C
330
1F
100
AcDbEntity
  8
実線
100
AcDbLine
 10
54.48462162691736
 20
81.97029274048542
 30
0.0
 11
73.65858648402623
 21
81.97029274048545
 31
0.0
  0
LINE
  5
21D
330
1F
100
AcDbEntity
  8
中心線
100
AcDbLine
 10
64.07160405547178
 20
195.6122931141845
 30
0.0
 11
64.0716040554718
 21
50.73284400316653
 31
0.0
  0
LINE
  5
220
102
{ACAD_REACTORS
330
237
102
}
330
1F
100
AcDbEntity
  8
中心線
 48
0.5
100
AcDbLine
 10
203.6791292197119
 20
152.6209957186381
 30
0.0
 11
155.3083142165903
 21
152.6209957186381
 31
0.0
  0
LINE
  5
221
102
{ACAD_REACTORS
330
237
102
}
330
1F
100
AcDbEntity
  8
中心線
 48
0.5
100
AcDbLine
 10
203.6791292197119
 20
152.6209957186381
 30
0.0
 11
251.1511364449687
 21
152.6209957186381
 31
0.0
  0
LINE
  5
222
330
1F
100
AcDbEntity
  8
実線
100
AcDbLine
 10
89.07160405547187
 20
68.47029389719246
 30
0.0
 11
89.07160405547181
 21
75.17029389719245
 31
0.0
  0
LINE
  5
223
330
1F
100
AcDbEntity
  8
実線
100
AcDbLine
 10
86.2716040554718
 20
77.97029389719246
 30
0.0
 11
80.24284515948862
 21
77.97029389719246
 31
0.0
  0
LINE
  5
224
330
1F
100
AcDbEntity
  8
実線
100
AcDbLine
 10
89.07160405547187
 20
68.47029389719246
 30
0.0
 11
39.07160405547187
 21
68.47029389719246
 31
0.0
  0
ARC
  5
225
330
1F
100
AcDbEntity
  8
実線
100
AcDbCircle
 10
80.2428451594886
 20
78.7702938971925
 30
0.0
 40
0.8
100
AcDbArc
 50
226.033222317492
 51
270.0
  0
ARC
  5
226
330
1F
100
AcDbEntity
  8
実線
100
AcDbCircle
 10
86.2716040554718
 20
75.17029389719247
 30
0.0
 40
2.8
100
AcDbArc
 50
0.0
 51
90.0
  0
ARC
  5
227
330
1F
100
AcDbEntity
  8
実線
100
AcDbCircle
 10
41.87160405547188
 20
75.17029389719247
 30
0.0
 40
2.8
100
AcDbArc
 50
90.0
 51
180.0
  0
ARC
  5
228
330
1F
100
AcDbEntity
  8
実線
100
AcDbCircle
 10
47.90036295145511
 20
78.7702938971925
 30
0.0
 40
0.8
100
AcDbArc
 50
270.0
 51
313.966777682508
  0
LINE
  5
229
330
1F
100
AcDbEntity
  8
実線
100
AcDbLine
 10
41.87160405547188
 20
77.97029389719246
 30
0.0
 11
47.90036295145511
 21
77.97029389719246
 31
0.0
  0
LINE
  5
22A
330
1F
100
AcDbEntity
  8
実線
100
AcDbLine
 10
39.07160405547187
 20
68.47029389719246
 30
0.0
 11
39.07160405547187
 21
75.17029389719245
 31
0.0
  0
LINE
  5
22B
330
1F
100
AcDbEntity
  8
実線
100
AcDbLine
 10
47.90036295145511
 20
77.97029389719246
 30
0.0
 11
80.24284515948862
 21
77.97029389719246
 31
0.0
  0
LWPOLYLINE
  5
22C
102
{ACAD_REACTORS
330
252
102
}
330
1F
100
AcDbEntity
  8
実線
100
AcDbPolyline
 90
        6
 70
     0
 43
0.0
 10
82.82160405547187
 20
63.97029389719246
 10
87.07160405547187
 20
63.97029389719246
 10
87.07160405547187
 20
68.47029389719246
 10
41.07160405547187
 20
68.47029389719246
 10
41.07160405547187
 20
63.97029389719246
 10
45.32160405547187
 20
63.97029389719246
  0
ARC
  5
22D
330
1F
100
AcDbEntity
  8
実線
100
AcDbCircle
 10
81.57160405547187
 20
63.97029389719246
 30
0.0
 40
1.25
100
AcDbArc
 50
0.0
 51
180.0
  0
ARC
  5
22E
330
1F
100
AcDbEntity
  8
実線
100
AcDbCircle
 10
46.57160405547187
 20
63.97029389719246
 30
0.0
 40
1.25
100
AcDbArc
 50
0.0
 51
180.0
  0
LWPOLYLINE
  5
22F
330
1F
100
AcDbEntity
  8
実線
100
AcDbPolyline
 90
        2
 70
     0
 43
0.0
 10
47.82160405547187
 20
63.97029389719246
 10
80.32160405547187
 20
63.97029389719246
  0
LINE
  5
230
330
1F
100
AcDbEntity
  8
実線
100
AcDbLine
 10
53.71041513889473
 20
81.97029389719246
 30
0.0
 11
74.43279297204892
 21
81.97029389719246
 31
0.0
  0
ARC
  5
231
330
1F
100
AcDbEntity
  8
実線
100
AcDbCircle
 10
60.22678131740388
 20
67.35738960586208
 30
0.0
 40
16.0
100
AcDbArc
 50
114.0336365122729
 51
137.3654754417936
  0
ARC
  5
232
102
{ACAD_REACTORS
330
252
102
}
330
1F
100
AcDbEntity
  8
実線
100
AcDbCircle
 10
67.91642679353986
 20
67.35738960586204
 30
0.0
 40
16.0
100
AcDbArc
 50
42.63452455820545
 51
65.96636348772738
  0
CIRCLE
  5
233
330
1F
100
AcDbEntity
  8
実線
100
AcDbCircle
 10
203.6791292197119
 20
152.6209957186381
 30
0.0
 40
25.0
  0
CIRCLE
  5
234
102
{ACAD_REACTORS
330
237
102
}
330
1F
100
AcDbEntity
  8
実線
100
AcDbCircle
 10
203.6791292197119
 20
152.6209957186381
 30
0.0
 40
16.0
  0
DIMENSION
  5
235
102
{ACAD_REACTORS
330
237
102
}
102
{ACAD_XDICTIONARY
360
236
102
}
330
1F
100
AcDbEntity
  8
文字
100
AcDbDimension
  2
*D9
 10
219.6791292197119
 20
95.97750157093554
 30
0.0
 11
203.6791292197119
 21
97.92583035674728
 31
0.0
 70
    32
  1
%%c<>
 71
     5
 42
32.0
 73
     0
 74
     0
 75
     0
  3
ISO-25
100
AcDbAlignedDimension
 13
187.6791292197119
 23
152.6209957186381
 33
0.0
 14
219.6791292197119
 24
152.6209957186381
 34
0.0
100
AcDbRotatedDimension
  0
DIMENSION
  5
238
330
1F
100
AcDbEntity
  8
文字
100
AcDbDimension
  2
*D10
 10
89.16048304653907
 20
44.73669041171462
 30
0.0
 11
64.18536730124274
 21
44.73669041171462
 31
0.0
 70
   160
  1
%%c<>
 71
     5
 42
50.0
 73
     0
 74
     0
 75
     0
  3
ISO-25
100
AcDbAlignedDimension
 13
39.16048304653907
 23
69.14820442016907
 33
0.0
 14
89.16048304653907
 24
69.14820442016907
 34
0.0
100
AcDbRotatedDimension
  0
DIMENSION
  5
23E
330
1F
100
AcDbEntity
  8
文字
100
AcDbDimension
  2
*D12
 10
70.0098124461438
 20
201.9176310568612
 30
0.0
 11
64.0098124461438
 21
203.797747018662
 31
0.0
 70
    32
  1
{\fArial|b0|i0|c0|p32;M }<>
 71
     5
 42
11.99999999999999
 73
     0
 74
     0
 75
     0
  3
ISO-25
100
AcDbAlignedDimension
 13
58.0098124461438
 23
189.3452938971925
 33
0.0
 14
70.0098124461438
 24
189.3452938971925
 34
0.0
100
AcDbRotatedDimension
  0
DIMENSION
  5
23F
102
{ACAD_REACTORS
330
241
102
}
102
{ACAD_XDICTIONARY
360
240
102
}
330
1F
100
AcDbEntity
  8
文字
100
AcDbDimension
  2
*D13
 10
213.1621073911515
 20
103.7453781247822
 30
0.0
 11
203.7752899687163
 21
103.7453781247822
 31
0.0
 70
   160
  1
19
 71
     5
 42
18.96595634287917
 73
     0
 74
     0
 75
     0
  3
ISO-25
100
AcDbAlignedDimension
 13
194.1961510482723
 23
147.1459957186381
 33
0.0
 14
213.1621073911515
 24
147.1459957186381
 34
0.0
100
AcDbRotatedDimension
  0
DIMENSION
  5
242
330
1F
100
AcDbEntity
  8
文字
100
AcDbDimension
  2
*D14
 10
107.6512549626683
 20
89.97029389719248
 30
0.0
 11
105.7506751536642
 21
85.95252694422611
 31
0.0
 70
    32
  1
8
 71
     5
 42
8.035533905932738
 73
     0
 74
     0
 75
     0
  3
ISO-25
100
AcDbAlignedDimension
 13
75.0216040554718
 23
81.93475999125974
 33
0.0
 14
75.0216040554718
 24
89.97029389719248
 34
0.0
 50
90.0
100
AcDbRotatedDimension
  0
CIRCLE
  5
243
330
1F
100
AcDbEntity
  8
実線
370
    20
100
AcDbCircle
 10
203.6791292197119
 20
152.6209957186381
 30
0.0
 40
5.15
  0
CIRCLE
  5
244
330
1F
100
AcDbEntity
  8
実線
100
AcDbCircle
 10
203.6791292197119
 20
152.6209957186381
 30
0.0
 40
6.0
  0
LWPOLYLINE
  5
245
102
{ACAD_REACTORS
330
241
102
}
330
1F
100
AcDbEntity
  8
実線
100
AcDbPolyline
 90
        6
 70
     1
 43
0.0
 10
194.1961510482723
 20
147.1459957186381
 10
203.6791292197119
 20
141.6709957186381
 10
213.1621073911515
 20
147.1459957186381
 10
213.1621073911516
 20
158.0959957186381
 10
203.6791292197119
 20
163.5709957186381
 10
194.1961510482723
 20
158.0959957186381
  0
LINE
  5
246
330
1F
100
AcDbEntity
  8
実線
100
AcDbLine
 10
53.12160405547179
 20
83.97029389719248
 30
0.0
 11
53.12160405547179
 21
82.97029389719248
 31
0.0
  0
LINE
  5
247
330
1F
100
AcDbEntity
  8
実線
100
AcDbLine
 10
75.0216040554718
 20
83.97029389719248
 30
0.0
 11
75.0216040554718
 21
82.97029389719248
 31
0.0
  0
LINE
  5
248
330
1F
100
AcDbEntity
  8
実線
100
AcDbLine
 10
75.0216040554718
 20
82.97029389719248
 30
0.0
 11
75.0216040554718
 21
83.97029389719248
 31
0.0
  0
LINE
  5
249
330
1F
100
AcDbEntity
  8
実線
100
AcDbLine
 10
58.12160405547179
 20
89.97029389719248
 30
0.0
 11
58.12160405547179
 21
82.97029389719248
 31
0.0
  0
LINE
  5
24A
330
1F
100
AcDbEntity
  8
実線
100
AcDbLine
 10
70.0216040554718
 20
89.97029389719248
 30
0.0
 11
70.0216040554718
 21
82.97029389719246
 31
0.0
  0
LWPOLYLINE
  5
24B
330
1F
100
AcDbEntity
  8
実線
100
AcDbPolyline
 90
        4
 70
     0
 43
0.0
 10
75.0216040554718
 20
83.97029389719248
 10
75.0216040554718
 20
89.97029389719248
 10
53.12160405547179
 20
89.97029389719248
 10
53.12160405547179
 20
83.97029389719248
  0
LINE
  5
24C
330
1F
100
AcDbEntity
  8
実線
100
AcDbLine
 10
72.5216040554718
 20
81.97029389719245
 30
0.0
 11
55.95348144320003
 21
81.97029389719248
 31
0.0
  0
ARC
  5
24D
330
1F
100
AcDbEntity
  8
実線
100
AcDbCircle
 10
72.5216040554718
 20
85.59529389719242
 30
0.0
 40
3.624999999999969
100
AcDbArc
 50
226.3971810272959
 51
313.6028189727041
  0
ARC
  5
24E
330
1F
100
AcDbEntity
  8
実線
100
AcDbCircle
 10
55.62160405547182
 20
85.59529389719242
 30
0.0
 40
3.624999999999969
100
AcDbArc
 50
226.3971810272957
 51
313.6028189727041
  0
ARC
  5
24F
330
1F
100
AcDbEntity
  8
実線
100
AcDbCircle
 10
64.07160405547181
 20
100.1715438971924
 30
0.0
 40
18.20124999999993
100
AcDbArc
 50
250.9192363903146
 51
289.0807636096853
  0
DIMENSION
  5
250
102
{ACAD_REACTORS
330
252
102
}
102
{ACAD_XDICTIONARY
360
251
102
}
330
1F
100
AcDbEntity
  8
文字
100
AcDbDimension
  2
*D15
 10
107.6512549626683
 20
63.97029389719246
 30
0.0
 11
105.7500049626683
 21
72.97029331883896
 31
0.0
 70
    32
 71
     5
 42
17.99999884329299
 73
     0
 74
     0
 75
     0
  3
ISO-25
100
AcDbAlignedDimension
 13
74.43279556595547
 23
81.97029274048545
 33
0.0
 14
87.07160405547187
 24
63.97029389719246
 34
0.0
 50
90.0
100
AcDbRotatedDimension
  0
LWPOLYLINE
  5
253
330
1F
100
AcDbEntity
  8
実線
100
AcDbPolyline
 90
        6
 70
     1
 43
0.0
 10
58.07160405547179
 20
89.97029389719248
 10
70.0716040554718
 20
89.97029389719248
 10
70.07160405547178
 20
187.9702938971924
 10
68.07160405547178
 20
189.9702938971924
 10
60.07160405547179
 20
189.9702938971925
 10
58.07160405547179
 20
187.9702938971925
  0
LINE
  5
254
330
1F
100
AcDbEntity
  8
実線
370
    20
100
AcDbLine
 10
58.07160405547179
 20
187.9702938971925
 30
0.0
 11
70.07160405547178
 21
187.9702938971924
 31
0.0
  0
LINE
  5
255
330
1F
100
AcDbEntity
  8
実線
370
    20
100
AcDbLine
 10
60.07160405547179
 20
189.9702938971925
 30
0.0
 11
60.07160405547178
 21
89.97029389719248
 31
0.0
  0
LINE
  5
256
330
1F
100
AcDbEntity
  8
実線
370
    20
100
AcDbLine
 10
68.07160405547178
 20
189.9702938971924
 30
0.0
 11
68.07160405547177
 21
89.97029389719248
 31
0.0
  0
DIMENSION
  5
257
330
1F
100
AcDbEntity
  8
文字
100
AcDbDimension
  2
*D16
 10
107.6512549626683
 20
89.97029389719248
 30
0.0
 11
105.7506751536643
 21
139.9702938971925
 31
0.0
 70
    32
 71
     5
 42
100.0
 73
     0
 74
     0
 75
     0
  3
ISO-25
100
AcDbAlignedDimension
 13
70.0098124461438
 23
189.9702938971925
 33
0.0
 14
75.6466040554718
 24
89.97029389719248
 34
0.0
 50
90.0
100
AcDbRotatedDimension
  0
MTEXT
  5
2E1
330
1F
100
AcDbEntity
  8
文字・寸法線
 62
     0
100
AcDbMText
 10
49.46438663431653
 20
227.8895748058821
 30
0.0
 40
6.0
 41
0.0
 46
6.0
 71
     9
 72
     1
  1
{\fＭＳ ゴシック|b0|i0|c0|p0;S-K2 M12X100}
 73
     1
 44
1.0
1001
ACAD
1000
ACAD_MTEXT_DEFINED_HEIGHT_BEGIN
1070
    46
1040
6.0
1000
ACAD_MTEXT_DEFINED_HEIGHT_END
  0
ENDSEC
  0
SECTION
  2
OBJECTS
  0
DICTIONARY
  5
C
330
0
100
AcDbDictionary
281
     1
  3
ACAD_COLOR
350
73
  3
ACAD_DETAILVIEWSTYLE
350
122
  3
ACAD_GROUP
350
D
  3
ACAD_IMAGE_VARS
350
DC
  3
ACAD_LAYOUT
350
1A
  3
ACAD_MATERIAL
350
72
  3
ACAD_MLEADERSTYLE
350
B5
  3
ACAD_MLINESTYLE
350
17
  3
ACAD_PLOTSETTINGS
350
19
  3
ACAD_PLOTSTYLENAME
350
E
  3
ACAD_SCALELIST
350
B6
  3
ACAD_SECTIONVIEWSTYLE
350
123
  3
ACAD_TABLESTYLE
350
86
  3
ACAD_VISUALSTYLE
350
99
  3
ACDB_RECOMPOSE_DATA
350
2F0
  3
AcDbVariableDictionary
350
66
  3
APPDATA
350
E1
  0
SUN
  5
ED
330
94
100
AcDbSun
 90
        1
290
     0
 63
     7
421
 16777215
 40
1.0
291
     1
 91
  2455826
 92
 54000000
292
     0
 70
     2
 71
   256
280
     1
  0
DICTIONARY
  5
236
330
235
100
AcDbDictionary
280
     1
281
     1
  3
ACAD_DIMASSOC
360
237
  0
DICTIONARY
  5
240
330
23F
100
AcDbDictionary
280
     1
281
     1
  3
ACAD_DIMASSOC
360
241
  0
DICTIONARY
  5
251
330
250
100
AcDbDictionary
280
     1
281
     1
  3
ACAD_DIMASSOC
360
252
  0
DICTIONARY
  5
73
102
{ACAD_REACTORS
330
C
102
}
330
C
100
AcDbDictionary
281
     1
  0
DICTIONARY
  5
122
102
{ACAD_REACTORS
330
C
102
}
330
C
100
AcDbDictionary
281
     1
  0
DICTIONARY
  5
D
102
{ACAD_REACTORS
330
C
102
}
330
C
100
AcDbDictionary
281
     1
  0
RASTERVARIABLES
  5
DC
102
{ACAD_REACTORS
330
C
102
}
330
C
100
AcDbRasterVariables
 90
        0
 70
     1
 71
     1
 72
     5
  0
DICTIONARY
  5
1A
102
{ACAD_REACTORS
330
C
102
}
330
C
100
AcDbDictionary
281
     1
  3
Model
350
22
  3
Sheet1
350
59
  3
Sheet2
350
5E
  0
DICTIONARY
  5
72
102
{ACAD_REACTORS
330
C
102
}
330
C
100
AcDbDictionary
281
     1
  3
ByBlock
350
E2
  3
ByLayer
350
96
  3
Global
350
98
  0
DICTIONARY
  5
B5
102
{ACAD_REACTORS
330
C
102
}
330
C
100
AcDbDictionary
281
     1
  0
DICTIONARY
  5
17
102
{ACAD_REACTORS
330
C
102
}
330
C
100
AcDbDictionary
281
     1
  3
Standard
350
18
  0
DICTIONARY
  5
19
102
{ACAD_REACTORS
330
C
102
}
330
C
100
AcDbDictionary
281
     1
  0
ACDBDICTIONARYWDFLT
  5
E
102
{ACAD_REACTORS
330
C
102
}
330
C
100
AcDbDictionary
281
     1
  3
Normal
350
F
100
AcDbDictionaryWithDefault
340
F
  0
DICTIONARY
  5
B6
102
{ACAD_REACTORS
330
C
102
}
330
C
100
AcDbDictionary
281
     1
  3
A0
350
B7
  3
A1
350
B8
  3
A2
350
B9
  3
A3
350
BA
  3
A4
350
BB
  3
A5
350
BC
  3
A6
350
BD
  3
A7
350
BE
  3
A8
350
BF
  3
A9
350
C0
  3
B0
350
C1
  3
B1
350
C2
  3
B2
350
C3
  3
B3
350
C4
  3
B4
350
C5
  3
B5
350
C6
  3
B6
350
C7
  3
B7
350
C8
  3
B8
350
C9
  3
B9
350
CA
  3
C0
350
CB
  3
C1
350
CC
  3
C2
350
CD
  3
C3
350
CE
  3
C4
350
CF
  3
C5
350
D0
  3
C6
350
D1
  3
C7
350
D2
  3
C8
350
D3
  3
C9
350
D4
  3
D0
350
D5
  3
D1
350
D6
  3
D2
350
D7
  0
DICTIONARY
  5
123
102
{ACAD_REACTORS
330
C
102
}
330
C
100
AcDbDictionary
281
     1
  0
DICTIONARY
  5
86
102
{ACAD_REACTORS
330
C
102
}
330
C
100
AcDbDictionary
281
     1
  3
Standard
350
87
  0
DICTIONARY
  5
99
102
{ACAD_REACTORS
330
C
102
}
330
C
100
AcDbDictionary
281
     1
  3
2dWireframe
350
9F
  3
3D Hidden
350
A1
  3
3dWireframe
350
A0
  3
Basic
350
9E
  3
Brighten
350
A5
  3
ColorChange
350
A9
  3
Conceptual
350
A2
  3
Dim
350
A4
  3
EdgeColorOff
350
E7
  3
Facepattern
350
A8
  3
Flat
350
9A
  3
FlatWithEdges
350
9B
  3
Gouraud
350
9C
  3
GouraudWithEdges
350
9D
  3
Hidden
350
E4
  3
JitterOff
350
E5
  3
Linepattern
350
A7
  3
OverhangOff
350
E6
  3
Realistic
350
A3
  3
Shaded
350
EC
  3
Shaded with edges
350
EB
  3
Shades of Gray
350
E8
  3
Sketchy
350
E9
  3
Thicken
350
A6
  3
Wireframe
350
E3
  3
X-Ray
350
EA
  0
XRECORD
  5
2F0
102
{ACAD_REACTORS
330
C
102
}
330
C
100
AcDbXrecord
280
     1
 90
        1
330
87
  0
DICTIONARY
  5
66
102
{ACAD_REACTORS
330
C
102
}
330
C
100
AcDbDictionary
281
     1
  3
CANNOSCALE
350
D8
  3
CTABLESTYLE
350
89
  3
DIMASSOC
350
67
  3
HIDETEXT
350
6B
  3
LIGHTSINBLOCKS
350
DF
  3
XCLIPFRAME
350
E0
  0
DICTIONARY
  5
E1
102
{ACAD_REACTORS
330
C
102
}
330
C
100
AcDbDictionary
281
     1
  0
DIMASSOC
  5
237
102
{ACAD_REACTORS
330
236
102
}
330
236
100
AcDbDimAssoc
330
235
 90
        3
 70
     0
 71
     0
  1
AcDbOsnapPointRef
 72
     6
331
220
 73
     2
 91
        0
 40
0.3307779701244941
 10
0.0
 20
0.0
 30
0.0
332
234
 74
     2
 92
        0
 75
     0
  1
AcDbOsnapPointRef
 72
     6
331
221
 73
     2
 91
        0
 40
0.3370407306368846
 10
0.0
 20
0.0
 30
0.0
332
234
 74
     2
 92
        0
 75
     0
  0
DIMASSOC
  5
241
102
{ACAD_REACTORS
330
240
102
}
330
240
100
AcDbDimAssoc
330
23F
 90
        3
 70
     0
 71
     0
  1
AcDbOsnapPointRef
 72
    13
331
245
 73
     2
 91
        1
 40
0.0
 10
0.0
 20
0.0
 30
2.000000000000000E+50
 75
     0
  1
AcDbOsnapPointRef
 72
     1
331
245
 73
     2
 91
        2
 40
1.0
 10
0.0
 20
0.0
 30
2.000000000000000E+50
 75
     0
  0
DIMASSOC
  5
252
102
{ACAD_REACTORS
330
251
102
}
330
251
100
AcDbDimAssoc
330
250
 90
        2
 70
     0
 71
     0
  1
AcDbOsnapPointRef
 72
     1
331
22C
 73
     2
 91
        1
 40
1.0
 10
0.0
 20
0.0
 30
2.000000000000000E+50
 75
     0
  0
LAYOUT
  5
22
102
{ACAD_REACTORS
330
1A
102
}
330
1A
100
AcDbPlotSettings
  1

  2
none_device
  4
ANSI_A_(8.50_x_11.00_Inches)
  6

 40
6.35
 41
19.05
 42
6.35
 43
19.05
 44
215.9
 45
279.4
 46
11.11250000000003
 47
0.0000000000000142
 48
0.0
 49
0.0
140
0.0
141
0.0
142
1.0
143
1.263157894736842
 70
 11444
 72
     0
 73
     1
 74
     1
  7
monochrome.ctb
 75
     0
 76
     0
 77
     2
 78
   300
147
0.7916666666666665
148
-702.8076765758875
149
-496.2830551296954
100
AcDbLayout
  1
Model
 70
     1
 71
     0
 10
0.0
 20
0.0
 11
12.0
 21
9.0
 12
0.0
 22
0.0
 32
0.0
 14
3.27638663431653
 24
43.48669041171462
 34
0.0
 15
251.1511364449687
 25
233.8895748058821
 35
0.0
146
0.0
 13
0.0
 23
0.0
 33
0.0
 16
1.0
 26
0.0
 36
0.0
 17
0.0
 27
1.0
 37
0.0
 76
     0
330
1F
331
94
  0
LAYOUT
  5
59
102
{ACAD_REACTORS
330
1A
102
}
330
1A
100
AcDbPlotSettings
  1

  2
None
  4

  6

 40
0.0
 41
0.0
 42
0.0
 43
0.0
 44
0.0
 45
0.0
 46
0.0
 47
0.0
 48
0.0
 49
0.0
140
0.0
141
0.0
142
1.0
143
1.0
 70
   688
 72
     0
 73
     0
 74
     5
  7

 75
    16
 76
     0
 77
     2
 78
   300
147
1.0
148
0.0
149
0.0
100
AcDbLayout
  1
Sheet1
 70
     1
 71
     1
 10
0.0
 20
0.0
 11
12.0
 21
9.0
 12
0.0
 22
0.0
 32
0.0
 14
0.0
 24
0.0
 34
0.0
 15
0.0
 25
0.0
 35
0.0
146
0.0
 13
0.0
 23
0.0
 33
0.0
 16
1.0
 26
0.0
 36
0.0
 17
0.0
 27
1.0
 37
0.0
 76
     0
330
58
  0
LAYOUT
  5
5E
102
{ACAD_REACTORS
330
1A
102
}
330
1A
100
AcDbPlotSettings
  1

  2
None
  4

  6

 40
0.0
 41
0.0
 42
0.0
 43
0.0
 44
0.0
 45
0.0
 46
0.0
 47
0.0
 48
0.0
 49
0.0
140
0.0
141
0.0
142
1.0
143
1.0
 70
   688
 72
     0
 73
     0
 74
     5
  7

 75
    16
 76
     0
 77
     2
 78
   300
147
1.0
148
0.0
149
0.0
100
AcDbLayout
  1
Sheet2
 70
     1
 71
     2
 10
0.0
 20
0.0
 11
12.0
 21
9.0
 12
0.0
 22
0.0
 32
0.0
 14
0.0
 24
0.0
 34
0.0
 15
0.0
 25
0.0
 35
0.0
146
0.0
 13
0.0
 23
0.0
 33
0.0
 16
1.0
 26
0.0
 36
0.0
 17
0.0
 27
1.0
 37
0.0
 76
     0
330
5D
  0
MATERIAL
  5
E2
102
{ACAD_REACTORS
330
72
102
}
330
72
100
AcDbMaterial
  1
ByBlock
 72
     1
 94
      127
  0
MATERIAL
  5
96
102
{ACAD_REACTORS
330
72
102
}
330
72
100
AcDbMaterial
  1
ByLayer
 72
     1
 94
       63
  0
MATERIAL
  5
98
102
{ACAD_REACTORS
330
72
102
}
330
72
100
AcDbMaterial
  1
Global
 72
     1
 94
       63
  0
MLINESTYLE
  5
18
102
{ACAD_REACTORS
330
17
102
}
330
17
100
AcDbMlineStyle
  2
STANDARD
 70
     0
  3

 62
   256
 51
90.0
 52
90.0
 71
     2
 49
0.5
 62
   256
  6
BYLAYER
 49
-0.5
 62
   256
  6
BYLAYER
  0
ACDBPLACEHOLDER
  5
F
102
{ACAD_REACTORS
330
E
102
}
330
E
  0
SCALE
  5
B7
102
{ACAD_REACTORS
330
B6
102
}
330
B6
100
AcDbScale
 70
     0
300
1:1
140
1.0
141
1.0
290
     1
  0
SCALE
  5
B8
102
{ACAD_REACTORS
330
B6
102
}
330
B6
100
AcDbScale
 70
     0
300
1:2
140
1.0
141
2.0
290
     0
  0
SCALE
  5
B9
102
{ACAD_REACTORS
330
B6
102
}
330
B6
100
AcDbScale
 70
     0
300
1:4
140
1.0
141
4.0
290
     0
  0
SCALE
  5
BA
102
{ACAD_REACTORS
330
B6
102
}
330
B6
100
AcDbScale
 70
     0
300
1:5
140
1.0
141
5.0
290
     0
  0
SCALE
  5
BB
102
{ACAD_REACTORS
330
B6
102
}
330
B6
100
AcDbScale
 70
     0
300
1:8
140
1.0
141
8.0
290
     0
  0
SCALE
  5
BC
102
{ACAD_REACTORS
330
B6
102
}
330
B6
100
AcDbScale
 70
     0
300
1:10
140
1.0
141
10.0
290
     0
  0
SCALE
  5
BD
102
{ACAD_REACTORS
330
B6
102
}
330
B6
100
AcDbScale
 70
     0
300
1:16
140
1.0
141
16.0
290
     0
  0
SCALE
  5
BE
102
{ACAD_REACTORS
330
B6
102
}
330
B6
100
AcDbScale
 70
     0
300
1:20
140
1.0
141
20.0
290
     0
  0
SCALE
  5
BF
102
{ACAD_REACTORS
330
B6
102
}
330
B6
100
AcDbScale
 70
     0
300
1:30
140
1.0
141
30.0
290
     0
  0
SCALE
  5
C0
102
{ACAD_REACTORS
330
B6
102
}
330
B6
100
AcDbScale
 70
     0
300
1:40
140
1.0
141
40.0
290
     0
  0
SCALE
  5
C1
102
{ACAD_REACTORS
330
B6
102
}
330
B6
100
AcDbScale
 70
     0
300
1:50
140
1.0
141
50.0
290
     0
  0
SCALE
  5
C2
102
{ACAD_REACTORS
330
B6
102
}
330
B6
100
AcDbScale
 70
     0
300
1:100
140
1.0
141
100.0
290
     0
  0
SCALE
  5
C3
102
{ACAD_REACTORS
330
B6
102
}
330
B6
100
AcDbScale
 70
     0
300
2:1
140
2.0
141
1.0
290
     0
  0
SCALE
  5
C4
102
{ACAD_REACTORS
330
B6
102
}
330
B6
100
AcDbScale
 70
     0
300
4:1
140
4.0
141
1.0
290
     0
  0
SCALE
  5
C5
102
{ACAD_REACTORS
330
B6
102
}
330
B6
100
AcDbScale
 70
     0
300
8:1
140
8.0
141
1.0
290
     0
  0
SCALE
  5
C6
102
{ACAD_REACTORS
330
B6
102
}
330
B6
100
AcDbScale
 70
     0
300
10:1
140
10.0
141
1.0
290
     0
  0
SCALE
  5
C7
102
{ACAD_REACTORS
330
B6
102
}
330
B6
100
AcDbScale
 70
     0
300
100:1
140
100.0
141
1.0
290
     0
  0
SCALE
  5
C8
102
{ACAD_REACTORS
330
B6
102
}
330
B6
100
AcDbScale
 70
     0
300
1/128" = 1'-0"
140
0.0078125
141
12.0
290
     0
  0
SCALE
  5
C9
102
{ACAD_REACTORS
330
B6
102
}
330
B6
100
AcDbScale
 70
     0
300
1/64" = 1'-0"
140
0.015625
141
12.0
290
     0
  0
SCALE
  5
CA
102
{ACAD_REACTORS
330
B6
102
}
330
B6
100
AcDbScale
 70
     0
300
1/32" = 1'-0"
140
0.03125
141
12.0
290
     0
  0
SCALE
  5
CB
102
{ACAD_REACTORS
330
B6
102
}
330
B6
100
AcDbScale
 70
     0
300
1/16" = 1'-0"
140
0.0625
141
12.0
290
     0
  0
SCALE
  5
CC
102
{ACAD_REACTORS
330
B6
102
}
330
B6
100
AcDbScale
 70
     0
300
3/32" = 1'-0"
140
0.09375
141
12.0
290
     0
  0
SCALE
  5
CD
102
{ACAD_REACTORS
330
B6
102
}
330
B6
100
AcDbScale
 70
     0
300
1/8" = 1'-0"
140
0.125
141
12.0
290
     0
  0
SCALE
  5
CE
102
{ACAD_REACTORS
330
B6
102
}
330
B6
100
AcDbScale
 70
     0
300
3/16" = 1'-0"
140
0.1875
141
12.0
290
     0
  0
SCALE
  5
CF
102
{ACAD_REACTORS
330
B6
102
}
330
B6
100
AcDbScale
 70
     0
300
1/4" = 1'-0"
140
0.25
141
12.0
290
     0
  0
SCALE
  5
D0
102
{ACAD_REACTORS
330
B6
102
}
330
B6
100
AcDbScale
 70
     0
300
3/8" = 1'-0"
140
0.375
141
12.0
290
     0
  0
SCALE
  5
D1
102
{ACAD_REACTORS
330
B6
102
}
330
B6
100
AcDbScale
 70
     0
300
1/2" = 1'-0"
140
0.5
141
12.0
290
     0
  0
SCALE
  5
D2
102
{ACAD_REACTORS
330
B6
102
}
330
B6
100
AcDbScale
 70
     0
300
3/4" = 1'-0"
140
0.75
141
12.0
290
     0
  0
SCALE
  5
D3
102
{ACAD_REACTORS
330
B6
102
}
330
B6
100
AcDbScale
 70
     0
300
1" = 1'-0"
140
1.0
141
12.0
290
     0
  0
SCALE
  5
D4
102
{ACAD_REACTORS
330
B6
102
}
330
B6
100
AcDbScale
 70
     0
300
1-1/2" = 1'-0"
140
1.5
141
12.0
290
     0
  0
SCALE
  5
D5
102
{ACAD_REACTORS
330
B6
102
}
330
B6
100
AcDbScale
 70
     0
300
3" = 1'-0"
140
3.0
141
12.0
290
     0
  0
SCALE
  5
D6
102
{ACAD_REACTORS
330
B6
102
}
330
B6
100
AcDbScale
 70
     0
300
6" = 1'-0"
140
6.0
141
12.0
290
     0
  0
SCALE
  5
D7
102
{ACAD_REACTORS
330
B6
102
}
330
B6
100
AcDbScale
 70
     0
300
1'-0" = 1'-0"
140
12.0
141
12.0
290
     0
  0
TABLESTYLE
  5
87
102
{ACAD_REACTORS
330
86
102
}
102
{ACAD_XDICTIONARY
360
2EE
102
}
330
86
100
AcDbTableStyle
  3
Standard
 70
     0
 71
     0
 40
0.06
 41
0.06
280
     0
281
     0
  7
Standard
140
0.18
170
     2
 62
     0
 63
   257
283
     0
 90
      512
 91
        0
  1

274
    -2
284
     1
 64
     0
275
    -2
285
     1
 65
     0
276
    -2
286
     1
 66
     0
277
    -2
287
     1
 67
     0
278
    -2
288
     1
 68
     0
279
    -2
289
     1
 69
     0
  7
Standard
140
0.25
170
     5
 62
     0
 63
   257
283
     0
 90
      512
 91
        0
  1

274
    -2
284
     1
 64
     0
275
    -2
285
     1
 65
     0
276
    -2
286
     1
 66
     0
277
    -2
287
     1
 67
     0
278
    -2
288
     1
 68
     0
279
    -2
289
     1
 69
     0
  7
Standard
140
0.18
170
     5
 62
     0
 63
   257
283
     0
 90
      512
 91
        0
  1

274
    -2
284
     1
 64
     0
275
    -2
285
     1
 65
     0
276
    -2
286
     1
 66
     0
277
    -2
287
     1
 67
     0
278
    -2
288
     1
 68
     0
279
    -2
289
     1
 69
     0
  0
VISUALSTYLE
  5
9F
102
{ACAD_REACTORS
330
99
102
}
330
99
100
AcDbVisualStyle
  2
2dWireframe
 70
     4
 71
     0
 72
     2
 73
     1
 90
        0
 40
-0.6
 41
-30.0
 62
     5
 63
     7
421
 16777215
 74
     1
 91
        4
 64
     7
 65
   257
 75
     1
175
     1
 42
1.0
 92
        0
 66
   257
 43
1.0
 76
     1
 77
     6
 78
     2
 67
     7
 79
     5
170
     0
171
     0
290
     0
174
     0
 93
        1
 44
0.0
173
     0
291
     0
 45
0.0
  0
VISUALSTYLE
  5
A1
102
{ACAD_REACTORS
330
99
102
}
330
99
100
AcDbVisualStyle
  2
3D Hidden
 70
     6
 71
     1
 72
     2
 73
     2
 90
        0
 40
-0.6
 41
-30.0
 62
     5
 63
     7
421
 16777215
 74
     2
 91
        2
 64
     7
 65
   257
 75
     2
175
     1
 42
40.0
 92
        0
 66
   257
 43
1.0
 76
     1
 77
     6
 78
     2
 67
     7
 79
     3
170
     0
171
     0
290
     0
174
     0
 93
        1
 44
0.0
173
     0
291
     0
 45
0.0
  0
VISUALSTYLE
  5
A0
102
{ACAD_REACTORS
330
99
102
}
330
99
100
AcDbVisualStyle
  2
3dWireframe
 70
     5
 71
     0
 72
     2
 73
     1
 90
        0
 40
-0.6
 41
-30.0
 62
     5
 63
     7
421
 16777215
 74
     1
 91
        4
 64
     7
 65
   257
 75
     1
175
     1
 42
1.0
 92
        0
 66
   257
 43
1.0
 76
     1
 77
     6
 78
     2
 67
     7
 79
     5
170
     0
171
     0
290
     0
174
     0
 93
        1
 44
0.0
173
     0
291
     0
 45
0.0
  0
VISUALSTYLE
  5
9E
102
{ACAD_REACTORS
330
99
102
}
330
99
100
AcDbVisualStyle
  2
Basic
 70
     7
 71
     1
 72
     0
 73
     1
 90
        0
 40
-0.6
 41
-30.0
 62
     5
 63
     7
421
 16777215
 74
     0
 91
        4
 64
     7
 65
   257
 75
     1
175
     1
 42
1.0
 92
        8
 66
     7
 43
1.0
 76
     1
 77
     6
 78
     2
 67
     7
 79
     5
170
     0
171
     0
290
     0
174
     0
 93
        1
 44
0.0
173
     0
291
     1
 45
0.0
  0
VISUALSTYLE
  5
A5
102
{ACAD_REACTORS
330
99
102
}
330
99
100
AcDbVisualStyle
  2
Brighten
 70
    12
 71
     2
 72
     2
 73
     1
 90
        0
 40
-0.6
 41
-30.0
 62
     5
 63
     7
421
 16777215
 74
     1
 91
        4
 64
     7
 65
   257
 75
     1
175
     1
 42
1.0
 92
        8
 66
     7
 43
1.0
 76
     1
 77
     6
 78
     2
 67
     7
 79
     5
170
     0
171
     0
290
     0
174
     0
 93
        1
 44
50.0
173
     0
291
     1
 45
0.0
  0
VISUALSTYLE
  5
A9
102
{ACAD_REACTORS
330
99
102
}
330
99
100
AcDbVisualStyle
  2
ColorChange
 70
    16
 71
     2
 72
     2
 73
     3
 90
        0
 40
-0.6
 41
-30.0
 62
     5
 63
     8
421
  8421504
 74
     1
 91
        4
 64
     7
 65
   257
 75
     1
175
     1
 42
1.0
 92
        8
 66
     8
424
  8421504
 43
1.0
 76
     1
 77
     6
 78
     2
 67
     7
 79
     5
170
     0
171
     0
290
     0
174
     0
 93
        1
 44
0.0
173
     0
291
     1
 45
0.0
  0
VISUALSTYLE
  5
A2
102
{ACAD_REACTORS
330
99
102
}
330
99
100
AcDbVisualStyle
  2
Conceptual
 70
     9
 71
     3
 72
     2
 73
     1
 90
        0
 40
-0.6
 41
-30.0
 62
     5
 63
     7
421
 16777215
 74
     2
 91
        2
 64
     7
 65
   257
 75
     1
175
     1
 42
40.0
 92
        8
 66
     7
 43
1.0
 76
     1
 77
     6
 78
     2
 67
     7
 79
     3
170
     0
171
     0
290
     0
174
     0
 93
        1
 44
0.0
173
     0
291
     0
 45
0.0
  0
VISUALSTYLE
  5
A4
102
{ACAD_REACTORS
330
99
102
}
330
99
100
AcDbVisualStyle
  2
Dim
 70
    11
 71
     2
 72
     2
 73
     1
 90
        0
 40
-0.6
 41
-30.0
 62
     5
 63
     7
421
 16777215
 74
     1
 91
        4
 64
     7
 65
   257
 75
     1
175
     1
 42
1.0
 92
        8
 66
     7
 43
1.0
 76
     1
 77
     6
 78
     2
 67
     7
 79
     5
170
     0
171
     0
290
     0
174
     0
 93
        1
 44
-50.0
173
     0
291
     1
 45
0.0
  0
VISUALSTYLE
  5
E7
102
{ACAD_REACTORS
330
99
102
}
330
99
100
AcDbVisualStyle
  2
EdgeColorOff
 70
    22
 71
     2
 72
     2
 73
     0
 90
        0
 40
0.6
 41
30.0
 62
     5
 63
     7
421
 16777215
 74
     1
 91
        4
 64
     7
 65
   257
 75
     1
175
     1
 42
1.0
 92
        8
 66
     7
 43
1.0
 76
     1
 77
     6
 78
     2
 67
     7
 79
     5
170
     0
171
     0
290
     0
174
     0
 93
        1
 44
0.0
173
     0
291
     1
 45
0.0
  0
VISUALSTYLE
  5
A8
102
{ACAD_REACTORS
330
99
102
}
330
99
100
AcDbVisualStyle
  2
Facepattern
 70
    15
 71
     2
 72
     2
 73
     1
 90
        0
 40
-0.6
 41
-30.0
 62
     5
 63
     7
421
 16777215
 74
     1
 91
        4
 64
     7
 65
   257
 75
     1
175
     1
 42
1.0
 92
        8
 66
     7
 43
1.0
 76
     1
 77
     6
 78
     2
 67
     7
 79
     5
170
     0
171
     0
290
     0
174
     0
 93
        1
 44
0.0
173
     0
291
     1
 45
0.0
  0
VISUALSTYLE
  5
9A
102
{ACAD_REACTORS
330
99
102
}
330
99
100
AcDbVisualStyle
  2
Flat
 70
     0
 71
     2
 72
     1
 73
     1
 90
        2
 40
-0.6
 41
30.0
 62
     5
 63
     7
421
 16777215
 74
     0
 91
        4
 64
     7
 65
   257
 75
     1
175
     1
 42
1.0
 92
        8
 66
     7
 43
1.0
 76
     1
 77
     6
 78
     2
 67
     7
 79
     5
170
     0
171
     0
290
     0
174
     0
 93
        1
 44
0.0
173
     0
291
     1
 45
0.0
  0
VISUALSTYLE
  5
9B
102
{ACAD_REACTORS
330
99
102
}
330
99
100
AcDbVisualStyle
  2
FlatWithEdges
 70
     1
 71
     2
 72
     1
 73
     1
 90
        2
 40
-0.6
 41
30.0
 62
     5
 63
     7
421
 16777215
 74
     1
 91
        4
 64
     7
 65
   257
 75
     1
175
     1
 42
1.0
 92
        0
 66
   257
 43
1.0
 76
     1
 77
     6
 78
     2
 67
     7
 79
     5
170
     0
171
     0
290
     0
174
     0
 93
        1
 44
0.0
173
     0
291
     1
 45
0.0
  0
VISUALSTYLE
  5
9C
102
{ACAD_REACTORS
330
99
102
}
330
99
100
AcDbVisualStyle
  2
Gouraud
 70
     2
 71
     2
 72
     2
 73
     1
 90
        2
 40
-0.6
 41
30.0
 62
     5
 63
     7
421
 16777215
 74
     0
 91
        4
 64
     7
 65
   257
 75
     1
175
     1
 42
1.0
 92
        0
 66
     7
 43
1.0
 76
     1
 77
     6
 78
     2
 67
     7
 79
     5
170
     0
171
     0
290
     0
174
     0
 93
        1
 44
0.0
173
     0
291
     1
 45
0.0
  0
VISUALSTYLE
  5
9D
102
{ACAD_REACTORS
330
99
102
}
330
99
100
AcDbVisualStyle
  2
GouraudWithEdges
 70
     3
 71
     2
 72
     2
 73
     1
 90
        2
 40
-0.6
 41
30.0
 62
     5
 63
     7
421
 16777215
 74
     1
 91
        4
 64
     7
 65
   257
 75
     1
175
     1
 42
1.0
 92
        0
 66
   257
 43
1.0
 76
     1
 77
     6
 78
     2
 67
     7
 79
     5
170
     0
171
     0
290
     0
174
     0
 93
        1
 44
0.0
173
     0
291
     1
 45
0.0
  0
VISUALSTYLE
  5
E4
102
{ACAD_REACTORS
330
99
102
}
330
99
100
AcDbVisualStyle
  2
Hidden
 70
     6
 71
     1
 72
     2
 73
     2
 90
        0
 40
0.6
 41
30.0
 62
     5
 63
     7
421
 16777215
 74
     2
 91
        2
 64
     7
 65
   257
 75
     2
175
     1
 42
40.0
 92
        0
 66
   257
 43
1.0
 76
     1
 77
     6
 78
     2
 67
     7
 79
     3
170
     0
171
     0
290
     0
174
     0
 93
        1
 44
0.0
173
     0
291
     0
 45
0.0
  0
VISUALSTYLE
  5
E5
102
{ACAD_REACTORS
330
99
102
}
330
99
100
AcDbVisualStyle
  2
JitterOff
 70
    20
 71
     2
 72
     2
 73
     0
 90
        0
 40
0.6
 41
30.0
 62
     5
 63
     7
421
 16777215
 74
     1
 91
        4
 64
     7
 65
   257
 75
     1
175
     1
 42
1.0
 92
       10
 66
     7
 43
1.0
 76
     1
 77
     6
 78
     2
 67
     7
 79
     5
170
     0
171
     0
290
     0
174
     0
 93
        1
 44
0.0
173
     0
291
     1
 45
0.0
  0
VISUALSTYLE
  5
A7
102
{ACAD_REACTORS
330
99
102
}
330
99
100
AcDbVisualStyle
  2
Linepattern
 70
    14
 71
     2
 72
     2
 73
     1
 90
        0
 40
-0.6
 41
-30.0
 62
     5
 63
     7
421
 16777215
 74
     1
 91
        4
 64
     7
 65
   257
 75
     7
175
     7
 42
1.0
 92
        8
 66
     7
 43
1.0
 76
     1
 77
     6
 78
     2
 67
     7
 79
     5
170
     0
171
     0
290
     0
174
     0
 93
        1
 44
0.0
173
     0
291
     1
 45
0.0
  0
VISUALSTYLE
  5
E6
102
{ACAD_REACTORS
330
99
102
}
330
99
100
AcDbVisualStyle
  2
OverhangOff
 70
    21
 71
     2
 72
     2
 73
     0
 90
        0
 40
0.6
 41
30.0
 62
     5
 63
     7
421
 16777215
 74
     1
 91
        4
 64
     7
 65
   257
 75
     1
175
     1
 42
1.0
 92
        9
 66
     7
 43
1.0
 76
     1
 77
     6
 78
     2
 67
     7
 79
     5
170
     0
171
     0
290
     0
174
     0
 93
        1
 44
0.0
173
     0
291
     1
 45
0.0
  0
VISUALSTYLE
  5
A3
102
{ACAD_REACTORS
330
99
102
}
330
99
100
AcDbVisualStyle
  2
Realistic
 70
     8
 71
     2
 72
     2
 73
     1
 90
        0
 40
-0.6
 41
-30.0
 62
     5
 63
     7
421
 16777215
 74
     1
 91
        0
 64
     7
 65
   257
 75
     1
175
     1
 42
1.0
 92
        8
 66
     8
424
  7895160
 43
1.0
 76
     1
 77
     6
 78
     2
 67
     7
 79
     5
170
     0
171
     0
290
     0
174
     0
 93
       13
 44
0.0
173
     0
291
     0
 45
0.0
  0
VISUALSTYLE
  5
EC
102
{ACAD_REACTORS
330
99
102
}
330
99
100
AcDbVisualStyle
  2
Shaded
 70
    27
 71
     2
 72
     2
 73
     1
 90
        2
 40
0.6
 41
30.0
 62
     5
 63
     7
421
 16777215
 74
     0
 91
        4
 64
     7
 65
   257
 75
     1
175
     1
 42
1.0
 92
        8
 66
   257
 43
1.0
 76
     1
 77
     6
 78
     2
 67
     8
425
  7895160
 79
     3
170
     0
171
     0
290
     0
174
     0
 93
        5
 44
0.0
173
     0
291
     0
 45
0.0
  0
VISUALSTYLE
  5
EB
102
{ACAD_REACTORS
330
99
102
}
330
99
100
AcDbVisualStyle
  2
Shaded with edges
 70
    26
 71
     2
 72
     2
 73
     1
 90
        2
 40
0.6
 41
30.0
 62
     5
 63
     7
421
 16777215
 74
     1
 91
       10
 64
     7
 65
   257
 75
     2
175
     1
 42
1.0
 92
        8
 66
   257
 43
1.0
 76
     1
 77
     6
 78
     2
 67
     7
 79
     3
170
     0
171
     0
290
     0
174
     0
 93
        5
 44
0.0
173
     0
291
     0
 45
0.0
  0
VISUALSTYLE
  5
E8
102
{ACAD_REACTORS
330
99
102
}
330
99
100
AcDbVisualStyle
  2
Shades of Gray
 70
    23
 71
     2
 72
     2
 73
     3
 90
        0
 40
0.6
 41
30.0
 62
     5
 63
     7
421
 16777215
 74
     2
 91
        2
 64
     7
 65
     7
 75
     1
175
     1
 42
40.0
 92
        8
 66
     7
 43
1.0
 76
     1
 77
     6
 78
     2
 67
     7
 79
     3
170
     0
171
     0
290
     0
174
     0
 93
        1
 44
0.0
173
     0
291
     0
 45
0.0
  0
VISUALSTYLE
  5
E9
102
{ACAD_REACTORS
330
99
102
}
330
99
100
AcDbVisualStyle
  2
Sketchy
 70
    24
 71
     1
 72
     2
 73
     2
 90
        0
 40
0.6
 41
30.0
 62
     5
 63
     7
421
 16777215
 74
     2
 91
        2
 64
     7
 65
     7
 75
     1
175
     1
 42
40.0
 92
       11
 66
     7
 43
1.0
 76
     1
 77
     6
 78
     2
 67
     7
 79
     6
170
     0
171
     0
290
     0
174
     0
 93
        1
 44
0.0
173
     0
291
     0
 45
0.0
  0
VISUALSTYLE
  5
A6
102
{ACAD_REACTORS
330
99
102
}
330
99
100
AcDbVisualStyle
  2
Thicken
 70
    13
 71
     2
 72
     2
 73
     1
 90
        0
 40
-0.6
 41
-30.0
 62
     5
 63
     7
421
 16777215
 74
     1
 91
        4
 64
     7
 65
   257
 75
     1
175
     1
 42
1.0
 92
       12
 66
     7
 43
1.0
 76
     1
 77
     6
 78
     2
 67
     7
 79
     5
170
     0
171
     0
290
     0
174
     0
 93
        1
 44
0.0
173
     0
291
     1
 45
0.0
  0
VISUALSTYLE
  5
E3
102
{ACAD_REACTORS
330
99
102
}
330
99
100
AcDbVisualStyle
  2
Wireframe
 70
     5
 71
     0
 72
     2
 73
     0
 90
        0
 40
0.6
 41
30.0
 62
     5
 63
     7
421
 16777215
 74
     1
 91
        4
 64
     7
 65
   257
 75
     1
175
     1
 42
1.0
 92
        0
 66
   257
 43
1.0
 76
     1
 77
     6
 78
     2
 67
     7
 79
     3
170
     0
171
     0
290
     0
174
     0
 93
        1
 44
0.0
173
     0
291
     0
 45
0.0
  0
VISUALSTYLE
  5
EA
102
{ACAD_REACTORS
330
99
102
}
330
99
100
AcDbVisualStyle
  2
X-Ray
 70
    25
 71
     2
 72
     2
 73
     1
 90
        1
 40
0.5
 41
30.0
 62
     5
 63
     7
421
 16777215
 74
     1
 91
        0
 64
     7
 65
   257
 75
     1
175
     1
 42
1.0
 92
        8
 66
     7
 43
1.0
 76
     1
 77
     6
 78
     2
 67
     7
 79
     3
170
     0
171
     0
290
     0
174
     0
 93
       13
 44
0.0
173
     0
291
     0
 45
0.0
  0
DICTIONARYVAR
  5
D8
102
{ACAD_REACTORS
330
66
102
}
330
66
100
DictionaryVariables
280
     0
  1
1:1
  0
DICTIONARYVAR
  5
89
102
{ACAD_REACTORS
330
66
102
}
330
66
100
DictionaryVariables
280
     0
  1
Standard
  0
DICTIONARYVAR
  5
67
102
{ACAD_REACTORS
330
66
102
}
330
66
100
DictionaryVariables
280
     0
  1
2
  0
DICTIONARYVAR
  5
6B
102
{ACAD_REACTORS
330
66
102
}
330
66
100
DictionaryVariables
280
     0
  1
1
  0
DICTIONARYVAR
  5
DF
102
{ACAD_REACTORS
330
66
102
}
330
66
100
DictionaryVariables
280
     0
  1
0
  0
DICTIONARYVAR
  5
E0
102
{ACAD_REACTORS
330
66
102
}
330
66
100
DictionaryVariables
280
     0
  1
0
  0
DICTIONARY
  5
2EE
330
87
100
AcDbDictionary
280
     1
281
     1
  3
ACAD_ROUNDTRIP_2008_TABLESTYLE_CELLSTYLEMAP
360
2EF
  0
CELLSTYLEMAP
  5
2EF
102
{ACAD_REACTORS
330
2EE
102
}
330
2EE
100
AcDbCellStyleMap
 90
        3
300
CELLSTYLE
  1
TABLEFORMAT_BEGIN
 90
        5
170
     1
 91
        0
 92
    32768
 62
   257
 93
        1
300
CONTENTFORMAT
  1
CONTENTFORMAT_BEGIN
 90
        0
 91
        0
 92
      512
 93
        0
300

 40
0.0
140
1.0
 94
        5
 62
     0
340
11
144
0.25
309
CONTENTFORMAT_END
171
     0
 94
        6
 95
        1
302
GRIDFORMAT
  1
GRIDFORMAT_BEGIN
 90
        0
 91
        1
 62
     0
 92
       -2
340
0
 93
        0
 40
0.045
309
GRIDFORMAT_END
 95
        2
302
GRIDFORMAT
  1
GRIDFORMAT_BEGIN
 90
        0
 91
        1
 62
     0
 92
       -2
340
0
 93
        0
 40
0.045
309
GRIDFORMAT_END
 95
        4
302
GRIDFORMAT
  1
GRIDFORMAT_BEGIN
 90
        0
 91
        1
 62
     0
 92
       -2
340
0
 93
        0
 40
0.045
309
GRIDFORMAT_END
 95
        8
302
GRIDFORMAT
  1
GRIDFORMAT_BEGIN
 90
        0
 91
        1
 62
     0
 92
       -2
340
0
 93
        0
 40
0.045
309
GRIDFORMAT_END
 95
       16
302
GRIDFORMAT
  1
GRIDFORMAT_BEGIN
 90
        0
 91
        1
 62
     0
 92
       -2
340
0
 93
        0
 40
0.045
309
GRIDFORMAT_END
 95
       32
302
GRIDFORMAT
  1
GRIDFORMAT_BEGIN
 90
        0
 91
        1
 62
     0
 92
       -2
340
0
 93
        0
 40
0.045
309
GRIDFORMAT_END
309
TABLEFORMAT_END
  1
CELLSTYLE_BEGIN
 90
        1
 91
        1
300
_TITLE
309
CELLSTYLE_END
300
CELLSTYLE
  1
TABLEFORMAT_BEGIN
 90
        5
170
     1
 91
        0
 92
        0
 62
   257
 93
        1
300
CONTENTFORMAT
  1
CONTENTFORMAT_BEGIN
 90
        0
 91
        0
 92
      512
 93
        0
300

 40
0.0
140
1.0
 94
        5
 62
     0
340
11
144
0.18
309
CONTENTFORMAT_END
171
     0
 94
        6
 95
        1
302
GRIDFORMAT
  1
GRIDFORMAT_BEGIN
 90
        0
 91
        1
 62
     0
 92
       -2
340
0
 93
        0
 40
0.045
309
GRIDFORMAT_END
 95
        2
302
GRIDFORMAT
  1
GRIDFORMAT_BEGIN
 90
        0
 91
        1
 62
     0
 92
       -2
340
0
 93
        0
 40
0.045
309
GRIDFORMAT_END
 95
        4
302
GRIDFORMAT
  1
GRIDFORMAT_BEGIN
 90
        0
 91
        1
 62
     0
 92
       -2
340
0
 93
        0
 40
0.045
309
GRIDFORMAT_END
 95
        8
302
GRIDFORMAT
  1
GRIDFORMAT_BEGIN
 90
        0
 91
        1
 62
     0
 92
       -2
340
0
 93
        0
 40
0.045
309
GRIDFORMAT_END
 95
       16
302
GRIDFORMAT
  1
GRIDFORMAT_BEGIN
 90
        0
 91
        1
 62
     0
 92
       -2
340
0
 93
        0
 40
0.045
309
GRIDFORMAT_END
 95
       32
302
GRIDFORMAT
  1
GRIDFORMAT_BEGIN
 90
        0
 91
        1
 62
     0
 92
       -2
340
0
 93
        0
 40
0.045
309
GRIDFORMAT_END
309
TABLEFORMAT_END
  1
CELLSTYLE_BEGIN
 90
        2
 91
        1
300
_HEADER
309
CELLSTYLE_END
300
CELLSTYLE
  1
TABLEFORMAT_BEGIN
 90
        5
170
     1
 91
        0
 92
        0
 62
   257
 93
        1
300
CONTENTFORMAT
  1
CONTENTFORMAT_BEGIN
 90
        0
 91
        0
 92
      512
 93
        0
300

 40
0.0
140
1.0
 94
        2
 62
     0
340
11
144
0.18
309
CONTENTFORMAT_END
171
     0
 94
        6
 95
        1
302
GRIDFORMAT
  1
GRIDFORMAT_BEGIN
 90
        0
 91
        1
 62
     0
 92
       -2
340
0
 93
        0
 40
0.045
309
GRIDFORMAT_END
 95
        2
302
GRIDFORMAT
  1
GRIDFORMAT_BEGIN
 90
        0
 91
        1
 62
     0
 92
       -2
340
0
 93
        0
 40
0.045
309
GRIDFORMAT_END
 95
        4
302
GRIDFORMAT
  1
GRIDFORMAT_BEGIN
 90
        0
 91
        1
 62
     0
 92
       -2
340
0
 93
        0
 40
0.045
309
GRIDFORMAT_END
 95
        8
302
GRIDFORMAT
  1
GRIDFORMAT_BEGIN
 90
        0
 91
        1
 62
     0
 92
       -2
340
0
 93
        0
 40
0.045
309
GRIDFORMAT_END
 95
       16
302
GRIDFORMAT
  1
GRIDFORMAT_BEGIN
 90
        0
 91
        1
 62
     0
 92
       -2
340
0
 93
        0
 40
0.045
309
GRIDFORMAT_END
 95
       32
302
GRIDFORMAT
  1
GRIDFORMAT_BEGIN
 90
        0
 91
        1
 62
     0
 92
       -2
340
0
 93
        0
 40
0.045
309
GRIDFORMAT_END
309
TABLEFORMAT_END
  1
CELLSTYLE_BEGIN
 90
        3
 91
        2
300
_DATA
309
CELLSTYLE_END
  0
ENDSEC
  0
EOF
