  0
SECTION
  2
HEADER
  9
$ACADVER
  1
AC1027
  9
$ACADMAINTVER
 70
     8
  9
$DWGCODEPAGE
  3
ANSI_932
  9
$REQUIREDVERSIONS
160
                 0
  9
$LASTSAVEDBY
  1
Yasu
  9
$INSBASE
 10
0.0
 20
0.0
 30
0.0
  9
$EXTMIN
 10
1.446671163901087
 20
21.26690214309932
 30
0.0
  9
$EXTMAX
 10
181.1991863227202
 20
157.5477504444801
 30
0.0
  9
$LIMMIN
 10
0.0
 20
0.0
  9
$LIMMAX
 10
12.0
 20
9.0
  9
$ORTHOMODE
 70
     0
  9
$REGENMODE
 70
     1
  9
$FILLMODE
 70
     1
  9
$QTEXTMODE
 70
     0
  9
$MIRRTEXT
 70
     0
  9
$LTSCALE
 40
1.0
  9
$ATTMODE
 70
     1
  9
$TEXTSIZE
 40
0.2
  9
$TRACEWID
 40
0.05
  9
$TEXTSTYLE
  7
Standard
  9
$CLAYER
  8
0
  9
$CELTYPE
  6
ByLayer
  9
$CECOLOR
 62
   256
  9
$CELTSCALE
 40
1.0
  9
$DISPSILH
 70
     0
  9
$DIMSCALE
 40
1.0
  9
$DIMASZ
 40
0.18
  9
$DIMEXO
 40
0.0625
  9
$DIMDLI
 40
0.38
  9
$DIMRND
 40
0.0
  9
$DIMDLE
 40
0.0
  9
$DIMEXE
 40
0.18
  9
$DIMTP
 40
0.0
  9
$DIMTM
 40
0.0
  9
$DIMTXT
 40
0.18
  9
$DIMCEN
 40
0.09
  9
$DIMTSZ
 40
0.0
  9
$DIMTOL
 70
     0
  9
$DIMLIM
 70
     0
  9
$DIMTIH
 70
     1
  9
$DIMTOH
 70
     1
  9
$DIMSE1
 70
     0
  9
$DIMSE2
 70
     0
  9
$DIMTAD
 70
     0
  9
$DIMZIN
 70
     0
  9
$DIMBLK
  1

  9
$DIMASO
 70
     1
  9
$DIMSHO
 70
     1
  9
$DIMPOST
  1

  9
$DIMAPOST
  1

  9
$DIMALT
 70
     0
  9
$DIMALTD
 70
     2
  9
$DIMALTF
 40
25.4
  9
$DIMLFAC
 40
1.0
  9
$DIMTOFL
 70
     0
  9
$DIMTVP
 40
0.0
  9
$DIMTIX
 70
     0
  9
$DIMSOXD
 70
     0
  9
$DIMSAH
 70
     0
  9
$DIMBLK1
  1

  9
$DIMBLK2
  1

  9
$DIMSTYLE
  2
Standard
  9
$DIMCLRD
 70
     0
  9
$DIMCLRE
 70
     0
  9
$DIMCLRT
 70
     0
  9
$DIMTFAC
 40
1.0
  9
$DIMGAP
 40
0.09
  9
$DIMJUST
 70
     0
  9
$DIMSD1
 70
     0
  9
$DIMSD2
 70
     0
  9
$DIMTOLJ
 70
     1
  9
$DIMTZIN
 70
     0
  9
$DIMALTZ
 70
     0
  9
$DIMALTTZ
 70
     0
  9
$DIMUPT
 70
     0
  9
$DIMDEC
 70
     4
  9
$DIMTDEC
 70
     4
  9
$DIMALTU
 70
     2
  9
$DIMALTTD
 70
     2
  9
$DIMTXSTY
  7
Standard
  9
$DIMAUNIT
 70
     0
  9
$DIMADEC
 70
     0
  9
$DIMALTRND
 40
0.0
  9
$DIMAZIN
 70
     0
  9
$DIMDSEP
 70
    46
  9
$DIMATFIT
 70
     3
  9
$DIMFRAC
 70
     0
  9
$DIMLDRBLK
  1

  9
$DIMLUNIT
 70
     2
  9
$DIMLWD
 70
    -2
  9
$DIMLWE
 70
    -2
  9
$DIMTMOVE
 70
     0
  9
$DIMFXL
 40
1.0
  9
$DIMFXLON
 70
     0
  9
$DIMJOGANG
 40
0.7853981633974483
  9
$DIMTFILL
 70
     0
  9
$DIMTFILLCLR
 70
     0
  9
$DIMARCSYM
 70
     0
  9
$DIMLTYPE
  6

  9
$DIMLTEX1
  6

  9
$DIMLTEX2
  6

  9
$DIMTXTDIRECTION
 70
     0
  9
$LUNITS
 70
     2
  9
$LUPREC
 70
     4
  9
$SKETCHINC
 40
0.1
  9
$FILLETRAD
 40
0.0
  9
$AUNITS
 70
     0
  9
$AUPREC
 70
     0
  9
$MENU
  1
.
  9
$ELEVATION
 40
0.0
  9
$PELEVATION
 40
0.0
  9
$THICKNESS
 40
0.0
  9
$LIMCHECK
 70
     0
  9
$CHAMFERA
 40
0.0
  9
$CHAMFERB
 40
0.0
  9
$CHAMFERC
 40
0.0
  9
$CHAMFERD
 40
0.0
  9
$SKPOLY
 70
     0
  9
$TDCREATE
 40
2452643.438384271
  9
$TDUCREATE
 40
2452643.063384271
  9
$TDUPDATE
 40
2456739.925543368
  9
$TDUUPDATE
 40
2456739.550543368
  9
$TDINDWG
 40
0.001473206
  9
$TDUSRTIMER
 40
2456739.550241806
  9
$USRTIMER
 70
     1
  9
$ANGBASE
 50
0.0
  9
$ANGDIR
 70
     0
  9
$PDMODE
 70
     0
  9
$PDSIZE
 40
0.0
  9
$PLINEWID
 40
0.0
  9
$SPLFRAME
 70
     0
  9
$SPLINETYPE
 70
     6
  9
$SPLINESEGS
 70
     8
  9
$HANDSEED
  5
2C0
  9
$SURFTAB1
 70
     6
  9
$SURFTAB2
 70
     6
  9
$SURFTYPE
 70
     6
  9
$SURFU
 70
     6
  9
$SURFV
 70
     6
  9
$UCSBASE
  2

  9
$UCSNAME
  2

  9
$UCSORG
 10
0.0
 20
0.0
 30
0.0
  9
$UCSXDIR
 10
1.0
 20
0.0
 30
0.0
  9
$UCSYDIR
 10
0.0
 20
1.0
 30
0.0
  9
$UCSORTHOREF
  2

  9
$UCSORTHOVIEW
 70
     0
  9
$UCSORGTOP
 10
0.0
 20
0.0
 30
0.0
  9
$UCSORGBOTTOM
 10
0.0
 20
0.0
 30
0.0
  9
$UCSORGLEFT
 10
0.0
 20
0.0
 30
0.0
  9
$UCSORGRIGHT
 10
0.0
 20
0.0
 30
0.0
  9
$UCSORGFRONT
 10
0.0
 20
0.0
 30
0.0
  9
$UCSORGBACK
 10
0.0
 20
0.0
 30
0.0
  9
$PUCSBASE
  2

  9
$PUCSNAME
  2

  9
$PUCSORG
 10
0.0
 20
0.0
 30
0.0
  9
$PUCSXDIR
 10
1.0
 20
0.0
 30
0.0
  9
$PUCSYDIR
 10
0.0
 20
1.0
 30
0.0
  9
$PUCSORTHOREF
  2

  9
$PUCSORTHOVIEW
 70
     0
  9
$PUCSORGTOP
 10
0.0
 20
0.0
 30
0.0
  9
$PUCSORGBOTTOM
 10
0.0
 20
0.0
 30
0.0
  9
$PUCSORGLEFT
 10
0.0
 20
0.0
 30
0.0
  9
$PUCSORGRIGHT
 10
0.0
 20
0.0
 30
0.0
  9
$PUCSORGFRONT
 10
0.0
 20
0.0
 30
0.0
  9
$PUCSORGBACK
 10
0.0
 20
0.0
 30
0.0
  9
$USERI1
 70
     0
  9
$USERI2
 70
     0
  9
$USERI3
 70
     0
  9
$USERI4
 70
     0
  9
$USERI5
 70
     0
  9
$USERR1
 40
0.0
  9
$USERR2
 40
0.0
  9
$USERR3
 40
0.0
  9
$USERR4
 40
0.0
  9
$USERR5
 40
0.0
  9
$WORLDVIEW
 70
     1
  9
$SHADEDGE
 70
     3
  9
$SHADEDIF
 70
    70
  9
$TILEMODE
 70
     1
  9
$MAXACTVP
 70
    64
  9
$PINSBASE
 10
0.0
 20
0.0
 30
0.0
  9
$PLIMCHECK
 70
     0
  9
$PEXTMIN
 10
0.0
 20
0.0
 30
0.0
  9
$PEXTMAX
 10
0.0
 20
0.0
 30
0.0
  9
$PLIMMIN
 10
0.0
 20
0.0
  9
$PLIMMAX
 10
0.0
 20
0.0
  9
$UNITMODE
 70
     0
  9
$VISRETAIN
 70
     1
  9
$PLINEGEN
 70
     0
  9
$PSLTSCALE
 70
     1
  9
$TREEDEPTH
 70
  3020
  9
$CMLSTYLE
  2
Standard
  9
$CMLJUST
 70
     0
  9
$CMLSCALE
 40
1.0
  9
$PROXYGRAPHICS
 70
     1
  9
$MEASUREMENT
 70
     0
  9
$CELWEIGHT
370
    -1
  9
$ENDCAPS
280
     0
  9
$JOINSTYLE
280
     0
  9
$LWDISPLAY
290
     0
  9
$INSUNITS
 70
     1
  9
$HYPERLINKBASE
  1

  9
$STYLESHEET
  1

  9
$XEDIT
290
     1
  9
$CEPSNTYPE
380
     0
  9
$PSTYLEMODE
290
     1
  9
$FINGERPRINTGUID
  2
{FDEAD576-A652-11D2-9A35-0060089B3A3F}
  9
$VERSIONGUID
  2
{FBC2AE19-5C5C-49EC-81BC-71B1A3362A02}
  9
$EXTNAMES
290
     1
  9
$PSVPSCALE
 40
0.0
  9
$OLESTARTUP
290
     0
  9
$SORTENTS
280
   127
  9
$INDEXCTL
280
     0
  9
$HIDETEXT
280
     1
  9
$XCLIPFRAME
280
     0
  9
$HALOGAP
280
     0
  9
$OBSCOLOR
 70
   257
  9
$OBSLTYPE
280
     0
  9
$INTERSECTIONDISPLAY
280
     0
  9
$INTERSECTIONCOLOR
 70
   257
  9
$DIMASSOC
280
     2
  9
$PROJECTNAME
  1

  9
$CAMERADISPLAY
290
     0
  9
$LENSLENGTH
 40
50.0
  9
$CAMERAHEIGHT
 40
0.0
  9
$STEPSPERSEC
 40
2.0
  9
$STEPSIZE
 40
6.0
  9
$3DDWFPREC
 40
2.0
  9
$PSOLWIDTH
 40
0.25
  9
$PSOLHEIGHT
 40
4.0
  9
$LOFTANG1
 40
1.570796326794897
  9
$LOFTANG2
 40
1.570796326794897
  9
$LOFTMAG1
 40
0.0
  9
$LOFTMAG2
 40
0.0
  9
$LOFTPARAM
 70
     7
  9
$LOFTNORMALS
280
     1
  9
$LATITUDE
 40
37.795
  9
$LONGITUDE
 40
-122.394
  9
$NORTHDIRECTION
 40
0.0
  9
$TIMEZONE
 70
 -8000
  9
$LIGHTGLYPHDISPLAY
280
     1
  9
$TILEMODELIGHTSYNCH
280
     1
  9
$CMATERIAL
347
96
  9
$SOLIDHIST
280
     1
  9
$SHOWHIST
280
     1
  9
$DWFFRAME
280
     2
  9
$DGNFRAME
280
     0
  9
$REALWORLDSCALE
290
     1
  9
$INTERFERECOLOR
 62
     1
  9
$CSHADOW
280
     0
  9
$SHADOWPLANELOCATION
 40
0.0
  0
ENDSEC
  0
SECTION
  2
CLASSES
  0
CLASS
  1
ACDBDICTIONARYWDFLT
  2
AcDbDictionaryWithDefault
  3
ObjectDBX Classes
 90
        0
 91
        7
280
     0
281
     0
  0
CLASS
  1
ACDBPLACEHOLDER
  2
AcDbPlaceHolder
  3
ObjectDBX Classes
 90
        0
 91
        1
280
     0
281
     0
  0
CLASS
  1
LAYOUT
  2
AcDbLayout
  3
ObjectDBX Classes
 90
        0
 91
        1
280
     0
281
     0
  0
CLASS
  1
DICTIONARYVAR
  2
AcDbDictionaryVar
  3
ObjectDBX Classes
 90
        0
 91
        5
280
     0
281
     0
  0
CLASS
  1
TABLESTYLE
  2
AcDbTableStyle
  3
ObjectDBX Classes
 90
     4095
 91
        7
280
     0
281
     0
  0
CLASS
  1
MATERIAL
  2
AcDbMaterial
  3
ObjectDBX Classes
 90
     1153
 91
        7
280
     0
281
     0
  0
CLASS
  1
VISUALSTYLE
  2
AcDbVisualStyle
  3
ObjectDBX Classes
 90
     4095
 91
        7
280
     0
281
     0
  0
CLASS
  1
SCALE
  2
AcDbScale
  3
ObjectDBX Classes
 90
     1153
 91
        7
280
     0
281
     0
  0
CLASS
  1
CELLSTYLEMAP
  2
AcDbCellStyleMap
  3
ObjectDBX Classes
 90
     1152
 91
        5
280
     0
281
     0
  0
CLASS
  1
RASTERVARIABLES
  2
AcDbRasterVariables
  3
ISM
 90
        0
 91
        7
280
     0
281
     0
  0
CLASS
  1
SUN
  2
AcDbSun
  3
SCENEOE
 90
     1153
 91
        7
280
     0
281
     0
  0
CLASS
  1
DIMASSOC
  2
AcDbDimAssoc
  3
"AcDbDimAssoc|Product Desc:     AcDim ARX App For Dimension|Company:          Autodesk, Inc.|WEB Address:      www.autodesk.com"
 90
        0
 91
        5
280
     0
281
     0
  0
ENDSEC
  0
SECTION
  2
TABLES
  0
TABLE
  2
VPORT
  5
8
330
0
100
AcDbSymbolTable
 70
     1
  0
VPORT
  5
94
330
8
100
AcDbSymbolTableRecord
100
AcDbViewportTableRecord
  2
*Active
 70
     0
 10
0.0
 20
0.0
 11
1.0
 21
1.0
 12
118.9925223092904
 22
108.9460292516517
 13
0.0
 23
0.0
 14
0.5
 24
0.5
 15
0.5
 25
0.5
 16
0.0
 26
0.0
 36
1.0
 17
-27.66959356597982
 27
-19.53870295786203
 37
0.0
 40
139.0064652674084
 41
1.762376237623762
 42
50.0
 43
0.0
 44
0.0
 50
0.0
 51
0.0
 71
    16
 72
  1000
 73
     1
 74
     3
 75
     0
 76
     0
 77
     0
 78
     0
281
     0
 65
     1
110
0.0
120
0.0
130
0.0
111
1.0
121
0.0
131
0.0
112
0.0
122
1.0
132
0.0
 79
     0
146
0.0
348
9F
 60
     2
 61
     5
292
     1
282
     1
141
0.0
142
0.0
 63
   250
421
  3355443
361
ED
  0
ENDTAB
  0
TABLE
  2
LTYPE
  5
5
330
0
100
AcDbSymbolTable
 70
     2
  0
LTYPE
  5
14
330
5
100
AcDbSymbolTableRecord
100
AcDbLinetypeTableRecord
  2
ByBlock
 70
     0
  3

 72
    65
 73
     0
 40
0.0
  0
LTYPE
  5
15
330
5
100
AcDbSymbolTableRecord
100
AcDbLinetypeTableRecord
  2
ByLayer
 70
     0
  3

 72
    65
 73
     0
 40
0.0
  0
LTYPE
  5
16
330
5
100
AcDbSymbolTableRecord
100
AcDbLinetypeTableRecord
  2
Continuous
 70
     0
  3
Solid line
 72
    65
 73
     0
 40
0.0
  0
LTYPE
  5
129
330
5
100
AcDbSymbolTableRecord
100
AcDbLinetypeTableRecord
  2
CENTER
 70
     0
  3
Center ____ _ ____ _ ____ _ ____ _ ____ _ ____
 72
    65
 73
     4
 40
50.8
 49
31.75
 74
     0
 49
-6.35
 74
     0
 49
6.35
 74
     0
 49
-6.35
 74
     0
  0
ENDTAB
  0
TABLE
  2
LAYER
  5
2
330
0
100
AcDbSymbolTable
 70
     6
  0
LAYER
  5
10
330
2
100
AcDbSymbolTableRecord
100
AcDbLayerTableRecord
  2
0
 70
     0
 62
     7
  6
Continuous
370
    -3
390
F
347
98
348
0
  0
LAYER
  5
125
330
2
100
AcDbSymbolTableRecord
100
AcDbLayerTableRecord
  2
Defpoints
 70
     0
 62
     7
  6
Continuous
290
     0
370
    -3
390
F
347
98
348
0
  0
LAYER
  5
126
330
2
100
AcDbSymbolTableRecord
100
AcDbLayerTableRecord
  2
文字
 70
     0
 62
     7
  6
Continuous
370
    25
390
F
347
98
348
0
  0
LAYER
  5
128
330
2
100
AcDbSymbolTableRecord
100
AcDbLayerTableRecord
  2
中心線
 70
     0
 62
     7
  6
CENTER
370
    30
390
F
347
98
348
0
  0
LAYER
  5
12A
330
2
100
AcDbSymbolTableRecord
100
AcDbLayerTableRecord
  2
実線
 70
     0
 62
     7
  6
Continuous
370
    50
390
F
347
98
348
0
  0
LAYER
  5
291
330
2
100
AcDbSymbolTableRecord
100
AcDbLayerTableRecord
  2
文字・寸法線
 70
     0
 62
     7
  6
Continuous
370
    -3
390
F
347
98
348
0
  0
ENDTAB
  0
TABLE
  2
STYLE
  5
3
330
0
100
AcDbSymbolTable
 70
     1
  0
STYLE
  5
11
330
3
100
AcDbSymbolTableRecord
100
AcDbTextStyleTableRecord
  2
Standard
 70
     0
 40
0.0
 41
1.0
 50
0.0
 71
     0
 42
0.2
  3
arial.ttf
  4

1001
ACAD
1000
Arial
1071
        0
  0
ENDTAB
  0
TABLE
  2
VIEW
  5
6
330
0
100
AcDbSymbolTable
 70
     0
  0
ENDTAB
  0
TABLE
  2
UCS
  5
7
330
0
100
AcDbSymbolTable
 70
     0
  0
ENDTAB
  0
TABLE
  2
APPID
  5
9
330
0
100
AcDbSymbolTable
 70
     1
  0
APPID
  5
12
330
9
100
AcDbSymbolTableRecord
100
AcDbRegAppTableRecord
  2
ACAD
 70
     0
  0
ENDTAB
  0
TABLE
  2
DIMSTYLE
  5
A
330
0
100
AcDbSymbolTable
 70
     2
100
AcDbDimStyleTable
  0
DIMSTYLE
105
27
330
A
100
AcDbSymbolTableRecord
100
AcDbDimStyleTableRecord
  2
Standard
 70
     0
178
     0
340
11
  0
DIMSTYLE
105
12B
102
{ACAD_REACTORS
330
1F9
330
1FC
330
200
330
207
330
21F
330
227
330
22A
102
}
330
A
100
AcDbSymbolTableRecord
100
AcDbDimStyleTableRecord
  2
ISO-25
 70
     0
 41
2.5
 42
0.625
 43
3.75
 44
1.25
 73
     0
 74
     0
 77
     1
 78
     8
140
2.5
141
2.5
143
0.03937007874016
147
0.625
171
     3
172
     1
178
     0
271
     2
272
     2
274
     3
283
     0
284
     8
340
11
  0
ENDTAB
  0
TABLE
  2
BLOCK_RECORD
  5
1
330
0
100
AcDbSymbolTable
 70
    17
  0
BLOCK_RECORD
  5
1F
330
1
100
AcDbSymbolTableRecord
100
AcDbBlockTableRecord
  2
*Model_Space
340
22
 70
     0
280
     1
281
     0
  0
BLOCK_RECORD
  5
58
330
1
100
AcDbSymbolTableRecord
100
AcDbBlockTableRecord
  2
*Paper_Space
340
59
 70
     0
280
     1
281
     0
  0
BLOCK_RECORD
  5
5D
330
1
100
AcDbSymbolTableRecord
100
AcDbBlockTableRecord
  2
*Paper_Space0
340
5E
 70
     0
280
     1
281
     0
  0
BLOCK_RECORD
  5
159
330
1
100
AcDbSymbolTableRecord
100
AcDbBlockTableRecord
  2
*D1
340
0
 70
     0
280
     1
281
     0
  0
BLOCK_RECORD
  5
168
330
1
100
AcDbSymbolTableRecord
100
AcDbBlockTableRecord
  2
*D2
340
0
 70
     0
280
     1
281
     0
  0
BLOCK_RECORD
  5
176
330
1
100
AcDbSymbolTableRecord
100
AcDbBlockTableRecord
  2
*D3
340
0
 70
     0
280
     1
281
     0
  0
BLOCK_RECORD
  5
18B
330
1
100
AcDbSymbolTableRecord
100
AcDbBlockTableRecord
  2
*D4
340
0
 70
     0
280
     1
281
     0
  0
BLOCK_RECORD
  5
1AF
330
1
100
AcDbSymbolTableRecord
100
AcDbBlockTableRecord
  2
*D5
340
0
 70
     0
280
     1
281
     0
  0
BLOCK_RECORD
  5
1C0
330
1
100
AcDbSymbolTableRecord
100
AcDbBlockTableRecord
  2
*D6
340
0
 70
     0
280
     1
281
     0
  0
BLOCK_RECORD
  5
1CF
330
1
100
AcDbSymbolTableRecord
100
AcDbBlockTableRecord
  2
*D7
340
0
 70
     0
280
     1
281
     0
  0
BLOCK_RECORD
  5
1DE
330
1
100
AcDbSymbolTableRecord
100
AcDbBlockTableRecord
  2
*D8
340
0
 70
     0
280
     1
281
     0
  0
BLOCK_RECORD
  5
22D
330
1
100
AcDbSymbolTableRecord
100
AcDbBlockTableRecord
  2
*D9
340
0
 70
     0
280
     1
281
     0
  0
BLOCK_RECORD
  5
239
330
1
100
AcDbSymbolTableRecord
100
AcDbBlockTableRecord
  2
*D10
340
0
 70
     0
280
     1
281
     0
  0
BLOCK_RECORD
  5
245
330
1
100
AcDbSymbolTableRecord
100
AcDbBlockTableRecord
  2
*D11
340
0
 70
     0
280
     1
281
     0
  0
BLOCK_RECORD
  5
251
330
1
100
AcDbSymbolTableRecord
100
AcDbBlockTableRecord
  2
*D12
340
0
 70
     0
280
     1
281
     0
  0
BLOCK_RECORD
  5
25D
330
1
100
AcDbSymbolTableRecord
100
AcDbBlockTableRecord
  2
*D13
340
0
 70
     0
280
     1
281
     0
  0
BLOCK_RECORD
  5
269
330
1
100
AcDbSymbolTableRecord
100
AcDbBlockTableRecord
  2
*D14
340
0
 70
     0
280
     1
281
     0
  0
BLOCK_RECORD
  5
275
330
1
100
AcDbSymbolTableRecord
100
AcDbBlockTableRecord
  2
*D15
340
0
 70
     0
280
     1
281
     0
  0
BLOCK_RECORD
  5
281
330
1
100
AcDbSymbolTableRecord
100
AcDbBlockTableRecord
  2
*D16
340
0
 70
     0
280
     1
281
     0
  0
ENDTAB
  0
ENDSEC
  0
SECTION
  2
BLOCKS
  0
BLOCK
  5
20
330
1F
100
AcDbEntity
  8
0
100
AcDbBlockBegin
  2
*Model_Space
 70
     0
 10
0.0
 20
0.0
 30
0.0
  3
*Model_Space
  1
*Model_Space
  0
ENDBLK
  5
21
330
1F
100
AcDbEntity
  8
0
100
AcDbBlockEnd
  0
BLOCK
  5
5A
330
58
100
AcDbEntity
 67
     1
  8
0
100
AcDbBlockBegin
  2
*Paper_Space
 70
     0
 10
0.0
 20
0.0
 30
0.0
  3
*Paper_Space
  1
*Paper_Space
  0
ENDBLK
  5
5B
330
58
100
AcDbEntity
 67
     1
  8
0
100
AcDbBlockEnd
  0
BLOCK
  5
5F
330
5D
100
AcDbEntity
  8
0
100
AcDbBlockBegin
  2
*Paper_Space0
 70
     0
 10
0.0
 20
0.0
 30
0.0
  3
*Paper_Space0
  1
*Paper_Space0
  0
ENDBLK
  5
60
330
5D
100
AcDbEntity
  8
0
100
AcDbBlockEnd
  0
BLOCK
  5
15A
330
159
100
AcDbEntity
  8
0
370
    30
100
AcDbBlockBegin
  2
*D1
 70
     1
 10
0.0
 20
0.0
 30
0.0
  3
*D1
  1
*D2
  0
LINE
  5
15B
330
159
100
AcDbEntity
  8
文字
 62
     0
370
    -2
100
AcDbLine
 10
126.5131252593547
 20
68.64749773899618
 30
0.0
 11
126.5131252593547
 21
34.98210013867205
 31
0.0
  0
LINE
  5
15C
330
159
100
AcDbEntity
  8
文字
 62
     0
370
    -2
100
AcDbLine
 10
143.4872231735297
 20
68.64749773899618
 30
0.0
 11
143.4872231735297
 21
34.98210013867205
 31
0.0
  0
LINE
  5
15D
330
159
100
AcDbEntity
  8
文字
 62
     0
370
    -2
100
AcDbLine
 10
129.0131252593547
 20
36.23210013867205
 30
0.0
 11
140.9872231735297
 21
36.23210013867205
 31
0.0
  0
SOLID
  5
15E
330
159
100
AcDbEntity
  8
文字
 62
     0
100
AcDbTrace
 10
129.0131252593547
 20
36.64876680533872
 30
0.0
 11
129.0131252593547
 21
35.81543347200539
 31
0.0
 12
126.5131252593547
 22
36.23210013867205
 32
0.0
 13
126.5131252593547
 23
36.23210013867205
 33
0.0
  0
SOLID
  5
15F
330
159
100
AcDbEntity
  8
文字
 62
     0
100
AcDbTrace
 10
140.9872231735297
 20
35.81543347200539
 30
0.0
 11
140.9872231735297
 21
36.64876680533872
 31
0.0
 12
143.4872231735297
 22
36.23210013867205
 32
0.0
 13
143.4872231735297
 23
36.23210013867205
 33
0.0
  0
MTEXT
  5
160
330
159
100
AcDbEntity
  8
文字
 62
     0
100
AcDbMText
 10
135.0001742164422
 20
38.11221610047287
 30
0.0
 40
2.5
 41
0.0
 46
0.0
 71
     5
 72
     1
  1
17
 73
     1
 44
1.0
  0
POINT
  5
161
330
159
100
AcDbEntity
  8
Defpoints
 62
     0
100
AcDbPoint
 10
126.5131252593547
 20
69.27249773899618
 30
0.0
  0
POINT
  5
162
330
159
100
AcDbEntity
  8
Defpoints
 62
     0
100
AcDbPoint
 10
143.4872231735297
 20
69.27249773899618
 30
0.0
  0
POINT
  5
163
330
159
100
AcDbEntity
  8
Defpoints
 62
     0
100
AcDbPoint
 10
143.4872231735297
 20
36.23210013867205
 30
0.0
  0
ENDBLK
  5
164
330
159
100
AcDbEntity
  8
0
370
    30
100
AcDbBlockEnd
  0
BLOCK
  5
169
330
168
100
AcDbEntity
  8
0
370
    30
100
AcDbBlockBegin
  2
*D2
 70
     1
 10
0.0
 20
0.0
 30
0.0
  3
*D2
  1
*D3
  0
LINE
  5
16A
330
168
100
AcDbEntity
  8
文字
 62
     0
370
    -2
100
AcDbLine
 10
30.42500000000003
 20
35.14865503159302
 30
0.0
 11
66.58954039580837
 21
35.14865503159302
 31
0.0
  0
LINE
  5
16B
330
168
100
AcDbEntity
  8
文字
 62
     0
370
    -2
100
AcDbLine
 10
30.42500000000003
 20
42.14865503159302
 30
0.0
 11
66.58954039580837
 21
42.14865503159302
 31
0.0
  0
LINE
  5
16C
330
168
100
AcDbEntity
  8
文字
 62
     0
370
    -2
100
AcDbLine
 10
65.33954039580837
 20
37.64865503159302
 30
0.0
 11
65.33954039580837
 21
39.64865503159302
 31
0.0
  0
SOLID
  5
16D
330
168
100
AcDbEntity
  8
文字
 62
     0
100
AcDbTrace
 10
64.9228737291417
 20
37.64865503159302
 30
0.0
 11
65.75620706247504
 21
37.64865503159302
 31
0.0
 12
65.33954039580837
 22
35.14865503159302
 32
0.0
 13
65.33954039580837
 23
35.14865503159302
 33
0.0
  0
SOLID
  5
16E
330
168
100
AcDbEntity
  8
文字
 62
     0
100
AcDbTrace
 10
65.75620706247504
 20
39.64865503159302
 30
0.0
 11
64.9228737291417
 21
39.64865503159302
 31
0.0
 12
65.33954039580837
 22
42.14865503159302
 32
0.0
 13
65.33954039580837
 23
42.14865503159302
 33
0.0
  0
MTEXT
  5
16F
330
168
100
AcDbEntity
  8
文字
 62
     0
100
AcDbMText
 10
63.46454039580837
 20
38.64865503159302
 30
0.0
 40
2.5
 41
0.0
 46
0.0
 71
     5
 72
     1
  1
7
 11
0.0
 21
1.0
 31
0.0
 73
     1
 44
1.0
  0
POINT
  5
170
330
168
100
AcDbEntity
  8
Defpoints
 62
     0
100
AcDbPoint
 10
29.80000000000003
 20
35.14865503159302
 30
0.0
  0
POINT
  5
171
330
168
100
AcDbEntity
  8
Defpoints
 62
     0
100
AcDbPoint
 10
29.80000000000003
 20
42.14865503159302
 30
0.0
  0
POINT
  5
172
330
168
100
AcDbEntity
  8
Defpoints
 62
     0
100
AcDbPoint
 10
65.33954039580837
 20
42.14865503159302
 30
0.0
  0
ENDBLK
  5
173
330
168
100
AcDbEntity
  8
0
370
    30
100
AcDbBlockEnd
  0
BLOCK
  5
177
330
176
100
AcDbEntity
  8
0
370
    20
100
AcDbBlockBegin
  2
*D3
 70
     1
 10
0.0
 20
0.0
 30
0.0
  3
*D3
  1
*D4
  0
LINE
  5
178
330
176
100
AcDbEntity
  8
文字
 62
     0
370
    -2
100
AcDbLine
 10
15.00000000000003
 20
91.77365503159302
 30
0.0
 11
15.00000000000003
 21
108.0723792480161
 31
0.0
  0
LINE
  5
179
330
176
100
AcDbEntity
  8
文字
 62
     0
370
    -2
100
AcDbLine
 10
25.00000000000003
 20
91.77365503159305
 30
0.0
 11
25.00000000000003
 21
108.0723792480161
 31
0.0
  0
LINE
  5
17A
330
176
100
AcDbEntity
  8
文字
 62
     0
370
    -2
100
AcDbLine
 10
17.50000000000003
 20
106.8223792480161
 30
0.0
 11
22.50000000000003
 21
106.8223792480161
 31
0.0
  0
SOLID
  5
17B
330
176
100
AcDbEntity
  8
文字
 62
     0
100
AcDbTrace
 10
17.50000000000003
 20
107.2390459146828
 30
0.0
 11
17.50000000000003
 21
106.4057125813495
 31
0.0
 12
15.00000000000003
 22
106.8223792480161
 32
0.0
 13
15.00000000000003
 23
106.8223792480161
 33
0.0
  0
SOLID
  5
17C
330
176
100
AcDbEntity
  8
文字
 62
     0
100
AcDbTrace
 10
22.50000000000003
 20
106.4057125813495
 30
0.0
 11
22.50000000000003
 21
107.2390459146828
 31
0.0
 12
25.00000000000003
 22
106.8223792480161
 32
0.0
 13
25.00000000000003
 23
106.8223792480161
 33
0.0
  0
MTEXT
  5
17D
330
176
100
AcDbEntity
  8
文字
 62
     0
100
AcDbMText
 10
20.00000000000003
 20
108.7229590570202
 30
0.0
 40
2.5
 41
0.0
 46
0.0
 71
     5
 72
     1
  1
{\fArial|b0|i0|c0|p32;M10}
 73
     1
 44
1.0
  0
POINT
  5
17E
330
176
100
AcDbEntity
  8
Defpoints
 62
     0
100
AcDbPoint
 10
15.00000000000003
 20
91.14865503159302
 30
0.0
  0
POINT
  5
17F
330
176
100
AcDbEntity
  8
Defpoints
 62
     0
100
AcDbPoint
 10
25.00000000000003
 20
91.14865503159305
 30
0.0
  0
POINT
  5
180
330
176
100
AcDbEntity
  8
Defpoints
 62
     0
100
AcDbPoint
 10
25.00000000000003
 20
106.8223792480161
 30
0.0
  0
ENDBLK
  5
181
330
176
100
AcDbEntity
  8
0
370
    20
100
AcDbBlockEnd
  0
BLOCK
  5
18C
330
18B
100
AcDbEntity
  8
0
100
AcDbBlockBegin
  2
*D4
 70
     1
 10
0.0
 20
0.0
 30
0.0
  3
*D4
  1
*D5
  0
LINE
  5
18D
330
18B
100
AcDbEntity
  8
文字
 62
     0
370
    -2
100
AcDbLine
 10
31.05000000000003
 20
42.14865503159302
 30
0.0
 11
66.58954039580837
 21
42.14865503159302
 31
0.0
  0
LINE
  5
18E
330
18B
100
AcDbEntity
  8
文字
 62
     0
370
    -2
100
AcDbLine
 10
23.62500000000003
 20
92.14865503159302
 30
0.0
 11
66.58954039580837
 21
92.14865503159302
 31
0.0
  0
LINE
  5
18F
330
18B
100
AcDbEntity
  8
文字
 62
     0
370
    -2
100
AcDbLine
 10
65.33954039580837
 20
44.64865503159302
 30
0.0
 11
65.33954039580837
 21
89.64865503159302
 31
0.0
  0
SOLID
  5
190
330
18B
100
AcDbEntity
  8
文字
 62
     0
100
AcDbTrace
 10
64.9228737291417
 20
44.64865503159302
 30
0.0
 11
65.75620706247504
 21
44.64865503159302
 31
0.0
 12
65.33954039580837
 22
42.14865503159302
 32
0.0
 13
65.33954039580837
 23
42.14865503159302
 33
0.0
  0
SOLID
  5
191
330
18B
100
AcDbEntity
  8
文字
 62
     0
100
AcDbTrace
 10
65.75620706247504
 20
89.64865503159302
 30
0.0
 11
64.9228737291417
 21
89.64865503159302
 31
0.0
 12
65.33954039580837
 22
92.14865503159302
 32
0.0
 13
65.33954039580837
 23
92.14865503159302
 33
0.0
  0
MTEXT
  5
192
330
18B
100
AcDbEntity
  8
文字
 62
     0
100
AcDbMText
 10
63.43896058680427
 20
67.14865503159302
 30
0.0
 40
2.5
 41
0.0
 46
0.0
 71
     5
 72
     1
  1
50
 11
0.0
 21
1.0
 31
0.0
 73
     1
 44
1.0
  0
POINT
  5
193
330
18B
100
AcDbEntity
  8
Defpoints
 62
     0
100
AcDbPoint
 10
30.42500000000003
 20
42.14865503159302
 30
0.0
  0
POINT
  5
194
330
18B
100
AcDbEntity
  8
Defpoints
 62
     0
100
AcDbPoint
 10
23.00000000000003
 20
92.14865503159302
 30
0.0
  0
POINT
  5
195
330
18B
100
AcDbEntity
  8
Defpoints
 62
     0
100
AcDbPoint
 10
65.33954039580837
 20
92.14865503159302
 30
0.0
  0
ENDBLK
  5
196
330
18B
100
AcDbEntity
  8
0
100
AcDbBlockEnd
  0
BLOCK
  5
1B0
330
1AF
100
AcDbEntity
  8
0
100
AcDbBlockBegin
  2
*D5
 70
     1
 10
0.0
 20
0.0
 30
0.0
  3
*D5
  1
*D6
  0
LINE
  5
1B1
330
1AF
100
AcDbEntity
  8
文字
 62
     0
370
    -2
100
AcDbLine
 10
38.62500000000003
 20
20.64865503159302
 30
0.0
 11
66.58954039580837
 21
20.64865503159302
 31
0.0
  0
LINE
  5
1B2
330
1AF
100
AcDbEntity
  8
文字
 62
     0
370
    -2
100
AcDbLine
 10
31.05000000000003
 20
35.14865503159302
 30
0.0
 11
66.58954039580837
 21
35.14865503159302
 31
0.0
  0
LINE
  5
1B3
330
1AF
100
AcDbEntity
  8
文字
 62
     0
370
    -2
100
AcDbLine
 10
65.33954039580837
 20
23.14865503159302
 30
0.0
 11
65.33954039580837
 21
32.64865503159302
 31
0.0
  0
SOLID
  5
1B4
330
1AF
100
AcDbEntity
  8
文字
 62
     0
100
AcDbTrace
 10
64.9228737291417
 20
23.14865503159302
 30
0.0
 11
65.75620706247504
 21
23.14865503159302
 31
0.0
 12
65.33954039580837
 22
20.64865503159302
 32
0.0
 13
65.33954039580837
 23
20.64865503159302
 33
0.0
  0
SOLID
  5
1B5
330
1AF
100
AcDbEntity
  8
文字
 62
     0
100
AcDbTrace
 10
65.75620706247504
 20
32.64865503159302
 30
0.0
 11
64.9228737291417
 21
32.64865503159302
 31
0.0
 12
65.33954039580837
 22
35.14865503159302
 32
0.0
 13
65.33954039580837
 23
35.14865503159302
 33
0.0
  0
MTEXT
  5
1B6
330
1AF
100
AcDbEntity
  8
文字
 62
     0
100
AcDbMText
 10
63.43896058680428
 20
27.89865503159302
 30
0.0
 40
2.5
 41
0.0
 46
0.0
 71
     5
 72
     1
  1
14.5
 11
0.0
 21
1.0
 31
0.0
 73
     1
 44
1.0
  0
POINT
  5
1B7
330
1AF
100
AcDbEntity
  8
Defpoints
 62
     0
100
AcDbPoint
 10
38.00000000000003
 20
20.64865503159302
 30
0.0
  0
POINT
  5
1B8
330
1AF
100
AcDbEntity
  8
Defpoints
 62
     0
100
AcDbPoint
 10
30.42500000000003
 20
35.14865503159302
 30
0.0
  0
POINT
  5
1B9
330
1AF
100
AcDbEntity
  8
Defpoints
 62
     0
100
AcDbPoint
 10
65.33954039580837
 20
35.14865503159302
 30
0.0
  0
ENDBLK
  5
1BA
330
1AF
100
AcDbEntity
  8
0
100
AcDbBlockEnd
  0
BLOCK
  5
1C1
330
1C0
100
AcDbEntity
  8
0
100
AcDbBlockBegin
  2
*D6
 70
     1
 10
0.0
 20
0.0
 30
0.0
  3
*D6
  1
*D7
  0
LINE
  5
1C2
330
1C0
100
AcDbEntity
  8
文字
 62
     0
370
    -2
100
AcDbLine
 10
2.000000000000028
 20
20.02365503159302
 30
0.0
 11
2.000000000000028
 21
0.0
 31
0.0
  0
LINE
  5
1C3
330
1C0
100
AcDbEntity
  8
文字
 62
     0
370
    -2
100
AcDbLine
 10
38.00000000000003
 20
20.02365503159302
 30
0.0
 11
38.00000000000003
 21
0.0
 31
0.0
  0
LINE
  5
1C4
330
1C0
100
AcDbEntity
  8
文字
 62
     0
370
    -2
100
AcDbLine
 10
4.500000000000028
 20
1.25
 30
0.0
 11
35.50000000000003
 21
1.25
 31
0.0
  0
SOLID
  5
1C5
330
1C0
100
AcDbEntity
  8
文字
 62
     0
100
AcDbTrace
 10
4.500000000000028
 20
1.666666666666667
 30
0.0
 11
4.500000000000028
 21
0.8333333333333333
 31
0.0
 12
2.000000000000028
 22
1.25
 32
0.0
 13
2.000000000000028
 23
1.25
 33
0.0
  0
SOLID
  5
1C6
330
1C0
100
AcDbEntity
  8
文字
 62
     0
100
AcDbTrace
 10
35.50000000000003
 20
0.8333333333333333
 30
0.0
 11
35.50000000000003
 21
1.666666666666667
 31
0.0
 12
38.00000000000003
 22
1.25
 32
0.0
 13
38.00000000000003
 23
1.25
 33
0.0
  0
MTEXT
  5
1C7
330
1C0
100
AcDbEntity
  8
文字
 62
     0
100
AcDbMText
 10
20.00000000000003
 20
3.198328785811733
 30
0.0
 40
2.5
 41
0.0
 46
0.0
 71
     5
 72
     1
  1
%%c36
 73
     1
 44
1.0
  0
POINT
  5
1C8
330
1C0
100
AcDbEntity
  8
Defpoints
 62
     0
100
AcDbPoint
 10
2.000000000000028
 20
20.64865503159302
 30
0.0
  0
POINT
  5
1C9
330
1C0
100
AcDbEntity
  8
Defpoints
 62
     0
100
AcDbPoint
 10
38.00000000000003
 20
20.64865503159302
 30
0.0
  0
POINT
  5
1CA
330
1C0
100
AcDbEntity
  8
Defpoints
 62
     0
100
AcDbPoint
 10
38.00000000000003
 20
1.25
 30
0.0
  0
ENDBLK
  5
1CB
330
1C0
100
AcDbEntity
  8
0
100
AcDbBlockEnd
  0
BLOCK
  5
1D0
330
1CF
100
AcDbEntity
  8
0
100
AcDbBlockBegin
  2
*D7
 70
     1
 10
0.0
 20
0.0
 30
0.0
  3
*D7
  1
*D8
  0
LINE
  5
1D1
330
1CF
100
AcDbEntity
  8
文字
 62
     0
370
    -2
100
AcDbLine
 10
123.0001742164422
 20
68.6474977389962
 30
0.0
 11
123.0001742164422
 21
26.69599982153038
 31
0.0
  0
LINE
  5
1D2
330
1CF
100
AcDbEntity
  8
文字
 62
     0
370
    -2
100
AcDbLine
 10
147.0001742164422
 20
68.6474977389962
 30
0.0
 11
147.0001742164422
 21
26.69599982153038
 31
0.0
  0
LINE
  5
1D3
330
1CF
100
AcDbEntity
  8
文字
 62
     0
370
    -2
100
AcDbLine
 10
125.5001742164422
 20
27.94599982153038
 30
0.0
 11
144.5001742164422
 21
27.94599982153038
 31
0.0
  0
SOLID
  5
1D4
330
1CF
100
AcDbEntity
  8
文字
 62
     0
100
AcDbTrace
 10
125.5001742164422
 20
28.36266648819705
 30
0.0
 11
125.5001742164422
 21
27.52933315486371
 31
0.0
 12
123.0001742164422
 22
27.94599982153038
 32
0.0
 13
123.0001742164422
 23
27.94599982153038
 33
0.0
  0
SOLID
  5
1D5
330
1CF
100
AcDbEntity
  8
文字
 62
     0
100
AcDbTrace
 10
144.5001742164422
 20
27.52933315486371
 30
0.0
 11
144.5001742164422
 21
28.36266648819705
 31
0.0
 12
147.0001742164422
 22
27.94599982153038
 32
0.0
 13
147.0001742164422
 23
27.94599982153038
 33
0.0
  0
MTEXT
  5
1D6
330
1CF
100
AcDbEntity
  8
文字
 62
     0
100
AcDbMText
 10
135.0001742164422
 20
29.89432860734211
 30
0.0
 40
2.5
 41
0.0
 46
0.0
 71
     5
 72
     1
  1
%%c24
 73
     1
 44
1.0
  0
POINT
  5
1D7
330
1CF
100
AcDbEntity
  8
Defpoints
 62
     0
100
AcDbPoint
 10
123.0001742164422
 20
69.2724977389962
 30
0.0
  0
POINT
  5
1D8
330
1CF
100
AcDbEntity
  8
Defpoints
 62
     0
100
AcDbPoint
 10
147.0001742164422
 20
69.2724977389962
 30
0.0
  0
POINT
  5
1D9
330
1CF
100
AcDbEntity
  8
Defpoints
 62
     0
100
AcDbPoint
 10
147.0001742164422
 20
27.94599982153038
 30
0.0
  0
ENDBLK
  5
1DA
330
1CF
100
AcDbEntity
  8
0
100
AcDbBlockEnd
  0
BLOCK
  5
1DF
330
1DE
100
AcDbEntity
  8
0
100
AcDbBlockBegin
  2
*D8
 70
     1
 10
0.0
 20
0.0
 30
0.0
  3
*D8
  1
*D9
  0
LINE
  5
1E0
330
1DE
100
AcDbEntity
  8
文字
 62
     0
370
    -2
100
AcDbLine
 10
115.0001742164422
 20
68.6474977389962
 30
0.0
 11
115.0001742164422
 21
18.44631971519549
 31
0.0
  0
LINE
  5
1E1
330
1DE
100
AcDbEntity
  8
文字
 62
     0
370
    -2
100
AcDbLine
 10
155.0001742164422
 20
68.6474977389962
 30
0.0
 11
155.0001742164422
 21
18.44631971519549
 31
0.0
  0
LINE
  5
1E2
330
1DE
100
AcDbEntity
  8
文字
 62
     0
370
    -2
100
AcDbLine
 10
117.5001742164422
 20
19.69631971519549
 30
0.0
 11
152.5001742164422
 21
19.69631971519549
 31
0.0
  0
SOLID
  5
1E3
330
1DE
100
AcDbEntity
  8
文字
 62
     0
100
AcDbTrace
 10
117.5001742164422
 20
20.11298638186215
 30
0.0
 11
117.5001742164422
 21
19.27965304852882
 31
0.0
 12
115.0001742164422
 22
19.69631971519549
 32
0.0
 13
115.0001742164422
 23
19.69631971519549
 33
0.0
  0
SOLID
  5
1E4
330
1DE
100
AcDbEntity
  8
文字
 62
     0
100
AcDbTrace
 10
152.5001742164422
 20
19.27965304852882
 30
0.0
 11
152.5001742164422
 21
20.11298638186215
 31
0.0
 12
155.0001742164422
 22
19.69631971519549
 32
0.0
 13
155.0001742164422
 23
19.69631971519549
 33
0.0
  0
MTEXT
  5
1E5
330
1DE
100
AcDbEntity
  8
文字
 62
     0
100
AcDbMText
 10
135.0001742164422
 20
21.64464850100722
 30
0.0
 40
2.5
 41
0.0
 46
0.0
 71
     5
 72
     1
  1
%%c40
 73
     1
 44
1.0
  0
POINT
  5
1E6
330
1DE
100
AcDbEntity
  8
Defpoints
 62
     0
100
AcDbPoint
 10
115.0001742164422
 20
69.2724977389962
 30
0.0
  0
POINT
  5
1E7
330
1DE
100
AcDbEntity
  8
Defpoints
 62
     0
100
AcDbPoint
 10
155.0001742164422
 20
69.2724977389962
 30
0.0
  0
POINT
  5
1E8
330
1DE
100
AcDbEntity
  8
Defpoints
 62
     0
100
AcDbPoint
 10
155.0001742164422
 20
19.69631971519549
 30
0.0
  0
ENDBLK
  5
1E9
330
1DE
100
AcDbEntity
  8
0
100
AcDbBlockEnd
  0
BLOCK
  5
22E
330
22D
100
AcDbEntity
  8
0
100
AcDbBlockBegin
  2
*D9
 70
     1
 10
0.0
 20
0.0
 30
0.0
  3
*D9
  1
*D10
  0
LINE
  5
230
330
22D
100
AcDbEntity
  8
文字
 62
     0
370
    -2
100
AcDbLine
 10
147.191136448225
 20
86.50103299897793
 30
0.0
 11
147.191136448225
 21
52.83563539865381
 31
0.0
  0
LINE
  5
231
330
22D
100
AcDbEntity
  8
文字
 62
     0
370
    -2
100
AcDbLine
 10
164.1652343624
 20
86.50103299897793
 30
0.0
 11
164.1652343624
 21
52.83563539865381
 31
0.0
  0
LINE
  5
232
330
22D
100
AcDbEntity
  8
文字
 62
     0
370
    -2
100
AcDbLine
 10
149.691136448225
 20
54.08563539865381
 30
0.0
 11
161.6652343624
 21
54.08563539865381
 31
0.0
  0
SOLID
  5
233
330
22D
100
AcDbEntity
  8
文字
 62
     0
100
AcDbTrace
 10
149.691136448225
 20
54.50230206532048
 30
0.0
 11
149.691136448225
 21
53.66896873198715
 31
0.0
 12
147.191136448225
 22
54.08563539865381
 32
0.0
 13
147.191136448225
 23
54.08563539865381
 33
0.0
  0
SOLID
  5
234
330
22D
100
AcDbEntity
  8
文字
 62
     0
100
AcDbTrace
 10
161.6652343624
 20
53.66896873198715
 30
0.0
 11
161.6652343624
 21
54.50230206532048
 31
0.0
 12
164.1652343624
 22
54.08563539865381
 32
0.0
 13
164.1652343624
 23
54.08563539865381
 33
0.0
  0
MTEXT
  5
235
330
22D
100
AcDbEntity
  8
文字
 62
     0
100
AcDbMText
 10
155.6781854053125
 20
55.96575136045463
 30
0.0
 40
2.5
 41
0.0
 46
0.0
 71
     5
 72
     1
  1
17
 73
     1
 44
1.0
  0
POINT
  5
236
330
22D
100
AcDbEntity
  8
Defpoints
 62
     0
100
AcDbPoint
 10
147.191136448225
 20
87.12603299897793
 30
0.0
  0
POINT
  5
237
330
22D
100
AcDbEntity
  8
Defpoints
 62
     0
100
AcDbPoint
 10
164.1652343624
 20
87.12603299897793
 30
0.0
  0
POINT
  5
238
330
22D
100
AcDbEntity
  8
Defpoints
 62
     0
100
AcDbPoint
 10
164.1652343624
 20
54.08563539865381
 30
0.0
  0
ENDBLK
  5
22F
330
22D
100
AcDbEntity
  8
0
100
AcDbBlockEnd
  0
BLOCK
  5
23A
330
239
100
AcDbEntity
  8
0
100
AcDbBlockBegin
  2
*D10
 70
     1
 10
0.0
 20
0.0
 30
0.0
  3
*D10
  1
*D11
  0
LINE
  5
23C
330
239
100
AcDbEntity
  8
文字
 62
     0
370
    -2
100
AcDbLine
 10
51.10301118887026
 20
53.00219029157478
 30
0.0
 11
87.26755158467861
 21
53.00219029157478
 31
0.0
  0
LINE
  5
23D
330
239
100
AcDbEntity
  8
文字
 62
     0
370
    -2
100
AcDbLine
 10
51.10301118887026
 20
60.00219029157478
 30
0.0
 11
87.26755158467861
 21
60.00219029157478
 31
0.0
  0
LINE
  5
23E
330
239
100
AcDbEntity
  8
文字
 62
     0
370
    -2
100
AcDbLine
 10
86.01755158467861
 20
55.50219029157478
 30
0.0
 11
86.01755158467861
 21
57.50219029157478
 31
0.0
  0
SOLID
  5
23F
330
239
100
AcDbEntity
  8
文字
 62
     0
100
AcDbTrace
 10
85.60088491801194
 20
55.50219029157478
 30
0.0
 11
86.43421825134529
 21
55.50219029157478
 31
0.0
 12
86.01755158467861
 22
53.00219029157478
 32
0.0
 13
86.01755158467861
 23
53.00219029157478
 33
0.0
  0
SOLID
  5
240
330
239
100
AcDbEntity
  8
文字
 62
     0
100
AcDbTrace
 10
86.43421825134529
 20
57.50219029157478
 30
0.0
 11
85.60088491801194
 21
57.50219029157478
 31
0.0
 12
86.01755158467861
 22
60.00219029157478
 32
0.0
 13
86.01755158467861
 23
60.00219029157478
 33
0.0
  0
MTEXT
  5
241
330
239
100
AcDbEntity
  8
文字
 62
     0
100
AcDbMText
 10
84.14255158467861
 20
56.50219029157478
 30
0.0
 40
2.5
 41
0.0
 46
0.0
 71
     5
 72
     1
  1
7
 11
0.0
 21
1.0
 31
0.0
 73
     1
 44
1.0
  0
POINT
  5
242
330
239
100
AcDbEntity
  8
Defpoints
 62
     0
100
AcDbPoint
 10
50.47801118887026
 20
53.00219029157478
 30
0.0
  0
POINT
  5
243
330
239
100
AcDbEntity
  8
Defpoints
 62
     0
100
AcDbPoint
 10
50.47801118887026
 20
60.00219029157478
 30
0.0
  0
POINT
  5
244
330
239
100
AcDbEntity
  8
Defpoints
 62
     0
100
AcDbPoint
 10
86.01755158467861
 20
60.00219029157478
 30
0.0
  0
ENDBLK
  5
23B
330
239
100
AcDbEntity
  8
0
100
AcDbBlockEnd
  0
BLOCK
  5
246
330
245
100
AcDbEntity
  8
0
100
AcDbBlockBegin
  2
*D11
 70
     1
 10
0.0
 20
0.0
 30
0.0
  3
*D11
  1
*D12
  0
LINE
  5
248
330
245
100
AcDbEntity
  8
文字
 62
     0
370
    -2
100
AcDbLine
 10
35.67801118887026
 20
109.6271902915748
 30
0.0
 11
35.67801118887026
 21
125.9259145079979
 31
0.0
  0
LINE
  5
249
330
245
100
AcDbEntity
  8
文字
 62
     0
370
    -2
100
AcDbLine
 10
45.67801118887026
 20
109.6271902915748
 30
0.0
 11
45.67801118887026
 21
125.9259145079979
 31
0.0
  0
LINE
  5
24A
330
245
100
AcDbEntity
  8
文字
 62
     0
370
    -2
100
AcDbLine
 10
38.17801118887026
 20
124.6759145079979
 30
0.0
 11
43.17801118887026
 21
124.6759145079979
 31
0.0
  0
SOLID
  5
24B
330
245
100
AcDbEntity
  8
文字
 62
     0
100
AcDbTrace
 10
38.17801118887026
 20
125.0925811746646
 30
0.0
 11
38.17801118887026
 21
124.2592478413312
 31
0.0
 12
35.67801118887026
 22
124.6759145079979
 32
0.0
 13
35.67801118887026
 23
124.6759145079979
 33
0.0
  0
SOLID
  5
24C
330
245
100
AcDbEntity
  8
文字
 62
     0
100
AcDbTrace
 10
43.17801118887026
 20
124.2592478413312
 30
0.0
 11
43.17801118887026
 21
125.0925811746646
 31
0.0
 12
45.67801118887026
 22
124.6759145079979
 32
0.0
 13
45.67801118887026
 23
124.6759145079979
 33
0.0
  0
MTEXT
  5
24D
330
245
100
AcDbEntity
  8
文字
 62
     0
100
AcDbMText
 10
40.67801118887026
 20
126.576494317002
 30
0.0
 40
2.5
 41
0.0
 46
0.0
 71
     5
 72
     1
  1
{\fArial|b0|i0|c0|p32;M10}
 73
     1
 44
1.0
  0
POINT
  5
24E
330
245
100
AcDbEntity
  8
Defpoints
 62
     0
100
AcDbPoint
 10
35.67801118887026
 20
109.0021902915748
 30
0.0
  0
POINT
  5
24F
330
245
100
AcDbEntity
  8
Defpoints
 62
     0
100
AcDbPoint
 10
45.67801118887026
 20
109.0021902915748
 30
0.0
  0
POINT
  5
250
330
245
100
AcDbEntity
  8
Defpoints
 62
     0
100
AcDbPoint
 10
45.67801118887026
 20
124.6759145079979
 30
0.0
  0
ENDBLK
  5
247
330
245
100
AcDbEntity
  8
0
100
AcDbBlockEnd
  0
BLOCK
  5
252
330
251
100
AcDbEntity
  8
0
100
AcDbBlockBegin
  2
*D12
 70
     1
 10
0.0
 20
0.0
 30
0.0
  3
*D12
  1
*D13
  0
LINE
  5
254
330
251
100
AcDbEntity
  8
文字
 62
     0
370
    -2
100
AcDbLine
 10
51.72801118887026
 20
60.00219029157478
 30
0.0
 11
87.26755158467861
 21
60.00219029157478
 31
0.0
  0
LINE
  5
255
330
251
100
AcDbEntity
  8
文字
 62
     0
370
    -2
100
AcDbLine
 10
44.30301118887026
 20
110.0021902915748
 30
0.0
 11
87.26755158467861
 21
110.0021902915748
 31
0.0
  0
LINE
  5
256
330
251
100
AcDbEntity
  8
文字
 62
     0
370
    -2
100
AcDbLine
 10
86.01755158467861
 20
62.50219029157478
 30
0.0
 11
86.01755158467861
 21
107.5021902915748
 31
0.0
  0
SOLID
  5
257
330
251
100
AcDbEntity
  8
文字
 62
     0
100
AcDbTrace
 10
85.60088491801194
 20
62.50219029157478
 30
0.0
 11
86.43421825134529
 21
62.50219029157478
 31
0.0
 12
86.01755158467861
 22
60.00219029157478
 32
0.0
 13
86.01755158467861
 23
60.00219029157478
 33
0.0
  0
SOLID
  5
258
330
251
100
AcDbEntity
  8
文字
 62
     0
100
AcDbTrace
 10
86.43421825134529
 20
107.5021902915748
 30
0.0
 11
85.60088491801194
 21
107.5021902915748
 31
0.0
 12
86.01755158467861
 22
110.0021902915748
 32
0.0
 13
86.01755158467861
 23
110.0021902915748
 33
0.0
  0
MTEXT
  5
259
330
251
100
AcDbEntity
  8
文字
 62
     0
100
AcDbMText
 10
84.11697177567451
 20
85.00219029157478
 30
0.0
 40
2.5
 41
0.0
 46
0.0
 71
     5
 72
     1
  1
50
 11
0.0
 21
1.0
 31
0.0
 73
     1
 44
1.0
  0
POINT
  5
25A
330
251
100
AcDbEntity
  8
Defpoints
 62
     0
100
AcDbPoint
 10
51.10301118887026
 20
60.00219029157478
 30
0.0
  0
POINT
  5
25B
330
251
100
AcDbEntity
  8
Defpoints
 62
     0
100
AcDbPoint
 10
43.67801118887026
 20
110.0021902915748
 30
0.0
  0
POINT
  5
25C
330
251
100
AcDbEntity
  8
Defpoints
 62
     0
100
AcDbPoint
 10
86.01755158467861
 20
110.0021902915748
 30
0.0
  0
ENDBLK
  5
253
330
251
100
AcDbEntity
  8
0
100
AcDbBlockEnd
  0
BLOCK
  5
25E
330
25D
100
AcDbEntity
  8
0
100
AcDbBlockBegin
  2
*D13
 70
     1
 10
0.0
 20
0.0
 30
0.0
  3
*D13
  1
*D14
  0
LINE
  5
260
330
25D
100
AcDbEntity
  8
文字
 62
     0
370
    -2
100
AcDbLine
 10
59.30301118887026
 20
38.50219029157478
 30
0.0
 11
87.26755158467861
 21
38.50219029157478
 31
0.0
  0
LINE
  5
261
330
25D
100
AcDbEntity
  8
文字
 62
     0
370
    -2
100
AcDbLine
 10
51.72801118887026
 20
53.00219029157478
 30
0.0
 11
87.26755158467861
 21
53.00219029157478
 31
0.0
  0
LINE
  5
262
330
25D
100
AcDbEntity
  8
文字
 62
     0
370
    -2
100
AcDbLine
 10
86.01755158467861
 20
41.00219029157478
 30
0.0
 11
86.01755158467861
 21
50.50219029157478
 31
0.0
  0
SOLID
  5
263
330
25D
100
AcDbEntity
  8
文字
 62
     0
100
AcDbTrace
 10
85.60088491801194
 20
41.00219029157478
 30
0.0
 11
86.43421825134529
 21
41.00219029157478
 31
0.0
 12
86.01755158467861
 22
38.50219029157478
 32
0.0
 13
86.01755158467861
 23
38.50219029157478
 33
0.0
  0
SOLID
  5
264
330
25D
100
AcDbEntity
  8
文字
 62
     0
100
AcDbTrace
 10
86.43421825134529
 20
50.50219029157478
 30
0.0
 11
85.60088491801194
 21
50.50219029157478
 31
0.0
 12
86.01755158467861
 22
53.00219029157478
 32
0.0
 13
86.01755158467861
 23
53.00219029157478
 33
0.0
  0
MTEXT
  5
265
330
25D
100
AcDbEntity
  8
文字
 62
     0
100
AcDbMText
 10
84.11697177567453
 20
45.75219029157478
 30
0.0
 40
2.5
 41
0.0
 46
0.0
 71
     5
 72
     1
  1
14.5
 11
0.0
 21
1.0
 31
0.0
 73
     1
 44
1.0
  0
POINT
  5
266
330
25D
100
AcDbEntity
  8
Defpoints
 62
     0
100
AcDbPoint
 10
58.67801118887026
 20
38.50219029157478
 30
0.0
  0
POINT
  5
267
330
25D
100
AcDbEntity
  8
Defpoints
 62
     0
100
AcDbPoint
 10
51.10301118887026
 20
53.00219029157478
 30
0.0
  0
POINT
  5
268
330
25D
100
AcDbEntity
  8
Defpoints
 62
     0
100
AcDbPoint
 10
86.01755158467861
 20
53.00219029157478
 30
0.0
  0
ENDBLK
  5
25F
330
25D
100
AcDbEntity
  8
0
100
AcDbBlockEnd
  0
BLOCK
  5
26A
330
269
100
AcDbEntity
  8
0
100
AcDbBlockBegin
  2
*D14
 70
     1
 10
0.0
 20
0.0
 30
0.0
  3
*D14
  1
*D15
  0
LINE
  5
26C
330
269
100
AcDbEntity
  8
文字
 62
     0
370
    -2
100
AcDbLine
 10
22.67801118887026
 20
37.87719029157478
 30
0.0
 11
22.67801118887026
 21
17.85353525998176
 31
0.0
  0
LINE
  5
26D
330
269
100
AcDbEntity
  8
文字
 62
     0
370
    -2
100
AcDbLine
 10
58.67801118887026
 20
37.87719029157478
 30
0.0
 11
58.67801118887026
 21
17.85353525998176
 31
0.0
  0
LINE
  5
26E
330
269
100
AcDbEntity
  8
文字
 62
     0
370
    -2
100
AcDbLine
 10
25.17801118887026
 20
19.10353525998176
 30
0.0
 11
56.17801118887026
 21
19.10353525998176
 31
0.0
  0
SOLID
  5
26F
330
269
100
AcDbEntity
  8
文字
 62
     0
100
AcDbTrace
 10
25.17801118887026
 20
19.52020192664843
 30
0.0
 11
25.17801118887026
 21
18.68686859331509
 31
0.0
 12
22.67801118887026
 22
19.10353525998176
 32
0.0
 13
22.67801118887026
 23
19.10353525998176
 33
0.0
  0
SOLID
  5
270
330
269
100
AcDbEntity
  8
文字
 62
     0
100
AcDbTrace
 10
56.17801118887026
 20
18.68686859331509
 30
0.0
 11
56.17801118887026
 21
19.52020192664843
 31
0.0
 12
58.67801118887026
 22
19.10353525998176
 32
0.0
 13
58.67801118887026
 23
19.10353525998176
 33
0.0
  0
MTEXT
  5
271
330
269
100
AcDbEntity
  8
文字
 62
     0
100
AcDbMText
 10
40.67801118887026
 20
21.05186404579349
 30
0.0
 40
2.5
 41
0.0
 46
0.0
 71
     5
 72
     1
  1
%%c36
 73
     1
 44
1.0
  0
POINT
  5
272
330
269
100
AcDbEntity
  8
Defpoints
 62
     0
100
AcDbPoint
 10
22.67801118887026
 20
38.50219029157478
 30
0.0
  0
POINT
  5
273
330
269
100
AcDbEntity
  8
Defpoints
 62
     0
100
AcDbPoint
 10
58.67801118887026
 20
38.50219029157478
 30
0.0
  0
POINT
  5
274
330
269
100
AcDbEntity
  8
Defpoints
 62
     0
100
AcDbPoint
 10
58.67801118887026
 20
19.10353525998176
 30
0.0
  0
ENDBLK
  5
26B
330
269
100
AcDbEntity
  8
0
100
AcDbBlockEnd
  0
BLOCK
  5
276
330
275
100
AcDbEntity
  8
0
100
AcDbBlockBegin
  2
*D15
 70
     1
 10
0.0
 20
0.0
 30
0.0
  3
*D15
  1
*D16
  0
LINE
  5
278
330
275
100
AcDbEntity
  8
文字
 62
     0
370
    -2
100
AcDbLine
 10
143.6781854053125
 20
86.50103299897796
 30
0.0
 11
143.6781854053125
 21
44.54953508151214
 31
0.0
  0
LINE
  5
279
330
275
100
AcDbEntity
  8
文字
 62
     0
370
    -2
100
AcDbLine
 10
167.6781854053125
 20
86.50103299897796
 30
0.0
 11
167.6781854053125
 21
44.54953508151214
 31
0.0
  0
LINE
  5
27A
330
275
100
AcDbEntity
  8
文字
 62
     0
370
    -2
100
AcDbLine
 10
146.1781854053125
 20
45.79953508151214
 30
0.0
 11
165.1781854053125
 21
45.79953508151214
 31
0.0
  0
SOLID
  5
27B
330
275
100
AcDbEntity
  8
文字
 62
     0
100
AcDbTrace
 10
146.1781854053125
 20
46.2162017481788
 30
0.0
 11
146.1781854053125
 21
45.38286841484548
 31
0.0
 12
143.6781854053125
 22
45.79953508151214
 32
0.0
 13
143.6781854053125
 23
45.79953508151214
 33
0.0
  0
SOLID
  5
27C
330
275
100
AcDbEntity
  8
文字
 62
     0
100
AcDbTrace
 10
165.1781854053125
 20
45.38286841484548
 30
0.0
 11
165.1781854053125
 21
46.2162017481788
 31
0.0
 12
167.6781854053125
 22
45.79953508151214
 32
0.0
 13
167.6781854053125
 23
45.79953508151214
 33
0.0
  0
MTEXT
  5
27D
330
275
100
AcDbEntity
  8
文字
 62
     0
100
AcDbMText
 10
155.6781854053125
 20
47.74786386732387
 30
0.0
 40
2.5
 41
0.0
 46
0.0
 71
     5
 72
     1
  1
%%c24
 73
     1
 44
1.0
  0
POINT
  5
27E
330
275
100
AcDbEntity
  8
Defpoints
 62
     0
100
AcDbPoint
 10
143.6781854053125
 20
87.12603299897796
 30
0.0
  0
POINT
  5
27F
330
275
100
AcDbEntity
  8
Defpoints
 62
     0
100
AcDbPoint
 10
167.6781854053125
 20
87.12603299897796
 30
0.0
  0
POINT
  5
280
330
275
100
AcDbEntity
  8
Defpoints
 62
     0
100
AcDbPoint
 10
167.6781854053125
 20
45.79953508151214
 30
0.0
  0
ENDBLK
  5
277
330
275
100
AcDbEntity
  8
0
100
AcDbBlockEnd
  0
BLOCK
  5
282
330
281
100
AcDbEntity
  8
0
100
AcDbBlockBegin
  2
*D16
 70
     1
 10
0.0
 20
0.0
 30
0.0
  3
*D16
  1
*D17
  0
LINE
  5
284
330
281
100
AcDbEntity
  8
文字
 62
     0
370
    -2
100
AcDbLine
 10
20.61199120228915
 20
42.54662854671194
 30
0.0
 11
20.61199120228915
 21
21.26690214309932
 31
0.0
  0
LINE
  5
285
330
281
100
AcDbEntity
  8
文字
 62
     0
370
    -2
100
AcDbLine
 10
60.61199120228915
 20
42.54662854671194
 30
0.0
 11
60.61199120228915
 21
21.26690214309932
 31
0.0
  0
LINE
  5
286
330
281
100
AcDbEntity
  8
文字
 62
     0
370
    -2
100
AcDbLine
 10
23.11199120228915
 20
22.51690214309932
 30
0.0
 11
58.11199120228915
 21
22.51690214309932
 31
0.0
  0
SOLID
  5
287
330
281
100
AcDbEntity
  8
文字
 62
     0
100
AcDbTrace
 10
23.11199120228915
 20
22.93356880976598
 30
0.0
 11
23.11199120228915
 21
22.10023547643265
 31
0.0
 12
20.61199120228915
 22
22.51690214309932
 32
0.0
 13
20.61199120228915
 23
22.51690214309932
 33
0.0
  0
SOLID
  5
288
330
281
100
AcDbEntity
  8
文字
 62
     0
100
AcDbTrace
 10
58.11199120228915
 20
22.10023547643265
 30
0.0
 11
58.11199120228915
 21
22.93356880976598
 31
0.0
 12
60.61199120228915
 22
22.51690214309932
 32
0.0
 13
60.61199120228915
 23
22.51690214309932
 33
0.0
  0
MTEXT
  5
289
330
281
100
AcDbEntity
  8
文字
 62
     0
100
AcDbMText
 10
40.49419979022048
 20
24.46315214309931
 30
0.0
 40
2.5
 41
0.0
 46
0.0
 71
     5
 72
     1
  1
%%c40
 73
     1
 44
1.0
  0
POINT
  5
28A
330
281
100
AcDbEntity
  8
Defpoints
 62
     0
100
AcDbPoint
 10
20.61199120228915
 20
43.17162854671194
 30
0.0
  0
POINT
  5
28B
330
281
100
AcDbEntity
  8
Defpoints
 62
     0
100
AcDbPoint
 10
60.61199120228915
 20
43.17162854671194
 30
0.0
  0
POINT
  5
28C
330
281
100
AcDbEntity
  8
Defpoints
 62
     0
100
AcDbPoint
 10
60.61199120228915
 20
22.51690214309932
 30
0.0
  0
ENDBLK
  5
283
330
281
100
AcDbEntity
  8
0
100
AcDbBlockEnd
  0
ENDSEC
  0
SECTION
  2
ENTITIES
  0
LINE
  5
1ED
330
1F
100
AcDbEntity
  8
中心線
100
AcDbLine
 10
40.67801118887026
 20
29.5019563904005
 30
0.0
 11
40.67801118887025
 21
116.0457320087574
 31
0.0
  0
LINE
  5
1EF
102
{ACAD_REACTORS
330
229
102
}
330
1F
100
AcDbEntity
  8
中心線
 48
0.5
100
AcDbLine
 10
125.263424801015
 20
87.12603299897796
 30
0.0
 11
181.1991863227202
 21
87.12603299897796
 31
0.0
  0
LWPOLYLINE
  5
1F0
102
{ACAD_REACTORS
330
1FE
102
}
330
1F
100
AcDbEntity
  8
実線
370
    50
100
AcDbPolyline
 90
        4
 70
     0
 43
0.0
 10
50.47801118887026
 20
54.66757270962845
 10
50.47801118887026
 20
60.00219029157478
 10
30.87801118887027
 20
60.00219029157478
 10
30.87801118887027
 20
54.66757270962848
  0
LINE
  5
1F1
330
1F
100
AcDbEntity
  8
実線
370
    50
100
AcDbLine
 10
36.01344717919053
 20
60.00219029157478
 30
0.0
 11
36.01344717919053
 21
54.66757270962849
 31
0.0
  0
LINE
  5
1F2
330
1F
100
AcDbEntity
  8
実線
370
    50
100
AcDbLine
 10
45.46811193504002
 20
60.00219029157478
 30
0.0
 11
45.46811193504002
 21
54.66757270962844
 31
0.0
  0
LWPOLYLINE
  5
1F3
102
{ACAD_REACTORS
330
1FB
102
}
330
1F
100
AcDbEntity
  8
実線
370
    50
100
AcDbPolyline
 90
        6
 70
     1
 43
0.0
 10
147.191136448225
 20
82.22603299897796
 10
155.6781854053125
 20
77.32603299897795
 10
164.1652343624
 20
82.22603299897796
 10
164.1652343624
 20
92.02603299897794
 10
155.6781854053125
 20
96.92603299897797
 10
147.191136448225
 20
92.02603299897794
  0
LINE
  5
1F4
330
1F
100
AcDbEntity
  8
実線
370
    50
100
AcDbLine
 10
47.99081953501479
 20
53.00219029157478
 30
0.0
 11
33.39561235876686
 21
53.00219029157478
 31
0.0
  0
ARC
  5
1F5
330
1F
100
AcDbEntity
  8
実線
370
    50
100
AcDbCircle
 10
33.44572918403039
 20
55.81360540660908
 30
0.0
 40
2.811861775624425
100
AcDbArc
 50
204.0523260738349
 51
335.9476739261654
  0
ARC
  5
1F6
330
1F
100
AcDbEntity
  8
実線
370
    50
100
AcDbCircle
 10
40.74077971209977
 20
60.54316958396385
 30
0.0
 40
7.541240519685672
100
AcDbArc
 50
231.180866270598
 51
308.8191315053855
  0
ARC
  5
1F7
330
1F
100
AcDbEntity
  8
実線
370
    50
100
AcDbCircle
 10
47.97306130671635
 20
55.71867061996904
 30
0.0
 40
2.716538372492689
100
AcDbArc
 50
202.7633354902943
 51
337.2366715329314
  0
CIRCLE
  5
1F8
330
1F
100
AcDbEntity
  8
実線
370
    50
100
AcDbCircle
 10
155.6781854053125
 20
87.12603299897796
 30
0.0
 40
5.0
  0
DIMENSION
  5
1F9
102
{ACAD_REACTORS
330
1FB
102
}
102
{ACAD_XDICTIONARY
360
1FA
102
}
330
1F
100
AcDbEntity
  8
文字
100
AcDbDimension
280
     0
  2
*D9
 10
164.1652343624
 20
54.08563539865381
 30
0.0
 11
155.6781854053125
 21
54.08563539865381
 31
0.0
 70
   160
  1
17
 71
     5
 42
16.97409791417499
 73
     0
 74
     0
 75
     0
  3
ISO-25
100
AcDbAlignedDimension
 13
147.191136448225
 23
87.12603299897793
 33
0.0
 14
164.1652343624
 24
87.12603299897793
 34
0.0
100
AcDbRotatedDimension
  0
DIMENSION
  5
1FC
102
{ACAD_REACTORS
330
1FE
102
}
102
{ACAD_XDICTIONARY
360
1FD
102
}
330
1F
100
AcDbEntity
  8
文字
100
AcDbDimension
280
     0
  2
*D10
 10
86.01755158467861
 20
60.00219029157478
 30
0.0
 11
84.14255158467861
 21
56.50219029157478
 31
0.0
 70
    32
  1
7
 71
     5
 42
7.0
 73
     0
 74
     0
 75
     0
  3
ISO-25
100
AcDbAlignedDimension
 13
50.47801118887026
 23
53.00219029157478
 33
0.0
 14
50.47801118887026
 24
60.00219029157478
 34
0.0
 50
90.0
100
AcDbRotatedDimension
  0
LWPOLYLINE
  5
1FF
330
1F
100
AcDbEntity
  8
実線
100
AcDbPolyline
 90
        6
 70
     1
 43
0.0
 10
35.67801118887026
 20
60.00219029157478
 10
45.67801118887026
 20
60.00219029157478
 10
45.67801118887026
 20
108.0021902915748
 10
43.67801118887026
 20
110.0021902915748
 10
37.67801118887025
 20
110.0021902915748
 10
35.67801118887025
 20
108.0021902915748
  0
DIMENSION
  5
200
330
1F
100
AcDbEntity
  8
文字
100
AcDbDimension
280
     0
  2
*D11
 10
45.67801118887026
 20
124.6759145079979
 30
0.0
 11
40.67801118887026
 21
126.576494317002
 31
0.0
 70
    32
  1
{\fArial|b0|i0|c0|p32;M10}
 71
     5
 42
10.0
 73
     0
 74
     0
 75
     0
  3
ISO-25
100
AcDbAlignedDimension
 13
35.67801118887026
 23
109.0021902915748
 33
0.0
 14
45.67801118887026
 24
109.0021902915748
 34
0.0
100
AcDbRotatedDimension
  0
LINE
  5
201
330
1F
100
AcDbEntity
  8
中心線
 48
0.5
100
AcDbLine
 10
155.6781854053125
 20
87.12603299897796
 30
0.0
 11
155.6781854053125
 21
112.7756362594972
 31
0.0
  0
LINE
  5
202
330
1F
100
AcDbEntity
  8
中心線
 48
0.5
100
AcDbLine
 10
155.6781854053125
 20
87.12603299897796
 30
0.0
 11
155.6781854053125
 21
60.26540190378386
 31
0.0
  0
LINE
  5
203
330
1F
100
AcDbEntity
  8
実線
370
    20
100
AcDbLine
 10
35.67801118887025
 20
108.0021902915748
 30
0.0
 11
45.67801118887026
 21
108.0021902915748
 31
0.0
  0
LINE
  5
204
330
1F
100
AcDbEntity
  8
実線
370
    20
100
AcDbLine
 10
37.67801118887025
 20
110.0021902915748
 30
0.0
 11
37.67801118887024
 21
60.00219029157478
 31
0.0
  0
LINE
  5
205
102
{ACAD_REACTORS
330
209
102
}
330
1F
100
AcDbEntity
  8
実線
370
    20
100
AcDbLine
 10
43.67801118887026
 20
110.0021902915748
 30
0.0
 11
43.67801118887025
 21
60.00219029157478
 31
0.0
  0
CIRCLE
  5
206
330
1F
100
AcDbEntity
  8
実線
370
    20
100
AcDbCircle
 10
155.6781854053125
 20
87.12603299897796
 30
0.0
 40
3.0
  0
DIMENSION
  5
207
102
{ACAD_REACTORS
330
209
102
}
102
{ACAD_XDICTIONARY
360
208
102
}
330
1F
100
AcDbEntity
  8
文字
100
AcDbDimension
280
     0
  2
*D12
 10
86.01755158467861
 20
110.0021902915748
 30
0.0
 11
84.11697177567451
 21
85.00219029157478
 31
0.0
 70
    32
 71
     5
 42
49.99999999999999
 73
     0
 74
     0
 75
     0
  3
ISO-25
100
AcDbAlignedDimension
 13
51.10301118887026
 23
60.00219029157478
 33
0.0
 14
43.67801118887026
 24
110.0021902915748
 34
0.0
 50
90.0
100
AcDbRotatedDimension
  0
LINE
  5
20A
330
1F
100
AcDbEntity
  8
実線
100
AcDbLine
 10
60.67801118887026
 20
42.00219029157478
 30
0.0
 11
60.67801118887026
 21
47.20219029157477
 31
0.0
  0
LINE
  5
20B
330
1F
100
AcDbEntity
  8
実線
100
AcDbLine
 10
60.67801118887026
 20
42.00219029157478
 30
0.0
 11
20.67801118887024
 21
42.00219029157478
 31
0.0
  0
ARC
  5
20C
330
1F
100
AcDbEntity
  8
実線
100
AcDbCircle
 10
40.67801118887026
 20
34.0021902915748
 30
0.0
 40
20.0
100
AcDbArc
 50
53.87107252806218
 51
71.8051276612331
  0
LINE
  5
20D
330
1F
100
AcDbEntity
  8
実線
100
AcDbLine
 10
52.94177896227497
 20
50.00219029157478
 30
0.0
 11
57.87801118887025
 21
50.00219029157478
 31
0.0
  0
ARC
  5
20E
330
1F
100
AcDbEntity
  8
実線
100
AcDbCircle
 10
57.87801118887025
 20
47.20219029157479
 30
0.0
 40
2.8
100
AcDbArc
 50
0.0
 51
90.0
  0
ARC
  5
20F
330
1F
100
AcDbEntity
  8
実線
100
AcDbCircle
 10
52.94177896227497
 20
50.80219029157481
 30
0.0
 40
0.8
100
AcDbArc
 50
233.8710725280626
 51
270.0
  0
ARC
  5
210
330
1F
100
AcDbEntity
  8
実線
100
AcDbCircle
 10
28.41424341546556
 20
50.80219029157481
 30
0.0
 40
0.8
100
AcDbArc
 50
270.0
 51
306.1289274719373
  0
ARC
  5
211
330
1F
100
AcDbEntity
  8
実線
100
AcDbCircle
 10
23.47801118887028
 20
47.20219029157479
 30
0.0
 40
2.8
100
AcDbArc
 50
90.0
 51
180.0
  0
LINE
  5
212
330
1F
100
AcDbEntity
  8
実線
100
AcDbLine
 10
28.41424341546556
 20
50.00219029157478
 30
0.0
 11
23.47801118887028
 21
50.00219029157478
 31
0.0
  0
ARC
  5
213
330
1F
100
AcDbEntity
  8
実線
100
AcDbCircle
 10
40.67801118887026
 20
34.0021902915748
 30
0.0
 40
20.0
100
AcDbArc
 50
108.1948723387669
 51
126.1289274719378
  0
LINE
  5
214
330
1F
100
AcDbEntity
  8
実線
100
AcDbLine
 10
20.67801118887026
 20
42.00219029157478
 30
0.0
 11
20.67801118887026
 21
47.20219029157477
 31
0.0
  0
LINE
  5
215
330
1F
100
AcDbEntity
  8
実線
100
AcDbLine
 10
28.41424341546556
 20
50.00219029157478
 30
0.0
 11
52.94177896227497
 21
50.00219029157481
 31
0.0
  0
LWPOLYLINE
  5
216
330
1F
100
AcDbEntity
  8
実線
100
AcDbPolyline
 90
        2
 70
     0
 43
0.0
 10
27.42801118887026
 20
38.50219029157478
 10
30.92801118887026
 20
38.50219029157478
  0
ARC
  5
217
330
1F
100
AcDbEntity
  8
実線
100
AcDbCircle
 10
26.67801118887026
 20
38.50219029157478
 30
0.0
 40
0.75
100
AcDbArc
 50
0.0
 51
180.0
  0
ARC
  5
218
330
1F
100
AcDbEntity
  8
実線
100
AcDbCircle
 10
31.67801118887026
 20
38.50219029157478
 30
0.0
 40
0.75
100
AcDbArc
 50
0.0
 51
180.0
  0
ARC
  5
219
330
1F
100
AcDbEntity
  8
実線
100
AcDbCircle
 10
49.67801118887026
 20
38.50219029157478
 30
0.0
 40
0.75
100
AcDbArc
 50
0.0
 51
180.0
  0
ARC
  5
21A
330
1F
100
AcDbEntity
  8
実線
100
AcDbCircle
 10
54.67801118887026
 20
38.50219029157478
 30
0.0
 40
0.75
100
AcDbArc
 50
0.0
 51
180.0
  0
LWPOLYLINE
  5
21B
330
1F
100
AcDbEntity
  8
実線
100
AcDbPolyline
 90
        2
 70
     0
 43
0.0
 10
32.42801118887026
 20
38.50219029157478
 10
48.92801118887026
 20
38.50219029157478
  0
LWPOLYLINE
  5
21C
330
1F
100
AcDbEntity
  8
実線
100
AcDbPolyline
 90
        2
 70
     0
 43
0.0
 10
50.42801118887026
 20
38.50219029157478
 10
53.92801118887026
 20
38.50219029157478
  0
LWPOLYLINE
  5
21D
102
{ACAD_REACTORS
330
221
102
}
330
1F
100
AcDbEntity
  8
実線
100
AcDbPolyline
 90
        6
 70
     0
 43
0.0
 10
55.42801118887026
 20
38.50219029157478
 10
58.67801118887026
 20
38.50219029157478
 10
58.67801118887026
 20
42.00219029157478
 10
22.67801118887026
 20
42.00219029157478
 10
22.67801118887026
 20
38.50219029157478
 10
25.92801118887026
 20
38.50219029157478
  0
LINE
  5
21E
330
1F
100
AcDbEntity
  8
実線
100
AcDbLine
 10
34.43301319047182
 20
53.00219029157478
 30
0.0
 11
46.92300918726871
 21
53.00219029157478
 31
0.0
  0
DIMENSION
  5
21F
102
{ACAD_REACTORS
330
221
102
}
102
{ACAD_XDICTIONARY
360
220
102
}
330
1F
100
AcDbEntity
  8
文字
100
AcDbDimension
280
     0
  2
*D13
 10
86.01755158467861
 20
53.00219029157478
 30
0.0
 11
84.11697177567453
 21
45.75219029157478
 31
0.0
 70
    32
 71
     5
 42
14.5
 73
     0
 74
     0
 75
     0
  3
ISO-25
100
AcDbAlignedDimension
 13
58.67801118887026
 23
38.50219029157478
 33
0.0
 14
51.10301118887026
 24
53.00219029157478
 34
0.0
 50
90.0
100
AcDbRotatedDimension
  0
CIRCLE
  5
222
102
{ACAD_REACTORS
330
229
102
}
330
1F
100
AcDbEntity
  8
実線
100
AcDbCircle
 10
155.6781854053125
 20
87.12603299897796
 30
0.0
 40
12.0
  0
CIRCLE
  5
223
330
1F
100
AcDbEntity
  8
実線
100
AcDbCircle
 10
155.6781854053125
 20
87.12603299897796
 30
0.0
 40
20.0
  0
DIMENSION
  5
227
102
{ACAD_REACTORS
330
229
102
}
102
{ACAD_XDICTIONARY
360
228
102
}
330
1F
100
AcDbEntity
  8
文字
100
AcDbDimension
280
     0
  2
*D15
 10
167.6781854053125
 20
45.79953508151214
 30
0.0
 11
155.6781854053125
 21
47.74786386732387
 31
0.0
 70
    32
  1
%%c<>
 71
     5
 42
24.0
 73
     0
 74
     0
 75
     0
  3
ISO-25
100
AcDbAlignedDimension
 13
143.6781854053125
 23
87.12603299897796
 33
0.0
 14
167.6781854053125
 24
87.12603299897796
 34
0.0
100
AcDbRotatedDimension
  0
DIMENSION
  5
22A
102
{ACAD_XDICTIONARY
360
22B
102
}
330
1F
100
AcDbEntity
  8
文字
100
AcDbDimension
280
     0
  2
*D16
 10
60.61199120228915
 20
22.51690214309932
 30
0.0
 11
40.49419979022048
 21
22.51690214309932
 31
0.0
 70
   160
  1
%%c<>
 71
     5
 42
40.0
 73
     0
 74
     0
 75
     0
  3
ISO-25
100
AcDbAlignedDimension
 13
20.61199120228915
 23
43.17162854671194
 33
0.0
 14
60.61199120228915
 24
43.17162854671194
 34
0.0
100
AcDbRotatedDimension
  0
MTEXT
  5
2B6
330
1F
100
AcDbEntity
  8
文字・寸法線
 62
     0
100
AcDbMText
 10
43.73467116390109
 20
151.5477504444801
 30
0.0
 40
6.0
 41
0.0
 46
6.0
 71
     9
 72
     1
  1
{\fＭＳ ゴシック|b0|i0|c0|p0;S-K3 M10X50}
 73
     1
 44
1.0
1001
ACAD
1000
ACAD_MTEXT_DEFINED_HEIGHT_BEGIN
1070
    46
1040
6.0
1000
ACAD_MTEXT_DEFINED_HEIGHT_END
  0
ENDSEC
  0
SECTION
  2
OBJECTS
  0
DICTIONARY
  5
C
330
0
100
AcDbDictionary
281
     1
  3
ACAD_COLOR
350
73
  3
ACAD_DETAILVIEWSTYLE
350
122
  3
ACAD_GROUP
350
D
  3
ACAD_IMAGE_VARS
350
DC
  3
ACAD_LAYOUT
350
1A
  3
ACAD_MATERIAL
350
72
  3
ACAD_MLEADERSTYLE
350
B5
  3
ACAD_MLINESTYLE
350
17
  3
ACAD_PLOTSETTINGS
350
19
  3
ACAD_PLOTSTYLENAME
350
E
  3
ACAD_SCALELIST
350
B6
  3
ACAD_SECTIONVIEWSTYLE
350
123
  3
ACAD_TABLESTYLE
350
86
  3
ACAD_VISUALSTYLE
350
99
  3
ACDB_RECOMPOSE_DATA
350
2BF
  3
AcDbVariableDictionary
350
66
  3
APPDATA
350
E1
  0
SUN
  5
ED
330
94
100
AcDbSun
 90
        1
290
     0
 63
     7
421
 16777215
 40
1.0
291
     1
 91
  2455826
 92
 54000000
292
     0
 70
     2
 71
   256
280
     1
  0
DICTIONARY
  5
1FA
330
1F9
100
AcDbDictionary
280
     1
281
     1
  3
ACAD_DIMASSOC
360
1FB
  0
DICTIONARY
  5
1FD
330
1FC
100
AcDbDictionary
280
     1
281
     1
  3
ACAD_DIMASSOC
360
1FE
  0
DICTIONARY
  5
208
330
207
100
AcDbDictionary
280
     1
281
     1
  3
ACAD_DIMASSOC
360
209
  0
DICTIONARY
  5
220
330
21F
100
AcDbDictionary
280
     1
281
     1
  3
ACAD_DIMASSOC
360
221
  0
DICTIONARY
  5
228
330
227
100
AcDbDictionary
280
     1
281
     1
  3
ACAD_DIMASSOC
360
229
  0
DICTIONARY
  5
22B
330
22A
100
AcDbDictionary
280
     1
281
     1
  0
DICTIONARY
  5
73
102
{ACAD_REACTORS
330
C
102
}
330
C
100
AcDbDictionary
281
     1
  0
DICTIONARY
  5
122
102
{ACAD_REACTORS
330
C
102
}
330
C
100
AcDbDictionary
281
     1
  0
DICTIONARY
  5
D
102
{ACAD_REACTORS
330
C
102
}
330
C
100
AcDbDictionary
281
     1
  0
RASTERVARIABLES
  5
DC
102
{ACAD_REACTORS
330
C
102
}
330
C
100
AcDbRasterVariables
 90
        0
 70
     1
 71
     1
 72
     5
  0
DICTIONARY
  5
1A
102
{ACAD_REACTORS
330
C
102
}
330
C
100
AcDbDictionary
281
     1
  3
Model
350
22
  3
Sheet1
350
59
  3
Sheet2
350
5E
  0
DICTIONARY
  5
72
102
{ACAD_REACTORS
330
C
102
}
330
C
100
AcDbDictionary
281
     1
  3
ByBlock
350
E2
  3
ByLayer
350
96
  3
Global
350
98
  0
DICTIONARY
  5
B5
102
{ACAD_REACTORS
330
C
102
}
330
C
100
AcDbDictionary
281
     1
  0
DICTIONARY
  5
17
102
{ACAD_REACTORS
330
C
102
}
330
C
100
AcDbDictionary
281
     1
  3
Standard
350
18
  0
DICTIONARY
  5
19
102
{ACAD_REACTORS
330
C
102
}
330
C
100
AcDbDictionary
281
     1
  0
ACDBDICTIONARYWDFLT
  5
E
102
{ACAD_REACTORS
330
C
102
}
330
C
100
AcDbDictionary
281
     1
  3
Normal
350
F
100
AcDbDictionaryWithDefault
340
F
  0
DICTIONARY
  5
B6
102
{ACAD_REACTORS
330
C
102
}
330
C
100
AcDbDictionary
281
     1
  3
A0
350
B7
  3
A1
350
B8
  3
A2
350
B9
  3
A3
350
BA
  3
A4
350
BB
  3
A5
350
BC
  3
A6
350
BD
  3
A7
350
BE
  3
A8
350
BF
  3
A9
350
C0
  3
B0
350
C1
  3
B1
350
C2
  3
B2
350
C3
  3
B3
350
C4
  3
B4
350
C5
  3
B5
350
C6
  3
B6
350
C7
  3
B7
350
C8
  3
B8
350
C9
  3
B9
350
CA
  3
C0
350
CB
  3
C1
350
CC
  3
C2
350
CD
  3
C3
350
CE
  3
C4
350
CF
  3
C5
350
D0
  3
C6
350
D1
  3
C7
350
D2
  3
C8
350
D3
  3
C9
350
D4
  3
D0
350
D5
  3
D1
350
D6
  3
D2
350
D7
  0
DICTIONARY
  5
123
102
{ACAD_REACTORS
330
C
102
}
330
C
100
AcDbDictionary
281
     1
  0
DICTIONARY
  5
86
102
{ACAD_REACTORS
330
C
102
}
330
C
100
AcDbDictionary
281
     1
  3
Standard
350
87
  0
DICTIONARY
  5
99
102
{ACAD_REACTORS
330
C
102
}
330
C
100
AcDbDictionary
281
     1
  3
2dWireframe
350
9F
  3
3D Hidden
350
A1
  3
3dWireframe
350
A0
  3
Basic
350
9E
  3
Brighten
350
A5
  3
ColorChange
350
A9
  3
Conceptual
350
A2
  3
Dim
350
A4
  3
EdgeColorOff
350
E7
  3
Facepattern
350
A8
  3
Flat
350
9A
  3
FlatWithEdges
350
9B
  3
Gouraud
350
9C
  3
GouraudWithEdges
350
9D
  3
Hidden
350
E4
  3
JitterOff
350
E5
  3
Linepattern
350
A7
  3
OverhangOff
350
E6
  3
Realistic
350
A3
  3
Shaded
350
EC
  3
Shaded with edges
350
EB
  3
Shades of Gray
350
E8
  3
Sketchy
350
E9
  3
Thicken
350
A6
  3
Wireframe
350
E3
  3
X-Ray
350
EA
  0
XRECORD
  5
2BF
102
{ACAD_REACTORS
330
C
102
}
330
C
100
AcDbXrecord
280
     1
 90
        1
330
87
  0
DICTIONARY
  5
66
102
{ACAD_REACTORS
330
C
102
}
330
C
100
AcDbDictionary
281
     1
  3
CANNOSCALE
350
D8
  3
CTABLESTYLE
350
89
  3
DIMASSOC
350
67
  3
HIDETEXT
350
6B
  3
LIGHTSINBLOCKS
350
DF
  3
XCLIPFRAME
350
E0
  0
DICTIONARY
  5
E1
102
{ACAD_REACTORS
330
C
102
}
330
C
100
AcDbDictionary
281
     1
  0
DIMASSOC
  5
1FB
102
{ACAD_REACTORS
330
1FA
102
}
330
1FA
100
AcDbDimAssoc
330
1F9
 90
        3
 70
     0
 71
     0
  1
AcDbOsnapPointRef
 72
     2
331
1F3
 73
     2
 91
        6
 40
0.5
 10
0.0
 20
0.0
 30
0.0
 75
     0
  1
AcDbOsnapPointRef
 72
     2
331
1F3
 73
     2
 91
        3
 40
0.5
 10
0.0
 20
0.0
 30
0.0
 75
     0
  0
DIMASSOC
  5
1FE
102
{ACAD_REACTORS
330
1FD
102
}
330
1FD
100
AcDbDimAssoc
330
1FC
 90
        2
 70
     0
 71
     0
  1
AcDbOsnapPointRef
 72
     1
331
1F0
 73
     2
 91
        1
 40
1.0
 10
0.0
 20
0.0
 30
2.000000000000000E+50
 75
     0
  0
DIMASSOC
  5
209
102
{ACAD_REACTORS
330
208
102
}
330
208
100
AcDbDimAssoc
330
207
 90
        2
 70
     0
 71
     0
  1
AcDbOsnapPointRef
 72
    13
331
205
 73
     2
 91
        0
 40
0.0
 10
0.0
 20
0.0
 30
2.000000000000000E+50
 75
     0
  0
DIMASSOC
  5
221
102
{ACAD_REACTORS
330
220
102
}
330
220
100
AcDbDimAssoc
330
21F
 90
        1
 70
     0
 71
     0
  1
AcDbOsnapPointRef
 72
     1
331
21D
 73
     2
 91
        1
 40
1.0
 10
0.0
 20
0.0
 30
2.000000000000000E+50
 75
     0
  0
DIMASSOC
  5
229
102
{ACAD_REACTORS
330
228
102
}
330
228
100
AcDbDimAssoc
330
227
 90
        1
 70
     0
 71
     0
  1
AcDbOsnapPointRef
 72
     6
331
1EF
 73
     2
 91
        0
 40
0.4603410361495983
 10
0.0
 20
0.0
 30
0.0
332
222
 74
     2
 92
        0
 75
     0
  0
LAYOUT
  5
22
102
{ACAD_REACTORS
330
1A
102
}
330
1A
100
AcDbPlotSettings
  1

  2
none_device
  4
ANSI_A_(8.50_x_11.00_Inches)
  6

 40
6.35
 41
19.05
 42
6.35
 43
19.05
 44
215.9
 45
279.4
 46
11.11250000000003
 47
0.0000000000000142
 48
0.0
 49
0.0
140
0.0
141
0.0
142
1.0
143
1.263157894736842
 70
 11444
 72
     0
 73
     1
 74
     1
  7
monochrome.ctb
 75
     0
 76
     0
 77
     2
 78
   300
147
0.7916666666666665
148
-702.8076765758875
149
-496.2830551296954
100
AcDbLayout
  1
Model
 70
     1
 71
     0
 10
0.0
 20
0.0
 11
12.0
 21
9.0
 12
0.0
 22
0.0
 32
0.0
 14
1.446671163901087
 24
21.26690214309932
 34
0.0
 15
181.1991863227202
 25
157.5477504444801
 35
0.0
146
0.0
 13
0.0
 23
0.0
 33
0.0
 16
1.0
 26
0.0
 36
0.0
 17
0.0
 27
1.0
 37
0.0
 76
     0
330
1F
331
94
  0
LAYOUT
  5
59
102
{ACAD_REACTORS
330
1A
102
}
330
1A
100
AcDbPlotSettings
  1

  2
None
  4

  6

 40
0.0
 41
0.0
 42
0.0
 43
0.0
 44
0.0
 45
0.0
 46
0.0
 47
0.0
 48
0.0
 49
0.0
140
0.0
141
0.0
142
1.0
143
1.0
 70
   688
 72
     0
 73
     0
 74
     5
  7

 75
    16
 76
     0
 77
     2
 78
   300
147
1.0
148
0.0
149
0.0
100
AcDbLayout
  1
Sheet1
 70
     1
 71
     1
 10
0.0
 20
0.0
 11
12.0
 21
9.0
 12
0.0
 22
0.0
 32
0.0
 14
0.0
 24
0.0
 34
0.0
 15
0.0
 25
0.0
 35
0.0
146
0.0
 13
0.0
 23
0.0
 33
0.0
 16
1.0
 26
0.0
 36
0.0
 17
0.0
 27
1.0
 37
0.0
 76
     0
330
58
  0
LAYOUT
  5
5E
102
{ACAD_REACTORS
330
1A
102
}
330
1A
100
AcDbPlotSettings
  1

  2
None
  4

  6

 40
0.0
 41
0.0
 42
0.0
 43
0.0
 44
0.0
 45
0.0
 46
0.0
 47
0.0
 48
0.0
 49
0.0
140
0.0
141
0.0
142
1.0
143
1.0
 70
   688
 72
     0
 73
     0
 74
     5
  7

 75
    16
 76
     0
 77
     2
 78
   300
147
1.0
148
0.0
149
0.0
100
AcDbLayout
  1
Sheet2
 70
     1
 71
     2
 10
0.0
 20
0.0
 11
12.0
 21
9.0
 12
0.0
 22
0.0
 32
0.0
 14
0.0
 24
0.0
 34
0.0
 15
0.0
 25
0.0
 35
0.0
146
0.0
 13
0.0
 23
0.0
 33
0.0
 16
1.0
 26
0.0
 36
0.0
 17
0.0
 27
1.0
 37
0.0
 76
     0
330
5D
  0
MATERIAL
  5
E2
102
{ACAD_REACTORS
330
72
102
}
330
72
100
AcDbMaterial
  1
ByBlock
 72
     1
 94
      127
  0
MATERIAL
  5
96
102
{ACAD_REACTORS
330
72
102
}
330
72
100
AcDbMaterial
  1
ByLayer
 72
     1
 94
       63
  0
MATERIAL
  5
98
102
{ACAD_REACTORS
330
72
102
}
330
72
100
AcDbMaterial
  1
Global
 72
     1
 94
       63
  0
MLINESTYLE
  5
18
102
{ACAD_REACTORS
330
17
102
}
330
17
100
AcDbMlineStyle
  2
STANDARD
 70
     0
  3

 62
   256
 51
90.0
 52
90.0
 71
     2
 49
0.5
 62
   256
  6
BYLAYER
 49
-0.5
 62
   256
  6
BYLAYER
  0
ACDBPLACEHOLDER
  5
F
102
{ACAD_REACTORS
330
E
102
}
330
E
  0
SCALE
  5
B7
102
{ACAD_REACTORS
330
B6
102
}
330
B6
100
AcDbScale
 70
     0
300
1:1
140
1.0
141
1.0
290
     1
  0
SCALE
  5
B8
102
{ACAD_REACTORS
330
B6
102
}
330
B6
100
AcDbScale
 70
     0
300
1:2
140
1.0
141
2.0
290
     0
  0
SCALE
  5
B9
102
{ACAD_REACTORS
330
B6
102
}
330
B6
100
AcDbScale
 70
     0
300
1:4
140
1.0
141
4.0
290
     0
  0
SCALE
  5
BA
102
{ACAD_REACTORS
330
B6
102
}
330
B6
100
AcDbScale
 70
     0
300
1:5
140
1.0
141
5.0
290
     0
  0
SCALE
  5
BB
102
{ACAD_REACTORS
330
B6
102
}
330
B6
100
AcDbScale
 70
     0
300
1:8
140
1.0
141
8.0
290
     0
  0
SCALE
  5
BC
102
{ACAD_REACTORS
330
B6
102
}
330
B6
100
AcDbScale
 70
     0
300
1:10
140
1.0
141
10.0
290
     0
  0
SCALE
  5
BD
102
{ACAD_REACTORS
330
B6
102
}
330
B6
100
AcDbScale
 70
     0
300
1:16
140
1.0
141
16.0
290
     0
  0
SCALE
  5
BE
102
{ACAD_REACTORS
330
B6
102
}
330
B6
100
AcDbScale
 70
     0
300
1:20
140
1.0
141
20.0
290
     0
  0
SCALE
  5
BF
102
{ACAD_REACTORS
330
B6
102
}
330
B6
100
AcDbScale
 70
     0
300
1:30
140
1.0
141
30.0
290
     0
  0
SCALE
  5
C0
102
{ACAD_REACTORS
330
B6
102
}
330
B6
100
AcDbScale
 70
     0
300
1:40
140
1.0
141
40.0
290
     0
  0
SCALE
  5
C1
102
{ACAD_REACTORS
330
B6
102
}
330
B6
100
AcDbScale
 70
     0
300
1:50
140
1.0
141
50.0
290
     0
  0
SCALE
  5
C2
102
{ACAD_REACTORS
330
B6
102
}
330
B6
100
AcDbScale
 70
     0
300
1:100
140
1.0
141
100.0
290
     0
  0
SCALE
  5
C3
102
{ACAD_REACTORS
330
B6
102
}
330
B6
100
AcDbScale
 70
     0
300
2:1
140
2.0
141
1.0
290
     0
  0
SCALE
  5
C4
102
{ACAD_REACTORS
330
B6
102
}
330
B6
100
AcDbScale
 70
     0
300
4:1
140
4.0
141
1.0
290
     0
  0
SCALE
  5
C5
102
{ACAD_REACTORS
330
B6
102
}
330
B6
100
AcDbScale
 70
     0
300
8:1
140
8.0
141
1.0
290
     0
  0
SCALE
  5
C6
102
{ACAD_REACTORS
330
B6
102
}
330
B6
100
AcDbScale
 70
     0
300
10:1
140
10.0
141
1.0
290
     0
  0
SCALE
  5
C7
102
{ACAD_REACTORS
330
B6
102
}
330
B6
100
AcDbScale
 70
     0
300
100:1
140
100.0
141
1.0
290
     0
  0
SCALE
  5
C8
102
{ACAD_REACTORS
330
B6
102
}
330
B6
100
AcDbScale
 70
     0
300
1/128" = 1'-0"
140
0.0078125
141
12.0
290
     0
  0
SCALE
  5
C9
102
{ACAD_REACTORS
330
B6
102
}
330
B6
100
AcDbScale
 70
     0
300
1/64" = 1'-0"
140
0.015625
141
12.0
290
     0
  0
SCALE
  5
CA
102
{ACAD_REACTORS
330
B6
102
}
330
B6
100
AcDbScale
 70
     0
300
1/32" = 1'-0"
140
0.03125
141
12.0
290
     0
  0
SCALE
  5
CB
102
{ACAD_REACTORS
330
B6
102
}
330
B6
100
AcDbScale
 70
     0
300
1/16" = 1'-0"
140
0.0625
141
12.0
290
     0
  0
SCALE
  5
CC
102
{ACAD_REACTORS
330
B6
102
}
330
B6
100
AcDbScale
 70
     0
300
3/32" = 1'-0"
140
0.09375
141
12.0
290
     0
  0
SCALE
  5
CD
102
{ACAD_REACTORS
330
B6
102
}
330
B6
100
AcDbScale
 70
     0
300
1/8" = 1'-0"
140
0.125
141
12.0
290
     0
  0
SCALE
  5
CE
102
{ACAD_REACTORS
330
B6
102
}
330
B6
100
AcDbScale
 70
     0
300
3/16" = 1'-0"
140
0.1875
141
12.0
290
     0
  0
SCALE
  5
CF
102
{ACAD_REACTORS
330
B6
102
}
330
B6
100
AcDbScale
 70
     0
300
1/4" = 1'-0"
140
0.25
141
12.0
290
     0
  0
SCALE
  5
D0
102
{ACAD_REACTORS
330
B6
102
}
330
B6
100
AcDbScale
 70
     0
300
3/8" = 1'-0"
140
0.375
141
12.0
290
     0
  0
SCALE
  5
D1
102
{ACAD_REACTORS
330
B6
102
}
330
B6
100
AcDbScale
 70
     0
300
1/2" = 1'-0"
140
0.5
141
12.0
290
     0
  0
SCALE
  5
D2
102
{ACAD_REACTORS
330
B6
102
}
330
B6
100
AcDbScale
 70
     0
300
3/4" = 1'-0"
140
0.75
141
12.0
290
     0
  0
SCALE
  5
D3
102
{ACAD_REACTORS
330
B6
102
}
330
B6
100
AcDbScale
 70
     0
300
1" = 1'-0"
140
1.0
141
12.0
290
     0
  0
SCALE
  5
D4
102
{ACAD_REACTORS
330
B6
102
}
330
B6
100
AcDbScale
 70
     0
300
1-1/2" = 1'-0"
140
1.5
141
12.0
290
     0
  0
SCALE
  5
D5
102
{ACAD_REACTORS
330
B6
102
}
330
B6
100
AcDbScale
 70
     0
300
3" = 1'-0"
140
3.0
141
12.0
290
     0
  0
SCALE
  5
D6
102
{ACAD_REACTORS
330
B6
102
}
330
B6
100
AcDbScale
 70
     0
300
6" = 1'-0"
140
6.0
141
12.0
290
     0
  0
SCALE
  5
D7
102
{ACAD_REACTORS
330
B6
102
}
330
B6
100
AcDbScale
 70
     0
300
1'-0" = 1'-0"
140
12.0
141
12.0
290
     0
  0
TABLESTYLE
  5
87
102
{ACAD_REACTORS
330
86
102
}
102
{ACAD_XDICTIONARY
360
2BD
102
}
330
86
100
AcDbTableStyle
  3
Standard
 70
     0
 71
     0
 40
0.06
 41
0.06
280
     0
281
     0
  7
Standard
140
0.18
170
     2
 62
     0
 63
   257
283
     0
 90
      512
 91
        0
  1

274
    -2
284
     1
 64
     0
275
    -2
285
     1
 65
     0
276
    -2
286
     1
 66
     0
277
    -2
287
     1
 67
     0
278
    -2
288
     1
 68
     0
279
    -2
289
     1
 69
     0
  7
Standard
140
0.25
170
     5
 62
     0
 63
   257
283
     0
 90
      512
 91
        0
  1

274
    -2
284
     1
 64
     0
275
    -2
285
     1
 65
     0
276
    -2
286
     1
 66
     0
277
    -2
287
     1
 67
     0
278
    -2
288
     1
 68
     0
279
    -2
289
     1
 69
     0
  7
Standard
140
0.18
170
     5
 62
     0
 63
   257
283
     0
 90
      512
 91
        0
  1

274
    -2
284
     1
 64
     0
275
    -2
285
     1
 65
     0
276
    -2
286
     1
 66
     0
277
    -2
287
     1
 67
     0
278
    -2
288
     1
 68
     0
279
    -2
289
     1
 69
     0
  0
VISUALSTYLE
  5
9F
102
{ACAD_REACTORS
330
99
102
}
330
99
100
AcDbVisualStyle
  2
2dWireframe
 70
     4
177
     3
291
     0
 70
    58
 90
        0
176
     1
 90
        2
176
     1
 90
        1
176
     1
 90
        0
176
     1
 40
-0.6
176
     1
 40
-30.0
176
     1
 62
     7
420
 16777215
176
     1
 90
        1
176
     1
 90
        4
176
     1
 62
     7
176
     1
 62
   257
176
     1
 90
        1
176
     1
 90
        1
176
     1
 40
1.0
176
     1
 90
        0
176
     1
 62
   257
176
     1
 40
1.0
176
     1
 90
        1
176
     1
 90
        6
176
     1
 90
        2
176
     1
 62
     7
176
     1
 90
        5
176
     1
 90
        0
176
     1
 90
        0
176
     1
290
     0
176
     1
 90
        1
176
     1
 40
0.0
176
     1
 90
        0
176
     1
290
     1
176
     1
290
     1
176
     1
290
     0
176
     1
290
     0
176
     1
290
     0
176
     1
290
     0
176
     1
290
     0
176
     1
290
     0
176
     1
290
     0
176
     1
 90
       50
176
     1
 40
0.0
176
     1
 40
1.0
176
     1
 90
        0
176
     1
 62
    18
420
        0
176
     1
 90
       50
176
     1
 90
        3
176
     1
 62
     5
420
      255
176
     1
290
     0
176
     1
 90
       50
176
     1
 90
       50
176
     1
 90
       50
176
     1
290
     0
176
     1
 90
       50
176
     1
 62
   256
176
     0
 40
1.0
176
     0
 90
        2
176
     1
  1
strokes_ogs.tif
176
     1
290
     0
176
     1
 40
1.0
176
     1
 40
1.0
176
     1
  0
VISUALSTYLE
  5
A1
102
{ACAD_REACTORS
330
99
102
}
330
99
100
AcDbVisualStyle
  2
3D Hidden
 70
     6
177
     3
291
     0
 70
    58
 90
        1
176
     1
 90
        2
176
     1
 90
        2
176
     1
 90
        0
176
     1
 40
-0.6
176
     1
 40
-30.0
176
     1
 62
     7
420
 16777215
176
     1
 90
        2
176
     1
 90
        2
176
     1
 62
     7
176
     1
 62
   257
176
     1
 90
        2
176
     1
 90
        1
176
     1
 40
40.0
176
     1
 90
        0
176
     1
 62
   257
176
     1
 40
1.0
176
     1
 90
        1
176
     1
 90
        6
176
     1
 90
        2
176
     1
 62
     7
176
     1
 90
        3
176
     1
 90
        0
176
     1
 90
        0
176
     1
290
     0
176
     1
 90
        1
176
     1
 40
0.0
176
     1
 90
        0
176
     1
290
     0
176
     1
290
     1
176
     1
290
     1
176
     1
290
     0
176
     1
290
     0
176
     1
290
     0
176
     1
290
     0
176
     1
290
     0
176
     1
290
     0
176
     1
 90
       50
176
     1
 40
0.0
176
     1
 40
1.0
176
     1
 90
        0
176
     1
 62
    18
420
        0
176
     1
 90
       50
176
     1
 90
        3
176
     1
 62
     5
420
      255
176
     1
290
     0
176
     1
 90
       50
176
     1
 90
       50
176
     1
 90
       50
176
     1
290
     0
176
     1
 90
       50
176
     1
 62
   256
176
     0
 40
1.0
176
     0
 90
        2
176
     1
  1
strokes_ogs.tif
176
     1
290
     0
176
     1
 40
1.0
176
     1
 40
1.0
176
     1
  0
VISUALSTYLE
  5
A0
102
{ACAD_REACTORS
330
99
102
}
330
99
100
AcDbVisualStyle
  2
3dWireframe
 70
     5
177
     3
291
     0
 70
    58
 90
        0
176
     1
 90
        2
176
     1
 90
        1
176
     1
 90
        0
176
     1
 40
-0.6
176
     1
 40
-30.0
176
     1
 62
     7
420
 16777215
176
     1
 90
        1
176
     1
 90
        4
176
     1
 62
     7
176
     1
 62
   257
176
     1
 90
        1
176
     1
 90
        1
176
     1
 40
1.0
176
     1
 90
        0
176
     1
 62
   257
176
     1
 40
1.0
176
     1
 90
        1
176
     1
 90
        6
176
     1
 90
        2
176
     1
 62
     7
176
     1
 90
        5
176
     1
 90
        0
176
     1
 90
        0
176
     1
290
     0
176
     1
 90
        1
176
     1
 40
0.0
176
     1
 90
        0
176
     1
290
     0
176
     1
290
     1
176
     1
290
     1
176
     1
290
     0
176
     1
290
     0
176
     1
290
     0
176
     1
290
     0
176
     1
290
     0
176
     1
290
     0
176
     1
 90
       50
176
     1
 40
0.0
176
     1
 40
1.0
176
     1
 90
        0
176
     1
 62
    18
420
        0
176
     1
 90
       50
176
     1
 90
        3
176
     1
 62
     5
420
      255
176
     1
290
     0
176
     1
 90
       50
176
     1
 90
       50
176
     1
 90
       50
176
     1
290
     0
176
     1
 90
       50
176
     1
 62
   256
176
     0
 40
1.0
176
     0
 90
        2
176
     1
  1
strokes_ogs.tif
176
     1
290
     0
176
     1
 40
1.0
176
     1
 40
1.0
176
     1
  0
VISUALSTYLE
  5
9E
102
{ACAD_REACTORS
330
99
102
}
330
99
100
AcDbVisualStyle
  2
Basic
 70
     7
177
     3
291
     1
 70
    58
 90
        1
176
     1
 90
        0
176
     1
 90
        1
176
     1
 90
        0
176
     1
 40
-0.6
176
     1
 40
-30.0
176
     1
 62
     7
420
 16777215
176
     1
 90
        0
176
     1
 90
        4
176
     1
 62
     7
176
     1
 62
   257
176
     1
 90
        1
176
     1
 90
        1
176
     1
 40
1.0
176
     1
 90
        8
176
     1
 62
     7
176
     1
 40
1.0
176
     1
 90
        1
176
     1
 90
        6
176
     1
 90
        2
176
     1
 62
     7
176
     1
 90
        5
176
     1
 90
        0
176
     1
 90
        0
176
     1
290
     0
176
     1
 90
        1
176
     1
 40
0.0
176
     1
 90
        0
176
     1
290
     0
176
     1
290
     1
176
     1
290
     1
176
     1
290
     0
176
     1
290
     0
176
     1
290
     0
176
     1
290
     0
176
     1
290
     0
176
     1
290
     0
176
     1
 90
       50
176
     1
 40
0.0
176
     1
 40
1.0
176
     1
 90
        0
176
     1
 62
    18
420
        0
176
     1
 90
       50
176
     1
 90
        3
176
     1
 62
     5
420
      255
176
     1
290
     0
176
     1
 90
       50
176
     1
 90
       50
176
     1
 90
       50
176
     1
290
     0
176
     1
 90
       50
176
     1
 62
   256
176
     0
 40
1.0
176
     0
 90
        2
176
     1
  1
strokes_ogs.tif
176
     1
290
     0
176
     1
 40
1.0
176
     1
 40
1.0
176
     1
  0
VISUALSTYLE
  5
A5
102
{ACAD_REACTORS
330
99
102
}
330
99
100
AcDbVisualStyle
  2
Brighten
 70
    12
177
     3
291
     1
 70
    58
 90
        2
176
     1
 90
        2
176
     1
 90
        1
176
     1
 90
        0
176
     1
 40
-0.6
176
     1
 40
-30.0
176
     1
 62
     7
420
 16777215
176
     1
 90
        1
176
     1
 90
        4
176
     1
 62
     7
176
     1
 62
   257
176
     1
 90
        1
176
     1
 90
        1
176
     1
 40
1.0
176
     1
 90
        8
176
     1
 62
     7
176
     1
 40
1.0
176
     1
 90
        1
176
     1
 90
        6
176
     1
 90
        2
176
     1
 62
     7
176
     1
 90
        5
176
     1
 90
        0
176
     1
 90
        0
176
     1
290
     0
176
     1
 90
        1
176
     1
 40
50.0
176
     1
 90
        0
176
     1
290
     0
176
     1
290
     1
176
     1
290
     1
176
     1
290
     0
176
     1
290
     0
176
     1
290
     0
176
     1
290
     0
176
     1
290
     0
176
     1
290
     0
176
     1
 90
       50
176
     1
 40
0.0
176
     1
 40
1.0
176
     1
 90
        0
176
     1
 62
    18
420
        0
176
     1
 90
       50
176
     1
 90
        3
176
     1
 62
     5
420
      255
176
     1
290
     0
176
     1
 90
       50
176
     1
 90
       50
176
     1
 90
       50
176
     1
290
     0
176
     1
 90
       50
176
     1
 62
   256
176
     0
 40
1.0
176
     0
 90
        2
176
     1
  1
strokes_ogs.tif
176
     1
290
     0
176
     1
 40
1.0
176
     1
 40
1.0
176
     1
  0
VISUALSTYLE
  5
A9
102
{ACAD_REACTORS
330
99
102
}
330
99
100
AcDbVisualStyle
  2
ColorChange
 70
    16
177
     3
291
     1
 70
    58
 90
        2
176
     1
 90
        2
176
     1
 90
        3
176
     1
 90
        0
176
     1
 40
-0.6
176
     1
 40
-30.0
176
     1
 62
     8
420
  8421504
176
     1
 90
        1
176
     1
 90
        4
176
     1
 62
     7
176
     1
 62
   257
176
     1
 90
        1
176
     1
 90
        1
176
     1
 40
1.0
176
     1
 90
        8
176
     1
 62
     8
420
  8421504
176
     1
 40
1.0
176
     1
 90
        1
176
     1
 90
        6
176
     1
 90
        2
176
     1
 62
     7
176
     1
 90
        5
176
     1
 90
        0
176
     1
 90
        0
176
     1
290
     0
176
     1
 90
        1
176
     1
 40
0.0
176
     1
 90
        0
176
     1
290
     0
176
     1
290
     1
176
     1
290
     1
176
     1
290
     0
176
     1
290
     0
176
     1
290
     0
176
     1
290
     0
176
     1
290
     0
176
     1
290
     0
176
     1
 90
       50
176
     1
 40
0.0
176
     1
 40
1.0
176
     1
 90
        0
176
     1
 62
    18
420
        0
176
     1
 90
       50
176
     1
 90
        3
176
     1
 62
     5
420
      255
176
     1
290
     0
176
     1
 90
       50
176
     1
 90
       50
176
     1
 90
       50
176
     1
290
     0
176
     1
 90
       50
176
     1
 62
   256
176
     0
 40
1.0
176
     0
 90
        2
176
     1
  1
strokes_ogs.tif
176
     1
290
     0
176
     1
 40
1.0
176
     1
 40
1.0
176
     1
  0
VISUALSTYLE
  5
A2
102
{ACAD_REACTORS
330
99
102
}
330
99
100
AcDbVisualStyle
  2
Conceptual
 70
     9
177
     3
291
     0
 70
    58
 90
        3
176
     1
 90
        2
176
     1
 90
        1
176
     1
 90
        0
176
     1
 40
-0.6
176
     1
 40
-30.0
176
     1
 62
     7
420
 16777215
176
     1
 90
        2
176
     1
 90
        2
176
     1
 62
     7
176
     1
 62
   257
176
     1
 90
        1
176
     1
 90
        1
176
     1
 40
40.0
176
     1
 90
        8
176
     1
 62
     7
176
     1
 40
1.0
176
     1
 90
        1
176
     1
 90
        6
176
     1
 90
        2
176
     1
 62
     7
176
     1
 90
        3
176
     1
 90
        0
176
     1
 90
        0
176
     1
290
     0
176
     1
 90
        1
176
     1
 40
0.0
176
     1
 90
        0
176
     1
290
     0
176
     1
290
     1
176
     1
290
     1
176
     1
290
     0
176
     1
290
     0
176
     1
290
     0
176
     1
290
     0
176
     1
290
     0
176
     1
290
     0
176
     1
 90
       50
176
     1
 40
0.0
176
     1
 40
1.0
176
     1
 90
        0
176
     1
 62
    18
420
        0
176
     1
 90
       50
176
     1
 90
        3
176
     1
 62
     5
420
      255
176
     1
290
     0
176
     1
 90
       50
176
     1
 90
       50
176
     1
 90
       50
176
     1
290
     0
176
     1
 90
       50
176
     1
 62
   256
176
     0
 40
1.0
176
     0
 90
        2
176
     1
  1
strokes_ogs.tif
176
     1
290
     0
176
     1
 40
1.0
176
     1
 40
1.0
176
     1
  0
VISUALSTYLE
  5
A4
102
{ACAD_REACTORS
330
99
102
}
330
99
100
AcDbVisualStyle
  2
Dim
 70
    11
177
     3
291
     1
 70
    58
 90
        2
176
     1
 90
        2
176
     1
 90
        1
176
     1
 90
        0
176
     1
 40
-0.6
176
     1
 40
-30.0
176
     1
 62
     7
420
 16777215
176
     1
 90
        1
176
     1
 90
        4
176
     1
 62
     7
176
     1
 62
   257
176
     1
 90
        1
176
     1
 90
        1
176
     1
 40
1.0
176
     1
 90
        8
176
     1
 62
     7
176
     1
 40
1.0
176
     1
 90
        1
176
     1
 90
        6
176
     1
 90
        2
176
     1
 62
     7
176
     1
 90
        5
176
     1
 90
        0
176
     1
 90
        0
176
     1
290
     0
176
     1
 90
        1
176
     1
 40
-50.0
176
     1
 90
        0
176
     1
290
     0
176
     1
290
     1
176
     1
290
     1
176
     1
290
     0
176
     1
290
     0
176
     1
290
     0
176
     1
290
     0
176
     1
290
     0
176
     1
290
     0
176
     1
 90
       50
176
     1
 40
0.0
176
     1
 40
1.0
176
     1
 90
        0
176
     1
 62
    18
420
        0
176
     1
 90
       50
176
     1
 90
        3
176
     1
 62
     5
420
      255
176
     1
290
     0
176
     1
 90
       50
176
     1
 90
       50
176
     1
 90
       50
176
     1
290
     0
176
     1
 90
       50
176
     1
 62
   256
176
     0
 40
1.0
176
     0
 90
        2
176
     1
  1
strokes_ogs.tif
176
     1
290
     0
176
     1
 40
1.0
176
     1
 40
1.0
176
     1
  0
VISUALSTYLE
  5
E7
102
{ACAD_REACTORS
330
99
102
}
330
99
100
AcDbVisualStyle
  2
EdgeColorOff
 70
    22
177
     3
291
     1
 70
    58
 90
        2
176
     0
 90
        2
176
     0
 90
        0
176
     0
 90
        0
176
     0
 40
0.6
176
     0
 40
30.0
176
     0
 62
     7
420
 16777215
176
     0
 90
        1
176
     0
 90
        4
176
     0
 62
     7
176
     0
 62
   257
176
     0
 90
        1
176
     0
 90
        1
176
     0
 40
1.0
176
     0
 90
        8
176
     2
 62
     7
176
     0
 40
1.0
176
     0
 90
        1
176
     0
 90
        6
176
     0
 90
        2
176
     0
 62
     7
176
     0
 90
        5
176
     0
 90
        0
176
     0
 90
        0
176
     0
290
     0
176
     0
 90
        1
176
     0
 40
0.0
176
     0
 90
        0
176
     0
290
     0
176
     0
290
     1
176
     0
290
     1
176
     0
290
     0
176
     0
290
     0
176
     0
290
     0
176
     0
290
     0
176
     0
290
     0
176
     0
290
     0
176
     0
 90
       50
176
     0
 40
0.0
176
     0
 40
1.0
176
     0
 90
        0
176
     0
 62
    18
420
        0
176
     0
 90
       50
176
     0
 90
        3
176
     0
 62
     5
420
      255
176
     0
290
     0
176
     0
 90
       50
176
     0
 90
       50
176
     0
 90
       50
176
     0
290
     0
176
     0
 90
       50
176
     0
 62
   256
176
     0
 40
1.0
176
     0
 90
        2
176
     0
  1
strokes_ogs.tif
176
     0
290
     0
176
     0
 40
1.0
176
     0
 40
1.0
176
     0
  0
VISUALSTYLE
  5
A8
102
{ACAD_REACTORS
330
99
102
}
330
99
100
AcDbVisualStyle
  2
Facepattern
 70
    15
177
     3
291
     1
 70
    58
 90
        2
176
     1
 90
        2
176
     1
 90
        1
176
     1
 90
        0
176
     1
 40
-0.6
176
     1
 40
-30.0
176
     1
 62
     7
420
 16777215
176
     1
 90
        1
176
     1
 90
        4
176
     1
 62
     7
176
     1
 62
   257
176
     1
 90
        1
176
     1
 90
        1
176
     1
 40
1.0
176
     1
 90
        8
176
     1
 62
     7
176
     1
 40
1.0
176
     1
 90
        1
176
     1
 90
        6
176
     1
 90
        2
176
     1
 62
     7
176
     1
 90
        5
176
     1
 90
        0
176
     1
 90
        0
176
     1
290
     0
176
     1
 90
        1
176
     1
 40
0.0
176
     1
 90
        0
176
     1
290
     0
176
     1
290
     1
176
     1
290
     1
176
     1
290
     0
176
     1
290
     0
176
     1
290
     0
176
     1
290
     0
176
     1
290
     0
176
     1
290
     0
176
     1
 90
       50
176
     1
 40
0.0
176
     1
 40
1.0
176
     1
 90
        0
176
     1
 62
    18
420
        0
176
     1
 90
       50
176
     1
 90
        3
176
     1
 62
     5
420
      255
176
     1
290
     0
176
     1
 90
       50
176
     1
 90
       50
176
     1
 90
       50
176
     1
290
     0
176
     1
 90
       50
176
     1
 62
   256
176
     0
 40
1.0
176
     0
 90
        2
176
     1
  1
strokes_ogs.tif
176
     1
290
     0
176
     1
 40
1.0
176
     1
 40
1.0
176
     1
  0
VISUALSTYLE
  5
9A
102
{ACAD_REACTORS
330
99
102
}
330
99
100
AcDbVisualStyle
  2
Flat
 70
     0
177
     3
291
     1
 70
    58
 90
        2
176
     1
 90
        1
176
     1
 90
        1
176
     1
 90
        2
176
     1
 40
-0.6
176
     1
 40
30.0
176
     1
 62
     7
420
 16777215
176
     1
 90
        0
176
     1
 90
        4
176
     1
 62
     7
176
     1
 62
   257
176
     1
 90
        1
176
     1
 90
        1
176
     1
 40
1.0
176
     1
 90
        8
176
     1
 62
     7
176
     1
 40
1.0
176
     1
 90
        1
176
     1
 90
        6
176
     1
 90
        2
176
     1
 62
     7
176
     1
 90
        5
176
     1
 90
        0
176
     1
 90
        0
176
     1
290
     0
176
     1
 90
        1
176
     1
 40
0.0
176
     1
 90
        0
176
     1
290
     0
176
     1
290
     1
176
     1
290
     1
176
     1
290
     0
176
     1
290
     0
176
     1
290
     0
176
     1
290
     0
176
     1
290
     0
176
     1
290
     0
176
     1
 90
       50
176
     1
 40
0.0
176
     1
 40
1.0
176
     1
 90
        0
176
     1
 62
    18
420
        0
176
     1
 90
       50
176
     1
 90
        3
176
     1
 62
     5
420
      255
176
     1
290
     0
176
     1
 90
       50
176
     1
 90
       50
176
     1
 90
       50
176
     1
290
     0
176
     1
 90
       50
176
     1
 62
   256
176
     0
 40
1.0
176
     0
 90
        2
176
     1
  1
strokes_ogs.tif
176
     1
290
     0
176
     1
 40
1.0
176
     1
 40
1.0
176
     1
  0
VISUALSTYLE
  5
9B
102
{ACAD_REACTORS
330
99
102
}
330
99
100
AcDbVisualStyle
  2
FlatWithEdges
 70
     1
177
     3
291
     1
 70
    58
 90
        2
176
     1
 90
        1
176
     1
 90
        1
176
     1
 90
        2
176
     1
 40
-0.6
176
     1
 40
30.0
176
     1
 62
     7
420
 16777215
176
     1
 90
        1
176
     1
 90
        4
176
     1
 62
     7
176
     1
 62
   257
176
     1
 90
        1
176
     1
 90
        1
176
     1
 40
1.0
176
     1
 90
        0
176
     1
 62
   257
176
     1
 40
1.0
176
     1
 90
        1
176
     1
 90
        6
176
     1
 90
        2
176
     1
 62
     7
176
     1
 90
        5
176
     1
 90
        0
176
     1
 90
        0
176
     1
290
     0
176
     1
 90
        1
176
     1
 40
0.0
176
     1
 90
        0
176
     1
290
     0
176
     1
290
     1
176
     1
290
     1
176
     1
290
     0
176
     1
290
     0
176
     1
290
     0
176
     1
290
     0
176
     1
290
     0
176
     1
290
     0
176
     1
 90
       50
176
     1
 40
0.0
176
     1
 40
1.0
176
     1
 90
        0
176
     1
 62
    18
420
        0
176
     1
 90
       50
176
     1
 90
        3
176
     1
 62
     5
420
      255
176
     1
290
     0
176
     1
 90
       50
176
     1
 90
       50
176
     1
 90
       50
176
     1
290
     0
176
     1
 90
       50
176
     1
 62
   256
176
     0
 40
1.0
176
     0
 90
        2
176
     1
  1
strokes_ogs.tif
176
     1
290
     0
176
     1
 40
1.0
176
     1
 40
1.0
176
     1
  0
VISUALSTYLE
  5
9C
102
{ACAD_REACTORS
330
99
102
}
330
99
100
AcDbVisualStyle
  2
Gouraud
 70
     2
177
     3
291
     1
 70
    58
 90
        2
176
     1
 90
        2
176
     1
 90
        1
176
     1
 90
        2
176
     1
 40
-0.6
176
     1
 40
30.0
176
     1
 62
     7
420
 16777215
176
     1
 90
        0
176
     1
 90
        4
176
     1
 62
     7
176
     1
 62
   257
176
     1
 90
        1
176
     1
 90
        1
176
     1
 40
1.0
176
     1
 90
        0
176
     1
 62
     7
176
     1
 40
1.0
176
     1
 90
        1
176
     1
 90
        6
176
     1
 90
        2
176
     1
 62
     7
176
     1
 90
        5
176
     1
 90
        0
176
     1
 90
        0
176
     1
290
     0
176
     1
 90
        1
176
     1
 40
0.0
176
     1
 90
        0
176
     1
290
     0
176
     1
290
     1
176
     1
290
     1
176
     1
290
     0
176
     1
290
     0
176
     1
290
     0
176
     1
290
     0
176
     1
290
     0
176
     1
290
     0
176
     1
 90
       50
176
     1
 40
0.0
176
     1
 40
1.0
176
     1
 90
        0
176
     1
 62
    18
420
        0
176
     1
 90
       50
176
     1
 90
        3
176
     1
 62
     5
420
      255
176
     1
290
     0
176
     1
 90
       50
176
     1
 90
       50
176
     1
 90
       50
176
     1
290
     0
176
     1
 90
       50
176
     1
 62
   256
176
     0
 40
1.0
176
     0
 90
        2
176
     1
  1
strokes_ogs.tif
176
     1
290
     0
176
     1
 40
1.0
176
     1
 40
1.0
176
     1
  0
VISUALSTYLE
  5
9D
102
{ACAD_REACTORS
330
99
102
}
330
99
100
AcDbVisualStyle
  2
GouraudWithEdges
 70
     3
177
     3
291
     1
 70
    58
 90
        2
176
     1
 90
        2
176
     1
 90
        1
176
     1
 90
        2
176
     1
 40
-0.6
176
     1
 40
30.0
176
     1
 62
     7
420
 16777215
176
     1
 90
        1
176
     1
 90
        4
176
     1
 62
     7
176
     1
 62
   257
176
     1
 90
        1
176
     1
 90
        1
176
     1
 40
1.0
176
     1
 90
        0
176
     1
 62
   257
176
     1
 40
1.0
176
     1
 90
        1
176
     1
 90
        6
176
     1
 90
        2
176
     1
 62
     7
176
     1
 90
        5
176
     1
 90
        0
176
     1
 90
        0
176
     1
290
     0
176
     1
 90
        1
176
     1
 40
0.0
176
     1
 90
        0
176
     1
290
     0
176
     1
290
     1
176
     1
290
     1
176
     1
290
     0
176
     1
290
     0
176
     1
290
     0
176
     1
290
     0
176
     1
290
     0
176
     1
290
     0
176
     1
 90
       50
176
     1
 40
0.0
176
     1
 40
1.0
176
     1
 90
        0
176
     1
 62
    18
420
        0
176
     1
 90
       50
176
     1
 90
        3
176
     1
 62
     5
420
      255
176
     1
290
     0
176
     1
 90
       50
176
     1
 90
       50
176
     1
 90
       50
176
     1
290
     0
176
     1
 90
       50
176
     1
 62
   256
176
     0
 40
1.0
176
     0
 90
        2
176
     1
  1
strokes_ogs.tif
176
     1
290
     0
176
     1
 40
1.0
176
     1
 40
1.0
176
     1
  0
VISUALSTYLE
  5
E4
102
{ACAD_REACTORS
330
99
102
}
330
99
100
AcDbVisualStyle
  2
Hidden
 70
     6
177
     3
291
     0
 70
    58
 90
        1
176
     1
 90
        2
176
     1
 90
        2
176
     1
 90
        0
176
     1
 40
0.6
176
     1
 40
30.0
176
     1
 62
     7
420
 16777215
176
     1
 90
        2
176
     1
 90
        2
176
     1
 62
     7
176
     1
 62
   257
176
     1
 90
        2
176
     1
 90
        1
176
     1
 40
40.0
176
     1
 90
        0
176
     1
 62
   257
176
     1
 40
1.0
176
     1
 90
        1
176
     1
 90
        6
176
     1
 90
        2
176
     1
 62
     7
176
     1
 90
        3
176
     1
 90
        0
176
     1
 90
        0
176
     1
290
     0
176
     1
 90
        1
176
     1
 40
0.0
176
     1
 90
        0
176
     1
290
     0
176
     1
290
     1
176
     1
290
     1
176
     1
290
     0
176
     1
290
     0
176
     1
290
     0
176
     1
290
     0
176
     1
290
     0
176
     1
290
     0
176
     1
 90
       50
176
     1
 40
0.0
176
     1
 40
1.0
176
     1
 90
        0
176
     1
 62
    18
420
        0
176
     1
 90
       50
176
     1
 90
        3
176
     1
 62
     5
420
      255
176
     1
290
     0
176
     1
 90
       50
176
     1
 90
       50
176
     1
 90
       50
176
     1
290
     0
176
     1
 90
       50
176
     1
 62
   256
176
     0
 40
1.0
176
     0
 90
        2
176
     1
  1
strokes_ogs.tif
176
     1
290
     0
176
     1
 40
1.0
176
     1
 40
1.0
176
     1
  0
VISUALSTYLE
  5
E5
102
{ACAD_REACTORS
330
99
102
}
330
99
100
AcDbVisualStyle
  2
JitterOff
 70
    20
177
     3
291
     1
 70
    58
 90
        2
176
     0
 90
        2
176
     0
 90
        0
176
     0
 90
        0
176
     0
 40
0.6
176
     0
 40
30.0
176
     0
 62
     7
420
 16777215
176
     0
 90
        1
176
     0
 90
        4
176
     0
 62
     7
176
     0
 62
   257
176
     0
 90
        1
176
     0
 90
        1
176
     0
 40
1.0
176
     0
 90
       10
176
     2
 62
     7
176
     0
 40
1.0
176
     0
 90
        1
176
     0
 90
        6
176
     0
 90
        2
176
     0
 62
     7
176
     0
 90
        5
176
     0
 90
        0
176
     0
 90
        0
176
     0
290
     0
176
     0
 90
        1
176
     0
 40
0.0
176
     0
 90
        0
176
     0
290
     0
176
     0
290
     1
176
     0
290
     1
176
     0
290
     0
176
     0
290
     0
176
     0
290
     0
176
     0
290
     0
176
     0
290
     0
176
     0
290
     0
176
     0
 90
       50
176
     0
 40
0.0
176
     0
 40
1.0
176
     0
 90
        0
176
     0
 62
    18
420
        0
176
     0
 90
       50
176
     0
 90
        3
176
     0
 62
     5
420
      255
176
     0
290
     0
176
     0
 90
       50
176
     0
 90
       50
176
     0
 90
       50
176
     0
290
     0
176
     0
 90
       50
176
     0
 62
   256
176
     0
 40
1.0
176
     0
 90
        2
176
     0
  1
strokes_ogs.tif
176
     0
290
     0
176
     0
 40
1.0
176
     0
 40
1.0
176
     0
  0
VISUALSTYLE
  5
A7
102
{ACAD_REACTORS
330
99
102
}
330
99
100
AcDbVisualStyle
  2
Linepattern
 70
    14
177
     3
291
     1
 70
    58
 90
        2
176
     1
 90
        2
176
     1
 90
        1
176
     1
 90
        0
176
     1
 40
-0.6
176
     1
 40
-30.0
176
     1
 62
     7
420
 16777215
176
     1
 90
        1
176
     1
 90
        4
176
     1
 62
     7
176
     1
 62
   257
176
     1
 90
        7
176
     1
 90
        7
176
     1
 40
1.0
176
     1
 90
        8
176
     1
 62
     7
176
     1
 40
1.0
176
     1
 90
        1
176
     1
 90
        6
176
     1
 90
        2
176
     1
 62
     7
176
     1
 90
        5
176
     1
 90
        0
176
     1
 90
        0
176
     1
290
     0
176
     1
 90
        1
176
     1
 40
0.0
176
     1
 90
        0
176
     1
290
     0
176
     1
290
     1
176
     1
290
     1
176
     1
290
     0
176
     1
290
     0
176
     1
290
     0
176
     1
290
     0
176
     1
290
     0
176
     1
290
     0
176
     1
 90
       50
176
     1
 40
0.0
176
     1
 40
1.0
176
     1
 90
        0
176
     1
 62
    18
420
        0
176
     1
 90
       50
176
     1
 90
        3
176
     1
 62
     5
420
      255
176
     1
290
     0
176
     1
 90
       50
176
     1
 90
       50
176
     1
 90
       50
176
     1
290
     0
176
     1
 90
       50
176
     1
 62
   256
176
     0
 40
1.0
176
     0
 90
        2
176
     1
  1
strokes_ogs.tif
176
     1
290
     0
176
     1
 40
1.0
176
     1
 40
1.0
176
     1
  0
VISUALSTYLE
  5
E6
102
{ACAD_REACTORS
330
99
102
}
330
99
100
AcDbVisualStyle
  2
OverhangOff
 70
    21
177
     3
291
     1
 70
    58
 90
        2
176
     0
 90
        2
176
     0
 90
        0
176
     0
 90
        0
176
     0
 40
0.6
176
     0
 40
30.0
176
     0
 62
     7
420
 16777215
176
     0
 90
        1
176
     0
 90
        4
176
     0
 62
     7
176
     0
 62
   257
176
     0
 90
        1
176
     0
 90
        1
176
     0
 40
1.0
176
     0
 90
        9
176
     2
 62
     7
176
     0
 40
1.0
176
     0
 90
        1
176
     0
 90
        6
176
     0
 90
        2
176
     0
 62
     7
176
     0
 90
        5
176
     0
 90
        0
176
     0
 90
        0
176
     0
290
     0
176
     0
 90
        1
176
     0
 40
0.0
176
     0
 90
        0
176
     0
290
     0
176
     0
290
     1
176
     0
290
     1
176
     0
290
     0
176
     0
290
     0
176
     0
290
     0
176
     0
290
     0
176
     0
290
     0
176
     0
290
     0
176
     0
 90
       50
176
     0
 40
0.0
176
     0
 40
1.0
176
     0
 90
        0
176
     0
 62
    18
420
        0
176
     0
 90
       50
176
     0
 90
        3
176
     0
 62
     5
420
      255
176
     0
290
     0
176
     0
 90
       50
176
     0
 90
       50
176
     0
 90
       50
176
     0
290
     0
176
     0
 90
       50
176
     0
 62
   256
176
     0
 40
1.0
176
     0
 90
        2
176
     0
  1
strokes_ogs.tif
176
     0
290
     0
176
     0
 40
1.0
176
     0
 40
1.0
176
     0
  0
VISUALSTYLE
  5
A3
102
{ACAD_REACTORS
330
99
102
}
330
99
100
AcDbVisualStyle
  2
Realistic
 70
     8
177
     3
291
     0
 70
    58
 90
        2
176
     1
 90
        2
176
     1
 90
        1
176
     1
 90
        0
176
     1
 40
-0.6
176
     1
 40
-30.0
176
     1
 62
     7
420
 16777215
176
     1
 90
        1
176
     1
 90
        0
176
     1
 62
     7
176
     1
 62
   257
176
     1
 90
        1
176
     1
 90
        1
176
     1
 40
1.0
176
     1
 90
        8
176
     1
 62
     8
420
  7895160
176
     1
 40
1.0
176
     1
 90
        1
176
     1
 90
        6
176
     1
 90
        2
176
     1
 62
     7
176
     1
 90
        5
176
     1
 90
        0
176
     1
 90
        0
176
     1
290
     0
176
     1
 90
       13
176
     1
 40
0.0
176
     1
 90
        0
176
     1
290
     0
176
     1
290
     1
176
     1
290
     1
176
     1
290
     0
176
     1
290
     0
176
     1
290
     0
176
     1
290
     0
176
     1
290
     0
176
     1
290
     0
176
     1
 90
       50
176
     1
 40
0.0
176
     1
 40
1.0
176
     1
 90
        0
176
     1
 62
    18
420
        0
176
     1
 90
       50
176
     1
 90
        3
176
     1
 62
     5
420
      255
176
     1
290
     0
176
     1
 90
       50
176
     1
 90
       50
176
     1
 90
       50
176
     1
290
     0
176
     1
 90
       50
176
     1
 62
   256
176
     0
 40
1.0
176
     0
 90
        2
176
     1
  1
strokes_ogs.tif
176
     1
290
     0
176
     1
 40
1.0
176
     1
 40
1.0
176
     1
  0
VISUALSTYLE
  5
EC
102
{ACAD_REACTORS
330
99
102
}
330
99
100
AcDbVisualStyle
  2
Shaded
 70
    27
177
     3
291
     0
 70
    58
 90
        2
176
     1
 90
        2
176
     1
 90
        1
176
     1
 90
        2
176
     1
 40
0.6
176
     1
 40
30.0
176
     1
 62
     7
420
 16777215
176
     1
 90
        0
176
     1
 90
        4
176
     1
 62
     7
176
     1
 62
   257
176
     1
 90
        1
176
     1
 90
        1
176
     1
 40
1.0
176
     1
 90
        8
176
     1
 62
   257
176
     1
 40
1.0
176
     1
 90
        1
176
     1
 90
        6
176
     1
 90
        2
176
     1
 62
     8
420
  7895160
176
     1
 90
        3
176
     1
 90
        0
176
     1
 90
        0
176
     1
290
     0
176
     1
 90
        5
176
     1
 40
0.0
176
     1
 90
        0
176
     1
290
     0
176
     1
290
     1
176
     1
290
     1
176
     1
290
     0
176
     1
290
     0
176
     1
290
     0
176
     1
290
     0
176
     1
290
     0
176
     1
290
     0
176
     1
 90
       50
176
     1
 40
0.0
176
     1
 40
1.0
176
     1
 90
        0
176
     1
 62
    18
420
        0
176
     1
 90
       50
176
     1
 90
        3
176
     1
 62
     5
420
      255
176
     1
290
     0
176
     1
 90
       50
176
     1
 90
       50
176
     1
 90
       50
176
     1
290
     0
176
     1
 90
       50
176
     1
 62
   256
176
     0
 40
1.0
176
     0
 90
        2
176
     1
  1
strokes_ogs.tif
176
     1
290
     0
176
     1
 40
1.0
176
     1
 40
1.0
176
     1
  0
VISUALSTYLE
  5
EB
102
{ACAD_REACTORS
330
99
102
}
330
99
100
AcDbVisualStyle
  2
Shaded with edges
 70
    26
177
     3
291
     0
 70
    58
 90
        2
176
     1
 90
        2
176
     1
 90
        1
176
     1
 90
        2
176
     1
 40
0.6
176
     1
 40
30.0
176
     1
 62
     7
420
 16777215
176
     1
 90
        1
176
     1
 90
       10
176
     1
 62
     7
176
     1
 62
   257
176
     1
 90
        2
176
     1
 90
        1
176
     1
 40
1.0
176
     1
 90
        8
176
     1
 62
   257
176
     1
 40
1.0
176
     1
 90
        1
176
     1
 90
        6
176
     1
 90
        2
176
     1
 62
     7
176
     1
 90
        3
176
     1
 90
        0
176
     1
 90
        0
176
     1
290
     0
176
     1
 90
        5
176
     1
 40
0.0
176
     1
 90
        0
176
     1
290
     0
176
     1
290
     1
176
     1
290
     1
176
     1
290
     0
176
     1
290
     0
176
     1
290
     0
176
     1
290
     0
176
     1
290
     0
176
     1
290
     0
176
     1
 90
       50
176
     1
 40
0.0
176
     1
 40
1.0
176
     1
 90
        0
176
     1
 62
    18
420
        0
176
     1
 90
       50
176
     1
 90
        3
176
     1
 62
     5
420
      255
176
     1
290
     0
176
     1
 90
       50
176
     1
 90
       50
176
     1
 90
       50
176
     1
290
     0
176
     1
 90
       50
176
     1
 62
   256
176
     0
 40
1.0
176
     0
 90
        2
176
     1
  1
strokes_ogs.tif
176
     1
290
     0
176
     1
 40
1.0
176
     1
 40
1.0
176
     1
  0
VISUALSTYLE
  5
E8
102
{ACAD_REACTORS
330
99
102
}
330
99
100
AcDbVisualStyle
  2
Shades of Gray
 70
    23
177
     3
291
     0
 70
    58
 90
        2
176
     1
 90
        2
176
     1
 90
        3
176
     1
 90
        0
176
     1
 40
0.6
176
     1
 40
30.0
176
     1
 62
     7
420
 16777215
176
     1
 90
        2
176
     1
 90
        2
176
     1
 62
     7
176
     1
 62
     7
176
     1
 90
        1
176
     1
 90
        1
176
     1
 40
40.0
176
     1
 90
        8
176
     1
 62
     7
176
     1
 40
1.0
176
     1
 90
        1
176
     1
 90
        6
176
     1
 90
        2
176
     1
 62
     7
176
     1
 90
        3
176
     1
 90
        0
176
     1
 90
        0
176
     1
290
     0
176
     1
 90
        1
176
     1
 40
0.0
176
     1
 90
        0
176
     1
290
     0
176
     1
290
     1
176
     1
290
     1
176
     1
290
     0
176
     1
290
     0
176
     1
290
     0
176
     1
290
     0
176
     1
290
     0
176
     1
290
     0
176
     1
 90
       50
176
     1
 40
0.0
176
     1
 40
1.0
176
     1
 90
        0
176
     1
 62
    18
420
        0
176
     1
 90
       50
176
     1
 90
        3
176
     1
 62
     5
420
      255
176
     1
290
     0
176
     1
 90
       50
176
     1
 90
       50
176
     1
 90
       50
176
     1
290
     0
176
     1
 90
       50
176
     1
 62
   256
176
     0
 40
1.0
176
     0
 90
        2
176
     1
  1
strokes_ogs.tif
176
     1
290
     0
176
     1
 40
1.0
176
     1
 40
1.0
176
     1
  0
VISUALSTYLE
  5
E9
102
{ACAD_REACTORS
330
99
102
}
330
99
100
AcDbVisualStyle
  2
Sketchy
 70
    24
177
     3
291
     0
 70
    58
 90
        1
176
     1
 90
        2
176
     1
 90
        2
176
     1
 90
        0
176
     1
 40
0.6
176
     1
 40
30.0
176
     1
 62
     7
420
 16777215
176
     1
 90
        2
176
     1
 90
        2
176
     1
 62
     7
176
     1
 62
     7
176
     1
 90
        1
176
     1
 90
        1
176
     1
 40
40.0
176
     1
 90
       11
176
     1
 62
     7
176
     1
 40
1.0
176
     1
 90
        1
176
     1
 90
        6
176
     1
 90
        2
176
     1
 62
     7
176
     1
 90
        6
176
     1
 90
        0
176
     1
 90
        0
176
     1
290
     0
176
     1
 90
        1
176
     1
 40
0.0
176
     1
 90
        0
176
     1
290
     0
176
     1
290
     1
176
     1
290
     1
176
     1
290
     0
176
     1
290
     0
176
     1
290
     0
176
     1
290
     0
176
     1
290
     0
176
     1
290
     0
176
     1
 90
       50
176
     1
 40
0.0
176
     1
 40
1.0
176
     1
 90
        0
176
     1
 62
    18
420
        0
176
     1
 90
       50
176
     1
 90
        3
176
     1
 62
     5
420
      255
176
     1
290
     0
176
     1
 90
       50
176
     1
 90
       50
176
     1
 90
       50
176
     1
290
     0
176
     1
 90
       50
176
     1
 62
   256
176
     0
 40
1.0
176
     0
 90
        2
176
     1
  1
strokes_ogs.tif
176
     1
290
     0
176
     1
 40
1.0
176
     1
 40
1.0
176
     1
  0
VISUALSTYLE
  5
A6
102
{ACAD_REACTORS
330
99
102
}
330
99
100
AcDbVisualStyle
  2
Thicken
 70
    13
177
     3
291
     1
 70
    58
 90
        2
176
     1
 90
        2
176
     1
 90
        1
176
     1
 90
        0
176
     1
 40
-0.6
176
     1
 40
-30.0
176
     1
 62
     7
420
 16777215
176
     1
 90
        1
176
     1
 90
        4
176
     1
 62
     7
176
     1
 62
   257
176
     1
 90
        1
176
     1
 90
        1
176
     1
 40
1.0
176
     1
 90
       12
176
     1
 62
     7
176
     1
 40
1.0
176
     1
 90
        1
176
     1
 90
        6
176
     1
 90
        2
176
     1
 62
     7
176
     1
 90
        5
176
     1
 90
        0
176
     1
 90
        0
176
     1
290
     0
176
     1
 90
        1
176
     1
 40
0.0
176
     1
 90
        0
176
     1
290
     0
176
     1
290
     1
176
     1
290
     1
176
     1
290
     0
176
     1
290
     0
176
     1
290
     0
176
     1
290
     0
176
     1
290
     0
176
     1
290
     0
176
     1
 90
       50
176
     1
 40
0.0
176
     1
 40
1.0
176
     1
 90
        0
176
     1
 62
    18
420
        0
176
     1
 90
       50
176
     1
 90
        3
176
     1
 62
     5
420
      255
176
     1
290
     0
176
     1
 90
       50
176
     1
 90
       50
176
     1
 90
       50
176
     1
290
     0
176
     1
 90
       50
176
     1
 62
   256
176
     0
 40
1.0
176
     0
 90
        2
176
     1
  1
strokes_ogs.tif
176
     1
290
     0
176
     1
 40
1.0
176
     1
 40
1.0
176
     1
  0
VISUALSTYLE
  5
E3
102
{ACAD_REACTORS
330
99
102
}
330
99
100
AcDbVisualStyle
  2
Wireframe
 70
     5
177
     3
291
     0
 70
    58
 90
        0
176
     1
 90
        2
176
     1
 90
        0
176
     1
 90
        0
176
     1
 40
0.6
176
     1
 40
30.0
176
     1
 62
     7
420
 16777215
176
     1
 90
        1
176
     1
 90
        4
176
     1
 62
     7
176
     1
 62
   257
176
     1
 90
        1
176
     1
 90
        1
176
     1
 40
1.0
176
     1
 90
        0
176
     1
 62
   257
176
     1
 40
1.0
176
     1
 90
        1
176
     1
 90
        6
176
     1
 90
        2
176
     1
 62
     7
176
     1
 90
        3
176
     1
 90
        0
176
     1
 90
        0
176
     1
290
     0
176
     1
 90
        1
176
     1
 40
0.0
176
     1
 90
        0
176
     1
290
     0
176
     1
290
     1
176
     1
290
     1
176
     1
290
     0
176
     1
290
     0
176
     1
290
     0
176
     1
290
     0
176
     1
290
     0
176
     1
290
     0
176
     1
 90
       50
176
     1
 40
0.0
176
     1
 40
1.0
176
     1
 90
        0
176
     1
 62
    18
420
        0
176
     1
 90
       50
176
     1
 90
        3
176
     1
 62
     5
420
      255
176
     1
290
     0
176
     1
 90
       50
176
     1
 90
       50
176
     1
 90
       50
176
     1
290
     0
176
     1
 90
       50
176
     1
 62
   256
176
     0
 40
1.0
176
     0
 90
        2
176
     1
  1
strokes_ogs.tif
176
     1
290
     0
176
     1
 40
1.0
176
     1
 40
1.0
176
     1
  0
VISUALSTYLE
  5
EA
102
{ACAD_REACTORS
330
99
102
}
330
99
100
AcDbVisualStyle
  2
X-Ray
 70
    25
177
     3
291
     0
 70
    58
 90
        2
176
     1
 90
        2
176
     1
 90
        1
176
     1
 90
        1
176
     1
 40
0.5
176
     1
 40
30.0
176
     1
 62
     7
420
 16777215
176
     1
 90
        1
176
     1
 90
        0
176
     1
 62
     7
176
     1
 62
   257
176
     1
 90
        1
176
     1
 90
        1
176
     1
 40
1.0
176
     1
 90
        8
176
     1
 62
     7
176
     1
 40
1.0
176
     1
 90
        1
176
     1
 90
        6
176
     1
 90
        2
176
     1
 62
     7
176
     1
 90
        3
176
     1
 90
        0
176
     1
 90
        0
176
     1
290
     0
176
     1
 90
       13
176
     1
 40
0.0
176
     1
 90
        0
176
     1
290
     0
176
     1
290
     1
176
     1
290
     1
176
     1
290
     0
176
     1
290
     0
176
     1
290
     0
176
     1
290
     0
176
     1
290
     0
176
     1
290
     0
176
     1
 90
       50
176
     1
 40
0.0
176
     1
 40
1.0
176
     1
 90
        0
176
     1
 62
    18
420
        0
176
     1
 90
       50
176
     1
 90
        3
176
     1
 62
     5
420
      255
176
     1
290
     0
176
     1
 90
       50
176
     1
 90
       50
176
     1
 90
       50
176
     1
290
     0
176
     1
 90
       50
176
     1
 62
   256
176
     0
 40
1.0
176
     0
 90
        2
176
     1
  1
strokes_ogs.tif
176
     1
290
     0
176
     1
 40
1.0
176
     1
 40
1.0
176
     1
  0
DICTIONARYVAR
  5
D8
102
{ACAD_REACTORS
330
66
102
}
330
66
100
DictionaryVariables
280
     0
  1
1:1
  0
DICTIONARYVAR
  5
89
102
{ACAD_REACTORS
330
66
102
}
330
66
100
DictionaryVariables
280
     0
  1
Standard
  0
DICTIONARYVAR
  5
67
102
{ACAD_REACTORS
330
66
102
}
330
66
100
DictionaryVariables
280
     0
  1
2
  0
DICTIONARYVAR
  5
6B
102
{ACAD_REACTORS
330
66
102
}
330
66
100
DictionaryVariables
280
     0
  1
1
  0
DICTIONARYVAR
  5
DF
102
{ACAD_REACTORS
330
66
102
}
330
66
100
DictionaryVariables
280
     0
  1
0
  0
DICTIONARYVAR
  5
E0
102
{ACAD_REACTORS
330
66
102
}
330
66
100
DictionaryVariables
280
     0
  1
0
  0
DICTIONARY
  5
2BD
330
87
100
AcDbDictionary
280
     1
281
     1
  3
ACAD_ROUNDTRIP_2008_TABLESTYLE_CELLSTYLEMAP
360
2BE
  0
CELLSTYLEMAP
  5
2BE
102
{ACAD_REACTORS
330
2BD
102
}
330
2BD
100
AcDbCellStyleMap
 90
        3
300
CELLSTYLE
  1
TABLEFORMAT_BEGIN
 90
        5
170
     1
 91
        0
 92
    32768
 62
   257
 93
        1
300
CONTENTFORMAT
  1
CONTENTFORMAT_BEGIN
 90
        0
 91
        0
 92
      512
 93
        0
300

 40
0.0
140
1.0
 94
        5
 62
     0
340
11
144
0.25
309
CONTENTFORMAT_END
171
     0
 94
        6
 95
        1
302
GRIDFORMAT
  1
GRIDFORMAT_BEGIN
 90
        0
 91
        1
 62
     0
 92
       -2
340
0
 93
        0
 40
0.045
309
GRIDFORMAT_END
 95
        2
302
GRIDFORMAT
  1
GRIDFORMAT_BEGIN
 90
        0
 91
        1
 62
     0
 92
       -2
340
0
 93
        0
 40
0.045
309
GRIDFORMAT_END
 95
        4
302
GRIDFORMAT
  1
GRIDFORMAT_BEGIN
 90
        0
 91
        1
 62
     0
 92
       -2
340
0
 93
        0
 40
0.045
309
GRIDFORMAT_END
 95
        8
302
GRIDFORMAT
  1
GRIDFORMAT_BEGIN
 90
        0
 91
        1
 62
     0
 92
       -2
340
0
 93
        0
 40
0.045
309
GRIDFORMAT_END
 95
       16
302
GRIDFORMAT
  1
GRIDFORMAT_BEGIN
 90
        0
 91
        1
 62
     0
 92
       -2
340
0
 93
        0
 40
0.045
309
GRIDFORMAT_END
 95
       32
302
GRIDFORMAT
  1
GRIDFORMAT_BEGIN
 90
        0
 91
        1
 62
     0
 92
       -2
340
0
 93
        0
 40
0.045
309
GRIDFORMAT_END
309
TABLEFORMAT_END
  1
CELLSTYLE_BEGIN
 90
        1
 91
        1
300
_TITLE
309
CELLSTYLE_END
300
CELLSTYLE
  1
TABLEFORMAT_BEGIN
 90
        5
170
     1
 91
        0
 92
        0
 62
   257
 93
        1
300
CONTENTFORMAT
  1
CONTENTFORMAT_BEGIN
 90
        0
 91
        0
 92
      512
 93
        0
300

 40
0.0
140
1.0
 94
        5
 62
     0
340
11
144
0.18
309
CONTENTFORMAT_END
171
     0
 94
        6
 95
        1
302
GRIDFORMAT
  1
GRIDFORMAT_BEGIN
 90
        0
 91
        1
 62
     0
 92
       -2
340
0
 93
        0
 40
0.045
309
GRIDFORMAT_END
 95
        2
302
GRIDFORMAT
  1
GRIDFORMAT_BEGIN
 90
        0
 91
        1
 62
     0
 92
       -2
340
0
 93
        0
 40
0.045
309
GRIDFORMAT_END
 95
        4
302
GRIDFORMAT
  1
GRIDFORMAT_BEGIN
 90
        0
 91
        1
 62
     0
 92
       -2
340
0
 93
        0
 40
0.045
309
GRIDFORMAT_END
 95
        8
302
GRIDFORMAT
  1
GRIDFORMAT_BEGIN
 90
        0
 91
        1
 62
     0
 92
       -2
340
0
 93
        0
 40
0.045
309
GRIDFORMAT_END
 95
       16
302
GRIDFORMAT
  1
GRIDFORMAT_BEGIN
 90
        0
 91
        1
 62
     0
 92
       -2
340
0
 93
        0
 40
0.045
309
GRIDFORMAT_END
 95
       32
302
GRIDFORMAT
  1
GRIDFORMAT_BEGIN
 90
        0
 91
        1
 62
     0
 92
       -2
340
0
 93
        0
 40
0.045
309
GRIDFORMAT_END
309
TABLEFORMAT_END
  1
CELLSTYLE_BEGIN
 90
        2
 91
        1
300
_HEADER
309
CELLSTYLE_END
300
CELLSTYLE
  1
TABLEFORMAT_BEGIN
 90
        5
170
     1
 91
        0
 92
        0
 62
   257
 93
        1
300
CONTENTFORMAT
  1
CONTENTFORMAT_BEGIN
 90
        0
 91
        0
 92
      512
 93
        0
300

 40
0.0
140
1.0
 94
        2
 62
     0
340
11
144
0.18
309
CONTENTFORMAT_END
171
     0
 94
        6
 95
        1
302
GRIDFORMAT
  1
GRIDFORMAT_BEGIN
 90
        0
 91
        1
 62
     0
 92
       -2
340
0
 93
        0
 40
0.045
309
GRIDFORMAT_END
 95
        2
302
GRIDFORMAT
  1
GRIDFORMAT_BEGIN
 90
        0
 91
        1
 62
     0
 92
       -2
340
0
 93
        0
 40
0.045
309
GRIDFORMAT_END
 95
        4
302
GRIDFORMAT
  1
GRIDFORMAT_BEGIN
 90
        0
 91
        1
 62
     0
 92
       -2
340
0
 93
        0
 40
0.045
309
GRIDFORMAT_END
 95
        8
302
GRIDFORMAT
  1
GRIDFORMAT_BEGIN
 90
        0
 91
        1
 62
     0
 92
       -2
340
0
 93
        0
 40
0.045
309
GRIDFORMAT_END
 95
       16
302
GRIDFORMAT
  1
GRIDFORMAT_BEGIN
 90
        0
 91
        1
 62
     0
 92
       -2
340
0
 93
        0
 40
0.045
309
GRIDFORMAT_END
 95
       32
302
GRIDFORMAT
  1
GRIDFORMAT_BEGIN
 90
        0
 91
        1
 62
     0
 92
       -2
340
0
 93
        0
 40
0.045
309
GRIDFORMAT_END
309
TABLEFORMAT_END
  1
CELLSTYLE_BEGIN
 90
        3
 91
        2
300
_DATA
309
CELLSTYLE_END
  0
ENDSEC
  0
EOF
