  0
SECTION
  2
HEADER
  9
$ACADVER
  1
AC1027
  9
$ACADMAINTVER
 70
     8
  9
$DWGCODEPAGE
  3
ANSI_932
  9
$REQUIREDVERSIONS
160
                 0
  9
$LASTSAVEDBY
  1
Yasu
  9
$INSBASE
 10
0.0
 20
0.0
 30
0.0
  9
$EXTMIN
 10
3.582973034960673
 20
26.04695490620344
 30
0.0
  9
$EXTMAX
 10
271.2698697807768
 20
219.3086054363493
 30
0.0
  9
$LIMMIN
 10
0.0
 20
0.0
  9
$LIMMAX
 10
420.0
 20
297.0
  9
$ORTHOMODE
 70
     0
  9
$REGENMODE
 70
     1
  9
$FILLMODE
 70
     1
  9
$QTEXTMODE
 70
     0
  9
$MIRRTEXT
 70
     0
  9
$LTSCALE
 40
0.2
  9
$ATTMODE
 70
     1
  9
$TEXTSIZE
 40
3.0
  9
$TRACEWID
 40
1.0
  9
$TEXTSTYLE
  7
Standard
  9
$CLAYER
  8
文字
  9
$CELTYPE
  6
ByLayer
  9
$CECOLOR
 62
   256
  9
$CELTSCALE
 40
1.0
  9
$DISPSILH
 70
     0
  9
$DIMSCALE
 40
1.0
  9
$DIMASZ
 40
2.5
  9
$DIMEXO
 40
0.625
  9
$DIMDLI
 40
3.75
  9
$DIMRND
 40
0.0
  9
$DIMDLE
 40
0.0
  9
$DIMEXE
 40
1.25
  9
$DIMTP
 40
0.0
  9
$DIMTM
 40
0.0
  9
$DIMTXT
 40
2.5
  9
$DIMCEN
 40
2.5
  9
$DIMTSZ
 40
0.0
  9
$DIMTOL
 70
     0
  9
$DIMLIM
 70
     0
  9
$DIMTIH
 70
     0
  9
$DIMTOH
 70
     0
  9
$DIMSE1
 70
     0
  9
$DIMSE2
 70
     0
  9
$DIMTAD
 70
     1
  9
$DIMZIN
 70
     8
  9
$DIMBLK
  1

  9
$DIMASO
 70
     1
  9
$DIMSHO
 70
     1
  9
$DIMPOST
  1

  9
$DIMAPOST
  1

  9
$DIMALT
 70
     0
  9
$DIMALTD
 70
     3
  9
$DIMALTF
 40
0.03937007874016
  9
$DIMLFAC
 40
1.0
  9
$DIMTOFL
 70
     1
  9
$DIMTVP
 40
0.0
  9
$DIMTIX
 70
     0
  9
$DIMSOXD
 70
     0
  9
$DIMSAH
 70
     0
  9
$DIMBLK1
  1

  9
$DIMBLK2
  1

  9
$DIMSTYLE
  2
ISO-25
  9
$DIMCLRD
 70
     0
  9
$DIMCLRE
 70
     0
  9
$DIMCLRT
 70
     0
  9
$DIMTFAC
 40
1.0
  9
$DIMGAP
 40
0.625
  9
$DIMJUST
 70
     0
  9
$DIMSD1
 70
     0
  9
$DIMSD2
 70
     0
  9
$DIMTOLJ
 70
     0
  9
$DIMTZIN
 70
     8
  9
$DIMALTZ
 70
     0
  9
$DIMALTTZ
 70
     0
  9
$DIMUPT
 70
     0
  9
$DIMDEC
 70
     2
  9
$DIMTDEC
 70
     2
  9
$DIMALTU
 70
     2
  9
$DIMALTTD
 70
     3
  9
$DIMTXSTY
  7
Standard
  9
$DIMAUNIT
 70
     0
  9
$DIMADEC
 70
     0
  9
$DIMALTRND
 40
0.0
  9
$DIMAZIN
 70
     0
  9
$DIMDSEP
 70
    46
  9
$DIMATFIT
 70
     3
  9
$DIMFRAC
 70
     0
  9
$DIMLDRBLK
  1

  9
$DIMLUNIT
 70
     2
  9
$DIMLWD
 70
    -2
  9
$DIMLWE
 70
    -2
  9
$DIMTMOVE
 70
     0
  9
$DIMFXL
 40
1.0
  9
$DIMFXLON
 70
     0
  9
$DIMJOGANG
 40
0.7853981633974483
  9
$DIMTFILL
 70
     0
  9
$DIMTFILLCLR
 70
     0
  9
$DIMARCSYM
 70
     0
  9
$DIMLTYPE
  6

  9
$DIMLTEX1
  6

  9
$DIMLTEX2
  6

  9
$DIMTXTDIRECTION
 70
     0
  9
$LUNITS
 70
     2
  9
$LUPREC
 70
     4
  9
$SKETCHINC
 40
1.0
  9
$FILLETRAD
 40
3.0
  9
$AUNITS
 70
     0
  9
$AUPREC
 70
     0
  9
$MENU
  1
.
  9
$ELEVATION
 40
0.0
  9
$PELEVATION
 40
0.0
  9
$THICKNESS
 40
0.0
  9
$LIMCHECK
 70
     0
  9
$CHAMFERA
 40
2.0
  9
$CHAMFERB
 40
2.0
  9
$CHAMFERC
 40
0.0
  9
$CHAMFERD
 40
0.0
  9
$SKPOLY
 70
     0
  9
$TDCREATE
 40
2452936.788310359
  9
$TDUCREATE
 40
2452936.413310359
  9
$TDUPDATE
 40
2456721.864496539
  9
$TDUUPDATE
 40
2456721.489496539
  9
$TDINDWG
 40
0.578361331
  9
$TDUSRTIMER
 40
2456721.489309248
  9
$USRTIMER
 70
     1
  9
$ANGBASE
 50
0.0
  9
$ANGDIR
 70
     0
  9
$PDMODE
 70
     0
  9
$PDSIZE
 40
0.0
  9
$PLINEWID
 40
0.0
  9
$SPLFRAME
 70
     0
  9
$SPLINETYPE
 70
     6
  9
$SPLINESEGS
 70
     8
  9
$HANDSEED
  5
10A4
  9
$SURFTAB1
 70
     6
  9
$SURFTAB2
 70
     6
  9
$SURFTYPE
 70
     6
  9
$SURFU
 70
     6
  9
$SURFV
 70
     6
  9
$UCSBASE
  2

  9
$UCSNAME
  2

  9
$UCSORG
 10
0.0
 20
0.0
 30
0.0
  9
$UCSXDIR
 10
1.0
 20
0.0
 30
0.0
  9
$UCSYDIR
 10
0.0
 20
1.0
 30
0.0
  9
$UCSORTHOREF
  2

  9
$UCSORTHOVIEW
 70
     0
  9
$UCSORGTOP
 10
0.0
 20
0.0
 30
0.0
  9
$UCSORGBOTTOM
 10
0.0
 20
0.0
 30
0.0
  9
$UCSORGLEFT
 10
0.0
 20
0.0
 30
0.0
  9
$UCSORGRIGHT
 10
0.0
 20
0.0
 30
0.0
  9
$UCSORGFRONT
 10
0.0
 20
0.0
 30
0.0
  9
$UCSORGBACK
 10
0.0
 20
0.0
 30
0.0
  9
$PUCSBASE
  2

  9
$PUCSNAME
  2

  9
$PUCSORG
 10
0.0
 20
0.0
 30
0.0
  9
$PUCSXDIR
 10
1.0
 20
0.0
 30
0.0
  9
$PUCSYDIR
 10
0.0
 20
1.0
 30
0.0
  9
$PUCSORTHOREF
  2

  9
$PUCSORTHOVIEW
 70
     0
  9
$PUCSORGTOP
 10
0.0
 20
0.0
 30
0.0
  9
$PUCSORGBOTTOM
 10
0.0
 20
0.0
 30
0.0
  9
$PUCSORGLEFT
 10
0.0
 20
0.0
 30
0.0
  9
$PUCSORGRIGHT
 10
0.0
 20
0.0
 30
0.0
  9
$PUCSORGFRONT
 10
0.0
 20
0.0
 30
0.0
  9
$PUCSORGBACK
 10
0.0
 20
0.0
 30
0.0
  9
$USERI1
 70
     0
  9
$USERI2
 70
     0
  9
$USERI3
 70
     0
  9
$USERI4
 70
     0
  9
$USERI5
 70
     0
  9
$USERR1
 40
0.0
  9
$USERR2
 40
0.0
  9
$USERR3
 40
0.0
  9
$USERR4
 40
0.0
  9
$USERR5
 40
0.0
  9
$WORLDVIEW
 70
     1
  9
$SHADEDGE
 70
     3
  9
$SHADEDIF
 70
    70
  9
$TILEMODE
 70
     1
  9
$MAXACTVP
 70
    64
  9
$PINSBASE
 10
0.0
 20
0.0
 30
0.0
  9
$PLIMCHECK
 70
     0
  9
$PEXTMIN
 10
1.000000000000000E+20
 20
1.000000000000000E+20
 30
1.000000000000000E+20
  9
$PEXTMAX
 10
-1.000000000000000E+20
 20
-1.000000000000000E+20
 30
-1.000000000000000E+20
  9
$PLIMMIN
 10
0.0
 20
0.0
  9
$PLIMMAX
 10
0.0
 20
0.0
  9
$UNITMODE
 70
     0
  9
$VISRETAIN
 70
     1
  9
$PLINEGEN
 70
     0
  9
$PSLTSCALE
 70
     0
  9
$TREEDEPTH
 70
  3020
  9
$CMLSTYLE
  2
Standard
  9
$CMLJUST
 70
     0
  9
$CMLSCALE
 40
20.0
  9
$PROXYGRAPHICS
 70
     1
  9
$MEASUREMENT
 70
     1
  9
$CELWEIGHT
370
    -1
  9
$ENDCAPS
280
     0
  9
$JOINSTYLE
280
     0
  9
$LWDISPLAY
290
     0
  9
$INSUNITS
 70
     4
  9
$HYPERLINKBASE
  1

  9
$STYLESHEET
  1

  9
$XEDIT
290
     1
  9
$CEPSNTYPE
380
     0
  9
$PSTYLEMODE
290
     1
  9
$FINGERPRINTGUID
  2
{86E58535-AB5B-4AFE-AB1B-6758AAB7EA7D}
  9
$VERSIONGUID
  2
{FD071929-B92D-426C-9FD3-0650385CAD47}
  9
$EXTNAMES
290
     1
  9
$PSVPSCALE
 40
0.0
  9
$OLESTARTUP
290
     0
  9
$SORTENTS
280
   127
  9
$INDEXCTL
280
     0
  9
$HIDETEXT
280
     1
  9
$XCLIPFRAME
280
     0
  9
$HALOGAP
280
     0
  9
$OBSCOLOR
 70
   257
  9
$OBSLTYPE
280
     0
  9
$INTERSECTIONDISPLAY
280
     0
  9
$INTERSECTIONCOLOR
 70
   257
  9
$DIMASSOC
280
     2
  9
$PROJECTNAME
  1

  9
$CAMERADISPLAY
290
     0
  9
$LENSLENGTH
 40
50.0
  9
$CAMERAHEIGHT
 40
0.0
  9
$STEPSPERSEC
 40
2.0
  9
$STEPSIZE
 40
6.0
  9
$3DDWFPREC
 40
2.0
  9
$PSOLWIDTH
 40
0.25
  9
$PSOLHEIGHT
 40
4.0
  9
$LOFTANG1
 40
1.570796326794897
  9
$LOFTANG2
 40
1.570796326794897
  9
$LOFTMAG1
 40
0.0
  9
$LOFTMAG2
 40
0.0
  9
$LOFTPARAM
 70
     7
  9
$LOFTNORMALS
280
     1
  9
$LATITUDE
 40
37.795
  9
$LONGITUDE
 40
-122.394
  9
$NORTHDIRECTION
 40
0.0
  9
$TIMEZONE
 70
 -8000
  9
$LIGHTGLYPHDISPLAY
280
     1
  9
$TILEMODELIGHTSYNCH
280
     1
  9
$SOLIDHIST
280
     1
  9
$SHOWHIST
280
     1
  9
$DWFFRAME
280
     2
  9
$DGNFRAME
280
     2
  9
$REALWORLDSCALE
290
     1
  9
$INTERFERECOLOR
 62
   256
  9
$CSHADOW
280
     0
  9
$SHADOWPLANELOCATION
 40
0.0
  0
ENDSEC
  0
SECTION
  2
CLASSES
  0
CLASS
  1
ACDBDICTIONARYWDFLT
  2
AcDbDictionaryWithDefault
  3
ObjectDBX Classes
 90
        0
 91
        5
280
     0
281
     0
  0
CLASS
  1
DIMASSOC
  2
AcDbDimAssoc
  3
"AcDbDimAssoc|Product Desc:     AcDim ARX App For Dimension|Company:          Autodesk, Inc.|WEB Address:      www.autodesk.com"
 90
        0
 91
        4
280
     0
281
     0
  0
CLASS
  1
VISUALSTYLE
  2
AcDbVisualStyle
  3
ObjectDBX Classes
 90
     4095
 91
        5
280
     0
281
     0
  0
CLASS
  1
SCALE
  2
AcDbScale
  3
ObjectDBX Classes
 90
     1153
 91
        5
280
     0
281
     0
  0
CLASS
  1
MATERIAL
  2
AcDbMaterial
  3
ObjectDBX Classes
 90
     1153
 91
        5
280
     0
281
     0
  0
CLASS
  1
TABLESTYLE
  2
AcDbTableStyle
  3
ObjectDBX Classes
 90
     4095
 91
        5
280
     0
281
     0
  0
CLASS
  1
SUN
  2
AcDbSun
  3
SCENEOE
 90
     1153
 91
        5
280
     0
281
     0
  0
CLASS
  1
RASTERVARIABLES
  2
AcDbRasterVariables
  3
ISM
 90
        0
 91
        5
280
     0
281
     0
  0
CLASS
  1
DICTIONARYVAR
  2
AcDbDictionaryVar
  3
ObjectDBX Classes
 90
        0
 91
        4
280
     0
281
     0
  0
CLASS
  1
CELLSTYLEMAP
  2
AcDbCellStyleMap
  3
ObjectDBX Classes
 90
     1152
 91
        4
280
     0
281
     0
  0
ENDSEC
  0
SECTION
  2
TABLES
  0
TABLE
  2
VPORT
  5
8
330
0
100
AcDbSymbolTable
 70
     1
  0
VPORT
  5
1023
330
8
100
AcDbSymbolTableRecord
100
AcDbViewportTableRecord
  2
*Active
 70
     0
 10
0.0
 20
0.0
 11
1.0
 21
1.0
 12
137.4264214078687
 22
122.6777801712764
 13
0.0
 23
0.0
 14
10.0
 24
10.0
 15
10.0
 25
10.0
 16
0.0
 26
0.0
 36
1.0
 17
0.0
 27
0.0
 37
0.0
 40
197.1268835407488
 41
1.762376237623762
 42
50.0
 43
0.0
 44
0.0
 50
0.0
 51
0.0
 71
    16
 72
  1000
 73
     1
 74
     3
 75
     0
 76
     0
 77
     0
 78
     0
281
     0
 65
     1
110
0.0
120
0.0
130
0.0
111
1.0
121
0.0
131
0.0
112
0.0
122
1.0
132
0.0
 79
     0
146
0.0
348
1029
 60
     3
 61
     5
292
     1
282
     1
141
0.0
142
0.0
 63
   256
361
1065
  0
ENDTAB
  0
TABLE
  2
LTYPE
  5
5
330
0
100
AcDbSymbolTable
 70
     6
  0
LTYPE
  5
14
330
5
100
AcDbSymbolTableRecord
100
AcDbLinetypeTableRecord
  2
ByBlock
 70
     0
  3

 72
    65
 73
     0
 40
0.0
  0
LTYPE
  5
15
330
5
100
AcDbSymbolTableRecord
100
AcDbLinetypeTableRecord
  2
ByLayer
 70
     0
  3

 72
    65
 73
     0
 40
0.0
  0
LTYPE
  5
16
330
5
100
AcDbSymbolTableRecord
100
AcDbLinetypeTableRecord
  2
Continuous
 70
     0
  3
Solid line
 72
    65
 73
     0
 40
0.0
  0
LTYPE
  5
35
330
5
100
AcDbSymbolTableRecord
100
AcDbLinetypeTableRecord
  2
ACAD_ISO08W100
 70
     0
  3
ISO long-dash short-dash ____ __ ____ __ ____ _
 72
    65
 73
     4
 40
36.0
 49
24.0
 74
     0
 49
-3.0
 74
     0
 49
6.0
 74
     0
 49
-3.0
 74
     0
  0
LTYPE
  5
127
330
5
100
AcDbSymbolTableRecord
100
AcDbLinetypeTableRecord
  2
HIDDENX2
 70
     0
  3
Hidden (2x) ____ ____ ____ ____ ____ ____ ____
 72
    65
 73
     2
 40
19.05
 49
12.7
 74
     0
 49
-6.35
 74
     0
  0
LTYPE
  5
5EC
330
5
100
AcDbSymbolTableRecord
100
AcDbLinetypeTableRecord
  2
CENTER
 70
     0
  3
Center ____ _ ____ _ ____ _ ____ _ ____ _ ____
 72
    65
 73
     4
 40
50.8
 49
31.75
 74
     0
 49
-6.35
 74
     0
 49
6.35
 74
     0
 49
-6.35
 74
     0
  0
LTYPE
  5
5ED
330
5
100
AcDbSymbolTableRecord
100
AcDbLinetypeTableRecord
  2
ACAD_ISO02W100
 70
     0
  3
ISO dash __ __ __ __ __ __ __ __ __ __ __ __ __
 72
    65
 73
     2
 40
15.0
 49
12.0
 74
     0
 49
-3.0
 74
     0
  0
LTYPE
  5
605
330
5
100
AcDbSymbolTableRecord
100
AcDbLinetypeTableRecord
  2
DASHED
 70
     0
  3
Dashed __ __ __ __ __ __ __ __ __ __ __ __ __ _
 72
    65
 73
     2
 40
19.05
 49
12.7
 74
     0
 49
-6.35
 74
     0
  0
ENDTAB
  0
TABLE
  2
LAYER
  5
2
330
0
100
AcDbSymbolTable
 70
    11
  0
LAYER
  5
10
330
2
100
AcDbSymbolTableRecord
100
AcDbLayerTableRecord
  2
0
 70
     0
 62
     7
  6
Continuous
370
    -3
390
F
347
1061
348
0
  0
LAYER
  5
2E
330
2
100
AcDbSymbolTableRecord
100
AcDbLayerTableRecord
  2
枠
 70
     0
 62
     1
  6
Continuous
370
    30
390
F
347
1061
348
0
  0
LAYER
  5
2F
330
2
100
AcDbSymbolTableRecord
100
AcDbLayerTableRecord
  2
文字
 70
     0
 62
     7
  6
Continuous
370
    30
390
F
347
1061
348
0
  0
LAYER
  5
36
330
2
100
AcDbSymbolTableRecord
100
AcDbLayerTableRecord
  2
中心線
 70
     0
 62
     7
  6
CENTER
370
    30
390
F
347
1061
348
0
  0
LAYER
  5
52
330
2
100
AcDbSymbolTableRecord
100
AcDbLayerTableRecord
  2
隠れ線
 70
     0
 62
     2
  6
Continuous
290
     0
370
    -3
390
F
347
1061
348
0
  0
LAYER
  5
128
330
2
100
AcDbSymbolTableRecord
100
AcDbLayerTableRecord
  2
実線
 70
     0
 62
     7
  6
Continuous
370
    50
390
F
347
1061
348
0
  0
LAYER
  5
129
330
2
100
AcDbSymbolTableRecord
100
AcDbLayerTableRecord
  2
破線
 70
     0
 62
     7
  6
DASHED
370
    20
390
F
347
1061
348
0
  0
LAYER
  5
693
330
2
100
AcDbSymbolTableRecord
100
AcDbLayerTableRecord
  2
Defpoints
 70
     0
 62
     7
  6
Continuous
290
     0
370
    -3
390
F
347
1061
348
0
  0
LAYER
  5
A25
330
2
100
AcDbSymbolTableRecord
100
AcDbLayerTableRecord
  2
center
 70
     0
 62
     7
  6
ACAD_ISO08W100
370
    -3
390
F
347
1061
348
0
  0
LAYER
  5
A26
330
2
100
AcDbSymbolTableRecord
100
AcDbLayerTableRecord
  2
1
 70
     0
 62
   140
  6
Continuous
370
    25
390
F
347
1061
348
0
  0
LAYER
  5
1079
330
2
100
AcDbSymbolTableRecord
100
AcDbLayerTableRecord
  2
文字・寸法線
 70
     0
 62
     7
  6
Continuous
370
    13
390
F
347
1061
348
0
  0
ENDTAB
  0
TABLE
  2
STYLE
  5
3
330
0
100
AcDbSymbolTable
 70
     2
  0
STYLE
  5
11
330
3
100
AcDbSymbolTableRecord
100
AcDbTextStyleTableRecord
  2
Standard
 70
     0
 40
0.0
 41
1.0
 50
0.0
 71
     0
 42
3.0
  3
txt.shx
  4
bigfont.shx
  0
STYLE
  5
34
330
3
100
AcDbSymbolTableRecord
100
AcDbTextStyleTableRecord
  2

 70
     1
 40
0.0
 41
1.0
 50
0.0
 71
     0
 42
2.5
  3
ltypeshp.shx
  4

  0
ENDTAB
  0
TABLE
  2
VIEW
  5
6
330
0
100
AcDbSymbolTable
 70
     0
  0
ENDTAB
  0
TABLE
  2
UCS
  5
7
330
0
100
AcDbSymbolTable
 70
     0
  0
ENDTAB
  0
TABLE
  2
APPID
  5
9
330
0
100
AcDbSymbolTable
 70
     1
  0
APPID
  5
12
330
9
100
AcDbSymbolTableRecord
100
AcDbRegAppTableRecord
  2
ACAD
 70
     0
  0
ENDTAB
  0
TABLE
  2
DIMSTYLE
  5
A
330
0
100
AcDbSymbolTable
 70
     1
100
AcDbDimStyleTable
  0
DIMSTYLE
105
29
102
{ACAD_REACTORS
330
D36
330
D52
330
D6A
330
D82
330
D9A
330
E35
330
EAA
330
F33
330
F4B
330
F88
330
FF1
102
}
330
A
100
AcDbSymbolTableRecord
100
AcDbDimStyleTableRecord
  2
ISO-25
 70
     0
 41
2.5
 42
0.625
 43
3.75
 44
1.25
 73
     0
 74
     0
 77
     1
 78
     8
140
2.5
141
2.5
143
0.03937007874016
147
0.625
171
     3
172
     1
178
     0
271
     2
272
     2
274
     3
283
     0
284
     8
340
11
  0
ENDTAB
  0
TABLE
  2
BLOCK_RECORD
  5
1
330
0
100
AcDbSymbolTable
 70
    11
  0
BLOCK_RECORD
  5
21
330
1
100
AcDbSymbolTableRecord
100
AcDbBlockTableRecord
  2
*Model_Space
340
24
 70
     0
280
     1
281
     0
  0
BLOCK_RECORD
  5
1067
330
1
100
AcDbSymbolTableRecord
100
AcDbBlockTableRecord
  2
*Paper_Space
340
1068
 70
     0
280
     1
281
     0
  0
BLOCK_RECORD
  5
D37
330
1
100
AcDbSymbolTableRecord
100
AcDbBlockTableRecord
  2
*D0
340
0
 70
     0
280
     1
281
     0
  0
BLOCK_RECORD
  5
D53
330
1
100
AcDbSymbolTableRecord
100
AcDbBlockTableRecord
  2
*D1
340
0
 70
     0
280
     1
281
     0
  0
BLOCK_RECORD
  5
D6B
330
1
100
AcDbSymbolTableRecord
100
AcDbBlockTableRecord
  2
*D2
340
0
 70
     0
280
     1
281
     0
  0
BLOCK_RECORD
  5
D83
330
1
100
AcDbSymbolTableRecord
100
AcDbBlockTableRecord
  2
*D3
340
0
 70
     0
280
     1
281
     0
  0
BLOCK_RECORD
  5
D9B
330
1
100
AcDbSymbolTableRecord
100
AcDbBlockTableRecord
  2
*D4
340
0
 70
     0
280
     1
281
     0
  0
BLOCK_RECORD
  5
E36
330
1
100
AcDbSymbolTableRecord
100
AcDbBlockTableRecord
  2
*D5
340
0
 70
     0
280
     1
281
     0
  0
BLOCK_RECORD
  5
EDF
330
1
100
AcDbSymbolTableRecord
100
AcDbBlockTableRecord
  2
*D6
340
0
 70
     0
280
     1
281
     0
  0
BLOCK_RECORD
  5
F34
330
1
100
AcDbSymbolTableRecord
100
AcDbBlockTableRecord
  2
*D7
340
0
 70
     0
280
     1
281
     0
  0
BLOCK_RECORD
  5
F4C
330
1
100
AcDbSymbolTableRecord
100
AcDbBlockTableRecord
  2
*D8
340
0
 70
     0
280
     1
281
     0
  0
BLOCK_RECORD
  5
F89
330
1
100
AcDbSymbolTableRecord
100
AcDbBlockTableRecord
  2
*D9
340
0
 70
     0
280
     1
281
     0
  0
BLOCK_RECORD
  5
FF2
330
1
100
AcDbSymbolTableRecord
100
AcDbBlockTableRecord
  2
*D10
340
0
 70
     0
280
     1
281
     0
  0
ENDTAB
  0
ENDSEC
  0
SECTION
  2
BLOCKS
  0
BLOCK
  5
22
330
21
100
AcDbEntity
  8
0
100
AcDbBlockBegin
  2
*Model_Space
 70
     0
 10
0.0
 20
0.0
 30
0.0
  3
*Model_Space
  1
*Model_Space
  0
ENDBLK
  5
23
330
21
100
AcDbEntity
  8
0
100
AcDbBlockEnd
  0
BLOCK
  5
1069
330
1067
100
AcDbEntity
 67
     1
  8
0
100
AcDbBlockBegin
  2
*Paper_Space
 70
     0
 10
0.0
 20
0.0
 30
0.0
  3
*Paper_Space
  1
*Paper_Space
  0
ENDBLK
  5
106A
330
1067
100
AcDbEntity
 67
     1
  8
0
100
AcDbBlockEnd
  0
BLOCK
  5
D43
330
D37
100
AcDbEntity
  8
0
100
AcDbBlockBegin
  2
*D0
 70
     1
 10
0.0
 20
0.0
 30
0.0
  3
*D0
  1
*D33
  0
LINE
  5
FDC
330
D37
100
AcDbEntity
  8
文字
 62
     0
370
    -2
100
AcDbLine
 10
34.6708824095644
 20
32.63454429584722
 30
0.0
 11
21.89252839672549
 21
32.63454429584722
 31
0.0
  0
LINE
  5
FDD
330
D37
100
AcDbEntity
  8
文字
 62
     0
370
    -2
100
AcDbLine
 10
34.6708824095644
 20
34.63454429584722
 30
0.0
 11
21.89252839672549
 21
34.63454429584722
 31
0.0
  0
LINE
  5
FDE
330
D37
100
AcDbEntity
  8
文字
 62
     0
370
    -2
100
AcDbLine
 10
23.14252839672549
 20
30.13454429584722
 30
0.0
 11
23.14252839672549
 21
27.63454429584722
 31
0.0
  0
LINE
  5
FDF
330
D37
100
AcDbEntity
  8
文字
 62
     0
370
    -2
100
AcDbLine
 10
23.14252839672549
 20
37.13454429584722
 30
0.0
 11
23.1425283967255
 21
42.55121096251388
 31
0.0
  0
LINE
  5
FE0
330
D37
100
AcDbEntity
  8
文字
 62
     0
370
    -2
100
AcDbLine
 10
23.14252839672549
 20
32.63454429584722
 30
0.0
 11
23.14252839672549
 21
34.63454429584722
 31
0.0
  0
SOLID
  5
FE1
330
D37
100
AcDbEntity
  8
文字
 62
     0
370
    20
100
AcDbTrace
 10
22.72586173005882
 20
30.13454429584722
 30
0.0
 11
23.55919506339216
 21
30.13454429584722
 31
0.0
 12
23.14252839672549
 22
32.63454429584722
 32
0.0
 13
23.14252839672549
 23
32.63454429584722
 33
0.0
  0
SOLID
  5
FE2
330
D37
100
AcDbEntity
  8
文字
 62
     0
370
    20
100
AcDbTrace
 10
22.72586173005882
 20
37.13454429584722
 30
0.0
 11
23.55919506339216
 21
37.13454429584722
 31
0.0
 12
23.14252839672549
 22
34.63454429584722
 32
0.0
 13
23.14252839672549
 23
34.63454429584722
 33
0.0
  0
MTEXT
  5
FE3
330
D37
100
AcDbEntity
  8
文字
 62
     0
100
AcDbMText
 10
21.26752839672549
 20
41.09287762918056
 30
0.0
 40
2.5
 41
0.0
 46
0.0
 71
     5
 72
     1
  1
2
 11
6.123031769111886E-17
 21
1.0
 31
0.0
 73
     1
 44
1.0
  0
POINT
  5
FE4
330
D37
100
AcDbEntity
  8
Defpoints
 62
     0
370
    20
100
AcDbPoint
 10
35.2958824095644
 20
32.63454429584722
 30
0.0
  0
POINT
  5
FE5
330
D37
100
AcDbEntity
  8
Defpoints
 62
     0
370
    20
100
AcDbPoint
 10
35.2958824095644
 20
34.63454429584722
 30
0.0
  0
POINT
  5
FE6
330
D37
100
AcDbEntity
  8
Defpoints
 62
     0
370
    20
100
AcDbPoint
 10
23.14252839672549
 20
34.63454429584722
 30
0.0
  0
ENDBLK
  5
D44
330
D37
100
AcDbEntity
  8
0
100
AcDbBlockEnd
  0
BLOCK
  5
D5D
330
D53
100
AcDbEntity
  8
0
100
AcDbBlockBegin
  2
*D1
 70
     1
 10
0.0
 20
0.0
 30
0.0
  3
*D1
  1
*D34
  0
LINE
  5
D60
330
D53
100
AcDbEntity
  8
文字
 62
     0
370
    -2
100
AcDbLine
 10
188.1541857058335
 20
122.0650557072036
 30
0.0
 11
188.1541857058335
 21
158.4441658211289
 31
0.0
  0
LINE
  5
D61
330
D53
100
AcDbEntity
  8
文字
 62
     0
370
    -2
100
AcDbLine
 10
207.154768231645
 20
147.0650557072036
 30
0.0
 11
207.154768231645
 21
158.4441658211289
 31
0.0
  0
LINE
  5
D62
330
D53
100
AcDbEntity
  8
文字
 62
     0
370
    -2
100
AcDbLine
 10
190.6541857058335
 20
157.1941658211289
 30
0.0
 11
204.654768231645
 21
157.1941658211289
 31
0.0
  0
SOLID
  5
D63
330
D53
100
AcDbEntity
  8
文字
 62
     0
100
AcDbTrace
 10
190.6541857058335
 20
157.6108324877955
 30
0.0
 11
190.6541857058335
 21
156.7774991544622
 31
0.0
 12
188.1541857058335
 22
157.1941658211289
 32
0.0
 13
188.1541857058335
 23
157.1941658211289
 33
0.0
  0
SOLID
  5
D64
330
D53
100
AcDbEntity
  8
文字
 62
     0
100
AcDbTrace
 10
204.654768231645
 20
157.6108324877955
 30
0.0
 11
204.654768231645
 21
156.7774991544622
 31
0.0
 12
207.154768231645
 22
157.1941658211289
 32
0.0
 13
207.154768231645
 23
157.1941658211289
 33
0.0
  0
MTEXT
  5
D65
330
D53
100
AcDbEntity
  8
文字
 62
     0
100
AcDbMText
 10
197.6544769687393
 20
159.0691658211289
 30
0.0
 40
2.5
 41
0.0
 46
0.0
 71
     5
 72
     1
  1
19
 73
     1
 44
1.0
  0
POINT
  5
D66
330
D53
100
AcDbEntity
  8
Defpoints
 62
     0
100
AcDbPoint
 10
188.1541857058335
 20
121.4400557072036
 30
0.0
  0
POINT
  5
D67
330
D53
100
AcDbEntity
  8
Defpoints
 62
     0
100
AcDbPoint
 10
207.154768231645
 20
146.4400557072036
 30
0.0
  0
POINT
  5
D68
330
D53
100
AcDbEntity
  8
Defpoints
 62
     0
100
AcDbPoint
 10
207.154768231645
 20
157.1941658211289
 30
0.0
  0
ENDBLK
  5
D5E
330
D53
100
AcDbEntity
  8
0
100
AcDbBlockEnd
  0
BLOCK
  5
D75
330
D6B
100
AcDbEntity
  8
0
100
AcDbBlockBegin
  2
*D2
 70
     1
 10
0.0
 20
0.0
 30
0.0
  3
*D2
  1
*D35
  0
LINE
  5
D78
330
D6B
100
AcDbEntity
  8
文字
 62
     0
370
    -2
100
AcDbLine
 10
206.529768231645
 20
140.4394712991436
 30
0.0
 11
170.7319378953305
 21
140.4394712991437
 31
0.0
  0
LINE
  5
D79
330
D6B
100
AcDbEntity
  8
文字
 62
     0
370
    -2
100
AcDbLine
 10
181.529768231645
 20
121.4400557072036
 30
0.0
 11
170.7319378953305
 21
121.4400557072036
 31
0.0
  0
LINE
  5
D7A
330
D6B
100
AcDbEntity
  8
文字
 62
     0
370
    -2
100
AcDbLine
 10
171.9819378953305
 20
137.9394712991437
 30
0.0
 11
171.9819378953305
 21
123.9400557072036
 31
0.0
  0
SOLID
  5
D7B
330
D6B
100
AcDbEntity
  8
文字
 62
     0
100
AcDbTrace
 10
171.5652712286638
 20
137.9394712991437
 30
0.0
 11
172.3986045619971
 21
137.9394712991437
 31
0.0
 12
171.9819378953305
 22
140.4394712991437
 32
0.0
 13
171.9819378953305
 23
140.4394712991437
 33
0.0
  0
SOLID
  5
D7C
330
D6B
100
AcDbEntity
  8
文字
 62
     0
100
AcDbTrace
 10
171.5652712286638
 20
123.9400557072036
 30
0.0
 11
172.3986045619971
 21
123.9400557072036
 31
0.0
 12
171.9819378953305
 22
121.4400557072036
 32
0.0
 13
171.9819378953305
 23
121.4400557072036
 33
0.0
  0
MTEXT
  5
D7D
330
D6B
100
AcDbEntity
  8
文字
 62
     0
100
AcDbMText
 10
170.1069378953304
 20
130.9397635031737
 30
0.0
 40
2.5
 41
0.0
 46
0.0
 71
     5
 72
     1
  1
19
 11
6.123031769111886E-17
 21
1.0
 31
0.0
 73
     1
 44
1.0
  0
POINT
  5
D7E
330
D6B
100
AcDbEntity
  8
Defpoints
 62
     0
100
AcDbPoint
 10
207.154768231645
 20
140.4394712991436
 30
0.0
  0
POINT
  5
D7F
330
D6B
100
AcDbEntity
  8
Defpoints
 62
     0
100
AcDbPoint
 10
182.154768231645
 20
121.4400557072036
 30
0.0
  0
POINT
  5
D80
330
D6B
100
AcDbEntity
  8
Defpoints
 62
     0
100
AcDbPoint
 10
171.9819378953305
 20
121.4400557072036
 30
0.0
  0
ENDBLK
  5
D76
330
D6B
100
AcDbEntity
  8
0
100
AcDbBlockEnd
  0
BLOCK
  5
D8D
330
D83
100
AcDbEntity
  8
0
100
AcDbBlockBegin
  2
*D3
 70
     1
 10
0.0
 20
0.0
 30
0.0
  3
*D3
  1
*D36
  0
LINE
  5
DD3
330
D83
100
AcDbEntity
  8
文字
 62
     0
370
    -2
100
AcDbLine
 10
188.1541857058335
 20
122.0650557072036
 30
0.0
 11
188.1541857058335
 21
171.0391869346947
 31
0.0
  0
LINE
  5
DD4
330
D83
100
AcDbEntity
  8
文字
 62
     0
370
    -2
100
AcDbLine
 10
250.8199663425132
 20
122.0650557072036
 30
0.0
 11
250.8199663425132
 21
171.0391869346947
 31
0.0
  0
LINE
  5
DD5
330
D83
100
AcDbEntity
  8
文字
 62
     0
370
    -2
100
AcDbLine
 10
190.6541857058335
 20
169.7891869346947
 30
0.0
 11
248.3199663425132
 21
169.7891869346947
 31
0.0
  0
SOLID
  5
DD6
330
D83
100
AcDbEntity
  8
文字
 62
     0
100
AcDbTrace
 10
190.6541857058335
 20
170.2058536013614
 30
0.0
 11
190.6541857058335
 21
169.3725202680281
 31
0.0
 12
188.1541857058335
 22
169.7891869346947
 32
0.0
 13
188.1541857058335
 23
169.7891869346947
 33
0.0
  0
SOLID
  5
DD7
330
D83
100
AcDbEntity
  8
文字
 62
     0
100
AcDbTrace
 10
248.3199663425132
 20
170.2058536013614
 30
0.0
 11
248.3199663425132
 21
169.3725202680281
 31
0.0
 12
250.8199663425132
 22
169.7891869346947
 32
0.0
 13
250.8199663425132
 23
169.7891869346947
 33
0.0
  0
MTEXT
  5
DD8
330
D83
100
AcDbEntity
  8
文字
 62
     0
100
AcDbMText
 10
219.4870760241734
 20
171.6641869346947
 30
0.0
 40
2.5
 41
0.0
 46
0.0
 71
     5
 72
     1
  1
63
 73
     1
 44
1.0
  0
POINT
  5
DD9
330
D83
100
AcDbEntity
  8
Defpoints
 62
     0
100
AcDbPoint
 10
188.1541857058335
 20
121.4400557072036
 30
0.0
  0
POINT
  5
DDA
330
D83
100
AcDbEntity
  8
Defpoints
 62
     0
100
AcDbPoint
 10
250.8199663425132
 20
121.4400557072036
 30
0.0
  0
POINT
  5
DDB
330
D83
100
AcDbEntity
  8
Defpoints
 62
     0
100
AcDbPoint
 10
250.8199663425132
 20
169.7891869346947
 30
0.0
  0
ENDBLK
  5
D8E
330
D83
100
AcDbEntity
  8
0
100
AcDbBlockEnd
  0
BLOCK
  5
DA5
330
D9B
100
AcDbEntity
  8
0
100
AcDbBlockBegin
  2
*D4
 70
     1
 10
0.0
 20
0.0
 30
0.0
  3
*D4
  1
*D37
  0
LINE
  5
DCA
330
D9B
100
AcDbEntity
  8
文字
 62
     0
370
    -2
100
AcDbLine
 10
206.529768231645
 20
140.4394712991436
 30
0.0
 11
158.0273913354002
 21
140.4394712991437
 31
0.0
  0
LINE
  5
DCB
330
D9B
100
AcDbEntity
  8
文字
 62
     0
370
    -2
100
AcDbLine
 10
206.529768231645
 20
77.76778214259988
 30
0.0
 11
158.0273913354002
 21
77.7677821425999
 31
0.0
  0
LINE
  5
DCC
330
D9B
100
AcDbEntity
  8
文字
 62
     0
370
    -2
100
AcDbLine
 10
159.2773913354002
 20
137.9394712991437
 30
0.0
 11
159.2773913354002
 21
80.2677821425999
 31
0.0
  0
SOLID
  5
DCD
330
D9B
100
AcDbEntity
  8
文字
 62
     0
100
AcDbTrace
 10
158.8607246687336
 20
137.9394712991437
 30
0.0
 11
159.6940580020669
 21
137.9394712991437
 31
0.0
 12
159.2773913354002
 22
140.4394712991437
 32
0.0
 13
159.2773913354002
 23
140.4394712991437
 33
0.0
  0
SOLID
  5
DCE
330
D9B
100
AcDbEntity
  8
文字
 62
     0
100
AcDbTrace
 10
158.8607246687336
 20
80.2677821425999
 30
0.0
 11
159.6940580020669
 21
80.2677821425999
 31
0.0
 12
159.2773913354002
 22
77.7677821425999
 32
0.0
 13
159.2773913354002
 23
77.7677821425999
 33
0.0
  0
MTEXT
  5
DCF
330
D9B
100
AcDbEntity
  8
文字
 62
     0
100
AcDbMText
 10
157.4023913354002
 20
109.1036267208718
 30
0.0
 40
2.5
 41
0.0
 46
0.0
 71
     5
 72
     1
  1
63
 11
6.123031769111886E-17
 21
1.0
 31
0.0
 73
     1
 44
1.0
  0
POINT
  5
DD0
330
D9B
100
AcDbEntity
  8
Defpoints
 62
     0
100
AcDbPoint
 10
207.154768231645
 20
140.4394712991436
 30
0.0
  0
POINT
  5
DD1
330
D9B
100
AcDbEntity
  8
Defpoints
 62
     0
100
AcDbPoint
 10
207.154768231645
 20
77.76778214259988
 30
0.0
  0
POINT
  5
DD2
330
D9B
100
AcDbEntity
  8
Defpoints
 62
     0
100
AcDbPoint
 10
159.2773913354002
 20
77.7677821425999
 30
0.0
  0
ENDBLK
  5
DA6
330
D9B
100
AcDbEntity
  8
0
100
AcDbBlockEnd
  0
BLOCK
  5
E3C
330
E36
100
AcDbEntity
  8
0
100
AcDbBlockBegin
  2
*D5
 70
     1
 10
0.0
 20
0.0
 30
0.0
  3
*D5
  1
*D41
  0
LINE
  5
E3F
330
E36
100
AcDbEntity
  8
文字
 62
     0
370
    -2
100
AcDbLine
 10
206.3036096434105
 20
95.8731206765694
 30
0.0
 11
200.0678649110368
 21
89.1542468564674
 31
0.0
  0
MTEXT
  5
E40
330
E36
100
AcDbEntity
  8
文字
 62
     0
100
AcDbMText
 10
202.6617510047992
 20
94.70538707360876
 30
0.0
 40
2.5
 41
0.0
 46
0.0
 71
     5
 72
     1
  1
R10
 11
0.6802630617134918
 21
0.7329680531020339
 31
0.0
 73
     1
 44
1.0
  0
SOLID
  5
E41
330
E36
100
AcDbEntity
  8
文字
 62
     0
100
AcDbTrace
 10
199.7624615555776
 20
89.43768979884803
 30
0.0
 11
200.373268266496
 21
88.87080391408676
 31
0.0
 12
198.3672072567531
 22
87.3218267237123
 32
0.0
 13
198.3672072567531
 23
87.3218267237123
 33
0.0
  0
POINT
  5
E42
330
E36
100
AcDbEntity
  8
Defpoints
 62
     0
100
AcDbPoint
 10
198.3672072567531
 20
87.3218267237123
 30
0.0
  0
POINT
  5
E43
330
E36
100
AcDbEntity
  8
Defpoints
 62
     0
100
AcDbPoint
 10
205.1698378738882
 20
94.65150725473286
 30
0.0
  0
ENDBLK
  5
E3D
330
E36
100
AcDbEntity
  8
0
100
AcDbBlockEnd
  0
BLOCK
  5
EE9
330
EDF
100
AcDbEntity
  8
0
100
AcDbBlockBegin
  2
*D6
 70
     1
 10
0.0
 20
0.0
 30
0.0
  3
*D6
  1
*D50
  0
LINE
  5
FE7
330
EDF
100
AcDbEntity
  8
文字
 62
     0
370
    -2
100
AcDbLine
 10
70.36641049212912
 20
162.7284337030929
 30
0.0
 11
70.36641049212912
 21
180.0111329240315
 31
0.0
  0
LINE
  5
FE8
330
EDF
100
AcDbEntity
  8
文字
 62
     0
370
    -2
100
AcDbLine
 10
86.36641049212912
 20
162.7284337030929
 30
0.0
 11
86.36641049212912
 21
180.0111329240315
 31
0.0
  0
LINE
  5
FE9
330
EDF
100
AcDbEntity
  8
文字
 62
     0
370
    -2
100
AcDbLine
 10
72.86641049212912
 20
178.7611329240315
 30
0.0
 11
83.86641049212912
 21
178.7611329240315
 31
0.0
  0
SOLID
  5
FEA
330
EDF
100
AcDbEntity
  8
文字
 62
     0
370
    20
100
AcDbTrace
 10
72.86641049212912
 20
179.1777995906982
 30
0.0
 11
72.86641049212912
 21
178.3444662573648
 31
0.0
 12
70.36641049212912
 22
178.7611329240315
 32
0.0
 13
70.36641049212912
 23
178.7611329240315
 33
0.0
  0
SOLID
  5
FEB
330
EDF
100
AcDbEntity
  8
文字
 62
     0
370
    20
100
AcDbTrace
 10
83.86641049212912
 20
179.1777995906982
 30
0.0
 11
83.86641049212912
 21
178.3444662573648
 31
0.0
 12
86.36641049212912
 22
178.7611329240315
 32
0.0
 13
86.36641049212912
 23
178.7611329240315
 33
0.0
  0
MTEXT
  5
FEC
330
EDF
100
AcDbEntity
  8
文字
 62
     0
100
AcDbMText
 10
78.06351602696856
 20
180.6361329240315
 30
0.0
 40
2.5
 41
0.0
 46
0.0
 71
     5
 72
     1
  1
{\fArial|b0|i0|c0|p32;M}16
 73
     1
 44
1.0
  0
POINT
  5
FED
330
EDF
100
AcDbEntity
  8
Defpoints
 62
     0
370
    20
100
AcDbPoint
 10
70.36641049212912
 20
162.1034337030929
 30
0.0
  0
POINT
  5
FEE
330
EDF
100
AcDbEntity
  8
Defpoints
 62
     0
370
    20
100
AcDbPoint
 10
86.36641049212912
 20
162.1034337030929
 30
0.0
  0
POINT
  5
FEF
330
EDF
100
AcDbEntity
  8
Defpoints
 62
     0
370
    20
100
AcDbPoint
 10
86.36641049212912
 20
178.7611329240315
 30
0.0
  0
ENDBLK
  5
EEA
330
EDF
100
AcDbEntity
  8
0
100
AcDbBlockEnd
  0
BLOCK
  5
F3E
330
F34
100
AcDbEntity
  8
0
100
AcDbBlockBegin
  2
*D7
 70
     1
 10
0.0
 20
0.0
 30
0.0
  3
*D7
  1
*D51
  0
LINE
  5
FCA
330
F34
100
AcDbEntity
  8
文字
 62
     0
370
    -2
100
AcDbLine
 10
98.72206019954552
 20
32.66133625432298
 30
0.0
 11
114.8800338049186
 21
32.66133625432297
 31
0.0
  0
LINE
  5
FCB
330
F34
100
AcDbEntity
  8
文字
 62
     0
370
    -2
100
AcDbLine
 10
86.39742041011468
 20
52.65681231148709
 30
0.0
 11
114.8800338049186
 21
52.65681231148708
 31
0.0
  0
LINE
  5
FCC
330
F34
100
AcDbEntity
  8
文字
 62
     0
370
    -2
100
AcDbLine
 10
113.6300338049186
 20
35.16133625432297
 30
0.0
 11
113.6300338049186
 21
50.15681231148708
 31
0.0
  0
SOLID
  5
FCD
330
F34
100
AcDbEntity
  8
文字
 62
     0
370
    20
100
AcDbTrace
 10
113.213367138252
 20
35.16133625432297
 30
0.0
 11
114.0467004715853
 21
35.16133625432297
 31
0.0
 12
113.6300338049186
 22
32.66133625432297
 32
0.0
 13
113.6300338049186
 23
32.66133625432297
 33
0.0
  0
SOLID
  5
FCE
330
F34
100
AcDbEntity
  8
文字
 62
     0
370
    20
100
AcDbTrace
 10
113.213367138252
 20
50.15681231148708
 30
0.0
 11
114.0467004715853
 21
50.15681231148708
 31
0.0
 12
113.6300338049186
 22
52.65681231148708
 32
0.0
 13
113.6300338049186
 23
52.65681231148708
 33
0.0
  0
MTEXT
  5
FCF
330
F34
100
AcDbEntity
  8
文字
 62
     0
100
AcDbMText
 10
111.7550338049186
 20
42.65907428290505
 30
0.0
 40
2.5
 41
0.0
 46
0.0
 71
     5
 72
     1
  1
20
 11
6.123031769111886E-17
 21
1.0
 31
0.0
 73
     1
 44
1.0
  0
POINT
  5
FD0
330
F34
100
AcDbEntity
  8
Defpoints
 62
     0
370
    20
100
AcDbPoint
 10
98.09706019954552
 20
32.66133625432298
 30
0.0
  0
POINT
  5
FD1
330
F34
100
AcDbEntity
  8
Defpoints
 62
     0
370
    20
100
AcDbPoint
 10
85.77242041011468
 20
52.65681231148709
 30
0.0
  0
POINT
  5
FD2
330
F34
100
AcDbEntity
  8
Defpoints
 62
     0
370
    20
100
AcDbPoint
 10
113.6300338049186
 20
52.65681231148708
 30
0.0
  0
ENDBLK
  5
F3F
330
F34
100
AcDbEntity
  8
0
100
AcDbBlockEnd
  0
BLOCK
  5
F56
330
F4C
100
AcDbEntity
  8
0
100
AcDbBlockBegin
  2
*D8
 70
     1
 10
0.0
 20
0.0
 30
0.0
  3
*D8
  1
*D52
  0
LINE
  5
FC1
330
F4C
100
AcDbEntity
  8
文字
 62
     0
370
    -2
100
AcDbLine
 10
113.0050338049186
 20
52.65681231148707
 30
0.0
 11
112.3800338049186
 21
52.65681231148707
 31
0.0
  0
LINE
  5
FC2
330
F4C
100
AcDbEntity
  8
文字
 62
     0
370
    -2
100
AcDbLine
 10
92.87949667143153
 20
62.65681346819412
 30
0.0
 11
114.8800338049186
 21
62.65681346819411
 31
0.0
  0
LINE
  5
FC3
330
F4C
100
AcDbEntity
  8
文字
 62
     0
370
    -2
100
AcDbLine
 10
113.6300338049186
 20
55.15681231148707
 30
0.0
 11
113.6300338049186
 21
60.15681346819411
 31
0.0
  0
SOLID
  5
FC4
330
F4C
100
AcDbEntity
  8
文字
 62
     0
370
    20
100
AcDbTrace
 10
113.213367138252
 20
55.15681231148707
 30
0.0
 11
114.0467004715853
 21
55.15681231148707
 31
0.0
 12
113.6300338049186
 22
52.65681231148707
 32
0.0
 13
113.6300338049186
 23
52.65681231148707
 33
0.0
  0
SOLID
  5
FC5
330
F4C
100
AcDbEntity
  8
文字
 62
     0
370
    20
100
AcDbTrace
 10
113.213367138252
 20
60.15681346819411
 30
0.0
 11
114.0467004715853
 21
60.15681346819411
 31
0.0
 12
113.6300338049186
 22
62.65681346819411
 32
0.0
 13
113.6300338049186
 23
62.65681346819411
 33
0.0
  0
MTEXT
  5
FC6
330
F4C
100
AcDbEntity
  8
文字
 62
     0
100
AcDbMText
 10
111.7550338049186
 20
57.65681288984062
 30
0.0
 40
2.5
 41
0.0
 46
0.0
 71
     5
 72
     1
  1
10
 11
6.123031769111886E-17
 21
1.0
 31
0.0
 73
     1
 44
1.0
  0
POINT
  5
FC7
330
F4C
100
AcDbEntity
  8
Defpoints
 62
     0
370
    20
100
AcDbPoint
 10
113.6300338049186
 20
52.65681231148707
 30
0.0
  0
POINT
  5
FC8
330
F4C
100
AcDbEntity
  8
Defpoints
 62
     0
370
    20
100
AcDbPoint
 10
92.25449667143153
 20
62.65681346819412
 30
0.0
  0
POINT
  5
FC9
330
F4C
100
AcDbEntity
  8
Defpoints
 62
     0
370
    20
100
AcDbPoint
 10
113.6300338049186
 20
62.65681346819411
 30
0.0
  0
ENDBLK
  5
F57
330
F4C
100
AcDbEntity
  8
0
100
AcDbBlockEnd
  0
BLOCK
  5
F93
330
F89
100
AcDbEntity
  8
0
100
AcDbBlockBegin
  2
*D9
 70
     1
 10
0.0
 20
0.0
 30
0.0
  3
*D9
  1
*D55
  0
LINE
  5
FA1
330
F89
100
AcDbEntity
  8
文字
 62
     0
370
    -2
100
AcDbLine
 10
214.7047682316449
 20
133.4345075496181
 30
0.0
 11
271.2698697807768
 21
133.4345075496181
 31
0.0
  0
LINE
  5
FA2
330
F89
100
AcDbEntity
  8
文字
 62
     0
370
    -2
100
AcDbLine
 10
214.7047682316449
 20
109.4456038647892
 30
0.0
 11
271.2698697807767
 21
109.4456038647892
 31
0.0
  0
LINE
  5
FA3
330
F89
100
AcDbEntity
  8
文字
 62
     0
370
    -2
100
AcDbLine
 10
270.0198697807768
 20
130.9345075496181
 30
0.0
 11
270.0198697807767
 21
111.9456038647892
 31
0.0
  0
SOLID
  5
FA4
330
F89
100
AcDbEntity
  8
文字
 62
     0
100
AcDbTrace
 10
269.6032031141101
 20
130.9345075496181
 30
0.0
 11
270.4365364474435
 21
130.9345075496181
 31
0.0
 12
270.0198697807768
 22
133.4345075496181
 32
0.0
 13
270.0198697807768
 23
133.4345075496181
 33
0.0
  0
SOLID
  5
FA5
330
F89
100
AcDbEntity
  8
文字
 62
     0
100
AcDbTrace
 10
269.60320311411
 20
111.9456038647892
 30
0.0
 11
270.4365364474434
 21
111.9456038647892
 31
0.0
 12
270.0198697807767
 22
109.4456038647892
 32
0.0
 13
270.0198697807767
 23
109.4456038647892
 33
0.0
  0
MTEXT
  5
FA6
330
F89
100
AcDbEntity
  8
文字
 62
     0
100
AcDbMText
 10
268.1448697807767
 20
121.4400557072037
 30
0.0
 40
2.5
 41
0.0
 46
0.0
 71
     5
 72
     1
  1
24
 11
6.123031769111886E-17
 21
1.0
 31
0.0
 73
     1
 44
1.0
  0
POINT
  5
FA7
330
F89
100
AcDbEntity
  8
Defpoints
 62
     0
100
AcDbPoint
 10
214.0797682316449
 20
133.4345075496181
 30
0.0
  0
POINT
  5
FA8
330
F89
100
AcDbEntity
  8
Defpoints
 62
     0
100
AcDbPoint
 10
214.0797682316449
 20
109.4456038647892
 30
0.0
  0
POINT
  5
FA9
330
F89
100
AcDbEntity
  8
Defpoints
 62
     0
100
AcDbPoint
 10
270.0198697807767
 20
109.4456038647892
 30
0.0
  0
ENDBLK
  5
F94
330
F89
100
AcDbEntity
  8
0
100
AcDbBlockEnd
  0
BLOCK
  5
FFC
330
FF2
100
AcDbEntity
  8
0
100
AcDbBlockBegin
  2
*D10
 70
     1
 10
0.0
 20
0.0
 30
0.0
  3
*D10
  1
*D56
  0
LINE
  5
1019
330
FF2
100
AcDbEntity
  8
文字
 62
     0
370
    -2
100
AcDbLine
 10
84.99141049212912
 20
162.6568134681941
 30
0.0
 11
114.8800338049187
 21
162.6568134681941
 31
0.0
  0
LINE
  5
101A
330
FF2
100
AcDbEntity
  8
文字
 62
     0
370
    -2
100
AcDbLine
 10
92.87949667143153
 20
62.65681346819412
 30
0.0
 11
114.8800338049186
 21
62.65681346819411
 31
0.0
  0
LINE
  5
101B
330
FF2
100
AcDbEntity
  8
文字
 62
     0
370
    -2
100
AcDbLine
 10
113.6300338049187
 20
160.1568134681941
 30
0.0
 11
113.6300338049186
 21
65.15681346819412
 31
0.0
  0
SOLID
  5
101C
330
FF2
100
AcDbEntity
  8
文字
 62
     0
100
AcDbTrace
 10
113.213367138252
 20
160.1568134681941
 30
0.0
 11
114.0467004715853
 21
160.1568134681941
 31
0.0
 12
113.6300338049187
 22
162.6568134681941
 32
0.0
 13
113.6300338049187
 23
162.6568134681941
 33
0.0
  0
SOLID
  5
101D
330
FF2
100
AcDbEntity
  8
文字
 62
     0
100
AcDbTrace
 10
113.213367138252
 20
65.15681346819412
 30
0.0
 11
114.0467004715853
 21
65.15681346819412
 31
0.0
 12
113.6300338049186
 22
62.65681346819411
 32
0.0
 13
113.6300338049186
 23
62.65681346819411
 33
0.0
  0
MTEXT
  5
101E
330
FF2
100
AcDbEntity
  8
文字
 62
     0
100
AcDbMText
 10
111.7550338049186
 20
112.6568134681941
 30
0.0
 40
2.5
 41
0.0
 46
0.0
 71
     5
 72
     1
  1
130
 11
6.123031769111886E-17
 21
1.0
 31
0.0
 73
     1
 44
1.0
  0
POINT
  5
101F
330
FF2
100
AcDbEntity
  8
Defpoints
 62
     0
100
AcDbPoint
 10
84.36641049212912
 20
162.6568134681941
 30
0.0
  0
POINT
  5
1020
330
FF2
100
AcDbEntity
  8
Defpoints
 62
     0
100
AcDbPoint
 10
92.25449667143153
 20
62.65681346819412
 30
0.0
  0
POINT
  5
1021
330
FF2
100
AcDbEntity
  8
Defpoints
 62
     0
100
AcDbPoint
 10
113.6300338049186
 20
62.65681346819411
 30
0.0
  0
ENDBLK
  5
FFD
330
FF2
100
AcDbEntity
  8
0
100
AcDbBlockEnd
  0
ENDSEC
  0
SECTION
  2
ENTITIES
  0
LINE
  5
62F
330
21
100
AcDbEntity
  8
実線
100
AcDbLine
 10
74.40576949464213
 20
52.97084269394574
 30
0.0
 11
74.36641049212912
 21
52.97084269394574
 31
0.0
  0
LINE
  5
63B
330
21
100
AcDbEntity
  8
実線
100
AcDbLine
 10
82.36641049212913
 20
52.97084269394573
 30
0.0
 11
82.32705148961605
 21
52.97084269394573
 31
0.0
  0
LINE
  5
688
102
{ACAD_REACTORS
330
F4A
102
}
330
21
100
AcDbEntity
  8
実線
100
AcDbLine
 10
70.89984175112048
 20
52.65681231148709
 30
0.0
 11
85.77242041011468
 21
52.65681231148709
 31
0.0
  0
LINE
  5
889
330
21
100
AcDbEntity
  8
中心線
100
AcDbLine
 10
78.36641049212912
 20
26.04695490620344
 30
0.0
 11
78.36641049212913
 21
170.430523427727
 31
0.0
  0
ARC
  5
A99
330
21
100
AcDbEntity
  8
実線
100
AcDbCircle
 10
205.1562106686237
 20
123.4436005000004
 30
0.0
 40
10.0
100
AcDbArc
 50
90.0
 51
92.44355970482462
  0
LINE
  5
A9A
330
21
100
AcDbEntity
  8
実線
100
AcDbLine
 10
195.1562106686237
 20
117.973455717932
 30
0.0
 11
195.1562106686237
 21
118.2332633390673
 31
0.0
  0
LINE
  5
A9B
330
21
100
AcDbEntity
  8
実線
100
AcDbLine
 10
214.2245184142941
 20
133.4436005000004
 30
0.0
 11
205.1562106686237
 21
133.4436005000004
 31
0.0
  0
ARC
  5
AB4
330
21
100
AcDbEntity
  8
実線
100
AcDbCircle
 10
85.11358610415795
 20
47.67043457570247
 30
0.0
 40
5.0
100
AcDbArc
 50
2.261858786205111
 51
86.46333170483534
  0
ARC
  5
AB5
330
21
100
AcDbEntity
  8
実線
100
AcDbCircle
 10
239.9928239058148
 20
53.78776225842492
 30
0.0
 40
150.0
100
AcDbArc
 50
182.2618587862043
 51
186.6337045917859
  0
LINE
  5
AB6
330
21
100
AcDbEntity
  8
実線
100
AcDbLine
 10
83.54324726138594
 20
52.67043457570247
 30
0.0
 11
85.11358610415795
 21
52.67043457570247
 31
0.0
  0
LINE
  5
AB7
330
21
100
AcDbEntity
  8
実線
100
AcDbLine
 10
85.42202268303055
 20
52.66091219581193
 30
0.0
 11
71.31079830122775
 21
52.65266792460415
 31
0.0
  0
LINE
  5
AC6
102
{ACAD_REACTORS
330
D69
330
D99
102
}
330
21
100
AcDbEntity
  8
実線
100
AcDbLine
 10
188.1547714742843
 20
120.4347934968163
 30
0.0
 11
188.1536036868414
 21
122.438883311799
 31
0.0
  0
LINE
  5
AC7
102
{ACAD_REACTORS
330
D81
330
DB1
102
}
330
21
100
AcDbEntity
  8
実線
100
AcDbLine
 10
208.1547718153159
 20
140.4400555362396
 30
0.0
 11
206.1430874585965
 21
140.438880239825
 31
0.0
  0
ARC
  5
ACB
330
21
100
AcDbEntity
  8
実線
100
AcDbCircle
 10
233.9398144668953
 20
123.4551171593863
 30
0.0
 40
17.0
100
AcDbArc
 50
315.0630026473522
 51
90.0335215837595
  0
LINE
  5
ACC
330
21
100
AcDbEntity
  8
実線
100
AcDbLine
 10
86.15278501427855
 20
34.66133606076954
 30
0.0
 11
92.98687016513253
 21
34.66133606076954
 31
0.0
  0
ARC
  5
ACD
330
21
100
AcDbEntity
  8
実線
100
AcDbCircle
 10
92.98687016513259
 20
36.66133606076953
 30
0.0
 40
2.0
100
AcDbArc
 50
185.7909132015739
 51
270.0
  0
ARC
  5
ACE
330
21
100
AcDbEntity
  8
実線
100
AcDbCircle
 10
41.29369621918318
 20
36.63454429584721
 30
0.0
 40
2.0
100
AcDbArc
 50
270.0
 51
322.9557835428822
  0
LINE
  5
ACF
330
21
100
AcDbEntity
  8
実線
100
AcDbLine
 10
98.09706019954552
 20
34.66133606076954
 30
0.0
 11
98.09706019954552
 21
32.66133625432298
 31
0.0
  0
LINE
  5
AD0
102
{ACAD_REACTORS
330
F4A
102
}
330
21
100
AcDbEntity
  8
実線
100
AcDbLine
 10
86.1539534840835
 20
32.66133640210001
 30
0.0
 11
98.09706019954552
 21
32.66133625432298
 31
0.0
  0
LINE
  5
AD1
330
21
100
AcDbEntity
  8
実線
100
AcDbLine
 10
96.10654741638945
 20
34.66133606076954
 30
0.0
 11
98.09706019954552
 21
34.66133606076949
 31
0.0
  0
LINE
  5
AD2
330
21
100
AcDbEntity
  8
実線
100
AcDbLine
 10
35.2958824095644
 20
34.63454429584722
 30
0.0
 11
35.2958824095644
 21
32.63454429584722
 31
0.0
  0
LINE
  5
AD3
102
{ACAD_REACTORS
330
D51
102
}
330
21
100
AcDbEntity
  8
実線
100
AcDbLine
 10
37.29588346782833
 20
32.63454429584722
 30
0.0
 11
35.2958824095644
 21
32.63454429584722
 31
0.0
  0
LINE
  5
AD4
102
{ACAD_REACTORS
330
D51
102
}
330
21
100
AcDbEntity
  8
実線
100
AcDbLine
 10
38.7954059660903
 20
34.63454429584722
 30
0.0
 11
35.2958824095644
 21
34.63454429584722
 31
0.0
  0
ARC
  5
AD5
330
21
100
AcDbEntity
  8
実線
100
AcDbCircle
 10
205.1698378760019
 20
94.65150363648999
 30
0.0
 40
17.0
100
AcDbArc
 50
180.0334741960612
 51
315.0649085521053
  0
LINE
  5
AD6
330
21
100
AcDbEntity
  8
実線
100
AcDbLine
 10
245.973014617648
 20
111.4467008017869
 30
0.0
 11
245.9734277341274
 21
111.4471139182672
 31
0.0
  0
LINE
  5
AD7
330
21
100
AcDbEntity
  8
実線
100
AcDbLine
 10
245.9738406092137
 20
111.4475272760667
 30
0.0
 11
217.1914809558398
 21
82.63151663869942
 31
0.0
  0
ARC
  5
AD8
330
21
100
AcDbEntity
  8
実線
100
AcDbCircle
 10
206.1536036868414
 20
122.438883311799
 30
0.0
 40
18.0
100
AcDbArc
 50
90.0334741960604
 51
180.0667727402044
  0
LINE
  5
AD9
330
21
100
AcDbEntity
  8
実線
100
AcDbLine
 10
188.1547714742843
 20
120.4347934968163
 30
0.0
 11
188.1698407773107
 21
94.64157164314767
 31
0.0
  0
LINE
  5
ADA
330
21
100
AcDbEntity
  8
実線
100
AcDbLine
 10
208.1495142131892
 20
140.4400524645644
 30
0.0
 11
233.9298684133422
 21
140.4551142498572
 31
0.0
  0
ARC
  5
ADE
330
21
100
AcDbEntity
  8
実線
100
AcDbCircle
 10
78.6963417079881
 20
8.404347979496535
 30
0.0
 40
44.86045106079237
100
AcDbArc
 50
99.4326503793491
 51
142.9557835428822
  0
LINE
  5
AE1
330
21
100
AcDbEntity
  8
実線
100
AcDbLine
 10
40.29492846435221
 20
32.63454429584722
 30
0.0
 11
37.29588346782833
 21
32.63454429584722
 31
0.0
  0
LINE
  5
AE2
330
21
100
AcDbEntity
  8
実線
100
AcDbLine
 10
86.1539534840835
 20
32.66133640210001
 30
0.0
 11
40.29609693415722
 21
32.63454463717768
 31
0.0
  0
LINE
  5
AE3
330
21
100
AcDbEntity
  8
実線
100
AcDbLine
 10
92.98687016513253
 20
34.66133606076954
 30
0.0
 11
96.10654741638945
 21
34.66133606076954
 31
0.0
  0
LINE
  5
AE4
330
21
100
AcDbEntity
  8
実線
100
AcDbLine
 10
41.29369621918323
 20
34.63454429584722
 30
0.0
 11
37.29588346782833
 21
34.63454429584722
 31
0.0
  0
LINE
  5
AE5
330
21
100
AcDbEntity
  8
実線
100
AcDbLine
 10
86.15278501427855
 20
34.66133606076954
 30
0.0
 11
40.29492846435221
 21
34.63454429584722
 31
0.0
  0
ARC
  5
AE6
102
{ACAD_REACTORS
330
E44
102
}
330
21
100
AcDbEntity
  8
実線
100
AcDbCircle
 10
205.1698378738879
 20
94.65150725473276
 30
0.0
 40
10.0
100
AcDbArc
 50
180.0334741960612
 51
315.0334741960614
  0
ARC
  5
AE7
330
21
100
AcDbEntity
  8
実線
100
AcDbCircle
 10
233.9398112741027
 20
123.4551171575151
 30
0.0
 40
10.0
100
AcDbArc
 50
315.0334741960614
 51
90.0334741960604
  0
LINE
  5
AE8
330
21
100
AcDbEntity
  8
実線
100
AcDbLine
 10
241.0150090437963
 20
116.3881817170486
 30
0.0
 11
212.2450356435816
 21
87.58457181426624
 31
0.0
  0
LINE
  5
AE9
330
21
100
AcDbEntity
  8
実線
100
AcDbLine
 10
195.1562106686237
 20
117.973455717932
 30
0.0
 11
195.1698395805402
 21
94.64566490570783
 31
0.0
  0
LINE
  5
AEA
330
21
100
AcDbEntity
  8
実線
100
AcDbLine
 10
214.2245184142941
 20
133.4436005000004
 30
0.0
 11
233.9339689250777
 21
133.4551154508628
 31
0.0
  0
LINE
  5
CEB
102
{ACAD_REACTORS
330
D69
330
D81
330
D99
102
}
330
21
100
AcDbEntity
  8
中心線
100
AcDbLine
 10
207.154768231645
 20
121.4400557072036
 30
0.0
 11
182.154768231645
 21
121.4400557072036
 31
0.0
  0
LINE
  5
CEC
330
21
100
AcDbEntity
  8
中心線
100
AcDbLine
 10
207.154768231645
 20
121.4400557072036
 30
0.0
 11
232.154768231645
 21
121.4400557072036
 31
0.0
  0
LINE
  5
CED
102
{ACAD_REACTORS
330
D69
330
D81
330
DB1
102
}
330
21
100
AcDbEntity
  8
中心線
100
AcDbLine
 10
207.154768231645
 20
121.4400557072036
 30
0.0
 11
207.154768231645
 21
146.4400557072036
 31
0.0
  0
LINE
  5
CEE
330
21
100
AcDbEntity
  8
中心線
100
AcDbLine
 10
207.154768231645
 20
121.4400557072036
 30
0.0
 11
207.154768231645
 21
96.44005570720364
 31
0.0
  0
DIMENSION
  5
D36
102
{ACAD_REACTORS
330
D51
102
}
102
{ACAD_XDICTIONARY
360
D45
102
}
330
21
100
AcDbEntity
  8
文字
100
AcDbDimension
280
     0
  2
*D0
 10
23.14252839672549
 20
34.63454429584722
 30
0.0
 11
21.26752839672549
 21
41.09287762918056
 31
0.0
 70
    32
 71
     5
 42
2.0
 73
     0
 74
     0
 75
     0
  3
ISO-25
100
AcDbAlignedDimension
 13
35.2958824095644
 23
32.63454429584722
 33
0.0
 14
35.2958824095644
 24
34.63454429584722
 34
0.0
 50
90.0
100
AcDbRotatedDimension
  0
DIMENSION
  5
D52
102
{ACAD_REACTORS
330
D69
102
}
102
{ACAD_XDICTIONARY
360
D5F
102
}
330
21
100
AcDbEntity
  8
文字
100
AcDbDimension
280
     0
  2
*D1
 10
207.154768231645
 20
157.1941658211289
 30
0.0
 11
197.6544769687393
 21
159.0691658211289
 31
0.0
 70
    32
 71
     5
 42
19.00058252581147
 73
     0
 74
     0
 75
     0
  3
ISO-25
100
AcDbAlignedDimension
 13
188.1541857058335
 23
121.4400557072036
 33
0.0
 14
207.154768231645
 24
146.4400557072036
 34
0.0
100
AcDbRotatedDimension
  0
DIMENSION
  5
D6A
102
{ACAD_REACTORS
330
D81
102
}
102
{ACAD_XDICTIONARY
360
D77
102
}
330
21
100
AcDbEntity
  8
文字
100
AcDbDimension
280
     0
  2
*D2
 10
171.9819378953305
 20
121.4400557072036
 30
0.0
 11
170.1069378953304
 21
130.9397635031737
 31
0.0
 70
    32
 71
     5
 42
18.99941559194001
 73
     0
 74
     0
 75
     0
  3
ISO-25
100
AcDbAlignedDimension
 13
207.154768231645
 23
140.4394712991436
 33
0.0
 14
182.154768231645
 24
121.4400557072036
 34
0.0
 50
90.0
100
AcDbRotatedDimension
  0
DIMENSION
  5
D82
102
{ACAD_REACTORS
330
D99
102
}
102
{ACAD_XDICTIONARY
360
D8F
102
}
330
21
100
AcDbEntity
  8
文字
100
AcDbDimension
280
     0
  2
*D3
 10
250.8199663425132
 20
169.7891869346947
 30
0.0
 11
219.4870760241734
 21
171.6641869346947
 31
0.0
 70
    32
  1
63
 71
     5
 42
62.6657806366797
 73
     0
 74
     0
 75
     0
  3
ISO-25
100
AcDbAlignedDimension
 13
188.1541857058335
 23
121.4400557072036
 33
0.0
 14
250.8199663425132
 24
121.4400557072036
 34
0.0
100
AcDbRotatedDimension
  0
DIMENSION
  5
D9A
102
{ACAD_REACTORS
330
DB1
102
}
102
{ACAD_XDICTIONARY
360
DA7
102
}
330
21
100
AcDbEntity
  8
文字
100
AcDbDimension
280
     0
  2
*D4
 10
159.2773913354002
 20
77.7677821425999
 30
0.0
 11
157.4023913354002
 21
109.1036267208718
 31
0.0
 70
    32
  1
63
 71
     5
 42
62.67168915654376
 73
     0
 74
     0
 75
     0
  3
ISO-25
100
AcDbAlignedDimension
 13
207.154768231645
 23
140.4394712991436
 33
0.0
 14
207.154768231645
 24
77.76778214259988
 34
0.0
 50
90.0
100
AcDbRotatedDimension
  0
DIMENSION
  5
E35
102
{ACAD_REACTORS
330
E44
102
}
102
{ACAD_XDICTIONARY
360
E3E
102
}
330
21
100
AcDbEntity
  8
文字
100
AcDbDimension
280
     0
  2
*D5
 10
205.1698378738882
 20
94.65150725473286
 30
0.0
 11
204.0360661043655
 21
93.42989383289596
 31
0.0
 70
   164
 71
     5
 42
10.00000000000028
 73
     0
 74
     0
 75
     0
  3
ISO-25
100
AcDbRadialDimension
 15
198.3672072567531
 25
87.3218267237123
 35
0.0
 40
0.0
1001
ACAD
1000
DSTYLE
1002
{
1070
   288
1070
     1
1002
}
  0
LEADER
  5
E45
330
21
100
AcDbEntity
  8
文字
100
AcDbLeader
  3
ISO-25
 73
     0
 74
     0
 40
2.51
 41
5.965
 76
     3
 10
202.8701561116713
 20
77.57323696411834
 30
0.0
 10
214.5834965239967
 20
66.68226060603206
 30
0.0
 10
215.9455124027766
 20
66.68226060603206
 30
0.0
340
E46
1001
ACAD
1000
DSTYLE
1002
{
1070
   147
1040
0.625
1070
    77
1070
     1
1002
}
  0
MTEXT
  5
E46
102
{ACAD_REACTORS
330
E45
102
}
330
21
100
AcDbEntity
  8
文字
100
AcDbMText
 10
216.5705124027766
 20
67.30726060603206
 30
0.0
 40
2.5
 41
0.0
 46
0.0
 71
     7
 72
     1
  1
{\fArial|b0|i0|c0|p32;R17}
 73
     1
 44
1.0
  0
LINE
  5
EA3
330
21
100
AcDbEntity
  8
実線
100
AcDbLine
 10
68.81751424287711
 20
52.65681231148707
 30
0.0
 11
87.99147909998598
 21
52.6568123114871
 31
0.0
  0
DIMENSION
  5
EAA
330
21
100
AcDbEntity
  8
文字
100
AcDbDimension
280
     0
  2
*D6
 10
86.36641049212912
 20
178.7611329240315
 30
0.0
 11
78.06351602696856
 21
178.7611329240315
 31
0.0
 70
   160
  1
{\fArial|b0|i0|c0|p32;M}16
 71
     5
 42
16.0
 73
     0
 74
     0
 75
     0
  3
ISO-25
100
AcDbAlignedDimension
 13
70.36641049212912
 23
162.1034337030929
 33
0.0
 14
86.36641049212912
 24
162.1034337030929
 34
0.0
100
AcDbRotatedDimension
  0
LINE
  5
EAE
330
21
100
AcDbEntity
  8
実線
100
AcDbLine
 10
68.05449667143154
 20
52.6568123114871
 30
0.0
 11
88.77656622539234
 21
52.6568123114871
 31
0.0
  0
CIRCLE
  5
EAF
330
21
100
AcDbEntity
  8
実線
370
    20
100
AcDbCircle
 10
207.154768231645
 20
121.4400557072036
 30
0.0
 40
7.0
  0
CIRCLE
  5
EB0
330
21
100
AcDbEntity
  8
実線
100
AcDbCircle
 10
207.154768231645
 20
121.4400557072036
 30
0.0
 40
8.0
  0
LWPOLYLINE
  5
EB1
102
{ACAD_REACTORS
330
F9F
102
}
330
21
100
AcDbEntity
  8
実線
100
AcDbPolyline
 90
        6
 70
     1
 43
0.0
 10
200.229768231645
 20
133.4345075496181
 10
193.304768231645
 20
121.4400557072036
 10
200.2297682316449
 20
109.4456038647892
 10
214.0797682316449
 20
109.4456038647892
 10
221.0047682316449
 20
121.4400557072036
 10
214.0797682316449
 20
133.4345075496181
  0
ARC
  5
EB5
330
21
100
AcDbEntity
  8
実線
100
AcDbCircle
 10
88.7544966714315
 20
59.28156227269407
 30
0.0
 40
6.624786722131047
100
AcDbArc
 50
238.1080604549032
 51
301.891939545097
  0
ARC
  5
EB6
330
21
100
AcDbEntity
  8
実線
100
AcDbCircle
 10
78.40449667143153
 20
76.61806346819401
 30
0.0
 40
23.96124999999989
100
AcDbArc
 50
253.3886475888868
 51
286.6113524111132
  0
ARC
  5
EB7
330
21
100
AcDbEntity
  8
実線
100
AcDbCircle
 10
68.05449667143154
 20
59.28180580501838
 30
0.0
 40
6.624993493531275
100
AcDbArc
 50
238.1091731852494
 51
301.8908268147478
  0
LINE
  5
EB8
330
21
100
AcDbEntity
  8
実線
100
AcDbLine
 10
85.25449667143153
 20
62.65681346819412
 30
0.0
 11
85.25449667143153
 21
53.65681346819412
 31
0.0
  0
LINE
  5
EB9
330
21
100
AcDbEntity
  8
実線
100
AcDbLine
 10
71.55449667143154
 20
62.65681346819412
 30
0.0
 11
71.55449667143154
 21
53.65681346819412
 31
0.0
  0
LWPOLYLINE
  5
EBA
102
{ACAD_REACTORS
330
F62
330
1008
102
}
330
21
100
AcDbEntity
  8
実線
100
AcDbPolyline
 90
        4
 70
     0
 43
0.0
 10
92.25449667143153
 20
53.65681346819413
 10
92.25449667143153
 20
62.65681346819412
 10
64.55449667143154
 20
62.65681346819412
 10
64.55449667143154
 20
53.65681346819412
  0
DIMENSION
  5
F33
102
{ACAD_REACTORS
330
F4A
102
}
102
{ACAD_XDICTIONARY
360
F40
102
}
330
21
100
AcDbEntity
  8
文字
100
AcDbDimension
280
     0
  2
*D7
 10
113.6300338049186
 20
52.65681231148708
 30
0.0
 11
111.7550338049186
 21
42.65907428290505
 31
0.0
 70
    32
 71
     5
 42
19.99547605716411
 73
     0
 74
     0
 75
     0
  3
ISO-25
100
AcDbAlignedDimension
 13
98.09706019954552
 23
32.66133625432298
 33
0.0
 14
85.77242041011468
 24
52.65681231148709
 34
0.0
 50
90.0
100
AcDbRotatedDimension
  0
DIMENSION
  5
F4B
102
{ACAD_REACTORS
330
F62
102
}
102
{ACAD_XDICTIONARY
360
F58
102
}
330
21
100
AcDbEntity
  8
文字
100
AcDbDimension
280
     0
  2
*D8
 10
113.6300338049186
 20
62.65681346819411
 30
0.0
 11
111.7550338049186
 21
57.65681288984062
 31
0.0
 70
    32
 71
     5
 42
10.00000115670704
 73
     0
 74
     0
 75
     0
  3
ISO-25
100
AcDbAlignedDimension
 13
113.6300338049186
 23
52.65681231148707
 33
0.0
 14
92.25449667143153
 24
62.65681346819412
 34
0.0
 50
90.0
100
AcDbRotatedDimension
  0
DIMENSION
  5
F88
102
{ACAD_REACTORS
330
F9F
102
}
102
{ACAD_XDICTIONARY
360
F95
102
}
330
21
100
AcDbEntity
  8
文字
100
AcDbDimension
280
     0
  2
*D9
 10
270.0198697807767
 20
109.4456038647892
 30
0.0
 11
268.1448697807767
 21
121.4400557072037
 31
0.0
 70
    32
  1
24
 71
     5
 42
23.98890368482891
 73
     0
 74
     0
 75
     0
  3
ISO-25
100
AcDbAlignedDimension
 13
214.0797682316449
 23
133.4345075496181
 33
0.0
 14
214.0797682316449
 24
109.4456038647892
 34
0.0
 50
90.0
100
AcDbRotatedDimension
  0
ARC
  5
FA0
330
21
100
AcDbEntity
  8
実線
100
AcDbCircle
 10
205.1562106686237
 20
123.4436005000004
 30
0.0
 40
10.0
100
AcDbArc
 50
127.8481494493549
 51
172.151850550645
  0
LWPOLYLINE
  5
FBD
330
21
100
AcDbEntity
  8
実線
100
AcDbPolyline
 90
        6
 70
     0
 43
0.0
 10
86.36641049212912
 20
117.2756156217111
 10
86.36641049212912
 20
160.6568134681941
 10
84.36641049212912
 20
162.6568134681941
 10
72.36641049212912
 20
162.6568134681941
 10
70.36641049212912
 20
160.6568134681941
 10
70.36641049212912
 20
108.0380113146771
  0
LINE
  5
FBE
330
21
100
AcDbEntity
  8
実線
370
    20
100
AcDbLine
 10
70.36641049212912
 20
160.6568134681941
 30
0.0
 11
86.36641049212912
 21
160.6568134681941
 31
0.0
  0
LINE
  5
FBF
102
{ACAD_REACTORS
330
1008
102
}
330
21
100
AcDbEntity
  8
実線
370
    20
100
AcDbLine
 10
84.36641049212912
 20
162.6568134681941
 30
0.0
 11
84.36641049212915
 21
116.1209150833319
 31
0.0
  0
LINE
  5
FC0
330
21
100
AcDbEntity
  8
実線
370
    20
100
AcDbLine
 10
72.36641049212912
 20
162.6568134681941
 30
0.0
 11
72.36641049212912
 21
109.1927118530564
 31
0.0
  0
DIMENSION
  5
FF1
102
{ACAD_REACTORS
330
1008
102
}
102
{ACAD_XDICTIONARY
360
FFE
102
}
330
21
100
AcDbEntity
  8
文字
100
AcDbDimension
280
     0
  2
*D10
 10
113.6300338049186
 20
62.65681346819411
 30
0.0
 11
111.7550338049186
 21
112.6568134681941
 31
0.0
 70
    32
  1
130
 71
     5
 42
100.0
 73
     0
 74
     0
 75
     0
  3
ISO-25
100
AcDbAlignedDimension
 13
84.36641049212912
 23
162.6568134681941
 33
0.0
 14
92.25449667143153
 24
62.65681346819412
 34
0.0
 50
90.0
100
AcDbRotatedDimension
  0
LINE
  5
1013
330
21
100
AcDbEntity
  8
実線
370
    30
100
AcDbLine
 10
62.07584552811066
 20
103.251451400967
 30
0.0
 11
94.10592947362493
 21
121.7440289890759
 31
0.0
  0
LINE
  5
1015
330
21
100
AcDbEntity
  8
実線
370
    30
100
AcDbLine
 10
63.07584552811066
 20
101.5194005933981
 30
0.0
 11
95.10592947362493
 21
120.0119781815071
 31
0.0
  0
LINE
  5
1016
330
21
100
AcDbEntity
  8
実線
370
    20
100
AcDbLine
 10
84.36641049212915
 20
113.8115140065734
 30
0.0
 11
84.3664104921291
 21
62.65681346819412
 31
0.0
  0
LINE
  5
1017
330
21
100
AcDbEntity
  8
実線
370
    20
100
AcDbLine
 10
72.36641049212912
 20
106.8833107762978
 30
0.0
 11
72.3664104921291
 21
62.65681346819412
 31
0.0
  0
LWPOLYLINE
  5
1018
330
21
100
AcDbEntity
  8
実線
100
AcDbPolyline
 90
        4
 70
     0
 43
0.0
 10
70.36641049212912
 20
105.7286102379186
 10
70.36641049212912
 20
62.65681346819412
 10
86.36641049212912
 20
62.65681346819412
 10
86.36641049212912
 20
114.9662145449526
  0
MTEXT
  5
109D
330
21
100
AcDbEntity
  8
文字・寸法線
 62
     0
100
AcDbMText
 10
45.87097303496068
 20
213.3086054363493
 30
0.0
 40
6.0
 41
0.0
 46
6.0
 71
     9
 72
     1
  1
{\fＭＳ ゴシック|b0|i0|c0|p0;S-L M16X130}
 73
     1
 44
1.0
1001
ACAD
1000
ACAD_MTEXT_DEFINED_HEIGHT_BEGIN
1070
    46
1040
6.0
1000
ACAD_MTEXT_DEFINED_HEIGHT_END
  0
ENDSEC
  0
SECTION
  2
OBJECTS
  0
DICTIONARY
  5
C
330
0
100
AcDbDictionary
281
     1
  3
ACAD_COLOR
350
1C
  3
ACAD_DETAILVIEWSTYLE
350
1074
  3
ACAD_GROUP
350
D
  3
ACAD_IMAGE_VARS
350
1066
  3
ACAD_LAYOUT
350
1A
  3
ACAD_MATERIAL
350
1B
  3
ACAD_MLEADERSTYLE
350
1071
  3
ACAD_MLINESTYLE
350
17
  3
ACAD_PLOTSETTINGS
350
19
  3
ACAD_PLOTSTYLENAME
350
E
  3
ACAD_SCALELIST
350
103D
  3
ACAD_SECTIONVIEWSTYLE
350
1075
  3
ACAD_TABLESTYLE
350
1062
  3
ACAD_VISUALSTYLE
350
1024
  3
AcadDim
350
6E9
  3
ACDB_RECOMPOSE_DATA
350
10A3
  3
AcDbVariableDictionary
350
106B
  3
APPDATA
350
1064
  0
SUN
  5
1065
330
1023
100
AcDbSun
 90
        1
290
     0
 63
     7
421
 16777215
 40
1.0
291
     1
 91
  2455826
 92
 54000000
292
     0
 70
     2
 71
   256
280
     1
  0
DICTIONARY
  5
D45
330
D36
100
AcDbDictionary
280
     1
281
     1
  3
ACAD_DIMASSOC
360
D51
  0
DICTIONARY
  5
D5F
330
D52
100
AcDbDictionary
280
     1
281
     1
  3
ACAD_DIMASSOC
360
D69
  0
DICTIONARY
  5
D77
330
D6A
100
AcDbDictionary
280
     1
281
     1
  3
ACAD_DIMASSOC
360
D81
  0
DICTIONARY
  5
D8F
330
D82
100
AcDbDictionary
280
     1
281
     1
  3
ACAD_DIMASSOC
360
D99
  0
DICTIONARY
  5
DA7
330
D9A
100
AcDbDictionary
280
     1
281
     1
  3
ACAD_DIMASSOC
360
DB1
  0
DICTIONARY
  5
E3E
330
E35
100
AcDbDictionary
280
     1
281
     1
  3
ACAD_DIMASSOC
360
E44
  0
DICTIONARY
  5
F40
330
F33
100
AcDbDictionary
280
     1
281
     1
  3
ACAD_DIMASSOC
360
F4A
  0
DICTIONARY
  5
F58
330
F4B
100
AcDbDictionary
280
     1
281
     1
  3
ACAD_DIMASSOC
360
F62
  0
DICTIONARY
  5
F95
330
F88
100
AcDbDictionary
280
     1
281
     1
  3
ACAD_DIMASSOC
360
F9F
  0
DICTIONARY
  5
FFE
330
FF1
100
AcDbDictionary
280
     1
281
     1
  3
ACAD_DIMASSOC
360
1008
  0
DICTIONARY
  5
1C
102
{ACAD_REACTORS
330
C
102
}
330
C
100
AcDbDictionary
281
     1
  0
DICTIONARY
  5
1074
102
{ACAD_REACTORS
330
C
102
}
330
C
100
AcDbDictionary
281
     1
  0
DICTIONARY
  5
D
102
{ACAD_REACTORS
330
C
102
}
330
C
100
AcDbDictionary
281
     1
  0
RASTERVARIABLES
  5
1066
102
{ACAD_REACTORS
330
C
102
}
330
C
100
AcDbRasterVariables
 90
        0
 70
     1
 71
     1
 72
     1
  0
DICTIONARY
  5
1A
102
{ACAD_REACTORS
330
C
102
}
330
C
100
AcDbDictionary
281
     1
  3
Model
350
24
  3
Sheet1
350
1068
  0
DICTIONARY
  5
1B
102
{ACAD_REACTORS
330
C
102
}
330
C
100
AcDbDictionary
281
     1
  3
ByBlock
350
1060
  3
ByLayer
350
105F
  3
Global
350
1061
  0
DICTIONARY
  5
1071
102
{ACAD_REACTORS
330
C
102
}
330
C
100
AcDbDictionary
281
     1
  0
DICTIONARY
  5
17
102
{ACAD_REACTORS
330
C
102
}
330
C
100
AcDbDictionary
281
     1
  3
Standard
350
18
  0
DICTIONARY
  5
19
102
{ACAD_REACTORS
330
C
102
}
330
C
100
AcDbDictionary
281
     1
  0
ACDBDICTIONARYWDFLT
  5
E
102
{ACAD_REACTORS
330
C
102
}
330
C
100
AcDbDictionary
281
     1
  3
Normal
350
F
100
AcDbDictionaryWithDefault
340
F
  0
DICTIONARY
  5
103D
102
{ACAD_REACTORS
330
C
102
}
330
C
100
AcDbDictionary
281
     1
  3
A0
350
103E
  3
A1
350
103F
  3
A2
350
1040
  3
A3
350
1041
  3
A4
350
1042
  3
A5
350
1043
  3
A6
350
1044
  3
A7
350
1045
  3
A8
350
1046
  3
A9
350
1047
  3
B0
350
1048
  3
B1
350
1049
  3
B2
350
104A
  3
B3
350
104B
  3
B4
350
104C
  3
B5
350
104D
  3
B6
350
104E
  3
B7
350
104F
  3
B8
350
1050
  3
B9
350
1051
  3
C0
350
1052
  3
C1
350
1053
  3
C2
350
1054
  3
C3
350
1055
  3
C4
350
1056
  3
C5
350
1057
  3
C6
350
1058
  3
C7
350
1059
  3
C8
350
105A
  3
C9
350
105B
  3
D0
350
105C
  3
D1
350
105D
  3
D2
350
105E
  0
DICTIONARY
  5
1075
102
{ACAD_REACTORS
330
C
102
}
330
C
100
AcDbDictionary
281
     1
  0
DICTIONARY
  5
1062
102
{ACAD_REACTORS
330
C
102
}
330
C
100
AcDbDictionary
281
     1
  3
Standard
350
1063
  0
DICTIONARY
  5
1024
102
{ACAD_REACTORS
330
C
102
}
330
C
100
AcDbDictionary
281
     1
  3
2dWireframe
350
1029
  3
Basic
350
102C
  3
Brighten
350
1030
  3
ColorChange
350
1034
  3
Conceptual
350
102E
  3
Dim
350
102F
  3
EdgeColorOff
350
1037
  3
Facepattern
350
1033
  3
Flat
350
1025
  3
FlatWithEdges
350
1026
  3
Gouraud
350
1027
  3
GouraudWithEdges
350
1028
  3
Hidden
350
102B
  3
JitterOff
350
1035
  3
Linepattern
350
1032
  3
OverhangOff
350
1036
  3
Realistic
350
102D
  3
Shaded
350
103C
  3
Shaded with edges
350
103B
  3
Shades of Gray
350
1038
  3
Sketchy
350
1039
  3
Thicken
350
1031
  3
Wireframe
350
102A
  3
X-Ray
350
103A
  0
XRECORD
  5
6E9
102
{ACAD_REACTORS
330
C
102
}
330
C
100
AcDbXrecord
280
     1
 90
   990106
  3

 60
     0
 61
     0
 62
     1
 63
     3
 64
     1
 65
     0
 66
     0
 67
     3
 68
     1
 69
     0
 70
     0
 71
     0
 72
     0
 40
0.0
170
     2
340
E46
  0
XRECORD
  5
10A3
102
{ACAD_REACTORS
330
C
102
}
330
C
100
AcDbXrecord
280
     1
 90
        1
330
1063
  0
DICTIONARY
  5
106B
102
{ACAD_REACTORS
330
C
102
}
330
C
100
AcDbDictionary
281
     1
  3
CANNOSCALE
350
106C
  3
CTABLESTYLE
350
1070
  3
MSLTSCALE
350
1072
  3
XCLIPFRAME
350
1073
  0
DICTIONARY
  5
1064
102
{ACAD_REACTORS
330
C
102
}
330
C
100
AcDbDictionary
281
     1
  0
DIMASSOC
  5
D51
102
{ACAD_REACTORS
330
D45
102
}
330
D45
100
AcDbDimAssoc
330
D36
 90
        3
 70
     0
 71
     0
  1
AcDbOsnapPointRef
 72
     1
331
AD3
 73
     2
 91
        0
 40
1.0
 10
0.0
 20
0.0
 30
2.000000000000000E+50
 75
     0
  1
AcDbOsnapPointRef
 72
     1
331
AD4
 73
     2
 91
        0
 40
1.0
 10
0.0
 20
0.0
 30
2.000000000000000E+50
 75
     0
  0
DIMASSOC
  5
D69
102
{ACAD_REACTORS
330
D5F
102
}
330
D5F
100
AcDbDimAssoc
330
D52
 90
        3
 70
     0
 71
     0
  1
AcDbOsnapPointRef
 72
     6
331
CEB
 73
     2
 91
        0
 40
0.7600233010324586
 10
0.0
 20
0.0
 30
0.0
332
AC6
 74
     2
 92
        0
 75
     0
  1
AcDbOsnapPointRef
 72
     1
331
CED
 73
     2
 91
        0
 40
1.0
 10
0.0
 20
0.0
 30
2.000000000000000E+50
 75
     0
  0
DIMASSOC
  5
D81
102
{ACAD_REACTORS
330
D77
102
}
330
D77
100
AcDbDimAssoc
330
D6A
 90
        3
 70
     0
 71
     0
  1
AcDbOsnapPointRef
 72
     6
331
CED
 73
     2
 91
        0
 40
0.7599766236775998
 10
0.0
 20
0.0
 30
0.0
332
AC7
 74
     2
 92
        0
 75
     0
  1
AcDbOsnapPointRef
 72
     1
331
CEB
 73
     2
 91
        0
 40
1.0
 10
0.0
 20
0.0
 30
2.000000000000000E+50
 75
     0
  0
DIMASSOC
  5
D99
102
{ACAD_REACTORS
330
D8F
102
}
330
D8F
100
AcDbDimAssoc
330
D82
 90
        1
 70
     0
 71
     0
  1
AcDbOsnapPointRef
 72
     6
331
CEB
 73
     2
 91
        0
 40
0.7600233010324586
 10
0.0
 20
0.0
 30
0.0
332
AC6
 74
     2
 92
        0
 75
     0
  0
DIMASSOC
  5
DB1
102
{ACAD_REACTORS
330
DA7
102
}
330
DA7
100
AcDbDimAssoc
330
D9A
 90
        1
 70
     0
 71
     0
  1
AcDbOsnapPointRef
 72
     6
331
CED
 73
     2
 91
        0
 40
0.7599766236775998
 10
0.0
 20
0.0
 30
0.0
332
AC7
 74
     2
 92
        0
 75
     0
  0
DIMASSOC
  5
E44
102
{ACAD_REACTORS
330
E3E
102
}
330
E3E
100
AcDbDimAssoc
330
E35
 90
        2
 70
     0
 71
     0
  1
AcDbOsnapPointRef
 72
     3
331
AE6
 73
     2
 91
        0
 40
0.0
 10
0.0
 20
0.0
 30
0.0
 75
     0
  0
DIMASSOC
  5
F4A
102
{ACAD_REACTORS
330
F40
102
}
330
F40
100
AcDbDimAssoc
330
F33
 90
        3
 70
     0
 71
     0
  1
AcDbOsnapPointRef
 72
     1
331
AD0
 73
     2
 91
        0
 40
0.9999999999999999
 10
0.0
 20
0.0
 30
2.000000000000000E+50
 75
     0
  1
AcDbOsnapPointRef
 72
     1
331
688
 73
     2
 91
        0
 40
1.0
 10
0.0
 20
0.0
 30
2.000000000000000E+50
 75
     0
  0
DIMASSOC
  5
F62
102
{ACAD_REACTORS
330
F58
102
}
330
F58
100
AcDbDimAssoc
330
F4B
 90
        2
 70
     0
 71
     0
  1
AcDbOsnapPointRef
 72
     1
331
EBA
 73
     2
 91
        1
 40
1.0
 10
0.0
 20
0.0
 30
2.000000000000000E+50
 75
     0
  0
DIMASSOC
  5
F9F
102
{ACAD_REACTORS
330
F95
102
}
330
F95
100
AcDbDimAssoc
330
F88
 90
        1
 70
     0
 71
     0
  1
AcDbOsnapPointRef
 72
     1
331
EB1
 73
     2
 91
        5
 40
1.0
 10
0.0
 20
0.0
 30
2.000000000000000E+50
 75
     0
  0
DIMASSOC
  5
1008
102
{ACAD_REACTORS
330
FFE
102
}
330
FFE
100
AcDbDimAssoc
330
FF1
 90
        3
 70
     0
 71
     0
  1
AcDbOsnapPointRef
 72
    13
331
FBF
 73
     2
 91
        0
 40
0.0
 10
0.0
 20
0.0
 30
2.000000000000000E+50
 75
     0
  1
AcDbOsnapPointRef
 72
     1
331
EBA
 73
     2
 91
        1
 40
1.0
 10
0.0
 20
0.0
 30
2.000000000000000E+50
 75
     0
  0
LAYOUT
  5
24
102
{ACAD_REACTORS
330
1A
102
}
330
1A
100
AcDbPlotSettings
  1

  2
\\SF05\Brother HL-1440 series
  4
A4
  6

 40
6.72041654586792
 41
5.027085304260254
 42
6.889755249023438
 43
5.027069091796875
 44
209.9733276367188
 45
296.9259948730469
 46
-6.82
 47
-5.06
 48
0.0
 49
0.0
140
297.0000000000001
141
210.0
142
1.0
143
1.0
 70
 11956
 72
     1
 73
     1
 74
     4
  7

 75
    16
 76
     1
 77
     2
 78
   300
147
1.0
148
0.0
149
0.0
100
AcDbLayout
  1
Model
 70
     1
 71
     0
 10
0.0
 20
0.0
 11
12.0
 21
9.0
 12
0.0
 22
0.0
 32
0.0
 14
3.582973034960673
 24
26.04695490620344
 34
0.0
 15
271.2698697807768
 25
219.3086054363493
 35
0.0
146
0.0
 13
0.0
 23
0.0
 33
0.0
 16
1.0
 26
0.0
 36
0.0
 17
0.0
 27
1.0
 37
0.0
 76
     0
330
21
331
1023
  0
LAYOUT
  5
1068
102
{ACAD_REACTORS
330
1A
102
}
330
1A
100
AcDbPlotSettings
  1

  2
none_device
  4

  6

 40
0.0
 41
0.0
 42
0.0
 43
0.0
 44
0.0
 45
0.0
 46
0.0
 47
0.0
 48
0.0
 49
0.0
140
0.0
141
0.0
142
1.0
143
1.0
 70
   688
 72
     1
 73
     0
 74
     5
  7

 75
    16
 76
     0
 77
     2
 78
   300
147
1.0
148
0.0
149
0.0
100
AcDbLayout
  1
Sheet1
 70
     1
 71
     1
 10
0.0
 20
0.0
 11
0.0
 21
0.0
 12
0.0
 22
0.0
 32
0.0
 14
0.0
 24
0.0
 34
0.0
 15
0.0
 25
0.0
 35
0.0
146
0.0
 13
0.0
 23
0.0
 33
0.0
 16
1.0
 26
0.0
 36
0.0
 17
0.0
 27
1.0
 37
0.0
 76
     0
330
1067
  0
MATERIAL
  5
1060
102
{ACAD_REACTORS
330
1B
102
}
330
1B
100
AcDbMaterial
  1
ByBlock
 72
     1
 94
      127
  0
MATERIAL
  5
105F
102
{ACAD_REACTORS
330
1B
102
}
330
1B
100
AcDbMaterial
  1
ByLayer
 72
     1
 94
      127
  0
MATERIAL
  5
1061
102
{ACAD_REACTORS
330
1B
102
}
330
1B
100
AcDbMaterial
  1
Global
 72
     1
 94
      127
  0
MLINESTYLE
  5
18
102
{ACAD_REACTORS
330
17
102
}
330
17
100
AcDbMlineStyle
  2
STANDARD
 70
     0
  3

 62
   256
 51
90.0
 52
90.0
 71
     2
 49
0.5
 62
   256
  6
BYLAYER
 49
-0.5
 62
   256
  6
BYLAYER
  0
ACDBPLACEHOLDER
  5
F
102
{ACAD_REACTORS
330
E
102
}
330
E
  0
SCALE
  5
103E
102
{ACAD_REACTORS
330
103D
102
}
330
103D
100
AcDbScale
 70
     0
300
1:1
140
1.0
141
1.0
290
     1
  0
SCALE
  5
103F
102
{ACAD_REACTORS
330
103D
102
}
330
103D
100
AcDbScale
 70
     0
300
1:2
140
1.0
141
2.0
290
     0
  0
SCALE
  5
1040
102
{ACAD_REACTORS
330
103D
102
}
330
103D
100
AcDbScale
 70
     0
300
1:4
140
1.0
141
4.0
290
     0
  0
SCALE
  5
1041
102
{ACAD_REACTORS
330
103D
102
}
330
103D
100
AcDbScale
 70
     0
300
1:5
140
1.0
141
5.0
290
     0
  0
SCALE
  5
1042
102
{ACAD_REACTORS
330
103D
102
}
330
103D
100
AcDbScale
 70
     0
300
1:8
140
1.0
141
8.0
290
     0
  0
SCALE
  5
1043
102
{ACAD_REACTORS
330
103D
102
}
330
103D
100
AcDbScale
 70
     0
300
1:10
140
1.0
141
10.0
290
     0
  0
SCALE
  5
1044
102
{ACAD_REACTORS
330
103D
102
}
330
103D
100
AcDbScale
 70
     0
300
1:16
140
1.0
141
16.0
290
     0
  0
SCALE
  5
1045
102
{ACAD_REACTORS
330
103D
102
}
330
103D
100
AcDbScale
 70
     0
300
1:20
140
1.0
141
20.0
290
     0
  0
SCALE
  5
1046
102
{ACAD_REACTORS
330
103D
102
}
330
103D
100
AcDbScale
 70
     0
300
1:30
140
1.0
141
30.0
290
     0
  0
SCALE
  5
1047
102
{ACAD_REACTORS
330
103D
102
}
330
103D
100
AcDbScale
 70
     0
300
1:40
140
1.0
141
40.0
290
     0
  0
SCALE
  5
1048
102
{ACAD_REACTORS
330
103D
102
}
330
103D
100
AcDbScale
 70
     0
300
1:50
140
1.0
141
50.0
290
     0
  0
SCALE
  5
1049
102
{ACAD_REACTORS
330
103D
102
}
330
103D
100
AcDbScale
 70
     0
300
1:100
140
1.0
141
100.0
290
     0
  0
SCALE
  5
104A
102
{ACAD_REACTORS
330
103D
102
}
330
103D
100
AcDbScale
 70
     0
300
2:1
140
2.0
141
1.0
290
     0
  0
SCALE
  5
104B
102
{ACAD_REACTORS
330
103D
102
}
330
103D
100
AcDbScale
 70
     0
300
4:1
140
4.0
141
1.0
290
     0
  0
SCALE
  5
104C
102
{ACAD_REACTORS
330
103D
102
}
330
103D
100
AcDbScale
 70
     0
300
8:1
140
8.0
141
1.0
290
     0
  0
SCALE
  5
104D
102
{ACAD_REACTORS
330
103D
102
}
330
103D
100
AcDbScale
 70
     0
300
10:1
140
10.0
141
1.0
290
     0
  0
SCALE
  5
104E
102
{ACAD_REACTORS
330
103D
102
}
330
103D
100
AcDbScale
 70
     0
300
100:1
140
100.0
141
1.0
290
     0
  0
SCALE
  5
104F
102
{ACAD_REACTORS
330
103D
102
}
330
103D
100
AcDbScale
 70
     0
300
1/128" = 1'-0"
140
0.0078125
141
12.0
290
     0
  0
SCALE
  5
1050
102
{ACAD_REACTORS
330
103D
102
}
330
103D
100
AcDbScale
 70
     0
300
1/64" = 1'-0"
140
0.015625
141
12.0
290
     0
  0
SCALE
  5
1051
102
{ACAD_REACTORS
330
103D
102
}
330
103D
100
AcDbScale
 70
     0
300
1/32" = 1'-0"
140
0.03125
141
12.0
290
     0
  0
SCALE
  5
1052
102
{ACAD_REACTORS
330
103D
102
}
330
103D
100
AcDbScale
 70
     0
300
1/16" = 1'-0"
140
0.0625
141
12.0
290
     0
  0
SCALE
  5
1053
102
{ACAD_REACTORS
330
103D
102
}
330
103D
100
AcDbScale
 70
     0
300
3/32" = 1'-0"
140
0.09375
141
12.0
290
     0
  0
SCALE
  5
1054
102
{ACAD_REACTORS
330
103D
102
}
330
103D
100
AcDbScale
 70
     0
300
1/8" = 1'-0"
140
0.125
141
12.0
290
     0
  0
SCALE
  5
1055
102
{ACAD_REACTORS
330
103D
102
}
330
103D
100
AcDbScale
 70
     0
300
3/16" = 1'-0"
140
0.1875
141
12.0
290
     0
  0
SCALE
  5
1056
102
{ACAD_REACTORS
330
103D
102
}
330
103D
100
AcDbScale
 70
     0
300
1/4" = 1'-0"
140
0.25
141
12.0
290
     0
  0
SCALE
  5
1057
102
{ACAD_REACTORS
330
103D
102
}
330
103D
100
AcDbScale
 70
     0
300
3/8" = 1'-0"
140
0.375
141
12.0
290
     0
  0
SCALE
  5
1058
102
{ACAD_REACTORS
330
103D
102
}
330
103D
100
AcDbScale
 70
     0
300
1/2" = 1'-0"
140
0.5
141
12.0
290
     0
  0
SCALE
  5
1059
102
{ACAD_REACTORS
330
103D
102
}
330
103D
100
AcDbScale
 70
     0
300
3/4" = 1'-0"
140
0.75
141
12.0
290
     0
  0
SCALE
  5
105A
102
{ACAD_REACTORS
330
103D
102
}
330
103D
100
AcDbScale
 70
     0
300
1" = 1'-0"
140
1.0
141
12.0
290
     0
  0
SCALE
  5
105B
102
{ACAD_REACTORS
330
103D
102
}
330
103D
100
AcDbScale
 70
     0
300
1-1/2" = 1'-0"
140
1.5
141
12.0
290
     0
  0
SCALE
  5
105C
102
{ACAD_REACTORS
330
103D
102
}
330
103D
100
AcDbScale
 70
     0
300
3" = 1'-0"
140
3.0
141
12.0
290
     0
  0
SCALE
  5
105D
102
{ACAD_REACTORS
330
103D
102
}
330
103D
100
AcDbScale
 70
     0
300
6" = 1'-0"
140
6.0
141
12.0
290
     0
  0
SCALE
  5
105E
102
{ACAD_REACTORS
330
103D
102
}
330
103D
100
AcDbScale
 70
     0
300
1'-0" = 1'-0"
140
12.0
141
12.0
290
     0
  0
TABLESTYLE
  5
1063
102
{ACAD_REACTORS
330
1062
102
}
102
{ACAD_XDICTIONARY
360
10A1
102
}
330
1062
100
AcDbTableStyle
  3
Standard
 70
     0
 71
     0
 40
0.06
 41
0.06
280
     0
281
     0
  7
Standard
140
4.5
170
     2
 62
     0
 63
   257
283
     0
 90
        4
 91
        0
  1

274
    -2
284
     1
 64
     0
275
    -2
285
     1
 65
     0
276
    -2
286
     1
 66
     0
277
    -2
287
     1
 67
     0
278
    -2
288
     1
 68
     0
279
    -2
289
     1
 69
     0
  7
Standard
140
6.0
170
     5
 62
     0
 63
   257
283
     0
 90
        4
 91
        0
  1

274
    -2
284
     1
 64
     0
275
    -2
285
     1
 65
     0
276
    -2
286
     1
 66
     0
277
    -2
287
     1
 67
     0
278
    -2
288
     1
 68
     0
279
    -2
289
     1
 69
     0
  7
Standard
140
4.5
170
     5
 62
     0
 63
   257
283
     0
 90
        4
 91
        0
  1

274
    -2
284
     1
 64
     0
275
    -2
285
     1
 65
     0
276
    -2
286
     1
 66
     0
277
    -2
287
     1
 67
     0
278
    -2
288
     1
 68
     0
279
    -2
289
     1
 69
     0
  0
VISUALSTYLE
  5
1029
102
{ACAD_REACTORS
330
1024
102
}
330
1024
100
AcDbVisualStyle
  2
2dWireframe
 70
     4
177
     3
291
     0
 70
    58
 90
        0
176
     1
 90
        2
176
     1
 90
        0
176
     1
 90
        0
176
     1
 40
0.6
176
     1
 40
30.0
176
     1
 62
     7
420
 16777215
176
     1
 90
        1
176
     1
 90
        4
176
     1
 62
     7
176
     1
 62
   257
176
     1
 90
        1
176
     1
 90
        1
176
     1
 40
1.0
176
     1
 90
        0
176
     1
 62
   257
176
     1
 40
1.0
176
     1
 90
        1
176
     1
 90
        6
176
     1
 90
        2
176
     1
 62
     7
176
     1
 90
        5
176
     1
 90
        0
176
     1
 90
        0
176
     1
290
     0
176
     1
 90
        1
176
     1
 40
0.0
176
     1
 90
        0
176
     1
290
     1
176
     1
290
     1
176
     1
290
     0
176
     1
290
     0
176
     1
290
     0
176
     1
290
     0
176
     1
290
     0
176
     1
290
     0
176
     1
290
     0
176
     1
 90
       50
176
     1
 40
0.0
176
     1
 40
1.0
176
     1
 90
        0
176
     1
 62
    18
420
        0
176
     1
 90
       50
176
     1
 90
        3
176
     1
 62
     5
420
      255
176
     1
290
     0
176
     1
 90
       50
176
     1
 90
       50
176
     1
 90
       50
176
     1
290
     0
176
     1
 90
       50
176
     1
 62
   256
176
     0
 40
1.0
176
     0
 90
        2
176
     1
  1
strokes_ogs.tif
176
     1
290
     0
176
     1
 40
1.0
176
     1
 40
1.0
176
     1
  0
VISUALSTYLE
  5
102C
102
{ACAD_REACTORS
330
1024
102
}
330
1024
100
AcDbVisualStyle
  2
Basic
 70
     7
177
     3
291
     1
 70
    58
 90
        1
176
     1
 90
        0
176
     1
 90
        1
176
     1
 90
        0
176
     1
 40
0.6
176
     1
 40
30.0
176
     1
 62
     7
420
 16777215
176
     1
 90
        0
176
     1
 90
        4
176
     1
 62
     7
176
     1
 62
   257
176
     1
 90
        1
176
     1
 90
        1
176
     1
 40
1.0
176
     1
 90
        8
176
     1
 62
     7
176
     1
 40
1.0
176
     1
 90
        1
176
     1
 90
        6
176
     1
 90
        2
176
     1
 62
     7
176
     1
 90
        5
176
     1
 90
        0
176
     1
 90
        0
176
     1
290
     0
176
     1
 90
        1
176
     1
 40
0.0
176
     1
 90
        0
176
     1
290
     0
176
     1
290
     1
176
     1
290
     1
176
     1
290
     0
176
     1
290
     0
176
     1
290
     0
176
     1
290
     0
176
     1
290
     0
176
     1
290
     0
176
     1
 90
       50
176
     1
 40
0.0
176
     1
 40
1.0
176
     1
 90
        0
176
     1
 62
    18
420
        0
176
     1
 90
       50
176
     1
 90
        3
176
     1
 62
     5
420
      255
176
     1
290
     0
176
     1
 90
       50
176
     1
 90
       50
176
     1
 90
       50
176
     1
290
     0
176
     1
 90
       50
176
     1
 62
   256
176
     0
 40
1.0
176
     0
 90
        2
176
     1
  1
strokes_ogs.tif
176
     1
290
     0
176
     1
 40
1.0
176
     1
 40
1.0
176
     1
  0
VISUALSTYLE
  5
1030
102
{ACAD_REACTORS
330
1024
102
}
330
1024
100
AcDbVisualStyle
  2
Brighten
 70
    12
177
     3
291
     1
 70
    58
 90
        2
176
     1
 90
        2
176
     1
 90
        0
176
     1
 90
        0
176
     1
 40
0.6
176
     1
 40
30.0
176
     1
 62
     7
420
 16777215
176
     1
 90
        1
176
     1
 90
        4
176
     1
 62
     7
176
     1
 62
   257
176
     1
 90
        1
176
     1
 90
        1
176
     1
 40
1.0
176
     1
 90
        8
176
     1
 62
     7
176
     1
 40
1.0
176
     1
 90
        1
176
     1
 90
        6
176
     1
 90
        2
176
     1
 62
     7
176
     1
 90
        5
176
     1
 90
        0
176
     1
 90
        0
176
     1
290
     0
176
     1
 90
        1
176
     1
 40
50.0
176
     1
 90
        0
176
     1
290
     0
176
     1
290
     1
176
     1
290
     1
176
     1
290
     0
176
     1
290
     0
176
     1
290
     0
176
     1
290
     0
176
     1
290
     0
176
     1
290
     0
176
     1
 90
       50
176
     1
 40
0.0
176
     1
 40
1.0
176
     1
 90
        0
176
     1
 62
    18
420
        0
176
     1
 90
       50
176
     1
 90
        3
176
     1
 62
     5
420
      255
176
     1
290
     0
176
     1
 90
       50
176
     1
 90
       50
176
     1
 90
       50
176
     1
290
     0
176
     1
 90
       50
176
     1
 62
   256
176
     0
 40
1.0
176
     0
 90
        2
176
     1
  1
strokes_ogs.tif
176
     1
290
     0
176
     1
 40
1.0
176
     1
 40
1.0
176
     1
  0
VISUALSTYLE
  5
1034
102
{ACAD_REACTORS
330
1024
102
}
330
1024
100
AcDbVisualStyle
  2
ColorChange
 70
    16
177
     3
291
     1
 70
    58
 90
        2
176
     1
 90
        2
176
     1
 90
        3
176
     1
 90
        0
176
     1
 40
0.6
176
     1
 40
30.0
176
     1
 62
     8
420
  8421504
176
     1
 90
        1
176
     1
 90
        4
176
     1
 62
     7
176
     1
 62
   257
176
     1
 90
        1
176
     1
 90
        1
176
     1
 40
1.0
176
     1
 90
        8
176
     1
 62
     8
420
  8421504
176
     1
 40
1.0
176
     1
 90
        1
176
     1
 90
        6
176
     1
 90
        2
176
     1
 62
     7
176
     1
 90
        5
176
     1
 90
        0
176
     1
 90
        0
176
     1
290
     0
176
     1
 90
        1
176
     1
 40
0.0
176
     1
 90
        0
176
     1
290
     0
176
     1
290
     1
176
     1
290
     1
176
     1
290
     0
176
     1
290
     0
176
     1
290
     0
176
     1
290
     0
176
     1
290
     0
176
     1
290
     0
176
     1
 90
       50
176
     1
 40
0.0
176
     1
 40
1.0
176
     1
 90
        0
176
     1
 62
    18
420
        0
176
     1
 90
       50
176
     1
 90
        3
176
     1
 62
     5
420
      255
176
     1
290
     0
176
     1
 90
       50
176
     1
 90
       50
176
     1
 90
       50
176
     1
290
     0
176
     1
 90
       50
176
     1
 62
   256
176
     0
 40
1.0
176
     0
 90
        2
176
     1
  1
strokes_ogs.tif
176
     1
290
     0
176
     1
 40
1.0
176
     1
 40
1.0
176
     1
  0
VISUALSTYLE
  5
102E
102
{ACAD_REACTORS
330
1024
102
}
330
1024
100
AcDbVisualStyle
  2
Conceptual
 70
     9
177
     3
291
     0
 70
    58
 90
        3
176
     1
 90
        2
176
     1
 90
        0
176
     1
 90
        0
176
     1
 40
0.6
176
     1
 40
30.0
176
     1
 62
     7
420
 16777215
176
     1
 90
        2
176
     1
 90
        2
176
     1
 62
     7
176
     1
 62
   257
176
     1
 90
        1
176
     1
 90
        1
176
     1
 40
179.0
176
     1
 90
        8
176
     1
 62
     7
176
     1
 40
1.0
176
     1
 90
        1
176
     1
 90
        6
176
     1
 90
        2
176
     1
 62
     7
176
     1
 90
        3
176
     1
 90
        0
176
     1
 90
        0
176
     1
290
     0
176
     1
 90
        1
176
     1
 40
0.0
176
     1
 90
        0
176
     1
290
     0
176
     1
290
     1
176
     1
290
     1
176
     1
290
     0
176
     1
290
     0
176
     1
290
     0
176
     1
290
     0
176
     1
290
     0
176
     1
290
     0
176
     1
 90
       50
176
     1
 40
0.0
176
     1
 40
1.0
176
     1
 90
        0
176
     1
 62
    18
420
        0
176
     1
 90
       50
176
     1
 90
        3
176
     1
 62
     5
420
      255
176
     1
290
     0
176
     1
 90
       50
176
     1
 90
       50
176
     1
 90
       50
176
     1
290
     0
176
     1
 90
       50
176
     1
 62
   256
176
     0
 40
1.0
176
     0
 90
        2
176
     1
  1
strokes_ogs.tif
176
     1
290
     0
176
     1
 40
1.0
176
     1
 40
1.0
176
     1
  0
VISUALSTYLE
  5
102F
102
{ACAD_REACTORS
330
1024
102
}
330
1024
100
AcDbVisualStyle
  2
Dim
 70
    11
177
     3
291
     1
 70
    58
 90
        2
176
     1
 90
        2
176
     1
 90
        0
176
     1
 90
        0
176
     1
 40
0.6
176
     1
 40
30.0
176
     1
 62
     7
420
 16777215
176
     1
 90
        1
176
     1
 90
        4
176
     1
 62
     7
176
     1
 62
   257
176
     1
 90
        1
176
     1
 90
        1
176
     1
 40
1.0
176
     1
 90
        8
176
     1
 62
     7
176
     1
 40
1.0
176
     1
 90
        1
176
     1
 90
        6
176
     1
 90
        2
176
     1
 62
     7
176
     1
 90
        5
176
     1
 90
        0
176
     1
 90
        0
176
     1
290
     0
176
     1
 90
        1
176
     1
 40
-50.0
176
     1
 90
        0
176
     1
290
     0
176
     1
290
     1
176
     1
290
     1
176
     1
290
     0
176
     1
290
     0
176
     1
290
     0
176
     1
290
     0
176
     1
290
     0
176
     1
290
     0
176
     1
 90
       50
176
     1
 40
0.0
176
     1
 40
1.0
176
     1
 90
        0
176
     1
 62
    18
420
        0
176
     1
 90
       50
176
     1
 90
        3
176
     1
 62
     5
420
      255
176
     1
290
     0
176
     1
 90
       50
176
     1
 90
       50
176
     1
 90
       50
176
     1
290
     0
176
     1
 90
       50
176
     1
 62
   256
176
     0
 40
1.0
176
     0
 90
        2
176
     1
  1
strokes_ogs.tif
176
     1
290
     0
176
     1
 40
1.0
176
     1
 40
1.0
176
     1
  0
VISUALSTYLE
  5
1037
102
{ACAD_REACTORS
330
1024
102
}
330
1024
100
AcDbVisualStyle
  2
EdgeColorOff
 70
    22
177
     3
291
     1
 70
    58
 90
        2
176
     0
 90
        2
176
     0
 90
        0
176
     0
 90
        0
176
     0
 40
0.6
176
     0
 40
30.0
176
     0
 62
     7
420
 16777215
176
     0
 90
        1
176
     0
 90
        4
176
     0
 62
     7
176
     0
 62
   257
176
     0
 90
        1
176
     0
 90
        1
176
     0
 40
1.0
176
     0
 90
        8
176
     2
 62
     7
176
     0
 40
1.0
176
     0
 90
        1
176
     0
 90
        6
176
     0
 90
        2
176
     0
 62
     7
176
     0
 90
        5
176
     0
 90
        0
176
     0
 90
        0
176
     0
290
     0
176
     0
 90
        1
176
     0
 40
0.0
176
     0
 90
        0
176
     0
290
     0
176
     0
290
     1
176
     0
290
     1
176
     0
290
     0
176
     0
290
     0
176
     0
290
     0
176
     0
290
     0
176
     0
290
     0
176
     0
290
     0
176
     0
 90
       50
176
     0
 40
0.0
176
     0
 40
1.0
176
     0
 90
        0
176
     0
 62
    18
420
        0
176
     0
 90
       50
176
     0
 90
        3
176
     0
 62
     5
420
      255
176
     0
290
     0
176
     0
 90
       50
176
     0
 90
       50
176
     0
 90
       50
176
     0
290
     0
176
     0
 90
       50
176
     0
 62
   256
176
     0
 40
1.0
176
     0
 90
        2
176
     0
  1
strokes_ogs.tif
176
     0
290
     0
176
     0
 40
1.0
176
     0
 40
1.0
176
     0
  0
VISUALSTYLE
  5
1033
102
{ACAD_REACTORS
330
1024
102
}
330
1024
100
AcDbVisualStyle
  2
Facepattern
 70
    15
177
     3
291
     1
 70
    58
 90
        2
176
     1
 90
        2
176
     1
 90
        0
176
     1
 90
        0
176
     1
 40
0.6
176
     1
 40
30.0
176
     1
 62
     7
420
 16777215
176
     1
 90
        1
176
     1
 90
        4
176
     1
 62
     7
176
     1
 62
   257
176
     1
 90
        1
176
     1
 90
        1
176
     1
 40
1.0
176
     1
 90
        8
176
     1
 62
     7
176
     1
 40
1.0
176
     1
 90
        1
176
     1
 90
        6
176
     1
 90
        2
176
     1
 62
     7
176
     1
 90
        5
176
     1
 90
        0
176
     1
 90
        0
176
     1
290
     0
176
     1
 90
        1
176
     1
 40
0.0
176
     1
 90
        0
176
     1
290
     0
176
     1
290
     1
176
     1
290
     1
176
     1
290
     0
176
     1
290
     0
176
     1
290
     0
176
     1
290
     0
176
     1
290
     0
176
     1
290
     0
176
     1
 90
       50
176
     1
 40
0.0
176
     1
 40
1.0
176
     1
 90
        0
176
     1
 62
    18
420
        0
176
     1
 90
       50
176
     1
 90
        3
176
     1
 62
     5
420
      255
176
     1
290
     0
176
     1
 90
       50
176
     1
 90
       50
176
     1
 90
       50
176
     1
290
     0
176
     1
 90
       50
176
     1
 62
   256
176
     0
 40
1.0
176
     0
 90
        2
176
     1
  1
strokes_ogs.tif
176
     1
290
     0
176
     1
 40
1.0
176
     1
 40
1.0
176
     1
  0
VISUALSTYLE
  5
1025
102
{ACAD_REACTORS
330
1024
102
}
330
1024
100
AcDbVisualStyle
  2
Flat
 70
     0
177
     3
291
     1
 70
    58
 90
        2
176
     1
 90
        1
176
     1
 90
        1
176
     1
 90
        2
176
     1
 40
0.6
176
     1
 40
30.0
176
     1
 62
     7
420
 16777215
176
     1
 90
        0
176
     1
 90
        0
176
     1
 62
     7
176
     1
 62
   257
176
     1
 90
        1
176
     1
 90
        1
176
     1
 40
1.0
176
     1
 90
        8
176
     1
 62
     7
176
     1
 40
1.0
176
     1
 90
        1
176
     1
 90
        6
176
     1
 90
        2
176
     1
 62
     7
176
     1
 90
        5
176
     1
 90
        0
176
     1
 90
        0
176
     1
290
     0
176
     1
 90
       13
176
     1
 40
0.0
176
     1
 90
        0
176
     1
290
     0
176
     1
290
     1
176
     1
290
     1
176
     1
290
     0
176
     1
290
     0
176
     1
290
     0
176
     1
290
     0
176
     1
290
     0
176
     1
290
     0
176
     1
 90
       50
176
     1
 40
0.0
176
     1
 40
1.0
176
     1
 90
        0
176
     1
 62
    18
420
        0
176
     1
 90
       50
176
     1
 90
        3
176
     1
 62
     5
420
      255
176
     1
290
     0
176
     1
 90
       50
176
     1
 90
       50
176
     1
 90
       50
176
     1
290
     0
176
     1
 90
       50
176
     1
 62
   256
176
     0
 40
1.0
176
     0
 90
        2
176
     1
  1
strokes_ogs.tif
176
     1
290
     0
176
     1
 40
1.0
176
     1
 40
1.0
176
     1
  0
VISUALSTYLE
  5
1026
102
{ACAD_REACTORS
330
1024
102
}
330
1024
100
AcDbVisualStyle
  2
FlatWithEdges
 70
     1
177
     3
291
     1
 70
    58
 90
        2
176
     1
 90
        1
176
     1
 90
        1
176
     1
 90
        2
176
     1
 40
0.6
176
     1
 40
30.0
176
     1
 62
     7
420
 16777215
176
     1
 90
        1
176
     1
 90
        0
176
     1
 62
     7
176
     1
 62
   257
176
     1
 90
        1
176
     1
 90
        1
176
     1
 40
1.0
176
     1
 90
        0
176
     1
 62
   257
176
     1
 40
1.0
176
     1
 90
        1
176
     1
 90
        6
176
     1
 90
        2
176
     1
 62
     7
176
     1
 90
        5
176
     1
 90
        0
176
     1
 90
        0
176
     1
290
     0
176
     1
 90
       13
176
     1
 40
0.0
176
     1
 90
        0
176
     1
290
     0
176
     1
290
     1
176
     1
290
     1
176
     1
290
     0
176
     1
290
     0
176
     1
290
     0
176
     1
290
     0
176
     1
290
     0
176
     1
290
     0
176
     1
 90
       50
176
     1
 40
0.0
176
     1
 40
1.0
176
     1
 90
        0
176
     1
 62
    18
420
        0
176
     1
 90
       50
176
     1
 90
        3
176
     1
 62
     5
420
      255
176
     1
290
     0
176
     1
 90
       50
176
     1
 90
       50
176
     1
 90
       50
176
     1
290
     0
176
     1
 90
       50
176
     1
 62
   256
176
     0
 40
1.0
176
     0
 90
        2
176
     1
  1
strokes_ogs.tif
176
     1
290
     0
176
     1
 40
1.0
176
     1
 40
1.0
176
     1
  0
VISUALSTYLE
  5
1027
102
{ACAD_REACTORS
330
1024
102
}
330
1024
100
AcDbVisualStyle
  2
Gouraud
 70
     2
177
     3
291
     1
 70
    58
 90
        2
176
     1
 90
        2
176
     1
 90
        1
176
     1
 90
        2
176
     1
 40
0.6
176
     1
 40
30.0
176
     1
 62
     7
420
 16777215
176
     1
 90
        0
176
     1
 90
        0
176
     1
 62
     7
176
     1
 62
   257
176
     1
 90
        1
176
     1
 90
        1
176
     1
 40
1.0
176
     1
 90
        0
176
     1
 62
     7
176
     1
 40
1.0
176
     1
 90
        1
176
     1
 90
        6
176
     1
 90
        2
176
     1
 62
     7
176
     1
 90
        5
176
     1
 90
        0
176
     1
 90
        0
176
     1
290
     0
176
     1
 90
       13
176
     1
 40
0.0
176
     1
 90
        0
176
     1
290
     0
176
     1
290
     1
176
     1
290
     1
176
     1
290
     0
176
     1
290
     0
176
     1
290
     0
176
     1
290
     0
176
     1
290
     0
176
     1
290
     0
176
     1
 90
       50
176
     1
 40
0.0
176
     1
 40
1.0
176
     1
 90
        0
176
     1
 62
    18
420
        0
176
     1
 90
       50
176
     1
 90
        3
176
     1
 62
     5
420
      255
176
     1
290
     0
176
     1
 90
       50
176
     1
 90
       50
176
     1
 90
       50
176
     1
290
     0
176
     1
 90
       50
176
     1
 62
   256
176
     0
 40
1.0
176
     0
 90
        2
176
     1
  1
strokes_ogs.tif
176
     1
290
     0
176
     1
 40
1.0
176
     1
 40
1.0
176
     1
  0
VISUALSTYLE
  5
1028
102
{ACAD_REACTORS
330
1024
102
}
330
1024
100
AcDbVisualStyle
  2
GouraudWithEdges
 70
     3
177
     3
291
     1
 70
    58
 90
        2
176
     1
 90
        2
176
     1
 90
        1
176
     1
 90
        2
176
     1
 40
0.6
176
     1
 40
30.0
176
     1
 62
     7
420
 16777215
176
     1
 90
        1
176
     1
 90
        0
176
     1
 62
     7
176
     1
 62
   257
176
     1
 90
        1
176
     1
 90
        1
176
     1
 40
1.0
176
     1
 90
        0
176
     1
 62
   257
176
     1
 40
1.0
176
     1
 90
        1
176
     1
 90
        6
176
     1
 90
        2
176
     1
 62
     7
176
     1
 90
        5
176
     1
 90
        0
176
     1
 90
        0
176
     1
290
     0
176
     1
 90
       13
176
     1
 40
0.0
176
     1
 90
        0
176
     1
290
     0
176
     1
290
     1
176
     1
290
     1
176
     1
290
     0
176
     1
290
     0
176
     1
290
     0
176
     1
290
     0
176
     1
290
     0
176
     1
290
     0
176
     1
 90
       50
176
     1
 40
0.0
176
     1
 40
1.0
176
     1
 90
        0
176
     1
 62
    18
420
        0
176
     1
 90
       50
176
     1
 90
        3
176
     1
 62
     5
420
      255
176
     1
290
     0
176
     1
 90
       50
176
     1
 90
       50
176
     1
 90
       50
176
     1
290
     0
176
     1
 90
       50
176
     1
 62
   256
176
     0
 40
1.0
176
     0
 90
        2
176
     1
  1
strokes_ogs.tif
176
     1
290
     0
176
     1
 40
1.0
176
     1
 40
1.0
176
     1
  0
VISUALSTYLE
  5
102B
102
{ACAD_REACTORS
330
1024
102
}
330
1024
100
AcDbVisualStyle
  2
Hidden
 70
     6
177
     3
291
     0
 70
    58
 90
        1
176
     1
 90
        2
176
     1
 90
        2
176
     1
 90
        0
176
     1
 40
0.6
176
     1
 40
30.0
176
     1
 62
     7
420
 16777215
176
     1
 90
        2
176
     1
 90
        2
176
     1
 62
     7
176
     1
 62
   257
176
     1
 90
        2
176
     1
 90
        1
176
     1
 40
40.0
176
     1
 90
        0
176
     1
 62
   257
176
     1
 40
1.0
176
     1
 90
        1
176
     1
 90
        6
176
     1
 90
        2
176
     1
 62
     7
176
     1
 90
        3
176
     1
 90
        0
176
     1
 90
        0
176
     1
290
     0
176
     1
 90
        1
176
     1
 40
0.0
176
     1
 90
        0
176
     1
290
     0
176
     1
290
     1
176
     1
290
     1
176
     1
290
     0
176
     1
290
     0
176
     1
290
     0
176
     1
290
     0
176
     1
290
     0
176
     1
290
     0
176
     1
 90
       50
176
     1
 40
0.0
176
     1
 40
1.0
176
     1
 90
        0
176
     1
 62
    18
420
        0
176
     1
 90
       50
176
     1
 90
        3
176
     1
 62
     5
420
      255
176
     1
290
     0
176
     1
 90
       50
176
     1
 90
       50
176
     1
 90
       50
176
     1
290
     0
176
     1
 90
       50
176
     1
 62
   256
176
     0
 40
1.0
176
     0
 90
        2
176
     1
  1
strokes_ogs.tif
176
     1
290
     0
176
     1
 40
1.0
176
     1
 40
1.0
176
     1
  0
VISUALSTYLE
  5
1035
102
{ACAD_REACTORS
330
1024
102
}
330
1024
100
AcDbVisualStyle
  2
JitterOff
 70
    20
177
     3
291
     1
 70
    58
 90
        2
176
     0
 90
        2
176
     0
 90
        0
176
     0
 90
        0
176
     0
 40
0.6
176
     0
 40
30.0
176
     0
 62
     7
420
 16777215
176
     0
 90
        1
176
     0
 90
        4
176
     0
 62
     7
176
     0
 62
   257
176
     0
 90
        1
176
     0
 90
        1
176
     0
 40
1.0
176
     0
 90
       10
176
     2
 62
     7
176
     0
 40
1.0
176
     0
 90
        1
176
     0
 90
        6
176
     0
 90
        2
176
     0
 62
     7
176
     0
 90
        5
176
     0
 90
        0
176
     0
 90
        0
176
     0
290
     0
176
     0
 90
        1
176
     0
 40
0.0
176
     0
 90
        0
176
     0
290
     0
176
     0
290
     1
176
     0
290
     1
176
     0
290
     0
176
     0
290
     0
176
     0
290
     0
176
     0
290
     0
176
     0
290
     0
176
     0
290
     0
176
     0
 90
       50
176
     0
 40
0.0
176
     0
 40
1.0
176
     0
 90
        0
176
     0
 62
    18
420
        0
176
     0
 90
       50
176
     0
 90
        3
176
     0
 62
     5
420
      255
176
     0
290
     0
176
     0
 90
       50
176
     0
 90
       50
176
     0
 90
       50
176
     0
290
     0
176
     0
 90
       50
176
     0
 62
   256
176
     0
 40
1.0
176
     0
 90
        2
176
     0
  1
strokes_ogs.tif
176
     0
290
     0
176
     0
 40
1.0
176
     0
 40
1.0
176
     0
  0
VISUALSTYLE
  5
1032
102
{ACAD_REACTORS
330
1024
102
}
330
1024
100
AcDbVisualStyle
  2
Linepattern
 70
    14
177
     3
291
     1
 70
    58
 90
        2
176
     1
 90
        2
176
     1
 90
        0
176
     1
 90
        0
176
     1
 40
0.6
176
     1
 40
30.0
176
     1
 62
     7
420
 16777215
176
     1
 90
        1
176
     1
 90
        4
176
     1
 62
     7
176
     1
 62
   257
176
     1
 90
        7
176
     1
 90
        7
176
     1
 40
1.0
176
     1
 90
        8
176
     1
 62
     7
176
     1
 40
1.0
176
     1
 90
        1
176
     1
 90
        6
176
     1
 90
        2
176
     1
 62
     7
176
     1
 90
        5
176
     1
 90
        0
176
     1
 90
        0
176
     1
290
     0
176
     1
 90
        1
176
     1
 40
0.0
176
     1
 90
        0
176
     1
290
     0
176
     1
290
     1
176
     1
290
     1
176
     1
290
     0
176
     1
290
     0
176
     1
290
     0
176
     1
290
     0
176
     1
290
     0
176
     1
290
     0
176
     1
 90
       50
176
     1
 40
0.0
176
     1
 40
1.0
176
     1
 90
        0
176
     1
 62
    18
420
        0
176
     1
 90
       50
176
     1
 90
        3
176
     1
 62
     5
420
      255
176
     1
290
     0
176
     1
 90
       50
176
     1
 90
       50
176
     1
 90
       50
176
     1
290
     0
176
     1
 90
       50
176
     1
 62
   256
176
     0
 40
1.0
176
     0
 90
        2
176
     1
  1
strokes_ogs.tif
176
     1
290
     0
176
     1
 40
1.0
176
     1
 40
1.0
176
     1
  0
VISUALSTYLE
  5
1036
102
{ACAD_REACTORS
330
1024
102
}
330
1024
100
AcDbVisualStyle
  2
OverhangOff
 70
    21
177
     3
291
     1
 70
    58
 90
        2
176
     0
 90
        2
176
     0
 90
        0
176
     0
 90
        0
176
     0
 40
0.6
176
     0
 40
30.0
176
     0
 62
     7
420
 16777215
176
     0
 90
        1
176
     0
 90
        4
176
     0
 62
     7
176
     0
 62
   257
176
     0
 90
        1
176
     0
 90
        1
176
     0
 40
1.0
176
     0
 90
        9
176
     2
 62
     7
176
     0
 40
1.0
176
     0
 90
        1
176
     0
 90
        6
176
     0
 90
        2
176
     0
 62
     7
176
     0
 90
        5
176
     0
 90
        0
176
     0
 90
        0
176
     0
290
     0
176
     0
 90
        1
176
     0
 40
0.0
176
     0
 90
        0
176
     0
290
     0
176
     0
290
     1
176
     0
290
     1
176
     0
290
     0
176
     0
290
     0
176
     0
290
     0
176
     0
290
     0
176
     0
290
     0
176
     0
290
     0
176
     0
 90
       50
176
     0
 40
0.0
176
     0
 40
1.0
176
     0
 90
        0
176
     0
 62
    18
420
        0
176
     0
 90
       50
176
     0
 90
        3
176
     0
 62
     5
420
      255
176
     0
290
     0
176
     0
 90
       50
176
     0
 90
       50
176
     0
 90
       50
176
     0
290
     0
176
     0
 90
       50
176
     0
 62
   256
176
     0
 40
1.0
176
     0
 90
        2
176
     0
  1
strokes_ogs.tif
176
     0
290
     0
176
     0
 40
1.0
176
     0
 40
1.0
176
     0
  0
VISUALSTYLE
  5
102D
102
{ACAD_REACTORS
330
1024
102
}
330
1024
100
AcDbVisualStyle
  2
Realistic
 70
     8
177
     3
291
     0
 70
    58
 90
        2
176
     1
 90
        3
176
     1
 90
        0
176
     1
 90
        2
176
     1
 40
0.6
176
     1
 40
30.0
176
     1
 62
     7
420
 16777215
176
     1
 90
        0
176
     1
 90
        0
176
     1
 62
     7
176
     1
 62
   257
176
     1
 90
        1
176
     1
 90
        1
176
     1
 40
1.0
176
     1
 90
        8
176
     1
 62
   257
176
     1
 40
1.0
176
     1
 90
        1
176
     1
 90
        6
176
     1
 90
        2
176
     1
 62
     7
176
     1
 90
        3
176
     1
 90
        0
176
     1
 90
        0
176
     1
290
     0
176
     1
 90
       13
176
     1
 40
0.0
176
     1
 90
        0
176
     1
290
     0
176
     1
290
     1
176
     1
290
     1
176
     1
290
     0
176
     1
290
     0
176
     1
290
     0
176
     1
290
     0
176
     1
290
     0
176
     1
290
     0
176
     1
 90
       50
176
     1
 40
0.0
176
     1
 40
1.0
176
     1
 90
        0
176
     1
 62
    18
420
        0
176
     1
 90
       50
176
     1
 90
        3
176
     1
 62
     5
420
      255
176
     1
290
     0
176
     1
 90
       50
176
     1
 90
       50
176
     1
 90
       50
176
     1
290
     0
176
     1
 90
       50
176
     1
 62
   256
176
     0
 40
1.0
176
     0
 90
        2
176
     1
  1
strokes_ogs.tif
176
     1
290
     0
176
     1
 40
1.0
176
     1
 40
1.0
176
     1
  0
VISUALSTYLE
  5
103C
102
{ACAD_REACTORS
330
1024
102
}
330
1024
100
AcDbVisualStyle
  2
Shaded
 70
    27
177
     3
291
     0
 70
    58
 90
        2
176
     1
 90
        2
176
     1
 90
        1
176
     1
 90
        2
176
     1
 40
0.6
176
     1
 40
30.0
176
     1
 62
     7
420
 16777215
176
     1
 90
        0
176
     1
 90
        4
176
     1
 62
     7
176
     1
 62
   257
176
     1
 90
        1
176
     1
 90
        1
176
     1
 40
1.0
176
     1
 90
        8
176
     1
 62
   257
176
     1
 40
1.0
176
     1
 90
        1
176
     1
 90
        6
176
     1
 90
        2
176
     1
 62
     8
420
  7895160
176
     1
 90
        3
176
     1
 90
        0
176
     1
 90
        0
176
     1
290
     0
176
     1
 90
        5
176
     1
 40
0.0
176
     1
 90
        0
176
     1
290
     0
176
     1
290
     1
176
     1
290
     1
176
     1
290
     0
176
     1
290
     0
176
     1
290
     0
176
     1
290
     0
176
     1
290
     0
176
     1
290
     0
176
     1
 90
       50
176
     1
 40
0.0
176
     1
 40
1.0
176
     1
 90
        0
176
     1
 62
    18
420
        0
176
     1
 90
       50
176
     1
 90
        3
176
     1
 62
     5
420
      255
176
     1
290
     0
176
     1
 90
       50
176
     1
 90
       50
176
     1
 90
       50
176
     1
290
     0
176
     1
 90
       50
176
     1
 62
   256
176
     0
 40
1.0
176
     0
 90
        2
176
     1
  1
strokes_ogs.tif
176
     1
290
     0
176
     1
 40
1.0
176
     1
 40
1.0
176
     1
  0
VISUALSTYLE
  5
103B
102
{ACAD_REACTORS
330
1024
102
}
330
1024
100
AcDbVisualStyle
  2
Shaded with edges
 70
    26
177
     3
291
     0
 70
    58
 90
        2
176
     1
 90
        2
176
     1
 90
        1
176
     1
 90
        2
176
     1
 40
0.6
176
     1
 40
30.0
176
     1
 62
     7
420
 16777215
176
     1
 90
        1
176
     1
 90
       10
176
     1
 62
     7
176
     1
 62
   257
176
     1
 90
        2
176
     1
 90
        1
176
     1
 40
1.0
176
     1
 90
        8
176
     1
 62
   257
176
     1
 40
1.0
176
     1
 90
        1
176
     1
 90
        6
176
     1
 90
        2
176
     1
 62
     7
176
     1
 90
        3
176
     1
 90
        0
176
     1
 90
        0
176
     1
290
     0
176
     1
 90
        5
176
     1
 40
0.0
176
     1
 90
        0
176
     1
290
     0
176
     1
290
     1
176
     1
290
     1
176
     1
290
     0
176
     1
290
     0
176
     1
290
     0
176
     1
290
     0
176
     1
290
     0
176
     1
290
     0
176
     1
 90
       50
176
     1
 40
0.0
176
     1
 40
1.0
176
     1
 90
        0
176
     1
 62
    18
420
        0
176
     1
 90
       50
176
     1
 90
        3
176
     1
 62
     5
420
      255
176
     1
290
     0
176
     1
 90
       50
176
     1
 90
       50
176
     1
 90
       50
176
     1
290
     0
176
     1
 90
       50
176
     1
 62
   256
176
     0
 40
1.0
176
     0
 90
        2
176
     1
  1
strokes_ogs.tif
176
     1
290
     0
176
     1
 40
1.0
176
     1
 40
1.0
176
     1
  0
VISUALSTYLE
  5
1038
102
{ACAD_REACTORS
330
1024
102
}
330
1024
100
AcDbVisualStyle
  2
Shades of Gray
 70
    23
177
     3
291
     0
 70
    58
 90
        2
176
     1
 90
        2
176
     1
 90
        3
176
     1
 90
        0
176
     1
 40
0.6
176
     1
 40
30.0
176
     1
 62
     7
420
 16777215
176
     1
 90
        2
176
     1
 90
        2
176
     1
 62
     7
176
     1
 62
     7
176
     1
 90
        1
176
     1
 90
        1
176
     1
 40
40.0
176
     1
 90
        8
176
     1
 62
     7
176
     1
 40
1.0
176
     1
 90
        1
176
     1
 90
        6
176
     1
 90
        2
176
     1
 62
     7
176
     1
 90
        3
176
     1
 90
        0
176
     1
 90
        0
176
     1
290
     0
176
     1
 90
        1
176
     1
 40
0.0
176
     1
 90
        0
176
     1
290
     0
176
     1
290
     1
176
     1
290
     1
176
     1
290
     0
176
     1
290
     0
176
     1
290
     0
176
     1
290
     0
176
     1
290
     0
176
     1
290
     0
176
     1
 90
       50
176
     1
 40
0.0
176
     1
 40
1.0
176
     1
 90
        0
176
     1
 62
    18
420
        0
176
     1
 90
       50
176
     1
 90
        3
176
     1
 62
     5
420
      255
176
     1
290
     0
176
     1
 90
       50
176
     1
 90
       50
176
     1
 90
       50
176
     1
290
     0
176
     1
 90
       50
176
     1
 62
   256
176
     0
 40
1.0
176
     0
 90
        2
176
     1
  1
strokes_ogs.tif
176
     1
290
     0
176
     1
 40
1.0
176
     1
 40
1.0
176
     1
  0
VISUALSTYLE
  5
1039
102
{ACAD_REACTORS
330
1024
102
}
330
1024
100
AcDbVisualStyle
  2
Sketchy
 70
    24
177
     3
291
     0
 70
    58
 90
        1
176
     1
 90
        2
176
     1
 90
        2
176
     1
 90
        0
176
     1
 40
0.6
176
     1
 40
30.0
176
     1
 62
     7
420
 16777215
176
     1
 90
        2
176
     1
 90
        2
176
     1
 62
     7
176
     1
 62
     7
176
     1
 90
        1
176
     1
 90
        1
176
     1
 40
40.0
176
     1
 90
       11
176
     1
 62
     7
176
     1
 40
1.0
176
     1
 90
        1
176
     1
 90
        6
176
     1
 90
        2
176
     1
 62
     7
176
     1
 90
        6
176
     1
 90
        0
176
     1
 90
        0
176
     1
290
     0
176
     1
 90
        1
176
     1
 40
0.0
176
     1
 90
        0
176
     1
290
     0
176
     1
290
     1
176
     1
290
     1
176
     1
290
     0
176
     1
290
     0
176
     1
290
     0
176
     1
290
     0
176
     1
290
     0
176
     1
290
     0
176
     1
 90
       50
176
     1
 40
0.0
176
     1
 40
1.0
176
     1
 90
        0
176
     1
 62
    18
420
        0
176
     1
 90
       50
176
     1
 90
        3
176
     1
 62
     5
420
      255
176
     1
290
     0
176
     1
 90
       50
176
     1
 90
       50
176
     1
 90
       50
176
     1
290
     0
176
     1
 90
       50
176
     1
 62
   256
176
     0
 40
1.0
176
     0
 90
        2
176
     1
  1
strokes_ogs.tif
176
     1
290
     0
176
     1
 40
1.0
176
     1
 40
1.0
176
     1
  0
VISUALSTYLE
  5
1031
102
{ACAD_REACTORS
330
1024
102
}
330
1024
100
AcDbVisualStyle
  2
Thicken
 70
    13
177
     3
291
     1
 70
    58
 90
        2
176
     1
 90
        2
176
     1
 90
        0
176
     1
 90
        0
176
     1
 40
0.6
176
     1
 40
30.0
176
     1
 62
     7
420
 16777215
176
     1
 90
        1
176
     1
 90
        4
176
     1
 62
     7
176
     1
 62
   257
176
     1
 90
        1
176
     1
 90
        1
176
     1
 40
1.0
176
     1
 90
       12
176
     1
 62
     7
176
     1
 40
1.0
176
     1
 90
        1
176
     1
 90
        6
176
     1
 90
        2
176
     1
 62
     7
176
     1
 90
        5
176
     1
 90
        0
176
     1
 90
        0
176
     1
290
     0
176
     1
 90
        1
176
     1
 40
0.0
176
     1
 90
        0
176
     1
290
     0
176
     1
290
     1
176
     1
290
     1
176
     1
290
     0
176
     1
290
     0
176
     1
290
     0
176
     1
290
     0
176
     1
290
     0
176
     1
290
     0
176
     1
 90
       50
176
     1
 40
0.0
176
     1
 40
1.0
176
     1
 90
        0
176
     1
 62
    18
420
        0
176
     1
 90
       50
176
     1
 90
        3
176
     1
 62
     5
420
      255
176
     1
290
     0
176
     1
 90
       50
176
     1
 90
       50
176
     1
 90
       50
176
     1
290
     0
176
     1
 90
       50
176
     1
 62
   256
176
     0
 40
1.0
176
     0
 90
        2
176
     1
  1
strokes_ogs.tif
176
     1
290
     0
176
     1
 40
1.0
176
     1
 40
1.0
176
     1
  0
VISUALSTYLE
  5
102A
102
{ACAD_REACTORS
330
1024
102
}
330
1024
100
AcDbVisualStyle
  2
Wireframe
 70
     5
177
     3
291
     0
 70
    58
 90
        0
176
     1
 90
        2
176
     1
 90
        0
176
     1
 90
        0
176
     1
 40
0.6
176
     1
 40
30.0
176
     1
 62
     7
420
 16777215
176
     1
 90
        1
176
     1
 90
        4
176
     1
 62
     7
176
     1
 62
   257
176
     1
 90
        1
176
     1
 90
        1
176
     1
 40
1.0
176
     1
 90
        0
176
     1
 62
   257
176
     1
 40
1.0
176
     1
 90
        1
176
     1
 90
        6
176
     1
 90
        2
176
     1
 62
     7
176
     1
 90
        3
176
     1
 90
        0
176
     1
 90
        0
176
     1
290
     0
176
     1
 90
        1
176
     1
 40
0.0
176
     1
 90
        0
176
     1
290
     0
176
     1
290
     1
176
     1
290
     1
176
     1
290
     0
176
     1
290
     0
176
     1
290
     0
176
     1
290
     0
176
     1
290
     0
176
     1
290
     0
176
     1
 90
       50
176
     1
 40
0.0
176
     1
 40
1.0
176
     1
 90
        0
176
     1
 62
    18
420
        0
176
     1
 90
       50
176
     1
 90
        3
176
     1
 62
     5
420
      255
176
     1
290
     0
176
     1
 90
       50
176
     1
 90
       50
176
     1
 90
       50
176
     1
290
     0
176
     1
 90
       50
176
     1
 62
   256
176
     0
 40
1.0
176
     0
 90
        2
176
     1
  1
strokes_ogs.tif
176
     1
290
     0
176
     1
 40
1.0
176
     1
 40
1.0
176
     1
  0
VISUALSTYLE
  5
103A
102
{ACAD_REACTORS
330
1024
102
}
330
1024
100
AcDbVisualStyle
  2
X-Ray
 70
    25
177
     3
291
     0
 70
    58
 90
        2
176
     1
 90
        2
176
     1
 90
        1
176
     1
 90
        1
176
     1
 40
0.5
176
     1
 40
30.0
176
     1
 62
     7
420
 16777215
176
     1
 90
        1
176
     1
 90
        0
176
     1
 62
     7
176
     1
 62
   257
176
     1
 90
        1
176
     1
 90
        1
176
     1
 40
1.0
176
     1
 90
        8
176
     1
 62
     7
176
     1
 40
1.0
176
     1
 90
        1
176
     1
 90
        6
176
     1
 90
        2
176
     1
 62
     7
176
     1
 90
        3
176
     1
 90
        0
176
     1
 90
        0
176
     1
290
     0
176
     1
 90
       13
176
     1
 40
0.0
176
     1
 90
        0
176
     1
290
     0
176
     1
290
     1
176
     1
290
     1
176
     1
290
     0
176
     1
290
     0
176
     1
290
     0
176
     1
290
     0
176
     1
290
     0
176
     1
290
     0
176
     1
 90
       50
176
     1
 40
0.0
176
     1
 40
1.0
176
     1
 90
        0
176
     1
 62
    18
420
        0
176
     1
 90
       50
176
     1
 90
        3
176
     1
 62
     5
420
      255
176
     1
290
     0
176
     1
 90
       50
176
     1
 90
       50
176
     1
 90
       50
176
     1
290
     0
176
     1
 90
       50
176
     1
 62
   256
176
     0
 40
1.0
176
     0
 90
        2
176
     1
  1
strokes_ogs.tif
176
     1
290
     0
176
     1
 40
1.0
176
     1
 40
1.0
176
     1
  0
DICTIONARYVAR
  5
106C
102
{ACAD_REACTORS
330
106B
102
}
330
106B
100
DictionaryVariables
280
     0
  1
1:1
  0
DICTIONARYVAR
  5
1070
102
{ACAD_REACTORS
330
106B
102
}
330
106B
100
DictionaryVariables
280
     0
  1
Standard
  0
DICTIONARYVAR
  5
1072
102
{ACAD_REACTORS
330
106B
102
}
330
106B
100
DictionaryVariables
280
     0
  1
0
  0
DICTIONARYVAR
  5
1073
102
{ACAD_REACTORS
330
106B
102
}
330
106B
100
DictionaryVariables
280
     0
  1
0
  0
DICTIONARY
  5
10A1
330
1063
100
AcDbDictionary
280
     1
281
     1
  3
ACAD_ROUNDTRIP_2008_TABLESTYLE_CELLSTYLEMAP
360
10A2
  0
CELLSTYLEMAP
  5
10A2
102
{ACAD_REACTORS
330
10A1
102
}
330
10A1
100
AcDbCellStyleMap
 90
        3
300
CELLSTYLE
  1
TABLEFORMAT_BEGIN
 90
        5
170
     1
 91
        0
 92
        0
 62
   257
 93
        1
300
CONTENTFORMAT
  1
CONTENTFORMAT_BEGIN
 90
        0
 91
        0
 92
        4
 93
        0
300

 40
0.0
140
1.0
 94
        5
 62
     0
340
11
144
6.0
309
CONTENTFORMAT_END
171
     1
301
MARGIN
  1
CELLMARGIN_BEGIN
 40
1.5
 40
1.5
 40
1.5
 40
1.5
 40
1.5
 40
1.5
309
CELLMARGIN_END
 94
        6
 95
        1
302
GRIDFORMAT
  1
GRIDFORMAT_BEGIN
 90
        0
 91
        1
 62
     0
 92
       -2
340
14
 93
        0
 40
0.045
309
GRIDFORMAT_END
 95
        2
302
GRIDFORMAT
  1
GRIDFORMAT_BEGIN
 90
        0
 91
        1
 62
     0
 92
       -2
340
14
 93
        0
 40
0.045
309
GRIDFORMAT_END
 95
        4
302
GRIDFORMAT
  1
GRIDFORMAT_BEGIN
 90
        0
 91
        1
 62
     0
 92
       -2
340
14
 93
        0
 40
0.045
309
GRIDFORMAT_END
 95
        8
302
GRIDFORMAT
  1
GRIDFORMAT_BEGIN
 90
        0
 91
        1
 62
     0
 92
       -2
340
14
 93
        0
 40
0.045
309
GRIDFORMAT_END
 95
       16
302
GRIDFORMAT
  1
GRIDFORMAT_BEGIN
 90
        0
 91
        1
 62
     0
 92
       -2
340
14
 93
        0
 40
0.045
309
GRIDFORMAT_END
 95
       32
302
GRIDFORMAT
  1
GRIDFORMAT_BEGIN
 90
        0
 91
        1
 62
     0
 92
       -2
340
14
 93
        0
 40
0.045
309
GRIDFORMAT_END
309
TABLEFORMAT_END
  1
CELLSTYLE_BEGIN
 90
        1
 91
        1
300
_TITLE
309
CELLSTYLE_END
300
CELLSTYLE
  1
TABLEFORMAT_BEGIN
 90
        5
170
     1
 91
        0
 92
        0
 62
   257
 93
        1
300
CONTENTFORMAT
  1
CONTENTFORMAT_BEGIN
 90
        0
 91
        0
 92
        4
 93
        0
300

 40
0.0
140
1.0
 94
        5
 62
     0
340
11
144
4.5
309
CONTENTFORMAT_END
171
     1
301
MARGIN
  1
CELLMARGIN_BEGIN
 40
1.5
 40
1.5
 40
1.5
 40
1.5
 40
1.5
 40
1.5
309
CELLMARGIN_END
 94
        6
 95
        1
302
GRIDFORMAT
  1
GRIDFORMAT_BEGIN
 90
        0
 91
        1
 62
     0
 92
       -2
340
14
 93
        0
 40
0.045
309
GRIDFORMAT_END
 95
        2
302
GRIDFORMAT
  1
GRIDFORMAT_BEGIN
 90
        0
 91
        1
 62
     0
 92
       -2
340
14
 93
        0
 40
0.045
309
GRIDFORMAT_END
 95
        4
302
GRIDFORMAT
  1
GRIDFORMAT_BEGIN
 90
        0
 91
        1
 62
     0
 92
       -2
340
14
 93
        0
 40
0.045
309
GRIDFORMAT_END
 95
        8
302
GRIDFORMAT
  1
GRIDFORMAT_BEGIN
 90
        0
 91
        1
 62
     0
 92
       -2
340
14
 93
        0
 40
0.045
309
GRIDFORMAT_END
 95
       16
302
GRIDFORMAT
  1
GRIDFORMAT_BEGIN
 90
        0
 91
        1
 62
     0
 92
       -2
340
14
 93
        0
 40
0.045
309
GRIDFORMAT_END
 95
       32
302
GRIDFORMAT
  1
GRIDFORMAT_BEGIN
 90
        0
 91
        1
 62
     0
 92
       -2
340
14
 93
        0
 40
0.045
309
GRIDFORMAT_END
309
TABLEFORMAT_END
  1
CELLSTYLE_BEGIN
 90
        2
 91
        1
300
_HEADER
309
CELLSTYLE_END
300
CELLSTYLE
  1
TABLEFORMAT_BEGIN
 90
        5
170
     1
 91
        0
 92
        0
 62
   257
 93
        1
300
CONTENTFORMAT
  1
CONTENTFORMAT_BEGIN
 90
        0
 91
        0
 92
        4
 93
        0
300

 40
0.0
140
1.0
 94
        2
 62
     0
340
11
144
4.5
309
CONTENTFORMAT_END
171
     1
301
MARGIN
  1
CELLMARGIN_BEGIN
 40
1.5
 40
1.5
 40
1.5
 40
1.5
 40
1.5
 40
1.5
309
CELLMARGIN_END
 94
        6
 95
        1
302
GRIDFORMAT
  1
GRIDFORMAT_BEGIN
 90
        0
 91
        1
 62
     0
 92
       -2
340
14
 93
        0
 40
0.045
309
GRIDFORMAT_END
 95
        2
302
GRIDFORMAT
  1
GRIDFORMAT_BEGIN
 90
        0
 91
        1
 62
     0
 92
       -2
340
14
 93
        0
 40
0.045
309
GRIDFORMAT_END
 95
        4
302
GRIDFORMAT
  1
GRIDFORMAT_BEGIN
 90
        0
 91
        1
 62
     0
 92
       -2
340
14
 93
        0
 40
0.045
309
GRIDFORMAT_END
 95
        8
302
GRIDFORMAT
  1
GRIDFORMAT_BEGIN
 90
        0
 91
        1
 62
     0
 92
       -2
340
14
 93
        0
 40
0.045
309
GRIDFORMAT_END
 95
       16
302
GRIDFORMAT
  1
GRIDFORMAT_BEGIN
 90
        0
 91
        1
 62
     0
 92
       -2
340
14
 93
        0
 40
0.045
309
GRIDFORMAT_END
 95
       32
302
GRIDFORMAT
  1
GRIDFORMAT_BEGIN
 90
        0
 91
        1
 62
     0
 92
       -2
340
14
 93
        0
 40
0.045
309
GRIDFORMAT_END
309
TABLEFORMAT_END
  1
CELLSTYLE_BEGIN
 90
        3
 91
        2
300
_DATA
309
CELLSTYLE_END
  0
ENDSEC
  0
EOF
