  0
SECTION
  2
HEADER
  9
$ACADVER
  1
AC1024
  9
$ACADMAINTVER
 70
     6
  9
$DWGCODEPAGE
  3
ANSI_932
  9
$LASTSAVEDBY
  1
aki
  9
$INSBASE
 10
0.0
 20
0.0
 30
0.0
  9
$EXTMIN
 10
22.87657807293377
 20
10.57845569307344
 30
0.0
  9
$EXTMAX
 10
172.5118480834884
 20
154.6301888769409
 30
0.0
  9
$LIMMIN
 10
0.0
 20
0.0
  9
$LIMMAX
 10
12.0
 20
9.0
  9
$ORTHOMODE
 70
     0
  9
$REGENMODE
 70
     1
  9
$FILLMODE
 70
     1
  9
$QTEXTMODE
 70
     0
  9
$MIRRTEXT
 70
     0
  9
$LTSCALE
 40
1.0
  9
$ATTMODE
 70
     1
  9
$TEXTSIZE
 40
0.2
  9
$TRACEWID
 40
0.05
  9
$TEXTSTYLE
  7
Standard
  9
$CLAYER
  8
0
  9
$CELTYPE
  6
ByLayer
  9
$CECOLOR
 62
   256
  9
$CELTSCALE
 40
1.0
  9
$DISPSILH
 70
     0
  9
$DIMSCALE
 40
1.0
  9
$DIMASZ
 40
0.18
  9
$DIMEXO
 40
0.0625
  9
$DIMDLI
 40
0.38
  9
$DIMRND
 40
0.0
  9
$DIMDLE
 40
0.0
  9
$DIMEXE
 40
0.18
  9
$DIMTP
 40
0.0
  9
$DIMTM
 40
0.0
  9
$DIMTXT
 40
0.18
  9
$DIMCEN
 40
0.09
  9
$DIMTSZ
 40
0.0
  9
$DIMTOL
 70
     0
  9
$DIMLIM
 70
     0
  9
$DIMTIH
 70
     1
  9
$DIMTOH
 70
     1
  9
$DIMSE1
 70
     0
  9
$DIMSE2
 70
     0
  9
$DIMTAD
 70
     0
  9
$DIMZIN
 70
     0
  9
$DIMBLK
  1

  9
$DIMASO
 70
     1
  9
$DIMSHO
 70
     1
  9
$DIMPOST
  1

  9
$DIMAPOST
  1

  9
$DIMALT
 70
     0
  9
$DIMALTD
 70
     2
  9
$DIMALTF
 40
25.4
  9
$DIMLFAC
 40
1.0
  9
$DIMTOFL
 70
     0
  9
$DIMTVP
 40
0.0
  9
$DIMTIX
 70
     0
  9
$DIMSOXD
 70
     0
  9
$DIMSAH
 70
     0
  9
$DIMBLK1
  1

  9
$DIMBLK2
  1

  9
$DIMSTYLE
  2
Standard
  9
$DIMCLRD
 70
     0
  9
$DIMCLRE
 70
     0
  9
$DIMCLRT
 70
     0
  9
$DIMTFAC
 40
1.0
  9
$DIMGAP
 40
0.09
  9
$DIMJUST
 70
     0
  9
$DIMSD1
 70
     0
  9
$DIMSD2
 70
     0
  9
$DIMTOLJ
 70
     1
  9
$DIMTZIN
 70
     0
  9
$DIMALTZ
 70
     0
  9
$DIMALTTZ
 70
     0
  9
$DIMUPT
 70
     0
  9
$DIMDEC
 70
     4
  9
$DIMTDEC
 70
     4
  9
$DIMALTU
 70
     2
  9
$DIMALTTD
 70
     2
  9
$DIMTXSTY
  7
Standard
  9
$DIMAUNIT
 70
     0
  9
$DIMADEC
 70
     0
  9
$DIMALTRND
 40
0.0
  9
$DIMAZIN
 70
     0
  9
$DIMDSEP
 70
    46
  9
$DIMATFIT
 70
     3
  9
$DIMFRAC
 70
     0
  9
$DIMLDRBLK
  1

  9
$DIMLUNIT
 70
     2
  9
$DIMLWD
 70
    -2
  9
$DIMLWE
 70
    -2
  9
$DIMTMOVE
 70
     0
  9
$DIMFXL
 40
1.0
  9
$DIMFXLON
 70
     0
  9
$DIMJOGANG
 40
0.7853981633974483
  9
$DIMTFILL
 70
     0
  9
$DIMTFILLCLR
 70
     0
  9
$DIMARCSYM
 70
     0
  9
$DIMLTYPE
  6

  9
$DIMLTEX1
  6

  9
$DIMLTEX2
  6

  9
$DIMTXTDIRECTION
 70
     0
  9
$LUNITS
 70
     2
  9
$LUPREC
 70
     4
  9
$SKETCHINC
 40
0.1
  9
$FILLETRAD
 40
0.0
  9
$AUNITS
 70
     0
  9
$AUPREC
 70
     0
  9
$MENU
  1
.
  9
$ELEVATION
 40
0.0
  9
$PELEVATION
 40
0.0
  9
$THICKNESS
 40
0.0
  9
$LIMCHECK
 70
     0
  9
$CHAMFERA
 40
0.0
  9
$CHAMFERB
 40
0.0
  9
$CHAMFERC
 40
0.0
  9
$CHAMFERD
 40
0.0
  9
$SKPOLY
 70
     0
  9
$TDCREATE
 40
2452643.438384271
  9
$TDUCREATE
 40
2452643.063384271
  9
$TDUPDATE
 40
2458715.718910231
  9
$TDUUPDATE
 40
2458715.343910231
  9
$TDINDWG
 40
0.0065340972
  9
$TDUSRTIMER
 40
2458715.340357523
  9
$USRTIMER
 70
     1
  9
$ANGBASE
 50
0.0
  9
$ANGDIR
 70
     0
  9
$PDMODE
 70
     0
  9
$PDSIZE
 40
0.0
  9
$PLINEWID
 40
0.0
  9
$SPLFRAME
 70
     0
  9
$SPLINETYPE
 70
     6
  9
$SPLINESEGS
 70
     8
  9
$HANDSEED
  5
419
  9
$SURFTAB1
 70
     6
  9
$SURFTAB2
 70
     6
  9
$SURFTYPE
 70
     6
  9
$SURFU
 70
     6
  9
$SURFV
 70
     6
  9
$UCSBASE
  2

  9
$UCSNAME
  2

  9
$UCSORG
 10
0.0
 20
0.0
 30
0.0
  9
$UCSXDIR
 10
1.0
 20
0.0
 30
0.0
  9
$UCSYDIR
 10
0.0
 20
1.0
 30
0.0
  9
$UCSORTHOREF
  2

  9
$UCSORTHOVIEW
 70
     0
  9
$UCSORGTOP
 10
0.0
 20
0.0
 30
0.0
  9
$UCSORGBOTTOM
 10
0.0
 20
0.0
 30
0.0
  9
$UCSORGLEFT
 10
0.0
 20
0.0
 30
0.0
  9
$UCSORGRIGHT
 10
0.0
 20
0.0
 30
0.0
  9
$UCSORGFRONT
 10
0.0
 20
0.0
 30
0.0
  9
$UCSORGBACK
 10
0.0
 20
0.0
 30
0.0
  9
$PUCSBASE
  2

  9
$PUCSNAME
  2

  9
$PUCSORG
 10
0.0
 20
0.0
 30
0.0
  9
$PUCSXDIR
 10
1.0
 20
0.0
 30
0.0
  9
$PUCSYDIR
 10
0.0
 20
1.0
 30
0.0
  9
$PUCSORTHOREF
  2

  9
$PUCSORTHOVIEW
 70
     0
  9
$PUCSORGTOP
 10
0.0
 20
0.0
 30
0.0
  9
$PUCSORGBOTTOM
 10
0.0
 20
0.0
 30
0.0
  9
$PUCSORGLEFT
 10
0.0
 20
0.0
 30
0.0
  9
$PUCSORGRIGHT
 10
0.0
 20
0.0
 30
0.0
  9
$PUCSORGFRONT
 10
0.0
 20
0.0
 30
0.0
  9
$PUCSORGBACK
 10
0.0
 20
0.0
 30
0.0
  9
$USERI1
 70
     0
  9
$USERI2
 70
     0
  9
$USERI3
 70
     0
  9
$USERI4
 70
     0
  9
$USERI5
 70
     0
  9
$USERR1
 40
0.0
  9
$USERR2
 40
0.0
  9
$USERR3
 40
0.0
  9
$USERR4
 40
0.0
  9
$USERR5
 40
0.0
  9
$WORLDVIEW
 70
     1
  9
$SHADEDGE
 70
     3
  9
$SHADEDIF
 70
    70
  9
$TILEMODE
 70
     1
  9
$MAXACTVP
 70
    64
  9
$PINSBASE
 10
0.0
 20
0.0
 30
0.0
  9
$PLIMCHECK
 70
     0
  9
$PEXTMIN
 10
0.0
 20
0.0
 30
0.0
  9
$PEXTMAX
 10
0.0
 20
0.0
 30
0.0
  9
$PLIMMIN
 10
0.0
 20
0.0
  9
$PLIMMAX
 10
0.0
 20
0.0
  9
$UNITMODE
 70
     0
  9
$VISRETAIN
 70
     1
  9
$PLINEGEN
 70
     0
  9
$PSLTSCALE
 70
     1
  9
$TREEDEPTH
 70
  3020
  9
$CMLSTYLE
  2
Standard
  9
$CMLJUST
 70
     0
  9
$CMLSCALE
 40
1.0
  9
$PROXYGRAPHICS
 70
     1
  9
$MEASUREMENT
 70
     0
  9
$CELWEIGHT
370
    -1
  9
$ENDCAPS
280
     0
  9
$JOINSTYLE
280
     0
  9
$LWDISPLAY
290
     0
  9
$INSUNITS
 70
     1
  9
$HYPERLINKBASE
  1

  9
$STYLESHEET
  1

  9
$XEDIT
290
     1
  9
$CEPSNTYPE
380
     0
  9
$PSTYLEMODE
290
     1
  9
$FINGERPRINTGUID
  2
{FDEAD576-A652-11D2-9A35-0060089B3A3F}
  9
$VERSIONGUID
  2
{FBC2AE19-5C5C-49EC-81BC-71B1A3362A02}
  9
$EXTNAMES
290
     1
  9
$PSVPSCALE
 40
0.0
  9
$OLESTARTUP
290
     0
  9
$SORTENTS
280
   127
  9
$INDEXCTL
280
     0
  9
$HIDETEXT
280
     1
  9
$XCLIPFRAME
280
     0
  9
$HALOGAP
280
     0
  9
$OBSCOLOR
 70
   257
  9
$OBSLTYPE
280
     0
  9
$INTERSECTIONDISPLAY
280
     0
  9
$INTERSECTIONCOLOR
 70
   257
  9
$DIMASSOC
280
     2
  9
$PROJECTNAME
  1

  9
$CAMERADISPLAY
290
     0
  9
$LENSLENGTH
 40
50.0
  9
$CAMERAHEIGHT
 40
0.0
  9
$STEPSPERSEC
 40
2.0
  9
$STEPSIZE
 40
6.0
  9
$3DDWFPREC
 40
2.0
  9
$PSOLWIDTH
 40
0.25
  9
$PSOLHEIGHT
 40
4.0
  9
$LOFTANG1
 40
1.570796326794897
  9
$LOFTANG2
 40
1.570796326794897
  9
$LOFTMAG1
 40
0.0
  9
$LOFTMAG2
 40
0.0
  9
$LOFTPARAM
 70
     7
  9
$LOFTNORMALS
280
     1
  9
$LATITUDE
 40
37.795
  9
$LONGITUDE
 40
-122.394
  9
$NORTHDIRECTION
 40
0.0
  9
$TIMEZONE
 70
 -8000
  9
$LIGHTGLYPHDISPLAY
280
     1
  9
$TILEMODELIGHTSYNCH
280
     1
  9
$CMATERIAL
347
96
  9
$SOLIDHIST
280
     1
  9
$SHOWHIST
280
     1
  9
$DWFFRAME
280
     2
  9
$DGNFRAME
280
     0
  9
$REALWORLDSCALE
290
     1
  9
$INTERFERECOLOR
 62
     1
  9
$CSHADOW
280
     0
  9
$SHADOWPLANELOCATION
 40
0.0
  0
ENDSEC
  0
SECTION
  2
CLASSES
  0
CLASS
  1
ACDBDICTIONARYWDFLT
  2
AcDbDictionaryWithDefault
  3
ObjectDBX Classes
 90
        0
 91
        4
280
     0
281
     0
  0
CLASS
  1
ACDBPLACEHOLDER
  2
AcDbPlaceHolder
  3
ObjectDBX Classes
 90
        0
 91
        1
280
     0
281
     0
  0
CLASS
  1
LAYOUT
  2
AcDbLayout
  3
ObjectDBX Classes
 90
        0
 91
        1
280
     0
281
     0
  0
CLASS
  1
DICTIONARYVAR
  2
AcDbDictionaryVar
  3
ObjectDBX Classes
 90
        0
 91
        4
280
     0
281
     0
  0
CLASS
  1
TABLESTYLE
  2
AcDbTableStyle
  3
ObjectDBX Classes
 90
     4095
 91
        4
280
     0
281
     0
  0
CLASS
  1
MATERIAL
  2
AcDbMaterial
  3
ObjectDBX Classes
 90
     1153
 91
        4
280
     0
281
     0
  0
CLASS
  1
VISUALSTYLE
  2
AcDbVisualStyle
  3
ObjectDBX Classes
 90
     4095
 91
        4
280
     0
281
     0
  0
CLASS
  1
SCALE
  2
AcDbScale
  3
ObjectDBX Classes
 90
     1153
 91
        4
280
     0
281
     0
  0
CLASS
  1
CELLSTYLEMAP
  2
AcDbCellStyleMap
  3
ObjectDBX Classes
 90
     1152
 91
        4
280
     0
281
     0
  0
CLASS
  1
RASTERVARIABLES
  2
AcDbRasterVariables
  3
ISM
 90
        0
 91
        4
280
     0
281
     0
  0
CLASS
  1
SUN
  2
AcDbSun
  3
SCENEOE
 90
     1153
 91
        4
280
     0
281
     0
  0
CLASS
  1
DIMASSOC
  2
AcDbDimAssoc
  3
"AcDbDimAssoc|Product Desc:     AcDim ARX App For Dimension|Company:          Autodesk, Inc.|WEB Address:      www.autodesk.com"
 90
        0
 91
        4
280
     0
281
     0
  0
CLASS
  1
MLEADERSTYLE
  2
AcDbMLeaderStyle
  3
ACDB_MLEADERSTYLE_CLASS
 90
     4095
 91
        4
280
     0
281
     0
  0
ENDSEC
  0
SECTION
  2
TABLES
  0
TABLE
  2
VPORT
  5
8
330
0
100
AcDbSymbolTable
 70
     1
  0
VPORT
  5
94
330
8
100
AcDbSymbolTableRecord
100
AcDbViewportTableRecord
  2
*Active
 70
     0
 10
0.0
 20
0.0
 11
1.0
 21
1.0
 12
126.4053425158627
 22
92.92162228148281
 13
0.0
 23
0.0
 14
0.5
 24
0.5
 15
0.5
 25
0.5
 16
0.0
 26
0.0
 36
1.0
 17
-27.66959356597985
 27
-19.53870295786203
 37
0.0
 40
183.665959809431
 41
2.001383125864454
 42
50.0
 43
0.0
 44
0.0
 50
0.0
 51
0.0
 71
    16
 72
  1000
 73
     1
 74
     3
 75
     0
 76
     0
 77
     0
 78
     0
281
     0
 65
     1
110
0.0
120
0.0
130
0.0
111
1.0
121
0.0
131
0.0
112
0.0
122
1.0
132
0.0
 79
     0
146
0.0
348
9F
 60
     2
 61
     5
292
     1
282
     1
141
0.0
142
0.0
 63
   250
421
  3355443
361
ED
  0
ENDTAB
  0
TABLE
  2
LTYPE
  5
5
330
0
100
AcDbSymbolTable
 70
     2
  0
LTYPE
  5
14
330
5
100
AcDbSymbolTableRecord
100
AcDbLinetypeTableRecord
  2
ByBlock
 70
     0
  3

 72
    65
 73
     0
 40
0.0
  0
LTYPE
  5
15
330
5
100
AcDbSymbolTableRecord
100
AcDbLinetypeTableRecord
  2
ByLayer
 70
     0
  3

 72
    65
 73
     0
 40
0.0
  0
LTYPE
  5
16
330
5
100
AcDbSymbolTableRecord
100
AcDbLinetypeTableRecord
  2
Continuous
 70
     0
  3
Solid line
 72
    65
 73
     0
 40
0.0
  0
LTYPE
  5
129
330
5
100
AcDbSymbolTableRecord
100
AcDbLinetypeTableRecord
  2
CENTER
 70
     0
  3
Center ____ _ ____ _ ____ _ ____ _ ____ _ ____
 72
    65
 73
     4
 40
50.8
 49
31.75
 74
     0
 49
-6.35
 74
     0
 49
6.35
 74
     0
 49
-6.35
 74
     0
  0
ENDTAB
  0
TABLE
  2
LAYER
  5
2
330
0
100
AcDbSymbolTable
 70
     6
  0
LAYER
  5
10
330
2
100
AcDbSymbolTableRecord
100
AcDbLayerTableRecord
  2
0
 70
     0
 62
     7
  6
Continuous
370
    -3
390
F
347
98
  0
LAYER
  5
125
330
2
100
AcDbSymbolTableRecord
100
AcDbLayerTableRecord
  2
Defpoints
 70
     0
 62
     7
  6
Continuous
290
     0
370
    -3
390
F
347
98
  0
LAYER
  5
126
330
2
100
AcDbSymbolTableRecord
100
AcDbLayerTableRecord
  2
文字
 70
     0
 62
     7
  6
Continuous
370
    25
390
F
347
98
  0
LAYER
  5
128
330
2
100
AcDbSymbolTableRecord
100
AcDbLayerTableRecord
  2
中心線
 70
     0
 62
     7
  6
CENTER
370
    30
390
F
347
98
  0
LAYER
  5
12A
330
2
100
AcDbSymbolTableRecord
100
AcDbLayerTableRecord
  2
実線
 70
     0
 62
     7
  6
Continuous
370
    50
390
F
347
98
  0
LAYER
  5
281
330
2
100
AcDbSymbolTableRecord
100
AcDbLayerTableRecord
  2
文字・寸法線
 70
     0
 62
     7
  6
Continuous
370
    -3
390
F
347
98
  0
ENDTAB
  0
TABLE
  2
STYLE
  5
3
330
0
100
AcDbSymbolTable
 70
     1
  0
STYLE
  5
11
330
3
100
AcDbSymbolTableRecord
100
AcDbTextStyleTableRecord
  2
Standard
 70
     0
 40
0.0
 41
1.0
 50
0.0
 71
     0
 42
0.2
  3
arial.ttf
  4

1001
ACAD
1000
Arial
1071
        0
  0
ENDTAB
  0
TABLE
  2
VIEW
  5
6
330
0
100
AcDbSymbolTable
 70
     0
  0
ENDTAB
  0
TABLE
  2
UCS
  5
7
330
0
100
AcDbSymbolTable
 70
     0
  0
ENDTAB
  0
TABLE
  2
APPID
  5
9
330
0
100
AcDbSymbolTable
 70
     1
  0
APPID
  5
12
330
9
100
AcDbSymbolTableRecord
100
AcDbRegAppTableRecord
  2
ACAD
 70
     0
  0
ENDTAB
  0
TABLE
  2
DIMSTYLE
  5
A
330
0
100
AcDbSymbolTable
 70
     2
100
AcDbDimStyleTable
  0
DIMSTYLE
105
27
330
A
100
AcDbSymbolTableRecord
100
AcDbDimStyleTableRecord
  2
Standard
 70
     0
178
     0
340
11
  0
DIMSTYLE
105
12B
102
{ACAD_REACTORS
330
1F8
330
20A
330
20D
330
211
330
218
330
3E4
330
3E7
330
3E8
102
}
330
A
100
AcDbSymbolTableRecord
100
AcDbDimStyleTableRecord
  2
ISO-25
 70
     0
 41
2.5
 42
0.625
 43
3.75
 44
1.25
 73
     0
 74
     0
 77
     1
 78
     8
140
2.5
141
2.5
143
0.03937007874016
147
0.625
171
     3
172
     1
178
     0
271
     2
272
     2
274
     3
283
     0
284
     8
340
11
  0
ENDTAB
  0
TABLE
  2
BLOCK_RECORD
  5
1
330
0
100
AcDbSymbolTable
 70
    29
  0
BLOCK_RECORD
  5
1F
330
1
100
AcDbSymbolTableRecord
100
AcDbBlockTableRecord
  2
*Model_Space
340
22
 70
     0
280
     1
281
     0
  0
BLOCK_RECORD
  5
58
330
1
100
AcDbSymbolTableRecord
100
AcDbBlockTableRecord
  2
*Paper_Space
340
59
 70
     0
280
     1
281
     0
  0
BLOCK_RECORD
  5
5D
330
1
100
AcDbSymbolTableRecord
100
AcDbBlockTableRecord
  2
*Paper_Space0
340
5E
 70
     0
280
     1
281
     0
  0
BLOCK_RECORD
  5
15D
330
1
100
AcDbSymbolTableRecord
100
AcDbBlockTableRecord
  2
*D1
340
0
 70
     0
280
     1
281
     0
  0
BLOCK_RECORD
  5
16C
330
1
100
AcDbSymbolTableRecord
100
AcDbBlockTableRecord
  2
*D2
340
0
 70
     0
280
     1
281
     0
  0
BLOCK_RECORD
  5
183
330
1
100
AcDbSymbolTableRecord
100
AcDbBlockTableRecord
  2
*D3
340
0
 70
     0
280
     1
281
     0
  0
BLOCK_RECORD
  5
192
330
1
100
AcDbSymbolTableRecord
100
AcDbBlockTableRecord
  2
*D4
340
0
 70
     0
280
     1
281
     0
  0
BLOCK_RECORD
  5
1A4
330
1
100
AcDbSymbolTableRecord
100
AcDbBlockTableRecord
  2
*D5
340
0
 70
     0
280
     1
281
     0
  0
BLOCK_RECORD
  5
1B3
330
1
100
AcDbSymbolTableRecord
100
AcDbBlockTableRecord
  2
*D6
340
0
 70
     0
280
     1
281
     0
  0
BLOCK_RECORD
  5
1C1
330
1
100
AcDbSymbolTableRecord
100
AcDbBlockTableRecord
  2
*D7
340
0
 70
     0
280
     1
281
     0
  0
BLOCK_RECORD
  5
1D6
330
1
100
AcDbSymbolTableRecord
100
AcDbBlockTableRecord
  2
*D8
340
0
 70
     0
280
     1
281
     0
  0
BLOCK_RECORD
  5
21B
330
1
100
AcDbSymbolTableRecord
100
AcDbBlockTableRecord
  2
*D9
340
0
 70
     0
280
     1
281
     0
  0
BLOCK_RECORD
  5
227
330
1
100
AcDbSymbolTableRecord
100
AcDbBlockTableRecord
  2
*D10
340
0
 70
     0
280
     1
281
     0
  0
BLOCK_RECORD
  5
233
330
1
100
AcDbSymbolTableRecord
100
AcDbBlockTableRecord
  2
*D11
340
0
 70
     0
280
     1
281
     0
  0
BLOCK_RECORD
  5
23F
330
1
100
AcDbSymbolTableRecord
100
AcDbBlockTableRecord
  2
*D12
340
0
 70
     0
280
     1
281
     0
  0
BLOCK_RECORD
  5
24D
330
1
100
AcDbSymbolTableRecord
100
AcDbBlockTableRecord
  2
*D13
340
0
 70
     0
280
     1
281
     0
  0
BLOCK_RECORD
  5
259
330
1
100
AcDbSymbolTableRecord
100
AcDbBlockTableRecord
  2
*D14
340
0
 70
     0
280
     1
281
     0
  0
BLOCK_RECORD
  5
265
330
1
100
AcDbSymbolTableRecord
100
AcDbBlockTableRecord
  2
*D15
340
0
 70
     0
280
     1
281
     0
  0
BLOCK_RECORD
  5
271
330
1
100
AcDbSymbolTableRecord
100
AcDbBlockTableRecord
  2
*D16
340
0
 70
     0
280
     1
281
     0
  0
BLOCK_RECORD
  5
30B
330
1
100
AcDbSymbolTableRecord
100
AcDbBlockTableRecord
  2
*D17
340
0
 70
     0
280
     1
281
     0
  0
BLOCK_RECORD
  5
31A
330
1
100
AcDbSymbolTableRecord
100
AcDbBlockTableRecord
  2
*D18
340
0
 70
     0
280
     1
281
     0
  0
BLOCK_RECORD
  5
329
330
1
100
AcDbSymbolTableRecord
100
AcDbBlockTableRecord
  2
*D19
340
0
 70
     0
280
     1
281
     0
  0
BLOCK_RECORD
  5
34D
330
1
100
AcDbSymbolTableRecord
100
AcDbBlockTableRecord
  2
*D20
340
0
 70
     0
280
     1
281
     0
  0
BLOCK_RECORD
  5
35B
330
1
100
AcDbSymbolTableRecord
100
AcDbBlockTableRecord
  2
*D21
340
0
 70
     0
280
     1
281
     0
  0
BLOCK_RECORD
  5
367
330
1
100
AcDbSymbolTableRecord
100
AcDbBlockTableRecord
  2
*D22
340
0
 70
     0
280
     1
281
     0
  0
BLOCK_RECORD
  5
3AB
330
1
100
AcDbSymbolTableRecord
100
AcDbBlockTableRecord
  2
*D23
340
0
 70
     0
280
     1
281
     0
  0
BLOCK_RECORD
  5
3BA
330
1
100
AcDbSymbolTableRecord
100
AcDbBlockTableRecord
  2
*D24
340
0
 70
     0
280
     1
281
     0
  0
BLOCK_RECORD
  5
3C9
330
1
100
AcDbSymbolTableRecord
100
AcDbBlockTableRecord
  2
*D25
340
0
 70
     0
280
     1
281
     0
  0
BLOCK_RECORD
  5
3EB
330
1
100
AcDbSymbolTableRecord
100
AcDbBlockTableRecord
  2
*D26
340
0
 70
     0
280
     1
281
     0
  0
BLOCK_RECORD
  5
3F9
330
1
100
AcDbSymbolTableRecord
100
AcDbBlockTableRecord
  2
*D27
340
0
 70
     0
280
     1
281
     0
  0
BLOCK_RECORD
  5
405
330
1
100
AcDbSymbolTableRecord
100
AcDbBlockTableRecord
  2
*D28
340
0
 70
     0
280
     1
281
     0
  0
ENDTAB
  0
ENDSEC
  0
SECTION
  2
BLOCKS
  0
BLOCK
  5
20
330
1F
100
AcDbEntity
  8
0
100
AcDbBlockBegin
  2
*Model_Space
 70
     0
 10
0.0
 20
0.0
 30
0.0
  3
*Model_Space
  1
*Model_Space
  0
ENDBLK
  5
21
330
1F
100
AcDbEntity
  8
0
100
AcDbBlockEnd
  0
BLOCK
  5
5A
330
58
100
AcDbEntity
 67
     1
  8
0
100
AcDbBlockBegin
  2
*Paper_Space
 70
     0
 10
0.0
 20
0.0
 30
0.0
  3
*Paper_Space
  1
*Paper_Space
  0
ENDBLK
  5
5B
330
58
100
AcDbEntity
 67
     1
  8
0
100
AcDbBlockEnd
  0
BLOCK
  5
5F
330
5D
100
AcDbEntity
  8
0
100
AcDbBlockBegin
  2
*Paper_Space0
 70
     0
 10
0.0
 20
0.0
 30
0.0
  3
*Paper_Space0
  1
*Paper_Space0
  0
ENDBLK
  5
60
330
5D
100
AcDbEntity
  8
0
100
AcDbBlockEnd
  0
BLOCK
  5
15E
330
15D
100
AcDbEntity
  8
0
370
    30
100
AcDbBlockBegin
  2
*D1
 70
     1
 10
0.0
 20
0.0
 30
0.0
  3
*D1
  1
*D2
  0
LINE
  5
15F
330
15D
100
AcDbEntity
  8
文字
 62
     0
370
    -2
100
AcDbLine
 10
16.06164127958864
 20
22.30224429038434
 30
0.0
 11
16.06164127958864
 21
0.0
 31
0.0
  0
LINE
  5
160
330
15D
100
AcDbEntity
  8
文字
 62
     0
370
    -2
100
AcDbLine
 10
54.06164127958864
 20
22.30224429038432
 30
0.0
 11
54.06164127958864
 21
0.0
 31
0.0
  0
LINE
  5
161
330
15D
100
AcDbEntity
  8
文字
 62
     0
370
    -2
100
AcDbLine
 10
18.56164127958864
 20
1.25
 30
0.0
 11
51.56164127958864
 21
1.25
 31
0.0
  0
SOLID
  5
162
330
15D
100
AcDbEntity
  8
文字
 62
     0
100
AcDbTrace
 10
18.56164127958864
 20
1.666666666666667
 30
0.0
 11
18.56164127958864
 21
0.8333333333333333
 31
0.0
 12
16.06164127958864
 22
1.25
 32
0.0
 13
16.06164127958864
 23
1.25
 33
0.0
  0
SOLID
  5
163
330
15D
100
AcDbEntity
  8
文字
 62
     0
100
AcDbTrace
 10
51.56164127958864
 20
0.8333333333333333
 30
0.0
 11
51.56164127958864
 21
1.666666666666667
 31
0.0
 12
54.06164127958864
 22
1.25
 32
0.0
 13
54.06164127958864
 23
1.25
 33
0.0
  0
MTEXT
  5
164
330
15D
100
AcDbEntity
  8
文字
 62
     0
100
AcDbMText
 10
35.06164127958864
 20
3.198328785811733
 30
0.0
 40
2.5
 41
0.0
 46
0.0
 71
     5
 72
     1
  1
%%c38
 73
     1
 44
1.0
  0
POINT
  5
165
330
15D
100
AcDbEntity
  8
Defpoints
 62
     0
100
AcDbPoint
 10
16.06164127958864
 20
22.92724429038434
 30
0.0
  0
POINT
  5
166
330
15D
100
AcDbEntity
  8
Defpoints
 62
     0
100
AcDbPoint
 10
54.06164127958864
 20
22.92724429038432
 30
0.0
  0
POINT
  5
167
330
15D
100
AcDbEntity
  8
Defpoints
 62
     0
100
AcDbPoint
 10
54.06164127958864
 20
1.25
 30
0.0
  0
ENDBLK
  5
168
330
15D
100
AcDbEntity
  8
0
370
    30
100
AcDbBlockEnd
  0
BLOCK
  5
16D
330
16C
100
AcDbEntity
  8
0
370
    30
100
AcDbBlockBegin
  2
*D2
 70
     1
 10
0.0
 20
0.0
 30
0.0
  3
*D2
  1
*D3
  0
LINE
  5
16E
330
16C
100
AcDbEntity
  8
文字
 62
     0
370
    -2
100
AcDbLine
 10
136.0618154960308
 20
59.20955306481923
 30
0.0
 11
136.0618154960308
 21
18.73877224860601
 31
0.0
  0
LINE
  5
16F
330
16C
100
AcDbEntity
  8
文字
 62
     0
370
    -2
100
AcDbLine
 10
164.0618154960308
 20
59.20955306481923
 30
0.0
 11
164.0618154960308
 21
18.73877224860601
 31
0.0
  0
LINE
  5
170
330
16C
100
AcDbEntity
  8
文字
 62
     0
370
    -2
100
AcDbLine
 10
138.5618154960308
 20
19.98877224860601
 30
0.0
 11
161.5618154960308
 21
19.98877224860601
 31
0.0
  0
SOLID
  5
171
330
16C
100
AcDbEntity
  8
文字
 62
     0
100
AcDbTrace
 10
138.5618154960308
 20
20.40543891527268
 30
0.0
 11
138.5618154960308
 21
19.57210558193934
 31
0.0
 12
136.0618154960308
 22
19.98877224860601
 32
0.0
 13
136.0618154960308
 23
19.98877224860601
 33
0.0
  0
SOLID
  5
172
330
16C
100
AcDbEntity
  8
文字
 62
     0
100
AcDbTrace
 10
161.5618154960308
 20
19.57210558193934
 30
0.0
 11
161.5618154960308
 21
20.40543891527268
 31
0.0
 12
164.0618154960308
 22
19.98877224860601
 32
0.0
 13
164.0618154960308
 23
19.98877224860601
 33
0.0
  0
MTEXT
  5
173
330
16C
100
AcDbEntity
  8
文字
 62
     0
100
AcDbMText
 10
150.0618154960308
 20
21.93710103441774
 30
0.0
 40
2.5
 41
0.0
 46
0.0
 71
     5
 72
     1
  1
%%c28
 73
     1
 44
1.0
  0
POINT
  5
174
330
16C
100
AcDbEntity
  8
Defpoints
 62
     0
100
AcDbPoint
 10
136.0618154960308
 20
59.83455306481923
 30
0.0
  0
POINT
  5
175
330
16C
100
AcDbEntity
  8
Defpoints
 62
     0
100
AcDbPoint
 10
164.0618154960308
 20
59.83455306481923
 30
0.0
  0
POINT
  5
176
330
16C
100
AcDbEntity
  8
Defpoints
 62
     0
100
AcDbPoint
 10
164.0618154960308
 20
19.98877224860601
 30
0.0
  0
ENDBLK
  5
177
330
16C
100
AcDbEntity
  8
0
370
    30
100
AcDbBlockEnd
  0
BLOCK
  5
184
330
183
100
AcDbEntity
  8
0
370
    30
100
AcDbBlockBegin
  2
*D3
 70
     1
 10
0.0
 20
0.0
 30
0.0
  3
*D3
  1
*D4
  0
LINE
  5
185
330
183
100
AcDbEntity
  8
文字
 62
     0
370
    -2
100
AcDbLine
 10
40.70287217196548
 20
35.51071035741606
 30
0.0
 11
81.69537245610447
 21
35.51071035741606
 31
0.0
  0
LINE
  5
186
330
183
100
AcDbEntity
  8
文字
 62
     0
370
    -2
100
AcDbLine
 10
54.68664127958864
 20
22.92724429038432
 30
0.0
 11
81.69537245610447
 21
22.92724429038432
 31
0.0
  0
LINE
  5
187
330
183
100
AcDbEntity
  8
文字
 62
     0
370
    -2
100
AcDbLine
 10
80.44537245610447
 20
33.01071035741606
 30
0.0
 11
80.44537245610447
 21
25.42724429038432
 31
0.0
  0
SOLID
  5
188
330
183
100
AcDbEntity
  8
文字
 62
     0
100
AcDbTrace
 10
80.86203912277114
 20
33.01071035741606
 30
0.0
 11
80.0287057894378
 21
33.01071035741606
 31
0.0
 12
80.44537245610447
 22
35.51071035741606
 32
0.0
 13
80.44537245610447
 23
35.51071035741606
 33
0.0
  0
SOLID
  5
189
330
183
100
AcDbEntity
  8
文字
 62
     0
100
AcDbTrace
 10
80.0287057894378
 20
25.42724429038432
 30
0.0
 11
80.86203912277114
 21
25.42724429038432
 31
0.0
 12
80.44537245610447
 22
22.92724429038432
 32
0.0
 13
80.44537245610447
 23
22.92724429038432
 33
0.0
  0
MTEXT
  5
18A
330
183
100
AcDbEntity
  8
文字
 62
     0
100
AcDbMText
 10
78.56525649430364
 20
29.21897732390019
 30
0.0
 40
2.5
 41
0.0
 46
0.0
 71
     5
 72
     1
  1
12
 11
0.0
 21
1.0
 31
0.0
 73
     1
 44
1.0
  0
POINT
  5
18B
330
183
100
AcDbEntity
  8
Defpoints
 62
     0
100
AcDbPoint
 10
40.07787217196548
 20
35.51071035741606
 30
0.0
  0
POINT
  5
18C
330
183
100
AcDbEntity
  8
Defpoints
 62
     0
100
AcDbPoint
 10
54.06164127958864
 20
22.92724429038432
 30
0.0
  0
POINT
  5
18D
330
183
100
AcDbEntity
  8
Defpoints
 62
     0
100
AcDbPoint
 10
80.44537245610447
 20
22.92724429038432
 30
0.0
  0
ENDBLK
  5
18E
330
183
100
AcDbEntity
  8
0
370
    30
100
AcDbBlockEnd
  0
BLOCK
  5
193
330
192
100
AcDbEntity
  8
0
370
    30
100
AcDbBlockBegin
  2
*D4
 70
     1
 10
0.0
 20
0.0
 30
0.0
  3
*D4
  1
*D5
  0
LINE
  5
194
330
192
100
AcDbEntity
  8
文字
 62
     0
370
    -2
100
AcDbLine
 10
15.43664127958864
 20
24.52724429038433
 30
0.0
 11
1.875000000000014
 21
24.52724429038433
 31
0.0
  0
LINE
  5
195
330
192
100
AcDbEntity
  8
文字
 62
     0
370
    -2
100
AcDbLine
 10
15.43664127958864
 20
22.92724429038434
 30
0.0
 11
1.875000000000014
 21
22.92724429038434
 31
0.0
  0
LINE
  5
196
330
192
100
AcDbEntity
  8
文字
 62
     0
370
    -2
100
AcDbLine
 10
3.125000000000014
 20
20.42724429038434
 30
0.0
 11
3.125000000000014
 21
12.35937253049348
 31
0.0
  0
LINE
  5
197
330
192
100
AcDbEntity
  8
文字
 62
     0
370
    -2
100
AcDbLine
 10
3.125000000000014
 20
24.52724429038433
 30
0.0
 11
3.125000000000014
 21
22.92724429038434
 31
0.0
  0
LINE
  5
198
330
192
100
AcDbEntity
  8
文字
 62
     0
370
    -2
100
AcDbLine
 10
3.125000000000014
 20
27.02724429038433
 30
0.0
 11
3.125000000000014
 21
29.52724429038433
 31
0.0
  0
SOLID
  5
199
330
192
100
AcDbEntity
  8
文字
 62
     0
100
AcDbTrace
 10
2.708333333333348
 20
27.02724429038433
 30
0.0
 11
3.541666666666681
 21
27.02724429038433
 31
0.0
 12
3.125000000000014
 22
24.52724429038433
 32
0.0
 13
3.125000000000014
 23
24.52724429038433
 33
0.0
  0
SOLID
  5
19A
330
192
100
AcDbEntity
  8
文字
 62
     0
100
AcDbTrace
 10
3.541666666666681
 20
20.42724429038434
 30
0.0
 11
2.708333333333348
 21
20.42724429038434
 31
0.0
 12
3.125000000000014
 22
22.92724429038434
 32
0.0
 13
3.125000000000014
 23
22.92724429038434
 33
0.0
  0
MTEXT
  5
19B
330
192
100
AcDbEntity
  8
文字
 62
     0
100
AcDbMText
 10
1.224420190995922
 20
15.14330841043891
 30
0.0
 40
2.5
 41
0.0
 46
0.0
 71
     5
 72
     1
  1
1.6
 11
0.0
 21
1.0
 31
0.0
 73
     1
 44
1.0
  0
POINT
  5
19C
330
192
100
AcDbEntity
  8
Defpoints
 62
     0
100
AcDbPoint
 10
16.06164127958864
 20
24.52724429038433
 30
0.0
  0
POINT
  5
19D
330
192
100
AcDbEntity
  8
Defpoints
 62
     0
100
AcDbPoint
 10
16.06164127958864
 20
22.92724429038434
 30
0.0
  0
POINT
  5
19E
330
192
100
AcDbEntity
  8
Defpoints
 62
     0
100
AcDbPoint
 10
3.125000000000014
 20
22.92724429038434
 30
0.0
  0
ENDBLK
  5
19F
330
192
100
AcDbEntity
  8
0
370
    30
100
AcDbBlockEnd
  0
BLOCK
  5
1A5
330
1A4
100
AcDbEntity
  8
0
370
    30
100
AcDbBlockBegin
  2
*D5
 70
     1
 10
0.0
 20
0.0
 30
0.0
  3
*D5
  1
*D6
  0
LINE
  5
1A6
330
1A4
100
AcDbEntity
  8
文字
 62
     0
370
    -2
100
AcDbLine
 10
141.5747665389433
 20
59.20955306481923
 30
0.0
 11
141.5747665389433
 21
25.54415546449511
 31
0.0
  0
LINE
  5
1A7
330
1A4
100
AcDbEntity
  8
文字
 62
     0
370
    -2
100
AcDbLine
 10
158.5488644531183
 20
59.20955306481923
 30
0.0
 11
158.5488644531183
 21
25.54415546449511
 31
0.0
  0
LINE
  5
1A8
330
1A4
100
AcDbEntity
  8
文字
 62
     0
370
    -2
100
AcDbLine
 10
144.0747665389433
 20
26.79415546449511
 30
0.0
 11
156.0488644531183
 21
26.79415546449511
 31
0.0
  0
SOLID
  5
1A9
330
1A4
100
AcDbEntity
  8
文字
 62
     0
100
AcDbTrace
 10
144.0747665389433
 20
27.21082213116177
 30
0.0
 11
144.0747665389433
 21
26.37748879782844
 31
0.0
 12
141.5747665389433
 22
26.79415546449511
 32
0.0
 13
141.5747665389433
 23
26.79415546449511
 33
0.0
  0
SOLID
  5
1AA
330
1A4
100
AcDbEntity
  8
文字
 62
     0
100
AcDbTrace
 10
156.0488644531183
 20
26.37748879782844
 30
0.0
 11
156.0488644531183
 21
27.21082213116177
 31
0.0
 12
158.5488644531183
 22
26.79415546449511
 32
0.0
 13
158.5488644531183
 23
26.79415546449511
 33
0.0
  0
MTEXT
  5
1AB
330
1A4
100
AcDbEntity
  8
文字
 62
     0
100
AcDbMText
 10
150.0618154960308
 20
28.67427142629592
 30
0.0
 40
2.5
 41
0.0
 46
0.0
 71
     5
 72
     1
  1
17
 73
     1
 44
1.0
  0
POINT
  5
1AC
330
1A4
100
AcDbEntity
  8
Defpoints
 62
     0
100
AcDbPoint
 10
141.5747665389433
 20
59.83455306481923
 30
0.0
  0
POINT
  5
1AD
330
1A4
100
AcDbEntity
  8
Defpoints
 62
     0
100
AcDbPoint
 10
158.5488644531183
 20
59.83455306481923
 30
0.0
  0
POINT
  5
1AE
330
1A4
100
AcDbEntity
  8
Defpoints
 62
     0
100
AcDbPoint
 10
158.5488644531183
 20
26.79415546449511
 30
0.0
  0
ENDBLK
  5
1AF
330
1A4
100
AcDbEntity
  8
0
370
    30
100
AcDbBlockEnd
  0
BLOCK
  5
1B4
330
1B3
100
AcDbEntity
  8
0
370
    30
100
AcDbBlockBegin
  2
*D6
 70
     1
 10
0.0
 20
0.0
 30
0.0
  3
*D6
  1
*D7
  0
LINE
  5
1B5
330
1B3
100
AcDbEntity
  8
文字
 62
     0
370
    -2
100
AcDbLine
 10
45.48664127958864
 20
35.51071035741606
 30
0.0
 11
81.65118167539698
 21
35.51071035741606
 31
0.0
  0
LINE
  5
1B6
330
1B3
100
AcDbEntity
  8
文字
 62
     0
370
    -2
100
AcDbLine
 10
45.48664127958864
 20
42.51071035741606
 30
0.0
 11
81.65118167539698
 21
42.51071035741606
 31
0.0
  0
LINE
  5
1B7
330
1B3
100
AcDbEntity
  8
文字
 62
     0
370
    -2
100
AcDbLine
 10
80.40118167539698
 20
38.01071035741606
 30
0.0
 11
80.40118167539698
 21
40.01071035741606
 31
0.0
  0
SOLID
  5
1B8
330
1B3
100
AcDbEntity
  8
文字
 62
     0
100
AcDbTrace
 10
79.98451500873031
 20
38.01071035741606
 30
0.0
 11
80.81784834206366
 21
38.01071035741606
 31
0.0
 12
80.40118167539698
 22
35.51071035741606
 32
0.0
 13
80.40118167539698
 23
35.51071035741606
 33
0.0
  0
SOLID
  5
1B9
330
1B3
100
AcDbEntity
  8
文字
 62
     0
100
AcDbTrace
 10
80.81784834206366
 20
40.01071035741606
 30
0.0
 11
79.98451500873031
 21
40.01071035741606
 31
0.0
 12
80.40118167539698
 22
42.51071035741606
 32
0.0
 13
80.40118167539698
 23
42.51071035741606
 33
0.0
  0
MTEXT
  5
1BA
330
1B3
100
AcDbEntity
  8
文字
 62
     0
100
AcDbMText
 10
78.52618167539698
 20
39.01071035741606
 30
0.0
 40
2.5
 41
0.0
 46
0.0
 71
     5
 72
     1
  1
7
 11
0.0
 21
1.0
 31
0.0
 73
     1
 44
1.0
  0
POINT
  5
1BB
330
1B3
100
AcDbEntity
  8
Defpoints
 62
     0
100
AcDbPoint
 10
44.86164127958864
 20
35.51071035741606
 30
0.0
  0
POINT
  5
1BC
330
1B3
100
AcDbEntity
  8
Defpoints
 62
     0
100
AcDbPoint
 10
44.86164127958864
 20
42.51071035741606
 30
0.0
  0
POINT
  5
1BD
330
1B3
100
AcDbEntity
  8
Defpoints
 62
     0
100
AcDbPoint
 10
80.40118167539698
 20
42.51071035741606
 30
0.0
  0
ENDBLK
  5
1BE
330
1B3
100
AcDbEntity
  8
0
370
    30
100
AcDbBlockEnd
  0
BLOCK
  5
1C2
330
1C1
100
AcDbEntity
  8
0
370
    20
100
AcDbBlockBegin
  2
*D7
 70
     1
 10
0.0
 20
0.0
 30
0.0
  3
*D7
  1
*D8
  0
LINE
  5
1C3
330
1C1
100
AcDbEntity
  8
文字
 62
     0
370
    -2
100
AcDbLine
 10
30.06164127958864
 20
92.13571035741606
 30
0.0
 11
30.06164127958864
 21
108.4344345738392
 31
0.0
  0
LINE
  5
1C4
330
1C1
100
AcDbEntity
  8
文字
 62
     0
370
    -2
100
AcDbLine
 10
40.06164127958864
 20
92.13571035741609
 30
0.0
 11
40.06164127958864
 21
108.4344345738392
 31
0.0
  0
LINE
  5
1C5
330
1C1
100
AcDbEntity
  8
文字
 62
     0
370
    -2
100
AcDbLine
 10
32.56164127958864
 20
107.1844345738392
 30
0.0
 11
37.56164127958864
 21
107.1844345738392
 31
0.0
  0
SOLID
  5
1C6
330
1C1
100
AcDbEntity
  8
文字
 62
     0
100
AcDbTrace
 10
32.56164127958864
 20
107.6011012405059
 30
0.0
 11
32.56164127958864
 21
106.7677679071725
 31
0.0
 12
30.06164127958864
 22
107.1844345738392
 32
0.0
 13
30.06164127958864
 23
107.1844345738392
 33
0.0
  0
SOLID
  5
1C7
330
1C1
100
AcDbEntity
  8
文字
 62
     0
100
AcDbTrace
 10
37.56164127958864
 20
106.7677679071725
 30
0.0
 11
37.56164127958864
 21
107.6011012405059
 31
0.0
 12
40.06164127958864
 22
107.1844345738392
 32
0.0
 13
40.06164127958864
 23
107.1844345738392
 33
0.0
  0
MTEXT
  5
1C8
330
1C1
100
AcDbEntity
  8
文字
 62
     0
100
AcDbMText
 10
35.06164127958864
 20
109.0850143828433
 30
0.0
 40
2.5
 41
0.0
 46
0.0
 71
     5
 72
     1
  1
{\fArial|b0|i0|c0|p32;M10}
 73
     1
 44
1.0
  0
POINT
  5
1C9
330
1C1
100
AcDbEntity
  8
Defpoints
 62
     0
100
AcDbPoint
 10
30.06164127958864
 20
91.51071035741606
 30
0.0
  0
POINT
  5
1CA
330
1C1
100
AcDbEntity
  8
Defpoints
 62
     0
100
AcDbPoint
 10
40.06164127958864
 20
91.51071035741609
 30
0.0
  0
POINT
  5
1CB
330
1C1
100
AcDbEntity
  8
Defpoints
 62
     0
100
AcDbPoint
 10
40.06164127958864
 20
107.1844345738392
 30
0.0
  0
ENDBLK
  5
1CC
330
1C1
100
AcDbEntity
  8
0
370
    20
100
AcDbBlockEnd
  0
BLOCK
  5
1D7
330
1D6
100
AcDbEntity
  8
0
100
AcDbBlockBegin
  2
*D8
 70
     1
 10
0.0
 20
0.0
 30
0.0
  3
*D8
  1
*D9
  0
LINE
  5
1D8
330
1D6
100
AcDbEntity
  8
文字
 62
     0
370
    -2
100
AcDbLine
 10
46.11164127958864
 20
42.51071035741606
 30
0.0
 11
81.65118167539698
 21
42.51071035741606
 31
0.0
  0
LINE
  5
1D9
330
1D6
100
AcDbEntity
  8
文字
 62
     0
370
    -2
100
AcDbLine
 10
38.68664127958864
 20
92.51071035741606
 30
0.0
 11
81.65118167539698
 21
92.51071035741606
 31
0.0
  0
LINE
  5
1DA
330
1D6
100
AcDbEntity
  8
文字
 62
     0
370
    -2
100
AcDbLine
 10
80.40118167539698
 20
45.01071035741606
 30
0.0
 11
80.40118167539698
 21
90.01071035741606
 31
0.0
  0
SOLID
  5
1DB
330
1D6
100
AcDbEntity
  8
文字
 62
     0
100
AcDbTrace
 10
79.98451500873031
 20
45.01071035741606
 30
0.0
 11
80.81784834206366
 21
45.01071035741606
 31
0.0
 12
80.40118167539698
 22
42.51071035741606
 32
0.0
 13
80.40118167539698
 23
42.51071035741606
 33
0.0
  0
SOLID
  5
1DC
330
1D6
100
AcDbEntity
  8
文字
 62
     0
100
AcDbTrace
 10
80.81784834206366
 20
90.01071035741606
 30
0.0
 11
79.98451500873031
 21
90.01071035741606
 31
0.0
 12
80.40118167539698
 22
92.51071035741606
 32
0.0
 13
80.40118167539698
 23
92.51071035741606
 33
0.0
  0
MTEXT
  5
1DD
330
1D6
100
AcDbEntity
  8
文字
 62
     0
100
AcDbMText
 10
78.50060186639288
 20
67.51071035741606
 30
0.0
 40
2.5
 41
0.0
 46
0.0
 71
     5
 72
     1
  1
50
 11
0.0
 21
1.0
 31
0.0
 73
     1
 44
1.0
  0
POINT
  5
1DE
330
1D6
100
AcDbEntity
  8
Defpoints
 62
     0
100
AcDbPoint
 10
45.48664127958864
 20
42.51071035741606
 30
0.0
  0
POINT
  5
1DF
330
1D6
100
AcDbEntity
  8
Defpoints
 62
     0
100
AcDbPoint
 10
38.06164127958864
 20
92.51071035741606
 30
0.0
  0
POINT
  5
1E0
330
1D6
100
AcDbEntity
  8
Defpoints
 62
     0
100
AcDbPoint
 10
80.40118167539698
 20
92.51071035741606
 30
0.0
  0
ENDBLK
  5
1E1
330
1D6
100
AcDbEntity
  8
0
100
AcDbBlockEnd
  0
BLOCK
  5
21C
330
21B
100
AcDbEntity
  8
0
100
AcDbBlockBegin
  2
*D9
 70
     1
 10
0.0
 20
0.0
 30
0.0
  3
*D9
  1
*D10
  0
LINE
  5
21E
330
21B
100
AcDbEntity
  8
文字
 62
     0
370
    -2
100
AcDbLine
 10
40.90098249089638
 20
47.73492625665313
 30
0.0
 11
40.90098249089638
 21
25.4326819662688
 31
0.0
  0
LINE
  5
21F
330
21B
100
AcDbEntity
  8
文字
 62
     0
370
    -2
100
AcDbLine
 10
78.90098249089638
 20
47.73492625665312
 30
0.0
 11
78.90098249089638
 21
25.4326819662688
 31
0.0
  0
LINE
  5
220
330
21B
100
AcDbEntity
  8
文字
 62
     0
370
    -2
100
AcDbLine
 10
43.40098249089638
 20
26.6826819662688
 30
0.0
 11
76.40098249089638
 21
26.6826819662688
 31
0.0
  0
SOLID
  5
221
330
21B
100
AcDbEntity
  8
文字
 62
     0
100
AcDbTrace
 10
43.40098249089638
 20
27.09934863293546
 30
0.0
 11
43.40098249089638
 21
26.26601529960213
 31
0.0
 12
40.90098249089638
 22
26.6826819662688
 32
0.0
 13
40.90098249089638
 23
26.6826819662688
 33
0.0
  0
SOLID
  5
222
330
21B
100
AcDbEntity
  8
文字
 62
     0
100
AcDbTrace
 10
76.40098249089638
 20
26.26601529960213
 30
0.0
 11
76.40098249089638
 21
27.09934863293546
 31
0.0
 12
78.90098249089638
 22
26.6826819662688
 32
0.0
 13
78.90098249089638
 23
26.6826819662688
 33
0.0
  0
MTEXT
  5
223
330
21B
100
AcDbEntity
  8
文字
 62
     0
100
AcDbMText
 10
59.90098249089638
 20
28.63101075208053
 30
0.0
 40
2.5
 41
0.0
 46
0.0
 71
     5
 72
     1
  1
%%c38
 73
     1
 44
1.0
  0
POINT
  5
224
330
21B
100
AcDbEntity
  8
Defpoints
 62
     0
100
AcDbPoint
 10
40.90098249089638
 20
48.35992625665313
 30
0.0
  0
POINT
  5
225
330
21B
100
AcDbEntity
  8
Defpoints
 62
     0
100
AcDbPoint
 10
78.90098249089638
 20
48.35992625665312
 30
0.0
  0
POINT
  5
226
330
21B
100
AcDbEntity
  8
Defpoints
 62
     0
100
AcDbPoint
 10
78.90098249089638
 20
26.6826819662688
 30
0.0
  0
ENDBLK
  5
21D
330
21B
100
AcDbEntity
  8
0
100
AcDbBlockEnd
  0
BLOCK
  5
228
330
227
100
AcDbEntity
  8
0
100
AcDbBlockBegin
  2
*D10
 70
     1
 10
0.0
 20
0.0
 30
0.0
  3
*D10
  1
*D11
  0
LINE
  5
22A
330
227
100
AcDbEntity
  8
文字
 62
     0
370
    -2
100
AcDbLine
 10
131.7127087026862
 20
64.01944210607165
 30
0.0
 11
131.7127087026862
 21
23.54866128985842
 31
0.0
  0
LINE
  5
22B
330
227
100
AcDbEntity
  8
文字
 62
     0
370
    -2
100
AcDbLine
 10
159.7127087026862
 20
64.01944210607165
 30
0.0
 11
159.7127087026862
 21
23.54866128985842
 31
0.0
  0
LINE
  5
22C
330
227
100
AcDbEntity
  8
文字
 62
     0
370
    -2
100
AcDbLine
 10
134.2127087026862
 20
24.79866128985842
 30
0.0
 11
157.2127087026862
 21
24.79866128985842
 31
0.0
  0
SOLID
  5
22D
330
227
100
AcDbEntity
  8
文字
 62
     0
100
AcDbTrace
 10
134.2127087026862
 20
25.21532795652509
 30
0.0
 11
134.2127087026862
 21
24.38199462319175
 31
0.0
 12
131.7127087026862
 22
24.79866128985842
 32
0.0
 13
131.7127087026862
 23
24.79866128985842
 33
0.0
  0
SOLID
  5
22E
330
227
100
AcDbEntity
  8
文字
 62
     0
100
AcDbTrace
 10
157.2127087026862
 20
24.38199462319175
 30
0.0
 11
157.2127087026862
 21
25.21532795652509
 31
0.0
 12
159.7127087026862
 22
24.79866128985842
 32
0.0
 13
159.7127087026862
 23
24.79866128985842
 33
0.0
  0
MTEXT
  5
22F
330
227
100
AcDbEntity
  8
文字
 62
     0
100
AcDbMText
 10
145.7127087026862
 20
26.74491128985842
 30
0.0
 40
2.5
 41
0.0
 46
0.0
 71
     5
 72
     1
  1
%%c28
 73
     1
 44
1.0
  0
POINT
  5
230
330
227
100
AcDbEntity
  8
Defpoints
 62
     0
100
AcDbPoint
 10
131.7127087026862
 20
64.64444210607165
 30
0.0
  0
POINT
  5
231
330
227
100
AcDbEntity
  8
Defpoints
 62
     0
100
AcDbPoint
 10
159.7127087026862
 20
64.64444210607165
 30
0.0
  0
POINT
  5
232
330
227
100
AcDbEntity
  8
Defpoints
 62
     0
100
AcDbPoint
 10
159.7127087026862
 20
24.79866128985842
 30
0.0
  0
ENDBLK
  5
229
330
227
100
AcDbEntity
  8
0
100
AcDbBlockEnd
  0
BLOCK
  5
234
330
233
100
AcDbEntity
  8
0
100
AcDbBlockBegin
  2
*D11
 70
     1
 10
0.0
 20
0.0
 30
0.0
  3
*D11
  1
*D12
  0
LINE
  5
236
330
233
100
AcDbEntity
  8
文字
 62
     0
370
    -2
100
AcDbLine
 10
65.54221338327322
 20
60.94339232368485
 30
0.0
 11
106.5347136674122
 21
60.94339232368485
 31
0.0
  0
LINE
  5
237
330
233
100
AcDbEntity
  8
文字
 62
     0
370
    -2
100
AcDbLine
 10
79.52598249089638
 20
48.35992625665312
 30
0.0
 11
106.5347136674122
 21
48.35992625665312
 31
0.0
  0
LINE
  5
238
330
233
100
AcDbEntity
  8
文字
 62
     0
370
    -2
100
AcDbLine
 10
105.2847136674122
 20
58.44339232368485
 30
0.0
 11
105.2847136674122
 21
50.85992625665312
 31
0.0
  0
SOLID
  5
239
330
233
100
AcDbEntity
  8
文字
 62
     0
100
AcDbTrace
 10
105.7013803340789
 20
58.44339232368485
 30
0.0
 11
104.8680470007455
 21
58.44339232368485
 31
0.0
 12
105.2847136674122
 22
60.94339232368485
 32
0.0
 13
105.2847136674122
 23
60.94339232368485
 33
0.0
  0
SOLID
  5
23A
330
233
100
AcDbEntity
  8
文字
 62
     0
100
AcDbTrace
 10
104.8680470007455
 20
50.85992625665312
 30
0.0
 11
105.7013803340789
 21
50.85992625665312
 31
0.0
 12
105.2847136674122
 22
48.35992625665312
 32
0.0
 13
105.2847136674122
 23
48.35992625665312
 33
0.0
  0
MTEXT
  5
23B
330
233
100
AcDbEntity
  8
文字
 62
     0
100
AcDbMText
 10
103.4045977056114
 20
54.65165929016899
 30
0.0
 40
2.5
 41
0.0
 46
0.0
 71
     5
 72
     1
  1
12
 11
0.0
 21
1.0
 31
0.0
 73
     1
 44
1.0
  0
POINT
  5
23C
330
233
100
AcDbEntity
  8
Defpoints
 62
     0
100
AcDbPoint
 10
64.91721338327322
 20
60.94339232368485
 30
0.0
  0
POINT
  5
23D
330
233
100
AcDbEntity
  8
Defpoints
 62
     0
100
AcDbPoint
 10
78.90098249089638
 20
48.35992625665312
 30
0.0
  0
POINT
  5
23E
330
233
100
AcDbEntity
  8
Defpoints
 62
     0
100
AcDbPoint
 10
105.2847136674122
 20
48.35992625665312
 30
0.0
  0
ENDBLK
  5
235
330
233
100
AcDbEntity
  8
0
100
AcDbBlockEnd
  0
BLOCK
  5
240
330
23F
100
AcDbEntity
  8
0
100
AcDbBlockBegin
  2
*D12
 70
     1
 10
0.0
 20
0.0
 30
0.0
  3
*D12
  1
*D13
  0
LINE
  5
242
330
23F
100
AcDbEntity
  8
文字
 62
     0
370
    -2
100
AcDbLine
 10
40.27598249089638
 20
49.95992625665313
 30
0.0
 11
26.71434121130775
 21
49.95992625665313
 31
0.0
  0
LINE
  5
243
330
23F
100
AcDbEntity
  8
文字
 62
     0
370
    -2
100
AcDbLine
 10
40.27598249089638
 20
48.35992625665313
 30
0.0
 11
26.71434121130775
 21
48.35992625665313
 31
0.0
  0
LINE
  5
244
330
23F
100
AcDbEntity
  8
文字
 62
     0
370
    -2
100
AcDbLine
 10
27.96434121130775
 20
45.85992625665313
 30
0.0
 11
27.96434121130775
 21
41.22492625665313
 31
0.0
  0
LINE
  5
245
330
23F
100
AcDbEntity
  8
文字
 62
     0
370
    -2
100
AcDbLine
 10
27.96434121130775
 20
49.95992625665313
 30
0.0
 11
27.96434121130775
 21
48.35992625665313
 31
0.0
  0
LINE
  5
246
330
23F
100
AcDbEntity
  8
文字
 62
     0
370
    -2
100
AcDbLine
 10
27.96434121130775
 20
52.45992625665313
 30
0.0
 11
27.96434121130775
 21
54.95992625665313
 31
0.0
  0
SOLID
  5
247
330
23F
100
AcDbEntity
  8
文字
 62
     0
100
AcDbTrace
 10
27.54767454464108
 20
52.45992625665313
 30
0.0
 11
28.38100787797442
 21
52.45992625665313
 31
0.0
 12
27.96434121130775
 22
49.95992625665313
 32
0.0
 13
27.96434121130775
 23
49.95992625665313
 33
0.0
  0
SOLID
  5
248
330
23F
100
AcDbEntity
  8
文字
 62
     0
100
AcDbTrace
 10
28.38100787797442
 20
45.85992625665313
 30
0.0
 11
27.54767454464108
 21
45.85992625665313
 31
0.0
 12
27.96434121130775
 22
48.35992625665313
 32
0.0
 13
27.96434121130775
 23
48.35992625665313
 33
0.0
  0
MTEXT
  5
249
330
23F
100
AcDbEntity
  8
文字
 62
     0
100
AcDbMText
 10
26.07684121130775
 20
42.29242625665313
 30
0.0
 40
2.5
 41
0.0
 46
0.0
 71
     5
 72
     1
  1
t
 11
0.0
 21
1.0
 31
0.0
 73
     1
 44
1.0
  0
POINT
  5
24A
330
23F
100
AcDbEntity
  8
Defpoints
 62
     0
100
AcDbPoint
 10
40.90098249089638
 20
49.95992625665313
 30
0.0
  0
POINT
  5
24B
330
23F
100
AcDbEntity
  8
Defpoints
 62
     0
100
AcDbPoint
 10
40.90098249089638
 20
48.35992625665313
 30
0.0
  0
POINT
  5
24C
330
23F
100
AcDbEntity
  8
Defpoints
 62
     0
100
AcDbPoint
 10
27.96434121130775
 20
48.35992625665313
 30
0.0
  0
ENDBLK
  5
241
330
23F
100
AcDbEntity
  8
0
100
AcDbBlockEnd
  0
BLOCK
  5
24E
330
24D
100
AcDbEntity
  8
0
100
AcDbBlockBegin
  2
*D13
 70
     1
 10
0.0
 20
0.0
 30
0.0
  3
*D13
  1
*D14
  0
LINE
  5
250
330
24D
100
AcDbEntity
  8
文字
 62
     0
370
    -2
100
AcDbLine
 10
137.2256597455987
 20
64.01944210607165
 30
0.0
 11
137.2256597455987
 21
30.35404450574752
 31
0.0
  0
LINE
  5
251
330
24D
100
AcDbEntity
  8
文字
 62
     0
370
    -2
100
AcDbLine
 10
154.1997576597737
 20
64.01944210607165
 30
0.0
 11
154.1997576597737
 21
30.35404450574752
 31
0.0
  0
LINE
  5
252
330
24D
100
AcDbEntity
  8
文字
 62
     0
370
    -2
100
AcDbLine
 10
139.7256597455987
 20
31.60404450574752
 30
0.0
 11
151.6997576597737
 21
31.60404450574752
 31
0.0
  0
SOLID
  5
253
330
24D
100
AcDbEntity
  8
文字
 62
     0
100
AcDbTrace
 10
139.7256597455987
 20
32.02071117241418
 30
0.0
 11
139.7256597455987
 21
31.18737783908085
 31
0.0
 12
137.2256597455987
 22
31.60404450574752
 32
0.0
 13
137.2256597455987
 23
31.60404450574752
 33
0.0
  0
SOLID
  5
254
330
24D
100
AcDbEntity
  8
文字
 62
     0
100
AcDbTrace
 10
151.6997576597737
 20
31.18737783908085
 30
0.0
 11
151.6997576597737
 21
32.02071117241418
 31
0.0
 12
154.1997576597737
 22
31.60404450574752
 32
0.0
 13
154.1997576597737
 23
31.60404450574752
 33
0.0
  0
MTEXT
  5
255
330
24D
100
AcDbEntity
  8
文字
 62
     0
100
AcDbMText
 10
145.7127087026862
 20
33.48404450574752
 30
0.0
 40
2.5
 41
0.0
 46
0.0
 71
     5
 72
     1
  1
17
 73
     1
 44
1.0
  0
POINT
  5
256
330
24D
100
AcDbEntity
  8
Defpoints
 62
     0
100
AcDbPoint
 10
137.2256597455987
 20
64.64444210607165
 30
0.0
  0
POINT
  5
257
330
24D
100
AcDbEntity
  8
Defpoints
 62
     0
100
AcDbPoint
 10
154.1997576597737
 20
64.64444210607165
 30
0.0
  0
POINT
  5
258
330
24D
100
AcDbEntity
  8
Defpoints
 62
     0
100
AcDbPoint
 10
154.1997576597737
 20
31.60404450574752
 30
0.0
  0
ENDBLK
  5
24F
330
24D
100
AcDbEntity
  8
0
100
AcDbBlockEnd
  0
BLOCK
  5
25A
330
259
100
AcDbEntity
  8
0
100
AcDbBlockBegin
  2
*D14
 70
     1
 10
0.0
 20
0.0
 30
0.0
  3
*D14
  1
*D15
  0
LINE
  5
25C
330
259
100
AcDbEntity
  8
文字
 62
     0
370
    -2
100
AcDbLine
 10
70.32598249089638
 20
60.94339232368485
 30
0.0
 11
106.4905228867047
 21
60.94339232368485
 31
0.0
  0
LINE
  5
25D
330
259
100
AcDbEntity
  8
文字
 62
     0
370
    -2
100
AcDbLine
 10
70.32598249089638
 20
67.94339232368486
 30
0.0
 11
106.4905228867047
 21
67.94339232368486
 31
0.0
  0
LINE
  5
25E
330
259
100
AcDbEntity
  8
文字
 62
     0
370
    -2
100
AcDbLine
 10
105.2405228867047
 20
63.44339232368485
 30
0.0
 11
105.2405228867047
 21
65.44339232368486
 31
0.0
  0
SOLID
  5
25F
330
259
100
AcDbEntity
  8
文字
 62
     0
100
AcDbTrace
 10
104.8238562200381
 20
63.44339232368485
 30
0.0
 11
105.6571895533714
 21
63.44339232368485
 31
0.0
 12
105.2405228867047
 22
60.94339232368485
 32
0.0
 13
105.2405228867047
 23
60.94339232368485
 33
0.0
  0
SOLID
  5
260
330
259
100
AcDbEntity
  8
文字
 62
     0
100
AcDbTrace
 10
105.6571895533714
 20
65.44339232368486
 30
0.0
 11
104.8238562200381
 21
65.44339232368486
 31
0.0
 12
105.2405228867047
 22
67.94339232368486
 32
0.0
 13
105.2405228867047
 23
67.94339232368486
 33
0.0
  0
MTEXT
  5
261
330
259
100
AcDbEntity
  8
文字
 62
     0
100
AcDbMText
 10
103.3655228867047
 20
64.44339232368486
 30
0.0
 40
2.5
 41
0.0
 46
0.0
 71
     5
 72
     1
  1
7
 11
0.0
 21
1.0
 31
0.0
 73
     1
 44
1.0
  0
POINT
  5
262
330
259
100
AcDbEntity
  8
Defpoints
 62
     0
100
AcDbPoint
 10
69.70098249089638
 20
60.94339232368485
 30
0.0
  0
POINT
  5
263
330
259
100
AcDbEntity
  8
Defpoints
 62
     0
100
AcDbPoint
 10
69.70098249089638
 20
67.94339232368486
 30
0.0
  0
POINT
  5
264
330
259
100
AcDbEntity
  8
Defpoints
 62
     0
100
AcDbPoint
 10
105.2405228867047
 20
67.94339232368486
 30
0.0
  0
ENDBLK
  5
25B
330
259
100
AcDbEntity
  8
0
100
AcDbBlockEnd
  0
BLOCK
  5
266
330
265
100
AcDbEntity
  8
0
100
AcDbBlockBegin
  2
*D15
 70
     1
 10
0.0
 20
0.0
 30
0.0
  3
*D15
  1
*D16
  0
LINE
  5
268
330
265
100
AcDbEntity
  8
文字
 62
     0
370
    -2
100
AcDbLine
 10
54.90098249089638
 20
102.5296304693027
 30
0.0
 11
54.90098249089638
 21
112.0011941340873
 31
0.0
  0
LINE
  5
269
330
265
100
AcDbEntity
  8
文字
 62
     0
370
    -2
100
AcDbLine
 10
64.90098249089638
 20
102.5296304693027
 30
0.0
 11
64.90098249089638
 21
112.0011941340873
 31
0.0
  0
LINE
  5
26A
330
265
100
AcDbEntity
  8
文字
 62
     0
370
    -2
100
AcDbLine
 10
57.40098249089638
 20
110.7511941340873
 30
0.0
 11
62.40098249089638
 21
110.7511941340873
 31
0.0
  0
SOLID
  5
26B
330
265
100
AcDbEntity
  8
文字
 62
     0
100
AcDbTrace
 10
57.40098249089638
 20
111.167860800754
 30
0.0
 11
57.40098249089638
 21
110.3345274674207
 31
0.0
 12
54.90098249089638
 22
110.7511941340873
 32
0.0
 13
54.90098249089638
 23
110.7511941340873
 33
0.0
  0
SOLID
  5
26C
330
265
100
AcDbEntity
  8
文字
 62
     0
100
AcDbTrace
 10
62.40098249089638
 20
110.3345274674207
 30
0.0
 11
62.40098249089638
 21
111.167860800754
 31
0.0
 12
64.90098249089638
 22
110.7511941340873
 32
0.0
 13
64.90098249089638
 23
110.7511941340873
 33
0.0
  0
MTEXT
  5
26D
330
265
100
AcDbEntity
  8
文字
 62
     0
100
AcDbMText
 10
59.99569518648275
 20
112.6524441340873
 30
0.0
 40
2.5
 41
0.0
 46
0.0
 71
     5
 72
     1
  1
{\fArial|b0|i0|c0|p32;M10}
 73
     1
 44
1.0
  0
POINT
  5
26E
330
265
100
AcDbEntity
  8
Defpoints
 62
     0
100
AcDbPoint
 10
54.90098249089638
 20
101.9046304693027
 30
0.0
  0
POINT
  5
26F
330
265
100
AcDbEntity
  8
Defpoints
 62
     0
100
AcDbPoint
 10
64.90098249089638
 20
101.9046304693027
 30
0.0
  0
POINT
  5
270
330
265
100
AcDbEntity
  8
Defpoints
 62
     0
100
AcDbPoint
 10
64.90098249089638
 20
110.7511941340873
 30
0.0
  0
ENDBLK
  5
267
330
265
100
AcDbEntity
  8
0
100
AcDbBlockEnd
  0
BLOCK
  5
272
330
271
100
AcDbEntity
  8
0
100
AcDbBlockBegin
  2
*D16
 70
     1
 10
0.0
 20
0.0
 30
0.0
  3
*D16
  1
*D17
  0
LINE
  5
274
330
271
100
AcDbEntity
  8
文字
 62
     0
370
    -2
100
AcDbLine
 10
70.95098249089638
 20
67.94339232368486
 30
0.0
 11
106.4905228867047
 21
67.94339232368486
 31
0.0
  0
LINE
  5
275
330
271
100
AcDbEntity
  8
文字
 62
     0
370
    -2
100
AcDbLine
 10
62.28800914108943
 20
102.9443951739979
 30
0.0
 11
106.4905228867047
 21
102.9443951739979
 31
0.0
  0
LINE
  5
276
330
271
100
AcDbEntity
  8
文字
 62
     0
370
    -2
100
AcDbLine
 10
105.2405228867047
 20
70.44339232368486
 30
0.0
 11
105.2405228867047
 21
100.4443951739979
 31
0.0
  0
SOLID
  5
277
330
271
100
AcDbEntity
  8
文字
 62
     0
100
AcDbTrace
 10
104.823856220038
 20
70.44339232368486
 30
0.0
 11
105.6571895533714
 21
70.44339232368486
 31
0.0
 12
105.2405228867047
 22
67.94339232368486
 32
0.0
 13
105.2405228867047
 23
67.94339232368486
 33
0.0
  0
SOLID
  5
278
330
271
100
AcDbEntity
  8
文字
 62
     0
100
AcDbTrace
 10
105.6571895533714
 20
100.4443951739979
 30
0.0
 11
104.823856220038
 21
100.4443951739979
 31
0.0
 12
105.2405228867047
 22
102.9443951739979
 32
0.0
 13
105.2405228867047
 23
102.9443951739979
 33
0.0
  0
MTEXT
  5
279
330
271
100
AcDbEntity
  8
文字
 62
     0
100
AcDbMText
 10
103.3392728867047
 20
85.44389374884138
 30
0.0
 40
2.5
 41
0.0
 46
0.0
 71
     5
 72
     1
  1
35
 11
0.0
 21
1.0
 31
0.0
 73
     1
 44
1.0
  0
POINT
  5
27A
330
271
100
AcDbEntity
  8
Defpoints
 62
     0
100
AcDbPoint
 10
70.32598249089638
 20
67.94339232368486
 30
0.0
  0
POINT
  5
27B
330
271
100
AcDbEntity
  8
Defpoints
 62
     0
100
AcDbPoint
 10
61.66300914108943
 20
102.9443951739979
 30
0.0
  0
POINT
  5
27C
330
271
100
AcDbEntity
  8
Defpoints
 62
     0
100
AcDbPoint
 10
105.2405228867047
 20
102.9443951739979
 30
0.0
  0
ENDBLK
  5
273
330
271
100
AcDbEntity
  8
0
100
AcDbBlockEnd
  0
BLOCK
  5
30C
330
30B
100
AcDbEntity
  8
0
100
AcDbBlockBegin
  2
*D17
 70
     1
 10
0.0
 20
0.0
 30
0.0
  3
*D17
  1
*D11
  0
LINE
  5
30D
330
30B
100
AcDbEntity
  8
文字
 62
     0
370
    -2
100
AcDbLine
 10
17.46532435625431
 20
39.49607524573747
 30
0.0
 11
1.84499999999997
 21
39.49607524573747
 31
0.0
  0
LINE
  5
30E
330
30B
100
AcDbEntity
  8
文字
 62
     0
370
    -2
100
AcDbLine
 10
17.46532435625431
 20
37.89607524573748
 30
0.0
 11
1.84499999999997
 21
37.89607524573748
 31
0.0
  0
LINE
  5
30F
330
30B
100
AcDbEntity
  8
文字
 62
     0
370
    -2
100
AcDbLine
 10
3.09499999999997
 20
35.39607524573748
 30
0.0
 11
3.09499999999997
 21
30.76107524573748
 31
0.0
  0
LINE
  5
310
330
30B
100
AcDbEntity
  8
文字
 62
     0
370
    -2
100
AcDbLine
 10
3.09499999999997
 20
39.49607524573747
 30
0.0
 11
3.09499999999997
 21
37.89607524573748
 31
0.0
  0
LINE
  5
311
330
30B
100
AcDbEntity
  8
文字
 62
     0
370
    -2
100
AcDbLine
 10
3.09499999999997
 20
41.99607524573747
 30
0.0
 11
3.09499999999997
 21
44.49607524573747
 31
0.0
  0
SOLID
  5
312
330
30B
100
AcDbEntity
  8
文字
 62
     0
100
AcDbTrace
 10
2.678333333333304
 20
41.99607524573747
 30
0.0
 11
3.511666666666637
 21
41.99607524573747
 31
0.0
 12
3.09499999999997
 22
39.49607524573747
 32
0.0
 13
3.09499999999997
 23
39.49607524573747
 33
0.0
  0
SOLID
  5
313
330
30B
100
AcDbEntity
  8
文字
 62
     0
100
AcDbTrace
 10
3.511666666666637
 20
35.39607524573748
 30
0.0
 11
2.678333333333304
 21
35.39607524573748
 31
0.0
 12
3.09499999999997
 22
37.89607524573748
 32
0.0
 13
3.09499999999997
 23
37.89607524573748
 33
0.0
  0
MTEXT
  5
314
330
30B
100
AcDbEntity
  8
文字
 62
     0
100
AcDbMText
 10
1.207499999999968
 20
31.82857524573748
 30
0.0
 40
2.5
 41
0.0
 46
0.0
 71
     5
 72
     1
  1
t
 11
0.0
 21
1.0
 31
0.0
 73
     1
 44
1.0
  0
POINT
  5
315
330
30B
100
AcDbEntity
  8
Defpoints
 62
     0
100
AcDbPoint
 10
18.09032435625431
 20
39.49607524573747
 30
0.0
  0
POINT
  5
316
330
30B
100
AcDbEntity
  8
Defpoints
 62
     0
100
AcDbPoint
 10
18.09032435625431
 20
37.89607524573748
 30
0.0
  0
POINT
  5
317
330
30B
100
AcDbEntity
  8
Defpoints
 62
     0
100
AcDbPoint
 10
3.09499999999997
 20
37.89607524573748
 30
0.0
  0
ENDBLK
  5
318
330
30B
100
AcDbEntity
  8
0
100
AcDbBlockEnd
  0
BLOCK
  5
31B
330
31A
100
AcDbEntity
  8
0
100
AcDbBlockBegin
  2
*D18
 70
     1
 10
0.0
 20
0.0
 30
0.0
  3
*D18
  1
*D14
  0
LINE
  5
31C
330
31A
100
AcDbEntity
  8
文字
 62
     0
370
    -2
100
AcDbLine
 10
18.09032435625431
 20
37.27107524573748
 30
0.0
 11
18.09032435625431
 21
17.19409102143149
 31
0.0
  0
LINE
  5
31D
330
31A
100
AcDbEntity
  8
文字
 62
     0
370
    -2
100
AcDbLine
 10
56.09032435625432
 20
37.27107524573739
 30
0.0
 11
56.09032435625432
 21
17.19409102143149
 31
0.0
  0
LINE
  5
31E
330
31A
100
AcDbEntity
  8
文字
 62
     0
370
    -2
100
AcDbLine
 10
20.59032435625431
 20
18.44409102143149
 30
0.0
 11
53.59032435625432
 21
18.44409102143149
 31
0.0
  0
SOLID
  5
31F
330
31A
100
AcDbEntity
  8
文字
 62
     0
100
AcDbTrace
 10
20.59032435625431
 20
18.86075768809816
 30
0.0
 11
20.59032435625431
 21
18.02742435476482
 31
0.0
 12
18.09032435625431
 22
18.44409102143149
 32
0.0
 13
18.09032435625431
 23
18.44409102143149
 33
0.0
  0
SOLID
  5
320
330
31A
100
AcDbEntity
  8
文字
 62
     0
100
AcDbTrace
 10
53.59032435625432
 20
18.02742435476482
 30
0.0
 11
53.59032435625432
 21
18.86075768809816
 31
0.0
 12
56.09032435625432
 22
18.44409102143149
 32
0.0
 13
56.09032435625432
 23
18.44409102143149
 33
0.0
  0
MTEXT
  5
321
330
31A
100
AcDbEntity
  8
文字
 62
     0
100
AcDbMText
 10
37.09032435625431
 20
20.39034102143149
 30
0.0
 40
2.5
 41
0.0
 46
0.0
 71
     5
 72
     1
  1
%%c38
 73
     1
 44
1.0
  0
POINT
  5
322
330
31A
100
AcDbEntity
  8
Defpoints
 62
     0
100
AcDbPoint
 10
18.09032435625431
 20
37.89607524573748
 30
0.0
  0
POINT
  5
323
330
31A
100
AcDbEntity
  8
Defpoints
 62
     0
100
AcDbPoint
 10
56.09032435625432
 20
37.89607524573739
 30
0.0
  0
POINT
  5
324
330
31A
100
AcDbEntity
  8
Defpoints
 62
     0
100
AcDbPoint
 10
56.09032435625432
 20
18.44409102143149
 30
0.0
  0
ENDBLK
  5
325
330
31A
100
AcDbEntity
  8
0
100
AcDbBlockEnd
  0
BLOCK
  5
32A
330
329
100
AcDbEntity
  8
0
100
AcDbBlockBegin
  2
*D19
 70
     1
 10
0.0
 20
0.0
 30
0.0
  3
*D19
  1
*D15
  0
LINE
  5
32B
330
329
100
AcDbEntity
  8
文字
 62
     0
370
    -2
100
AcDbLine
 10
56.71532435625432
 20
37.89607524573739
 30
0.0
 11
71.94703363511206
 21
37.89607524573739
 31
0.0
  0
LINE
  5
32C
330
329
100
AcDbEntity
  8
文字
 62
     0
370
    -2
100
AcDbLine
 10
42.73155524863117
 20
50.47954131276919
 30
0.0
 11
71.94703363511206
 21
50.47954131276919
 31
0.0
  0
LINE
  5
32D
330
329
100
AcDbEntity
  8
文字
 62
     0
370
    -2
100
AcDbLine
 10
70.69703363511206
 20
40.39607524573739
 30
0.0
 11
70.69703363511206
 21
47.97954131276919
 31
0.0
  0
SOLID
  5
32E
330
329
100
AcDbEntity
  8
文字
 62
     0
100
AcDbTrace
 10
70.28036696844539
 20
40.39607524573739
 30
0.0
 11
71.11370030177874
 21
40.39607524573739
 31
0.0
 12
70.69703363511206
 22
37.89607524573739
 32
0.0
 13
70.69703363511206
 23
37.89607524573739
 33
0.0
  0
SOLID
  5
32F
330
329
100
AcDbEntity
  8
文字
 62
     0
100
AcDbTrace
 10
71.11370030177874
 20
47.97954131276919
 30
0.0
 11
70.28036696844539
 21
47.97954131276919
 31
0.0
 12
70.69703363511206
 22
50.47954131276919
 32
0.0
 13
70.69703363511206
 23
50.47954131276919
 33
0.0
  0
MTEXT
  5
330
330
329
100
AcDbEntity
  8
文字
 62
     0
100
AcDbMText
 10
68.79578363511206
 20
44.18780827925329
 30
0.0
 40
2.5
 41
0.0
 46
0.0
 71
     5
 72
     1
  1
13
 11
0.0
 21
1.0
 31
0.0
 73
     1
 44
1.0
  0
POINT
  5
331
330
329
100
AcDbEntity
  8
Defpoints
 62
     0
100
AcDbPoint
 10
56.09032435625432
 20
37.89607524573739
 30
0.0
  0
POINT
  5
332
330
329
100
AcDbEntity
  8
Defpoints
 62
     0
100
AcDbPoint
 10
42.10655524863117
 20
50.47954131276919
 30
0.0
  0
POINT
  5
333
330
329
100
AcDbEntity
  8
Defpoints
 62
     0
100
AcDbPoint
 10
70.69703363511206
 20
50.47954131276919
 30
0.0
  0
ENDBLK
  5
334
330
329
100
AcDbEntity
  8
0
100
AcDbBlockEnd
  0
BLOCK
  5
34E
330
34D
100
AcDbEntity
  8
0
100
AcDbBlockBegin
  2
*D20
 70
     1
 10
0.0
 20
0.0
 30
0.0
  3
*D20
  1
*D21
  0
LINE
  5
350
330
34D
100
AcDbEntity
  8
文字
 62
     0
370
    -2
100
AcDbLine
 10
109.7143385082035
 20
138.8380820484484
 30
0.0
 11
94.09401415194921
 21
138.8380820484484
 31
0.0
  0
LINE
  5
351
330
34D
100
AcDbEntity
  8
文字
 62
     0
370
    -2
100
AcDbLine
 10
109.7143385082035
 20
137.2380820484484
 30
0.0
 11
94.09401415194921
 21
137.2380820484484
 31
0.0
  0
LINE
  5
352
330
34D
100
AcDbEntity
  8
文字
 62
     0
370
    -2
100
AcDbLine
 10
95.34401415194921
 20
134.7380820484484
 30
0.0
 11
95.34401415194921
 21
130.1030820484484
 31
0.0
  0
LINE
  5
353
330
34D
100
AcDbEntity
  8
文字
 62
     0
370
    -2
100
AcDbLine
 10
95.34401415194921
 20
138.8380820484484
 30
0.0
 11
95.34401415194921
 21
137.2380820484484
 31
0.0
  0
LINE
  5
354
330
34D
100
AcDbEntity
  8
文字
 62
     0
370
    -2
100
AcDbLine
 10
95.34401415194921
 20
141.3380820484484
 30
0.0
 11
95.34401415194921
 21
143.8380820484484
 31
0.0
  0
SOLID
  5
355
330
34D
100
AcDbEntity
  8
文字
 62
     0
100
AcDbTrace
 10
94.92734748528254
 20
141.3380820484484
 30
0.0
 11
95.76068081861588
 21
141.3380820484484
 31
0.0
 12
95.34401415194921
 22
138.8380820484484
 32
0.0
 13
95.34401415194921
 23
138.8380820484484
 33
0.0
  0
SOLID
  5
356
330
34D
100
AcDbEntity
  8
文字
 62
     0
100
AcDbTrace
 10
95.76068081861588
 20
134.7380820484484
 30
0.0
 11
94.92734748528254
 21
134.7380820484484
 31
0.0
 12
95.34401415194921
 22
137.2380820484484
 32
0.0
 13
95.34401415194921
 23
137.2380820484484
 33
0.0
  0
MTEXT
  5
357
330
34D
100
AcDbEntity
  8
文字
 62
     0
100
AcDbMText
 10
93.45651415194922
 20
131.1705820484484
 30
0.0
 40
2.5
 41
0.0
 46
0.0
 71
     5
 72
     1
  1
t
 11
0.0
 21
1.0
 31
0.0
 73
     1
 44
1.0
  0
POINT
  5
358
330
34D
100
AcDbEntity
  8
Defpoints
 62
     0
100
AcDbPoint
 10
110.3393385082035
 20
138.8380820484484
 30
0.0
  0
POINT
  5
359
330
34D
100
AcDbEntity
  8
Defpoints
 62
     0
100
AcDbPoint
 10
110.3393385082035
 20
137.2380820484484
 30
0.0
  0
POINT
  5
35A
330
34D
100
AcDbEntity
  8
Defpoints
 62
     0
100
AcDbPoint
 10
95.34401415194921
 20
137.2380820484484
 30
0.0
  0
ENDBLK
  5
34F
330
34D
100
AcDbEntity
  8
0
100
AcDbBlockEnd
  0
BLOCK
  5
35C
330
35B
100
AcDbEntity
  8
0
100
AcDbBlockBegin
  2
*D21
 70
     1
 10
0.0
 20
0.0
 30
0.0
  3
*D21
  1
*D22
  0
LINE
  5
35E
330
35B
100
AcDbEntity
  8
文字
 62
     0
370
    -2
100
AcDbLine
 10
110.3393385082035
 20
136.6130820484484
 30
0.0
 11
110.3393385082035
 21
116.5360978241424
 31
0.0
  0
LINE
  5
35F
330
35B
100
AcDbEntity
  8
文字
 62
     0
370
    -2
100
AcDbLine
 10
148.3393385082036
 20
136.6130820484483
 30
0.0
 11
148.3393385082036
 21
116.5360978241424
 31
0.0
  0
LINE
  5
360
330
35B
100
AcDbEntity
  8
文字
 62
     0
370
    -2
100
AcDbLine
 10
112.8393385082035
 20
117.7860978241424
 30
0.0
 11
145.8393385082036
 21
117.7860978241424
 31
0.0
  0
SOLID
  5
361
330
35B
100
AcDbEntity
  8
文字
 62
     0
100
AcDbTrace
 10
112.8393385082035
 20
118.2027644908091
 30
0.0
 11
112.8393385082035
 21
117.3694311574757
 31
0.0
 12
110.3393385082035
 22
117.7860978241424
 32
0.0
 13
110.3393385082035
 23
117.7860978241424
 33
0.0
  0
SOLID
  5
362
330
35B
100
AcDbEntity
  8
文字
 62
     0
100
AcDbTrace
 10
145.8393385082036
 20
117.3694311574757
 30
0.0
 11
145.8393385082036
 21
118.2027644908091
 31
0.0
 12
148.3393385082036
 22
117.7860978241424
 32
0.0
 13
148.3393385082036
 23
117.7860978241424
 33
0.0
  0
MTEXT
  5
363
330
35B
100
AcDbEntity
  8
文字
 62
     0
100
AcDbMText
 10
129.3393385082036
 20
119.7323478241424
 30
0.0
 40
2.5
 41
0.0
 46
0.0
 71
     5
 72
     1
  1
%%c38
 73
     1
 44
1.0
  0
POINT
  5
364
330
35B
100
AcDbEntity
  8
Defpoints
 62
     0
100
AcDbPoint
 10
110.3393385082035
 20
137.2380820484484
 30
0.0
  0
POINT
  5
365
330
35B
100
AcDbEntity
  8
Defpoints
 62
     0
100
AcDbPoint
 10
148.3393385082036
 20
137.2380820484483
 30
0.0
  0
POINT
  5
366
330
35B
100
AcDbEntity
  8
Defpoints
 62
     0
100
AcDbPoint
 10
148.3393385082036
 20
117.7860978241424
 30
0.0
  0
ENDBLK
  5
35D
330
35B
100
AcDbEntity
  8
0
100
AcDbBlockEnd
  0
BLOCK
  5
368
330
367
100
AcDbEntity
  8
0
100
AcDbBlockBegin
  2
*D22
 70
     1
 10
0.0
 20
0.0
 30
0.0
  3
*D22
  1
*D23
  0
LINE
  5
36A
330
367
100
AcDbEntity
  8
文字
 62
     0
370
    -2
100
AcDbLine
 10
148.9643385082036
 20
137.2380820484483
 30
0.0
 11
175.7609877611573
 21
137.2380820484483
 31
0.0
  0
LINE
  5
36B
330
367
100
AcDbEntity
  8
文字
 62
     0
370
    -2
100
AcDbLine
 10
134.9805694005804
 20
149.8215481154801
 30
0.0
 11
175.7609877611573
 21
149.8215481154801
 31
0.0
  0
LINE
  5
36C
330
367
100
AcDbEntity
  8
文字
 62
     0
370
    -2
100
AcDbLine
 10
174.5109877611573
 20
139.7380820484483
 30
0.0
 11
174.5109877611573
 21
147.3215481154801
 31
0.0
  0
SOLID
  5
36D
330
367
100
AcDbEntity
  8
文字
 62
     0
100
AcDbTrace
 10
174.0943210944906
 20
139.7380820484483
 30
0.0
 11
174.9276544278239
 21
139.7380820484483
 31
0.0
 12
174.5109877611573
 22
137.2380820484483
 32
0.0
 13
174.5109877611573
 23
137.2380820484483
 33
0.0
  0
SOLID
  5
36E
330
367
100
AcDbEntity
  8
文字
 62
     0
100
AcDbTrace
 10
174.9276544278239
 20
147.3215481154801
 30
0.0
 11
174.0943210944906
 21
147.3215481154801
 31
0.0
 12
174.5109877611573
 22
149.8215481154801
 32
0.0
 13
174.5109877611573
 23
149.8215481154801
 33
0.0
  0
MTEXT
  5
36F
330
367
100
AcDbEntity
  8
文字
 62
     0
100
AcDbMText
 10
172.6097377611573
 20
143.4672033746999
 30
0.0
 40
2.5
 41
0.0
 46
0.0
 71
     5
 72
     1
  1
13
 11
0.0
 21
1.0
 31
0.0
 73
     1
 44
1.0
  0
POINT
  5
370
330
367
100
AcDbEntity
  8
Defpoints
 62
     0
100
AcDbPoint
 10
148.3393385082036
 20
137.2380820484483
 30
0.0
  0
POINT
  5
371
330
367
100
AcDbEntity
  8
Defpoints
 62
     0
100
AcDbPoint
 10
134.3555694005804
 20
149.8215481154801
 30
0.0
  0
POINT
  5
372
330
367
100
AcDbEntity
  8
Defpoints
 62
     0
100
AcDbPoint
 10
174.5109877611573
 20
149.8215481154801
 30
0.0
  0
ENDBLK
  5
369
330
367
100
AcDbEntity
  8
0
100
AcDbBlockEnd
  0
BLOCK
  5
3AC
330
3AB
100
AcDbEntity
  8
0
100
AcDbBlockBegin
  2
*D23
 70
     1
 10
0.0
 20
0.0
 30
0.0
  3
*D23
  1
*D21
  0
LINE
  5
3AD
330
3AB
100
AcDbEntity
  8
文字
 62
     0
370
    -2
100
AcDbLine
 10
17.4653243562543
 20
22.30198422430598
 30
0.0
 11
1.84499999999997
 21
22.30198422430598
 31
0.0
  0
LINE
  5
3AE
330
3AB
100
AcDbEntity
  8
文字
 62
     0
370
    -2
100
AcDbLine
 10
17.4653243562543
 20
20.70198422430599
 30
0.0
 11
1.84499999999997
 21
20.70198422430599
 31
0.0
  0
LINE
  5
3AF
330
3AB
100
AcDbEntity
  8
文字
 62
     0
370
    -2
100
AcDbLine
 10
3.09499999999997
 20
18.20198422430599
 30
0.0
 11
3.09499999999997
 21
13.56698422430599
 31
0.0
  0
LINE
  5
3B0
330
3AB
100
AcDbEntity
  8
文字
 62
     0
370
    -2
100
AcDbLine
 10
3.09499999999997
 20
22.30198422430598
 30
0.0
 11
3.09499999999997
 21
20.70198422430599
 31
0.0
  0
LINE
  5
3B1
330
3AB
100
AcDbEntity
  8
文字
 62
     0
370
    -2
100
AcDbLine
 10
3.09499999999997
 20
24.80198422430598
 30
0.0
 11
3.09499999999997
 21
27.30198422430598
 31
0.0
  0
SOLID
  5
3B2
330
3AB
100
AcDbEntity
  8
文字
 62
     0
100
AcDbTrace
 10
2.678333333333304
 20
24.80198422430598
 30
0.0
 11
3.511666666666637
 21
24.80198422430598
 31
0.0
 12
3.09499999999997
 22
22.30198422430598
 32
0.0
 13
3.09499999999997
 23
22.30198422430598
 33
0.0
  0
SOLID
  5
3B3
330
3AB
100
AcDbEntity
  8
文字
 62
     0
100
AcDbTrace
 10
3.511666666666637
 20
18.20198422430599
 30
0.0
 11
2.678333333333304
 21
18.20198422430599
 31
0.0
 12
3.09499999999997
 22
20.70198422430599
 32
0.0
 13
3.09499999999997
 23
20.70198422430599
 33
0.0
  0
MTEXT
  5
3B4
330
3AB
100
AcDbEntity
  8
文字
 62
     0
100
AcDbMText
 10
1.207499999999971
 20
14.63448422430599
 30
0.0
 40
2.5
 41
0.0
 46
0.0
 71
     5
 72
     1
  1
t
 11
0.0
 21
1.0
 31
0.0
 73
     1
 44
1.0
  0
POINT
  5
3B5
330
3AB
100
AcDbEntity
  8
Defpoints
 62
     0
100
AcDbPoint
 10
18.0903243562543
 20
22.30198422430598
 30
0.0
  0
POINT
  5
3B6
330
3AB
100
AcDbEntity
  8
Defpoints
 62
     0
100
AcDbPoint
 10
18.0903243562543
 20
20.70198422430599
 30
0.0
  0
POINT
  5
3B7
330
3AB
100
AcDbEntity
  8
Defpoints
 62
     0
100
AcDbPoint
 10
3.09499999999997
 20
20.70198422430599
 30
0.0
  0
ENDBLK
  5
3B8
330
3AB
100
AcDbEntity
  8
0
100
AcDbBlockEnd
  0
BLOCK
  5
3BB
330
3BA
100
AcDbEntity
  8
0
100
AcDbBlockBegin
  2
*D24
 70
     1
 10
0.0
 20
0.0
 30
0.0
  3
*D24
  1
*D22
  0
LINE
  5
3BC
330
3BA
100
AcDbEntity
  8
文字
 62
     0
370
    -2
100
AcDbLine
 10
18.0903243562543
 20
20.07698422430599
 30
0.0
 11
18.0903243562543
 21
0.0
 31
0.0
  0
LINE
  5
3BD
330
3BA
100
AcDbEntity
  8
文字
 62
     0
370
    -2
100
AcDbLine
 10
56.09032435625431
 20
20.0769842243059
 30
0.0
 11
56.09032435625431
 21
0.0
 31
0.0
  0
LINE
  5
3BE
330
3BA
100
AcDbEntity
  8
文字
 62
     0
370
    -2
100
AcDbLine
 10
20.5903243562543
 20
1.25
 30
0.0
 11
53.59032435625431
 21
1.25
 31
0.0
  0
SOLID
  5
3BF
330
3BA
100
AcDbEntity
  8
文字
 62
     0
100
AcDbTrace
 10
20.5903243562543
 20
1.666666666666667
 30
0.0
 11
20.5903243562543
 21
0.8333333333333333
 31
0.0
 12
18.0903243562543
 22
1.25
 32
0.0
 13
18.0903243562543
 23
1.25
 33
0.0
  0
SOLID
  5
3C0
330
3BA
100
AcDbEntity
  8
文字
 62
     0
100
AcDbTrace
 10
53.59032435625431
 20
0.8333333333333333
 30
0.0
 11
53.59032435625431
 21
1.666666666666667
 31
0.0
 12
56.09032435625431
 22
1.25
 32
0.0
 13
56.09032435625431
 23
1.25
 33
0.0
  0
MTEXT
  5
3C1
330
3BA
100
AcDbEntity
  8
文字
 62
     0
100
AcDbMText
 10
37.09032435625431
 20
3.19625
 30
0.0
 40
2.5
 41
0.0
 46
0.0
 71
     5
 72
     1
  1
%%c38
 73
     1
 44
1.0
  0
POINT
  5
3C2
330
3BA
100
AcDbEntity
  8
Defpoints
 62
     0
100
AcDbPoint
 10
18.0903243562543
 20
20.70198422430599
 30
0.0
  0
POINT
  5
3C3
330
3BA
100
AcDbEntity
  8
Defpoints
 62
     0
100
AcDbPoint
 10
56.09032435625431
 20
20.7019842243059
 30
0.0
  0
POINT
  5
3C4
330
3BA
100
AcDbEntity
  8
Defpoints
 62
     0
100
AcDbPoint
 10
56.09032435625431
 20
1.25
 30
0.0
  0
ENDBLK
  5
3C5
330
3BA
100
AcDbEntity
  8
0
100
AcDbBlockEnd
  0
BLOCK
  5
3CA
330
3C9
100
AcDbEntity
  8
0
100
AcDbBlockBegin
  2
*D25
 70
     1
 10
0.0
 20
0.0
 30
0.0
  3
*D25
  1
*D23
  0
LINE
  5
3CB
330
3C9
100
AcDbEntity
  8
文字
 62
     0
370
    -2
100
AcDbLine
 10
56.71532435625431
 20
20.7019842243059
 30
0.0
 11
83.51197360920804
 21
20.7019842243059
 31
0.0
  0
LINE
  5
3CC
330
3C9
100
AcDbEntity
  8
文字
 62
     0
370
    -2
100
AcDbLine
 10
42.73155524863117
 20
33.2854502913377
 30
0.0
 11
83.51197360920804
 21
33.2854502913377
 31
0.0
  0
LINE
  5
3CD
330
3C9
100
AcDbEntity
  8
文字
 62
     0
370
    -2
100
AcDbLine
 10
82.26197360920804
 20
23.2019842243059
 30
0.0
 11
82.26197360920804
 21
30.7854502913377
 31
0.0
  0
SOLID
  5
3CE
330
3C9
100
AcDbEntity
  8
文字
 62
     0
100
AcDbTrace
 10
81.84530694254137
 20
23.2019842243059
 30
0.0
 11
82.67864027587471
 21
23.2019842243059
 31
0.0
 12
82.26197360920804
 22
20.7019842243059
 32
0.0
 13
82.26197360920804
 23
20.7019842243059
 33
0.0
  0
SOLID
  5
3CF
330
3C9
100
AcDbEntity
  8
文字
 62
     0
100
AcDbTrace
 10
82.67864027587471
 20
30.7854502913377
 30
0.0
 11
81.84530694254137
 21
30.7854502913377
 31
0.0
 12
82.26197360920804
 22
33.2854502913377
 32
0.0
 13
82.26197360920804
 23
33.2854502913377
 33
0.0
  0
MTEXT
  5
3D0
330
3C9
100
AcDbEntity
  8
文字
 62
     0
100
AcDbMText
 10
80.36072360920804
 20
26.93110555055753
 30
0.0
 40
2.5
 41
0.0
 46
0.0
 71
     5
 72
     1
  1
13
 11
0.0
 21
1.0
 31
0.0
 73
     1
 44
1.0
  0
POINT
  5
3D1
330
3C9
100
AcDbEntity
  8
Defpoints
 62
     0
100
AcDbPoint
 10
56.09032435625431
 20
20.7019842243059
 30
0.0
  0
POINT
  5
3D2
330
3C9
100
AcDbEntity
  8
Defpoints
 62
     0
100
AcDbPoint
 10
42.10655524863117
 20
33.2854502913377
 30
0.0
  0
POINT
  5
3D3
330
3C9
100
AcDbEntity
  8
Defpoints
 62
     0
100
AcDbPoint
 10
82.26197360920804
 20
33.2854502913377
 30
0.0
  0
ENDBLK
  5
3D4
330
3C9
100
AcDbEntity
  8
0
100
AcDbBlockEnd
  0
BLOCK
  5
3EC
330
3EB
100
AcDbEntity
  8
0
100
AcDbBlockBegin
  2
*D26
 70
     1
 10
0.0
 20
0.0
 30
0.0
  3
*D26
  1
*D27
  0
LINE
  5
3EE
330
3EB
100
AcDbEntity
  8
文字
 62
     0
370
    -2
100
AcDbLine
 10
40.34190242918811
 20
49.95147647052593
 30
0.0
 11
24.72157807293378
 21
49.95147647052593
 31
0.0
  0
LINE
  5
3EF
330
3EB
100
AcDbEntity
  8
文字
 62
     0
370
    -2
100
AcDbLine
 10
40.34190242918811
 20
48.35147647052594
 30
0.0
 11
24.72157807293378
 21
48.35147647052594
 31
0.0
  0
LINE
  5
3F0
330
3EB
100
AcDbEntity
  8
文字
 62
     0
370
    -2
100
AcDbLine
 10
25.97157807293378
 20
45.85147647052594
 30
0.0
 11
25.97157807293378
 21
41.21647647052594
 31
0.0
  0
LINE
  5
3F1
330
3EB
100
AcDbEntity
  8
文字
 62
     0
370
    -2
100
AcDbLine
 10
25.97157807293378
 20
49.95147647052593
 30
0.0
 11
25.97157807293378
 21
48.35147647052594
 31
0.0
  0
LINE
  5
3F2
330
3EB
100
AcDbEntity
  8
文字
 62
     0
370
    -2
100
AcDbLine
 10
25.97157807293378
 20
52.45147647052593
 30
0.0
 11
25.97157807293378
 21
54.95147647052593
 31
0.0
  0
SOLID
  5
3F3
330
3EB
100
AcDbEntity
  8
文字
 62
     0
100
AcDbTrace
 10
25.55491140626711
 20
52.45147647052593
 30
0.0
 11
26.38824473960045
 21
52.45147647052593
 31
0.0
 12
25.97157807293378
 22
49.95147647052593
 32
0.0
 13
25.97157807293378
 23
49.95147647052593
 33
0.0
  0
SOLID
  5
3F4
330
3EB
100
AcDbEntity
  8
文字
 62
     0
100
AcDbTrace
 10
26.38824473960045
 20
45.85147647052594
 30
0.0
 11
25.55491140626711
 21
45.85147647052594
 31
0.0
 12
25.97157807293378
 22
48.35147647052594
 32
0.0
 13
25.97157807293378
 23
48.35147647052594
 33
0.0
  0
MTEXT
  5
3F5
330
3EB
100
AcDbEntity
  8
文字
 62
     0
100
AcDbMText
 10
24.08407807293378
 20
42.28397647052594
 30
0.0
 40
2.5
 41
0.0
 46
0.0
 71
     5
 72
     1
  1
t
 11
0.0
 21
1.0
 31
0.0
 73
     1
 44
1.0
  0
POINT
  5
3F6
330
3EB
100
AcDbEntity
  8
Defpoints
 62
     0
100
AcDbPoint
 10
40.96690242918811
 20
49.95147647052593
 30
0.0
  0
POINT
  5
3F7
330
3EB
100
AcDbEntity
  8
Defpoints
 62
     0
100
AcDbPoint
 10
40.96690242918811
 20
48.35147647052594
 30
0.0
  0
POINT
  5
3F8
330
3EB
100
AcDbEntity
  8
Defpoints
 62
     0
100
AcDbPoint
 10
25.97157807293378
 20
48.35147647052594
 30
0.0
  0
ENDBLK
  5
3ED
330
3EB
100
AcDbEntity
  8
0
100
AcDbBlockEnd
  0
BLOCK
  5
3FA
330
3F9
100
AcDbEntity
  8
0
100
AcDbBlockBegin
  2
*D27
 70
     1
 10
0.0
 20
0.0
 30
0.0
  3
*D27
  1
*D28
  0
LINE
  5
3FC
330
3F9
100
AcDbEntity
  8
文字
 62
     0
370
    -2
100
AcDbLine
 10
40.96690242918811
 20
47.72647647052594
 30
0.0
 11
40.96690242918811
 21
27.64949224621995
 31
0.0
  0
LINE
  5
3FD
330
3F9
100
AcDbEntity
  8
文字
 62
     0
370
    -2
100
AcDbLine
 10
78.96690242918812
 20
47.72647647052585
 30
0.0
 11
78.96690242918812
 21
27.64949224621995
 31
0.0
  0
LINE
  5
3FE
330
3F9
100
AcDbEntity
  8
文字
 62
     0
370
    -2
100
AcDbLine
 10
43.46690242918811
 20
28.89949224621995
 30
0.0
 11
76.46690242918812
 21
28.89949224621995
 31
0.0
  0
SOLID
  5
3FF
330
3F9
100
AcDbEntity
  8
文字
 62
     0
100
AcDbTrace
 10
43.46690242918811
 20
29.31615891288662
 30
0.0
 11
43.46690242918811
 21
28.48282557955328
 31
0.0
 12
40.96690242918811
 22
28.89949224621995
 32
0.0
 13
40.96690242918811
 23
28.89949224621995
 33
0.0
  0
SOLID
  5
400
330
3F9
100
AcDbEntity
  8
文字
 62
     0
100
AcDbTrace
 10
76.46690242918812
 20
28.48282557955328
 30
0.0
 11
76.46690242918812
 21
29.31615891288662
 31
0.0
 12
78.96690242918812
 22
28.89949224621995
 32
0.0
 13
78.96690242918812
 23
28.89949224621995
 33
0.0
  0
MTEXT
  5
401
330
3F9
100
AcDbEntity
  8
文字
 62
     0
100
AcDbMText
 10
59.96690242918812
 20
30.84574224621995
 30
0.0
 40
2.5
 41
0.0
 46
0.0
 71
     5
 72
     1
  1
%%c38
 73
     1
 44
1.0
  0
POINT
  5
402
330
3F9
100
AcDbEntity
  8
Defpoints
 62
     0
100
AcDbPoint
 10
40.96690242918811
 20
48.35147647052594
 30
0.0
  0
POINT
  5
403
330
3F9
100
AcDbEntity
  8
Defpoints
 62
     0
100
AcDbPoint
 10
78.96690242918812
 20
48.35147647052585
 30
0.0
  0
POINT
  5
404
330
3F9
100
AcDbEntity
  8
Defpoints
 62
     0
100
AcDbPoint
 10
78.96690242918812
 20
28.89949224621995
 30
0.0
  0
ENDBLK
  5
3FB
330
3F9
100
AcDbEntity
  8
0
100
AcDbBlockEnd
  0
BLOCK
  5
406
330
405
100
AcDbEntity
  8
0
100
AcDbBlockBegin
  2
*D28
 70
     1
 10
0.0
 20
0.0
 30
0.0
  3
*D28
  1
*D29
  0
LINE
  5
408
330
405
100
AcDbEntity
  8
文字
 62
     0
370
    -2
100
AcDbLine
 10
79.59190242918812
 20
48.35147647052585
 30
0.0
 11
106.3885516821419
 21
48.35147647052585
 31
0.0
  0
LINE
  5
409
330
405
100
AcDbEntity
  8
文字
 62
     0
370
    -2
100
AcDbLine
 10
65.60813332156498
 20
60.93494253755765
 30
0.0
 11
106.3885516821419
 21
60.93494253755765
 31
0.0
  0
LINE
  5
40A
330
405
100
AcDbEntity
  8
文字
 62
     0
370
    -2
100
AcDbLine
 10
105.1385516821419
 20
50.85147647052585
 30
0.0
 11
105.1385516821419
 21
58.43494253755765
 31
0.0
  0
SOLID
  5
40B
330
405
100
AcDbEntity
  8
文字
 62
     0
100
AcDbTrace
 10
104.7218850154752
 20
50.85147647052585
 30
0.0
 11
105.5552183488085
 21
50.85147647052585
 31
0.0
 12
105.1385516821419
 22
48.35147647052585
 32
0.0
 13
105.1385516821419
 23
48.35147647052585
 33
0.0
  0
SOLID
  5
40C
330
405
100
AcDbEntity
  8
文字
 62
     0
100
AcDbTrace
 10
105.5552183488085
 20
58.43494253755765
 30
0.0
 11
104.7218850154752
 21
58.43494253755765
 31
0.0
 12
105.1385516821419
 22
60.93494253755765
 32
0.0
 13
105.1385516821419
 23
60.93494253755765
 33
0.0
  0
MTEXT
  5
40D
330
405
100
AcDbEntity
  8
文字
 62
     0
100
AcDbMText
 10
103.2373016821419
 20
54.58059779677748
 30
0.0
 40
2.5
 41
0.0
 46
0.0
 71
     5
 72
     1
  1
13
 11
0.0
 21
1.0
 31
0.0
 73
     1
 44
1.0
  0
POINT
  5
40E
330
405
100
AcDbEntity
  8
Defpoints
 62
     0
100
AcDbPoint
 10
78.96690242918812
 20
48.35147647052585
 30
0.0
  0
POINT
  5
40F
330
405
100
AcDbEntity
  8
Defpoints
 62
     0
100
AcDbPoint
 10
64.98313332156498
 20
60.93494253755765
 30
0.0
  0
POINT
  5
410
330
405
100
AcDbEntity
  8
Defpoints
 62
     0
100
AcDbPoint
 10
105.1385516821419
 20
60.93494253755765
 30
0.0
  0
ENDBLK
  5
407
330
405
100
AcDbEntity
  8
0
100
AcDbBlockEnd
  0
ENDSEC
  0
SECTION
  2
ENTITIES
  0
CIRCLE
  5
1EF
102
{ACAD_REACTORS
330
1FA
102
}
330
1F
100
AcDbEntity
  8
実線
370
    50
100
AcDbCircle
 10
145.7127087026862
 20
64.64444210607165
 30
0.0
 40
14.0
  0
CIRCLE
  5
1F0
330
1F
100
AcDbEntity
  8
実線
370
    50
100
AcDbCircle
 10
145.7127087026862
 20
64.64444210607165
 30
0.0
 40
19.0
  0
LINE
  5
1F3
330
1F
100
AcDbEntity
  8
中心線
 48
0.5
100
AcDbLine
 10
115.2979480983888
 20
64.64444210607165
 30
0.0
 11
172.5118480834884
 21
64.64444210607165
 31
0.0
  0
DIMENSION
  5
1F8
102
{ACAD_REACTORS
330
1FA
102
}
102
{ACAD_XDICTIONARY
360
1F9
102
}
330
1F
100
AcDbEntity
  8
文字
100
AcDbDimension
280
     0
  2
*D10
 10
159.7127087026862
 20
24.79866128985842
 30
0.0
 11
145.7127087026862
 21
26.74491128985842
 31
0.0
 70
    32
  1
%%c<>
 71
     5
 42
28.0
 73
     0
 74
     0
 75
     0
  3
ISO-25
100
AcDbAlignedDimension
 13
131.7127087026862
 23
64.64444210607165
 33
0.0
 14
159.7127087026862
 24
64.64444210607165
 34
0.0
100
AcDbRotatedDimension
  0
LWPOLYLINE
  5
1FB
102
{ACAD_REACTORS
330
20F
102
}
330
1F
100
AcDbEntity
  8
実線
370
    50
100
AcDbPolyline
 90
        4
 70
     0
 43
0.0
 10
69.70098249089638
 20
62.60877474173852
 10
69.70098249089638
 20
67.94339232368486
 10
50.10098249089639
 20
67.94339232368486
 10
50.10098249089639
 20
62.60877474173855
  0
LINE
  5
1FC
330
1F
100
AcDbEntity
  8
実線
370
    50
100
AcDbLine
 10
55.23641848121665
 20
67.94339232368486
 30
0.0
 11
55.23641848121665
 21
62.60877474173856
 31
0.0
  0
LINE
  5
1FD
330
1F
100
AcDbEntity
  8
実線
370
    50
100
AcDbLine
 10
64.69108323706614
 20
67.94339232368486
 30
0.0
 11
64.69108323706614
 21
62.60877474173851
 31
0.0
  0
LWPOLYLINE
  5
1FE
102
{ACAD_REACTORS
330
20C
102
}
330
1F
100
AcDbEntity
  8
実線
370
    50
100
AcDbPolyline
 90
        6
 70
     1
 43
0.0
 10
137.2256597455987
 20
59.74444210607165
 10
145.7127087026862
 20
54.84444210607164
 10
154.1997576597737
 20
59.74444210607165
 10
154.1997576597738
 20
69.54444210607166
 10
145.7127087026863
 20
74.44444210607166
 10
137.2256597455987
 20
69.54444210607166
  0
LINE
  5
1FF
330
1F
100
AcDbEntity
  8
実線
370
    50
100
AcDbLine
 10
67.2137908370409
 20
60.94339232368485
 30
0.0
 11
52.61858366079298
 21
60.94339232368485
 31
0.0
  0
ARC
  5
200
330
1F
100
AcDbEntity
  8
実線
370
    50
100
AcDbCircle
 10
52.66870048605651
 20
63.75480743871915
 30
0.0
 40
2.811861775624425
100
AcDbArc
 50
204.0523260738349
 51
335.9476739261654
  0
ARC
  5
201
330
1F
100
AcDbEntity
  8
実線
370
    50
100
AcDbCircle
 10
59.96375101412589
 20
68.48437161607393
 30
0.0
 40
7.541240519685672
100
AcDbArc
 50
231.180866270598
 51
308.8191315053854
  0
ARC
  5
202
330
1F
100
AcDbEntity
  8
実線
370
    50
100
AcDbCircle
 10
67.19603260874247
 20
63.65987265207911
 30
0.0
 40
2.716538372492689
100
AcDbArc
 50
202.7633354902943
 51
337.2366715329314
  0
CIRCLE
  5
209
330
1F
100
AcDbEntity
  8
実線
370
    50
100
AcDbCircle
 10
145.7127087026862
 20
64.64444210607165
 30
0.0
 40
5.0
  0
DIMENSION
  5
20A
102
{ACAD_REACTORS
330
20C
102
}
102
{ACAD_XDICTIONARY
360
20B
102
}
330
1F
100
AcDbEntity
  8
文字
100
AcDbDimension
280
     0
  2
*D13
 10
154.1997576597737
 20
31.60404450574752
 30
0.0
 11
145.7127087026862
 21
31.60404450574752
 31
0.0
 70
   160
  1
17
 71
     5
 42
16.97409791417502
 73
     0
 74
     0
 75
     0
  3
ISO-25
100
AcDbAlignedDimension
 13
137.2256597455987
 23
64.64444210607165
 33
0.0
 14
154.1997576597737
 24
64.64444210607165
 34
0.0
100
AcDbRotatedDimension
  0
DIMENSION
  5
20D
102
{ACAD_REACTORS
330
20F
102
}
102
{ACAD_XDICTIONARY
360
20E
102
}
330
1F
100
AcDbEntity
  8
文字
100
AcDbDimension
280
     0
  2
*D14
 10
105.2405228867047
 20
67.94339232368486
 30
0.0
 11
103.3655228867047
 21
64.44339232368486
 31
0.0
 70
    32
  1
7
 71
     5
 42
7.000000000000007
 73
     0
 74
     0
 75
     0
  3
ISO-25
100
AcDbAlignedDimension
 13
69.70098249089638
 23
60.94339232368485
 33
0.0
 14
69.70098249089638
 24
67.94339232368486
 34
0.0
 50
90.0
100
AcDbRotatedDimension
  0
LWPOLYLINE
  5
210
330
1F
100
AcDbEntity
  8
実線
100
AcDbPolyline
 90
        6
 70
     1
 43
0.0
 10
54.90098249089635
 20
67.87040019794355
 10
64.90098249089635
 20
67.87040019794355
 10
64.90098249089638
 20
100.9046304693027
 10
62.90098249089638
 20
102.9046304693027
 10
56.90098249089637
 20
102.9046304693027
 10
54.90098249089637
 20
100.9046304693027
  0
DIMENSION
  5
211
330
1F
100
AcDbEntity
  8
文字
100
AcDbDimension
280
     0
  2
*D15
 10
64.90098249089638
 20
110.7511941340873
 30
0.0
 11
59.99569518648275
 21
110.7511941340873
 31
0.0
 70
   160
  1
{\fArial|b0|i0|c0|p32;M10}
 71
     5
 42
10.0
 73
     0
 74
     0
 75
     0
  3
ISO-25
100
AcDbAlignedDimension
 13
54.90098249089638
 23
101.9046304693027
 33
0.0
 14
64.90098249089638
 24
101.9046304693027
 34
0.0
100
AcDbRotatedDimension
  0
LINE
  5
213
330
1F
100
AcDbEntity
  8
中心線
 48
0.5
100
AcDbLine
 10
145.7127087026862
 20
93.94333511484214
 30
0.0
 11
145.7127087026862
 21
37.78381101087755
 31
0.0
  0
LINE
  5
214
330
1F
100
AcDbEntity
  8
実線
370
    20
100
AcDbLine
 10
54.90098249089637
 20
100.9046304693027
 30
0.0
 11
64.90098249089638
 21
100.9046304693027
 31
0.0
  0
LINE
  5
215
330
1F
100
AcDbEntity
  8
実線
370
    20
100
AcDbLine
 10
56.90098249089637
 20
102.8253601838048
 30
0.0
 11
56.90098249089635
 21
67.94339232368486
 31
0.0
  0
LINE
  5
216
330
1F
100
AcDbEntity
  8
実線
370
    20
100
AcDbLine
 10
62.90098249089638
 20
102.8253601838048
 30
0.0
 11
62.90098249089637
 21
67.94339232368486
 31
0.0
  0
CIRCLE
  5
217
330
1F
100
AcDbEntity
  8
実線
370
    20
100
AcDbCircle
 10
145.7127087026862
 20
64.64444210607165
 30
0.0
 40
3.0
  0
DIMENSION
  5
218
102
{ACAD_XDICTIONARY
360
219
102
}
330
1F
100
AcDbEntity
  8
文字
100
AcDbDimension
280
     0
  2
*D16
 10
105.2405228867047
 20
102.9443951739979
 30
0.0
 11
103.3392728867047
 21
85.44389374884138
 31
0.0
 70
    32
 71
     5
 42
35.00100285031303
 73
     0
 74
     0
 75
     0
  3
ISO-25
100
AcDbAlignedDimension
 13
70.32598249089638
 23
67.94339232368486
 33
0.0
 14
61.66300914108943
 24
102.9443951739979
 34
0.0
 50
90.0
100
AcDbRotatedDimension
  0
MTEXT
  5
2A6
330
1F
100
AcDbEntity
  8
文字・寸法線
 62
     0
100
AcDbMText
 10
63.59840341925722
 20
148.6301888769409
 30
0.0
 40
6.0
 41
0.0
 46
6.0
 71
     9
 72
     1
  1
{\fＭＳ ゴシック|b0|i0|c0|p0;S-M M10X35}
 73
     1
 44
1.0
1001
ACAD
1000
ACAD_MTEXT_DEFINED_HEIGHT_BEGIN
1070
    46
1040
6.0
1000
ACAD_MTEXT_DEFINED_HEIGHT_END
  0
MTEXT
  5
34C
330
1F
100
AcDbEntity
  8
文字・寸法線
 62
     0
100
AcDbMText
 10
48.52548142829161
 20
10.57845569307344
 30
0.0
 40
4.0
 41
0.0
 46
10.66666666666667
 71
     9
 72
     1
  1
{\fＭＳ ゴシック|b0|i0|c0|p0;SUS t=1.5\PSS t=1.6}
 73
     1
 44
1.0
1001
ACAD
1000
ACAD_MTEXT_DEFINED_HEIGHT_BEGIN
1070
    46
1040
10.66666666666667
1000
ACAD_MTEXT_DEFINED_HEIGHT_END
  0
LINE
  5
3D8
330
1F
100
AcDbEntity
  8
中心線
 48
0.5
100
AcDbLine
 10
59.88775002759893
 20
37.3201039542256
 30
0.0
 11
60.04650181436918
 21
120.3028401767355
 31
0.0
  0
LINE
  5
3D9
330
1F
100
AcDbEntity
  8
実線
370
    50
100
AcDbLine
 10
78.96690242918812
 20
48.35147647052585
 30
0.0
 11
40.96690242918811
 21
48.35147647052594
 31
0.0
  0
LINE
  5
3DA
102
{ACAD_REACTORS
330
3E6
102
}
330
1F
100
AcDbEntity
  8
実線
370
    50
100
AcDbLine
 10
40.96690242918811
 20
48.35147647052594
 30
0.0
 11
40.96690242918811
 21
49.95147647052593
 31
0.0
  0
LINE
  5
3DB
102
{ACAD_REACTORS
330
3EA
102
}
330
1F
100
AcDbEntity
  8
実線
370
    50
100
AcDbLine
 10
78.96690242918812
 20
49.95147647052593
 30
0.0
 11
78.96690242918812
 21
48.35147647052585
 31
0.0
  0
LINE
  5
3DC
102
{ACAD_REACTORS
330
3E6
102
}
330
1F
100
AcDbEntity
  8
実線
370
    50
100
AcDbLine
 10
40.96690242918811
 20
49.95147647052593
 30
0.0
 11
44.48028754975461
 21
49.95147647052593
 31
0.0
  0
LINE
  5
3DD
330
1F
100
AcDbEntity
  8
実線
370
    50
100
AcDbLine
 10
44.48028754975461
 20
49.95147647052593
 30
0.0
 11
44.35921201708678
 21
49.95147647052593
 31
0.0
  0
ARC
  5
3DE
102
{ACAD_REACTORS
330
3EA
102
}
330
1F
100
AcDbEntity
  8
実線
370
    50
100
AcDbCircle
 10
59.96690242918812
 20
47.66618235287885
 30
0.0
 40
14.18529411764706
100
AcDbArc
 50
15.35297015069431
 51
69.29099155289785
  0
ARC
  5
3DF
330
1F
100
AcDbEntity
  8
実線
370
    50
100
AcDbCircle
 10
44.35921201708679
 20
51.95147647052593
 30
0.0
 40
2.0
100
AcDbArc
 50
270.0
 51
344.6470298493055
  0
LINE
  5
3E0
330
1F
100
AcDbEntity
  8
実線
370
    50
100
AcDbLine
 10
75.57459284128946
 20
49.95147647052593
 30
0.0
 11
78.96690242918812
 21
49.95147647052593
 31
0.0
  0
ARC
  5
3E1
330
1F
100
AcDbEntity
  8
実線
370
    50
100
AcDbCircle
 10
75.57459284128949
 20
51.95147647052593
 30
0.0
 40
2.0
100
AcDbArc
 50
195.3529701506937
 51
270.0
  0
LINE
  5
3E2
330
1F
100
AcDbEntity
  8
実線
370
    50
100
AcDbLine
 10
44.48028754975461
 20
49.95147647052593
 30
0.0
 11
75.57459284128946
 21
49.95147647052593
 31
0.0
  0
ARC
  5
3E3
330
1F
100
AcDbEntity
  8
実線
370
    50
100
AcDbCircle
 10
59.96690242918812
 20
47.66618235287885
 30
0.0
 40
14.18529411764706
100
AcDbArc
 50
110.709008447102
 51
164.6470298493057
  0
DIMENSION
  5
3E4
102
{ACAD_REACTORS
330
3E6
102
}
102
{ACAD_XDICTIONARY
360
3E5
102
}
330
1F
100
AcDbEntity
  8
文字
100
AcDbDimension
280
     0
  2
*D26
 10
25.97157807293378
 20
48.35147647052594
 30
0.0
 11
24.08407807293378
 21
42.28397647052594
 31
0.0
 70
    32
  1
t
 71
     5
 42
1.599999999999994
 73
     0
 74
     0
 75
     0
  3
ISO-25
100
AcDbAlignedDimension
 13
40.96690242918811
 23
49.95147647052593
 33
0.0
 14
40.96690242918811
 24
48.35147647052594
 34
0.0
 50
90.0
100
AcDbRotatedDimension
  0
DIMENSION
  5
3E7
330
1F
100
AcDbEntity
  8
文字
100
AcDbDimension
280
     0
  2
*D27
 10
78.96690242918812
 20
28.89949224621995
 30
0.0
 11
59.96690242918812
 21
30.84574224621995
 31
0.0
 70
    32
  1
%%c<>
 71
     5
 42
38.00000000000001
 73
     0
 74
     0
 75
     0
  3
ISO-25
100
AcDbAlignedDimension
 13
40.96690242918811
 23
48.35147647052594
 33
0.0
 14
78.96690242918812
 24
48.35147647052585
 34
0.0
100
AcDbRotatedDimension
  0
DIMENSION
  5
3E8
102
{ACAD_REACTORS
330
3EA
102
}
102
{ACAD_XDICTIONARY
360
3E9
102
}
330
1F
100
AcDbEntity
  8
文字
100
AcDbDimension
280
     0
  2
*D28
 10
105.1385516821419
 20
60.93494253755765
 30
0.0
 11
105.1385516821419
 21
54.58059779677748
 31
0.0
 70
   160
  1
13
 71
     5
 42
12.58346606703179
 73
     0
 74
     0
 75
     0
  3
ISO-25
100
AcDbAlignedDimension
 13
78.96690242918812
 23
48.35147647052585
 33
0.0
 14
64.98313332156498
 24
60.93494253755765
 34
0.0
 50
90.0
100
AcDbRotatedDimension
  0
ENDSEC
  0
SECTION
  2
OBJECTS
  0
DICTIONARY
  5
C
330
0
100
AcDbDictionary
281
     1
  3
ACAD_COLOR
350
73
  3
ACAD_DETAILVIEWSTYLE
350
122
  3
ACAD_GROUP
350
D
  3
ACAD_IMAGE_VARS
350
DC
  3
ACAD_LAYOUT
350
1A
  3
ACAD_MATERIAL
350
72
  3
ACAD_MLEADERSTYLE
350
B5
  3
ACAD_MLINESTYLE
350
17
  3
ACAD_PLOTSETTINGS
350
19
  3
ACAD_PLOTSTYLENAME
350
E
  3
ACAD_SCALELIST
350
B6
  3
ACAD_SECTIONVIEWSTYLE
350
123
  3
ACAD_TABLESTYLE
350
86
  3
ACAD_VISUALSTYLE
350
99
  3
ACDB_RECOMPOSE_DATA
350
417
  3
AcDbVariableDictionary
350
66
  3
APPDATA
350
E1
  0
SUN
  5
ED
330
94
100
AcDbSun
 90
        1
290
     0
 63
     7
421
 16777215
 40
1.0
291
     1
 91
  2455826
 92
 54000000
292
     0
 70
     2
 71
   256
280
     1
  0
DICTIONARY
  5
1F9
330
1F8
100
AcDbDictionary
280
     1
281
     1
  3
ACAD_DIMASSOC
360
1FA
  0
DICTIONARY
  5
20B
330
20A
100
AcDbDictionary
280
     1
281
     1
  3
ACAD_DIMASSOC
360
20C
  0
DICTIONARY
  5
20E
330
20D
100
AcDbDictionary
280
     1
281
     1
  3
ACAD_DIMASSOC
360
20F
  0
DICTIONARY
  5
219
330
218
100
AcDbDictionary
280
     1
281
     1
  0
DICTIONARY
  5
3E5
330
3E4
100
AcDbDictionary
280
     1
281
     1
  3
ACAD_DIMASSOC
360
3E6
  0
DICTIONARY
  5
3E9
330
3E8
100
AcDbDictionary
280
     1
281
     1
  3
ACAD_DIMASSOC
360
3EA
  0
DICTIONARY
  5
73
102
{ACAD_REACTORS
330
C
102
}
330
C
100
AcDbDictionary
281
     1
  0
DICTIONARY
  5
122
102
{ACAD_REACTORS
330
C
102
}
330
C
100
AcDbDictionary
281
     1
  0
DICTIONARY
  5
D
102
{ACAD_REACTORS
330
C
102
}
330
C
100
AcDbDictionary
281
     1
  0
RASTERVARIABLES
  5
DC
102
{ACAD_REACTORS
330
C
102
}
330
C
100
AcDbRasterVariables
 90
        0
 70
     1
 71
     1
 72
     5
  0
DICTIONARY
  5
1A
102
{ACAD_REACTORS
330
C
102
}
330
C
100
AcDbDictionary
281
     1
  3
Model
350
22
  3
Sheet1
350
59
  3
Sheet2
350
5E
  0
DICTIONARY
  5
72
102
{ACAD_REACTORS
330
C
102
}
330
C
100
AcDbDictionary
281
     1
  3
ByBlock
350
E2
  3
ByLayer
350
96
  3
Global
350
98
  0
DICTIONARY
  5
B5
102
{ACAD_REACTORS
330
C
102
}
330
C
100
AcDbDictionary
281
     1
  3
Standard
350
414
  0
DICTIONARY
  5
17
102
{ACAD_REACTORS
330
C
102
}
330
C
100
AcDbDictionary
281
     1
  3
Standard
350
18
  0
DICTIONARY
  5
19
102
{ACAD_REACTORS
330
C
102
}
330
C
100
AcDbDictionary
281
     1
  0
ACDBDICTIONARYWDFLT
  5
E
102
{ACAD_REACTORS
330
C
102
}
330
C
100
AcDbDictionary
281
     1
  3
Normal
350
F
100
AcDbDictionaryWithDefault
340
F
  0
DICTIONARY
  5
B6
102
{ACAD_REACTORS
330
C
102
}
330
C
100
AcDbDictionary
281
     1
  3
A0
350
B7
  3
A1
350
B8
  3
A2
350
B9
  3
A3
350
BA
  3
A4
350
BB
  3
A5
350
BC
  3
A6
350
BD
  3
A7
350
BE
  3
A8
350
BF
  3
A9
350
C0
  3
B0
350
C1
  3
B1
350
C2
  3
B2
350
C3
  3
B3
350
C4
  3
B4
350
C5
  3
B5
350
C6
  3
B6
350
C7
  3
B7
350
C8
  3
B8
350
C9
  3
B9
350
CA
  3
C0
350
CB
  3
C1
350
CC
  3
C2
350
CD
  3
C3
350
CE
  3
C4
350
CF
  3
C5
350
D0
  3
C6
350
D1
  3
C7
350
D2
  3
C8
350
D3
  3
C9
350
D4
  3
D0
350
D5
  3
D1
350
D6
  3
D2
350
D7
  0
DICTIONARY
  5
123
102
{ACAD_REACTORS
330
C
102
}
330
C
100
AcDbDictionary
281
     1
  0
DICTIONARY
  5
86
102
{ACAD_REACTORS
330
C
102
}
330
C
100
AcDbDictionary
281
     1
  3
Standard
350
87
  0
DICTIONARY
  5
99
102
{ACAD_REACTORS
330
C
102
}
330
C
100
AcDbDictionary
281
     1
  3
2dWireframe
350
9F
  3
3D Hidden
350
A1
  3
3dWireframe
350
A0
  3
Basic
350
9E
  3
Brighten
350
A5
  3
ColorChange
350
A9
  3
Conceptual
350
A2
  3
Dim
350
A4
  3
EdgeColorOff
350
E7
  3
Facepattern
350
A8
  3
Flat
350
9A
  3
FlatWithEdges
350
9B
  3
Gouraud
350
9C
  3
GouraudWithEdges
350
9D
  3
Hidden
350
E4
  3
JitterOff
350
E5
  3
Linepattern
350
A7
  3
OverhangOff
350
E6
  3
Realistic
350
A3
  3
Shaded
350
EC
  3
Shaded with edges
350
EB
  3
Shades of Gray
350
E8
  3
Sketchy
350
E9
  3
Thicken
350
A6
  3
Wireframe
350
E3
  3
X-Ray
350
EA
  0
XRECORD
  5
417
102
{ACAD_REACTORS
330
C
102
}
330
C
100
AcDbXrecord
280
     1
 90
        1
330
87
  0
DICTIONARY
  5
66
102
{ACAD_REACTORS
330
C
102
}
330
C
100
AcDbDictionary
281
     1
  3
CANNOSCALE
350
D8
  3
CMLEADERSTYLE
350
418
  3
CTABLESTYLE
350
89
  3
DIMASSOC
350
67
  3
HIDETEXT
350
6B
  3
LIGHTSINBLOCKS
350
DF
  3
XCLIPFRAME
350
E0
  0
DICTIONARY
  5
E1
102
{ACAD_REACTORS
330
C
102
}
330
C
100
AcDbDictionary
281
     1
  0
DIMASSOC
  5
1FA
102
{ACAD_REACTORS
330
1F9
102
}
330
1F9
100
AcDbDimAssoc
330
1F8
 90
        3
 70
     0
 71
     0
  1
AcDbOsnapPointRef
 72
     5
331
1EF
 73
     2
 91
        0
 40
3.141592653589793
 10
0.0
 20
0.0
 30
0.0
 75
     0
  1
AcDbOsnapPointRef
 72
     5
331
1EF
 73
     2
 91
        0
 40
0.0
 10
0.0
 20
0.0
 30
0.0
 75
     0
  0
DIMASSOC
  5
20C
102
{ACAD_REACTORS
330
20B
102
}
330
20B
100
AcDbDimAssoc
330
20A
 90
        3
 70
     0
 71
     0
  1
AcDbOsnapPointRef
 72
     2
331
1FE
 73
     2
 91
        6
 40
0.5
 10
0.0
 20
0.0
 30
0.0
 75
     0
  1
AcDbOsnapPointRef
 72
     2
331
1FE
 73
     2
 91
        3
 40
0.5
 10
0.0
 20
0.0
 30
0.0
 75
     0
  0
DIMASSOC
  5
20F
102
{ACAD_REACTORS
330
20E
102
}
330
20E
100
AcDbDimAssoc
330
20D
 90
        2
 70
     0
 71
     0
  1
AcDbOsnapPointRef
 72
     1
331
1FB
 73
     2
 91
        1
 40
1.0
 10
0.0
 20
0.0
 30
2.000000000000000E+50
 75
     0
  0
DIMASSOC
  5
3E6
102
{ACAD_REACTORS
330
3E5
102
}
330
3E5
100
AcDbDimAssoc
330
3E4
 90
        3
 70
     0
 71
     0
  1
AcDbOsnapPointRef
 72
    13
331
3DC
 73
     2
 91
        0
 40
0.0
 10
0.0
 20
0.0
 30
2.000000000000000E+50
 75
     0
  1
AcDbOsnapPointRef
 72
    13
331
3DA
 73
     2
 91
        0
 40
0.0
 10
0.0
 20
0.0
 30
2.000000000000000E+50
 75
     0
  0
DIMASSOC
  5
3EA
102
{ACAD_REACTORS
330
3E9
102
}
330
3E9
100
AcDbDimAssoc
330
3E8
 90
        1
 70
     0
 71
     0
  1
AcDbOsnapPointRef
 72
     1
331
3DB
 73
     2
 91
        0
 40
1.0
 10
0.0
 20
0.0
 30
2.000000000000000E+50
 75
     0
  0
LAYOUT
  5
22
102
{ACAD_REACTORS
330
1A
102
}
330
1A
100
AcDbPlotSettings
  1

  2
none_device
  4
ANSI_A_(8.50_x_11.00_Inches)
  6

 40
6.35
 41
19.05
 42
6.35
 43
19.05
 44
215.9
 45
279.4
 46
11.11250000000003
 47
0.0000000000000142
 48
0.0
 49
0.0
140
0.0
141
0.0
142
1.0
143
1.263157894736842
 70
 11444
 72
     0
 73
     1
 74
     1
  7
monochrome.ctb
 75
     0
 76
     0
 77
     2
 78
   300
147
0.7916666666666665
148
-702.8076765758875
149
-496.2830551296954
100
AcDbLayout
  1
Model
 70
     1
 71
     0
 10
0.0
 20
0.0
 11
12.0
 21
9.0
 12
0.0
 22
0.0
 32
0.0
 14
22.87657807293377
 24
10.57845569307344
 34
0.0
 15
172.5118480834884
 25
154.6301888769409
 35
0.0
146
0.0
 13
0.0
 23
0.0
 33
0.0
 16
1.0
 26
0.0
 36
0.0
 17
0.0
 27
1.0
 37
0.0
 76
     0
330
1F
331
94
  0
LAYOUT
  5
59
102
{ACAD_REACTORS
330
1A
102
}
330
1A
100
AcDbPlotSettings
  1

  2
None
  4

  6

 40
0.0
 41
0.0
 42
0.0
 43
0.0
 44
0.0
 45
0.0
 46
0.0
 47
0.0
 48
0.0
 49
0.0
140
0.0
141
0.0
142
1.0
143
1.0
 70
   688
 72
     0
 73
     0
 74
     5
  7

 75
    16
 76
     0
 77
     2
 78
   300
147
1.0
148
0.0
149
0.0
100
AcDbLayout
  1
Sheet1
 70
     1
 71
     1
 10
0.0
 20
0.0
 11
12.0
 21
9.0
 12
0.0
 22
0.0
 32
0.0
 14
0.0
 24
0.0
 34
0.0
 15
0.0
 25
0.0
 35
0.0
146
0.0
 13
0.0
 23
0.0
 33
0.0
 16
1.0
 26
0.0
 36
0.0
 17
0.0
 27
1.0
 37
0.0
 76
     0
330
58
  0
LAYOUT
  5
5E
102
{ACAD_REACTORS
330
1A
102
}
330
1A
100
AcDbPlotSettings
  1

  2
None
  4

  6

 40
0.0
 41
0.0
 42
0.0
 43
0.0
 44
0.0
 45
0.0
 46
0.0
 47
0.0
 48
0.0
 49
0.0
140
0.0
141
0.0
142
1.0
143
1.0
 70
   688
 72
     0
 73
     0
 74
     5
  7

 75
    16
 76
     0
 77
     2
 78
   300
147
1.0
148
0.0
149
0.0
100
AcDbLayout
  1
Sheet2
 70
     1
 71
     2
 10
0.0
 20
0.0
 11
12.0
 21
9.0
 12
0.0
 22
0.0
 32
0.0
 14
0.0
 24
0.0
 34
0.0
 15
0.0
 25
0.0
 35
0.0
146
0.0
 13
0.0
 23
0.0
 33
0.0
 16
1.0
 26
0.0
 36
0.0
 17
0.0
 27
1.0
 37
0.0
 76
     0
330
5D
  0
MATERIAL
  5
E2
102
{ACAD_REACTORS
330
72
102
}
330
72
100
AcDbMaterial
  1
ByBlock
 72
     1
 94
      127
  0
MATERIAL
  5
96
102
{ACAD_REACTORS
330
72
102
}
330
72
100
AcDbMaterial
  1
ByLayer
 72
     1
 94
       63
  0
MATERIAL
  5
98
102
{ACAD_REACTORS
330
72
102
}
330
72
100
AcDbMaterial
  1
Global
 72
     1
 94
       63
  0
MLEADERSTYLE
  5
414
102
{ACAD_REACTORS
330
B5
102
}
330
B5
100
AcDbMLeaderStyle
179
     2
170
     2
171
     1
172
     0
 90
        2
 40
0.0
 41
0.0
173
     1
 91
-1056964608
340
14
 92
       -2
290
     1
 42
0.09
291
     1
 43
0.36
  3
Standard
341
0
 44
0.18
300

342
11
174
     1
178
     1
175
     1
176
     0
 93
-1056964608
 45
0.18
292
     0
297
     0
 46
0.18
343
0
 94
-1056964608
 47
1.0
 49
1.0
140
1.0
293
     1
141
0.0
294
     1
177
     0
142
1.0
295
     0
296
     0
143
0.125
271
     0
272
     9
273
     9
  0
MLINESTYLE
  5
18
102
{ACAD_REACTORS
330
17
102
}
330
17
100
AcDbMlineStyle
  2
STANDARD
 70
     0
  3

 62
   256
 51
90.0
 52
90.0
 71
     2
 49
0.5
 62
   256
  6
BYLAYER
 49
-0.5
 62
   256
  6
BYLAYER
  0
ACDBPLACEHOLDER
  5
F
102
{ACAD_REACTORS
330
E
102
}
330
E
  0
SCALE
  5
B7
102
{ACAD_REACTORS
330
B6
102
}
330
B6
100
AcDbScale
 70
     0
300
1:1
140
1.0
141
1.0
290
     1
  0
SCALE
  5
B8
102
{ACAD_REACTORS
330
B6
102
}
330
B6
100
AcDbScale
 70
     0
300
1:2
140
1.0
141
2.0
290
     0
  0
SCALE
  5
B9
102
{ACAD_REACTORS
330
B6
102
}
330
B6
100
AcDbScale
 70
     0
300
1:4
140
1.0
141
4.0
290
     0
  0
SCALE
  5
BA
102
{ACAD_REACTORS
330
B6
102
}
330
B6
100
AcDbScale
 70
     0
300
1:5
140
1.0
141
5.0
290
     0
  0
SCALE
  5
BB
102
{ACAD_REACTORS
330
B6
102
}
330
B6
100
AcDbScale
 70
     0
300
1:8
140
1.0
141
8.0
290
     0
  0
SCALE
  5
BC
102
{ACAD_REACTORS
330
B6
102
}
330
B6
100
AcDbScale
 70
     0
300
1:10
140
1.0
141
10.0
290
     0
  0
SCALE
  5
BD
102
{ACAD_REACTORS
330
B6
102
}
330
B6
100
AcDbScale
 70
     0
300
1:16
140
1.0
141
16.0
290
     0
  0
SCALE
  5
BE
102
{ACAD_REACTORS
330
B6
102
}
330
B6
100
AcDbScale
 70
     0
300
1:20
140
1.0
141
20.0
290
     0
  0
SCALE
  5
BF
102
{ACAD_REACTORS
330
B6
102
}
330
B6
100
AcDbScale
 70
     0
300
1:30
140
1.0
141
30.0
290
     0
  0
SCALE
  5
C0
102
{ACAD_REACTORS
330
B6
102
}
330
B6
100
AcDbScale
 70
     0
300
1:40
140
1.0
141
40.0
290
     0
  0
SCALE
  5
C1
102
{ACAD_REACTORS
330
B6
102
}
330
B6
100
AcDbScale
 70
     0
300
1:50
140
1.0
141
50.0
290
     0
  0
SCALE
  5
C2
102
{ACAD_REACTORS
330
B6
102
}
330
B6
100
AcDbScale
 70
     0
300
1:100
140
1.0
141
100.0
290
     0
  0
SCALE
  5
C3
102
{ACAD_REACTORS
330
B6
102
}
330
B6
100
AcDbScale
 70
     0
300
2:1
140
2.0
141
1.0
290
     0
  0
SCALE
  5
C4
102
{ACAD_REACTORS
330
B6
102
}
330
B6
100
AcDbScale
 70
     0
300
4:1
140
4.0
141
1.0
290
     0
  0
SCALE
  5
C5
102
{ACAD_REACTORS
330
B6
102
}
330
B6
100
AcDbScale
 70
     0
300
8:1
140
8.0
141
1.0
290
     0
  0
SCALE
  5
C6
102
{ACAD_REACTORS
330
B6
102
}
330
B6
100
AcDbScale
 70
     0
300
10:1
140
10.0
141
1.0
290
     0
  0
SCALE
  5
C7
102
{ACAD_REACTORS
330
B6
102
}
330
B6
100
AcDbScale
 70
     0
300
100:1
140
100.0
141
1.0
290
     0
  0
SCALE
  5
C8
102
{ACAD_REACTORS
330
B6
102
}
330
B6
100
AcDbScale
 70
     0
300
1/128" = 1'-0"
140
0.0078125
141
12.0
290
     0
  0
SCALE
  5
C9
102
{ACAD_REACTORS
330
B6
102
}
330
B6
100
AcDbScale
 70
     0
300
1/64" = 1'-0"
140
0.015625
141
12.0
290
     0
  0
SCALE
  5
CA
102
{ACAD_REACTORS
330
B6
102
}
330
B6
100
AcDbScale
 70
     0
300
1/32" = 1'-0"
140
0.03125
141
12.0
290
     0
  0
SCALE
  5
CB
102
{ACAD_REACTORS
330
B6
102
}
330
B6
100
AcDbScale
 70
     0
300
1/16" = 1'-0"
140
0.0625
141
12.0
290
     0
  0
SCALE
  5
CC
102
{ACAD_REACTORS
330
B6
102
}
330
B6
100
AcDbScale
 70
     0
300
3/32" = 1'-0"
140
0.09375
141
12.0
290
     0
  0
SCALE
  5
CD
102
{ACAD_REACTORS
330
B6
102
}
330
B6
100
AcDbScale
 70
     0
300
1/8" = 1'-0"
140
0.125
141
12.0
290
     0
  0
SCALE
  5
CE
102
{ACAD_REACTORS
330
B6
102
}
330
B6
100
AcDbScale
 70
     0
300
3/16" = 1'-0"
140
0.1875
141
12.0
290
     0
  0
SCALE
  5
CF
102
{ACAD_REACTORS
330
B6
102
}
330
B6
100
AcDbScale
 70
     0
300
1/4" = 1'-0"
140
0.25
141
12.0
290
     0
  0
SCALE
  5
D0
102
{ACAD_REACTORS
330
B6
102
}
330
B6
100
AcDbScale
 70
     0
300
3/8" = 1'-0"
140
0.375
141
12.0
290
     0
  0
SCALE
  5
D1
102
{ACAD_REACTORS
330
B6
102
}
330
B6
100
AcDbScale
 70
     0
300
1/2" = 1'-0"
140
0.5
141
12.0
290
     0
  0
SCALE
  5
D2
102
{ACAD_REACTORS
330
B6
102
}
330
B6
100
AcDbScale
 70
     0
300
3/4" = 1'-0"
140
0.75
141
12.0
290
     0
  0
SCALE
  5
D3
102
{ACAD_REACTORS
330
B6
102
}
330
B6
100
AcDbScale
 70
     0
300
1" = 1'-0"
140
1.0
141
12.0
290
     0
  0
SCALE
  5
D4
102
{ACAD_REACTORS
330
B6
102
}
330
B6
100
AcDbScale
 70
     0
300
1-1/2" = 1'-0"
140
1.5
141
12.0
290
     0
  0
SCALE
  5
D5
102
{ACAD_REACTORS
330
B6
102
}
330
B6
100
AcDbScale
 70
     0
300
3" = 1'-0"
140
3.0
141
12.0
290
     0
  0
SCALE
  5
D6
102
{ACAD_REACTORS
330
B6
102
}
330
B6
100
AcDbScale
 70
     0
300
6" = 1'-0"
140
6.0
141
12.0
290
     0
  0
SCALE
  5
D7
102
{ACAD_REACTORS
330
B6
102
}
330
B6
100
AcDbScale
 70
     0
300
1'-0" = 1'-0"
140
12.0
141
12.0
290
     0
  0
TABLESTYLE
  5
87
102
{ACAD_REACTORS
330
86
102
}
102
{ACAD_XDICTIONARY
360
415
102
}
330
86
100
AcDbTableStyle
  3
Standard
 70
     0
 71
     0
 40
0.06
 41
0.06
280
     0
281
     0
  7
Standard
140
0.18
170
     2
 62
     0
 63
   257
283
     0
 90
      512
 91
        0
  1

274
    -2
284
     1
 64
     0
275
    -2
285
     1
 65
     0
276
    -2
286
     1
 66
     0
277
    -2
287
     1
 67
     0
278
    -2
288
     1
 68
     0
279
    -2
289
     1
 69
     0
  7
Standard
140
0.25
170
     5
 62
     0
 63
   257
283
     0
 90
      512
 91
        0
  1

274
    -2
284
     1
 64
     0
275
    -2
285
     1
 65
     0
276
    -2
286
     1
 66
     0
277
    -2
287
     1
 67
     0
278
    -2
288
     1
 68
     0
279
    -2
289
     1
 69
     0
  7
Standard
140
0.18
170
     5
 62
     0
 63
   257
283
     0
 90
      512
 91
        0
  1

274
    -2
284
     1
 64
     0
275
    -2
285
     1
 65
     0
276
    -2
286
     1
 66
     0
277
    -2
287
     1
 67
     0
278
    -2
288
     1
 68
     0
279
    -2
289
     1
 69
     0
  0
VISUALSTYLE
  5
9F
102
{ACAD_REACTORS
330
99
102
}
330
99
100
AcDbVisualStyle
  2
2dWireframe
 70
     4
177
     2
291
     0
 71
     0
176
     1
 72
     2
176
     1
 73
     1
176
     1
 90
        0
176
     1
 40
-0.6
176
     1
 41
-30.0
176
     1
 62
     5
 63
     7
421
 16777215
176
     1
 74
     1
176
     1
 91
        4
176
     1
 64
     7
176
     1
 65
   257
176
     1
 75
     1
176
     1
175
     1
176
     1
 42
1.0
176
     1
 92
        0
176
     1
 66
   257
176
     1
 43
1.0
176
     1
 76
     1
176
     1
 77
     6
176
     1
 78
     2
176
     1
 67
     7
176
     1
 79
     5
176
     1
170
     0
176
     1
171
     0
176
     1
290
     0
176
     1
 93
        1
176
     1
 44
0.0
176
     1
173
     0
176
     1
  0
VISUALSTYLE
  5
A1
102
{ACAD_REACTORS
330
99
102
}
330
99
100
AcDbVisualStyle
  2
3D Hidden
 70
     6
177
     2
291
     0
 71
     1
176
     1
 72
     2
176
     1
 73
     2
176
     1
 90
        0
176
     1
 40
-0.6
176
     1
 41
-30.0
176
     1
 62
     5
 63
     7
421
 16777215
176
     1
 74
     2
176
     1
 91
        2
176
     1
 64
     7
176
     1
 65
   257
176
     1
 75
     2
176
     1
175
     1
176
     1
 42
40.0
176
     1
 92
        0
176
     1
 66
   257
176
     1
 43
1.0
176
     1
 76
     1
176
     1
 77
     6
176
     1
 78
     2
176
     1
 67
     7
176
     1
 79
     3
176
     1
170
     0
176
     1
171
     0
176
     1
290
     0
176
     1
 93
        1
176
     1
 44
0.0
176
     1
173
     0
176
     1
  0
VISUALSTYLE
  5
A0
102
{ACAD_REACTORS
330
99
102
}
330
99
100
AcDbVisualStyle
  2
3dWireframe
 70
     5
177
     2
291
     0
 71
     0
176
     1
 72
     2
176
     1
 73
     1
176
     1
 90
        0
176
     1
 40
-0.6
176
     1
 41
-30.0
176
     1
 62
     5
 63
     7
421
 16777215
176
     1
 74
     1
176
     1
 91
        4
176
     1
 64
     7
176
     1
 65
   257
176
     1
 75
     1
176
     1
175
     1
176
     1
 42
1.0
176
     1
 92
        0
176
     1
 66
   257
176
     1
 43
1.0
176
     1
 76
     1
176
     1
 77
     6
176
     1
 78
     2
176
     1
 67
     7
176
     1
 79
     5
176
     1
170
     0
176
     1
171
     0
176
     1
290
     0
176
     1
 93
        1
176
     1
 44
0.0
176
     1
173
     0
176
     1
  0
VISUALSTYLE
  5
9E
102
{ACAD_REACTORS
330
99
102
}
330
99
100
AcDbVisualStyle
  2
Basic
 70
     7
177
     2
291
     1
 71
     1
176
     1
 72
     0
176
     1
 73
     1
176
     1
 90
        0
176
     1
 40
-0.6
176
     1
 41
-30.0
176
     1
 62
     5
 63
     7
421
 16777215
176
     1
 74
     0
176
     1
 91
        4
176
     1
 64
     7
176
     1
 65
   257
176
     1
 75
     1
176
     1
175
     1
176
     1
 42
1.0
176
     1
 92
        8
176
     1
 66
     7
176
     1
 43
1.0
176
     1
 76
     1
176
     1
 77
     6
176
     1
 78
     2
176
     1
 67
     7
176
     1
 79
     5
176
     1
170
     0
176
     1
171
     0
176
     1
290
     0
176
     1
 93
        1
176
     1
 44
0.0
176
     1
173
     0
176
     1
  0
VISUALSTYLE
  5
A5
102
{ACAD_REACTORS
330
99
102
}
330
99
100
AcDbVisualStyle
  2
Brighten
 70
    12
177
     2
291
     1
 71
     2
176
     1
 72
     2
176
     1
 73
     1
176
     1
 90
        0
176
     1
 40
-0.6
176
     1
 41
-30.0
176
     1
 62
     5
 63
     7
421
 16777215
176
     1
 74
     1
176
     1
 91
        4
176
     1
 64
     7
176
     1
 65
   257
176
     1
 75
     1
176
     1
175
     1
176
     1
 42
1.0
176
     1
 92
        8
176
     1
 66
     7
176
     1
 43
1.0
176
     1
 76
     1
176
     1
 77
     6
176
     1
 78
     2
176
     1
 67
     7
176
     1
 79
     5
176
     1
170
     0
176
     1
171
     0
176
     1
290
     0
176
     1
 93
        1
176
     1
 44
50.0
176
     1
173
     0
176
     1
  0
VISUALSTYLE
  5
A9
102
{ACAD_REACTORS
330
99
102
}
330
99
100
AcDbVisualStyle
  2
ColorChange
 70
    16
177
     2
291
     1
 71
     2
176
     1
 72
     2
176
     1
 73
     3
176
     1
 90
        0
176
     1
 40
-0.6
176
     1
 41
-30.0
176
     1
 62
     5
 63
     8
421
  8421504
176
     1
 74
     1
176
     1
 91
        4
176
     1
 64
     7
176
     1
 65
   257
176
     1
 75
     1
176
     1
175
     1
176
     1
 42
1.0
176
     1
 92
        8
176
     1
 66
     8
424
  8421504
176
     1
 43
1.0
176
     1
 76
     1
176
     1
 77
     6
176
     1
 78
     2
176
     1
 67
     7
176
     1
 79
     5
176
     1
170
     0
176
     1
171
     0
176
     1
290
     0
176
     1
 93
        1
176
     1
 44
0.0
176
     1
173
     0
176
     1
  0
VISUALSTYLE
  5
A2
102
{ACAD_REACTORS
330
99
102
}
330
99
100
AcDbVisualStyle
  2
Conceptual
 70
     9
177
     2
291
     0
 71
     3
176
     1
 72
     2
176
     1
 73
     1
176
     1
 90
        0
176
     1
 40
-0.6
176
     1
 41
-30.0
176
     1
 62
     5
 63
     7
421
 16777215
176
     1
 74
     2
176
     1
 91
        2
176
     1
 64
     7
176
     1
 65
   257
176
     1
 75
     1
176
     1
175
     1
176
     1
 42
40.0
176
     1
 92
        8
176
     1
 66
     7
176
     1
 43
1.0
176
     1
 76
     1
176
     1
 77
     6
176
     1
 78
     2
176
     1
 67
     7
176
     1
 79
     3
176
     1
170
     0
176
     1
171
     0
176
     1
290
     0
176
     1
 93
        1
176
     1
 44
0.0
176
     1
173
     0
176
     1
  0
VISUALSTYLE
  5
A4
102
{ACAD_REACTORS
330
99
102
}
330
99
100
AcDbVisualStyle
  2
Dim
 70
    11
177
     2
291
     1
 71
     2
176
     1
 72
     2
176
     1
 73
     1
176
     1
 90
        0
176
     1
 40
-0.6
176
     1
 41
-30.0
176
     1
 62
     5
 63
     7
421
 16777215
176
     1
 74
     1
176
     1
 91
        4
176
     1
 64
     7
176
     1
 65
   257
176
     1
 75
     1
176
     1
175
     1
176
     1
 42
1.0
176
     1
 92
        8
176
     1
 66
     7
176
     1
 43
1.0
176
     1
 76
     1
176
     1
 77
     6
176
     1
 78
     2
176
     1
 67
     7
176
     1
 79
     5
176
     1
170
     0
176
     1
171
     0
176
     1
290
     0
176
     1
 93
        1
176
     1
 44
-50.0
176
     1
173
     0
176
     1
  0
VISUALSTYLE
  5
E7
102
{ACAD_REACTORS
330
99
102
}
330
99
100
AcDbVisualStyle
  2
EdgeColorOff
 70
    22
177
     2
291
     1
 71
     2
176
     0
 72
     2
176
     0
 73
     0
176
     0
 90
        0
176
     0
 40
0.6
176
     0
 41
30.0
176
     0
 62
     5
 63
     7
421
 16777215
176
     0
 74
     1
176
     0
 91
        4
176
     0
 64
     7
176
     0
 65
   257
176
     0
 75
     1
176
     0
175
     1
176
     0
 42
1.0
176
     0
 92
        8
176
     2
 66
     7
176
     0
 43
1.0
176
     0
 76
     1
176
     0
 77
     6
176
     0
 78
     2
176
     0
 67
     7
176
     0
 79
     5
176
     0
170
     0
176
     0
171
     0
176
     0
290
     0
176
     0
 93
        1
176
     0
 44
0.0
176
     0
173
     0
176
     0
  0
VISUALSTYLE
  5
A8
102
{ACAD_REACTORS
330
99
102
}
330
99
100
AcDbVisualStyle
  2
Facepattern
 70
    15
177
     2
291
     1
 71
     2
176
     1
 72
     2
176
     1
 73
     1
176
     1
 90
        0
176
     1
 40
-0.6
176
     1
 41
-30.0
176
     1
 62
     5
 63
     7
421
 16777215
176
     1
 74
     1
176
     1
 91
        4
176
     1
 64
     7
176
     1
 65
   257
176
     1
 75
     1
176
     1
175
     1
176
     1
 42
1.0
176
     1
 92
        8
176
     1
 66
     7
176
     1
 43
1.0
176
     1
 76
     1
176
     1
 77
     6
176
     1
 78
     2
176
     1
 67
     7
176
     1
 79
     5
176
     1
170
     0
176
     1
171
     0
176
     1
290
     0
176
     1
 93
        1
176
     1
 44
0.0
176
     1
173
     0
176
     1
  0
VISUALSTYLE
  5
9A
102
{ACAD_REACTORS
330
99
102
}
330
99
100
AcDbVisualStyle
  2
Flat
 70
     0
177
     2
291
     1
 71
     2
176
     1
 72
     1
176
     1
 73
     1
176
     1
 90
        2
176
     1
 40
-0.6
176
     1
 41
30.0
176
     1
 62
     5
 63
     7
421
 16777215
176
     1
 74
     0
176
     1
 91
        4
176
     1
 64
     7
176
     1
 65
   257
176
     1
 75
     1
176
     1
175
     1
176
     1
 42
1.0
176
     1
 92
        8
176
     1
 66
     7
176
     1
 43
1.0
176
     1
 76
     1
176
     1
 77
     6
176
     1
 78
     2
176
     1
 67
     7
176
     1
 79
     5
176
     1
170
     0
176
     1
171
     0
176
     1
290
     0
176
     1
 93
        1
176
     1
 44
0.0
176
     1
173
     0
176
     1
  0
VISUALSTYLE
  5
9B
102
{ACAD_REACTORS
330
99
102
}
330
99
100
AcDbVisualStyle
  2
FlatWithEdges
 70
     1
177
     2
291
     1
 71
     2
176
     1
 72
     1
176
     1
 73
     1
176
     1
 90
        2
176
     1
 40
-0.6
176
     1
 41
30.0
176
     1
 62
     5
 63
     7
421
 16777215
176
     1
 74
     1
176
     1
 91
        4
176
     1
 64
     7
176
     1
 65
   257
176
     1
 75
     1
176
     1
175
     1
176
     1
 42
1.0
176
     1
 92
        0
176
     1
 66
   257
176
     1
 43
1.0
176
     1
 76
     1
176
     1
 77
     6
176
     1
 78
     2
176
     1
 67
     7
176
     1
 79
     5
176
     1
170
     0
176
     1
171
     0
176
     1
290
     0
176
     1
 93
        1
176
     1
 44
0.0
176
     1
173
     0
176
     1
  0
VISUALSTYLE
  5
9C
102
{ACAD_REACTORS
330
99
102
}
330
99
100
AcDbVisualStyle
  2
Gouraud
 70
     2
177
     2
291
     1
 71
     2
176
     1
 72
     2
176
     1
 73
     1
176
     1
 90
        2
176
     1
 40
-0.6
176
     1
 41
30.0
176
     1
 62
     5
 63
     7
421
 16777215
176
     1
 74
     0
176
     1
 91
        4
176
     1
 64
     7
176
     1
 65
   257
176
     1
 75
     1
176
     1
175
     1
176
     1
 42
1.0
176
     1
 92
        0
176
     1
 66
     7
176
     1
 43
1.0
176
     1
 76
     1
176
     1
 77
     6
176
     1
 78
     2
176
     1
 67
     7
176
     1
 79
     5
176
     1
170
     0
176
     1
171
     0
176
     1
290
     0
176
     1
 93
        1
176
     1
 44
0.0
176
     1
173
     0
176
     1
  0
VISUALSTYLE
  5
9D
102
{ACAD_REACTORS
330
99
102
}
330
99
100
AcDbVisualStyle
  2
GouraudWithEdges
 70
     3
177
     2
291
     1
 71
     2
176
     1
 72
     2
176
     1
 73
     1
176
     1
 90
        2
176
     1
 40
-0.6
176
     1
 41
30.0
176
     1
 62
     5
 63
     7
421
 16777215
176
     1
 74
     1
176
     1
 91
        4
176
     1
 64
     7
176
     1
 65
   257
176
     1
 75
     1
176
     1
175
     1
176
     1
 42
1.0
176
     1
 92
        0
176
     1
 66
   257
176
     1
 43
1.0
176
     1
 76
     1
176
     1
 77
     6
176
     1
 78
     2
176
     1
 67
     7
176
     1
 79
     5
176
     1
170
     0
176
     1
171
     0
176
     1
290
     0
176
     1
 93
        1
176
     1
 44
0.0
176
     1
173
     0
176
     1
  0
VISUALSTYLE
  5
E4
102
{ACAD_REACTORS
330
99
102
}
330
99
100
AcDbVisualStyle
  2
Hidden
 70
     6
177
     2
291
     0
 71
     1
176
     1
 72
     2
176
     1
 73
     2
176
     1
 90
        0
176
     1
 40
0.6
176
     1
 41
30.0
176
     1
 62
     5
 63
     7
421
 16777215
176
     1
 74
     2
176
     1
 91
        2
176
     1
 64
     7
176
     1
 65
   257
176
     1
 75
     2
176
     1
175
     1
176
     1
 42
40.0
176
     1
 92
        0
176
     1
 66
   257
176
     1
 43
1.0
176
     1
 76
     1
176
     1
 77
     6
176
     1
 78
     2
176
     1
 67
     7
176
     1
 79
     3
176
     1
170
     0
176
     1
171
     0
176
     1
290
     0
176
     1
 93
        1
176
     1
 44
0.0
176
     1
173
     0
176
     1
  0
VISUALSTYLE
  5
E5
102
{ACAD_REACTORS
330
99
102
}
330
99
100
AcDbVisualStyle
  2
JitterOff
 70
    20
177
     2
291
     1
 71
     2
176
     0
 72
     2
176
     0
 73
     0
176
     0
 90
        0
176
     0
 40
0.6
176
     0
 41
30.0
176
     0
 62
     5
 63
     7
421
 16777215
176
     0
 74
     1
176
     0
 91
        4
176
     0
 64
     7
176
     0
 65
   257
176
     0
 75
     1
176
     0
175
     1
176
     0
 42
1.0
176
     0
 92
       10
176
     2
 66
     7
176
     0
 43
1.0
176
     0
 76
     1
176
     0
 77
     6
176
     0
 78
     2
176
     0
 67
     7
176
     0
 79
     5
176
     0
170
     0
176
     0
171
     0
176
     0
290
     0
176
     0
 93
        1
176
     0
 44
0.0
176
     0
173
     0
176
     0
  0
VISUALSTYLE
  5
A7
102
{ACAD_REACTORS
330
99
102
}
330
99
100
AcDbVisualStyle
  2
Linepattern
 70
    14
177
     2
291
     1
 71
     2
176
     1
 72
     2
176
     1
 73
     1
176
     1
 90
        0
176
     1
 40
-0.6
176
     1
 41
-30.0
176
     1
 62
     5
 63
     7
421
 16777215
176
     1
 74
     1
176
     1
 91
        4
176
     1
 64
     7
176
     1
 65
   257
176
     1
 75
     7
176
     1
175
     7
176
     1
 42
1.0
176
     1
 92
        8
176
     1
 66
     7
176
     1
 43
1.0
176
     1
 76
     1
176
     1
 77
     6
176
     1
 78
     2
176
     1
 67
     7
176
     1
 79
     5
176
     1
170
     0
176
     1
171
     0
176
     1
290
     0
176
     1
 93
        1
176
     1
 44
0.0
176
     1
173
     0
176
     1
  0
VISUALSTYLE
  5
E6
102
{ACAD_REACTORS
330
99
102
}
330
99
100
AcDbVisualStyle
  2
OverhangOff
 70
    21
177
     2
291
     1
 71
     2
176
     0
 72
     2
176
     0
 73
     0
176
     0
 90
        0
176
     0
 40
0.6
176
     0
 41
30.0
176
     0
 62
     5
 63
     7
421
 16777215
176
     0
 74
     1
176
     0
 91
        4
176
     0
 64
     7
176
     0
 65
   257
176
     0
 75
     1
176
     0
175
     1
176
     0
 42
1.0
176
     0
 92
        9
176
     2
 66
     7
176
     0
 43
1.0
176
     0
 76
     1
176
     0
 77
     6
176
     0
 78
     2
176
     0
 67
     7
176
     0
 79
     5
176
     0
170
     0
176
     0
171
     0
176
     0
290
     0
176
     0
 93
        1
176
     0
 44
0.0
176
     0
173
     0
176
     0
  0
VISUALSTYLE
  5
A3
102
{ACAD_REACTORS
330
99
102
}
330
99
100
AcDbVisualStyle
  2
Realistic
 70
     8
177
     2
291
     0
 71
     2
176
     1
 72
     2
176
     1
 73
     1
176
     1
 90
        0
176
     1
 40
-0.6
176
     1
 41
-30.0
176
     1
 62
     5
 63
     7
421
 16777215
176
     1
 74
     1
176
     1
 91
        0
176
     1
 64
     7
176
     1
 65
   257
176
     1
 75
     1
176
     1
175
     1
176
     1
 42
1.0
176
     1
 92
        8
176
     1
 66
     8
424
  7895160
176
     1
 43
1.0
176
     1
 76
     1
176
     1
 77
     6
176
     1
 78
     2
176
     1
 67
     7
176
     1
 79
     5
176
     1
170
     0
176
     1
171
     0
176
     1
290
     0
176
     1
 93
       13
176
     1
 44
0.0
176
     1
173
     0
176
     1
  0
VISUALSTYLE
  5
EC
102
{ACAD_REACTORS
330
99
102
}
330
99
100
AcDbVisualStyle
  2
Shaded
 70
    27
177
     2
291
     0
 71
     2
176
     1
 72
     2
176
     1
 73
     1
176
     1
 90
        2
176
     1
 40
0.6
176
     1
 41
30.0
176
     1
 62
     5
 63
     7
421
 16777215
176
     1
 74
     0
176
     1
 91
        4
176
     1
 64
     7
176
     1
 65
   257
176
     1
 75
     1
176
     1
175
     1
176
     1
 42
1.0
176
     1
 92
        8
176
     1
 66
   257
176
     1
 43
1.0
176
     1
 76
     1
176
     1
 77
     6
176
     1
 78
     2
176
     1
 67
     8
425
  7895160
176
     1
 79
     3
176
     1
170
     0
176
     1
171
     0
176
     1
290
     0
176
     1
 93
        5
176
     1
 44
0.0
176
     1
173
     0
176
     1
  0
VISUALSTYLE
  5
EB
102
{ACAD_REACTORS
330
99
102
}
330
99
100
AcDbVisualStyle
  2
Shaded with edges
 70
    26
177
     2
291
     0
 71
     2
176
     1
 72
     2
176
     1
 73
     1
176
     1
 90
        2
176
     1
 40
0.6
176
     1
 41
30.0
176
     1
 62
     5
 63
     7
421
 16777215
176
     1
 74
     1
176
     1
 91
       10
176
     1
 64
     7
176
     1
 65
   257
176
     1
 75
     2
176
     1
175
     1
176
     1
 42
1.0
176
     1
 92
        8
176
     1
 66
   257
176
     1
 43
1.0
176
     1
 76
     1
176
     1
 77
     6
176
     1
 78
     2
176
     1
 67
     7
176
     1
 79
     3
176
     1
170
     0
176
     1
171
     0
176
     1
290
     0
176
     1
 93
        5
176
     1
 44
0.0
176
     1
173
     0
176
     1
  0
VISUALSTYLE
  5
E8
102
{ACAD_REACTORS
330
99
102
}
330
99
100
AcDbVisualStyle
  2
Shades of Gray
 70
    23
177
     2
291
     0
 71
     2
176
     1
 72
     2
176
     1
 73
     3
176
     1
 90
        0
176
     1
 40
0.6
176
     1
 41
30.0
176
     1
 62
     5
 63
     7
421
 16777215
176
     1
 74
     2
176
     1
 91
        2
176
     1
 64
     7
176
     1
 65
     7
176
     1
 75
     1
176
     1
175
     1
176
     1
 42
40.0
176
     1
 92
        8
176
     1
 66
     7
176
     1
 43
1.0
176
     1
 76
     1
176
     1
 77
     6
176
     1
 78
     2
176
     1
 67
     7
176
     1
 79
     3
176
     1
170
     0
176
     1
171
     0
176
     1
290
     0
176
     1
 93
        1
176
     1
 44
0.0
176
     1
173
     0
176
     1
  0
VISUALSTYLE
  5
E9
102
{ACAD_REACTORS
330
99
102
}
330
99
100
AcDbVisualStyle
  2
Sketchy
 70
    24
177
     2
291
     0
 71
     1
176
     1
 72
     2
176
     1
 73
     2
176
     1
 90
        0
176
     1
 40
0.6
176
     1
 41
30.0
176
     1
 62
     5
 63
     7
421
 16777215
176
     1
 74
     2
176
     1
 91
        2
176
     1
 64
     7
176
     1
 65
     7
176
     1
 75
     1
176
     1
175
     1
176
     1
 42
40.0
176
     1
 92
       11
176
     1
 66
     7
176
     1
 43
1.0
176
     1
 76
     1
176
     1
 77
     6
176
     1
 78
     2
176
     1
 67
     7
176
     1
 79
     6
176
     1
170
     0
176
     1
171
     0
176
     1
290
     0
176
     1
 93
        1
176
     1
 44
0.0
176
     1
173
     0
176
     1
  0
VISUALSTYLE
  5
A6
102
{ACAD_REACTORS
330
99
102
}
330
99
100
AcDbVisualStyle
  2
Thicken
 70
    13
177
     2
291
     1
 71
     2
176
     1
 72
     2
176
     1
 73
     1
176
     1
 90
        0
176
     1
 40
-0.6
176
     1
 41
-30.0
176
     1
 62
     5
 63
     7
421
 16777215
176
     1
 74
     1
176
     1
 91
        4
176
     1
 64
     7
176
     1
 65
   257
176
     1
 75
     1
176
     1
175
     1
176
     1
 42
1.0
176
     1
 92
       12
176
     1
 66
     7
176
     1
 43
1.0
176
     1
 76
     1
176
     1
 77
     6
176
     1
 78
     2
176
     1
 67
     7
176
     1
 79
     5
176
     1
170
     0
176
     1
171
     0
176
     1
290
     0
176
     1
 93
        1
176
     1
 44
0.0
176
     1
173
     0
176
     1
  0
VISUALSTYLE
  5
E3
102
{ACAD_REACTORS
330
99
102
}
330
99
100
AcDbVisualStyle
  2
Wireframe
 70
     5
177
     2
291
     0
 71
     0
176
     1
 72
     2
176
     1
 73
     0
176
     1
 90
        0
176
     1
 40
0.6
176
     1
 41
30.0
176
     1
 62
     5
 63
     7
421
 16777215
176
     1
 74
     1
176
     1
 91
        4
176
     1
 64
     7
176
     1
 65
   257
176
     1
 75
     1
176
     1
175
     1
176
     1
 42
1.0
176
     1
 92
        0
176
     1
 66
   257
176
     1
 43
1.0
176
     1
 76
     1
176
     1
 77
     6
176
     1
 78
     2
176
     1
 67
     7
176
     1
 79
     3
176
     1
170
     0
176
     1
171
     0
176
     1
290
     0
176
     1
 93
        1
176
     1
 44
0.0
176
     1
173
     0
176
     1
  0
VISUALSTYLE
  5
EA
102
{ACAD_REACTORS
330
99
102
}
330
99
100
AcDbVisualStyle
  2
X-Ray
 70
    25
177
     2
291
     0
 71
     2
176
     1
 72
     2
176
     1
 73
     1
176
     1
 90
        1
176
     1
 40
0.5
176
     1
 41
30.0
176
     1
 62
     5
 63
     7
421
 16777215
176
     1
 74
     1
176
     1
 91
        0
176
     1
 64
     7
176
     1
 65
   257
176
     1
 75
     1
176
     1
175
     1
176
     1
 42
1.0
176
     1
 92
        8
176
     1
 66
     7
176
     1
 43
1.0
176
     1
 76
     1
176
     1
 77
     6
176
     1
 78
     2
176
     1
 67
     7
176
     1
 79
     3
176
     1
170
     0
176
     1
171
     0
176
     1
290
     0
176
     1
 93
       13
176
     1
 44
0.0
176
     1
173
     0
176
     1
  0
DICTIONARYVAR
  5
D8
102
{ACAD_REACTORS
330
66
102
}
330
66
100
DictionaryVariables
280
     0
  1
1:1
  0
DICTIONARYVAR
  5
418
102
{ACAD_REACTORS
330
66
102
}
330
66
100
DictionaryVariables
280
     0
  1
Standard
  0
DICTIONARYVAR
  5
89
102
{ACAD_REACTORS
330
66
102
}
330
66
100
DictionaryVariables
280
     0
  1
Standard
  0
DICTIONARYVAR
  5
67
102
{ACAD_REACTORS
330
66
102
}
330
66
100
DictionaryVariables
280
     0
  1
2
  0
DICTIONARYVAR
  5
6B
102
{ACAD_REACTORS
330
66
102
}
330
66
100
DictionaryVariables
280
     0
  1
1
  0
DICTIONARYVAR
  5
DF
102
{ACAD_REACTORS
330
66
102
}
330
66
100
DictionaryVariables
280
     0
  1
0
  0
DICTIONARYVAR
  5
E0
102
{ACAD_REACTORS
330
66
102
}
330
66
100
DictionaryVariables
280
     0
  1
0
  0
DICTIONARY
  5
415
330
87
100
AcDbDictionary
280
     1
281
     1
  3
ACAD_ROUNDTRIP_2008_TABLESTYLE_CELLSTYLEMAP
360
416
  0
CELLSTYLEMAP
  5
416
102
{ACAD_REACTORS
330
415
102
}
330
415
100
AcDbCellStyleMap
 90
        3
300
CELLSTYLE
  1
TABLEFORMAT_BEGIN
 90
        5
170
     1
 91
        0
 92
    32768
 62
   257
 93
        1
300
CONTENTFORMAT
  1
CONTENTFORMAT_BEGIN
 90
        0
 91
        0
 92
      512
 93
        0
300

 40
0.0
140
1.0
 94
        5
 62
     0
340
11
144
0.25
309
CONTENTFORMAT_END
171
     0
 94
        6
 95
        1
302
GRIDFORMAT
  1
GRIDFORMAT_BEGIN
 90
        0
 91
        1
 62
     0
 92
       -2
340
0
 93
        0
 40
0.045
309
GRIDFORMAT_END
 95
        2
302
GRIDFORMAT
  1
GRIDFORMAT_BEGIN
 90
        0
 91
        1
 62
     0
 92
       -2
340
0
 93
        0
 40
0.045
309
GRIDFORMAT_END
 95
        4
302
GRIDFORMAT
  1
GRIDFORMAT_BEGIN
 90
        0
 91
        1
 62
     0
 92
       -2
340
0
 93
        0
 40
0.045
309
GRIDFORMAT_END
 95
        8
302
GRIDFORMAT
  1
GRIDFORMAT_BEGIN
 90
        0
 91
        1
 62
     0
 92
       -2
340
0
 93
        0
 40
0.045
309
GRIDFORMAT_END
 95
       16
302
GRIDFORMAT
  1
GRIDFORMAT_BEGIN
 90
        0
 91
        1
 62
     0
 92
       -2
340
0
 93
        0
 40
0.045
309
GRIDFORMAT_END
 95
       32
302
GRIDFORMAT
  1
GRIDFORMAT_BEGIN
 90
        0
 91
        1
 62
     0
 92
       -2
340
0
 93
        0
 40
0.045
309
GRIDFORMAT_END
309
TABLEFORMAT_END
  1
CELLSTYLE_BEGIN
 90
        1
 91
        1
300
_TITLE
309
CELLSTYLE_END
300
CELLSTYLE
  1
TABLEFORMAT_BEGIN
 90
        5
170
     1
 91
        0
 92
        0
 62
   257
 93
        1
300
CONTENTFORMAT
  1
CONTENTFORMAT_BEGIN
 90
        0
 91
        0
 92
      512
 93
        0
300

 40
0.0
140
1.0
 94
        5
 62
     0
340
11
144
0.18
309
CONTENTFORMAT_END
171
     0
 94
        6
 95
        1
302
GRIDFORMAT
  1
GRIDFORMAT_BEGIN
 90
        0
 91
        1
 62
     0
 92
       -2
340
0
 93
        0
 40
0.045
309
GRIDFORMAT_END
 95
        2
302
GRIDFORMAT
  1
GRIDFORMAT_BEGIN
 90
        0
 91
        1
 62
     0
 92
       -2
340
0
 93
        0
 40
0.045
309
GRIDFORMAT_END
 95
        4
302
GRIDFORMAT
  1
GRIDFORMAT_BEGIN
 90
        0
 91
        1
 62
     0
 92
       -2
340
0
 93
        0
 40
0.045
309
GRIDFORMAT_END
 95
        8
302
GRIDFORMAT
  1
GRIDFORMAT_BEGIN
 90
        0
 91
        1
 62
     0
 92
       -2
340
0
 93
        0
 40
0.045
309
GRIDFORMAT_END
 95
       16
302
GRIDFORMAT
  1
GRIDFORMAT_BEGIN
 90
        0
 91
        1
 62
     0
 92
       -2
340
0
 93
        0
 40
0.045
309
GRIDFORMAT_END
 95
       32
302
GRIDFORMAT
  1
GRIDFORMAT_BEGIN
 90
        0
 91
        1
 62
     0
 92
       -2
340
0
 93
        0
 40
0.045
309
GRIDFORMAT_END
309
TABLEFORMAT_END
  1
CELLSTYLE_BEGIN
 90
        2
 91
        1
300
_HEADER
309
CELLSTYLE_END
300
CELLSTYLE
  1
TABLEFORMAT_BEGIN
 90
        5
170
     1
 91
        0
 92
        0
 62
   257
 93
        1
300
CONTENTFORMAT
  1
CONTENTFORMAT_BEGIN
 90
        0
 91
        0
 92
      512
 93
        0
300

 40
0.0
140
1.0
 94
        2
 62
     0
340
11
144
0.18
309
CONTENTFORMAT_END
171
     0
 94
        6
 95
        1
302
GRIDFORMAT
  1
GRIDFORMAT_BEGIN
 90
        0
 91
        1
 62
     0
 92
       -2
340
0
 93
        0
 40
0.045
309
GRIDFORMAT_END
 95
        2
302
GRIDFORMAT
  1
GRIDFORMAT_BEGIN
 90
        0
 91
        1
 62
     0
 92
       -2
340
0
 93
        0
 40
0.045
309
GRIDFORMAT_END
 95
        4
302
GRIDFORMAT
  1
GRIDFORMAT_BEGIN
 90
        0
 91
        1
 62
     0
 92
       -2
340
0
 93
        0
 40
0.045
309
GRIDFORMAT_END
 95
        8
302
GRIDFORMAT
  1
GRIDFORMAT_BEGIN
 90
        0
 91
        1
 62
     0
 92
       -2
340
0
 93
        0
 40
0.045
309
GRIDFORMAT_END
 95
       16
302
GRIDFORMAT
  1
GRIDFORMAT_BEGIN
 90
        0
 91
        1
 62
     0
 92
       -2
340
0
 93
        0
 40
0.045
309
GRIDFORMAT_END
 95
       32
302
GRIDFORMAT
  1
GRIDFORMAT_BEGIN
 90
        0
 91
        1
 62
     0
 92
       -2
340
0
 93
        0
 40
0.045
309
GRIDFORMAT_END
309
TABLEFORMAT_END
  1
CELLSTYLE_BEGIN
 90
        3
 91
        2
300
_DATA
309
CELLSTYLE_END
  0
ENDSEC
  0
EOF
