  0
SECTION
  2
HEADER
  9
$ACADVER
  1
AC1027
  9
$ACADMAINTVER
 70
     8
  9
$DWGCODEPAGE
  3
ANSI_932
  9
$REQUIREDVERSIONS
160
                 0
  9
$LASTSAVEDBY
  1
Yasu
  9
$INSBASE
 10
0.0
 20
0.0
 30
0.0
  9
$EXTMIN
 10
30.73675141240266
 20
28.61312639981193
 30
0.0
  9
$EXTMAX
 10
188.5134460800296
 20
222.4530067243306
 30
0.0
  9
$LIMMIN
 10
0.0
 20
0.0
  9
$LIMMAX
 10
12.0
 20
9.0
  9
$ORTHOMODE
 70
     0
  9
$REGENMODE
 70
     1
  9
$FILLMODE
 70
     1
  9
$QTEXTMODE
 70
     0
  9
$MIRRTEXT
 70
     0
  9
$LTSCALE
 40
1.0
  9
$ATTMODE
 70
     1
  9
$TEXTSIZE
 40
0.2
  9
$TRACEWID
 40
0.05
  9
$TEXTSTYLE
  7
Standard
  9
$CLAYER
  8
0
  9
$CELTYPE
  6
ByLayer
  9
$CECOLOR
 62
   256
  9
$CELTSCALE
 40
1.0
  9
$DISPSILH
 70
     0
  9
$DIMSCALE
 40
1.0
  9
$DIMASZ
 40
0.18
  9
$DIMEXO
 40
0.0625
  9
$DIMDLI
 40
0.38
  9
$DIMRND
 40
0.0
  9
$DIMDLE
 40
0.0
  9
$DIMEXE
 40
0.18
  9
$DIMTP
 40
0.0
  9
$DIMTM
 40
0.0
  9
$DIMTXT
 40
0.18
  9
$DIMCEN
 40
0.09
  9
$DIMTSZ
 40
0.0
  9
$DIMTOL
 70
     0
  9
$DIMLIM
 70
     0
  9
$DIMTIH
 70
     1
  9
$DIMTOH
 70
     1
  9
$DIMSE1
 70
     0
  9
$DIMSE2
 70
     0
  9
$DIMTAD
 70
     0
  9
$DIMZIN
 70
     0
  9
$DIMBLK
  1

  9
$DIMASO
 70
     1
  9
$DIMSHO
 70
     1
  9
$DIMPOST
  1

  9
$DIMAPOST
  1

  9
$DIMALT
 70
     0
  9
$DIMALTD
 70
     2
  9
$DIMALTF
 40
25.4
  9
$DIMLFAC
 40
1.0
  9
$DIMTOFL
 70
     0
  9
$DIMTVP
 40
0.0
  9
$DIMTIX
 70
     0
  9
$DIMSOXD
 70
     0
  9
$DIMSAH
 70
     0
  9
$DIMBLK1
  1

  9
$DIMBLK2
  1

  9
$DIMSTYLE
  2
Standard
  9
$DIMCLRD
 70
     0
  9
$DIMCLRE
 70
     0
  9
$DIMCLRT
 70
     0
  9
$DIMTFAC
 40
1.0
  9
$DIMGAP
 40
0.09
  9
$DIMJUST
 70
     0
  9
$DIMSD1
 70
     0
  9
$DIMSD2
 70
     0
  9
$DIMTOLJ
 70
     1
  9
$DIMTZIN
 70
     0
  9
$DIMALTZ
 70
     0
  9
$DIMALTTZ
 70
     0
  9
$DIMUPT
 70
     0
  9
$DIMDEC
 70
     4
  9
$DIMTDEC
 70
     4
  9
$DIMALTU
 70
     2
  9
$DIMALTTD
 70
     2
  9
$DIMTXSTY
  7
Standard
  9
$DIMAUNIT
 70
     0
  9
$DIMADEC
 70
     0
  9
$DIMALTRND
 40
0.0
  9
$DIMAZIN
 70
     0
  9
$DIMDSEP
 70
    46
  9
$DIMATFIT
 70
     3
  9
$DIMFRAC
 70
     0
  9
$DIMLDRBLK
  1

  9
$DIMLUNIT
 70
     2
  9
$DIMLWD
 70
    -2
  9
$DIMLWE
 70
    -2
  9
$DIMTMOVE
 70
     0
  9
$DIMFXL
 40
1.0
  9
$DIMFXLON
 70
     0
  9
$DIMJOGANG
 40
0.7853981633974483
  9
$DIMTFILL
 70
     0
  9
$DIMTFILLCLR
 70
     0
  9
$DIMARCSYM
 70
     0
  9
$DIMLTYPE
  6

  9
$DIMLTEX1
  6

  9
$DIMLTEX2
  6

  9
$DIMTXTDIRECTION
 70
     0
  9
$LUNITS
 70
     2
  9
$LUPREC
 70
     4
  9
$SKETCHINC
 40
0.1
  9
$FILLETRAD
 40
0.0
  9
$AUNITS
 70
     0
  9
$AUPREC
 70
     0
  9
$MENU
  1
.
  9
$ELEVATION
 40
0.0
  9
$PELEVATION
 40
0.0
  9
$THICKNESS
 40
0.0
  9
$LIMCHECK
 70
     0
  9
$CHAMFERA
 40
0.0
  9
$CHAMFERB
 40
0.0
  9
$CHAMFERC
 40
0.0
  9
$CHAMFERD
 40
0.0
  9
$SKPOLY
 70
     0
  9
$TDCREATE
 40
2452643.438384271
  9
$TDUCREATE
 40
2452643.063384271
  9
$TDUPDATE
 40
2456739.884592697
  9
$TDUUPDATE
 40
2456739.509592697
  9
$TDINDWG
 40
0.001704838
  9
$TDUSRTIMER
 40
2456739.50872956
  9
$USRTIMER
 70
     1
  9
$ANGBASE
 50
0.0
  9
$ANGDIR
 70
     0
  9
$PDMODE
 70
     0
  9
$PDSIZE
 40
0.0
  9
$PLINEWID
 40
0.0
  9
$SPLFRAME
 70
     0
  9
$SPLINETYPE
 70
     6
  9
$SPLINESEGS
 70
     8
  9
$HANDSEED
  5
376
  9
$SURFTAB1
 70
     6
  9
$SURFTAB2
 70
     6
  9
$SURFTYPE
 70
     6
  9
$SURFU
 70
     6
  9
$SURFV
 70
     6
  9
$UCSBASE
  2

  9
$UCSNAME
  2

  9
$UCSORG
 10
0.0
 20
0.0
 30
0.0
  9
$UCSXDIR
 10
1.0
 20
0.0
 30
0.0
  9
$UCSYDIR
 10
0.0
 20
1.0
 30
0.0
  9
$UCSORTHOREF
  2

  9
$UCSORTHOVIEW
 70
     0
  9
$UCSORGTOP
 10
0.0
 20
0.0
 30
0.0
  9
$UCSORGBOTTOM
 10
0.0
 20
0.0
 30
0.0
  9
$UCSORGLEFT
 10
0.0
 20
0.0
 30
0.0
  9
$UCSORGRIGHT
 10
0.0
 20
0.0
 30
0.0
  9
$UCSORGFRONT
 10
0.0
 20
0.0
 30
0.0
  9
$UCSORGBACK
 10
0.0
 20
0.0
 30
0.0
  9
$PUCSBASE
  2

  9
$PUCSNAME
  2

  9
$PUCSORG
 10
0.0
 20
0.0
 30
0.0
  9
$PUCSXDIR
 10
1.0
 20
0.0
 30
0.0
  9
$PUCSYDIR
 10
0.0
 20
1.0
 30
0.0
  9
$PUCSORTHOREF
  2

  9
$PUCSORTHOVIEW
 70
     0
  9
$PUCSORGTOP
 10
0.0
 20
0.0
 30
0.0
  9
$PUCSORGBOTTOM
 10
0.0
 20
0.0
 30
0.0
  9
$PUCSORGLEFT
 10
0.0
 20
0.0
 30
0.0
  9
$PUCSORGRIGHT
 10
0.0
 20
0.0
 30
0.0
  9
$PUCSORGFRONT
 10
0.0
 20
0.0
 30
0.0
  9
$PUCSORGBACK
 10
0.0
 20
0.0
 30
0.0
  9
$USERI1
 70
     0
  9
$USERI2
 70
     0
  9
$USERI3
 70
     0
  9
$USERI4
 70
     0
  9
$USERI5
 70
     0
  9
$USERR1
 40
0.0
  9
$USERR2
 40
0.0
  9
$USERR3
 40
0.0
  9
$USERR4
 40
0.0
  9
$USERR5
 40
0.0
  9
$WORLDVIEW
 70
     1
  9
$SHADEDGE
 70
     3
  9
$SHADEDIF
 70
    70
  9
$TILEMODE
 70
     1
  9
$MAXACTVP
 70
    64
  9
$PINSBASE
 10
0.0
 20
0.0
 30
0.0
  9
$PLIMCHECK
 70
     0
  9
$PEXTMIN
 10
0.0
 20
0.0
 30
0.0
  9
$PEXTMAX
 10
0.0
 20
0.0
 30
0.0
  9
$PLIMMIN
 10
0.0
 20
0.0
  9
$PLIMMAX
 10
0.0
 20
0.0
  9
$UNITMODE
 70
     0
  9
$VISRETAIN
 70
     1
  9
$PLINEGEN
 70
     0
  9
$PSLTSCALE
 70
     1
  9
$TREEDEPTH
 70
  3020
  9
$CMLSTYLE
  2
Standard
  9
$CMLJUST
 70
     0
  9
$CMLSCALE
 40
1.0
  9
$PROXYGRAPHICS
 70
     1
  9
$MEASUREMENT
 70
     0
  9
$CELWEIGHT
370
    -1
  9
$ENDCAPS
280
     0
  9
$JOINSTYLE
280
     0
  9
$LWDISPLAY
290
     0
  9
$INSUNITS
 70
     1
  9
$HYPERLINKBASE
  1

  9
$STYLESHEET
  1

  9
$XEDIT
290
     1
  9
$CEPSNTYPE
380
     0
  9
$PSTYLEMODE
290
     1
  9
$FINGERPRINTGUID
  2
{FDEAD576-A652-11D2-9A35-0060089B3A3F}
  9
$VERSIONGUID
  2
{FBC2AE19-5C5C-49EC-81BC-71B1A3362A02}
  9
$EXTNAMES
290
     1
  9
$PSVPSCALE
 40
0.0
  9
$OLESTARTUP
290
     0
  9
$SORTENTS
280
   127
  9
$INDEXCTL
280
     0
  9
$HIDETEXT
280
     1
  9
$XCLIPFRAME
280
     0
  9
$HALOGAP
280
     0
  9
$OBSCOLOR
 70
   257
  9
$OBSLTYPE
280
     0
  9
$INTERSECTIONDISPLAY
280
     0
  9
$INTERSECTIONCOLOR
 70
   257
  9
$DIMASSOC
280
     2
  9
$PROJECTNAME
  1

  9
$CAMERADISPLAY
290
     0
  9
$LENSLENGTH
 40
50.0
  9
$CAMERAHEIGHT
 40
0.0
  9
$STEPSPERSEC
 40
2.0
  9
$STEPSIZE
 40
6.0
  9
$3DDWFPREC
 40
2.0
  9
$PSOLWIDTH
 40
0.25
  9
$PSOLHEIGHT
 40
4.0
  9
$LOFTANG1
 40
1.570796326794897
  9
$LOFTANG2
 40
1.570796326794897
  9
$LOFTMAG1
 40
0.0
  9
$LOFTMAG2
 40
0.0
  9
$LOFTPARAM
 70
     7
  9
$LOFTNORMALS
280
     1
  9
$LATITUDE
 40
37.795
  9
$LONGITUDE
 40
-122.394
  9
$NORTHDIRECTION
 40
0.0
  9
$TIMEZONE
 70
 -8000
  9
$LIGHTGLYPHDISPLAY
280
     1
  9
$TILEMODELIGHTSYNCH
280
     1
  9
$CMATERIAL
347
96
  9
$SOLIDHIST
280
     1
  9
$SHOWHIST
280
     1
  9
$DWFFRAME
280
     2
  9
$DGNFRAME
280
     0
  9
$REALWORLDSCALE
290
     1
  9
$INTERFERECOLOR
 62
     1
  9
$CSHADOW
280
     0
  9
$SHADOWPLANELOCATION
 40
0.0
  0
ENDSEC
  0
SECTION
  2
CLASSES
  0
CLASS
  1
ACDBDICTIONARYWDFLT
  2
AcDbDictionaryWithDefault
  3
ObjectDBX Classes
 90
        0
 91
       11
280
     0
281
     0
  0
CLASS
  1
ACDBPLACEHOLDER
  2
AcDbPlaceHolder
  3
ObjectDBX Classes
 90
        0
 91
        1
280
     0
281
     0
  0
CLASS
  1
LAYOUT
  2
AcDbLayout
  3
ObjectDBX Classes
 90
        0
 91
        1
280
     0
281
     0
  0
CLASS
  1
DICTIONARYVAR
  2
AcDbDictionaryVar
  3
ObjectDBX Classes
 90
        0
 91
        7
280
     0
281
     0
  0
CLASS
  1
TABLESTYLE
  2
AcDbTableStyle
  3
ObjectDBX Classes
 90
     4095
 91
       11
280
     0
281
     0
  0
CLASS
  1
MATERIAL
  2
AcDbMaterial
  3
ObjectDBX Classes
 90
     1153
 91
       11
280
     0
281
     0
  0
CLASS
  1
VISUALSTYLE
  2
AcDbVisualStyle
  3
ObjectDBX Classes
 90
     4095
 91
       11
280
     0
281
     0
  0
CLASS
  1
SCALE
  2
AcDbScale
  3
ObjectDBX Classes
 90
     1153
 91
       11
280
     0
281
     0
  0
CLASS
  1
CELLSTYLEMAP
  2
AcDbCellStyleMap
  3
ObjectDBX Classes
 90
     1152
 91
        7
280
     0
281
     0
  0
CLASS
  1
RASTERVARIABLES
  2
AcDbRasterVariables
  3
ISM
 90
        0
 91
       11
280
     0
281
     0
  0
CLASS
  1
SUN
  2
AcDbSun
  3
SCENEOE
 90
     1153
 91
       11
280
     0
281
     0
  0
CLASS
  1
DIMASSOC
  2
AcDbDimAssoc
  3
"AcDbDimAssoc|Product Desc:     AcDim ARX App For Dimension|Company:          Autodesk, Inc.|WEB Address:      www.autodesk.com"
 90
        0
 91
        7
280
     0
281
     0
  0
ENDSEC
  0
SECTION
  2
TABLES
  0
TABLE
  2
VPORT
  5
8
330
0
100
AcDbSymbolTable
 70
     1
  0
VPORT
  5
94
330
8
100
AcDbSymbolTableRecord
100
AcDbViewportTableRecord
  2
*Active
 70
     0
 10
0.0
 20
0.0
 11
1.0
 21
1.0
 12
132.6591625002366
 22
145.0717695199333
 13
0.0
 23
0.0
 14
0.5
 24
0.5
 15
0.5
 25
0.5
 16
0.0
 26
0.0
 36
1.0
 17
-27.66959356597982
 27
-19.53870295786203
 37
0.0
 40
197.7166779310091
 41
1.762376237623762
 42
50.0
 43
0.0
 44
0.0
 50
0.0
 51
0.0
 71
    16
 72
  1000
 73
     1
 74
     3
 75
     0
 76
     0
 77
     0
 78
     0
281
     0
 65
     1
110
0.0
120
0.0
130
0.0
111
1.0
121
0.0
131
0.0
112
0.0
122
1.0
132
0.0
 79
     0
146
0.0
348
9F
 60
     2
 61
     5
292
     1
282
     1
141
0.0
142
0.0
 63
   250
421
  3355443
361
ED
  0
ENDTAB
  0
TABLE
  2
LTYPE
  5
5
330
0
100
AcDbSymbolTable
 70
     2
  0
LTYPE
  5
14
330
5
100
AcDbSymbolTableRecord
100
AcDbLinetypeTableRecord
  2
ByBlock
 70
     0
  3

 72
    65
 73
     0
 40
0.0
  0
LTYPE
  5
15
330
5
100
AcDbSymbolTableRecord
100
AcDbLinetypeTableRecord
  2
ByLayer
 70
     0
  3

 72
    65
 73
     0
 40
0.0
  0
LTYPE
  5
16
330
5
100
AcDbSymbolTableRecord
100
AcDbLinetypeTableRecord
  2
Continuous
 70
     0
  3
Solid line
 72
    65
 73
     0
 40
0.0
  0
LTYPE
  5
12A
330
5
100
AcDbSymbolTableRecord
100
AcDbLinetypeTableRecord
  2
CENTER
 70
     0
  3
Center ____ _ ____ _ ____ _ ____ _ ____ _ ____
 72
    65
 73
     4
 40
50.8
 49
31.75
 74
     0
 49
-6.35
 74
     0
 49
6.35
 74
     0
 49
-6.35
 74
     0
  0
ENDTAB
  0
TABLE
  2
LAYER
  5
2
330
0
100
AcDbSymbolTable
 70
     7
  0
LAYER
  5
10
330
2
100
AcDbSymbolTableRecord
100
AcDbLayerTableRecord
  2
0
 70
     0
 62
     7
  6
Continuous
370
    -3
390
F
347
98
348
0
  0
LAYER
  5
125
330
2
100
AcDbSymbolTableRecord
100
AcDbLayerTableRecord
  2
Defpoints
 70
     0
 62
     7
  6
Continuous
290
     0
370
    -3
390
F
347
98
348
0
  0
LAYER
  5
126
330
2
100
AcDbSymbolTableRecord
100
AcDbLayerTableRecord
  2
枠
 70
     0
 62
     1
  6
Continuous
370
    30
390
F
347
98
348
0
  0
LAYER
  5
128
330
2
100
AcDbSymbolTableRecord
100
AcDbLayerTableRecord
  2
文字
 70
     0
 62
     7
  6
Continuous
370
    25
390
F
347
98
348
0
  0
LAYER
  5
129
330
2
100
AcDbSymbolTableRecord
100
AcDbLayerTableRecord
  2
中心線
 70
     0
 62
     7
  6
CENTER
370
    30
390
F
347
98
348
0
  0
LAYER
  5
12B
330
2
100
AcDbSymbolTableRecord
100
AcDbLayerTableRecord
  2
実線
 70
     0
 62
     7
  6
Continuous
370
    50
390
F
347
98
348
0
  0
LAYER
  5
2AC
330
2
100
AcDbSymbolTableRecord
100
AcDbLayerTableRecord
  2
文字・寸法線
 70
     0
 62
     7
  6
Continuous
370
    -3
390
F
347
98
348
0
  0
ENDTAB
  0
TABLE
  2
STYLE
  5
3
330
0
100
AcDbSymbolTable
 70
     1
  0
STYLE
  5
11
330
3
100
AcDbSymbolTableRecord
100
AcDbTextStyleTableRecord
  2
Standard
 70
     0
 40
0.0
 41
1.0
 50
0.0
 71
     0
 42
0.2
  3
arial.ttf
  4

1001
ACAD
1000
Arial
1071
        0
  0
ENDTAB
  0
TABLE
  2
VIEW
  5
6
330
0
100
AcDbSymbolTable
 70
     0
  0
ENDTAB
  0
TABLE
  2
UCS
  5
7
330
0
100
AcDbSymbolTable
 70
     0
  0
ENDTAB
  0
TABLE
  2
APPID
  5
9
330
0
100
AcDbSymbolTable
 70
     1
  0
APPID
  5
12
330
9
100
AcDbSymbolTableRecord
100
AcDbRegAppTableRecord
  2
ACAD
 70
     0
  0
ENDTAB
  0
TABLE
  2
DIMSTYLE
  5
A
330
0
100
AcDbSymbolTable
 70
     2
100
AcDbDimStyleTable
  0
DIMSTYLE
105
27
330
A
100
AcDbSymbolTableRecord
100
AcDbDimStyleTableRecord
  2
Standard
 70
     0
178
     0
340
11
  0
DIMSTYLE
105
12C
102
{ACAD_REACTORS
330
20E
330
220
330
223
330
23A
330
243
330
308
330
319
330
326
330
345
330
348
330
349
102
}
330
A
100
AcDbSymbolTableRecord
100
AcDbDimStyleTableRecord
  2
ISO-25
 70
     0
 41
2.5
 42
0.625
 43
3.75
 44
1.25
 73
     0
 74
     0
 77
     1
 78
     8
140
2.5
141
2.5
143
0.03937007874016
147
0.625
171
     3
172
     1
178
     0
271
     2
272
     2
274
     3
283
     0
284
     8
340
11
  0
ENDTAB
  0
TABLE
  2
BLOCK_RECORD
  5
1
330
0
100
AcDbSymbolTable
 70
    24
  0
BLOCK_RECORD
  5
1F
330
1
100
AcDbSymbolTableRecord
100
AcDbBlockTableRecord
  2
*Model_Space
340
22
 70
     0
280
     1
281
     0
  0
BLOCK_RECORD
  5
58
330
1
100
AcDbSymbolTableRecord
100
AcDbBlockTableRecord
  2
*Paper_Space
340
59
 70
     0
280
     1
281
     0
  0
BLOCK_RECORD
  5
5D
330
1
100
AcDbSymbolTableRecord
100
AcDbBlockTableRecord
  2
*Paper_Space0
340
5E
 70
     0
280
     1
281
     0
  0
BLOCK_RECORD
  5
15E
330
1
100
AcDbSymbolTableRecord
100
AcDbBlockTableRecord
  2
*D1
340
0
 70
     0
280
     1
281
     0
  0
BLOCK_RECORD
  5
16D
330
1
100
AcDbSymbolTableRecord
100
AcDbBlockTableRecord
  2
*D2
340
0
 70
     0
280
     1
281
     0
  0
BLOCK_RECORD
  5
184
330
1
100
AcDbSymbolTableRecord
100
AcDbBlockTableRecord
  2
*D3
340
0
 70
     0
280
     1
281
     0
  0
BLOCK_RECORD
  5
193
330
1
100
AcDbSymbolTableRecord
100
AcDbBlockTableRecord
  2
*D4
340
0
 70
     0
280
     1
281
     0
  0
BLOCK_RECORD
  5
1A5
330
1
100
AcDbSymbolTableRecord
100
AcDbBlockTableRecord
  2
*D5
340
0
 70
     0
280
     1
281
     0
  0
BLOCK_RECORD
  5
1B4
330
1
100
AcDbSymbolTableRecord
100
AcDbBlockTableRecord
  2
*D6
340
0
 70
     0
280
     1
281
     0
  0
BLOCK_RECORD
  5
1D5
330
1
100
AcDbSymbolTableRecord
100
AcDbBlockTableRecord
  2
*D7
340
0
 70
     0
280
     1
281
     0
  0
BLOCK_RECORD
  5
1EC
330
1
100
AcDbSymbolTableRecord
100
AcDbBlockTableRecord
  2
*D8
340
0
 70
     0
280
     1
281
     0
  0
BLOCK_RECORD
  5
246
330
1
100
AcDbSymbolTableRecord
100
AcDbBlockTableRecord
  2
*D9
340
0
 70
     0
280
     1
281
     0
  0
BLOCK_RECORD
  5
252
330
1
100
AcDbSymbolTableRecord
100
AcDbBlockTableRecord
  2
*D10
340
0
 70
     0
280
     1
281
     0
  0
BLOCK_RECORD
  5
25E
330
1
100
AcDbSymbolTableRecord
100
AcDbBlockTableRecord
  2
*D11
340
0
 70
     0
280
     1
281
     0
  0
BLOCK_RECORD
  5
26A
330
1
100
AcDbSymbolTableRecord
100
AcDbBlockTableRecord
  2
*D12
340
0
 70
     0
280
     1
281
     0
  0
BLOCK_RECORD
  5
278
330
1
100
AcDbSymbolTableRecord
100
AcDbBlockTableRecord
  2
*D13
340
0
 70
     0
280
     1
281
     0
  0
BLOCK_RECORD
  5
284
330
1
100
AcDbSymbolTableRecord
100
AcDbBlockTableRecord
  2
*D14
340
0
 70
     0
280
     1
281
     0
  0
BLOCK_RECORD
  5
290
330
1
100
AcDbSymbolTableRecord
100
AcDbBlockTableRecord
  2
*D15
340
0
 70
     0
280
     1
281
     0
  0
BLOCK_RECORD
  5
29C
330
1
100
AcDbSymbolTableRecord
100
AcDbBlockTableRecord
  2
*D16
340
0
 70
     0
280
     1
281
     0
  0
BLOCK_RECORD
  5
30B
330
1
100
AcDbSymbolTableRecord
100
AcDbBlockTableRecord
  2
*D18
340
0
 70
     0
280
     1
281
     0
  0
BLOCK_RECORD
  5
31A
330
1
100
AcDbSymbolTableRecord
100
AcDbBlockTableRecord
  2
*D19
340
0
 70
     0
280
     1
281
     0
  0
BLOCK_RECORD
  5
329
330
1
100
AcDbSymbolTableRecord
100
AcDbBlockTableRecord
  2
*D20
340
0
 70
     0
280
     1
281
     0
  0
BLOCK_RECORD
  5
34D
330
1
100
AcDbSymbolTableRecord
100
AcDbBlockTableRecord
  2
*D21
340
0
 70
     0
280
     1
281
     0
  0
BLOCK_RECORD
  5
35B
330
1
100
AcDbSymbolTableRecord
100
AcDbBlockTableRecord
  2
*D22
340
0
 70
     0
280
     1
281
     0
  0
BLOCK_RECORD
  5
367
330
1
100
AcDbSymbolTableRecord
100
AcDbBlockTableRecord
  2
*D23
340
0
 70
     0
280
     1
281
     0
  0
ENDTAB
  0
ENDSEC
  0
SECTION
  2
BLOCKS
  0
BLOCK
  5
20
330
1F
100
AcDbEntity
  8
0
100
AcDbBlockBegin
  2
*Model_Space
 70
     0
 10
0.0
 20
0.0
 30
0.0
  3
*Model_Space
  1
*Model_Space
  0
ENDBLK
  5
21
330
1F
100
AcDbEntity
  8
0
100
AcDbBlockEnd
  0
BLOCK
  5
5A
330
58
100
AcDbEntity
 67
     1
  8
0
100
AcDbBlockBegin
  2
*Paper_Space
 70
     0
 10
0.0
 20
0.0
 30
0.0
  3
*Paper_Space
  1
*Paper_Space
  0
ENDBLK
  5
5B
330
58
100
AcDbEntity
 67
     1
  8
0
100
AcDbBlockEnd
  0
BLOCK
  5
5F
330
5D
100
AcDbEntity
  8
0
100
AcDbBlockBegin
  2
*Paper_Space0
 70
     0
 10
0.0
 20
0.0
 30
0.0
  3
*Paper_Space0
  1
*Paper_Space0
  0
ENDBLK
  5
60
330
5D
100
AcDbEntity
  8
0
100
AcDbBlockEnd
  0
BLOCK
  5
15F
330
15E
100
AcDbEntity
  8
0
370
    30
100
AcDbBlockBegin
  2
*D1
 70
     1
 10
0.0
 20
0.0
 30
0.0
  3
*D1
  1
*D2
  0
LINE
  5
160
330
15E
100
AcDbEntity
  8
文字
 62
     0
370
    -2
100
AcDbLine
 10
16.06164127958865
 20
30.52793892111204
 30
0.0
 11
16.06164127958865
 21
8.225694630727698
 31
0.0
  0
LINE
  5
161
330
15E
100
AcDbEntity
  8
文字
 62
     0
370
    -2
100
AcDbLine
 10
54.06164127958865
 20
30.52793892111202
 30
0.0
 11
54.06164127958865
 21
8.225694630727698
 31
0.0
  0
LINE
  5
162
330
15E
100
AcDbEntity
  8
文字
 62
     0
370
    -2
100
AcDbLine
 10
18.56164127958865
 20
9.475694630727698
 30
0.0
 11
51.56164127958865
 21
9.475694630727698
 31
0.0
  0
SOLID
  5
163
330
15E
100
AcDbEntity
  8
文字
 62
     0
100
AcDbTrace
 10
18.56164127958865
 20
9.892361297394364
 30
0.0
 11
18.56164127958865
 21
9.059027964061032
 31
0.0
 12
16.06164127958865
 22
9.475694630727698
 32
0.0
 13
16.06164127958865
 23
9.475694630727698
 33
0.0
  0
SOLID
  5
164
330
15E
100
AcDbEntity
  8
文字
 62
     0
100
AcDbTrace
 10
51.56164127958865
 20
9.059027964061032
 30
0.0
 11
51.56164127958865
 21
9.892361297394364
 31
0.0
 12
54.06164127958865
 22
9.475694630727698
 32
0.0
 13
54.06164127958865
 23
9.475694630727698
 33
0.0
  0
MTEXT
  5
165
330
15E
100
AcDbEntity
  8
文字
 62
     0
100
AcDbMText
 10
35.06164127958865
 20
11.42402341653943
 30
0.0
 40
2.5
 41
0.0
 46
0.0
 71
     5
 72
     1
  1
%%c38
 73
     1
 44
1.0
  0
POINT
  5
166
330
15E
100
AcDbEntity
  8
Defpoints
 62
     0
100
AcDbPoint
 10
16.06164127958865
 20
31.15293892111204
 30
0.0
  0
POINT
  5
167
330
15E
100
AcDbEntity
  8
Defpoints
 62
     0
100
AcDbPoint
 10
54.06164127958865
 20
31.15293892111202
 30
0.0
  0
POINT
  5
168
330
15E
100
AcDbEntity
  8
Defpoints
 62
     0
100
AcDbPoint
 10
54.06164127958865
 20
9.475694630727698
 30
0.0
  0
ENDBLK
  5
169
330
15E
100
AcDbEntity
  8
0
370
    30
100
AcDbBlockEnd
  0
BLOCK
  5
16E
330
16D
100
AcDbEntity
  8
0
370
    30
100
AcDbBlockBegin
  2
*D2
 70
     1
 10
0.0
 20
0.0
 30
0.0
  3
*D2
  1
*D3
  0
LINE
  5
16F
330
16D
100
AcDbEntity
  8
文字
 62
     0
370
    -2
100
AcDbLine
 10
151.5484303754644
 20
96.58474311506855
 30
0.0
 11
151.5484303754644
 21
56.11396229885533
 31
0.0
  0
LINE
  5
170
330
16D
100
AcDbEntity
  8
文字
 62
     0
370
    -2
100
AcDbLine
 10
179.5484303754644
 20
96.58474311506855
 30
0.0
 11
179.5484303754644
 21
56.11396229885533
 31
0.0
  0
LINE
  5
171
330
16D
100
AcDbEntity
  8
文字
 62
     0
370
    -2
100
AcDbLine
 10
154.0484303754644
 20
57.36396229885533
 30
0.0
 11
177.0484303754644
 21
57.36396229885533
 31
0.0
  0
SOLID
  5
172
330
16D
100
AcDbEntity
  8
文字
 62
     0
100
AcDbTrace
 10
154.0484303754644
 20
57.78062896552199
 30
0.0
 11
154.0484303754644
 21
56.94729563218866
 31
0.0
 12
151.5484303754644
 22
57.36396229885533
 32
0.0
 13
151.5484303754644
 23
57.36396229885533
 33
0.0
  0
SOLID
  5
173
330
16D
100
AcDbEntity
  8
文字
 62
     0
100
AcDbTrace
 10
177.0484303754644
 20
56.94729563218866
 30
0.0
 11
177.0484303754644
 21
57.78062896552199
 31
0.0
 12
179.5484303754644
 22
57.36396229885533
 32
0.0
 13
179.5484303754644
 23
57.36396229885533
 33
0.0
  0
MTEXT
  5
174
330
16D
100
AcDbEntity
  8
文字
 62
     0
100
AcDbMText
 10
165.5484303754644
 20
59.31229108466706
 30
0.0
 40
2.5
 41
0.0
 46
0.0
 71
     5
 72
     1
  1
%%c28
 73
     1
 44
1.0
  0
POINT
  5
175
330
16D
100
AcDbEntity
  8
Defpoints
 62
     0
100
AcDbPoint
 10
151.5484303754644
 20
97.20974311506855
 30
0.0
  0
POINT
  5
176
330
16D
100
AcDbEntity
  8
Defpoints
 62
     0
100
AcDbPoint
 10
179.5484303754644
 20
97.20974311506855
 30
0.0
  0
POINT
  5
177
330
16D
100
AcDbEntity
  8
Defpoints
 62
     0
100
AcDbPoint
 10
179.5484303754644
 20
57.36396229885533
 30
0.0
  0
ENDBLK
  5
178
330
16D
100
AcDbEntity
  8
0
370
    30
100
AcDbBlockEnd
  0
BLOCK
  5
185
330
184
100
AcDbEntity
  8
0
370
    30
100
AcDbBlockBegin
  2
*D3
 70
     1
 10
0.0
 20
0.0
 30
0.0
  3
*D3
  1
*D4
  0
LINE
  5
186
330
184
100
AcDbEntity
  8
文字
 62
     0
370
    -2
100
AcDbLine
 10
40.70287217196549
 20
43.73640498814376
 30
0.0
 11
81.69537245610448
 21
43.73640498814376
 31
0.0
  0
LINE
  5
187
330
184
100
AcDbEntity
  8
文字
 62
     0
370
    -2
100
AcDbLine
 10
54.68664127958865
 20
31.15293892111202
 30
0.0
 11
81.69537245610448
 21
31.15293892111202
 31
0.0
  0
LINE
  5
188
330
184
100
AcDbEntity
  8
文字
 62
     0
370
    -2
100
AcDbLine
 10
80.44537245610448
 20
41.23640498814376
 30
0.0
 11
80.44537245610448
 21
33.65293892111202
 31
0.0
  0
SOLID
  5
189
330
184
100
AcDbEntity
  8
文字
 62
     0
100
AcDbTrace
 10
80.86203912277115
 20
41.23640498814376
 30
0.0
 11
80.02870578943781
 21
41.23640498814376
 31
0.0
 12
80.44537245610448
 22
43.73640498814376
 32
0.0
 13
80.44537245610448
 23
43.73640498814376
 33
0.0
  0
SOLID
  5
18A
330
184
100
AcDbEntity
  8
文字
 62
     0
100
AcDbTrace
 10
80.02870578943781
 20
33.65293892111202
 30
0.0
 11
80.86203912277115
 21
33.65293892111202
 31
0.0
 12
80.44537245610448
 22
31.15293892111202
 32
0.0
 13
80.44537245610448
 23
31.15293892111202
 33
0.0
  0
MTEXT
  5
18B
330
184
100
AcDbEntity
  8
文字
 62
     0
100
AcDbMText
 10
78.56525649430367
 20
37.44467195462789
 30
0.0
 40
2.5
 41
0.0
 46
0.0
 71
     5
 72
     1
  1
12
 11
0.0
 21
1.0
 31
0.0
 73
     1
 44
1.0
  0
POINT
  5
18C
330
184
100
AcDbEntity
  8
Defpoints
 62
     0
100
AcDbPoint
 10
40.07787217196549
 20
43.73640498814376
 30
0.0
  0
POINT
  5
18D
330
184
100
AcDbEntity
  8
Defpoints
 62
     0
100
AcDbPoint
 10
54.06164127958865
 20
31.15293892111202
 30
0.0
  0
POINT
  5
18E
330
184
100
AcDbEntity
  8
Defpoints
 62
     0
100
AcDbPoint
 10
80.44537245610448
 20
31.15293892111202
 30
0.0
  0
ENDBLK
  5
18F
330
184
100
AcDbEntity
  8
0
370
    30
100
AcDbBlockEnd
  0
BLOCK
  5
194
330
193
100
AcDbEntity
  8
0
370
    30
100
AcDbBlockBegin
  2
*D4
 70
     1
 10
0.0
 20
0.0
 30
0.0
  3
*D4
  1
*D5
  0
LINE
  5
195
330
193
100
AcDbEntity
  8
文字
 62
     0
370
    -2
100
AcDbLine
 10
15.43664127958865
 20
32.75293892111203
 30
0.0
 11
1.875000000000021
 21
32.75293892111203
 31
0.0
  0
LINE
  5
196
330
193
100
AcDbEntity
  8
文字
 62
     0
370
    -2
100
AcDbLine
 10
15.43664127958865
 20
31.15293892111204
 30
0.0
 11
1.875000000000021
 21
31.15293892111204
 31
0.0
  0
LINE
  5
197
330
193
100
AcDbEntity
  8
文字
 62
     0
370
    -2
100
AcDbLine
 10
3.125000000000021
 20
28.65293892111204
 30
0.0
 11
3.125000000000021
 21
20.58506716122118
 31
0.0
  0
LINE
  5
198
330
193
100
AcDbEntity
  8
文字
 62
     0
370
    -2
100
AcDbLine
 10
3.125000000000021
 20
32.75293892111203
 30
0.0
 11
3.125000000000021
 21
31.15293892111204
 31
0.0
  0
LINE
  5
199
330
193
100
AcDbEntity
  8
文字
 62
     0
370
    -2
100
AcDbLine
 10
3.125000000000021
 20
35.25293892111203
 30
0.0
 11
3.125000000000021
 21
37.75293892111203
 31
0.0
  0
SOLID
  5
19A
330
193
100
AcDbEntity
  8
文字
 62
     0
100
AcDbTrace
 10
2.708333333333355
 20
35.25293892111203
 30
0.0
 11
3.541666666666688
 21
35.25293892111203
 31
0.0
 12
3.125000000000021
 22
32.75293892111203
 32
0.0
 13
3.125000000000021
 23
32.75293892111203
 33
0.0
  0
SOLID
  5
19B
330
193
100
AcDbEntity
  8
文字
 62
     0
100
AcDbTrace
 10
3.541666666666688
 20
28.65293892111204
 30
0.0
 11
2.708333333333355
 21
28.65293892111204
 31
0.0
 12
3.125000000000021
 22
31.15293892111204
 32
0.0
 13
3.125000000000021
 23
31.15293892111204
 33
0.0
  0
MTEXT
  5
19C
330
193
100
AcDbEntity
  8
文字
 62
     0
100
AcDbMText
 10
1.224420190995929
 20
23.36900304116661
 30
0.0
 40
2.5
 41
0.0
 46
0.0
 71
     5
 72
     1
  1
1.6
 11
0.0
 21
1.0
 31
0.0
 73
     1
 44
1.0
  0
POINT
  5
19D
330
193
100
AcDbEntity
  8
Defpoints
 62
     0
100
AcDbPoint
 10
16.06164127958865
 20
32.75293892111203
 30
0.0
  0
POINT
  5
19E
330
193
100
AcDbEntity
  8
Defpoints
 62
     0
100
AcDbPoint
 10
16.06164127958865
 20
31.15293892111204
 30
0.0
  0
POINT
  5
19F
330
193
100
AcDbEntity
  8
Defpoints
 62
     0
100
AcDbPoint
 10
3.125000000000021
 20
31.15293892111204
 30
0.0
  0
ENDBLK
  5
1A0
330
193
100
AcDbEntity
  8
0
370
    30
100
AcDbBlockEnd
  0
BLOCK
  5
1A6
330
1A5
100
AcDbEntity
  8
0
370
    30
100
AcDbBlockBegin
  2
*D5
 70
     1
 10
0.0
 20
0.0
 30
0.0
  3
*D5
  1
*D6
  0
LINE
  5
1A7
330
1A5
100
AcDbEntity
  8
文字
 62
     0
370
    -2
100
AcDbLine
 10
157.0613814183769
 20
96.58474311506855
 30
0.0
 11
157.0613814183769
 21
62.91934551474442
 31
0.0
  0
LINE
  5
1A8
330
1A5
100
AcDbEntity
  8
文字
 62
     0
370
    -2
100
AcDbLine
 10
174.0354793325519
 20
96.58474311506855
 30
0.0
 11
174.0354793325519
 21
62.91934551474442
 31
0.0
  0
LINE
  5
1A9
330
1A5
100
AcDbEntity
  8
文字
 62
     0
370
    -2
100
AcDbLine
 10
159.5613814183769
 20
64.16934551474442
 30
0.0
 11
171.5354793325519
 21
64.16934551474442
 31
0.0
  0
SOLID
  5
1AA
330
1A5
100
AcDbEntity
  8
文字
 62
     0
100
AcDbTrace
 10
159.5613814183769
 20
64.58601218141109
 30
0.0
 11
159.5613814183769
 21
63.75267884807776
 31
0.0
 12
157.0613814183769
 22
64.16934551474442
 32
0.0
 13
157.0613814183769
 23
64.16934551474442
 33
0.0
  0
SOLID
  5
1AB
330
1A5
100
AcDbEntity
  8
文字
 62
     0
100
AcDbTrace
 10
171.5354793325519
 20
63.75267884807776
 30
0.0
 11
171.5354793325519
 21
64.58601218141109
 31
0.0
 12
174.0354793325519
 22
64.16934551474442
 32
0.0
 13
174.0354793325519
 23
64.16934551474442
 33
0.0
  0
MTEXT
  5
1AC
330
1A5
100
AcDbEntity
  8
文字
 62
     0
100
AcDbMText
 10
165.5484303754644
 20
66.04946147654525
 30
0.0
 40
2.5
 41
0.0
 46
0.0
 71
     5
 72
     1
  1
17
 73
     1
 44
1.0
  0
POINT
  5
1AD
330
1A5
100
AcDbEntity
  8
Defpoints
 62
     0
100
AcDbPoint
 10
157.0613814183769
 20
97.20974311506855
 30
0.0
  0
POINT
  5
1AE
330
1A5
100
AcDbEntity
  8
Defpoints
 62
     0
100
AcDbPoint
 10
174.0354793325519
 20
97.20974311506855
 30
0.0
  0
POINT
  5
1AF
330
1A5
100
AcDbEntity
  8
Defpoints
 62
     0
100
AcDbPoint
 10
174.0354793325519
 20
64.16934551474442
 30
0.0
  0
ENDBLK
  5
1B0
330
1A5
100
AcDbEntity
  8
0
370
    30
100
AcDbBlockEnd
  0
BLOCK
  5
1B5
330
1B4
100
AcDbEntity
  8
0
370
    30
100
AcDbBlockBegin
  2
*D6
 70
     1
 10
0.0
 20
0.0
 30
0.0
  3
*D6
  1
*D7
  0
LINE
  5
1B6
330
1B4
100
AcDbEntity
  8
文字
 62
     0
370
    -2
100
AcDbLine
 10
45.48664127958865
 20
43.73640498814376
 30
0.0
 11
81.651181675397
 21
43.73640498814376
 31
0.0
  0
LINE
  5
1B7
330
1B4
100
AcDbEntity
  8
文字
 62
     0
370
    -2
100
AcDbLine
 10
45.48664127958865
 20
50.73640498814376
 30
0.0
 11
81.651181675397
 21
50.73640498814376
 31
0.0
  0
LINE
  5
1B8
330
1B4
100
AcDbEntity
  8
文字
 62
     0
370
    -2
100
AcDbLine
 10
80.401181675397
 20
46.23640498814376
 30
0.0
 11
80.401181675397
 21
48.23640498814376
 31
0.0
  0
SOLID
  5
1B9
330
1B4
100
AcDbEntity
  8
文字
 62
     0
100
AcDbTrace
 10
79.98451500873033
 20
46.23640498814376
 30
0.0
 11
80.81784834206367
 21
46.23640498814376
 31
0.0
 12
80.401181675397
 22
43.73640498814376
 32
0.0
 13
80.401181675397
 23
43.73640498814376
 33
0.0
  0
SOLID
  5
1BA
330
1B4
100
AcDbEntity
  8
文字
 62
     0
100
AcDbTrace
 10
80.81784834206367
 20
48.23640498814376
 30
0.0
 11
79.98451500873033
 21
48.23640498814376
 31
0.0
 12
80.401181675397
 22
50.73640498814376
 32
0.0
 13
80.401181675397
 23
50.73640498814376
 33
0.0
  0
MTEXT
  5
1BB
330
1B4
100
AcDbEntity
  8
文字
 62
     0
100
AcDbMText
 10
78.526181675397
 20
47.23640498814376
 30
0.0
 40
2.5
 41
0.0
 46
0.0
 71
     5
 72
     1
  1
7
 11
0.0
 21
1.0
 31
0.0
 73
     1
 44
1.0
  0
POINT
  5
1BC
330
1B4
100
AcDbEntity
  8
Defpoints
 62
     0
100
AcDbPoint
 10
44.86164127958865
 20
43.73640498814376
 30
0.0
  0
POINT
  5
1BD
330
1B4
100
AcDbEntity
  8
Defpoints
 62
     0
100
AcDbPoint
 10
44.86164127958865
 20
50.73640498814376
 30
0.0
  0
POINT
  5
1BE
330
1B4
100
AcDbEntity
  8
Defpoints
 62
     0
100
AcDbPoint
 10
80.401181675397
 20
50.73640498814376
 30
0.0
  0
ENDBLK
  5
1BF
330
1B4
100
AcDbEntity
  8
0
370
    30
100
AcDbBlockEnd
  0
BLOCK
  5
1D6
330
1D5
100
AcDbEntity
  8
0
370
    20
100
AcDbBlockBegin
  2
*D7
 70
     1
 10
0.0
 20
0.0
 30
0.0
  3
*D7
  1
*D8
  0
LINE
  5
1D7
330
1D5
100
AcDbEntity
  8
文字
 62
     0
370
    -2
100
AcDbLine
 10
30.06164127958863
 20
148.7364049881437
 30
0.0
 11
30.06164127958863
 21
165.0351292045669
 31
0.0
  0
LINE
  5
1D8
330
1D5
100
AcDbEntity
  8
文字
 62
     0
370
    -2
100
AcDbLine
 10
40.06164127958863
 20
148.7364049881437
 30
0.0
 11
40.06164127958863
 21
165.0351292045669
 31
0.0
  0
LINE
  5
1D9
330
1D5
100
AcDbEntity
  8
文字
 62
     0
370
    -2
100
AcDbLine
 10
32.56164127958863
 20
163.7851292045669
 30
0.0
 11
37.56164127958863
 21
163.7851292045669
 31
0.0
  0
SOLID
  5
1DA
330
1D5
100
AcDbEntity
  8
文字
 62
     0
100
AcDbTrace
 10
32.56164127958863
 20
164.2017958712335
 30
0.0
 11
32.56164127958863
 21
163.3684625379002
 31
0.0
 12
30.06164127958863
 22
163.7851292045669
 32
0.0
 13
30.06164127958863
 23
163.7851292045669
 33
0.0
  0
SOLID
  5
1DB
330
1D5
100
AcDbEntity
  8
文字
 62
     0
100
AcDbTrace
 10
37.56164127958863
 20
163.3684625379002
 30
0.0
 11
37.56164127958863
 21
164.2017958712335
 31
0.0
 12
40.06164127958863
 22
163.7851292045669
 32
0.0
 13
40.06164127958863
 23
163.7851292045669
 33
0.0
  0
MTEXT
  5
1DC
330
1D5
100
AcDbEntity
  8
文字
 62
     0
100
AcDbMText
 10
35.06164127958863
 20
165.6857090135709
 30
0.0
 40
2.5
 41
0.0
 46
0.0
 71
     5
 72
     1
  1
{\fArial|b0|i0|c0|p32;M10}
 73
     1
 44
1.0
  0
POINT
  5
1DD
330
1D5
100
AcDbEntity
  8
Defpoints
 62
     0
100
AcDbPoint
 10
30.06164127958863
 20
148.1114049881437
 30
0.0
  0
POINT
  5
1DE
330
1D5
100
AcDbEntity
  8
Defpoints
 62
     0
100
AcDbPoint
 10
40.06164127958863
 20
148.1114049881437
 30
0.0
  0
POINT
  5
1DF
330
1D5
100
AcDbEntity
  8
Defpoints
 62
     0
100
AcDbPoint
 10
40.06164127958863
 20
163.7851292045669
 30
0.0
  0
ENDBLK
  5
1E0
330
1D5
100
AcDbEntity
  8
0
370
    20
100
AcDbBlockEnd
  0
BLOCK
  5
1ED
330
1EC
100
AcDbEntity
  8
0
100
AcDbBlockBegin
  2
*D8
 70
     1
 10
0.0
 20
0.0
 30
0.0
  3
*D8
  1
*D9
  0
LINE
  5
1EE
330
1EC
100
AcDbEntity
  8
文字
 62
     0
370
    -2
100
AcDbLine
 10
38.68664127958865
 20
150.7364049881438
 30
0.0
 11
81.651181675397
 21
150.7364049881438
 31
0.0
  0
LINE
  5
1EF
330
1EC
100
AcDbEntity
  8
文字
 62
     0
370
    -2
100
AcDbLine
 10
46.11164127958865
 20
50.73640498814376
 30
0.0
 11
81.651181675397
 21
50.73640498814376
 31
0.0
  0
LINE
  5
1F0
330
1EC
100
AcDbEntity
  8
文字
 62
     0
370
    -2
100
AcDbLine
 10
80.401181675397
 20
148.2364049881438
 30
0.0
 11
80.401181675397
 21
53.23640498814376
 31
0.0
  0
SOLID
  5
1F1
330
1EC
100
AcDbEntity
  8
文字
 62
     0
100
AcDbTrace
 10
80.81784834206367
 20
148.2364049881438
 30
0.0
 11
79.98451500873033
 21
148.2364049881438
 31
0.0
 12
80.401181675397
 22
150.7364049881438
 32
0.0
 13
80.401181675397
 23
150.7364049881438
 33
0.0
  0
SOLID
  5
1F2
330
1EC
100
AcDbEntity
  8
文字
 62
     0
100
AcDbTrace
 10
79.98451500873033
 20
53.23640498814376
 30
0.0
 11
80.81784834206367
 21
53.23640498814376
 31
0.0
 12
80.401181675397
 22
50.73640498814376
 32
0.0
 13
80.401181675397
 23
50.73640498814376
 33
0.0
  0
MTEXT
  5
1F3
330
1EC
100
AcDbEntity
  8
文字
 62
     0
100
AcDbMText
 10
78.5006018663929
 20
100.7364049881438
 30
0.0
 40
2.5
 41
0.0
 46
0.0
 71
     5
 72
     1
  1
100
 11
0.0
 21
1.0
 31
0.0
 73
     1
 44
1.0
  0
POINT
  5
1F4
330
1EC
100
AcDbEntity
  8
Defpoints
 62
     0
100
AcDbPoint
 10
38.06164127958865
 20
150.7364049881438
 30
0.0
  0
POINT
  5
1F5
330
1EC
100
AcDbEntity
  8
Defpoints
 62
     0
100
AcDbPoint
 10
45.48664127958865
 20
50.73640498814376
 30
0.0
  0
POINT
  5
1F6
330
1EC
100
AcDbEntity
  8
Defpoints
 62
     0
100
AcDbPoint
 10
80.401181675397
 20
50.73640498814376
 30
0.0
  0
ENDBLK
  5
1F7
330
1EC
100
AcDbEntity
  8
0
100
AcDbBlockEnd
  0
BLOCK
  5
247
330
246
100
AcDbEntity
  8
0
100
AcDbBlockBegin
  2
*D9
 70
     1
 10
0.0
 20
0.0
 30
0.0
  3
*D9
  1
*D10
  0
LINE
  5
249
330
246
100
AcDbEntity
  8
文字
 62
     0
370
    -2
100
AcDbLine
 10
51.52267587837022
 20
65.8624404458607
 30
0.0
 11
51.52267587837022
 21
43.56019615547636
 31
0.0
  0
LINE
  5
24A
330
246
100
AcDbEntity
  8
文字
 62
     0
370
    -2
100
AcDbLine
 10
89.52267587837022
 20
65.86244044586068
 30
0.0
 11
89.52267587837022
 21
43.56019615547636
 31
0.0
  0
LINE
  5
24B
330
246
100
AcDbEntity
  8
文字
 62
     0
370
    -2
100
AcDbLine
 10
54.02267587837022
 20
44.81019615547636
 30
0.0
 11
87.02267587837022
 21
44.81019615547636
 31
0.0
  0
SOLID
  5
24C
330
246
100
AcDbEntity
  8
文字
 62
     0
100
AcDbTrace
 10
54.02267587837022
 20
45.22686282214303
 30
0.0
 11
54.02267587837022
 21
44.3935294888097
 31
0.0
 12
51.52267587837022
 22
44.81019615547636
 32
0.0
 13
51.52267587837022
 23
44.81019615547636
 33
0.0
  0
SOLID
  5
24D
330
246
100
AcDbEntity
  8
文字
 62
     0
100
AcDbTrace
 10
87.02267587837022
 20
44.3935294888097
 30
0.0
 11
87.02267587837022
 21
45.22686282214303
 31
0.0
 12
89.52267587837022
 22
44.81019615547636
 32
0.0
 13
89.52267587837022
 23
44.81019615547636
 33
0.0
  0
MTEXT
  5
24E
330
246
100
AcDbEntity
  8
文字
 62
     0
100
AcDbMText
 10
70.52267587837022
 20
46.75852494128809
 30
0.0
 40
2.5
 41
0.0
 46
0.0
 71
     5
 72
     1
  1
%%c38
 73
     1
 44
1.0
  0
POINT
  5
24F
330
246
100
AcDbEntity
  8
Defpoints
 62
     0
100
AcDbPoint
 10
51.52267587837022
 20
66.4874404458607
 30
0.0
  0
POINT
  5
250
330
246
100
AcDbEntity
  8
Defpoints
 62
     0
100
AcDbPoint
 10
89.52267587837022
 20
66.48744044586068
 30
0.0
  0
POINT
  5
251
330
246
100
AcDbEntity
  8
Defpoints
 62
     0
100
AcDbPoint
 10
89.52267587837022
 20
44.81019615547636
 30
0.0
  0
ENDBLK
  5
248
330
246
100
AcDbEntity
  8
0
100
AcDbBlockEnd
  0
BLOCK
  5
253
330
252
100
AcDbEntity
  8
0
100
AcDbBlockBegin
  2
*D10
 70
     1
 10
0.0
 20
0.0
 30
0.0
  3
*D10
  1
*D11
  0
LINE
  5
255
330
252
100
AcDbEntity
  8
文字
 62
     0
370
    -2
100
AcDbLine
 10
146.2423864561109
 20
86.53167287423089
 30
0.0
 11
146.2423864561109
 21
46.06089205801767
 31
0.0
  0
LINE
  5
256
330
252
100
AcDbEntity
  8
文字
 62
     0
370
    -2
100
AcDbLine
 10
174.2423864561109
 20
86.53167287423089
 30
0.0
 11
174.2423864561109
 21
46.06089205801767
 31
0.0
  0
LINE
  5
257
330
252
100
AcDbEntity
  8
文字
 62
     0
370
    -2
100
AcDbLine
 10
148.7423864561109
 20
47.31089205801767
 30
0.0
 11
171.7423864561109
 21
47.31089205801767
 31
0.0
  0
SOLID
  5
258
330
252
100
AcDbEntity
  8
文字
 62
     0
100
AcDbTrace
 10
148.7423864561109
 20
47.72755872468434
 30
0.0
 11
148.7423864561109
 21
46.89422539135101
 31
0.0
 12
146.2423864561109
 22
47.31089205801767
 32
0.0
 13
146.2423864561109
 23
47.31089205801767
 33
0.0
  0
SOLID
  5
259
330
252
100
AcDbEntity
  8
文字
 62
     0
100
AcDbTrace
 10
171.7423864561109
 20
46.89422539135101
 30
0.0
 11
171.7423864561109
 21
47.72755872468434
 31
0.0
 12
174.2423864561109
 22
47.31089205801767
 32
0.0
 13
174.2423864561109
 23
47.31089205801767
 33
0.0
  0
MTEXT
  5
25A
330
252
100
AcDbEntity
  8
文字
 62
     0
100
AcDbMText
 10
160.2423864561109
 20
49.25714205801767
 30
0.0
 40
2.5
 41
0.0
 46
0.0
 71
     5
 72
     1
  1
%%c28
 73
     1
 44
1.0
  0
POINT
  5
25B
330
252
100
AcDbEntity
  8
Defpoints
 62
     0
100
AcDbPoint
 10
146.2423864561109
 20
87.15667287423089
 30
0.0
  0
POINT
  5
25C
330
252
100
AcDbEntity
  8
Defpoints
 62
     0
100
AcDbPoint
 10
174.2423864561109
 20
87.15667287423089
 30
0.0
  0
POINT
  5
25D
330
252
100
AcDbEntity
  8
Defpoints
 62
     0
100
AcDbPoint
 10
174.2423864561109
 20
47.31089205801767
 30
0.0
  0
ENDBLK
  5
254
330
252
100
AcDbEntity
  8
0
100
AcDbBlockEnd
  0
BLOCK
  5
25F
330
25E
100
AcDbEntity
  8
0
100
AcDbBlockBegin
  2
*D11
 70
     1
 10
0.0
 20
0.0
 30
0.0
  3
*D11
  1
*D12
  0
LINE
  5
261
330
25E
100
AcDbEntity
  8
文字
 62
     0
370
    -2
100
AcDbLine
 10
76.16390677074705
 20
79.07090651289242
 30
0.0
 11
117.156407054886
 21
79.07090651289242
 31
0.0
  0
LINE
  5
262
330
25E
100
AcDbEntity
  8
文字
 62
     0
370
    -2
100
AcDbLine
 10
90.14767587837022
 20
66.48744044586068
 30
0.0
 11
117.156407054886
 21
66.48744044586068
 31
0.0
  0
LINE
  5
263
330
25E
100
AcDbEntity
  8
文字
 62
     0
370
    -2
100
AcDbLine
 10
115.906407054886
 20
76.57090651289242
 30
0.0
 11
115.906407054886
 21
68.98744044586068
 31
0.0
  0
SOLID
  5
264
330
25E
100
AcDbEntity
  8
文字
 62
     0
100
AcDbTrace
 10
116.3230737215527
 20
76.57090651289242
 30
0.0
 11
115.4897403882194
 21
76.57090651289242
 31
0.0
 12
115.906407054886
 22
79.07090651289242
 32
0.0
 13
115.906407054886
 23
79.07090651289242
 33
0.0
  0
SOLID
  5
265
330
25E
100
AcDbEntity
  8
文字
 62
     0
100
AcDbTrace
 10
115.4897403882194
 20
68.98744044586068
 30
0.0
 11
116.3230737215527
 21
68.98744044586068
 31
0.0
 12
115.906407054886
 22
66.48744044586068
 32
0.0
 13
115.906407054886
 23
66.48744044586068
 33
0.0
  0
MTEXT
  5
266
330
25E
100
AcDbEntity
  8
文字
 62
     0
100
AcDbMText
 10
114.0262910930852
 20
72.77917347937655
 30
0.0
 40
2.5
 41
0.0
 46
0.0
 71
     5
 72
     1
  1
12
 11
0.0
 21
1.0
 31
0.0
 73
     1
 44
1.0
  0
POINT
  5
267
330
25E
100
AcDbEntity
  8
Defpoints
 62
     0
100
AcDbPoint
 10
75.53890677074705
 20
79.07090651289242
 30
0.0
  0
POINT
  5
268
330
25E
100
AcDbEntity
  8
Defpoints
 62
     0
100
AcDbPoint
 10
89.52267587837022
 20
66.48744044586068
 30
0.0
  0
POINT
  5
269
330
25E
100
AcDbEntity
  8
Defpoints
 62
     0
100
AcDbPoint
 10
115.906407054886
 20
66.48744044586068
 30
0.0
  0
ENDBLK
  5
260
330
25E
100
AcDbEntity
  8
0
100
AcDbBlockEnd
  0
BLOCK
  5
26B
330
26A
100
AcDbEntity
  8
0
100
AcDbBlockBegin
  2
*D12
 70
     1
 10
0.0
 20
0.0
 30
0.0
  3
*D12
  1
*D13
  0
LINE
  5
26D
330
26A
100
AcDbEntity
  8
文字
 62
     0
370
    -2
100
AcDbLine
 10
50.89767587837022
 20
68.0874404458607
 30
0.0
 11
37.33603459878159
 21
68.0874404458607
 31
0.0
  0
LINE
  5
26E
330
26A
100
AcDbEntity
  8
文字
 62
     0
370
    -2
100
AcDbLine
 10
50.89767587837022
 20
66.4874404458607
 30
0.0
 11
37.33603459878159
 21
66.4874404458607
 31
0.0
  0
LINE
  5
26F
330
26A
100
AcDbEntity
  8
文字
 62
     0
370
    -2
100
AcDbLine
 10
38.58603459878159
 20
63.9874404458607
 30
0.0
 11
38.58603459878159
 21
55.91956868596984
 31
0.0
  0
LINE
  5
270
330
26A
100
AcDbEntity
  8
文字
 62
     0
370
    -2
100
AcDbLine
 10
38.58603459878159
 20
68.0874404458607
 30
0.0
 11
38.58603459878159
 21
66.4874404458607
 31
0.0
  0
LINE
  5
271
330
26A
100
AcDbEntity
  8
文字
 62
     0
370
    -2
100
AcDbLine
 10
38.58603459878159
 20
70.5874404458607
 30
0.0
 11
38.58603459878159
 21
73.0874404458607
 31
0.0
  0
SOLID
  5
272
330
26A
100
AcDbEntity
  8
文字
 62
     0
100
AcDbTrace
 10
38.16936793211492
 20
70.5874404458607
 30
0.0
 11
39.00270126544825
 21
70.5874404458607
 31
0.0
 12
38.58603459878159
 22
68.0874404458607
 32
0.0
 13
38.58603459878159
 23
68.0874404458607
 33
0.0
  0
SOLID
  5
273
330
26A
100
AcDbEntity
  8
文字
 62
     0
100
AcDbTrace
 10
39.00270126544825
 20
63.9874404458607
 30
0.0
 11
38.16936793211492
 21
63.9874404458607
 31
0.0
 12
38.58603459878159
 22
66.4874404458607
 32
0.0
 13
38.58603459878159
 23
66.4874404458607
 33
0.0
  0
MTEXT
  5
274
330
26A
100
AcDbEntity
  8
文字
 62
     0
100
AcDbMText
 10
36.68545478977749
 20
58.70350456591527
 30
0.0
 40
2.5
 41
0.0
 46
0.0
 71
     5
 72
     1
  1
1.6
 11
0.0
 21
1.0
 31
0.0
 73
     1
 44
1.0
  0
POINT
  5
275
330
26A
100
AcDbEntity
  8
Defpoints
 62
     0
100
AcDbPoint
 10
51.52267587837022
 20
68.0874404458607
 30
0.0
  0
POINT
  5
276
330
26A
100
AcDbEntity
  8
Defpoints
 62
     0
100
AcDbPoint
 10
51.52267587837022
 20
66.4874404458607
 30
0.0
  0
POINT
  5
277
330
26A
100
AcDbEntity
  8
Defpoints
 62
     0
100
AcDbPoint
 10
38.58603459878159
 20
66.4874404458607
 30
0.0
  0
ENDBLK
  5
26C
330
26A
100
AcDbEntity
  8
0
100
AcDbBlockEnd
  0
BLOCK
  5
279
330
278
100
AcDbEntity
  8
0
100
AcDbBlockBegin
  2
*D13
 70
     1
 10
0.0
 20
0.0
 30
0.0
  3
*D13
  1
*D14
  0
LINE
  5
27B
330
278
100
AcDbEntity
  8
文字
 62
     0
370
    -2
100
AcDbLine
 10
151.7553374990234
 20
86.53167287423089
 30
0.0
 11
151.7553374990234
 21
52.86627527390677
 31
0.0
  0
LINE
  5
27C
330
278
100
AcDbEntity
  8
文字
 62
     0
370
    -2
100
AcDbLine
 10
168.7294354131984
 20
86.53167287423089
 30
0.0
 11
168.7294354131984
 21
52.86627527390677
 31
0.0
  0
LINE
  5
27D
330
278
100
AcDbEntity
  8
文字
 62
     0
370
    -2
100
AcDbLine
 10
154.2553374990234
 20
54.11627527390677
 30
0.0
 11
166.2294354131984
 21
54.11627527390677
 31
0.0
  0
SOLID
  5
27E
330
278
100
AcDbEntity
  8
文字
 62
     0
100
AcDbTrace
 10
154.2553374990234
 20
54.53294194057343
 30
0.0
 11
154.2553374990234
 21
53.6996086072401
 31
0.0
 12
151.7553374990234
 22
54.11627527390677
 32
0.0
 13
151.7553374990234
 23
54.11627527390677
 33
0.0
  0
SOLID
  5
27F
330
278
100
AcDbEntity
  8
文字
 62
     0
100
AcDbTrace
 10
166.2294354131984
 20
53.6996086072401
 30
0.0
 11
166.2294354131984
 21
54.53294194057343
 31
0.0
 12
168.7294354131984
 22
54.11627527390677
 32
0.0
 13
168.7294354131984
 23
54.11627527390677
 33
0.0
  0
MTEXT
  5
280
330
278
100
AcDbEntity
  8
文字
 62
     0
100
AcDbMText
 10
160.2423864561109
 20
55.99627527390677
 30
0.0
 40
2.5
 41
0.0
 46
0.0
 71
     5
 72
     1
  1
17
 73
     1
 44
1.0
  0
POINT
  5
281
330
278
100
AcDbEntity
  8
Defpoints
 62
     0
100
AcDbPoint
 10
151.7553374990234
 20
87.15667287423089
 30
0.0
  0
POINT
  5
282
330
278
100
AcDbEntity
  8
Defpoints
 62
     0
100
AcDbPoint
 10
168.7294354131984
 20
87.15667287423089
 30
0.0
  0
POINT
  5
283
330
278
100
AcDbEntity
  8
Defpoints
 62
     0
100
AcDbPoint
 10
168.7294354131984
 20
54.11627527390677
 30
0.0
  0
ENDBLK
  5
27A
330
278
100
AcDbEntity
  8
0
100
AcDbBlockEnd
  0
BLOCK
  5
285
330
284
100
AcDbEntity
  8
0
100
AcDbBlockBegin
  2
*D14
 70
     1
 10
0.0
 20
0.0
 30
0.0
  3
*D14
  1
*D15
  0
LINE
  5
287
330
284
100
AcDbEntity
  8
文字
 62
     0
370
    -2
100
AcDbLine
 10
80.9476758783702
 20
79.07090651289242
 30
0.0
 11
117.1122162741786
 21
79.07090651289242
 31
0.0
  0
LINE
  5
288
330
284
100
AcDbEntity
  8
文字
 62
     0
370
    -2
100
AcDbLine
 10
80.9476758783702
 20
86.07090651289242
 30
0.0
 11
117.1122162741786
 21
86.07090651289242
 31
0.0
  0
LINE
  5
289
330
284
100
AcDbEntity
  8
文字
 62
     0
370
    -2
100
AcDbLine
 10
115.8622162741786
 20
81.57090651289242
 30
0.0
 11
115.8622162741786
 21
83.57090651289242
 31
0.0
  0
SOLID
  5
28A
330
284
100
AcDbEntity
  8
文字
 62
     0
100
AcDbTrace
 10
115.4455496075119
 20
81.57090651289242
 30
0.0
 11
116.2788829408452
 21
81.57090651289242
 31
0.0
 12
115.8622162741786
 22
79.07090651289242
 32
0.0
 13
115.8622162741786
 23
79.07090651289242
 33
0.0
  0
SOLID
  5
28B
330
284
100
AcDbEntity
  8
文字
 62
     0
100
AcDbTrace
 10
116.2788829408452
 20
83.57090651289242
 30
0.0
 11
115.4455496075119
 21
83.57090651289242
 31
0.0
 12
115.8622162741786
 22
86.07090651289242
 32
0.0
 13
115.8622162741786
 23
86.07090651289242
 33
0.0
  0
MTEXT
  5
28C
330
284
100
AcDbEntity
  8
文字
 62
     0
100
AcDbMText
 10
113.9872162741786
 20
82.57090651289242
 30
0.0
 40
2.5
 41
0.0
 46
0.0
 71
     5
 72
     1
  1
7
 11
0.0
 21
1.0
 31
0.0
 73
     1
 44
1.0
  0
POINT
  5
28D
330
284
100
AcDbEntity
  8
Defpoints
 62
     0
100
AcDbPoint
 10
80.3226758783702
 20
79.07090651289242
 30
0.0
  0
POINT
  5
28E
330
284
100
AcDbEntity
  8
Defpoints
 62
     0
100
AcDbPoint
 10
80.3226758783702
 20
86.07090651289242
 30
0.0
  0
POINT
  5
28F
330
284
100
AcDbEntity
  8
Defpoints
 62
     0
100
AcDbPoint
 10
115.8622162741786
 20
86.07090651289242
 30
0.0
  0
ENDBLK
  5
286
330
284
100
AcDbEntity
  8
0
100
AcDbBlockEnd
  0
BLOCK
  5
291
330
290
100
AcDbEntity
  8
0
100
AcDbBlockBegin
  2
*D15
 70
     1
 10
0.0
 20
0.0
 30
0.0
  3
*D15
  1
*D16
  0
LINE
  5
293
330
290
100
AcDbEntity
  8
文字
 62
     0
370
    -2
100
AcDbLine
 10
65.5226758783702
 20
184.0709065128924
 30
0.0
 11
65.5226758783702
 21
200.3696307293155
 31
0.0
  0
LINE
  5
294
330
290
100
AcDbEntity
  8
文字
 62
     0
370
    -2
100
AcDbLine
 10
75.5226758783702
 20
184.0709065128924
 30
0.0
 11
75.5226758783702
 21
200.3696307293155
 31
0.0
  0
LINE
  5
295
330
290
100
AcDbEntity
  8
文字
 62
     0
370
    -2
100
AcDbLine
 10
68.0226758783702
 20
199.1196307293155
 30
0.0
 11
73.0226758783702
 21
199.1196307293155
 31
0.0
  0
SOLID
  5
296
330
290
100
AcDbEntity
  8
文字
 62
     0
100
AcDbTrace
 10
68.0226758783702
 20
199.5362973959822
 30
0.0
 11
68.0226758783702
 21
198.7029640626489
 31
0.0
 12
65.5226758783702
 22
199.1196307293155
 32
0.0
 13
65.5226758783702
 23
199.1196307293155
 33
0.0
  0
SOLID
  5
297
330
290
100
AcDbEntity
  8
文字
 62
     0
100
AcDbTrace
 10
73.0226758783702
 20
198.7029640626489
 30
0.0
 11
73.0226758783702
 21
199.5362973959822
 31
0.0
 12
75.5226758783702
 22
199.1196307293155
 32
0.0
 13
75.5226758783702
 23
199.1196307293155
 33
0.0
  0
MTEXT
  5
298
330
290
100
AcDbEntity
  8
文字
 62
     0
100
AcDbMText
 10
70.5226758783702
 20
201.0202105383196
 30
0.0
 40
2.5
 41
0.0
 46
0.0
 71
     5
 72
     1
  1
{\fArial|b0|i0|c0|p32;M10}
 73
     1
 44
1.0
  0
POINT
  5
299
330
290
100
AcDbEntity
  8
Defpoints
 62
     0
100
AcDbPoint
 10
65.5226758783702
 20
183.4459065128924
 30
0.0
  0
POINT
  5
29A
330
290
100
AcDbEntity
  8
Defpoints
 62
     0
100
AcDbPoint
 10
75.5226758783702
 20
183.4459065128924
 30
0.0
  0
POINT
  5
29B
330
290
100
AcDbEntity
  8
Defpoints
 62
     0
100
AcDbPoint
 10
75.5226758783702
 20
199.1196307293155
 30
0.0
  0
ENDBLK
  5
292
330
290
100
AcDbEntity
  8
0
100
AcDbBlockEnd
  0
BLOCK
  5
29D
330
29C
100
AcDbEntity
  8
0
100
AcDbBlockBegin
  2
*D16
 70
     1
 10
0.0
 20
0.0
 30
0.0
  3
*D16
  1
*D17
  0
LINE
  5
29F
330
29C
100
AcDbEntity
  8
文字
 62
     0
370
    -2
100
AcDbLine
 10
74.14767587837022
 20
186.0709065128924
 30
0.0
 11
117.1122162741786
 21
186.0709065128924
 31
0.0
  0
LINE
  5
2A0
330
29C
100
AcDbEntity
  8
文字
 62
     0
370
    -2
100
AcDbLine
 10
81.5726758783702
 20
86.07090651289242
 30
0.0
 11
117.1122162741786
 21
86.07090651289242
 31
0.0
  0
LINE
  5
2A1
330
29C
100
AcDbEntity
  8
文字
 62
     0
370
    -2
100
AcDbLine
 10
115.8622162741786
 20
183.5709065128924
 30
0.0
 11
115.8622162741786
 21
88.57090651289242
 31
0.0
  0
SOLID
  5
2A2
330
29C
100
AcDbEntity
  8
文字
 62
     0
100
AcDbTrace
 10
116.2788829408452
 20
183.5709065128924
 30
0.0
 11
115.4455496075119
 21
183.5709065128924
 31
0.0
 12
115.8622162741786
 22
186.0709065128924
 32
0.0
 13
115.8622162741786
 23
186.0709065128924
 33
0.0
  0
SOLID
  5
2A3
330
29C
100
AcDbEntity
  8
文字
 62
     0
100
AcDbTrace
 10
115.4455496075119
 20
88.57090651289242
 30
0.0
 11
116.2788829408452
 21
88.57090651289242
 31
0.0
 12
115.8622162741786
 22
86.07090651289242
 32
0.0
 13
115.8622162741786
 23
86.07090651289242
 33
0.0
  0
MTEXT
  5
2A4
330
29C
100
AcDbEntity
  8
文字
 62
     0
100
AcDbMText
 10
113.9616364651745
 20
136.0709065128924
 30
0.0
 40
2.5
 41
0.0
 46
0.0
 71
     5
 72
     1
  1
100
 11
0.0
 21
1.0
 31
0.0
 73
     1
 44
1.0
  0
POINT
  5
2A5
330
29C
100
AcDbEntity
  8
Defpoints
 62
     0
100
AcDbPoint
 10
73.52267587837022
 20
186.0709065128924
 30
0.0
  0
POINT
  5
2A6
330
29C
100
AcDbEntity
  8
Defpoints
 62
     0
100
AcDbPoint
 10
80.9476758783702
 20
86.07090651289242
 30
0.0
  0
POINT
  5
2A7
330
29C
100
AcDbEntity
  8
Defpoints
 62
     0
100
AcDbPoint
 10
115.8622162741786
 20
86.07090651289242
 30
0.0
  0
ENDBLK
  5
29E
330
29C
100
AcDbEntity
  8
0
100
AcDbBlockEnd
  0
BLOCK
  5
30C
330
30B
100
AcDbEntity
  8
0
100
AcDbBlockBegin
  2
*D18
 70
     1
 10
0.0
 20
0.0
 30
0.0
  3
*D18
  1
*D11
  0
LINE
  5
30D
330
30B
100
AcDbEntity
  8
文字
 62
     0
370
    -2
100
AcDbLine
 10
17.46532435625431
 20
39.49607524573747
 30
0.0
 11
1.84499999999997
 21
39.49607524573747
 31
0.0
  0
LINE
  5
30E
330
30B
100
AcDbEntity
  8
文字
 62
     0
370
    -2
100
AcDbLine
 10
17.46532435625431
 20
37.89607524573748
 30
0.0
 11
1.84499999999997
 21
37.89607524573748
 31
0.0
  0
LINE
  5
30F
330
30B
100
AcDbEntity
  8
文字
 62
     0
370
    -2
100
AcDbLine
 10
3.09499999999997
 20
35.39607524573748
 30
0.0
 11
3.09499999999997
 21
30.76107524573748
 31
0.0
  0
LINE
  5
310
330
30B
100
AcDbEntity
  8
文字
 62
     0
370
    -2
100
AcDbLine
 10
3.09499999999997
 20
39.49607524573747
 30
0.0
 11
3.09499999999997
 21
37.89607524573748
 31
0.0
  0
LINE
  5
311
330
30B
100
AcDbEntity
  8
文字
 62
     0
370
    -2
100
AcDbLine
 10
3.09499999999997
 20
41.99607524573747
 30
0.0
 11
3.09499999999997
 21
44.49607524573747
 31
0.0
  0
SOLID
  5
312
330
30B
100
AcDbEntity
  8
文字
 62
     0
100
AcDbTrace
 10
2.678333333333304
 20
41.99607524573747
 30
0.0
 11
3.511666666666637
 21
41.99607524573747
 31
0.0
 12
3.09499999999997
 22
39.49607524573747
 32
0.0
 13
3.09499999999997
 23
39.49607524573747
 33
0.0
  0
SOLID
  5
313
330
30B
100
AcDbEntity
  8
文字
 62
     0
100
AcDbTrace
 10
3.511666666666637
 20
35.39607524573748
 30
0.0
 11
2.678333333333304
 21
35.39607524573748
 31
0.0
 12
3.09499999999997
 22
37.89607524573748
 32
0.0
 13
3.09499999999997
 23
37.89607524573748
 33
0.0
  0
MTEXT
  5
314
330
30B
100
AcDbEntity
  8
文字
 62
     0
100
AcDbMText
 10
1.207499999999968
 20
31.82857524573748
 30
0.0
 40
2.5
 41
0.0
 46
0.0
 71
     5
 72
     1
  1
t
 11
0.0
 21
1.0
 31
0.0
 73
     1
 44
1.0
  0
POINT
  5
315
330
30B
100
AcDbEntity
  8
Defpoints
 62
     0
100
AcDbPoint
 10
18.09032435625431
 20
39.49607524573747
 30
0.0
  0
POINT
  5
316
330
30B
100
AcDbEntity
  8
Defpoints
 62
     0
100
AcDbPoint
 10
18.09032435625431
 20
37.89607524573748
 30
0.0
  0
POINT
  5
317
330
30B
100
AcDbEntity
  8
Defpoints
 62
     0
100
AcDbPoint
 10
3.09499999999997
 20
37.89607524573748
 30
0.0
  0
ENDBLK
  5
318
330
30B
100
AcDbEntity
  8
0
100
AcDbBlockEnd
  0
BLOCK
  5
31B
330
31A
100
AcDbEntity
  8
0
100
AcDbBlockBegin
  2
*D19
 70
     1
 10
0.0
 20
0.0
 30
0.0
  3
*D19
  1
*D14
  0
LINE
  5
31C
330
31A
100
AcDbEntity
  8
文字
 62
     0
370
    -2
100
AcDbLine
 10
18.09032435625431
 20
37.27107524573748
 30
0.0
 11
18.09032435625431
 21
17.19409102143149
 31
0.0
  0
LINE
  5
31D
330
31A
100
AcDbEntity
  8
文字
 62
     0
370
    -2
100
AcDbLine
 10
56.09032435625432
 20
37.27107524573739
 30
0.0
 11
56.09032435625432
 21
17.19409102143149
 31
0.0
  0
LINE
  5
31E
330
31A
100
AcDbEntity
  8
文字
 62
     0
370
    -2
100
AcDbLine
 10
20.59032435625431
 20
18.44409102143149
 30
0.0
 11
53.59032435625432
 21
18.44409102143149
 31
0.0
  0
SOLID
  5
31F
330
31A
100
AcDbEntity
  8
文字
 62
     0
100
AcDbTrace
 10
20.59032435625431
 20
18.86075768809816
 30
0.0
 11
20.59032435625431
 21
18.02742435476482
 31
0.0
 12
18.09032435625431
 22
18.44409102143149
 32
0.0
 13
18.09032435625431
 23
18.44409102143149
 33
0.0
  0
SOLID
  5
320
330
31A
100
AcDbEntity
  8
文字
 62
     0
100
AcDbTrace
 10
53.59032435625432
 20
18.02742435476482
 30
0.0
 11
53.59032435625432
 21
18.86075768809816
 31
0.0
 12
56.09032435625432
 22
18.44409102143149
 32
0.0
 13
56.09032435625432
 23
18.44409102143149
 33
0.0
  0
MTEXT
  5
321
330
31A
100
AcDbEntity
  8
文字
 62
     0
100
AcDbMText
 10
37.09032435625431
 20
20.39034102143149
 30
0.0
 40
2.5
 41
0.0
 46
0.0
 71
     5
 72
     1
  1
%%c38
 73
     1
 44
1.0
  0
POINT
  5
322
330
31A
100
AcDbEntity
  8
Defpoints
 62
     0
100
AcDbPoint
 10
18.09032435625431
 20
37.89607524573748
 30
0.0
  0
POINT
  5
323
330
31A
100
AcDbEntity
  8
Defpoints
 62
     0
100
AcDbPoint
 10
56.09032435625432
 20
37.89607524573739
 30
0.0
  0
POINT
  5
324
330
31A
100
AcDbEntity
  8
Defpoints
 62
     0
100
AcDbPoint
 10
56.09032435625432
 20
18.44409102143149
 30
0.0
  0
ENDBLK
  5
325
330
31A
100
AcDbEntity
  8
0
100
AcDbBlockEnd
  0
BLOCK
  5
32A
330
329
100
AcDbEntity
  8
0
100
AcDbBlockBegin
  2
*D20
 70
     1
 10
0.0
 20
0.0
 30
0.0
  3
*D20
  1
*D15
  0
LINE
  5
32B
330
329
100
AcDbEntity
  8
文字
 62
     0
370
    -2
100
AcDbLine
 10
56.71532435625432
 20
37.89607524573739
 30
0.0
 11
71.94703363511206
 21
37.89607524573739
 31
0.0
  0
LINE
  5
32C
330
329
100
AcDbEntity
  8
文字
 62
     0
370
    -2
100
AcDbLine
 10
42.73155524863117
 20
50.47954131276919
 30
0.0
 11
71.94703363511206
 21
50.47954131276919
 31
0.0
  0
LINE
  5
32D
330
329
100
AcDbEntity
  8
文字
 62
     0
370
    -2
100
AcDbLine
 10
70.69703363511206
 20
40.39607524573739
 30
0.0
 11
70.69703363511206
 21
47.97954131276919
 31
0.0
  0
SOLID
  5
32E
330
329
100
AcDbEntity
  8
文字
 62
     0
100
AcDbTrace
 10
70.28036696844539
 20
40.39607524573739
 30
0.0
 11
71.11370030177874
 21
40.39607524573739
 31
0.0
 12
70.69703363511206
 22
37.89607524573739
 32
0.0
 13
70.69703363511206
 23
37.89607524573739
 33
0.0
  0
SOLID
  5
32F
330
329
100
AcDbEntity
  8
文字
 62
     0
100
AcDbTrace
 10
71.11370030177874
 20
47.97954131276919
 30
0.0
 11
70.28036696844539
 21
47.97954131276919
 31
0.0
 12
70.69703363511206
 22
50.47954131276919
 32
0.0
 13
70.69703363511206
 23
50.47954131276919
 33
0.0
  0
MTEXT
  5
330
330
329
100
AcDbEntity
  8
文字
 62
     0
100
AcDbMText
 10
68.79578363511206
 20
44.18780827925329
 30
0.0
 40
2.5
 41
0.0
 46
0.0
 71
     5
 72
     1
  1
13
 11
0.0
 21
1.0
 31
0.0
 73
     1
 44
1.0
  0
POINT
  5
331
330
329
100
AcDbEntity
  8
Defpoints
 62
     0
100
AcDbPoint
 10
56.09032435625432
 20
37.89607524573739
 30
0.0
  0
POINT
  5
332
330
329
100
AcDbEntity
  8
Defpoints
 62
     0
100
AcDbPoint
 10
42.10655524863117
 20
50.47954131276919
 30
0.0
  0
POINT
  5
333
330
329
100
AcDbEntity
  8
Defpoints
 62
     0
100
AcDbPoint
 10
70.69703363511206
 20
50.47954131276919
 30
0.0
  0
ENDBLK
  5
334
330
329
100
AcDbEntity
  8
0
100
AcDbBlockEnd
  0
BLOCK
  5
34E
330
34D
100
AcDbEntity
  8
0
100
AcDbBlockBegin
  2
*D21
 70
     1
 10
0.0
 20
0.0
 30
0.0
  3
*D21
  1
*D21
  0
LINE
  5
350
330
34D
100
AcDbEntity
  8
文字
 62
     0
370
    -2
100
AcDbLine
 10
50.84674982458358
 20
68.1092016455494
 30
0.0
 11
35.22642546832924
 21
68.1092016455494
 31
0.0
  0
LINE
  5
351
330
34D
100
AcDbEntity
  8
文字
 62
     0
370
    -2
100
AcDbLine
 10
50.84674982458358
 20
66.50920164554941
 30
0.0
 11
35.22642546832924
 21
66.50920164554941
 31
0.0
  0
LINE
  5
352
330
34D
100
AcDbEntity
  8
文字
 62
     0
370
    -2
100
AcDbLine
 10
36.47642546832924
 20
64.00920164554941
 30
0.0
 11
36.47642546832924
 21
59.37420164554941
 31
0.0
  0
LINE
  5
353
330
34D
100
AcDbEntity
  8
文字
 62
     0
370
    -2
100
AcDbLine
 10
36.47642546832924
 20
68.1092016455494
 30
0.0
 11
36.47642546832924
 21
66.50920164554941
 31
0.0
  0
LINE
  5
354
330
34D
100
AcDbEntity
  8
文字
 62
     0
370
    -2
100
AcDbLine
 10
36.47642546832924
 20
70.6092016455494
 30
0.0
 11
36.47642546832924
 21
73.1092016455494
 31
0.0
  0
SOLID
  5
355
330
34D
100
AcDbEntity
  8
文字
 62
     0
100
AcDbTrace
 10
36.05975880166257
 20
70.6092016455494
 30
0.0
 11
36.8930921349959
 21
70.6092016455494
 31
0.0
 12
36.47642546832924
 22
68.1092016455494
 32
0.0
 13
36.47642546832924
 23
68.1092016455494
 33
0.0
  0
SOLID
  5
356
330
34D
100
AcDbEntity
  8
文字
 62
     0
100
AcDbTrace
 10
36.8930921349959
 20
64.00920164554941
 30
0.0
 11
36.05975880166257
 21
64.00920164554941
 31
0.0
 12
36.47642546832924
 22
66.50920164554941
 32
0.0
 13
36.47642546832924
 23
66.50920164554941
 33
0.0
  0
MTEXT
  5
357
330
34D
100
AcDbEntity
  8
文字
 62
     0
100
AcDbMText
 10
34.58892546832924
 20
60.44170164554941
 30
0.0
 40
2.5
 41
0.0
 46
0.0
 71
     5
 72
     1
  1
t
 11
0.0
 21
1.0
 31
0.0
 73
     1
 44
1.0
  0
POINT
  5
358
330
34D
100
AcDbEntity
  8
Defpoints
 62
     0
100
AcDbPoint
 10
51.47174982458358
 20
68.1092016455494
 30
0.0
  0
POINT
  5
359
330
34D
100
AcDbEntity
  8
Defpoints
 62
     0
100
AcDbPoint
 10
51.47174982458358
 20
66.50920164554941
 30
0.0
  0
POINT
  5
35A
330
34D
100
AcDbEntity
  8
Defpoints
 62
     0
100
AcDbPoint
 10
36.47642546832924
 20
66.50920164554941
 30
0.0
  0
ENDBLK
  5
34F
330
34D
100
AcDbEntity
  8
0
100
AcDbBlockEnd
  0
BLOCK
  5
35C
330
35B
100
AcDbEntity
  8
0
100
AcDbBlockBegin
  2
*D22
 70
     1
 10
0.0
 20
0.0
 30
0.0
  3
*D22
  1
*D22
  0
LINE
  5
35E
330
35B
100
AcDbEntity
  8
文字
 62
     0
370
    -2
100
AcDbLine
 10
51.47174982458358
 20
65.88420164554941
 30
0.0
 11
51.47174982458358
 21
45.80721742124342
 31
0.0
  0
LINE
  5
35F
330
35B
100
AcDbEntity
  8
文字
 62
     0
370
    -2
100
AcDbLine
 10
89.47174982458358
 20
65.88420164554933
 30
0.0
 11
89.47174982458358
 21
45.80721742124342
 31
0.0
  0
LINE
  5
360
330
35B
100
AcDbEntity
  8
文字
 62
     0
370
    -2
100
AcDbLine
 10
53.97174982458358
 20
47.05721742124342
 30
0.0
 11
86.97174982458358
 21
47.05721742124342
 31
0.0
  0
SOLID
  5
361
330
35B
100
AcDbEntity
  8
文字
 62
     0
100
AcDbTrace
 10
53.97174982458358
 20
47.47388408791009
 30
0.0
 11
53.97174982458358
 21
46.64055075457676
 31
0.0
 12
51.47174982458358
 22
47.05721742124342
 32
0.0
 13
51.47174982458358
 23
47.05721742124342
 33
0.0
  0
SOLID
  5
362
330
35B
100
AcDbEntity
  8
文字
 62
     0
100
AcDbTrace
 10
86.97174982458358
 20
46.64055075457676
 30
0.0
 11
86.97174982458358
 21
47.47388408791009
 31
0.0
 12
89.47174982458358
 22
47.05721742124342
 32
0.0
 13
89.47174982458358
 23
47.05721742124342
 33
0.0
  0
MTEXT
  5
363
330
35B
100
AcDbEntity
  8
文字
 62
     0
100
AcDbMText
 10
70.47174982458358
 20
49.00346742124342
 30
0.0
 40
2.5
 41
0.0
 46
0.0
 71
     5
 72
     1
  1
%%c38
 73
     1
 44
1.0
  0
POINT
  5
364
330
35B
100
AcDbEntity
  8
Defpoints
 62
     0
100
AcDbPoint
 10
51.47174982458358
 20
66.50920164554941
 30
0.0
  0
POINT
  5
365
330
35B
100
AcDbEntity
  8
Defpoints
 62
     0
100
AcDbPoint
 10
89.47174982458358
 20
66.50920164554933
 30
0.0
  0
POINT
  5
366
330
35B
100
AcDbEntity
  8
Defpoints
 62
     0
100
AcDbPoint
 10
89.47174982458358
 20
47.05721742124342
 30
0.0
  0
ENDBLK
  5
35D
330
35B
100
AcDbEntity
  8
0
100
AcDbBlockEnd
  0
BLOCK
  5
368
330
367
100
AcDbEntity
  8
0
100
AcDbBlockBegin
  2
*D23
 70
     1
 10
0.0
 20
0.0
 30
0.0
  3
*D23
  1
*D23
  0
LINE
  5
36A
330
367
100
AcDbEntity
  8
文字
 62
     0
370
    -2
100
AcDbLine
 10
90.09674982458358
 20
66.50920164554933
 30
0.0
 11
117.1414090338726
 21
66.50920164554933
 31
0.0
  0
LINE
  5
36B
330
367
100
AcDbEntity
  8
文字
 62
     0
370
    -2
100
AcDbLine
 10
76.11298071696044
 20
79.09266771258112
 30
0.0
 11
117.1414090338726
 21
79.09266771258112
 31
0.0
  0
LINE
  5
36C
330
367
100
AcDbEntity
  8
文字
 62
     0
370
    -2
100
AcDbLine
 10
115.8914090338726
 20
69.00920164554933
 30
0.0
 11
115.8914090338726
 21
76.59266771258112
 31
0.0
  0
SOLID
  5
36D
330
367
100
AcDbEntity
  8
文字
 62
     0
100
AcDbTrace
 10
115.474742367206
 20
69.00920164554933
 30
0.0
 11
116.3080757005393
 21
69.00920164554933
 31
0.0
 12
115.8914090338726
 22
66.50920164554933
 32
0.0
 13
115.8914090338726
 23
66.50920164554933
 33
0.0
  0
SOLID
  5
36E
330
367
100
AcDbEntity
  8
文字
 62
     0
100
AcDbTrace
 10
116.3080757005393
 20
76.59266771258112
 30
0.0
 11
115.474742367206
 21
76.59266771258112
 31
0.0
 12
115.8914090338726
 22
79.09266771258112
 32
0.0
 13
115.8914090338726
 23
79.09266771258112
 33
0.0
  0
MTEXT
  5
36F
330
367
100
AcDbEntity
  8
文字
 62
     0
100
AcDbMText
 10
113.9901590338726
 20
73.2597841736934
 30
0.0
 40
2.5
 41
0.0
 46
0.0
 71
     5
 72
     1
  1
13
 11
0.0
 21
1.0
 31
0.0
 73
     1
 44
1.0
  0
POINT
  5
370
330
367
100
AcDbEntity
  8
Defpoints
 62
     0
100
AcDbPoint
 10
89.47174982458358
 20
66.50920164554933
 30
0.0
  0
POINT
  5
371
330
367
100
AcDbEntity
  8
Defpoints
 62
     0
100
AcDbPoint
 10
75.48798071696044
 20
79.09266771258112
 30
0.0
  0
POINT
  5
372
330
367
100
AcDbEntity
  8
Defpoints
 62
     0
100
AcDbPoint
 10
115.8914090338726
 20
79.09266771258112
 30
0.0
  0
ENDBLK
  5
369
330
367
100
AcDbEntity
  8
0
100
AcDbBlockEnd
  0
ENDSEC
  0
SECTION
  2
ENTITIES
  0
LINE
  5
1FE
330
1F
100
AcDbEntity
  8
中心線
 48
0.5
100
AcDbLine
 10
70.52267587837022
 20
55.57067261171814
 30
0.0
 11
70.5226758783702
 21
192.1735617057666
 31
0.0
  0
CIRCLE
  5
205
102
{ACAD_REACTORS
330
210
102
}
330
1F
100
AcDbEntity
  8
実線
370
    50
100
AcDbCircle
 10
160.2423864561109
 20
87.15667287423089
 30
0.0
 40
14.0
  0
CIRCLE
  5
206
330
1F
100
AcDbEntity
  8
実線
370
    50
100
AcDbCircle
 10
160.2423864561109
 20
87.15667287423089
 30
0.0
 40
19.0
  0
LINE
  5
209
330
1F
100
AcDbEntity
  8
中心線
 48
0.5
100
AcDbLine
 10
129.8276258518134
 20
87.15667287423089
 30
0.0
 11
188.5134460800296
 21
87.15667287423089
 31
0.0
  0
DIMENSION
  5
20E
102
{ACAD_REACTORS
330
210
102
}
102
{ACAD_XDICTIONARY
360
20F
102
}
330
1F
100
AcDbEntity
  8
文字
100
AcDbDimension
280
     0
  2
*D10
 10
174.2423864561109
 20
47.31089205801767
 30
0.0
 11
160.2423864561109
 21
49.25714205801767
 31
0.0
 70
    32
  1
%%c<>
 71
     5
 42
28.0
 73
     0
 74
     0
 75
     0
  3
ISO-25
100
AcDbAlignedDimension
 13
146.2423864561109
 23
87.15667287423089
 33
0.0
 14
174.2423864561109
 24
87.15667287423089
 34
0.0
100
AcDbRotatedDimension
  0
LWPOLYLINE
  5
211
102
{ACAD_REACTORS
330
225
102
}
330
1F
100
AcDbEntity
  8
実線
370
    50
100
AcDbPolyline
 90
        4
 70
     0
 43
0.0
 10
80.3226758783702
 20
80.73628893094609
 10
80.3226758783702
 20
86.07090651289242
 10
60.72267587837022
 20
86.07090651289242
 10
60.72267587837022
 20
80.73628893094612
  0
LINE
  5
212
330
1F
100
AcDbEntity
  8
実線
370
    50
100
AcDbLine
 10
65.85811186869049
 20
86.07090651289242
 30
0.0
 11
65.85811186869049
 21
80.73628893094613
 31
0.0
  0
LINE
  5
213
330
1F
100
AcDbEntity
  8
実線
370
    50
100
AcDbLine
 10
75.31277662453996
 20
86.07090651289242
 30
0.0
 11
75.31277662453996
 21
80.73628893094607
 31
0.0
  0
LWPOLYLINE
  5
214
102
{ACAD_REACTORS
330
222
102
}
330
1F
100
AcDbEntity
  8
実線
370
    50
100
AcDbPolyline
 90
        6
 70
     1
 43
0.0
 10
151.7553374990234
 20
82.25667287423089
 10
160.2423864561109
 20
77.35667287423088
 10
168.7294354131984
 20
82.25667287423089
 10
168.7294354131985
 20
92.0566728742309
 10
160.242386456111
 20
96.95667287423088
 10
151.7553374990234
 20
92.0566728742309
  0
LINE
  5
215
102
{ACAD_REACTORS
102
}
330
1F
100
AcDbEntity
  8
実線
370
    50
100
AcDbLine
 10
77.83548422451474
 20
79.07090651289242
 30
0.0
 11
63.24027704826681
 21
79.07090651289242
 31
0.0
  0
ARC
  5
216
330
1F
100
AcDbEntity
  8
実線
370
    50
100
AcDbCircle
 10
63.29039387353034
 20
81.88232162792671
 30
0.0
 40
2.811861775624425
100
AcDbArc
 50
204.0523260738349
 51
335.9476739261654
  0
ARC
  5
217
330
1F
100
AcDbEntity
  8
実線
370
    50
100
AcDbCircle
 10
70.58544440159972
 20
86.61188580528149
 30
0.0
 40
7.541240519685672
100
AcDbArc
 50
231.180866270598
 51
308.8191315053855
  0
ARC
  5
218
330
1F
100
AcDbEntity
  8
実線
370
    50
100
AcDbCircle
 10
77.8177259962163
 20
81.78738684128668
 30
0.0
 40
2.716538372492689
100
AcDbArc
 50
202.7633354902944
 51
337.2366715329314
  0
CIRCLE
  5
21F
330
1F
100
AcDbEntity
  8
実線
370
    50
100
AcDbCircle
 10
160.2423864561109
 20
87.15667287423089
 30
0.0
 40
5.0
  0
DIMENSION
  5
220
102
{ACAD_REACTORS
330
222
102
}
102
{ACAD_XDICTIONARY
360
221
102
}
330
1F
100
AcDbEntity
  8
文字
100
AcDbDimension
280
     0
  2
*D13
 10
168.7294354131984
 20
54.11627527390677
 30
0.0
 11
160.2423864561109
 21
54.11627527390677
 31
0.0
 70
   160
  1
17
 71
     5
 42
16.97409791417499
 73
     0
 74
     0
 75
     0
  3
ISO-25
100
AcDbAlignedDimension
 13
151.7553374990234
 23
87.15667287423089
 33
0.0
 14
168.7294354131984
 24
87.15667287423089
 34
0.0
100
AcDbRotatedDimension
  0
DIMENSION
  5
223
102
{ACAD_REACTORS
330
225
102
}
102
{ACAD_XDICTIONARY
360
224
102
}
330
1F
100
AcDbEntity
  8
文字
100
AcDbDimension
280
     0
  2
*D14
 10
115.8622162741786
 20
86.07090651289242
 30
0.0
 11
113.9872162741786
 21
82.57090651289242
 31
0.0
 70
    32
  1
7
 71
     5
 42
7.0
 73
     0
 74
     0
 75
     0
  3
ISO-25
100
AcDbAlignedDimension
 13
80.3226758783702
 23
79.07090651289242
 33
0.0
 14
80.3226758783702
 24
86.07090651289242
 34
0.0
 50
90.0
100
AcDbRotatedDimension
  0
DIMENSION
  5
23A
330
1F
100
AcDbEntity
  8
文字
100
AcDbDimension
280
     0
  2
*D15
 10
75.5226758783702
 20
199.1196307293155
 30
0.0
 11
70.5226758783702
 21
201.0202105383196
 31
0.0
 70
    32
  1
{\fArial|b0|i0|c0|p32;M10}
 71
     5
 42
10.0
 73
     0
 74
     0
 75
     0
  3
ISO-25
100
AcDbAlignedDimension
 13
65.5226758783702
 23
183.4459065128924
 33
0.0
 14
75.5226758783702
 24
183.4459065128924
 34
0.0
100
AcDbRotatedDimension
  0
LINE
  5
23C
330
1F
100
AcDbEntity
  8
中心線
 48
0.5
100
AcDbLine
 10
160.2423864561109
 20
114.1137864835476
 30
0.0
 11
160.2423864561109
 21
60.29604177903678
 31
0.0
  0
CIRCLE
  5
23D
330
1F
100
AcDbEntity
  8
実線
370
    20
100
AcDbCircle
 10
160.2423864561109
 20
87.15667287423089
 30
0.0
 40
3.0
  0
LWPOLYLINE
  5
23F
330
1F
100
AcDbEntity
  8
実線
100
AcDbPolyline
 90
        6
 70
     1
 43
0.0
 10
65.52267587837022
 20
86.07090651289242
 10
75.52267587837022
 20
86.07090651289242
 10
75.52267587837022
 20
184.0709065128924
 10
73.52267587837022
 20
186.0709065128924
 10
67.5226758783702
 20
186.0709065128924
 10
65.5226758783702
 20
184.0709065128924
  0
LINE
  5
240
330
1F
100
AcDbEntity
  8
実線
370
    20
100
AcDbLine
 10
65.5226758783702
 20
184.0709065128924
 30
0.0
 11
75.52267587837022
 21
184.0709065128924
 31
0.0
  0
LINE
  5
241
330
1F
100
AcDbEntity
  8
実線
370
    20
100
AcDbLine
 10
67.5226758783702
 20
186.0709065128924
 30
0.0
 11
67.5226758783702
 21
86.07090651289242
 31
0.0
  0
LINE
  5
242
102
{ACAD_REACTORS
330
245
102
}
330
1F
100
AcDbEntity
  8
実線
370
    20
100
AcDbLine
 10
73.52267587837022
 20
186.0709065128924
 30
0.0
 11
73.5226758783702
 21
86.07090651289242
 31
0.0
  0
DIMENSION
  5
243
102
{ACAD_REACTORS
330
245
102
}
102
{ACAD_XDICTIONARY
360
244
102
}
330
1F
100
AcDbEntity
  8
文字
100
AcDbDimension
280
     0
  2
*D16
 10
115.8622162741786
 20
86.07090651289242
 30
0.0
 11
113.9616364651745
 21
136.0709065128924
 31
0.0
 70
    32
 71
     5
 42
100.0
 73
     0
 74
     0
 75
     0
  3
ISO-25
100
AcDbAlignedDimension
 13
73.52267587837022
 23
186.0709065128924
 33
0.0
 14
80.9476758783702
 24
86.07090651289242
 34
0.0
 50
90.0
100
AcDbRotatedDimension
  0
MTEXT
  5
2D1
330
1F
100
AcDbEntity
  8
文字・寸法線
 62
     0
100
AcDbMText
 10
73.02475141240267
 20
216.4530067243306
 30
0.0
 40
6.0
 41
0.0
 46
6.0
 71
     9
 72
     1
  1
{\fＭＳ ゴシック|b0|i0|c0|p0;S-M M10X100}
 73
     1
 44
1.0
1001
ACAD
1000
ACAD_MTEXT_DEFINED_HEIGHT_BEGIN
1070
    46
1040
6.0
1000
ACAD_MTEXT_DEFINED_HEIGHT_END
  0
LINE
  5
339
330
1F
100
AcDbEntity
  8
実線
370
    50
100
AcDbLine
 10
89.47174982458358
 20
66.50920164554933
 30
0.0
 11
51.47174982458358
 21
66.50920164554941
 31
0.0
  0
LINE
  5
33A
102
{ACAD_REACTORS
330
347
102
}
330
1F
100
AcDbEntity
  8
実線
370
    50
100
AcDbLine
 10
51.47174982458358
 20
66.50920164554941
 30
0.0
 11
51.47174982458358
 21
68.1092016455494
 31
0.0
  0
LINE
  5
33B
102
{ACAD_REACTORS
330
34B
102
}
330
1F
100
AcDbEntity
  8
実線
370
    50
100
AcDbLine
 10
89.47174982458358
 20
68.1092016455494
 30
0.0
 11
89.47174982458358
 21
66.50920164554933
 31
0.0
  0
LINE
  5
33D
102
{ACAD_REACTORS
330
347
102
}
330
1F
100
AcDbEntity
  8
実線
370
    50
100
AcDbLine
 10
51.47174982458358
 20
68.1092016455494
 30
0.0
 11
54.98513494515007
 21
68.1092016455494
 31
0.0
  0
LINE
  5
33E
330
1F
100
AcDbEntity
  8
実線
370
    50
100
AcDbLine
 10
54.98513494515007
 20
68.1092016455494
 30
0.0
 11
54.86405941248225
 21
68.1092016455494
 31
0.0
  0
ARC
  5
33F
102
{ACAD_REACTORS
330
34B
102
}
330
1F
100
AcDbEntity
  8
実線
370
    50
100
AcDbCircle
 10
70.4717498245836
 20
65.82390752790232
 30
0.0
 40
14.18529411764706
100
AcDbArc
 50
15.35297015069431
 51
69.29099155289796
  0
ARC
  5
340
330
1F
100
AcDbEntity
  8
実線
370
    50
100
AcDbCircle
 10
54.86405941248226
 20
70.1092016455494
 30
0.0
 40
2.0
100
AcDbArc
 50
270.0
 51
344.6470298493055
  0
LINE
  5
341
330
1F
100
AcDbEntity
  8
実線
370
    50
100
AcDbLine
 10
86.07944023668492
 20
68.1092016455494
 30
0.0
 11
89.47174982458358
 21
68.1092016455494
 31
0.0
  0
ARC
  5
342
330
1F
100
AcDbEntity
  8
実線
370
    50
100
AcDbCircle
 10
86.07944023668495
 20
70.1092016455494
 30
0.0
 40
2.0
100
AcDbArc
 50
195.3529701506937
 51
270.0
  0
LINE
  5
343
330
1F
100
AcDbEntity
  8
実線
370
    50
100
AcDbLine
 10
54.98513494515007
 20
68.1092016455494
 30
0.0
 11
86.07944023668492
 21
68.1092016455494
 31
0.0
  0
ARC
  5
344
330
1F
100
AcDbEntity
  8
実線
370
    50
100
AcDbCircle
 10
70.4717498245836
 20
65.82390752790232
 30
0.0
 40
14.18529411764706
100
AcDbArc
 50
110.7090084471021
 51
164.6470298493057
  0
DIMENSION
  5
345
102
{ACAD_REACTORS
330
347
102
}
102
{ACAD_XDICTIONARY
360
346
102
}
330
1F
100
AcDbEntity
  8
文字
100
AcDbDimension
280
     0
  2
*D21
 10
36.47642546832924
 20
66.50920164554941
 30
0.0
 11
34.58892546832924
 21
60.44170164554941
 31
0.0
 70
    32
  1
t
 71
     5
 42
1.599999999999994
 73
     0
 74
     0
 75
     0
  3
ISO-25
100
AcDbAlignedDimension
 13
51.47174982458358
 23
68.1092016455494
 33
0.0
 14
51.47174982458358
 24
66.50920164554941
 34
0.0
 50
90.0
100
AcDbRotatedDimension
  0
DIMENSION
  5
348
330
1F
100
AcDbEntity
  8
文字
100
AcDbDimension
280
     0
  2
*D22
 10
89.47174982458358
 20
47.05721742124342
 30
0.0
 11
70.47174982458358
 21
49.00346742124342
 31
0.0
 70
    32
  1
%%c<>
 71
     5
 42
38.00000000000001
 73
     0
 74
     0
 75
     0
  3
ISO-25
100
AcDbAlignedDimension
 13
51.47174982458358
 23
66.50920164554941
 33
0.0
 14
89.47174982458358
 24
66.50920164554933
 34
0.0
100
AcDbRotatedDimension
  0
DIMENSION
  5
349
102
{ACAD_REACTORS
330
34B
102
}
102
{ACAD_XDICTIONARY
360
34A
102
}
330
1F
100
AcDbEntity
  8
文字
100
AcDbDimension
280
     0
  2
*D23
 10
115.8914090338726
 20
79.09266771258112
 30
0.0
 11
115.8914090338726
 21
73.2597841736934
 31
0.0
 70
   160
  1
13
 71
     5
 42
12.58346606703179
 73
     0
 74
     0
 75
     0
  3
ISO-25
100
AcDbAlignedDimension
 13
89.47174982458358
 23
66.50920164554933
 33
0.0
 14
75.48798071696044
 24
79.09266771258112
 34
0.0
 50
90.0
100
AcDbRotatedDimension
  0
MTEXT
  5
34C
330
1F
100
AcDbEntity
  8
文字・寸法線
 62
     0
100
AcDbMText
 10
59.01709636038964
 20
28.61312639981193
 30
0.0
 40
4.0
 41
0.0
 46
10.66666666666667
 71
     9
 72
     1
  1
{\fＭＳ ゴシック|b0|i0|c0|p0;SUS t=1.5\PSS t=1.6}
 73
     1
 44
1.0
1001
ACAD
1000
ACAD_MTEXT_DEFINED_HEIGHT_BEGIN
1070
    46
1040
10.66666666666667
1000
ACAD_MTEXT_DEFINED_HEIGHT_END
  0
ENDSEC
  0
SECTION
  2
OBJECTS
  0
DICTIONARY
  5
C
330
0
100
AcDbDictionary
281
     1
  3
ACAD_COLOR
350
73
  3
ACAD_DETAILVIEWSTYLE
350
122
  3
ACAD_GROUP
350
D
  3
ACAD_IMAGE_VARS
350
DC
  3
ACAD_LAYOUT
350
1A
  3
ACAD_MATERIAL
350
72
  3
ACAD_MLEADERSTYLE
350
B5
  3
ACAD_MLINESTYLE
350
17
  3
ACAD_PLOTSETTINGS
350
19
  3
ACAD_PLOTSTYLENAME
350
E
  3
ACAD_SCALELIST
350
B6
  3
ACAD_SECTIONVIEWSTYLE
350
123
  3
ACAD_TABLESTYLE
350
86
  3
ACAD_VISUALSTYLE
350
99
  3
ACDB_RECOMPOSE_DATA
350
375
  3
AcDbVariableDictionary
350
66
  3
APPDATA
350
E1
  0
SUN
  5
ED
330
94
100
AcDbSun
 90
        1
290
     0
 63
     7
421
 16777215
 40
1.0
291
     1
 91
  2455826
 92
 54000000
292
     0
 70
     2
 71
   256
280
     1
  0
DICTIONARY
  5
20F
330
20E
100
AcDbDictionary
280
     1
281
     1
  3
ACAD_DIMASSOC
360
210
  0
DICTIONARY
  5
221
330
220
100
AcDbDictionary
280
     1
281
     1
  3
ACAD_DIMASSOC
360
222
  0
DICTIONARY
  5
224
330
223
100
AcDbDictionary
280
     1
281
     1
  3
ACAD_DIMASSOC
360
225
  0
DICTIONARY
  5
244
330
243
100
AcDbDictionary
280
     1
281
     1
  3
ACAD_DIMASSOC
360
245
  0
DICTIONARY
  5
346
330
345
100
AcDbDictionary
280
     1
281
     1
  3
ACAD_DIMASSOC
360
347
  0
DICTIONARY
  5
34A
330
349
100
AcDbDictionary
280
     1
281
     1
  3
ACAD_DIMASSOC
360
34B
  0
DICTIONARY
  5
73
102
{ACAD_REACTORS
330
C
102
}
330
C
100
AcDbDictionary
281
     1
  0
DICTIONARY
  5
122
102
{ACAD_REACTORS
330
C
102
}
330
C
100
AcDbDictionary
281
     1
  0
DICTIONARY
  5
D
102
{ACAD_REACTORS
330
C
102
}
330
C
100
AcDbDictionary
281
     1
  0
RASTERVARIABLES
  5
DC
102
{ACAD_REACTORS
330
C
102
}
330
C
100
AcDbRasterVariables
 90
        0
 70
     1
 71
     1
 72
     5
  0
DICTIONARY
  5
1A
102
{ACAD_REACTORS
330
C
102
}
330
C
100
AcDbDictionary
281
     1
  3
Model
350
22
  3
Sheet1
350
59
  3
Sheet2
350
5E
  0
DICTIONARY
  5
72
102
{ACAD_REACTORS
330
C
102
}
330
C
100
AcDbDictionary
281
     1
  3
ByBlock
350
E2
  3
ByLayer
350
96
  3
Global
350
98
  0
DICTIONARY
  5
B5
102
{ACAD_REACTORS
330
C
102
}
330
C
100
AcDbDictionary
281
     1
  0
DICTIONARY
  5
17
102
{ACAD_REACTORS
330
C
102
}
330
C
100
AcDbDictionary
281
     1
  3
Standard
350
18
  0
DICTIONARY
  5
19
102
{ACAD_REACTORS
330
C
102
}
330
C
100
AcDbDictionary
281
     1
  0
ACDBDICTIONARYWDFLT
  5
E
102
{ACAD_REACTORS
330
C
102
}
330
C
100
AcDbDictionary
281
     1
  3
Normal
350
F
100
AcDbDictionaryWithDefault
340
F
  0
DICTIONARY
  5
B6
102
{ACAD_REACTORS
330
C
102
}
330
C
100
AcDbDictionary
281
     1
  3
A0
350
B7
  3
A1
350
B8
  3
A2
350
B9
  3
A3
350
BA
  3
A4
350
BB
  3
A5
350
BC
  3
A6
350
BD
  3
A7
350
BE
  3
A8
350
BF
  3
A9
350
C0
  3
B0
350
C1
  3
B1
350
C2
  3
B2
350
C3
  3
B3
350
C4
  3
B4
350
C5
  3
B5
350
C6
  3
B6
350
C7
  3
B7
350
C8
  3
B8
350
C9
  3
B9
350
CA
  3
C0
350
CB
  3
C1
350
CC
  3
C2
350
CD
  3
C3
350
CE
  3
C4
350
CF
  3
C5
350
D0
  3
C6
350
D1
  3
C7
350
D2
  3
C8
350
D3
  3
C9
350
D4
  3
D0
350
D5
  3
D1
350
D6
  3
D2
350
D7
  0
DICTIONARY
  5
123
102
{ACAD_REACTORS
330
C
102
}
330
C
100
AcDbDictionary
281
     1
  0
DICTIONARY
  5
86
102
{ACAD_REACTORS
330
C
102
}
330
C
100
AcDbDictionary
281
     1
  3
Standard
350
87
  0
DICTIONARY
  5
99
102
{ACAD_REACTORS
330
C
102
}
330
C
100
AcDbDictionary
281
     1
  3
2dWireframe
350
9F
  3
3D Hidden
350
A1
  3
3dWireframe
350
A0
  3
Basic
350
9E
  3
Brighten
350
A5
  3
ColorChange
350
A9
  3
Conceptual
350
A2
  3
Dim
350
A4
  3
EdgeColorOff
350
E7
  3
Facepattern
350
A8
  3
Flat
350
9A
  3
FlatWithEdges
350
9B
  3
Gouraud
350
9C
  3
GouraudWithEdges
350
9D
  3
Hidden
350
E4
  3
JitterOff
350
E5
  3
Linepattern
350
A7
  3
OverhangOff
350
E6
  3
Realistic
350
A3
  3
Shaded
350
EC
  3
Shaded with edges
350
EB
  3
Shades of Gray
350
E8
  3
Sketchy
350
E9
  3
Thicken
350
A6
  3
Wireframe
350
E3
  3
X-Ray
350
EA
  0
XRECORD
  5
375
102
{ACAD_REACTORS
330
C
102
}
330
C
100
AcDbXrecord
280
     1
 90
        1
330
87
  0
DICTIONARY
  5
66
102
{ACAD_REACTORS
330
C
102
}
330
C
100
AcDbDictionary
281
     1
  3
CANNOSCALE
350
D8
  3
CTABLESTYLE
350
89
  3
DIMASSOC
350
67
  3
HIDETEXT
350
6B
  3
LIGHTSINBLOCKS
350
DF
  3
XCLIPFRAME
350
E0
  0
DICTIONARY
  5
E1
102
{ACAD_REACTORS
330
C
102
}
330
C
100
AcDbDictionary
281
     1
  0
DIMASSOC
  5
210
102
{ACAD_REACTORS
330
20F
102
}
330
20F
100
AcDbDimAssoc
330
20E
 90
        3
 70
     0
 71
     0
  1
AcDbOsnapPointRef
 72
     5
331
205
 73
     2
 91
        0
 40
3.141592653589793
 10
0.0
 20
0.0
 30
0.0
 75
     0
  1
AcDbOsnapPointRef
 72
     5
331
205
 73
     2
 91
        0
 40
0.0
 10
0.0
 20
0.0
 30
0.0
 75
     0
  0
DIMASSOC
  5
222
102
{ACAD_REACTORS
330
221
102
}
330
221
100
AcDbDimAssoc
330
220
 90
        3
 70
     0
 71
     0
  1
AcDbOsnapPointRef
 72
     2
331
214
 73
     2
 91
        6
 40
0.5
 10
0.0
 20
0.0
 30
0.0
 75
     0
  1
AcDbOsnapPointRef
 72
     2
331
214
 73
     2
 91
        3
 40
0.5
 10
0.0
 20
0.0
 30
0.0
 75
     0
  0
DIMASSOC
  5
225
102
{ACAD_REACTORS
330
224
102
}
330
224
100
AcDbDimAssoc
330
223
 90
        2
 70
     0
 71
     0
  1
AcDbOsnapPointRef
 72
     1
331
211
 73
     2
 91
        1
 40
1.0
 10
0.0
 20
0.0
 30
2.000000000000000E+50
 75
     0
  0
DIMASSOC
  5
245
102
{ACAD_REACTORS
330
244
102
}
330
244
100
AcDbDimAssoc
330
243
 90
        1
 70
     0
 71
     0
  1
AcDbOsnapPointRef
 72
    13
331
242
 73
     2
 91
        0
 40
0.0
 10
0.0
 20
0.0
 30
2.000000000000000E+50
 75
     0
  0
DIMASSOC
  5
347
102
{ACAD_REACTORS
330
346
102
}
330
346
100
AcDbDimAssoc
330
345
 90
        3
 70
     0
 71
     0
  1
AcDbOsnapPointRef
 72
    13
331
33D
 73
     2
 91
        0
 40
0.0
 10
0.0
 20
0.0
 30
2.000000000000000E+50
 75
     0
  1
AcDbOsnapPointRef
 72
    13
331
33A
 73
     2
 91
        0
 40
0.0
 10
0.0
 20
0.0
 30
2.000000000000000E+50
 75
     0
  0
DIMASSOC
  5
34B
102
{ACAD_REACTORS
330
34A
102
}
330
34A
100
AcDbDimAssoc
330
349
 90
        1
 70
     0
 71
     0
  1
AcDbOsnapPointRef
 72
     1
331
33B
 73
     2
 91
        0
 40
1.0
 10
0.0
 20
0.0
 30
2.000000000000000E+50
 75
     0
  0
LAYOUT
  5
22
102
{ACAD_REACTORS
330
1A
102
}
330
1A
100
AcDbPlotSettings
  1

  2
none_device
  4
ANSI_A_(8.50_x_11.00_Inches)
  6

 40
6.35
 41
19.05
 42
6.35
 43
19.05
 44
215.9
 45
279.4
 46
11.11250000000003
 47
0.0000000000000142
 48
0.0
 49
0.0
140
0.0
141
0.0
142
1.0
143
1.263157894736842
 70
 11444
 72
     0
 73
     1
 74
     1
  7
monochrome.ctb
 75
     0
 76
     0
 77
     2
 78
   300
147
0.7916666666666665
148
-702.8076765758875
149
-496.2830551296954
100
AcDbLayout
  1
Model
 70
     1
 71
     0
 10
0.0
 20
0.0
 11
12.0
 21
9.0
 12
0.0
 22
0.0
 32
0.0
 14
30.73675141240266
 24
28.61312639981193
 34
0.0
 15
188.5134460800296
 25
222.4530067243306
 35
0.0
146
0.0
 13
0.0
 23
0.0
 33
0.0
 16
1.0
 26
0.0
 36
0.0
 17
0.0
 27
1.0
 37
0.0
 76
     0
330
1F
331
94
  0
LAYOUT
  5
59
102
{ACAD_REACTORS
330
1A
102
}
330
1A
100
AcDbPlotSettings
  1

  2
None
  4

  6

 40
0.0
 41
0.0
 42
0.0
 43
0.0
 44
0.0
 45
0.0
 46
0.0
 47
0.0
 48
0.0
 49
0.0
140
0.0
141
0.0
142
1.0
143
1.0
 70
   688
 72
     0
 73
     0
 74
     5
  7

 75
    16
 76
     0
 77
     2
 78
   300
147
1.0
148
0.0
149
0.0
100
AcDbLayout
  1
Sheet1
 70
     1
 71
     1
 10
0.0
 20
0.0
 11
12.0
 21
9.0
 12
0.0
 22
0.0
 32
0.0
 14
0.0
 24
0.0
 34
0.0
 15
0.0
 25
0.0
 35
0.0
146
0.0
 13
0.0
 23
0.0
 33
0.0
 16
1.0
 26
0.0
 36
0.0
 17
0.0
 27
1.0
 37
0.0
 76
     0
330
58
  0
LAYOUT
  5
5E
102
{ACAD_REACTORS
330
1A
102
}
330
1A
100
AcDbPlotSettings
  1

  2
None
  4

  6

 40
0.0
 41
0.0
 42
0.0
 43
0.0
 44
0.0
 45
0.0
 46
0.0
 47
0.0
 48
0.0
 49
0.0
140
0.0
141
0.0
142
1.0
143
1.0
 70
   688
 72
     0
 73
     0
 74
     5
  7

 75
    16
 76
     0
 77
     2
 78
   300
147
1.0
148
0.0
149
0.0
100
AcDbLayout
  1
Sheet2
 70
     1
 71
     2
 10
0.0
 20
0.0
 11
12.0
 21
9.0
 12
0.0
 22
0.0
 32
0.0
 14
0.0
 24
0.0
 34
0.0
 15
0.0
 25
0.0
 35
0.0
146
0.0
 13
0.0
 23
0.0
 33
0.0
 16
1.0
 26
0.0
 36
0.0
 17
0.0
 27
1.0
 37
0.0
 76
     0
330
5D
  0
MATERIAL
  5
E2
102
{ACAD_REACTORS
330
72
102
}
330
72
100
AcDbMaterial
  1
ByBlock
 72
     1
 94
      127
  0
MATERIAL
  5
96
102
{ACAD_REACTORS
330
72
102
}
330
72
100
AcDbMaterial
  1
ByLayer
 72
     1
 94
       63
  0
MATERIAL
  5
98
102
{ACAD_REACTORS
330
72
102
}
330
72
100
AcDbMaterial
  1
Global
 72
     1
 94
       63
  0
MLINESTYLE
  5
18
102
{ACAD_REACTORS
330
17
102
}
330
17
100
AcDbMlineStyle
  2
STANDARD
 70
     0
  3

 62
   256
 51
90.0
 52
90.0
 71
     2
 49
0.5
 62
   256
  6
BYLAYER
 49
-0.5
 62
   256
  6
BYLAYER
  0
ACDBPLACEHOLDER
  5
F
102
{ACAD_REACTORS
330
E
102
}
330
E
  0
SCALE
  5
B7
102
{ACAD_REACTORS
330
B6
102
}
330
B6
100
AcDbScale
 70
     0
300
1:1
140
1.0
141
1.0
290
     1
  0
SCALE
  5
B8
102
{ACAD_REACTORS
330
B6
102
}
330
B6
100
AcDbScale
 70
     0
300
1:2
140
1.0
141
2.0
290
     0
  0
SCALE
  5
B9
102
{ACAD_REACTORS
330
B6
102
}
330
B6
100
AcDbScale
 70
     0
300
1:4
140
1.0
141
4.0
290
     0
  0
SCALE
  5
BA
102
{ACAD_REACTORS
330
B6
102
}
330
B6
100
AcDbScale
 70
     0
300
1:5
140
1.0
141
5.0
290
     0
  0
SCALE
  5
BB
102
{ACAD_REACTORS
330
B6
102
}
330
B6
100
AcDbScale
 70
     0
300
1:8
140
1.0
141
8.0
290
     0
  0
SCALE
  5
BC
102
{ACAD_REACTORS
330
B6
102
}
330
B6
100
AcDbScale
 70
     0
300
1:10
140
1.0
141
10.0
290
     0
  0
SCALE
  5
BD
102
{ACAD_REACTORS
330
B6
102
}
330
B6
100
AcDbScale
 70
     0
300
1:16
140
1.0
141
16.0
290
     0
  0
SCALE
  5
BE
102
{ACAD_REACTORS
330
B6
102
}
330
B6
100
AcDbScale
 70
     0
300
1:20
140
1.0
141
20.0
290
     0
  0
SCALE
  5
BF
102
{ACAD_REACTORS
330
B6
102
}
330
B6
100
AcDbScale
 70
     0
300
1:30
140
1.0
141
30.0
290
     0
  0
SCALE
  5
C0
102
{ACAD_REACTORS
330
B6
102
}
330
B6
100
AcDbScale
 70
     0
300
1:40
140
1.0
141
40.0
290
     0
  0
SCALE
  5
C1
102
{ACAD_REACTORS
330
B6
102
}
330
B6
100
AcDbScale
 70
     0
300
1:50
140
1.0
141
50.0
290
     0
  0
SCALE
  5
C2
102
{ACAD_REACTORS
330
B6
102
}
330
B6
100
AcDbScale
 70
     0
300
1:100
140
1.0
141
100.0
290
     0
  0
SCALE
  5
C3
102
{ACAD_REACTORS
330
B6
102
}
330
B6
100
AcDbScale
 70
     0
300
2:1
140
2.0
141
1.0
290
     0
  0
SCALE
  5
C4
102
{ACAD_REACTORS
330
B6
102
}
330
B6
100
AcDbScale
 70
     0
300
4:1
140
4.0
141
1.0
290
     0
  0
SCALE
  5
C5
102
{ACAD_REACTORS
330
B6
102
}
330
B6
100
AcDbScale
 70
     0
300
8:1
140
8.0
141
1.0
290
     0
  0
SCALE
  5
C6
102
{ACAD_REACTORS
330
B6
102
}
330
B6
100
AcDbScale
 70
     0
300
10:1
140
10.0
141
1.0
290
     0
  0
SCALE
  5
C7
102
{ACAD_REACTORS
330
B6
102
}
330
B6
100
AcDbScale
 70
     0
300
100:1
140
100.0
141
1.0
290
     0
  0
SCALE
  5
C8
102
{ACAD_REACTORS
330
B6
102
}
330
B6
100
AcDbScale
 70
     0
300
1/128" = 1'-0"
140
0.0078125
141
12.0
290
     0
  0
SCALE
  5
C9
102
{ACAD_REACTORS
330
B6
102
}
330
B6
100
AcDbScale
 70
     0
300
1/64" = 1'-0"
140
0.015625
141
12.0
290
     0
  0
SCALE
  5
CA
102
{ACAD_REACTORS
330
B6
102
}
330
B6
100
AcDbScale
 70
     0
300
1/32" = 1'-0"
140
0.03125
141
12.0
290
     0
  0
SCALE
  5
CB
102
{ACAD_REACTORS
330
B6
102
}
330
B6
100
AcDbScale
 70
     0
300
1/16" = 1'-0"
140
0.0625
141
12.0
290
     0
  0
SCALE
  5
CC
102
{ACAD_REACTORS
330
B6
102
}
330
B6
100
AcDbScale
 70
     0
300
3/32" = 1'-0"
140
0.09375
141
12.0
290
     0
  0
SCALE
  5
CD
102
{ACAD_REACTORS
330
B6
102
}
330
B6
100
AcDbScale
 70
     0
300
1/8" = 1'-0"
140
0.125
141
12.0
290
     0
  0
SCALE
  5
CE
102
{ACAD_REACTORS
330
B6
102
}
330
B6
100
AcDbScale
 70
     0
300
3/16" = 1'-0"
140
0.1875
141
12.0
290
     0
  0
SCALE
  5
CF
102
{ACAD_REACTORS
330
B6
102
}
330
B6
100
AcDbScale
 70
     0
300
1/4" = 1'-0"
140
0.25
141
12.0
290
     0
  0
SCALE
  5
D0
102
{ACAD_REACTORS
330
B6
102
}
330
B6
100
AcDbScale
 70
     0
300
3/8" = 1'-0"
140
0.375
141
12.0
290
     0
  0
SCALE
  5
D1
102
{ACAD_REACTORS
330
B6
102
}
330
B6
100
AcDbScale
 70
     0
300
1/2" = 1'-0"
140
0.5
141
12.0
290
     0
  0
SCALE
  5
D2
102
{ACAD_REACTORS
330
B6
102
}
330
B6
100
AcDbScale
 70
     0
300
3/4" = 1'-0"
140
0.75
141
12.0
290
     0
  0
SCALE
  5
D3
102
{ACAD_REACTORS
330
B6
102
}
330
B6
100
AcDbScale
 70
     0
300
1" = 1'-0"
140
1.0
141
12.0
290
     0
  0
SCALE
  5
D4
102
{ACAD_REACTORS
330
B6
102
}
330
B6
100
AcDbScale
 70
     0
300
1-1/2" = 1'-0"
140
1.5
141
12.0
290
     0
  0
SCALE
  5
D5
102
{ACAD_REACTORS
330
B6
102
}
330
B6
100
AcDbScale
 70
     0
300
3" = 1'-0"
140
3.0
141
12.0
290
     0
  0
SCALE
  5
D6
102
{ACAD_REACTORS
330
B6
102
}
330
B6
100
AcDbScale
 70
     0
300
6" = 1'-0"
140
6.0
141
12.0
290
     0
  0
SCALE
  5
D7
102
{ACAD_REACTORS
330
B6
102
}
330
B6
100
AcDbScale
 70
     0
300
1'-0" = 1'-0"
140
12.0
141
12.0
290
     0
  0
TABLESTYLE
  5
87
102
{ACAD_REACTORS
330
86
102
}
102
{ACAD_XDICTIONARY
360
373
102
}
330
86
100
AcDbTableStyle
  3
Standard
 70
     0
 71
     0
 40
0.06
 41
0.06
280
     0
281
     0
  7
Standard
140
0.18
170
     2
 62
     0
 63
   257
283
     0
 90
      512
 91
        0
  1

274
    -2
284
     1
 64
     0
275
    -2
285
     1
 65
     0
276
    -2
286
     1
 66
     0
277
    -2
287
     1
 67
     0
278
    -2
288
     1
 68
     0
279
    -2
289
     1
 69
     0
  7
Standard
140
0.25
170
     5
 62
     0
 63
   257
283
     0
 90
      512
 91
        0
  1

274
    -2
284
     1
 64
     0
275
    -2
285
     1
 65
     0
276
    -2
286
     1
 66
     0
277
    -2
287
     1
 67
     0
278
    -2
288
     1
 68
     0
279
    -2
289
     1
 69
     0
  7
Standard
140
0.18
170
     5
 62
     0
 63
   257
283
     0
 90
      512
 91
        0
  1

274
    -2
284
     1
 64
     0
275
    -2
285
     1
 65
     0
276
    -2
286
     1
 66
     0
277
    -2
287
     1
 67
     0
278
    -2
288
     1
 68
     0
279
    -2
289
     1
 69
     0
  0
VISUALSTYLE
  5
9F
102
{ACAD_REACTORS
330
99
102
}
330
99
100
AcDbVisualStyle
  2
2dWireframe
 70
     4
177
     3
291
     0
 70
    58
 90
        0
176
     1
 90
        2
176
     1
 90
        1
176
     1
 90
        0
176
     1
 40
-0.6
176
     1
 40
-30.0
176
     1
 62
     7
420
 16777215
176
     1
 90
        1
176
     1
 90
        4
176
     1
 62
     7
176
     1
 62
   257
176
     1
 90
        1
176
     1
 90
        1
176
     1
 40
1.0
176
     1
 90
        0
176
     1
 62
   257
176
     1
 40
1.0
176
     1
 90
        1
176
     1
 90
        6
176
     1
 90
        2
176
     1
 62
     7
176
     1
 90
        5
176
     1
 90
        0
176
     1
 90
        0
176
     1
290
     0
176
     1
 90
        1
176
     1
 40
0.0
176
     1
 90
        0
176
     1
290
     1
176
     1
290
     1
176
     1
290
     0
176
     1
290
     0
176
     1
290
     0
176
     1
290
     0
176
     1
290
     0
176
     1
290
     0
176
     1
290
     0
176
     1
 90
       50
176
     1
 40
0.0
176
     1
 40
1.0
176
     1
 90
        0
176
     1
 62
    18
420
        0
176
     1
 90
       50
176
     1
 90
        3
176
     1
 62
     5
420
      255
176
     1
290
     0
176
     1
 90
       50
176
     1
 90
       50
176
     1
 90
       50
176
     1
290
     0
176
     1
 90
       50
176
     1
 62
   256
176
     0
 40
1.0
176
     0
 90
        2
176
     1
  1
strokes_ogs.tif
176
     1
290
     0
176
     1
 40
1.0
176
     1
 40
1.0
176
     1
  0
VISUALSTYLE
  5
A1
102
{ACAD_REACTORS
330
99
102
}
330
99
100
AcDbVisualStyle
  2
3D Hidden
 70
     6
177
     3
291
     0
 70
    58
 90
        1
176
     1
 90
        2
176
     1
 90
        2
176
     1
 90
        0
176
     1
 40
-0.6
176
     1
 40
-30.0
176
     1
 62
     7
420
 16777215
176
     1
 90
        2
176
     1
 90
        2
176
     1
 62
     7
176
     1
 62
   257
176
     1
 90
        2
176
     1
 90
        1
176
     1
 40
40.0
176
     1
 90
        0
176
     1
 62
   257
176
     1
 40
1.0
176
     1
 90
        1
176
     1
 90
        6
176
     1
 90
        2
176
     1
 62
     7
176
     1
 90
        3
176
     1
 90
        0
176
     1
 90
        0
176
     1
290
     0
176
     1
 90
        1
176
     1
 40
0.0
176
     1
 90
        0
176
     1
290
     0
176
     1
290
     1
176
     1
290
     1
176
     1
290
     0
176
     1
290
     0
176
     1
290
     0
176
     1
290
     0
176
     1
290
     0
176
     1
290
     0
176
     1
 90
       50
176
     1
 40
0.0
176
     1
 40
1.0
176
     1
 90
        0
176
     1
 62
    18
420
        0
176
     1
 90
       50
176
     1
 90
        3
176
     1
 62
     5
420
      255
176
     1
290
     0
176
     1
 90
       50
176
     1
 90
       50
176
     1
 90
       50
176
     1
290
     0
176
     1
 90
       50
176
     1
 62
   256
176
     0
 40
1.0
176
     0
 90
        2
176
     1
  1
strokes_ogs.tif
176
     1
290
     0
176
     1
 40
1.0
176
     1
 40
1.0
176
     1
  0
VISUALSTYLE
  5
A0
102
{ACAD_REACTORS
330
99
102
}
330
99
100
AcDbVisualStyle
  2
3dWireframe
 70
     5
177
     3
291
     0
 70
    58
 90
        0
176
     1
 90
        2
176
     1
 90
        1
176
     1
 90
        0
176
     1
 40
-0.6
176
     1
 40
-30.0
176
     1
 62
     7
420
 16777215
176
     1
 90
        1
176
     1
 90
        4
176
     1
 62
     7
176
     1
 62
   257
176
     1
 90
        1
176
     1
 90
        1
176
     1
 40
1.0
176
     1
 90
        0
176
     1
 62
   257
176
     1
 40
1.0
176
     1
 90
        1
176
     1
 90
        6
176
     1
 90
        2
176
     1
 62
     7
176
     1
 90
        5
176
     1
 90
        0
176
     1
 90
        0
176
     1
290
     0
176
     1
 90
        1
176
     1
 40
0.0
176
     1
 90
        0
176
     1
290
     0
176
     1
290
     1
176
     1
290
     1
176
     1
290
     0
176
     1
290
     0
176
     1
290
     0
176
     1
290
     0
176
     1
290
     0
176
     1
290
     0
176
     1
 90
       50
176
     1
 40
0.0
176
     1
 40
1.0
176
     1
 90
        0
176
     1
 62
    18
420
        0
176
     1
 90
       50
176
     1
 90
        3
176
     1
 62
     5
420
      255
176
     1
290
     0
176
     1
 90
       50
176
     1
 90
       50
176
     1
 90
       50
176
     1
290
     0
176
     1
 90
       50
176
     1
 62
   256
176
     0
 40
1.0
176
     0
 90
        2
176
     1
  1
strokes_ogs.tif
176
     1
290
     0
176
     1
 40
1.0
176
     1
 40
1.0
176
     1
  0
VISUALSTYLE
  5
9E
102
{ACAD_REACTORS
330
99
102
}
330
99
100
AcDbVisualStyle
  2
Basic
 70
     7
177
     3
291
     1
 70
    58
 90
        1
176
     1
 90
        0
176
     1
 90
        1
176
     1
 90
        0
176
     1
 40
-0.6
176
     1
 40
-30.0
176
     1
 62
     7
420
 16777215
176
     1
 90
        0
176
     1
 90
        4
176
     1
 62
     7
176
     1
 62
   257
176
     1
 90
        1
176
     1
 90
        1
176
     1
 40
1.0
176
     1
 90
        8
176
     1
 62
     7
176
     1
 40
1.0
176
     1
 90
        1
176
     1
 90
        6
176
     1
 90
        2
176
     1
 62
     7
176
     1
 90
        5
176
     1
 90
        0
176
     1
 90
        0
176
     1
290
     0
176
     1
 90
        1
176
     1
 40
0.0
176
     1
 90
        0
176
     1
290
     0
176
     1
290
     1
176
     1
290
     1
176
     1
290
     0
176
     1
290
     0
176
     1
290
     0
176
     1
290
     0
176
     1
290
     0
176
     1
290
     0
176
     1
 90
       50
176
     1
 40
0.0
176
     1
 40
1.0
176
     1
 90
        0
176
     1
 62
    18
420
        0
176
     1
 90
       50
176
     1
 90
        3
176
     1
 62
     5
420
      255
176
     1
290
     0
176
     1
 90
       50
176
     1
 90
       50
176
     1
 90
       50
176
     1
290
     0
176
     1
 90
       50
176
     1
 62
   256
176
     0
 40
1.0
176
     0
 90
        2
176
     1
  1
strokes_ogs.tif
176
     1
290
     0
176
     1
 40
1.0
176
     1
 40
1.0
176
     1
  0
VISUALSTYLE
  5
A5
102
{ACAD_REACTORS
330
99
102
}
330
99
100
AcDbVisualStyle
  2
Brighten
 70
    12
177
     3
291
     1
 70
    58
 90
        2
176
     1
 90
        2
176
     1
 90
        1
176
     1
 90
        0
176
     1
 40
-0.6
176
     1
 40
-30.0
176
     1
 62
     7
420
 16777215
176
     1
 90
        1
176
     1
 90
        4
176
     1
 62
     7
176
     1
 62
   257
176
     1
 90
        1
176
     1
 90
        1
176
     1
 40
1.0
176
     1
 90
        8
176
     1
 62
     7
176
     1
 40
1.0
176
     1
 90
        1
176
     1
 90
        6
176
     1
 90
        2
176
     1
 62
     7
176
     1
 90
        5
176
     1
 90
        0
176
     1
 90
        0
176
     1
290
     0
176
     1
 90
        1
176
     1
 40
50.0
176
     1
 90
        0
176
     1
290
     0
176
     1
290
     1
176
     1
290
     1
176
     1
290
     0
176
     1
290
     0
176
     1
290
     0
176
     1
290
     0
176
     1
290
     0
176
     1
290
     0
176
     1
 90
       50
176
     1
 40
0.0
176
     1
 40
1.0
176
     1
 90
        0
176
     1
 62
    18
420
        0
176
     1
 90
       50
176
     1
 90
        3
176
     1
 62
     5
420
      255
176
     1
290
     0
176
     1
 90
       50
176
     1
 90
       50
176
     1
 90
       50
176
     1
290
     0
176
     1
 90
       50
176
     1
 62
   256
176
     0
 40
1.0
176
     0
 90
        2
176
     1
  1
strokes_ogs.tif
176
     1
290
     0
176
     1
 40
1.0
176
     1
 40
1.0
176
     1
  0
VISUALSTYLE
  5
A9
102
{ACAD_REACTORS
330
99
102
}
330
99
100
AcDbVisualStyle
  2
ColorChange
 70
    16
177
     3
291
     1
 70
    58
 90
        2
176
     1
 90
        2
176
     1
 90
        3
176
     1
 90
        0
176
     1
 40
-0.6
176
     1
 40
-30.0
176
     1
 62
     8
420
  8421504
176
     1
 90
        1
176
     1
 90
        4
176
     1
 62
     7
176
     1
 62
   257
176
     1
 90
        1
176
     1
 90
        1
176
     1
 40
1.0
176
     1
 90
        8
176
     1
 62
     8
420
  8421504
176
     1
 40
1.0
176
     1
 90
        1
176
     1
 90
        6
176
     1
 90
        2
176
     1
 62
     7
176
     1
 90
        5
176
     1
 90
        0
176
     1
 90
        0
176
     1
290
     0
176
     1
 90
        1
176
     1
 40
0.0
176
     1
 90
        0
176
     1
290
     0
176
     1
290
     1
176
     1
290
     1
176
     1
290
     0
176
     1
290
     0
176
     1
290
     0
176
     1
290
     0
176
     1
290
     0
176
     1
290
     0
176
     1
 90
       50
176
     1
 40
0.0
176
     1
 40
1.0
176
     1
 90
        0
176
     1
 62
    18
420
        0
176
     1
 90
       50
176
     1
 90
        3
176
     1
 62
     5
420
      255
176
     1
290
     0
176
     1
 90
       50
176
     1
 90
       50
176
     1
 90
       50
176
     1
290
     0
176
     1
 90
       50
176
     1
 62
   256
176
     0
 40
1.0
176
     0
 90
        2
176
     1
  1
strokes_ogs.tif
176
     1
290
     0
176
     1
 40
1.0
176
     1
 40
1.0
176
     1
  0
VISUALSTYLE
  5
A2
102
{ACAD_REACTORS
330
99
102
}
330
99
100
AcDbVisualStyle
  2
Conceptual
 70
     9
177
     3
291
     0
 70
    58
 90
        3
176
     1
 90
        2
176
     1
 90
        1
176
     1
 90
        0
176
     1
 40
-0.6
176
     1
 40
-30.0
176
     1
 62
     7
420
 16777215
176
     1
 90
        2
176
     1
 90
        2
176
     1
 62
     7
176
     1
 62
   257
176
     1
 90
        1
176
     1
 90
        1
176
     1
 40
40.0
176
     1
 90
        8
176
     1
 62
     7
176
     1
 40
1.0
176
     1
 90
        1
176
     1
 90
        6
176
     1
 90
        2
176
     1
 62
     7
176
     1
 90
        3
176
     1
 90
        0
176
     1
 90
        0
176
     1
290
     0
176
     1
 90
        1
176
     1
 40
0.0
176
     1
 90
        0
176
     1
290
     0
176
     1
290
     1
176
     1
290
     1
176
     1
290
     0
176
     1
290
     0
176
     1
290
     0
176
     1
290
     0
176
     1
290
     0
176
     1
290
     0
176
     1
 90
       50
176
     1
 40
0.0
176
     1
 40
1.0
176
     1
 90
        0
176
     1
 62
    18
420
        0
176
     1
 90
       50
176
     1
 90
        3
176
     1
 62
     5
420
      255
176
     1
290
     0
176
     1
 90
       50
176
     1
 90
       50
176
     1
 90
       50
176
     1
290
     0
176
     1
 90
       50
176
     1
 62
   256
176
     0
 40
1.0
176
     0
 90
        2
176
     1
  1
strokes_ogs.tif
176
     1
290
     0
176
     1
 40
1.0
176
     1
 40
1.0
176
     1
  0
VISUALSTYLE
  5
A4
102
{ACAD_REACTORS
330
99
102
}
330
99
100
AcDbVisualStyle
  2
Dim
 70
    11
177
     3
291
     1
 70
    58
 90
        2
176
     1
 90
        2
176
     1
 90
        1
176
     1
 90
        0
176
     1
 40
-0.6
176
     1
 40
-30.0
176
     1
 62
     7
420
 16777215
176
     1
 90
        1
176
     1
 90
        4
176
     1
 62
     7
176
     1
 62
   257
176
     1
 90
        1
176
     1
 90
        1
176
     1
 40
1.0
176
     1
 90
        8
176
     1
 62
     7
176
     1
 40
1.0
176
     1
 90
        1
176
     1
 90
        6
176
     1
 90
        2
176
     1
 62
     7
176
     1
 90
        5
176
     1
 90
        0
176
     1
 90
        0
176
     1
290
     0
176
     1
 90
        1
176
     1
 40
-50.0
176
     1
 90
        0
176
     1
290
     0
176
     1
290
     1
176
     1
290
     1
176
     1
290
     0
176
     1
290
     0
176
     1
290
     0
176
     1
290
     0
176
     1
290
     0
176
     1
290
     0
176
     1
 90
       50
176
     1
 40
0.0
176
     1
 40
1.0
176
     1
 90
        0
176
     1
 62
    18
420
        0
176
     1
 90
       50
176
     1
 90
        3
176
     1
 62
     5
420
      255
176
     1
290
     0
176
     1
 90
       50
176
     1
 90
       50
176
     1
 90
       50
176
     1
290
     0
176
     1
 90
       50
176
     1
 62
   256
176
     0
 40
1.0
176
     0
 90
        2
176
     1
  1
strokes_ogs.tif
176
     1
290
     0
176
     1
 40
1.0
176
     1
 40
1.0
176
     1
  0
VISUALSTYLE
  5
E7
102
{ACAD_REACTORS
330
99
102
}
330
99
100
AcDbVisualStyle
  2
EdgeColorOff
 70
    22
177
     3
291
     1
 70
    58
 90
        2
176
     0
 90
        2
176
     0
 90
        0
176
     0
 90
        0
176
     0
 40
0.6
176
     0
 40
30.0
176
     0
 62
     7
420
 16777215
176
     0
 90
        1
176
     0
 90
        4
176
     0
 62
     7
176
     0
 62
   257
176
     0
 90
        1
176
     0
 90
        1
176
     0
 40
1.0
176
     0
 90
        8
176
     2
 62
     7
176
     0
 40
1.0
176
     0
 90
        1
176
     0
 90
        6
176
     0
 90
        2
176
     0
 62
     7
176
     0
 90
        5
176
     0
 90
        0
176
     0
 90
        0
176
     0
290
     0
176
     0
 90
        1
176
     0
 40
0.0
176
     0
 90
        0
176
     0
290
     0
176
     0
290
     1
176
     0
290
     1
176
     0
290
     0
176
     0
290
     0
176
     0
290
     0
176
     0
290
     0
176
     0
290
     0
176
     0
290
     0
176
     0
 90
       50
176
     0
 40
0.0
176
     0
 40
1.0
176
     0
 90
        0
176
     0
 62
    18
420
        0
176
     0
 90
       50
176
     0
 90
        3
176
     0
 62
     5
420
      255
176
     0
290
     0
176
     0
 90
       50
176
     0
 90
       50
176
     0
 90
       50
176
     0
290
     0
176
     0
 90
       50
176
     0
 62
   256
176
     0
 40
1.0
176
     0
 90
        2
176
     0
  1
strokes_ogs.tif
176
     0
290
     0
176
     0
 40
1.0
176
     0
 40
1.0
176
     0
  0
VISUALSTYLE
  5
A8
102
{ACAD_REACTORS
330
99
102
}
330
99
100
AcDbVisualStyle
  2
Facepattern
 70
    15
177
     3
291
     1
 70
    58
 90
        2
176
     1
 90
        2
176
     1
 90
        1
176
     1
 90
        0
176
     1
 40
-0.6
176
     1
 40
-30.0
176
     1
 62
     7
420
 16777215
176
     1
 90
        1
176
     1
 90
        4
176
     1
 62
     7
176
     1
 62
   257
176
     1
 90
        1
176
     1
 90
        1
176
     1
 40
1.0
176
     1
 90
        8
176
     1
 62
     7
176
     1
 40
1.0
176
     1
 90
        1
176
     1
 90
        6
176
     1
 90
        2
176
     1
 62
     7
176
     1
 90
        5
176
     1
 90
        0
176
     1
 90
        0
176
     1
290
     0
176
     1
 90
        1
176
     1
 40
0.0
176
     1
 90
        0
176
     1
290
     0
176
     1
290
     1
176
     1
290
     1
176
     1
290
     0
176
     1
290
     0
176
     1
290
     0
176
     1
290
     0
176
     1
290
     0
176
     1
290
     0
176
     1
 90
       50
176
     1
 40
0.0
176
     1
 40
1.0
176
     1
 90
        0
176
     1
 62
    18
420
        0
176
     1
 90
       50
176
     1
 90
        3
176
     1
 62
     5
420
      255
176
     1
290
     0
176
     1
 90
       50
176
     1
 90
       50
176
     1
 90
       50
176
     1
290
     0
176
     1
 90
       50
176
     1
 62
   256
176
     0
 40
1.0
176
     0
 90
        2
176
     1
  1
strokes_ogs.tif
176
     1
290
     0
176
     1
 40
1.0
176
     1
 40
1.0
176
     1
  0
VISUALSTYLE
  5
9A
102
{ACAD_REACTORS
330
99
102
}
330
99
100
AcDbVisualStyle
  2
Flat
 70
     0
177
     3
291
     1
 70
    58
 90
        2
176
     1
 90
        1
176
     1
 90
        1
176
     1
 90
        2
176
     1
 40
-0.6
176
     1
 40
30.0
176
     1
 62
     7
420
 16777215
176
     1
 90
        0
176
     1
 90
        4
176
     1
 62
     7
176
     1
 62
   257
176
     1
 90
        1
176
     1
 90
        1
176
     1
 40
1.0
176
     1
 90
        8
176
     1
 62
     7
176
     1
 40
1.0
176
     1
 90
        1
176
     1
 90
        6
176
     1
 90
        2
176
     1
 62
     7
176
     1
 90
        5
176
     1
 90
        0
176
     1
 90
        0
176
     1
290
     0
176
     1
 90
        1
176
     1
 40
0.0
176
     1
 90
        0
176
     1
290
     0
176
     1
290
     1
176
     1
290
     1
176
     1
290
     0
176
     1
290
     0
176
     1
290
     0
176
     1
290
     0
176
     1
290
     0
176
     1
290
     0
176
     1
 90
       50
176
     1
 40
0.0
176
     1
 40
1.0
176
     1
 90
        0
176
     1
 62
    18
420
        0
176
     1
 90
       50
176
     1
 90
        3
176
     1
 62
     5
420
      255
176
     1
290
     0
176
     1
 90
       50
176
     1
 90
       50
176
     1
 90
       50
176
     1
290
     0
176
     1
 90
       50
176
     1
 62
   256
176
     0
 40
1.0
176
     0
 90
        2
176
     1
  1
strokes_ogs.tif
176
     1
290
     0
176
     1
 40
1.0
176
     1
 40
1.0
176
     1
  0
VISUALSTYLE
  5
9B
102
{ACAD_REACTORS
330
99
102
}
330
99
100
AcDbVisualStyle
  2
FlatWithEdges
 70
     1
177
     3
291
     1
 70
    58
 90
        2
176
     1
 90
        1
176
     1
 90
        1
176
     1
 90
        2
176
     1
 40
-0.6
176
     1
 40
30.0
176
     1
 62
     7
420
 16777215
176
     1
 90
        1
176
     1
 90
        4
176
     1
 62
     7
176
     1
 62
   257
176
     1
 90
        1
176
     1
 90
        1
176
     1
 40
1.0
176
     1
 90
        0
176
     1
 62
   257
176
     1
 40
1.0
176
     1
 90
        1
176
     1
 90
        6
176
     1
 90
        2
176
     1
 62
     7
176
     1
 90
        5
176
     1
 90
        0
176
     1
 90
        0
176
     1
290
     0
176
     1
 90
        1
176
     1
 40
0.0
176
     1
 90
        0
176
     1
290
     0
176
     1
290
     1
176
     1
290
     1
176
     1
290
     0
176
     1
290
     0
176
     1
290
     0
176
     1
290
     0
176
     1
290
     0
176
     1
290
     0
176
     1
 90
       50
176
     1
 40
0.0
176
     1
 40
1.0
176
     1
 90
        0
176
     1
 62
    18
420
        0
176
     1
 90
       50
176
     1
 90
        3
176
     1
 62
     5
420
      255
176
     1
290
     0
176
     1
 90
       50
176
     1
 90
       50
176
     1
 90
       50
176
     1
290
     0
176
     1
 90
       50
176
     1
 62
   256
176
     0
 40
1.0
176
     0
 90
        2
176
     1
  1
strokes_ogs.tif
176
     1
290
     0
176
     1
 40
1.0
176
     1
 40
1.0
176
     1
  0
VISUALSTYLE
  5
9C
102
{ACAD_REACTORS
330
99
102
}
330
99
100
AcDbVisualStyle
  2
Gouraud
 70
     2
177
     3
291
     1
 70
    58
 90
        2
176
     1
 90
        2
176
     1
 90
        1
176
     1
 90
        2
176
     1
 40
-0.6
176
     1
 40
30.0
176
     1
 62
     7
420
 16777215
176
     1
 90
        0
176
     1
 90
        4
176
     1
 62
     7
176
     1
 62
   257
176
     1
 90
        1
176
     1
 90
        1
176
     1
 40
1.0
176
     1
 90
        0
176
     1
 62
     7
176
     1
 40
1.0
176
     1
 90
        1
176
     1
 90
        6
176
     1
 90
        2
176
     1
 62
     7
176
     1
 90
        5
176
     1
 90
        0
176
     1
 90
        0
176
     1
290
     0
176
     1
 90
        1
176
     1
 40
0.0
176
     1
 90
        0
176
     1
290
     0
176
     1
290
     1
176
     1
290
     1
176
     1
290
     0
176
     1
290
     0
176
     1
290
     0
176
     1
290
     0
176
     1
290
     0
176
     1
290
     0
176
     1
 90
       50
176
     1
 40
0.0
176
     1
 40
1.0
176
     1
 90
        0
176
     1
 62
    18
420
        0
176
     1
 90
       50
176
     1
 90
        3
176
     1
 62
     5
420
      255
176
     1
290
     0
176
     1
 90
       50
176
     1
 90
       50
176
     1
 90
       50
176
     1
290
     0
176
     1
 90
       50
176
     1
 62
   256
176
     0
 40
1.0
176
     0
 90
        2
176
     1
  1
strokes_ogs.tif
176
     1
290
     0
176
     1
 40
1.0
176
     1
 40
1.0
176
     1
  0
VISUALSTYLE
  5
9D
102
{ACAD_REACTORS
330
99
102
}
330
99
100
AcDbVisualStyle
  2
GouraudWithEdges
 70
     3
177
     3
291
     1
 70
    58
 90
        2
176
     1
 90
        2
176
     1
 90
        1
176
     1
 90
        2
176
     1
 40
-0.6
176
     1
 40
30.0
176
     1
 62
     7
420
 16777215
176
     1
 90
        1
176
     1
 90
        4
176
     1
 62
     7
176
     1
 62
   257
176
     1
 90
        1
176
     1
 90
        1
176
     1
 40
1.0
176
     1
 90
        0
176
     1
 62
   257
176
     1
 40
1.0
176
     1
 90
        1
176
     1
 90
        6
176
     1
 90
        2
176
     1
 62
     7
176
     1
 90
        5
176
     1
 90
        0
176
     1
 90
        0
176
     1
290
     0
176
     1
 90
        1
176
     1
 40
0.0
176
     1
 90
        0
176
     1
290
     0
176
     1
290
     1
176
     1
290
     1
176
     1
290
     0
176
     1
290
     0
176
     1
290
     0
176
     1
290
     0
176
     1
290
     0
176
     1
290
     0
176
     1
 90
       50
176
     1
 40
0.0
176
     1
 40
1.0
176
     1
 90
        0
176
     1
 62
    18
420
        0
176
     1
 90
       50
176
     1
 90
        3
176
     1
 62
     5
420
      255
176
     1
290
     0
176
     1
 90
       50
176
     1
 90
       50
176
     1
 90
       50
176
     1
290
     0
176
     1
 90
       50
176
     1
 62
   256
176
     0
 40
1.0
176
     0
 90
        2
176
     1
  1
strokes_ogs.tif
176
     1
290
     0
176
     1
 40
1.0
176
     1
 40
1.0
176
     1
  0
VISUALSTYLE
  5
E4
102
{ACAD_REACTORS
330
99
102
}
330
99
100
AcDbVisualStyle
  2
Hidden
 70
     6
177
     3
291
     0
 70
    58
 90
        1
176
     1
 90
        2
176
     1
 90
        2
176
     1
 90
        0
176
     1
 40
0.6
176
     1
 40
30.0
176
     1
 62
     7
420
 16777215
176
     1
 90
        2
176
     1
 90
        2
176
     1
 62
     7
176
     1
 62
   257
176
     1
 90
        2
176
     1
 90
        1
176
     1
 40
40.0
176
     1
 90
        0
176
     1
 62
   257
176
     1
 40
1.0
176
     1
 90
        1
176
     1
 90
        6
176
     1
 90
        2
176
     1
 62
     7
176
     1
 90
        3
176
     1
 90
        0
176
     1
 90
        0
176
     1
290
     0
176
     1
 90
        1
176
     1
 40
0.0
176
     1
 90
        0
176
     1
290
     0
176
     1
290
     1
176
     1
290
     1
176
     1
290
     0
176
     1
290
     0
176
     1
290
     0
176
     1
290
     0
176
     1
290
     0
176
     1
290
     0
176
     1
 90
       50
176
     1
 40
0.0
176
     1
 40
1.0
176
     1
 90
        0
176
     1
 62
    18
420
        0
176
     1
 90
       50
176
     1
 90
        3
176
     1
 62
     5
420
      255
176
     1
290
     0
176
     1
 90
       50
176
     1
 90
       50
176
     1
 90
       50
176
     1
290
     0
176
     1
 90
       50
176
     1
 62
   256
176
     0
 40
1.0
176
     0
 90
        2
176
     1
  1
strokes_ogs.tif
176
     1
290
     0
176
     1
 40
1.0
176
     1
 40
1.0
176
     1
  0
VISUALSTYLE
  5
E5
102
{ACAD_REACTORS
330
99
102
}
330
99
100
AcDbVisualStyle
  2
JitterOff
 70
    20
177
     3
291
     1
 70
    58
 90
        2
176
     0
 90
        2
176
     0
 90
        0
176
     0
 90
        0
176
     0
 40
0.6
176
     0
 40
30.0
176
     0
 62
     7
420
 16777215
176
     0
 90
        1
176
     0
 90
        4
176
     0
 62
     7
176
     0
 62
   257
176
     0
 90
        1
176
     0
 90
        1
176
     0
 40
1.0
176
     0
 90
       10
176
     2
 62
     7
176
     0
 40
1.0
176
     0
 90
        1
176
     0
 90
        6
176
     0
 90
        2
176
     0
 62
     7
176
     0
 90
        5
176
     0
 90
        0
176
     0
 90
        0
176
     0
290
     0
176
     0
 90
        1
176
     0
 40
0.0
176
     0
 90
        0
176
     0
290
     0
176
     0
290
     1
176
     0
290
     1
176
     0
290
     0
176
     0
290
     0
176
     0
290
     0
176
     0
290
     0
176
     0
290
     0
176
     0
290
     0
176
     0
 90
       50
176
     0
 40
0.0
176
     0
 40
1.0
176
     0
 90
        0
176
     0
 62
    18
420
        0
176
     0
 90
       50
176
     0
 90
        3
176
     0
 62
     5
420
      255
176
     0
290
     0
176
     0
 90
       50
176
     0
 90
       50
176
     0
 90
       50
176
     0
290
     0
176
     0
 90
       50
176
     0
 62
   256
176
     0
 40
1.0
176
     0
 90
        2
176
     0
  1
strokes_ogs.tif
176
     0
290
     0
176
     0
 40
1.0
176
     0
 40
1.0
176
     0
  0
VISUALSTYLE
  5
A7
102
{ACAD_REACTORS
330
99
102
}
330
99
100
AcDbVisualStyle
  2
Linepattern
 70
    14
177
     3
291
     1
 70
    58
 90
        2
176
     1
 90
        2
176
     1
 90
        1
176
     1
 90
        0
176
     1
 40
-0.6
176
     1
 40
-30.0
176
     1
 62
     7
420
 16777215
176
     1
 90
        1
176
     1
 90
        4
176
     1
 62
     7
176
     1
 62
   257
176
     1
 90
        7
176
     1
 90
        7
176
     1
 40
1.0
176
     1
 90
        8
176
     1
 62
     7
176
     1
 40
1.0
176
     1
 90
        1
176
     1
 90
        6
176
     1
 90
        2
176
     1
 62
     7
176
     1
 90
        5
176
     1
 90
        0
176
     1
 90
        0
176
     1
290
     0
176
     1
 90
        1
176
     1
 40
0.0
176
     1
 90
        0
176
     1
290
     0
176
     1
290
     1
176
     1
290
     1
176
     1
290
     0
176
     1
290
     0
176
     1
290
     0
176
     1
290
     0
176
     1
290
     0
176
     1
290
     0
176
     1
 90
       50
176
     1
 40
0.0
176
     1
 40
1.0
176
     1
 90
        0
176
     1
 62
    18
420
        0
176
     1
 90
       50
176
     1
 90
        3
176
     1
 62
     5
420
      255
176
     1
290
     0
176
     1
 90
       50
176
     1
 90
       50
176
     1
 90
       50
176
     1
290
     0
176
     1
 90
       50
176
     1
 62
   256
176
     0
 40
1.0
176
     0
 90
        2
176
     1
  1
strokes_ogs.tif
176
     1
290
     0
176
     1
 40
1.0
176
     1
 40
1.0
176
     1
  0
VISUALSTYLE
  5
E6
102
{ACAD_REACTORS
330
99
102
}
330
99
100
AcDbVisualStyle
  2
OverhangOff
 70
    21
177
     3
291
     1
 70
    58
 90
        2
176
     0
 90
        2
176
     0
 90
        0
176
     0
 90
        0
176
     0
 40
0.6
176
     0
 40
30.0
176
     0
 62
     7
420
 16777215
176
     0
 90
        1
176
     0
 90
        4
176
     0
 62
     7
176
     0
 62
   257
176
     0
 90
        1
176
     0
 90
        1
176
     0
 40
1.0
176
     0
 90
        9
176
     2
 62
     7
176
     0
 40
1.0
176
     0
 90
        1
176
     0
 90
        6
176
     0
 90
        2
176
     0
 62
     7
176
     0
 90
        5
176
     0
 90
        0
176
     0
 90
        0
176
     0
290
     0
176
     0
 90
        1
176
     0
 40
0.0
176
     0
 90
        0
176
     0
290
     0
176
     0
290
     1
176
     0
290
     1
176
     0
290
     0
176
     0
290
     0
176
     0
290
     0
176
     0
290
     0
176
     0
290
     0
176
     0
290
     0
176
     0
 90
       50
176
     0
 40
0.0
176
     0
 40
1.0
176
     0
 90
        0
176
     0
 62
    18
420
        0
176
     0
 90
       50
176
     0
 90
        3
176
     0
 62
     5
420
      255
176
     0
290
     0
176
     0
 90
       50
176
     0
 90
       50
176
     0
 90
       50
176
     0
290
     0
176
     0
 90
       50
176
     0
 62
   256
176
     0
 40
1.0
176
     0
 90
        2
176
     0
  1
strokes_ogs.tif
176
     0
290
     0
176
     0
 40
1.0
176
     0
 40
1.0
176
     0
  0
VISUALSTYLE
  5
A3
102
{ACAD_REACTORS
330
99
102
}
330
99
100
AcDbVisualStyle
  2
Realistic
 70
     8
177
     3
291
     0
 70
    58
 90
        2
176
     1
 90
        2
176
     1
 90
        1
176
     1
 90
        0
176
     1
 40
-0.6
176
     1
 40
-30.0
176
     1
 62
     7
420
 16777215
176
     1
 90
        1
176
     1
 90
        0
176
     1
 62
     7
176
     1
 62
   257
176
     1
 90
        1
176
     1
 90
        1
176
     1
 40
1.0
176
     1
 90
        8
176
     1
 62
     8
420
  7895160
176
     1
 40
1.0
176
     1
 90
        1
176
     1
 90
        6
176
     1
 90
        2
176
     1
 62
     7
176
     1
 90
        5
176
     1
 90
        0
176
     1
 90
        0
176
     1
290
     0
176
     1
 90
       13
176
     1
 40
0.0
176
     1
 90
        0
176
     1
290
     0
176
     1
290
     1
176
     1
290
     1
176
     1
290
     0
176
     1
290
     0
176
     1
290
     0
176
     1
290
     0
176
     1
290
     0
176
     1
290
     0
176
     1
 90
       50
176
     1
 40
0.0
176
     1
 40
1.0
176
     1
 90
        0
176
     1
 62
    18
420
        0
176
     1
 90
       50
176
     1
 90
        3
176
     1
 62
     5
420
      255
176
     1
290
     0
176
     1
 90
       50
176
     1
 90
       50
176
     1
 90
       50
176
     1
290
     0
176
     1
 90
       50
176
     1
 62
   256
176
     0
 40
1.0
176
     0
 90
        2
176
     1
  1
strokes_ogs.tif
176
     1
290
     0
176
     1
 40
1.0
176
     1
 40
1.0
176
     1
  0
VISUALSTYLE
  5
EC
102
{ACAD_REACTORS
330
99
102
}
330
99
100
AcDbVisualStyle
  2
Shaded
 70
    27
177
     3
291
     0
 70
    58
 90
        2
176
     1
 90
        2
176
     1
 90
        1
176
     1
 90
        2
176
     1
 40
0.6
176
     1
 40
30.0
176
     1
 62
     7
420
 16777215
176
     1
 90
        0
176
     1
 90
        4
176
     1
 62
     7
176
     1
 62
   257
176
     1
 90
        1
176
     1
 90
        1
176
     1
 40
1.0
176
     1
 90
        8
176
     1
 62
   257
176
     1
 40
1.0
176
     1
 90
        1
176
     1
 90
        6
176
     1
 90
        2
176
     1
 62
     8
420
  7895160
176
     1
 90
        3
176
     1
 90
        0
176
     1
 90
        0
176
     1
290
     0
176
     1
 90
        5
176
     1
 40
0.0
176
     1
 90
        0
176
     1
290
     0
176
     1
290
     1
176
     1
290
     1
176
     1
290
     0
176
     1
290
     0
176
     1
290
     0
176
     1
290
     0
176
     1
290
     0
176
     1
290
     0
176
     1
 90
       50
176
     1
 40
0.0
176
     1
 40
1.0
176
     1
 90
        0
176
     1
 62
    18
420
        0
176
     1
 90
       50
176
     1
 90
        3
176
     1
 62
     5
420
      255
176
     1
290
     0
176
     1
 90
       50
176
     1
 90
       50
176
     1
 90
       50
176
     1
290
     0
176
     1
 90
       50
176
     1
 62
   256
176
     0
 40
1.0
176
     0
 90
        2
176
     1
  1
strokes_ogs.tif
176
     1
290
     0
176
     1
 40
1.0
176
     1
 40
1.0
176
     1
  0
VISUALSTYLE
  5
EB
102
{ACAD_REACTORS
330
99
102
}
330
99
100
AcDbVisualStyle
  2
Shaded with edges
 70
    26
177
     3
291
     0
 70
    58
 90
        2
176
     1
 90
        2
176
     1
 90
        1
176
     1
 90
        2
176
     1
 40
0.6
176
     1
 40
30.0
176
     1
 62
     7
420
 16777215
176
     1
 90
        1
176
     1
 90
       10
176
     1
 62
     7
176
     1
 62
   257
176
     1
 90
        2
176
     1
 90
        1
176
     1
 40
1.0
176
     1
 90
        8
176
     1
 62
   257
176
     1
 40
1.0
176
     1
 90
        1
176
     1
 90
        6
176
     1
 90
        2
176
     1
 62
     7
176
     1
 90
        3
176
     1
 90
        0
176
     1
 90
        0
176
     1
290
     0
176
     1
 90
        5
176
     1
 40
0.0
176
     1
 90
        0
176
     1
290
     0
176
     1
290
     1
176
     1
290
     1
176
     1
290
     0
176
     1
290
     0
176
     1
290
     0
176
     1
290
     0
176
     1
290
     0
176
     1
290
     0
176
     1
 90
       50
176
     1
 40
0.0
176
     1
 40
1.0
176
     1
 90
        0
176
     1
 62
    18
420
        0
176
     1
 90
       50
176
     1
 90
        3
176
     1
 62
     5
420
      255
176
     1
290
     0
176
     1
 90
       50
176
     1
 90
       50
176
     1
 90
       50
176
     1
290
     0
176
     1
 90
       50
176
     1
 62
   256
176
     0
 40
1.0
176
     0
 90
        2
176
     1
  1
strokes_ogs.tif
176
     1
290
     0
176
     1
 40
1.0
176
     1
 40
1.0
176
     1
  0
VISUALSTYLE
  5
E8
102
{ACAD_REACTORS
330
99
102
}
330
99
100
AcDbVisualStyle
  2
Shades of Gray
 70
    23
177
     3
291
     0
 70
    58
 90
        2
176
     1
 90
        2
176
     1
 90
        3
176
     1
 90
        0
176
     1
 40
0.6
176
     1
 40
30.0
176
     1
 62
     7
420
 16777215
176
     1
 90
        2
176
     1
 90
        2
176
     1
 62
     7
176
     1
 62
     7
176
     1
 90
        1
176
     1
 90
        1
176
     1
 40
40.0
176
     1
 90
        8
176
     1
 62
     7
176
     1
 40
1.0
176
     1
 90
        1
176
     1
 90
        6
176
     1
 90
        2
176
     1
 62
     7
176
     1
 90
        3
176
     1
 90
        0
176
     1
 90
        0
176
     1
290
     0
176
     1
 90
        1
176
     1
 40
0.0
176
     1
 90
        0
176
     1
290
     0
176
     1
290
     1
176
     1
290
     1
176
     1
290
     0
176
     1
290
     0
176
     1
290
     0
176
     1
290
     0
176
     1
290
     0
176
     1
290
     0
176
     1
 90
       50
176
     1
 40
0.0
176
     1
 40
1.0
176
     1
 90
        0
176
     1
 62
    18
420
        0
176
     1
 90
       50
176
     1
 90
        3
176
     1
 62
     5
420
      255
176
     1
290
     0
176
     1
 90
       50
176
     1
 90
       50
176
     1
 90
       50
176
     1
290
     0
176
     1
 90
       50
176
     1
 62
   256
176
     0
 40
1.0
176
     0
 90
        2
176
     1
  1
strokes_ogs.tif
176
     1
290
     0
176
     1
 40
1.0
176
     1
 40
1.0
176
     1
  0
VISUALSTYLE
  5
E9
102
{ACAD_REACTORS
330
99
102
}
330
99
100
AcDbVisualStyle
  2
Sketchy
 70
    24
177
     3
291
     0
 70
    58
 90
        1
176
     1
 90
        2
176
     1
 90
        2
176
     1
 90
        0
176
     1
 40
0.6
176
     1
 40
30.0
176
     1
 62
     7
420
 16777215
176
     1
 90
        2
176
     1
 90
        2
176
     1
 62
     7
176
     1
 62
     7
176
     1
 90
        1
176
     1
 90
        1
176
     1
 40
40.0
176
     1
 90
       11
176
     1
 62
     7
176
     1
 40
1.0
176
     1
 90
        1
176
     1
 90
        6
176
     1
 90
        2
176
     1
 62
     7
176
     1
 90
        6
176
     1
 90
        0
176
     1
 90
        0
176
     1
290
     0
176
     1
 90
        1
176
     1
 40
0.0
176
     1
 90
        0
176
     1
290
     0
176
     1
290
     1
176
     1
290
     1
176
     1
290
     0
176
     1
290
     0
176
     1
290
     0
176
     1
290
     0
176
     1
290
     0
176
     1
290
     0
176
     1
 90
       50
176
     1
 40
0.0
176
     1
 40
1.0
176
     1
 90
        0
176
     1
 62
    18
420
        0
176
     1
 90
       50
176
     1
 90
        3
176
     1
 62
     5
420
      255
176
     1
290
     0
176
     1
 90
       50
176
     1
 90
       50
176
     1
 90
       50
176
     1
290
     0
176
     1
 90
       50
176
     1
 62
   256
176
     0
 40
1.0
176
     0
 90
        2
176
     1
  1
strokes_ogs.tif
176
     1
290
     0
176
     1
 40
1.0
176
     1
 40
1.0
176
     1
  0
VISUALSTYLE
  5
A6
102
{ACAD_REACTORS
330
99
102
}
330
99
100
AcDbVisualStyle
  2
Thicken
 70
    13
177
     3
291
     1
 70
    58
 90
        2
176
     1
 90
        2
176
     1
 90
        1
176
     1
 90
        0
176
     1
 40
-0.6
176
     1
 40
-30.0
176
     1
 62
     7
420
 16777215
176
     1
 90
        1
176
     1
 90
        4
176
     1
 62
     7
176
     1
 62
   257
176
     1
 90
        1
176
     1
 90
        1
176
     1
 40
1.0
176
     1
 90
       12
176
     1
 62
     7
176
     1
 40
1.0
176
     1
 90
        1
176
     1
 90
        6
176
     1
 90
        2
176
     1
 62
     7
176
     1
 90
        5
176
     1
 90
        0
176
     1
 90
        0
176
     1
290
     0
176
     1
 90
        1
176
     1
 40
0.0
176
     1
 90
        0
176
     1
290
     0
176
     1
290
     1
176
     1
290
     1
176
     1
290
     0
176
     1
290
     0
176
     1
290
     0
176
     1
290
     0
176
     1
290
     0
176
     1
290
     0
176
     1
 90
       50
176
     1
 40
0.0
176
     1
 40
1.0
176
     1
 90
        0
176
     1
 62
    18
420
        0
176
     1
 90
       50
176
     1
 90
        3
176
     1
 62
     5
420
      255
176
     1
290
     0
176
     1
 90
       50
176
     1
 90
       50
176
     1
 90
       50
176
     1
290
     0
176
     1
 90
       50
176
     1
 62
   256
176
     0
 40
1.0
176
     0
 90
        2
176
     1
  1
strokes_ogs.tif
176
     1
290
     0
176
     1
 40
1.0
176
     1
 40
1.0
176
     1
  0
VISUALSTYLE
  5
E3
102
{ACAD_REACTORS
330
99
102
}
330
99
100
AcDbVisualStyle
  2
Wireframe
 70
     5
177
     3
291
     0
 70
    58
 90
        0
176
     1
 90
        2
176
     1
 90
        0
176
     1
 90
        0
176
     1
 40
0.6
176
     1
 40
30.0
176
     1
 62
     7
420
 16777215
176
     1
 90
        1
176
     1
 90
        4
176
     1
 62
     7
176
     1
 62
   257
176
     1
 90
        1
176
     1
 90
        1
176
     1
 40
1.0
176
     1
 90
        0
176
     1
 62
   257
176
     1
 40
1.0
176
     1
 90
        1
176
     1
 90
        6
176
     1
 90
        2
176
     1
 62
     7
176
     1
 90
        3
176
     1
 90
        0
176
     1
 90
        0
176
     1
290
     0
176
     1
 90
        1
176
     1
 40
0.0
176
     1
 90
        0
176
     1
290
     0
176
     1
290
     1
176
     1
290
     1
176
     1
290
     0
176
     1
290
     0
176
     1
290
     0
176
     1
290
     0
176
     1
290
     0
176
     1
290
     0
176
     1
 90
       50
176
     1
 40
0.0
176
     1
 40
1.0
176
     1
 90
        0
176
     1
 62
    18
420
        0
176
     1
 90
       50
176
     1
 90
        3
176
     1
 62
     5
420
      255
176
     1
290
     0
176
     1
 90
       50
176
     1
 90
       50
176
     1
 90
       50
176
     1
290
     0
176
     1
 90
       50
176
     1
 62
   256
176
     0
 40
1.0
176
     0
 90
        2
176
     1
  1
strokes_ogs.tif
176
     1
290
     0
176
     1
 40
1.0
176
     1
 40
1.0
176
     1
  0
VISUALSTYLE
  5
EA
102
{ACAD_REACTORS
330
99
102
}
330
99
100
AcDbVisualStyle
  2
X-Ray
 70
    25
177
     3
291
     0
 70
    58
 90
        2
176
     1
 90
        2
176
     1
 90
        1
176
     1
 90
        1
176
     1
 40
0.5
176
     1
 40
30.0
176
     1
 62
     7
420
 16777215
176
     1
 90
        1
176
     1
 90
        0
176
     1
 62
     7
176
     1
 62
   257
176
     1
 90
        1
176
     1
 90
        1
176
     1
 40
1.0
176
     1
 90
        8
176
     1
 62
     7
176
     1
 40
1.0
176
     1
 90
        1
176
     1
 90
        6
176
     1
 90
        2
176
     1
 62
     7
176
     1
 90
        3
176
     1
 90
        0
176
     1
 90
        0
176
     1
290
     0
176
     1
 90
       13
176
     1
 40
0.0
176
     1
 90
        0
176
     1
290
     0
176
     1
290
     1
176
     1
290
     1
176
     1
290
     0
176
     1
290
     0
176
     1
290
     0
176
     1
290
     0
176
     1
290
     0
176
     1
290
     0
176
     1
 90
       50
176
     1
 40
0.0
176
     1
 40
1.0
176
     1
 90
        0
176
     1
 62
    18
420
        0
176
     1
 90
       50
176
     1
 90
        3
176
     1
 62
     5
420
      255
176
     1
290
     0
176
     1
 90
       50
176
     1
 90
       50
176
     1
 90
       50
176
     1
290
     0
176
     1
 90
       50
176
     1
 62
   256
176
     0
 40
1.0
176
     0
 90
        2
176
     1
  1
strokes_ogs.tif
176
     1
290
     0
176
     1
 40
1.0
176
     1
 40
1.0
176
     1
  0
DICTIONARYVAR
  5
D8
102
{ACAD_REACTORS
330
66
102
}
330
66
100
DictionaryVariables
280
     0
  1
1:1
  0
DICTIONARYVAR
  5
89
102
{ACAD_REACTORS
330
66
102
}
330
66
100
DictionaryVariables
280
     0
  1
Standard
  0
DICTIONARYVAR
  5
67
102
{ACAD_REACTORS
330
66
102
}
330
66
100
DictionaryVariables
280
     0
  1
2
  0
DICTIONARYVAR
  5
6B
102
{ACAD_REACTORS
330
66
102
}
330
66
100
DictionaryVariables
280
     0
  1
1
  0
DICTIONARYVAR
  5
DF
102
{ACAD_REACTORS
330
66
102
}
330
66
100
DictionaryVariables
280
     0
  1
0
  0
DICTIONARYVAR
  5
E0
102
{ACAD_REACTORS
330
66
102
}
330
66
100
DictionaryVariables
280
     0
  1
0
  0
DICTIONARY
  5
373
330
87
100
AcDbDictionary
280
     1
281
     1
  3
ACAD_ROUNDTRIP_2008_TABLESTYLE_CELLSTYLEMAP
360
374
  0
CELLSTYLEMAP
  5
374
102
{ACAD_REACTORS
330
373
102
}
330
373
100
AcDbCellStyleMap
 90
        3
300
CELLSTYLE
  1
TABLEFORMAT_BEGIN
 90
        5
170
     1
 91
        0
 92
    32768
 62
   257
 93
        1
300
CONTENTFORMAT
  1
CONTENTFORMAT_BEGIN
 90
        0
 91
        0
 92
      512
 93
        0
300

 40
0.0
140
1.0
 94
        5
 62
     0
340
11
144
0.25
309
CONTENTFORMAT_END
171
     0
 94
        6
 95
        1
302
GRIDFORMAT
  1
GRIDFORMAT_BEGIN
 90
        0
 91
        1
 62
     0
 92
       -2
340
0
 93
        0
 40
0.045
309
GRIDFORMAT_END
 95
        2
302
GRIDFORMAT
  1
GRIDFORMAT_BEGIN
 90
        0
 91
        1
 62
     0
 92
       -2
340
0
 93
        0
 40
0.045
309
GRIDFORMAT_END
 95
        4
302
GRIDFORMAT
  1
GRIDFORMAT_BEGIN
 90
        0
 91
        1
 62
     0
 92
       -2
340
0
 93
        0
 40
0.045
309
GRIDFORMAT_END
 95
        8
302
GRIDFORMAT
  1
GRIDFORMAT_BEGIN
 90
        0
 91
        1
 62
     0
 92
       -2
340
0
 93
        0
 40
0.045
309
GRIDFORMAT_END
 95
       16
302
GRIDFORMAT
  1
GRIDFORMAT_BEGIN
 90
        0
 91
        1
 62
     0
 92
       -2
340
0
 93
        0
 40
0.045
309
GRIDFORMAT_END
 95
       32
302
GRIDFORMAT
  1
GRIDFORMAT_BEGIN
 90
        0
 91
        1
 62
     0
 92
       -2
340
0
 93
        0
 40
0.045
309
GRIDFORMAT_END
309
TABLEFORMAT_END
  1
CELLSTYLE_BEGIN
 90
        1
 91
        1
300
_TITLE
309
CELLSTYLE_END
300
CELLSTYLE
  1
TABLEFORMAT_BEGIN
 90
        5
170
     1
 91
        0
 92
        0
 62
   257
 93
        1
300
CONTENTFORMAT
  1
CONTENTFORMAT_BEGIN
 90
        0
 91
        0
 92
      512
 93
        0
300

 40
0.0
140
1.0
 94
        5
 62
     0
340
11
144
0.18
309
CONTENTFORMAT_END
171
     0
 94
        6
 95
        1
302
GRIDFORMAT
  1
GRIDFORMAT_BEGIN
 90
        0
 91
        1
 62
     0
 92
       -2
340
0
 93
        0
 40
0.045
309
GRIDFORMAT_END
 95
        2
302
GRIDFORMAT
  1
GRIDFORMAT_BEGIN
 90
        0
 91
        1
 62
     0
 92
       -2
340
0
 93
        0
 40
0.045
309
GRIDFORMAT_END
 95
        4
302
GRIDFORMAT
  1
GRIDFORMAT_BEGIN
 90
        0
 91
        1
 62
     0
 92
       -2
340
0
 93
        0
 40
0.045
309
GRIDFORMAT_END
 95
        8
302
GRIDFORMAT
  1
GRIDFORMAT_BEGIN
 90
        0
 91
        1
 62
     0
 92
       -2
340
0
 93
        0
 40
0.045
309
GRIDFORMAT_END
 95
       16
302
GRIDFORMAT
  1
GRIDFORMAT_BEGIN
 90
        0
 91
        1
 62
     0
 92
       -2
340
0
 93
        0
 40
0.045
309
GRIDFORMAT_END
 95
       32
302
GRIDFORMAT
  1
GRIDFORMAT_BEGIN
 90
        0
 91
        1
 62
     0
 92
       -2
340
0
 93
        0
 40
0.045
309
GRIDFORMAT_END
309
TABLEFORMAT_END
  1
CELLSTYLE_BEGIN
 90
        2
 91
        1
300
_HEADER
309
CELLSTYLE_END
300
CELLSTYLE
  1
TABLEFORMAT_BEGIN
 90
        5
170
     1
 91
        0
 92
        0
 62
   257
 93
        1
300
CONTENTFORMAT
  1
CONTENTFORMAT_BEGIN
 90
        0
 91
        0
 92
      512
 93
        0
300

 40
0.0
140
1.0
 94
        2
 62
     0
340
11
144
0.18
309
CONTENTFORMAT_END
171
     0
 94
        6
 95
        1
302
GRIDFORMAT
  1
GRIDFORMAT_BEGIN
 90
        0
 91
        1
 62
     0
 92
       -2
340
0
 93
        0
 40
0.045
309
GRIDFORMAT_END
 95
        2
302
GRIDFORMAT
  1
GRIDFORMAT_BEGIN
 90
        0
 91
        1
 62
     0
 92
       -2
340
0
 93
        0
 40
0.045
309
GRIDFORMAT_END
 95
        4
302
GRIDFORMAT
  1
GRIDFORMAT_BEGIN
 90
        0
 91
        1
 62
     0
 92
       -2
340
0
 93
        0
 40
0.045
309
GRIDFORMAT_END
 95
        8
302
GRIDFORMAT
  1
GRIDFORMAT_BEGIN
 90
        0
 91
        1
 62
     0
 92
       -2
340
0
 93
        0
 40
0.045
309
GRIDFORMAT_END
 95
       16
302
GRIDFORMAT
  1
GRIDFORMAT_BEGIN
 90
        0
 91
        1
 62
     0
 92
       -2
340
0
 93
        0
 40
0.045
309
GRIDFORMAT_END
 95
       32
302
GRIDFORMAT
  1
GRIDFORMAT_BEGIN
 90
        0
 91
        1
 62
     0
 92
       -2
340
0
 93
        0
 40
0.045
309
GRIDFORMAT_END
309
TABLEFORMAT_END
  1
CELLSTYLE_BEGIN
 90
        3
 91
        2
300
_DATA
309
CELLSTYLE_END
  0
ENDSEC
  0
EOF
