  0
SECTION
  2
HEADER
  9
$ACADVER
  1
AC1027
  9
$ACADMAINTVER
 70
     8
  9
$DWGCODEPAGE
  3
ANSI_932
  9
$REQUIREDVERSIONS
160
                 0
  9
$LASTSAVEDBY
  1
Yasu
  9
$INSBASE
 10
0.0
 20
0.0
 30
0.0
  9
$EXTMIN
 10
0.9781439135297814
 20
-5.006208138409846
 30
0.0
  9
$EXTMAX
 10
151.234792879643
 20
189.3976122858711
 30
0.0
  9
$LIMMIN
 10
0.0
 20
0.0
  9
$LIMMAX
 10
12.0
 20
9.0
  9
$ORTHOMODE
 70
     0
  9
$REGENMODE
 70
     1
  9
$FILLMODE
 70
     1
  9
$QTEXTMODE
 70
     0
  9
$MIRRTEXT
 70
     0
  9
$LTSCALE
 40
1.0
  9
$ATTMODE
 70
     1
  9
$TEXTSIZE
 40
0.2
  9
$TRACEWID
 40
0.05
  9
$TEXTSTYLE
  7
Standard
  9
$CLAYER
  8
0
  9
$CELTYPE
  6
ByLayer
  9
$CECOLOR
 62
   256
  9
$CELTSCALE
 40
1.0
  9
$DISPSILH
 70
     0
  9
$DIMSCALE
 40
1.0
  9
$DIMASZ
 40
0.18
  9
$DIMEXO
 40
0.0625
  9
$DIMDLI
 40
0.38
  9
$DIMRND
 40
0.0
  9
$DIMDLE
 40
0.0
  9
$DIMEXE
 40
0.18
  9
$DIMTP
 40
0.0
  9
$DIMTM
 40
0.0
  9
$DIMTXT
 40
0.18
  9
$DIMCEN
 40
0.09
  9
$DIMTSZ
 40
0.0
  9
$DIMTOL
 70
     0
  9
$DIMLIM
 70
     0
  9
$DIMTIH
 70
     1
  9
$DIMTOH
 70
     1
  9
$DIMSE1
 70
     0
  9
$DIMSE2
 70
     0
  9
$DIMTAD
 70
     0
  9
$DIMZIN
 70
     0
  9
$DIMBLK
  1

  9
$DIMASO
 70
     1
  9
$DIMSHO
 70
     1
  9
$DIMPOST
  1

  9
$DIMAPOST
  1

  9
$DIMALT
 70
     0
  9
$DIMALTD
 70
     2
  9
$DIMALTF
 40
25.4
  9
$DIMLFAC
 40
1.0
  9
$DIMTOFL
 70
     0
  9
$DIMTVP
 40
0.0
  9
$DIMTIX
 70
     0
  9
$DIMSOXD
 70
     0
  9
$DIMSAH
 70
     0
  9
$DIMBLK1
  1

  9
$DIMBLK2
  1

  9
$DIMSTYLE
  2
Standard
  9
$DIMCLRD
 70
     0
  9
$DIMCLRE
 70
     0
  9
$DIMCLRT
 70
     0
  9
$DIMTFAC
 40
1.0
  9
$DIMGAP
 40
0.09
  9
$DIMJUST
 70
     0
  9
$DIMSD1
 70
     0
  9
$DIMSD2
 70
     0
  9
$DIMTOLJ
 70
     1
  9
$DIMTZIN
 70
     0
  9
$DIMALTZ
 70
     0
  9
$DIMALTTZ
 70
     0
  9
$DIMUPT
 70
     0
  9
$DIMDEC
 70
     4
  9
$DIMTDEC
 70
     4
  9
$DIMALTU
 70
     2
  9
$DIMALTTD
 70
     2
  9
$DIMTXSTY
  7
Standard
  9
$DIMAUNIT
 70
     0
  9
$DIMADEC
 70
     0
  9
$DIMALTRND
 40
0.0
  9
$DIMAZIN
 70
     0
  9
$DIMDSEP
 70
    46
  9
$DIMATFIT
 70
     3
  9
$DIMFRAC
 70
     0
  9
$DIMLDRBLK
  1

  9
$DIMLUNIT
 70
     2
  9
$DIMLWD
 70
    -2
  9
$DIMLWE
 70
    -2
  9
$DIMTMOVE
 70
     0
  9
$DIMFXL
 40
1.0
  9
$DIMFXLON
 70
     0
  9
$DIMJOGANG
 40
0.7853981633974483
  9
$DIMTFILL
 70
     0
  9
$DIMTFILLCLR
 70
     0
  9
$DIMARCSYM
 70
     0
  9
$DIMLTYPE
  6

  9
$DIMLTEX1
  6

  9
$DIMLTEX2
  6

  9
$DIMTXTDIRECTION
 70
     0
  9
$LUNITS
 70
     2
  9
$LUPREC
 70
     4
  9
$SKETCHINC
 40
0.1
  9
$FILLETRAD
 40
0.0
  9
$AUNITS
 70
     0
  9
$AUPREC
 70
     0
  9
$MENU
  1
.
  9
$ELEVATION
 40
0.0
  9
$PELEVATION
 40
0.0
  9
$THICKNESS
 40
0.0
  9
$LIMCHECK
 70
     0
  9
$CHAMFERA
 40
0.0
  9
$CHAMFERB
 40
0.0
  9
$CHAMFERC
 40
0.0
  9
$CHAMFERD
 40
0.0
  9
$SKPOLY
 70
     0
  9
$TDCREATE
 40
2452643.438384271
  9
$TDUCREATE
 40
2452643.063384271
  9
$TDUPDATE
 40
2456739.88678441
  9
$TDUUPDATE
 40
2456739.51178441
  9
$TDINDWG
 40
0.0016966898
  9
$TDUSRTIMER
 40
2456739.510881261
  9
$USRTIMER
 70
     1
  9
$ANGBASE
 50
0.0
  9
$ANGDIR
 70
     0
  9
$PDMODE
 70
     0
  9
$PDSIZE
 40
0.0
  9
$PLINEWID
 40
0.0
  9
$SPLFRAME
 70
     0
  9
$SPLINETYPE
 70
     6
  9
$SPLINESEGS
 70
     8
  9
$HANDSEED
  5
413
  9
$SURFTAB1
 70
     6
  9
$SURFTAB2
 70
     6
  9
$SURFTYPE
 70
     6
  9
$SURFU
 70
     6
  9
$SURFV
 70
     6
  9
$UCSBASE
  2

  9
$UCSNAME
  2

  9
$UCSORG
 10
0.0
 20
0.0
 30
0.0
  9
$UCSXDIR
 10
1.0
 20
0.0
 30
0.0
  9
$UCSYDIR
 10
0.0
 20
1.0
 30
0.0
  9
$UCSORTHOREF
  2

  9
$UCSORTHOVIEW
 70
     0
  9
$UCSORGTOP
 10
0.0
 20
0.0
 30
0.0
  9
$UCSORGBOTTOM
 10
0.0
 20
0.0
 30
0.0
  9
$UCSORGLEFT
 10
0.0
 20
0.0
 30
0.0
  9
$UCSORGRIGHT
 10
0.0
 20
0.0
 30
0.0
  9
$UCSORGFRONT
 10
0.0
 20
0.0
 30
0.0
  9
$UCSORGBACK
 10
0.0
 20
0.0
 30
0.0
  9
$PUCSBASE
  2

  9
$PUCSNAME
  2

  9
$PUCSORG
 10
0.0
 20
0.0
 30
0.0
  9
$PUCSXDIR
 10
1.0
 20
0.0
 30
0.0
  9
$PUCSYDIR
 10
0.0
 20
1.0
 30
0.0
  9
$PUCSORTHOREF
  2

  9
$PUCSORTHOVIEW
 70
     0
  9
$PUCSORGTOP
 10
0.0
 20
0.0
 30
0.0
  9
$PUCSORGBOTTOM
 10
0.0
 20
0.0
 30
0.0
  9
$PUCSORGLEFT
 10
0.0
 20
0.0
 30
0.0
  9
$PUCSORGRIGHT
 10
0.0
 20
0.0
 30
0.0
  9
$PUCSORGFRONT
 10
0.0
 20
0.0
 30
0.0
  9
$PUCSORGBACK
 10
0.0
 20
0.0
 30
0.0
  9
$USERI1
 70
     0
  9
$USERI2
 70
     0
  9
$USERI3
 70
     0
  9
$USERI4
 70
     0
  9
$USERI5
 70
     0
  9
$USERR1
 40
0.0
  9
$USERR2
 40
0.0
  9
$USERR3
 40
0.0
  9
$USERR4
 40
0.0
  9
$USERR5
 40
0.0
  9
$WORLDVIEW
 70
     1
  9
$SHADEDGE
 70
     3
  9
$SHADEDIF
 70
    70
  9
$TILEMODE
 70
     1
  9
$MAXACTVP
 70
    64
  9
$PINSBASE
 10
0.0
 20
0.0
 30
0.0
  9
$PLIMCHECK
 70
     0
  9
$PEXTMIN
 10
0.0
 20
0.0
 30
0.0
  9
$PEXTMAX
 10
0.0
 20
0.0
 30
0.0
  9
$PLIMMIN
 10
0.0
 20
0.0
  9
$PLIMMAX
 10
0.0
 20
0.0
  9
$UNITMODE
 70
     0
  9
$VISRETAIN
 70
     1
  9
$PLINEGEN
 70
     0
  9
$PSLTSCALE
 70
     1
  9
$TREEDEPTH
 70
  3020
  9
$CMLSTYLE
  2
Standard
  9
$CMLJUST
 70
     0
  9
$CMLSCALE
 40
1.0
  9
$PROXYGRAPHICS
 70
     1
  9
$MEASUREMENT
 70
     0
  9
$CELWEIGHT
370
    -1
  9
$ENDCAPS
280
     0
  9
$JOINSTYLE
280
     0
  9
$LWDISPLAY
290
     0
  9
$INSUNITS
 70
     1
  9
$HYPERLINKBASE
  1

  9
$STYLESHEET
  1

  9
$XEDIT
290
     1
  9
$CEPSNTYPE
380
     0
  9
$PSTYLEMODE
290
     1
  9
$FINGERPRINTGUID
  2
{FDEAD576-A652-11D2-9A35-0060089B3A3F}
  9
$VERSIONGUID
  2
{FBC2AE19-5C5C-49EC-81BC-71B1A3362A02}
  9
$EXTNAMES
290
     1
  9
$PSVPSCALE
 40
0.0
  9
$OLESTARTUP
290
     0
  9
$SORTENTS
280
   127
  9
$INDEXCTL
280
     0
  9
$HIDETEXT
280
     1
  9
$XCLIPFRAME
280
     0
  9
$HALOGAP
280
     0
  9
$OBSCOLOR
 70
   257
  9
$OBSLTYPE
280
     0
  9
$INTERSECTIONDISPLAY
280
     0
  9
$INTERSECTIONCOLOR
 70
   257
  9
$DIMASSOC
280
     2
  9
$PROJECTNAME
  1

  9
$CAMERADISPLAY
290
     0
  9
$LENSLENGTH
 40
50.0
  9
$CAMERAHEIGHT
 40
0.0
  9
$STEPSPERSEC
 40
2.0
  9
$STEPSIZE
 40
6.0
  9
$3DDWFPREC
 40
2.0
  9
$PSOLWIDTH
 40
0.25
  9
$PSOLHEIGHT
 40
4.0
  9
$LOFTANG1
 40
1.570796326794897
  9
$LOFTANG2
 40
1.570796326794897
  9
$LOFTMAG1
 40
0.0
  9
$LOFTMAG2
 40
0.0
  9
$LOFTPARAM
 70
     7
  9
$LOFTNORMALS
280
     1
  9
$LATITUDE
 40
37.795
  9
$LONGITUDE
 40
-122.394
  9
$NORTHDIRECTION
 40
0.0
  9
$TIMEZONE
 70
 -8000
  9
$LIGHTGLYPHDISPLAY
280
     1
  9
$TILEMODELIGHTSYNCH
280
     1
  9
$CMATERIAL
347
96
  9
$SOLIDHIST
280
     1
  9
$SHOWHIST
280
     1
  9
$DWFFRAME
280
     2
  9
$DGNFRAME
280
     0
  9
$REALWORLDSCALE
290
     1
  9
$INTERFERECOLOR
 62
     1
  9
$CSHADOW
280
     0
  9
$SHADOWPLANELOCATION
 40
0.0
  0
ENDSEC
  0
SECTION
  2
CLASSES
  0
CLASS
  1
ACDBDICTIONARYWDFLT
  2
AcDbDictionaryWithDefault
  3
ObjectDBX Classes
 90
        0
 91
        7
280
     0
281
     0
  0
CLASS
  1
ACDBPLACEHOLDER
  2
AcDbPlaceHolder
  3
ObjectDBX Classes
 90
        0
 91
        1
280
     0
281
     0
  0
CLASS
  1
LAYOUT
  2
AcDbLayout
  3
ObjectDBX Classes
 90
        0
 91
        1
280
     0
281
     0
  0
CLASS
  1
DICTIONARYVAR
  2
AcDbDictionaryVar
  3
ObjectDBX Classes
 90
        0
 91
        5
280
     0
281
     0
  0
CLASS
  1
TABLESTYLE
  2
AcDbTableStyle
  3
ObjectDBX Classes
 90
     4095
 91
        7
280
     0
281
     0
  0
CLASS
  1
MATERIAL
  2
AcDbMaterial
  3
ObjectDBX Classes
 90
     1153
 91
        7
280
     0
281
     0
  0
CLASS
  1
VISUALSTYLE
  2
AcDbVisualStyle
  3
ObjectDBX Classes
 90
     4095
 91
        7
280
     0
281
     0
  0
CLASS
  1
SCALE
  2
AcDbScale
  3
ObjectDBX Classes
 90
     1153
 91
        7
280
     0
281
     0
  0
CLASS
  1
CELLSTYLEMAP
  2
AcDbCellStyleMap
  3
ObjectDBX Classes
 90
     1152
 91
        5
280
     0
281
     0
  0
CLASS
  1
RASTERVARIABLES
  2
AcDbRasterVariables
  3
ISM
 90
        0
 91
        7
280
     0
281
     0
  0
CLASS
  1
SUN
  2
AcDbSun
  3
SCENEOE
 90
     1153
 91
        7
280
     0
281
     0
  0
CLASS
  1
DIMASSOC
  2
AcDbDimAssoc
  3
"AcDbDimAssoc|Product Desc:     AcDim ARX App For Dimension|Company:          Autodesk, Inc.|WEB Address:      www.autodesk.com"
 90
        0
 91
        5
280
     0
281
     0
  0
ENDSEC
  0
SECTION
  2
TABLES
  0
TABLE
  2
VPORT
  5
8
330
0
100
AcDbSymbolTable
 70
     1
  0
VPORT
  5
94
330
8
100
AcDbSymbolTableRecord
100
AcDbViewportTableRecord
  2
*Active
 70
     0
 10
0.0
 20
0.0
 11
1.0
 21
1.0
 12
103.7760619625662
 22
111.7344050315927
 13
0.0
 23
0.0
 14
0.5
 24
0.5
 15
0.5
 25
0.5
 16
0.0
 26
0.0
 36
1.0
 17
-27.66959356597981
 27
-19.53870295786203
 37
0.0
 40
198.2918968327666
 41
1.762376237623762
 42
50.0
 43
0.0
 44
0.0
 50
0.0
 51
0.0
 71
    16
 72
  1000
 73
     1
 74
     3
 75
     0
 76
     0
 77
     0
 78
     0
281
     0
 65
     1
110
0.0
120
0.0
130
0.0
111
1.0
121
0.0
131
0.0
112
0.0
122
1.0
132
0.0
 79
     0
146
0.0
348
9F
 60
     2
 61
     5
292
     1
282
     1
141
0.0
142
0.0
 63
   250
421
  3355443
361
ED
  0
ENDTAB
  0
TABLE
  2
LTYPE
  5
5
330
0
100
AcDbSymbolTable
 70
     2
  0
LTYPE
  5
14
330
5
100
AcDbSymbolTableRecord
100
AcDbLinetypeTableRecord
  2
ByBlock
 70
     0
  3

 72
    65
 73
     0
 40
0.0
  0
LTYPE
  5
15
330
5
100
AcDbSymbolTableRecord
100
AcDbLinetypeTableRecord
  2
ByLayer
 70
     0
  3

 72
    65
 73
     0
 40
0.0
  0
LTYPE
  5
16
330
5
100
AcDbSymbolTableRecord
100
AcDbLinetypeTableRecord
  2
Continuous
 70
     0
  3
Solid line
 72
    65
 73
     0
 40
0.0
  0
LTYPE
  5
12A
330
5
100
AcDbSymbolTableRecord
100
AcDbLinetypeTableRecord
  2
CENTER
 70
     0
  3
Center ____ _ ____ _ ____ _ ____ _ ____ _ ____
 72
    65
 73
     4
 40
50.8
 49
31.75
 74
     0
 49
-6.35
 74
     0
 49
6.35
 74
     0
 49
-6.35
 74
     0
  0
ENDTAB
  0
TABLE
  2
LAYER
  5
2
330
0
100
AcDbSymbolTable
 70
     7
  0
LAYER
  5
10
330
2
100
AcDbSymbolTableRecord
100
AcDbLayerTableRecord
  2
0
 70
     0
 62
     7
  6
Continuous
370
    -3
390
F
347
98
348
0
  0
LAYER
  5
125
330
2
100
AcDbSymbolTableRecord
100
AcDbLayerTableRecord
  2
Defpoints
 70
     0
 62
     7
  6
Continuous
290
     0
370
    -3
390
F
347
98
348
0
  0
LAYER
  5
126
330
2
100
AcDbSymbolTableRecord
100
AcDbLayerTableRecord
  2
枠
 70
     0
 62
     1
  6
Continuous
370
    30
390
F
347
98
348
0
  0
LAYER
  5
128
330
2
100
AcDbSymbolTableRecord
100
AcDbLayerTableRecord
  2
文字
 70
     0
 62
     7
  6
Continuous
370
    25
390
F
347
98
348
0
  0
LAYER
  5
129
330
2
100
AcDbSymbolTableRecord
100
AcDbLayerTableRecord
  2
中心線
 70
     0
 62
     7
  6
CENTER
370
    30
390
F
347
98
348
0
  0
LAYER
  5
12B
330
2
100
AcDbSymbolTableRecord
100
AcDbLayerTableRecord
  2
実線
 70
     0
 62
     7
  6
Continuous
370
    50
390
F
347
98
348
0
  0
LAYER
  5
2B8
330
2
100
AcDbSymbolTableRecord
100
AcDbLayerTableRecord
  2
文字・寸法線
 70
     0
 62
     7
  6
Continuous
370
    13
390
F
347
98
348
0
  0
ENDTAB
  0
TABLE
  2
STYLE
  5
3
330
0
100
AcDbSymbolTable
 70
     1
  0
STYLE
  5
11
330
3
100
AcDbSymbolTableRecord
100
AcDbTextStyleTableRecord
  2
Standard
 70
     0
 40
0.0
 41
1.0
 50
0.0
 71
     0
 42
0.2
  3
arial.ttf
  4

1001
ACAD
1000
Arial
1071
        0
  0
ENDTAB
  0
TABLE
  2
VIEW
  5
6
330
0
100
AcDbSymbolTable
 70
     0
  0
ENDTAB
  0
TABLE
  2
UCS
  5
7
330
0
100
AcDbSymbolTable
 70
     0
  0
ENDTAB
  0
TABLE
  2
APPID
  5
9
330
0
100
AcDbSymbolTable
 70
     1
  0
APPID
  5
12
330
9
100
AcDbSymbolTableRecord
100
AcDbRegAppTableRecord
  2
ACAD
 70
     0
  0
ENDTAB
  0
TABLE
  2
DIMSTYLE
  5
A
330
0
100
AcDbSymbolTable
 70
     2
100
AcDbDimStyleTable
  0
DIMSTYLE
105
27
330
A
100
AcDbSymbolTableRecord
100
AcDbDimStyleTableRecord
  2
Standard
 70
     0
178
     0
340
11
  0
DIMSTYLE
105
12C
102
{ACAD_REACTORS
330
213
330
225
330
228
330
23D
330
24D
330
3A5
330
3B6
330
3C3
330
3E2
330
3E5
330
3E6
102
}
330
A
100
AcDbSymbolTableRecord
100
AcDbDimStyleTableRecord
  2
ISO-25
 70
     0
 41
2.5
 42
0.625
 43
3.75
 44
1.25
 73
     0
 74
     0
 77
     1
 78
     8
140
2.5
141
2.5
143
0.03937007874016
147
0.625
171
     3
172
     1
178
     0
271
     2
272
     2
274
     3
283
     0
284
     8
340
11
  0
ENDTAB
  0
TABLE
  2
BLOCK_RECORD
  5
1
330
0
100
AcDbSymbolTable
 70
    24
  0
BLOCK_RECORD
  5
1F
330
1
100
AcDbSymbolTableRecord
100
AcDbBlockTableRecord
  2
*Model_Space
340
22
 70
     0
280
     1
281
     0
  0
BLOCK_RECORD
  5
58
330
1
100
AcDbSymbolTableRecord
100
AcDbBlockTableRecord
  2
*Paper_Space
340
59
 70
     0
280
     1
281
     0
  0
BLOCK_RECORD
  5
5D
330
1
100
AcDbSymbolTableRecord
100
AcDbBlockTableRecord
  2
*Paper_Space0
340
5E
 70
     0
280
     1
281
     0
  0
BLOCK_RECORD
  5
15E
330
1
100
AcDbSymbolTableRecord
100
AcDbBlockTableRecord
  2
*D1
340
0
 70
     0
280
     1
281
     0
  0
BLOCK_RECORD
  5
16D
330
1
100
AcDbSymbolTableRecord
100
AcDbBlockTableRecord
  2
*D2
340
0
 70
     0
280
     1
281
     0
  0
BLOCK_RECORD
  5
184
330
1
100
AcDbSymbolTableRecord
100
AcDbBlockTableRecord
  2
*D3
340
0
 70
     0
280
     1
281
     0
  0
BLOCK_RECORD
  5
193
330
1
100
AcDbSymbolTableRecord
100
AcDbBlockTableRecord
  2
*D4
340
0
 70
     0
280
     1
281
     0
  0
BLOCK_RECORD
  5
1A5
330
1
100
AcDbSymbolTableRecord
100
AcDbBlockTableRecord
  2
*D5
340
0
 70
     0
280
     1
281
     0
  0
BLOCK_RECORD
  5
1B4
330
1
100
AcDbSymbolTableRecord
100
AcDbBlockTableRecord
  2
*D6
340
0
 70
     0
280
     1
281
     0
  0
BLOCK_RECORD
  5
1D3
330
1
100
AcDbSymbolTableRecord
100
AcDbBlockTableRecord
  2
*D7
340
0
 70
     0
280
     1
281
     0
  0
BLOCK_RECORD
  5
1F1
330
1
100
AcDbSymbolTableRecord
100
AcDbBlockTableRecord
  2
*D8
340
0
 70
     0
280
     1
281
     0
  0
BLOCK_RECORD
  5
250
330
1
100
AcDbSymbolTableRecord
100
AcDbBlockTableRecord
  2
*D9
340
0
 70
     0
280
     1
281
     0
  0
BLOCK_RECORD
  5
25C
330
1
100
AcDbSymbolTableRecord
100
AcDbBlockTableRecord
  2
*D10
340
0
 70
     0
280
     1
281
     0
  0
BLOCK_RECORD
  5
268
330
1
100
AcDbSymbolTableRecord
100
AcDbBlockTableRecord
  2
*D11
340
0
 70
     0
280
     1
281
     0
  0
BLOCK_RECORD
  5
274
330
1
100
AcDbSymbolTableRecord
100
AcDbBlockTableRecord
  2
*D12
340
0
 70
     0
280
     1
281
     0
  0
BLOCK_RECORD
  5
282
330
1
100
AcDbSymbolTableRecord
100
AcDbBlockTableRecord
  2
*D13
340
0
 70
     0
280
     1
281
     0
  0
BLOCK_RECORD
  5
28E
330
1
100
AcDbSymbolTableRecord
100
AcDbBlockTableRecord
  2
*D14
340
0
 70
     0
280
     1
281
     0
  0
BLOCK_RECORD
  5
29A
330
1
100
AcDbSymbolTableRecord
100
AcDbBlockTableRecord
  2
*D15
340
0
 70
     0
280
     1
281
     0
  0
BLOCK_RECORD
  5
2A6
330
1
100
AcDbSymbolTableRecord
100
AcDbBlockTableRecord
  2
*D16
340
0
 70
     0
280
     1
281
     0
  0
BLOCK_RECORD
  5
3A8
330
1
100
AcDbSymbolTableRecord
100
AcDbBlockTableRecord
  2
*D18
340
0
 70
     0
280
     1
281
     0
  0
BLOCK_RECORD
  5
3B7
330
1
100
AcDbSymbolTableRecord
100
AcDbBlockTableRecord
  2
*D19
340
0
 70
     0
280
     1
281
     0
  0
BLOCK_RECORD
  5
3C6
330
1
100
AcDbSymbolTableRecord
100
AcDbBlockTableRecord
  2
*D20
340
0
 70
     0
280
     1
281
     0
  0
BLOCK_RECORD
  5
3EA
330
1
100
AcDbSymbolTableRecord
100
AcDbBlockTableRecord
  2
*D21
340
0
 70
     0
280
     1
281
     0
  0
BLOCK_RECORD
  5
3F8
330
1
100
AcDbSymbolTableRecord
100
AcDbBlockTableRecord
  2
*D22
340
0
 70
     0
280
     1
281
     0
  0
BLOCK_RECORD
  5
404
330
1
100
AcDbSymbolTableRecord
100
AcDbBlockTableRecord
  2
*D23
340
0
 70
     0
280
     1
281
     0
  0
ENDTAB
  0
ENDSEC
  0
SECTION
  2
BLOCKS
  0
BLOCK
  5
20
330
1F
100
AcDbEntity
  8
0
100
AcDbBlockBegin
  2
*Model_Space
 70
     0
 10
0.0
 20
0.0
 30
0.0
  3
*Model_Space
  1
*Model_Space
  0
ENDBLK
  5
21
330
1F
100
AcDbEntity
  8
0
100
AcDbBlockEnd
  0
BLOCK
  5
5A
330
58
100
AcDbEntity
 67
     1
  8
0
100
AcDbBlockBegin
  2
*Paper_Space
 70
     0
 10
0.0
 20
0.0
 30
0.0
  3
*Paper_Space
  1
*Paper_Space
  0
ENDBLK
  5
5B
330
58
100
AcDbEntity
 67
     1
  8
0
100
AcDbBlockEnd
  0
BLOCK
  5
5F
330
5D
100
AcDbEntity
  8
0
100
AcDbBlockBegin
  2
*Paper_Space0
 70
     0
 10
0.0
 20
0.0
 30
0.0
  3
*Paper_Space0
  1
*Paper_Space0
  0
ENDBLK
  5
60
330
5D
100
AcDbEntity
  8
0
100
AcDbBlockEnd
  0
BLOCK
  5
15F
330
15E
100
AcDbEntity
  8
0
370
    30
100
AcDbBlockBegin
  2
*D1
 70
     1
 10
0.0
 20
0.0
 30
0.0
  3
*D1
  1
*D2
  0
LINE
  5
160
330
15E
100
AcDbEntity
  8
文字
 62
     0
370
    -2
100
AcDbLine
 10
16.06164127958865
 20
28.90104599318451
 30
0.0
 11
16.06164127958865
 21
6.598801702800174
 31
0.0
  0
LINE
  5
161
330
15E
100
AcDbEntity
  8
文字
 62
     0
370
    -2
100
AcDbLine
 10
54.06164127958865
 20
28.9010459931845
 30
0.0
 11
54.06164127958865
 21
6.598801702800174
 31
0.0
  0
LINE
  5
162
330
15E
100
AcDbEntity
  8
文字
 62
     0
370
    -2
100
AcDbLine
 10
18.56164127958865
 20
7.848801702800174
 30
0.0
 11
51.56164127958865
 21
7.848801702800174
 31
0.0
  0
SOLID
  5
163
330
15E
100
AcDbEntity
  8
文字
 62
     0
100
AcDbTrace
 10
18.56164127958865
 20
8.26546836946684
 30
0.0
 11
18.56164127958865
 21
7.432135036133507
 31
0.0
 12
16.06164127958865
 22
7.848801702800174
 32
0.0
 13
16.06164127958865
 23
7.848801702800174
 33
0.0
  0
SOLID
  5
164
330
15E
100
AcDbEntity
  8
文字
 62
     0
100
AcDbTrace
 10
51.56164127958865
 20
7.432135036133507
 30
0.0
 11
51.56164127958865
 21
8.26546836946684
 31
0.0
 12
54.06164127958865
 22
7.848801702800174
 32
0.0
 13
54.06164127958865
 23
7.848801702800174
 33
0.0
  0
MTEXT
  5
165
330
15E
100
AcDbEntity
  8
文字
 62
     0
100
AcDbMText
 10
35.06164127958865
 20
9.797130488611906
 30
0.0
 40
2.5
 41
0.0
 46
0.0
 71
     5
 72
     1
  1
%%c38
 73
     1
 44
1.0
  0
POINT
  5
166
330
15E
100
AcDbEntity
  8
Defpoints
 62
     0
100
AcDbPoint
 10
16.06164127958865
 20
29.52604599318451
 30
0.0
  0
POINT
  5
167
330
15E
100
AcDbEntity
  8
Defpoints
 62
     0
100
AcDbPoint
 10
54.06164127958865
 20
29.5260459931845
 30
0.0
  0
POINT
  5
168
330
15E
100
AcDbEntity
  8
Defpoints
 62
     0
100
AcDbPoint
 10
54.06164127958865
 20
7.848801702800174
 30
0.0
  0
ENDBLK
  5
169
330
15E
100
AcDbEntity
  8
0
370
    30
100
AcDbBlockEnd
  0
BLOCK
  5
16E
330
16D
100
AcDbEntity
  8
0
370
    30
100
AcDbBlockBegin
  2
*D2
 70
     1
 10
0.0
 20
0.0
 30
0.0
  3
*D2
  1
*D3
  0
LINE
  5
16F
330
16D
100
AcDbEntity
  8
文字
 62
     0
370
    -2
100
AcDbLine
 10
151.5484303754644
 20
94.95785018714102
 30
0.0
 11
151.5484303754644
 21
54.4870693709278
 31
0.0
  0
LINE
  5
170
330
16D
100
AcDbEntity
  8
文字
 62
     0
370
    -2
100
AcDbLine
 10
179.5484303754644
 20
94.95785018714102
 30
0.0
 11
179.5484303754644
 21
54.4870693709278
 31
0.0
  0
LINE
  5
171
330
16D
100
AcDbEntity
  8
文字
 62
     0
370
    -2
100
AcDbLine
 10
154.0484303754644
 20
55.7370693709278
 30
0.0
 11
177.0484303754644
 21
55.7370693709278
 31
0.0
  0
SOLID
  5
172
330
16D
100
AcDbEntity
  8
文字
 62
     0
100
AcDbTrace
 10
154.0484303754644
 20
56.15373603759446
 30
0.0
 11
154.0484303754644
 21
55.32040270426113
 31
0.0
 12
151.5484303754644
 22
55.7370693709278
 32
0.0
 13
151.5484303754644
 23
55.7370693709278
 33
0.0
  0
SOLID
  5
173
330
16D
100
AcDbEntity
  8
文字
 62
     0
100
AcDbTrace
 10
177.0484303754644
 20
55.32040270426113
 30
0.0
 11
177.0484303754644
 21
56.15373603759446
 31
0.0
 12
179.5484303754644
 22
55.7370693709278
 32
0.0
 13
179.5484303754644
 23
55.7370693709278
 33
0.0
  0
MTEXT
  5
174
330
16D
100
AcDbEntity
  8
文字
 62
     0
100
AcDbMText
 10
165.5484303754644
 20
57.68539815673953
 30
0.0
 40
2.5
 41
0.0
 46
0.0
 71
     5
 72
     1
  1
%%c28
 73
     1
 44
1.0
  0
POINT
  5
175
330
16D
100
AcDbEntity
  8
Defpoints
 62
     0
100
AcDbPoint
 10
151.5484303754644
 20
95.58285018714102
 30
0.0
  0
POINT
  5
176
330
16D
100
AcDbEntity
  8
Defpoints
 62
     0
100
AcDbPoint
 10
179.5484303754644
 20
95.58285018714102
 30
0.0
  0
POINT
  5
177
330
16D
100
AcDbEntity
  8
Defpoints
 62
     0
100
AcDbPoint
 10
179.5484303754644
 20
55.7370693709278
 30
0.0
  0
ENDBLK
  5
178
330
16D
100
AcDbEntity
  8
0
370
    30
100
AcDbBlockEnd
  0
BLOCK
  5
185
330
184
100
AcDbEntity
  8
0
370
    30
100
AcDbBlockBegin
  2
*D3
 70
     1
 10
0.0
 20
0.0
 30
0.0
  3
*D3
  1
*D4
  0
LINE
  5
186
330
184
100
AcDbEntity
  8
文字
 62
     0
370
    -2
100
AcDbLine
 10
40.70287217196549
 20
42.10951206021623
 30
0.0
 11
81.69537245610448
 21
42.10951206021623
 31
0.0
  0
LINE
  5
187
330
184
100
AcDbEntity
  8
文字
 62
     0
370
    -2
100
AcDbLine
 10
54.68664127958865
 20
29.5260459931845
 30
0.0
 11
81.69537245610448
 21
29.5260459931845
 31
0.0
  0
LINE
  5
188
330
184
100
AcDbEntity
  8
文字
 62
     0
370
    -2
100
AcDbLine
 10
80.44537245610448
 20
39.60951206021623
 30
0.0
 11
80.44537245610448
 21
32.0260459931845
 31
0.0
  0
SOLID
  5
189
330
184
100
AcDbEntity
  8
文字
 62
     0
100
AcDbTrace
 10
80.86203912277115
 20
39.60951206021623
 30
0.0
 11
80.02870578943781
 21
39.60951206021623
 31
0.0
 12
80.44537245610448
 22
42.10951206021623
 32
0.0
 13
80.44537245610448
 23
42.10951206021623
 33
0.0
  0
SOLID
  5
18A
330
184
100
AcDbEntity
  8
文字
 62
     0
100
AcDbTrace
 10
80.02870578943781
 20
32.0260459931845
 30
0.0
 11
80.86203912277115
 21
32.0260459931845
 31
0.0
 12
80.44537245610448
 22
29.5260459931845
 32
0.0
 13
80.44537245610448
 23
29.5260459931845
 33
0.0
  0
MTEXT
  5
18B
330
184
100
AcDbEntity
  8
文字
 62
     0
100
AcDbMText
 10
78.56525649430367
 20
35.81777902670036
 30
0.0
 40
2.5
 41
0.0
 46
0.0
 71
     5
 72
     1
  1
12
 11
0.0
 21
1.0
 31
0.0
 73
     1
 44
1.0
  0
POINT
  5
18C
330
184
100
AcDbEntity
  8
Defpoints
 62
     0
100
AcDbPoint
 10
40.07787217196549
 20
42.10951206021623
 30
0.0
  0
POINT
  5
18D
330
184
100
AcDbEntity
  8
Defpoints
 62
     0
100
AcDbPoint
 10
54.06164127958865
 20
29.5260459931845
 30
0.0
  0
POINT
  5
18E
330
184
100
AcDbEntity
  8
Defpoints
 62
     0
100
AcDbPoint
 10
80.44537245610448
 20
29.5260459931845
 30
0.0
  0
ENDBLK
  5
18F
330
184
100
AcDbEntity
  8
0
370
    30
100
AcDbBlockEnd
  0
BLOCK
  5
194
330
193
100
AcDbEntity
  8
0
370
    30
100
AcDbBlockBegin
  2
*D4
 70
     1
 10
0.0
 20
0.0
 30
0.0
  3
*D4
  1
*D5
  0
LINE
  5
195
330
193
100
AcDbEntity
  8
文字
 62
     0
370
    -2
100
AcDbLine
 10
15.43664127958865
 20
31.1260459931845
 30
0.0
 11
1.875000000000021
 21
31.1260459931845
 31
0.0
  0
LINE
  5
196
330
193
100
AcDbEntity
  8
文字
 62
     0
370
    -2
100
AcDbLine
 10
15.43664127958865
 20
29.52604599318451
 30
0.0
 11
1.875000000000021
 21
29.52604599318451
 31
0.0
  0
LINE
  5
197
330
193
100
AcDbEntity
  8
文字
 62
     0
370
    -2
100
AcDbLine
 10
3.125000000000021
 20
27.02604599318451
 30
0.0
 11
3.125000000000021
 21
18.95817423329365
 31
0.0
  0
LINE
  5
198
330
193
100
AcDbEntity
  8
文字
 62
     0
370
    -2
100
AcDbLine
 10
3.125000000000021
 20
31.1260459931845
 30
0.0
 11
3.125000000000021
 21
29.52604599318451
 31
0.0
  0
LINE
  5
199
330
193
100
AcDbEntity
  8
文字
 62
     0
370
    -2
100
AcDbLine
 10
3.125000000000021
 20
33.6260459931845
 30
0.0
 11
3.125000000000021
 21
36.1260459931845
 31
0.0
  0
SOLID
  5
19A
330
193
100
AcDbEntity
  8
文字
 62
     0
100
AcDbTrace
 10
2.708333333333355
 20
33.6260459931845
 30
0.0
 11
3.541666666666688
 21
33.6260459931845
 31
0.0
 12
3.125000000000021
 22
31.1260459931845
 32
0.0
 13
3.125000000000021
 23
31.1260459931845
 33
0.0
  0
SOLID
  5
19B
330
193
100
AcDbEntity
  8
文字
 62
     0
100
AcDbTrace
 10
3.541666666666688
 20
27.02604599318451
 30
0.0
 11
2.708333333333355
 21
27.02604599318451
 31
0.0
 12
3.125000000000021
 22
29.52604599318451
 32
0.0
 13
3.125000000000021
 23
29.52604599318451
 33
0.0
  0
MTEXT
  5
19C
330
193
100
AcDbEntity
  8
文字
 62
     0
100
AcDbMText
 10
1.224420190995929
 20
21.74211011323908
 30
0.0
 40
2.5
 41
0.0
 46
0.0
 71
     5
 72
     1
  1
1.6
 11
0.0
 21
1.0
 31
0.0
 73
     1
 44
1.0
  0
POINT
  5
19D
330
193
100
AcDbEntity
  8
Defpoints
 62
     0
100
AcDbPoint
 10
16.06164127958865
 20
31.1260459931845
 30
0.0
  0
POINT
  5
19E
330
193
100
AcDbEntity
  8
Defpoints
 62
     0
100
AcDbPoint
 10
16.06164127958865
 20
29.52604599318451
 30
0.0
  0
POINT
  5
19F
330
193
100
AcDbEntity
  8
Defpoints
 62
     0
100
AcDbPoint
 10
3.125000000000021
 20
29.52604599318451
 30
0.0
  0
ENDBLK
  5
1A0
330
193
100
AcDbEntity
  8
0
370
    30
100
AcDbBlockEnd
  0
BLOCK
  5
1A6
330
1A5
100
AcDbEntity
  8
0
370
    30
100
AcDbBlockBegin
  2
*D5
 70
     1
 10
0.0
 20
0.0
 30
0.0
  3
*D5
  1
*D6
  0
LINE
  5
1A7
330
1A5
100
AcDbEntity
  8
文字
 62
     0
370
    -2
100
AcDbLine
 10
157.0613814183769
 20
94.95785018714102
 30
0.0
 11
157.0613814183769
 21
61.29245258681689
 31
0.0
  0
LINE
  5
1A8
330
1A5
100
AcDbEntity
  8
文字
 62
     0
370
    -2
100
AcDbLine
 10
174.0354793325519
 20
94.95785018714102
 30
0.0
 11
174.0354793325519
 21
61.29245258681689
 31
0.0
  0
LINE
  5
1A9
330
1A5
100
AcDbEntity
  8
文字
 62
     0
370
    -2
100
AcDbLine
 10
159.5613814183769
 20
62.54245258681689
 30
0.0
 11
171.5354793325519
 21
62.54245258681689
 31
0.0
  0
SOLID
  5
1AA
330
1A5
100
AcDbEntity
  8
文字
 62
     0
100
AcDbTrace
 10
159.5613814183769
 20
62.95911925348356
 30
0.0
 11
159.5613814183769
 21
62.12578592015023
 31
0.0
 12
157.0613814183769
 22
62.54245258681689
 32
0.0
 13
157.0613814183769
 23
62.54245258681689
 33
0.0
  0
SOLID
  5
1AB
330
1A5
100
AcDbEntity
  8
文字
 62
     0
100
AcDbTrace
 10
171.5354793325519
 20
62.12578592015023
 30
0.0
 11
171.5354793325519
 21
62.95911925348356
 31
0.0
 12
174.0354793325519
 22
62.54245258681689
 32
0.0
 13
174.0354793325519
 23
62.54245258681689
 33
0.0
  0
MTEXT
  5
1AC
330
1A5
100
AcDbEntity
  8
文字
 62
     0
100
AcDbMText
 10
165.5484303754644
 20
64.4225685486177
 30
0.0
 40
2.5
 41
0.0
 46
0.0
 71
     5
 72
     1
  1
17
 73
     1
 44
1.0
  0
POINT
  5
1AD
330
1A5
100
AcDbEntity
  8
Defpoints
 62
     0
100
AcDbPoint
 10
157.0613814183769
 20
95.58285018714102
 30
0.0
  0
POINT
  5
1AE
330
1A5
100
AcDbEntity
  8
Defpoints
 62
     0
100
AcDbPoint
 10
174.0354793325519
 20
95.58285018714102
 30
0.0
  0
POINT
  5
1AF
330
1A5
100
AcDbEntity
  8
Defpoints
 62
     0
100
AcDbPoint
 10
174.0354793325519
 20
62.54245258681689
 30
0.0
  0
ENDBLK
  5
1B0
330
1A5
100
AcDbEntity
  8
0
370
    30
100
AcDbBlockEnd
  0
BLOCK
  5
1B5
330
1B4
100
AcDbEntity
  8
0
370
    30
100
AcDbBlockBegin
  2
*D6
 70
     1
 10
0.0
 20
0.0
 30
0.0
  3
*D6
  1
*D7
  0
LINE
  5
1B6
330
1B4
100
AcDbEntity
  8
文字
 62
     0
370
    -2
100
AcDbLine
 10
45.48664127958865
 20
42.10951206021623
 30
0.0
 11
81.651181675397
 21
42.10951206021623
 31
0.0
  0
LINE
  5
1B7
330
1B4
100
AcDbEntity
  8
文字
 62
     0
370
    -2
100
AcDbLine
 10
45.48664127958865
 20
49.10951206021623
 30
0.0
 11
81.651181675397
 21
49.10951206021623
 31
0.0
  0
LINE
  5
1B8
330
1B4
100
AcDbEntity
  8
文字
 62
     0
370
    -2
100
AcDbLine
 10
80.401181675397
 20
44.60951206021623
 30
0.0
 11
80.401181675397
 21
46.60951206021623
 31
0.0
  0
SOLID
  5
1B9
330
1B4
100
AcDbEntity
  8
文字
 62
     0
100
AcDbTrace
 10
79.98451500873033
 20
44.60951206021623
 30
0.0
 11
80.81784834206367
 21
44.60951206021623
 31
0.0
 12
80.401181675397
 22
42.10951206021623
 32
0.0
 13
80.401181675397
 23
42.10951206021623
 33
0.0
  0
SOLID
  5
1BA
330
1B4
100
AcDbEntity
  8
文字
 62
     0
100
AcDbTrace
 10
80.81784834206367
 20
46.60951206021623
 30
0.0
 11
79.98451500873033
 21
46.60951206021623
 31
0.0
 12
80.401181675397
 22
49.10951206021623
 32
0.0
 13
80.401181675397
 23
49.10951206021623
 33
0.0
  0
MTEXT
  5
1BB
330
1B4
100
AcDbEntity
  8
文字
 62
     0
100
AcDbMText
 10
78.526181675397
 20
45.60951206021623
 30
0.0
 40
2.5
 41
0.0
 46
0.0
 71
     5
 72
     1
  1
7
 11
0.0
 21
1.0
 31
0.0
 73
     1
 44
1.0
  0
POINT
  5
1BC
330
1B4
100
AcDbEntity
  8
Defpoints
 62
     0
100
AcDbPoint
 10
44.86164127958865
 20
42.10951206021623
 30
0.0
  0
POINT
  5
1BD
330
1B4
100
AcDbEntity
  8
Defpoints
 62
     0
100
AcDbPoint
 10
44.86164127958865
 20
49.10951206021623
 30
0.0
  0
POINT
  5
1BE
330
1B4
100
AcDbEntity
  8
Defpoints
 62
     0
100
AcDbPoint
 10
80.401181675397
 20
49.10951206021623
 30
0.0
  0
ENDBLK
  5
1BF
330
1B4
100
AcDbEntity
  8
0
370
    30
100
AcDbBlockEnd
  0
BLOCK
  5
1D4
330
1D3
100
AcDbEntity
  8
0
370
    20
100
AcDbBlockBegin
  2
*D7
 70
     1
 10
0.0
 20
0.0
 30
0.0
  3
*D7
  1
*D8
  0
LINE
  5
1D5
330
1D3
100
AcDbEntity
  8
文字
 62
     0
370
    -2
100
AcDbLine
 10
30.06164127958863
 20
147.1095120602162
 30
0.0
 11
30.06164127958863
 21
163.4082362766393
 31
0.0
  0
LINE
  5
1D6
330
1D3
100
AcDbEntity
  8
文字
 62
     0
370
    -2
100
AcDbLine
 10
40.06164127958863
 20
147.1095120602162
 30
0.0
 11
40.06164127958863
 21
163.4082362766393
 31
0.0
  0
LINE
  5
1D7
330
1D3
100
AcDbEntity
  8
文字
 62
     0
370
    -2
100
AcDbLine
 10
32.56164127958863
 20
162.1582362766393
 30
0.0
 11
37.56164127958863
 21
162.1582362766393
 31
0.0
  0
SOLID
  5
1D8
330
1D3
100
AcDbEntity
  8
文字
 62
     0
100
AcDbTrace
 10
32.56164127958863
 20
162.574902943306
 30
0.0
 11
32.56164127958863
 21
161.7415696099727
 31
0.0
 12
30.06164127958863
 22
162.1582362766393
 32
0.0
 13
30.06164127958863
 23
162.1582362766393
 33
0.0
  0
SOLID
  5
1D9
330
1D3
100
AcDbEntity
  8
文字
 62
     0
100
AcDbTrace
 10
37.56164127958863
 20
161.7415696099727
 30
0.0
 11
37.56164127958863
 21
162.574902943306
 31
0.0
 12
40.06164127958863
 22
162.1582362766393
 32
0.0
 13
40.06164127958863
 23
162.1582362766393
 33
0.0
  0
MTEXT
  5
1DA
330
1D3
100
AcDbEntity
  8
文字
 62
     0
100
AcDbMText
 10
35.06164127958863
 20
164.0588160856434
 30
0.0
 40
2.5
 41
0.0
 46
0.0
 71
     5
 72
     1
  1
{\fArial|b0|i0|c0|p32;M10}
 73
     1
 44
1.0
  0
POINT
  5
1DB
330
1D3
100
AcDbEntity
  8
Defpoints
 62
     0
100
AcDbPoint
 10
30.06164127958863
 20
146.4845120602162
 30
0.0
  0
POINT
  5
1DC
330
1D3
100
AcDbEntity
  8
Defpoints
 62
     0
100
AcDbPoint
 10
40.06164127958863
 20
146.4845120602162
 30
0.0
  0
POINT
  5
1DD
330
1D3
100
AcDbEntity
  8
Defpoints
 62
     0
100
AcDbPoint
 10
40.06164127958863
 20
162.1582362766393
 30
0.0
  0
ENDBLK
  5
1DE
330
1D3
100
AcDbEntity
  8
0
370
    20
100
AcDbBlockEnd
  0
BLOCK
  5
1F2
330
1F1
100
AcDbEntity
  8
0
100
AcDbBlockBegin
  2
*D8
 70
     1
 10
0.0
 20
0.0
 30
0.0
  3
*D8
  1
*D9
  0
LINE
  5
1F3
330
1F1
100
AcDbEntity
  8
文字
 62
     0
370
    -2
100
AcDbLine
 10
38.68664127958865
 20
149.1095120602162
 30
0.0
 11
81.651181675397
 21
149.1095120602162
 31
0.0
  0
LINE
  5
1F4
330
1F1
100
AcDbEntity
  8
文字
 62
     0
370
    -2
100
AcDbLine
 10
46.11164127958865
 20
49.10951206021623
 30
0.0
 11
81.651181675397
 21
49.10951206021623
 31
0.0
  0
LINE
  5
1F5
330
1F1
100
AcDbEntity
  8
文字
 62
     0
370
    -2
100
AcDbLine
 10
80.401181675397
 20
146.6095120602162
 30
0.0
 11
80.401181675397
 21
51.60951206021623
 31
0.0
  0
SOLID
  5
1F6
330
1F1
100
AcDbEntity
  8
文字
 62
     0
100
AcDbTrace
 10
80.81784834206367
 20
146.6095120602162
 30
0.0
 11
79.98451500873033
 21
146.6095120602162
 31
0.0
 12
80.401181675397
 22
149.1095120602162
 32
0.0
 13
80.401181675397
 23
149.1095120602162
 33
0.0
  0
SOLID
  5
1F7
330
1F1
100
AcDbEntity
  8
文字
 62
     0
100
AcDbTrace
 10
79.98451500873033
 20
51.60951206021623
 30
0.0
 11
80.81784834206367
 21
51.60951206021623
 31
0.0
 12
80.401181675397
 22
49.10951206021623
 32
0.0
 13
80.401181675397
 23
49.10951206021623
 33
0.0
  0
MTEXT
  5
1F8
330
1F1
100
AcDbEntity
  8
文字
 62
     0
100
AcDbMText
 10
78.5006018663929
 20
99.10951206021625
 30
0.0
 40
2.5
 41
0.0
 46
0.0
 71
     5
 72
     1
  1
125
 11
0.0
 21
1.0
 31
0.0
 73
     1
 44
1.0
  0
POINT
  5
1F9
330
1F1
100
AcDbEntity
  8
Defpoints
 62
     0
100
AcDbPoint
 10
38.06164127958865
 20
149.1095120602162
 30
0.0
  0
POINT
  5
1FA
330
1F1
100
AcDbEntity
  8
Defpoints
 62
     0
100
AcDbPoint
 10
45.48664127958865
 20
49.10951206021623
 30
0.0
  0
POINT
  5
1FB
330
1F1
100
AcDbEntity
  8
Defpoints
 62
     0
100
AcDbPoint
 10
80.401181675397
 20
49.10951206021623
 30
0.0
  0
ENDBLK
  5
1FC
330
1F1
100
AcDbEntity
  8
0
100
AcDbBlockEnd
  0
BLOCK
  5
251
330
250
100
AcDbEntity
  8
0
100
AcDbBlockBegin
  2
*D9
 70
     1
 10
0.0
 20
0.0
 30
0.0
  3
*D9
  1
*D10
  0
LINE
  5
253
330
250
100
AcDbEntity
  8
文字
 62
     0
370
    -2
100
AcDbLine
 10
19.05040773497626
 20
32.24287924525667
 30
0.0
 11
19.05040773497626
 21
9.940634954872333
 31
0.0
  0
LINE
  5
254
330
250
100
AcDbEntity
  8
文字
 62
     0
370
    -2
100
AcDbLine
 10
57.05040773497626
 20
32.24287924525666
 30
0.0
 11
57.05040773497626
 21
9.940634954872333
 31
0.0
  0
LINE
  5
255
330
250
100
AcDbEntity
  8
文字
 62
     0
370
    -2
100
AcDbLine
 10
21.55040773497626
 20
11.19063495487233
 30
0.0
 11
54.55040773497626
 21
11.19063495487233
 31
0.0
  0
SOLID
  5
256
330
250
100
AcDbEntity
  8
文字
 62
     0
100
AcDbTrace
 10
21.55040773497626
 20
11.607301621539
 30
0.0
 11
21.55040773497626
 21
10.77396828820567
 31
0.0
 12
19.05040773497626
 22
11.19063495487233
 32
0.0
 13
19.05040773497626
 23
11.19063495487233
 33
0.0
  0
SOLID
  5
257
330
250
100
AcDbEntity
  8
文字
 62
     0
100
AcDbTrace
 10
54.55040773497626
 20
10.77396828820567
 30
0.0
 11
54.55040773497626
 21
11.607301621539
 31
0.0
 12
57.05040773497626
 22
11.19063495487233
 32
0.0
 13
57.05040773497626
 23
11.19063495487233
 33
0.0
  0
MTEXT
  5
258
330
250
100
AcDbEntity
  8
文字
 62
     0
100
AcDbMText
 10
38.05040773497626
 20
13.13896374068407
 30
0.0
 40
2.5
 41
0.0
 46
0.0
 71
     5
 72
     1
  1
%%c38
 73
     1
 44
1.0
  0
POINT
  5
259
330
250
100
AcDbEntity
  8
Defpoints
 62
     0
100
AcDbPoint
 10
19.05040773497626
 20
32.86787924525667
 30
0.0
  0
POINT
  5
25A
330
250
100
AcDbEntity
  8
Defpoints
 62
     0
100
AcDbPoint
 10
57.05040773497626
 20
32.86787924525666
 30
0.0
  0
POINT
  5
25B
330
250
100
AcDbEntity
  8
Defpoints
 62
     0
100
AcDbPoint
 10
57.05040773497626
 20
11.19063495487233
 30
0.0
  0
ENDBLK
  5
252
330
250
100
AcDbEntity
  8
0
100
AcDbBlockEnd
  0
BLOCK
  5
25D
330
25C
100
AcDbEntity
  8
0
100
AcDbBlockBegin
  2
*D10
 70
     1
 10
0.0
 20
0.0
 30
0.0
  3
*D10
  1
*D11
  0
LINE
  5
25F
330
25C
100
AcDbEntity
  8
文字
 62
     0
370
    -2
100
AcDbLine
 10
110.0150150379707
 20
49.82550636508219
 30
0.0
 11
110.0150150379707
 21
9.35472554886897
 31
0.0
  0
LINE
  5
260
330
25C
100
AcDbEntity
  8
文字
 62
     0
370
    -2
100
AcDbLine
 10
138.0150150379707
 20
49.82550636508219
 30
0.0
 11
138.0150150379707
 21
9.35472554886897
 31
0.0
  0
LINE
  5
261
330
25C
100
AcDbEntity
  8
文字
 62
     0
370
    -2
100
AcDbLine
 10
112.5150150379707
 20
10.60472554886897
 30
0.0
 11
135.5150150379707
 21
10.60472554886897
 31
0.0
  0
SOLID
  5
262
330
25C
100
AcDbEntity
  8
文字
 62
     0
100
AcDbTrace
 10
112.5150150379707
 20
11.02139221553564
 30
0.0
 11
112.5150150379707
 21
10.1880588822023
 31
0.0
 12
110.0150150379707
 22
10.60472554886897
 32
0.0
 13
110.0150150379707
 23
10.60472554886897
 33
0.0
  0
SOLID
  5
263
330
25C
100
AcDbEntity
  8
文字
 62
     0
100
AcDbTrace
 10
135.5150150379707
 20
10.1880588822023
 30
0.0
 11
135.5150150379707
 21
11.02139221553564
 31
0.0
 12
138.0150150379707
 22
10.60472554886897
 32
0.0
 13
138.0150150379707
 23
10.60472554886897
 33
0.0
  0
MTEXT
  5
264
330
25C
100
AcDbEntity
  8
文字
 62
     0
100
AcDbMText
 10
124.0150150379707
 20
12.55097554886897
 30
0.0
 40
2.5
 41
0.0
 46
0.0
 71
     5
 72
     1
  1
%%c28
 73
     1
 44
1.0
  0
POINT
  5
265
330
25C
100
AcDbEntity
  8
Defpoints
 62
     0
100
AcDbPoint
 10
110.0150150379707
 20
50.45050636508219
 30
0.0
  0
POINT
  5
266
330
25C
100
AcDbEntity
  8
Defpoints
 62
     0
100
AcDbPoint
 10
138.0150150379707
 20
50.45050636508219
 30
0.0
  0
POINT
  5
267
330
25C
100
AcDbEntity
  8
Defpoints
 62
     0
100
AcDbPoint
 10
138.0150150379707
 20
10.60472554886897
 30
0.0
  0
ENDBLK
  5
25E
330
25C
100
AcDbEntity
  8
0
100
AcDbBlockEnd
  0
BLOCK
  5
269
330
268
100
AcDbEntity
  8
0
100
AcDbBlockBegin
  2
*D11
 70
     1
 10
0.0
 20
0.0
 30
0.0
  3
*D11
  1
*D12
  0
LINE
  5
26B
330
268
100
AcDbEntity
  8
文字
 62
     0
370
    -2
100
AcDbLine
 10
43.6916386273531
 20
45.4513453122884
 30
0.0
 11
84.6841389114921
 21
45.4513453122884
 31
0.0
  0
LINE
  5
26C
330
268
100
AcDbEntity
  8
文字
 62
     0
370
    -2
100
AcDbLine
 10
57.67540773497626
 20
32.86787924525666
 30
0.0
 11
84.6841389114921
 21
32.86787924525666
 31
0.0
  0
LINE
  5
26D
330
268
100
AcDbEntity
  8
文字
 62
     0
370
    -2
100
AcDbLine
 10
83.4341389114921
 20
42.9513453122884
 30
0.0
 11
83.4341389114921
 21
35.36787924525666
 31
0.0
  0
SOLID
  5
26E
330
268
100
AcDbEntity
  8
文字
 62
     0
100
AcDbTrace
 10
83.85080557815877
 20
42.9513453122884
 30
0.0
 11
83.01747224482543
 21
42.9513453122884
 31
0.0
 12
83.4341389114921
 22
45.4513453122884
 32
0.0
 13
83.4341389114921
 23
45.4513453122884
 33
0.0
  0
SOLID
  5
26F
330
268
100
AcDbEntity
  8
文字
 62
     0
100
AcDbTrace
 10
83.01747224482543
 20
35.36787924525666
 30
0.0
 11
83.85080557815877
 21
35.36787924525666
 31
0.0
 12
83.4341389114921
 22
32.86787924525666
 32
0.0
 13
83.4341389114921
 23
32.86787924525666
 33
0.0
  0
MTEXT
  5
270
330
268
100
AcDbEntity
  8
文字
 62
     0
100
AcDbMText
 10
81.55402294969127
 20
39.15961227877253
 30
0.0
 40
2.5
 41
0.0
 46
0.0
 71
     5
 72
     1
  1
12
 11
0.0
 21
1.0
 31
0.0
 73
     1
 44
1.0
  0
POINT
  5
271
330
268
100
AcDbEntity
  8
Defpoints
 62
     0
100
AcDbPoint
 10
43.0666386273531
 20
45.4513453122884
 30
0.0
  0
POINT
  5
272
330
268
100
AcDbEntity
  8
Defpoints
 62
     0
100
AcDbPoint
 10
57.05040773497626
 20
32.86787924525666
 30
0.0
  0
POINT
  5
273
330
268
100
AcDbEntity
  8
Defpoints
 62
     0
100
AcDbPoint
 10
83.4341389114921
 20
32.86787924525666
 30
0.0
  0
ENDBLK
  5
26A
330
268
100
AcDbEntity
  8
0
100
AcDbBlockEnd
  0
BLOCK
  5
275
330
274
100
AcDbEntity
  8
0
100
AcDbBlockBegin
  2
*D12
 70
     1
 10
0.0
 20
0.0
 30
0.0
  3
*D12
  1
*D13
  0
LINE
  5
277
330
274
100
AcDbEntity
  8
文字
 62
     0
370
    -2
100
AcDbLine
 10
18.42540773497626
 20
34.46787924525667
 30
0.0
 11
4.863766455387636
 21
34.46787924525667
 31
0.0
  0
LINE
  5
278
330
274
100
AcDbEntity
  8
文字
 62
     0
370
    -2
100
AcDbLine
 10
18.42540773497626
 20
32.86787924525667
 30
0.0
 11
4.863766455387636
 21
32.86787924525667
 31
0.0
  0
LINE
  5
279
330
274
100
AcDbEntity
  8
文字
 62
     0
370
    -2
100
AcDbLine
 10
6.113766455387636
 20
30.36787924525667
 30
0.0
 11
6.113766455387636
 21
22.30000748536581
 31
0.0
  0
LINE
  5
27A
330
274
100
AcDbEntity
  8
文字
 62
     0
370
    -2
100
AcDbLine
 10
6.113766455387636
 20
34.46787924525667
 30
0.0
 11
6.113766455387636
 21
32.86787924525667
 31
0.0
  0
LINE
  5
27B
330
274
100
AcDbEntity
  8
文字
 62
     0
370
    -2
100
AcDbLine
 10
6.113766455387636
 20
36.96787924525667
 30
0.0
 11
6.113766455387636
 21
39.46787924525667
 31
0.0
  0
SOLID
  5
27C
330
274
100
AcDbEntity
  8
文字
 62
     0
100
AcDbTrace
 10
5.697099788720969
 20
36.96787924525667
 30
0.0
 11
6.530433122054303
 21
36.96787924525667
 31
0.0
 12
6.113766455387636
 22
34.46787924525667
 32
0.0
 13
6.113766455387636
 23
34.46787924525667
 33
0.0
  0
SOLID
  5
27D
330
274
100
AcDbEntity
  8
文字
 62
     0
100
AcDbTrace
 10
6.530433122054303
 20
30.36787924525667
 30
0.0
 11
5.697099788720969
 21
30.36787924525667
 31
0.0
 12
6.113766455387636
 22
32.86787924525667
 32
0.0
 13
6.113766455387636
 23
32.86787924525667
 33
0.0
  0
MTEXT
  5
27E
330
274
100
AcDbEntity
  8
文字
 62
     0
100
AcDbMText
 10
4.213186646383543
 20
25.08394336531124
 30
0.0
 40
2.5
 41
0.0
 46
0.0
 71
     5
 72
     1
  1
1.6
 11
0.0
 21
1.0
 31
0.0
 73
     1
 44
1.0
  0
POINT
  5
27F
330
274
100
AcDbEntity
  8
Defpoints
 62
     0
100
AcDbPoint
 10
19.05040773497626
 20
34.46787924525667
 30
0.0
  0
POINT
  5
280
330
274
100
AcDbEntity
  8
Defpoints
 62
     0
100
AcDbPoint
 10
19.05040773497626
 20
32.86787924525667
 30
0.0
  0
POINT
  5
281
330
274
100
AcDbEntity
  8
Defpoints
 62
     0
100
AcDbPoint
 10
6.113766455387636
 20
32.86787924525667
 30
0.0
  0
ENDBLK
  5
276
330
274
100
AcDbEntity
  8
0
100
AcDbBlockEnd
  0
BLOCK
  5
283
330
282
100
AcDbEntity
  8
0
100
AcDbBlockBegin
  2
*D13
 70
     1
 10
0.0
 20
0.0
 30
0.0
  3
*D13
  1
*D14
  0
LINE
  5
285
330
282
100
AcDbEntity
  8
文字
 62
     0
370
    -2
100
AcDbLine
 10
115.5279660808832
 20
49.82550636508219
 30
0.0
 11
115.5279660808832
 21
16.16010876475806
 31
0.0
  0
LINE
  5
286
330
282
100
AcDbEntity
  8
文字
 62
     0
370
    -2
100
AcDbLine
 10
132.5020639950582
 20
49.82550636508219
 30
0.0
 11
132.5020639950582
 21
16.16010876475806
 31
0.0
  0
LINE
  5
287
330
282
100
AcDbEntity
  8
文字
 62
     0
370
    -2
100
AcDbLine
 10
118.0279660808832
 20
17.41010876475806
 30
0.0
 11
130.0020639950582
 21
17.41010876475806
 31
0.0
  0
SOLID
  5
288
330
282
100
AcDbEntity
  8
文字
 62
     0
100
AcDbTrace
 10
118.0279660808832
 20
17.82677543142473
 30
0.0
 11
118.0279660808832
 21
16.9934420980914
 31
0.0
 12
115.5279660808832
 22
17.41010876475806
 32
0.0
 13
115.5279660808832
 23
17.41010876475806
 33
0.0
  0
SOLID
  5
289
330
282
100
AcDbEntity
  8
文字
 62
     0
100
AcDbTrace
 10
130.0020639950582
 20
16.9934420980914
 30
0.0
 11
130.0020639950582
 21
17.82677543142473
 31
0.0
 12
132.5020639950582
 22
17.41010876475806
 32
0.0
 13
132.5020639950582
 23
17.41010876475806
 33
0.0
  0
MTEXT
  5
28A
330
282
100
AcDbEntity
  8
文字
 62
     0
100
AcDbMText
 10
124.0150150379707
 20
19.29010876475806
 30
0.0
 40
2.5
 41
0.0
 46
0.0
 71
     5
 72
     1
  1
17
 73
     1
 44
1.0
  0
POINT
  5
28B
330
282
100
AcDbEntity
  8
Defpoints
 62
     0
100
AcDbPoint
 10
115.5279660808832
 20
50.45050636508219
 30
0.0
  0
POINT
  5
28C
330
282
100
AcDbEntity
  8
Defpoints
 62
     0
100
AcDbPoint
 10
132.5020639950582
 20
50.45050636508219
 30
0.0
  0
POINT
  5
28D
330
282
100
AcDbEntity
  8
Defpoints
 62
     0
100
AcDbPoint
 10
132.5020639950582
 20
17.41010876475806
 30
0.0
  0
ENDBLK
  5
284
330
282
100
AcDbEntity
  8
0
100
AcDbBlockEnd
  0
BLOCK
  5
28F
330
28E
100
AcDbEntity
  8
0
100
AcDbBlockBegin
  2
*D14
 70
     1
 10
0.0
 20
0.0
 30
0.0
  3
*D14
  1
*D15
  0
LINE
  5
291
330
28E
100
AcDbEntity
  8
文字
 62
     0
370
    -2
100
AcDbLine
 10
48.47540773497626
 20
45.4513453122884
 30
0.0
 11
84.63994813078462
 21
45.4513453122884
 31
0.0
  0
LINE
  5
292
330
28E
100
AcDbEntity
  8
文字
 62
     0
370
    -2
100
AcDbLine
 10
48.47540773497626
 20
52.4513453122884
 30
0.0
 11
84.63994813078462
 21
52.4513453122884
 31
0.0
  0
LINE
  5
293
330
28E
100
AcDbEntity
  8
文字
 62
     0
370
    -2
100
AcDbLine
 10
83.38994813078462
 20
47.9513453122884
 30
0.0
 11
83.38994813078462
 21
49.9513453122884
 31
0.0
  0
SOLID
  5
294
330
28E
100
AcDbEntity
  8
文字
 62
     0
100
AcDbTrace
 10
82.97328146411795
 20
47.9513453122884
 30
0.0
 11
83.80661479745129
 21
47.9513453122884
 31
0.0
 12
83.38994813078462
 22
45.4513453122884
 32
0.0
 13
83.38994813078462
 23
45.4513453122884
 33
0.0
  0
SOLID
  5
295
330
28E
100
AcDbEntity
  8
文字
 62
     0
100
AcDbTrace
 10
83.80661479745129
 20
49.9513453122884
 30
0.0
 11
82.97328146411795
 21
49.9513453122884
 31
0.0
 12
83.38994813078462
 22
52.4513453122884
 32
0.0
 13
83.38994813078462
 23
52.4513453122884
 33
0.0
  0
MTEXT
  5
296
330
28E
100
AcDbEntity
  8
文字
 62
     0
100
AcDbMText
 10
81.51494813078462
 20
48.9513453122884
 30
0.0
 40
2.5
 41
0.0
 46
0.0
 71
     5
 72
     1
  1
7
 11
0.0
 21
1.0
 31
0.0
 73
     1
 44
1.0
  0
POINT
  5
297
330
28E
100
AcDbEntity
  8
Defpoints
 62
     0
100
AcDbPoint
 10
47.85040773497626
 20
45.4513453122884
 30
0.0
  0
POINT
  5
298
330
28E
100
AcDbEntity
  8
Defpoints
 62
     0
100
AcDbPoint
 10
47.85040773497626
 20
52.4513453122884
 30
0.0
  0
POINT
  5
299
330
28E
100
AcDbEntity
  8
Defpoints
 62
     0
100
AcDbPoint
 10
83.38994813078462
 20
52.4513453122884
 30
0.0
  0
ENDBLK
  5
290
330
28E
100
AcDbEntity
  8
0
100
AcDbBlockEnd
  0
BLOCK
  5
29B
330
29A
100
AcDbEntity
  8
0
100
AcDbBlockBegin
  2
*D15
 70
     1
 10
0.0
 20
0.0
 30
0.0
  3
*D15
  1
*D16
  0
LINE
  5
29D
330
29A
100
AcDbEntity
  8
文字
 62
     0
370
    -2
100
AcDbLine
 10
33.05040773497625
 20
150.4513453122884
 30
0.0
 11
33.05040773497625
 21
166.7500695287115
 31
0.0
  0
LINE
  5
29E
330
29A
100
AcDbEntity
  8
文字
 62
     0
370
    -2
100
AcDbLine
 10
43.05040773497625
 20
150.4513453122884
 30
0.0
 11
43.05040773497625
 21
166.7500695287115
 31
0.0
  0
LINE
  5
29F
330
29A
100
AcDbEntity
  8
文字
 62
     0
370
    -2
100
AcDbLine
 10
35.55040773497625
 20
165.5000695287115
 30
0.0
 11
40.55040773497625
 21
165.5000695287115
 31
0.0
  0
SOLID
  5
2A0
330
29A
100
AcDbEntity
  8
文字
 62
     0
100
AcDbTrace
 10
35.55040773497625
 20
165.9167361953781
 30
0.0
 11
35.55040773497625
 21
165.0834028620448
 31
0.0
 12
33.05040773497625
 22
165.5000695287115
 32
0.0
 13
33.05040773497625
 23
165.5000695287115
 33
0.0
  0
SOLID
  5
2A1
330
29A
100
AcDbEntity
  8
文字
 62
     0
100
AcDbTrace
 10
40.55040773497625
 20
165.0834028620448
 30
0.0
 11
40.55040773497625
 21
165.9167361953781
 31
0.0
 12
43.05040773497625
 22
165.5000695287115
 32
0.0
 13
43.05040773497625
 23
165.5000695287115
 33
0.0
  0
MTEXT
  5
2A2
330
29A
100
AcDbEntity
  8
文字
 62
     0
100
AcDbMText
 10
38.05040773497625
 20
167.4006493377156
 30
0.0
 40
2.5
 41
0.0
 46
0.0
 71
     5
 72
     1
  1
{\fArial|b0|i0|c0|p32;M10}
 73
     1
 44
1.0
  0
POINT
  5
2A3
330
29A
100
AcDbEntity
  8
Defpoints
 62
     0
100
AcDbPoint
 10
33.05040773497625
 20
149.8263453122884
 30
0.0
  0
POINT
  5
2A4
330
29A
100
AcDbEntity
  8
Defpoints
 62
     0
100
AcDbPoint
 10
43.05040773497625
 20
149.8263453122884
 30
0.0
  0
POINT
  5
2A5
330
29A
100
AcDbEntity
  8
Defpoints
 62
     0
100
AcDbPoint
 10
43.05040773497625
 20
165.5000695287115
 30
0.0
  0
ENDBLK
  5
29C
330
29A
100
AcDbEntity
  8
0
100
AcDbBlockEnd
  0
BLOCK
  5
2A7
330
2A6
100
AcDbEntity
  8
0
100
AcDbBlockBegin
  2
*D16
 70
     1
 10
0.0
 20
0.0
 30
0.0
  3
*D16
  1
*D17
  0
LINE
  5
2A9
330
2A6
100
AcDbEntity
  8
文字
 62
     0
370
    -2
100
AcDbLine
 10
41.67540773497626
 20
152.4513453122884
 30
0.0
 11
84.63994813078462
 21
152.4513453122884
 31
0.0
  0
LINE
  5
2AA
330
2A6
100
AcDbEntity
  8
文字
 62
     0
370
    -2
100
AcDbLine
 10
49.10040773497626
 20
52.4513453122884
 30
0.0
 11
84.63994813078462
 21
52.4513453122884
 31
0.0
  0
LINE
  5
2AB
330
2A6
100
AcDbEntity
  8
文字
 62
     0
370
    -2
100
AcDbLine
 10
83.38994813078462
 20
149.9513453122884
 30
0.0
 11
83.38994813078462
 21
54.9513453122884
 31
0.0
  0
SOLID
  5
2AC
330
2A6
100
AcDbEntity
  8
文字
 62
     0
100
AcDbTrace
 10
83.80661479745129
 20
149.9513453122884
 30
0.0
 11
82.97328146411795
 21
149.9513453122884
 31
0.0
 12
83.38994813078462
 22
152.4513453122884
 32
0.0
 13
83.38994813078462
 23
152.4513453122884
 33
0.0
  0
SOLID
  5
2AD
330
2A6
100
AcDbEntity
  8
文字
 62
     0
100
AcDbTrace
 10
82.97328146411795
 20
54.9513453122884
 30
0.0
 11
83.80661479745129
 21
54.9513453122884
 31
0.0
 12
83.38994813078462
 22
52.4513453122884
 32
0.0
 13
83.38994813078462
 23
52.4513453122884
 33
0.0
  0
MTEXT
  5
2AE
330
2A6
100
AcDbEntity
  8
文字
 62
     0
100
AcDbMText
 10
81.48936832178052
 20
102.4513453122884
 30
0.0
 40
2.5
 41
0.0
 46
0.0
 71
     5
 72
     1
  1
125
 11
0.0
 21
1.0
 31
0.0
 73
     1
 44
1.0
  0
POINT
  5
2AF
330
2A6
100
AcDbEntity
  8
Defpoints
 62
     0
100
AcDbPoint
 10
41.05040773497626
 20
152.4513453122884
 30
0.0
  0
POINT
  5
2B0
330
2A6
100
AcDbEntity
  8
Defpoints
 62
     0
100
AcDbPoint
 10
48.47540773497626
 20
52.4513453122884
 30
0.0
  0
POINT
  5
2B1
330
2A6
100
AcDbEntity
  8
Defpoints
 62
     0
100
AcDbPoint
 10
83.38994813078462
 20
52.4513453122884
 30
0.0
  0
ENDBLK
  5
2A8
330
2A6
100
AcDbEntity
  8
0
100
AcDbBlockEnd
  0
BLOCK
  5
3A9
330
3A8
100
AcDbEntity
  8
0
100
AcDbBlockBegin
  2
*D18
 70
     1
 10
0.0
 20
0.0
 30
0.0
  3
*D18
  1
*D11
  0
LINE
  5
3AA
330
3A8
100
AcDbEntity
  8
文字
 62
     0
370
    -2
100
AcDbLine
 10
17.46532435625431
 20
39.49607524573747
 30
0.0
 11
1.84499999999997
 21
39.49607524573747
 31
0.0
  0
LINE
  5
3AB
330
3A8
100
AcDbEntity
  8
文字
 62
     0
370
    -2
100
AcDbLine
 10
17.46532435625431
 20
37.89607524573748
 30
0.0
 11
1.84499999999997
 21
37.89607524573748
 31
0.0
  0
LINE
  5
3AC
330
3A8
100
AcDbEntity
  8
文字
 62
     0
370
    -2
100
AcDbLine
 10
3.09499999999997
 20
35.39607524573748
 30
0.0
 11
3.09499999999997
 21
30.76107524573748
 31
0.0
  0
LINE
  5
3AD
330
3A8
100
AcDbEntity
  8
文字
 62
     0
370
    -2
100
AcDbLine
 10
3.09499999999997
 20
39.49607524573747
 30
0.0
 11
3.09499999999997
 21
37.89607524573748
 31
0.0
  0
LINE
  5
3AE
330
3A8
100
AcDbEntity
  8
文字
 62
     0
370
    -2
100
AcDbLine
 10
3.09499999999997
 20
41.99607524573747
 30
0.0
 11
3.09499999999997
 21
44.49607524573747
 31
0.0
  0
SOLID
  5
3AF
330
3A8
100
AcDbEntity
  8
文字
 62
     0
100
AcDbTrace
 10
2.678333333333304
 20
41.99607524573747
 30
0.0
 11
3.511666666666637
 21
41.99607524573747
 31
0.0
 12
3.09499999999997
 22
39.49607524573747
 32
0.0
 13
3.09499999999997
 23
39.49607524573747
 33
0.0
  0
SOLID
  5
3B0
330
3A8
100
AcDbEntity
  8
文字
 62
     0
100
AcDbTrace
 10
3.511666666666637
 20
35.39607524573748
 30
0.0
 11
2.678333333333304
 21
35.39607524573748
 31
0.0
 12
3.09499999999997
 22
37.89607524573748
 32
0.0
 13
3.09499999999997
 23
37.89607524573748
 33
0.0
  0
MTEXT
  5
3B1
330
3A8
100
AcDbEntity
  8
文字
 62
     0
100
AcDbMText
 10
1.207499999999968
 20
31.82857524573748
 30
0.0
 40
2.5
 41
0.0
 46
0.0
 71
     5
 72
     1
  1
t
 11
0.0
 21
1.0
 31
0.0
 73
     1
 44
1.0
  0
POINT
  5
3B2
330
3A8
100
AcDbEntity
  8
Defpoints
 62
     0
100
AcDbPoint
 10
18.09032435625431
 20
39.49607524573747
 30
0.0
  0
POINT
  5
3B3
330
3A8
100
AcDbEntity
  8
Defpoints
 62
     0
100
AcDbPoint
 10
18.09032435625431
 20
37.89607524573748
 30
0.0
  0
POINT
  5
3B4
330
3A8
100
AcDbEntity
  8
Defpoints
 62
     0
100
AcDbPoint
 10
3.09499999999997
 20
37.89607524573748
 30
0.0
  0
ENDBLK
  5
3B5
330
3A8
100
AcDbEntity
  8
0
100
AcDbBlockEnd
  0
BLOCK
  5
3B8
330
3B7
100
AcDbEntity
  8
0
100
AcDbBlockBegin
  2
*D19
 70
     1
 10
0.0
 20
0.0
 30
0.0
  3
*D19
  1
*D14
  0
LINE
  5
3B9
330
3B7
100
AcDbEntity
  8
文字
 62
     0
370
    -2
100
AcDbLine
 10
18.09032435625431
 20
37.27107524573748
 30
0.0
 11
18.09032435625431
 21
17.19409102143149
 31
0.0
  0
LINE
  5
3BA
330
3B7
100
AcDbEntity
  8
文字
 62
     0
370
    -2
100
AcDbLine
 10
56.09032435625432
 20
37.27107524573739
 30
0.0
 11
56.09032435625432
 21
17.19409102143149
 31
0.0
  0
LINE
  5
3BB
330
3B7
100
AcDbEntity
  8
文字
 62
     0
370
    -2
100
AcDbLine
 10
20.59032435625431
 20
18.44409102143149
 30
0.0
 11
53.59032435625432
 21
18.44409102143149
 31
0.0
  0
SOLID
  5
3BC
330
3B7
100
AcDbEntity
  8
文字
 62
     0
100
AcDbTrace
 10
20.59032435625431
 20
18.86075768809816
 30
0.0
 11
20.59032435625431
 21
18.02742435476482
 31
0.0
 12
18.09032435625431
 22
18.44409102143149
 32
0.0
 13
18.09032435625431
 23
18.44409102143149
 33
0.0
  0
SOLID
  5
3BD
330
3B7
100
AcDbEntity
  8
文字
 62
     0
100
AcDbTrace
 10
53.59032435625432
 20
18.02742435476482
 30
0.0
 11
53.59032435625432
 21
18.86075768809816
 31
0.0
 12
56.09032435625432
 22
18.44409102143149
 32
0.0
 13
56.09032435625432
 23
18.44409102143149
 33
0.0
  0
MTEXT
  5
3BE
330
3B7
100
AcDbEntity
  8
文字
 62
     0
100
AcDbMText
 10
37.09032435625431
 20
20.39034102143149
 30
0.0
 40
2.5
 41
0.0
 46
0.0
 71
     5
 72
     1
  1
%%c38
 73
     1
 44
1.0
  0
POINT
  5
3BF
330
3B7
100
AcDbEntity
  8
Defpoints
 62
     0
100
AcDbPoint
 10
18.09032435625431
 20
37.89607524573748
 30
0.0
  0
POINT
  5
3C0
330
3B7
100
AcDbEntity
  8
Defpoints
 62
     0
100
AcDbPoint
 10
56.09032435625432
 20
37.89607524573739
 30
0.0
  0
POINT
  5
3C1
330
3B7
100
AcDbEntity
  8
Defpoints
 62
     0
100
AcDbPoint
 10
56.09032435625432
 20
18.44409102143149
 30
0.0
  0
ENDBLK
  5
3C2
330
3B7
100
AcDbEntity
  8
0
100
AcDbBlockEnd
  0
BLOCK
  5
3C7
330
3C6
100
AcDbEntity
  8
0
100
AcDbBlockBegin
  2
*D20
 70
     1
 10
0.0
 20
0.0
 30
0.0
  3
*D20
  1
*D15
  0
LINE
  5
3C8
330
3C6
100
AcDbEntity
  8
文字
 62
     0
370
    -2
100
AcDbLine
 10
56.71532435625432
 20
37.89607524573739
 30
0.0
 11
71.94703363511206
 21
37.89607524573739
 31
0.0
  0
LINE
  5
3C9
330
3C6
100
AcDbEntity
  8
文字
 62
     0
370
    -2
100
AcDbLine
 10
42.73155524863117
 20
50.47954131276919
 30
0.0
 11
71.94703363511206
 21
50.47954131276919
 31
0.0
  0
LINE
  5
3CA
330
3C6
100
AcDbEntity
  8
文字
 62
     0
370
    -2
100
AcDbLine
 10
70.69703363511206
 20
40.39607524573739
 30
0.0
 11
70.69703363511206
 21
47.97954131276919
 31
0.0
  0
SOLID
  5
3CB
330
3C6
100
AcDbEntity
  8
文字
 62
     0
100
AcDbTrace
 10
70.28036696844539
 20
40.39607524573739
 30
0.0
 11
71.11370030177874
 21
40.39607524573739
 31
0.0
 12
70.69703363511206
 22
37.89607524573739
 32
0.0
 13
70.69703363511206
 23
37.89607524573739
 33
0.0
  0
SOLID
  5
3CC
330
3C6
100
AcDbEntity
  8
文字
 62
     0
100
AcDbTrace
 10
71.11370030177874
 20
47.97954131276919
 30
0.0
 11
70.28036696844539
 21
47.97954131276919
 31
0.0
 12
70.69703363511206
 22
50.47954131276919
 32
0.0
 13
70.69703363511206
 23
50.47954131276919
 33
0.0
  0
MTEXT
  5
3CD
330
3C6
100
AcDbEntity
  8
文字
 62
     0
100
AcDbMText
 10
68.79578363511206
 20
44.18780827925329
 30
0.0
 40
2.5
 41
0.0
 46
0.0
 71
     5
 72
     1
  1
13
 11
0.0
 21
1.0
 31
0.0
 73
     1
 44
1.0
  0
POINT
  5
3CE
330
3C6
100
AcDbEntity
  8
Defpoints
 62
     0
100
AcDbPoint
 10
56.09032435625432
 20
37.89607524573739
 30
0.0
  0
POINT
  5
3CF
330
3C6
100
AcDbEntity
  8
Defpoints
 62
     0
100
AcDbPoint
 10
42.10655524863117
 20
50.47954131276919
 30
0.0
  0
POINT
  5
3D0
330
3C6
100
AcDbEntity
  8
Defpoints
 62
     0
100
AcDbPoint
 10
70.69703363511206
 20
50.47954131276919
 30
0.0
  0
ENDBLK
  5
3D1
330
3C6
100
AcDbEntity
  8
0
100
AcDbBlockEnd
  0
BLOCK
  5
3EB
330
3EA
100
AcDbEntity
  8
0
100
AcDbBlockBegin
  2
*D21
 70
     1
 10
0.0
 20
0.0
 30
0.0
  3
*D21
  1
*D21
  0
LINE
  5
3ED
330
3EA
100
AcDbEntity
  8
文字
 62
     0
370
    -2
100
AcDbLine
 10
18.44346826978412
 20
34.48986710732763
 30
0.0
 11
2.823143913529783
 21
34.48986710732763
 31
0.0
  0
LINE
  5
3EE
330
3EA
100
AcDbEntity
  8
文字
 62
     0
370
    -2
100
AcDbLine
 10
18.44346826978412
 20
32.88986710732763
 30
0.0
 11
2.823143913529783
 21
32.88986710732763
 31
0.0
  0
LINE
  5
3EF
330
3EA
100
AcDbEntity
  8
文字
 62
     0
370
    -2
100
AcDbLine
 10
4.073143913529783
 20
30.38986710732763
 30
0.0
 11
4.073143913529783
 21
25.75486710732763
 31
0.0
  0
LINE
  5
3F0
330
3EA
100
AcDbEntity
  8
文字
 62
     0
370
    -2
100
AcDbLine
 10
4.073143913529783
 20
34.48986710732763
 30
0.0
 11
4.073143913529783
 21
32.88986710732763
 31
0.0
  0
LINE
  5
3F1
330
3EA
100
AcDbEntity
  8
文字
 62
     0
370
    -2
100
AcDbLine
 10
4.073143913529783
 20
36.98986710732763
 30
0.0
 11
4.073143913529783
 21
39.48986710732763
 31
0.0
  0
SOLID
  5
3F2
330
3EA
100
AcDbEntity
  8
文字
 62
     0
100
AcDbTrace
 10
3.656477246863117
 20
36.98986710732763
 30
0.0
 11
4.48981058019645
 21
36.98986710732763
 31
0.0
 12
4.073143913529783
 22
34.48986710732763
 32
0.0
 13
4.073143913529783
 23
34.48986710732763
 33
0.0
  0
SOLID
  5
3F3
330
3EA
100
AcDbEntity
  8
文字
 62
     0
100
AcDbTrace
 10
4.48981058019645
 20
30.38986710732763
 30
0.0
 11
3.656477246863117
 21
30.38986710732763
 31
0.0
 12
4.073143913529783
 22
32.88986710732763
 32
0.0
 13
4.073143913529783
 23
32.88986710732763
 33
0.0
  0
MTEXT
  5
3F4
330
3EA
100
AcDbEntity
  8
文字
 62
     0
100
AcDbMText
 10
2.18564391352978
 20
26.82236710732763
 30
0.0
 40
2.5
 41
0.0
 46
0.0
 71
     5
 72
     1
  1
t
 11
0.0
 21
1.0
 31
0.0
 73
     1
 44
1.0
  0
POINT
  5
3F5
330
3EA
100
AcDbEntity
  8
Defpoints
 62
     0
100
AcDbPoint
 10
19.06846826978412
 20
34.48986710732763
 30
0.0
  0
POINT
  5
3F6
330
3EA
100
AcDbEntity
  8
Defpoints
 62
     0
100
AcDbPoint
 10
19.06846826978412
 20
32.88986710732763
 30
0.0
  0
POINT
  5
3F7
330
3EA
100
AcDbEntity
  8
Defpoints
 62
     0
100
AcDbPoint
 10
4.073143913529783
 20
32.88986710732763
 30
0.0
  0
ENDBLK
  5
3EC
330
3EA
100
AcDbEntity
  8
0
100
AcDbBlockEnd
  0
BLOCK
  5
3F9
330
3F8
100
AcDbEntity
  8
0
100
AcDbBlockBegin
  2
*D22
 70
     1
 10
0.0
 20
0.0
 30
0.0
  3
*D22
  1
*D22
  0
LINE
  5
3FB
330
3F8
100
AcDbEntity
  8
文字
 62
     0
370
    -2
100
AcDbLine
 10
19.06846826978412
 20
32.26486710732763
 30
0.0
 11
19.06846826978412
 21
12.18788288302164
 31
0.0
  0
LINE
  5
3FC
330
3F8
100
AcDbEntity
  8
文字
 62
     0
370
    -2
100
AcDbLine
 10
57.06846826978413
 20
32.26486710732755
 30
0.0
 11
57.06846826978413
 21
12.18788288302164
 31
0.0
  0
LINE
  5
3FD
330
3F8
100
AcDbEntity
  8
文字
 62
     0
370
    -2
100
AcDbLine
 10
21.56846826978412
 20
13.43788288302164
 30
0.0
 11
54.56846826978413
 21
13.43788288302164
 31
0.0
  0
SOLID
  5
3FE
330
3F8
100
AcDbEntity
  8
文字
 62
     0
100
AcDbTrace
 10
21.56846826978412
 20
13.85454954968831
 30
0.0
 11
21.56846826978412
 21
13.02121621635498
 31
0.0
 12
19.06846826978412
 22
13.43788288302164
 32
0.0
 13
19.06846826978412
 23
13.43788288302164
 33
0.0
  0
SOLID
  5
3FF
330
3F8
100
AcDbEntity
  8
文字
 62
     0
100
AcDbTrace
 10
54.56846826978413
 20
13.02121621635498
 30
0.0
 11
54.56846826978413
 21
13.85454954968831
 31
0.0
 12
57.06846826978413
 22
13.43788288302164
 32
0.0
 13
57.06846826978413
 23
13.43788288302164
 33
0.0
  0
MTEXT
  5
400
330
3F8
100
AcDbEntity
  8
文字
 62
     0
100
AcDbMText
 10
38.06846826978413
 20
15.38413288302164
 30
0.0
 40
2.5
 41
0.0
 46
0.0
 71
     5
 72
     1
  1
%%c38
 73
     1
 44
1.0
  0
POINT
  5
401
330
3F8
100
AcDbEntity
  8
Defpoints
 62
     0
100
AcDbPoint
 10
19.06846826978412
 20
32.88986710732763
 30
0.0
  0
POINT
  5
402
330
3F8
100
AcDbEntity
  8
Defpoints
 62
     0
100
AcDbPoint
 10
57.06846826978413
 20
32.88986710732755
 30
0.0
  0
POINT
  5
403
330
3F8
100
AcDbEntity
  8
Defpoints
 62
     0
100
AcDbPoint
 10
57.06846826978413
 20
13.43788288302164
 30
0.0
  0
ENDBLK
  5
3FA
330
3F8
100
AcDbEntity
  8
0
100
AcDbBlockEnd
  0
BLOCK
  5
405
330
404
100
AcDbEntity
  8
0
100
AcDbBlockBegin
  2
*D23
 70
     1
 10
0.0
 20
0.0
 30
0.0
  3
*D23
  1
*D23
  0
LINE
  5
407
330
404
100
AcDbEntity
  8
文字
 62
     0
370
    -2
100
AcDbLine
 10
57.69346826978413
 20
32.88986710732755
 30
0.0
 11
84.61690975019889
 21
32.88986710732755
 31
0.0
  0
LINE
  5
408
330
404
100
AcDbEntity
  8
文字
 62
     0
370
    -2
100
AcDbLine
 10
43.70969916216099
 20
45.47333317435934
 30
0.0
 11
84.61690975019889
 21
45.47333317435934
 31
0.0
  0
LINE
  5
409
330
404
100
AcDbEntity
  8
文字
 62
     0
370
    -2
100
AcDbLine
 10
83.36690975019889
 20
35.38986710732755
 30
0.0
 11
83.36690975019889
 21
42.97333317435934
 31
0.0
  0
SOLID
  5
40A
330
404
100
AcDbEntity
  8
文字
 62
     0
100
AcDbTrace
 10
82.95024308353221
 20
35.38986710732755
 30
0.0
 11
83.78357641686556
 21
35.38986710732755
 31
0.0
 12
83.36690975019889
 22
32.88986710732755
 32
0.0
 13
83.36690975019889
 23
32.88986710732755
 33
0.0
  0
SOLID
  5
40B
330
404
100
AcDbEntity
  8
文字
 62
     0
100
AcDbTrace
 10
83.78357641686556
 20
42.97333317435934
 30
0.0
 11
82.95024308353221
 21
42.97333317435934
 31
0.0
 12
83.36690975019889
 22
45.47333317435934
 32
0.0
 13
83.36690975019889
 23
45.47333317435934
 33
0.0
  0
MTEXT
  5
40C
330
404
100
AcDbEntity
  8
文字
 62
     0
100
AcDbMText
 10
81.46565975019888
 20
39.18160014084344
 30
0.0
 40
2.5
 41
0.0
 46
0.0
 71
     5
 72
     1
  1
13
 11
0.0
 21
1.0
 31
0.0
 73
     1
 44
1.0
  0
POINT
  5
40D
330
404
100
AcDbEntity
  8
Defpoints
 62
     0
100
AcDbPoint
 10
57.06846826978413
 20
32.88986710732755
 30
0.0
  0
POINT
  5
40E
330
404
100
AcDbEntity
  8
Defpoints
 62
     0
100
AcDbPoint
 10
43.08469916216099
 20
45.47333317435934
 30
0.0
  0
POINT
  5
40F
330
404
100
AcDbEntity
  8
Defpoints
 62
     0
100
AcDbPoint
 10
83.36690975019889
 20
45.47333317435934
 30
0.0
  0
ENDBLK
  5
406
330
404
100
AcDbEntity
  8
0
100
AcDbBlockEnd
  0
ENDSEC
  0
SECTION
  2
ENTITIES
  0
LINE
  5
203
330
1F
100
AcDbEntity
  8
中心線
 48
0.5
100
AcDbLine
 10
38.05040773497626
 20
21.95111141111411
 30
0.0
 11
38.05040773497625
 21
158.5540005051626
 31
0.0
  0
CIRCLE
  5
20A
102
{ACAD_REACTORS
330
215
102
}
330
1F
100
AcDbEntity
  8
実線
370
    50
100
AcDbCircle
 10
124.0150150379707
 20
50.45050636508219
 30
0.0
 40
14.0
  0
CIRCLE
  5
20B
330
1F
100
AcDbEntity
  8
実線
370
    50
100
AcDbCircle
 10
124.0150150379707
 20
50.45050636508219
 30
0.0
 40
19.0
  0
LINE
  5
20E
330
1F
100
AcDbEntity
  8
中心線
 48
0.5
100
AcDbLine
 10
93.60025443367323
 20
50.45050636508219
 30
0.0
 11
151.234792879643
 21
50.45050636508219
 31
0.0
  0
DIMENSION
  5
213
102
{ACAD_REACTORS
330
215
102
}
102
{ACAD_XDICTIONARY
360
214
102
}
330
1F
100
AcDbEntity
  8
文字
100
AcDbDimension
280
     0
  2
*D10
 10
138.0150150379707
 20
10.60472554886897
 30
0.0
 11
124.0150150379707
 21
12.55097554886897
 31
0.0
 70
    32
  1
%%c<>
 71
     5
 42
28.0
 73
     0
 74
     0
 75
     0
  3
ISO-25
100
AcDbAlignedDimension
 13
110.0150150379707
 23
50.45050636508219
 33
0.0
 14
138.0150150379707
 24
50.45050636508219
 34
0.0
100
AcDbRotatedDimension
  0
LWPOLYLINE
  5
216
102
{ACAD_REACTORS
330
22A
102
}
330
1F
100
AcDbEntity
  8
実線
370
    50
100
AcDbPolyline
 90
        4
 70
     0
 43
0.0
 10
47.85040773497626
 20
47.11672773034206
 10
47.85040773497626
 20
52.4513453122884
 10
28.25040773497627
 20
52.4513453122884
 10
28.25040773497627
 20
47.11672773034209
  0
LINE
  5
217
330
1F
100
AcDbEntity
  8
実線
370
    50
100
AcDbLine
 10
33.38584372529652
 20
52.4513453122884
 30
0.0
 11
33.38584372529652
 21
47.11672773034211
 31
0.0
  0
LINE
  5
218
330
1F
100
AcDbEntity
  8
実線
370
    50
100
AcDbLine
 10
42.84050848114602
 20
52.4513453122884
 30
0.0
 11
42.84050848114602
 21
47.11672773034205
 31
0.0
  0
LWPOLYLINE
  5
219
102
{ACAD_REACTORS
330
227
102
}
330
1F
100
AcDbEntity
  8
実線
370
    50
100
AcDbPolyline
 90
        6
 70
     1
 43
0.0
 10
115.5279660808832
 20
45.55050636508219
 10
124.0150150379707
 20
40.65050636508218
 10
132.5020639950582
 20
45.55050636508219
 10
132.5020639950582
 20
55.35050636508221
 10
124.0150150379707
 20
60.2505063650822
 10
115.5279660808832
 20
55.35050636508221
  0
LINE
  5
21A
102
{ACAD_REACTORS
102
}
330
1F
100
AcDbEntity
  8
実線
370
    50
100
AcDbLine
 10
45.36321608112078
 20
45.4513453122884
 30
0.0
 11
30.76800890487286
 21
45.4513453122884
 31
0.0
  0
ARC
  5
21B
330
1F
100
AcDbEntity
  8
実線
370
    50
100
AcDbCircle
 10
30.81812573013639
 20
48.26276042732269
 30
0.0
 40
2.811861775624425
100
AcDbArc
 50
204.0523260738349
 51
335.9476739261654
  0
ARC
  5
21C
330
1F
100
AcDbEntity
  8
実線
370
    50
100
AcDbCircle
 10
38.11317625820577
 20
52.99232460467746
 30
0.0
 40
7.541240519685672
100
AcDbArc
 50
231.180866270598
 51
308.8191315053854
  0
ARC
  5
21D
330
1F
100
AcDbEntity
  8
実線
370
    50
100
AcDbCircle
 10
45.34545785282235
 20
48.16782564068265
 30
0.0
 40
2.716538372492689
100
AcDbArc
 50
202.7633354902943
 51
337.2366715329314
  0
CIRCLE
  5
224
330
1F
100
AcDbEntity
  8
実線
370
    50
100
AcDbCircle
 10
124.0150150379707
 20
50.45050636508219
 30
0.0
 40
5.0
  0
DIMENSION
  5
225
102
{ACAD_REACTORS
330
227
102
}
102
{ACAD_XDICTIONARY
360
226
102
}
330
1F
100
AcDbEntity
  8
文字
100
AcDbDimension
280
     0
  2
*D13
 10
132.5020639950582
 20
17.41010876475806
 30
0.0
 11
124.0150150379707
 21
17.41010876475806
 31
0.0
 70
   160
  1
17
 71
     5
 42
16.97409791417499
 73
     0
 74
     0
 75
     0
  3
ISO-25
100
AcDbAlignedDimension
 13
115.5279660808832
 23
50.45050636508219
 33
0.0
 14
132.5020639950582
 24
50.45050636508219
 34
0.0
100
AcDbRotatedDimension
  0
DIMENSION
  5
228
102
{ACAD_REACTORS
330
22A
102
}
102
{ACAD_XDICTIONARY
360
229
102
}
330
1F
100
AcDbEntity
  8
文字
100
AcDbDimension
280
     0
  2
*D14
 10
83.38994813078462
 20
52.4513453122884
 30
0.0
 11
81.51494813078462
 21
48.9513453122884
 31
0.0
 70
    32
  1
7
 71
     5
 42
7.0
 73
     0
 74
     0
 75
     0
  3
ISO-25
100
AcDbAlignedDimension
 13
47.85040773497626
 23
45.4513453122884
 33
0.0
 14
47.85040773497626
 24
52.4513453122884
 34
0.0
 50
90.0
100
AcDbRotatedDimension
  0
DIMENSION
  5
23D
330
1F
100
AcDbEntity
  8
文字
100
AcDbDimension
280
     0
  2
*D15
 10
43.05040773497625
 20
165.5000695287115
 30
0.0
 11
38.05040773497625
 21
167.4006493377156
 31
0.0
 70
    32
  1
{\fArial|b0|i0|c0|p32;M10}
 71
     5
 42
10.0
 73
     0
 74
     0
 75
     0
  3
ISO-25
100
AcDbAlignedDimension
 13
33.05040773497625
 23
149.8263453122884
 33
0.0
 14
43.05040773497625
 24
149.8263453122884
 34
0.0
100
AcDbRotatedDimension
  0
LINE
  5
23F
330
1F
100
AcDbEntity
  8
中心線
 48
0.5
100
AcDbLine
 10
123.4215730268622
 20
77.47105626931726
 30
0.0
 11
124.0150150379707
 21
23.5898752698881
 31
0.0
  0
CIRCLE
  5
240
330
1F
100
AcDbEntity
  8
実線
370
    20
100
AcDbCircle
 10
124.0150150379707
 20
50.45050636508219
 30
0.0
 40
3.0
  0
LWPOLYLINE
  5
241
330
1F
100
AcDbEntity
  8
文字
100
AcDbPolyline
 90
        4
 70
     1
 43
0.0
 10
16.82040252281607
 20
101.8871207539368
 10
16.82040252281607
 20
101.8871207539368
 10
16.82040252281607
 20
101.8871207539368
 10
16.82040252281607
 20
101.8871207539368
  0
LWPOLYLINE
  5
242
330
1F
100
AcDbEntity
  8
実線
100
AcDbPolyline
 90
        6
 70
     0
 43
0.0
 10
43.05040773497626
 20
105.8428365268424
 10
43.05040773497626
 20
150.4513453122884
 10
41.05040773497626
 20
152.4513453122884
 10
35.05040773497625
 20
152.4513453122884
 10
33.05040773497625
 20
150.4513453122884
 10
33.05040773497626
 20
100.0693338349461
  0
LINE
  5
243
330
1F
100
AcDbEntity
  8
実線
370
    20
100
AcDbLine
 10
33.05040773497625
 20
150.4513453122884
 30
0.0
 11
43.05040773497626
 21
150.4513453122884
 31
0.0
  0
LINE
  5
244
330
1F
100
AcDbEntity
  8
実線
370
    20
100
AcDbLine
 10
35.05040773497625
 20
152.4513453122884
 30
0.0
 11
35.05040773497625
 21
101.2240343733254
 31
0.0
  0
LINE
  5
245
102
{ACAD_REACTORS
330
24F
102
}
330
1F
100
AcDbEntity
  8
実線
370
    20
100
AcDbLine
 10
41.05040773497626
 20
152.4513453122884
 30
0.0
 11
41.05040773497626
 21
104.6881359884631
 31
0.0
  0
LINE
  5
246
330
1F
100
AcDbEntity
  8
実線
370
    30
100
AcDbLine
 10
38.11317625820577
 20
102.9923246046775
 30
0.0
 11
53.77762071843904
 21
112.0361958304991
 31
0.0
  0
LINE
  5
247
330
1F
100
AcDbEntity
  8
実線
370
    30
100
AcDbLine
 10
38.11317625820577
 20
102.9923246046775
 30
0.0
 11
23.98736307734827
 21
94.83678256218703
 31
0.0
  0
LINE
  5
248
330
1F
100
AcDbEntity
  8
実線
370
    30
100
AcDbLine
 10
39.11317625820577
 20
101.2602737971086
 30
0.0
 11
54.77762071843904
 21
110.3041450229302
 31
0.0
  0
LINE
  5
249
330
1F
100
AcDbEntity
  8
実線
370
    30
100
AcDbLine
 10
39.11317625820577
 20
101.2602737971086
 30
0.0
 11
24.98736307734827
 21
93.10473175461814
 31
0.0
  0
LINE
  5
24A
330
1F
100
AcDbEntity
  8
実線
370
    20
100
AcDbLine
 10
41.05040773497626
 20
102.3787349117046
 30
0.0
 11
41.05040773497625
 21
52.4513453122884
 31
0.0
  0
LINE
  5
24B
330
1F
100
AcDbEntity
  8
実線
370
    20
100
AcDbLine
 10
35.05040773497625
 20
98.91463329656689
 30
0.0
 11
35.05040773497623
 21
52.4513453122884
 31
0.0
  0
LWPOLYLINE
  5
24C
330
1F
100
AcDbEntity
  8
実線
100
AcDbPolyline
 90
        4
 70
     0
 43
0.0
 10
33.05040773497626
 20
97.75993275818767
 10
33.05040773497626
 20
52.4513453122884
 10
43.05040773497626
 20
52.4513453122884
 10
43.05040773497626
 20
103.5334354500839
  0
DIMENSION
  5
24D
102
{ACAD_REACTORS
330
24F
102
}
102
{ACAD_XDICTIONARY
360
24E
102
}
330
1F
100
AcDbEntity
  8
文字
100
AcDbDimension
280
     0
  2
*D16
 10
83.38994813078462
 20
52.4513453122884
 30
0.0
 11
81.48936832178052
 21
102.4513453122884
 31
0.0
 70
    32
  1
125
 71
     5
 42
100.0
 73
     0
 74
     0
 75
     0
  3
ISO-25
100
AcDbAlignedDimension
 13
41.05040773497626
 23
152.4513453122884
 33
0.0
 14
48.47540773497626
 24
52.4513453122884
 34
0.0
 50
90.0
100
AcDbRotatedDimension
  0
MTEXT
  5
2DC
330
1F
100
AcDbEntity
  8
文字・寸法線
 62
     0
100
AcDbMText
 10
48.9000921459082
 20
183.3976122858711
 30
0.0
 40
6.0
 41
0.0
 46
6.0
 71
     9
 72
     1
  1
{\fＭＳ ゴシック|b0|i0|c0|p0;S-M M10X125}
 73
     1
 44
1.0
1001
ACAD
1000
ACAD_MTEXT_DEFINED_HEIGHT_BEGIN
1070
    46
1040
6.0
1000
ACAD_MTEXT_DEFINED_HEIGHT_END
  0
LINE
  5
3D6
330
1F
100
AcDbEntity
  8
実線
370
    50
100
AcDbLine
 10
57.06846826978413
 20
32.88986710732755
 30
0.0
 11
19.06846826978412
 21
32.88986710732763
 31
0.0
  0
LINE
  5
3D7
102
{ACAD_REACTORS
330
3E4
102
}
330
1F
100
AcDbEntity
  8
実線
370
    50
100
AcDbLine
 10
19.06846826978412
 20
32.88986710732763
 30
0.0
 11
19.06846826978412
 21
34.48986710732763
 31
0.0
  0
LINE
  5
3D8
102
{ACAD_REACTORS
330
3E8
102
}
330
1F
100
AcDbEntity
  8
実線
370
    50
100
AcDbLine
 10
57.06846826978413
 20
34.48986710732763
 30
0.0
 11
57.06846826978413
 21
32.88986710732755
 31
0.0
  0
LINE
  5
3DA
102
{ACAD_REACTORS
330
3E4
102
}
330
1F
100
AcDbEntity
  8
実線
370
    50
100
AcDbLine
 10
19.06846826978412
 20
34.48986710732763
 30
0.0
 11
22.58185339035061
 21
34.48986710732763
 31
0.0
  0
LINE
  5
3DB
330
1F
100
AcDbEntity
  8
実線
370
    50
100
AcDbLine
 10
22.58185339035061
 20
34.48986710732763
 30
0.0
 11
22.46077785768279
 21
34.48986710732763
 31
0.0
  0
ARC
  5
3DC
102
{ACAD_REACTORS
330
3E8
102
}
330
1F
100
AcDbEntity
  8
実線
370
    50
100
AcDbCircle
 10
38.06846826978414
 20
32.20457298968054
 30
0.0
 40
14.18529411764706
100
AcDbArc
 50
15.35297015069432
 51
69.29099155289798
  0
ARC
  5
3DD
330
1F
100
AcDbEntity
  8
実線
370
    50
100
AcDbCircle
 10
22.4607778576828
 20
36.48986710732763
 30
0.0
 40
2.0
100
AcDbArc
 50
270.0
 51
344.6470298493055
  0
LINE
  5
3DE
330
1F
100
AcDbEntity
  8
実線
370
    50
100
AcDbLine
 10
53.67615868188547
 20
34.48986710732763
 30
0.0
 11
57.06846826978413
 21
34.48986710732763
 31
0.0
  0
ARC
  5
3DF
330
1F
100
AcDbEntity
  8
実線
370
    50
100
AcDbCircle
 10
53.6761586818855
 20
36.48986710732763
 30
0.0
 40
2.0
100
AcDbArc
 50
195.3529701506937
 51
270.0
  0
LINE
  5
3E0
330
1F
100
AcDbEntity
  8
実線
370
    50
100
AcDbLine
 10
22.58185339035061
 20
34.48986710732763
 30
0.0
 11
53.67615868188547
 21
34.48986710732763
 31
0.0
  0
ARC
  5
3E1
330
1F
100
AcDbEntity
  8
実線
370
    50
100
AcDbCircle
 10
38.06846826978414
 20
32.20457298968054
 30
0.0
 40
14.18529411764706
100
AcDbArc
 50
110.7090084471021
 51
164.6470298493057
  0
DIMENSION
  5
3E2
102
{ACAD_REACTORS
330
3E4
102
}
102
{ACAD_XDICTIONARY
360
3E3
102
}
330
1F
100
AcDbEntity
  8
文字
100
AcDbDimension
280
     0
  2
*D21
 10
4.073143913529783
 20
32.88986710732763
 30
0.0
 11
2.18564391352978
 21
26.82236710732763
 31
0.0
 70
    32
  1
t
 71
     5
 42
1.599999999999994
 73
     0
 74
     0
 75
     0
  3
ISO-25
100
AcDbAlignedDimension
 13
19.06846826978412
 23
34.48986710732763
 33
0.0
 14
19.06846826978412
 24
32.88986710732763
 34
0.0
 50
90.0
100
AcDbRotatedDimension
  0
DIMENSION
  5
3E5
330
1F
100
AcDbEntity
  8
文字
100
AcDbDimension
280
     0
  2
*D22
 10
57.06846826978413
 20
13.43788288302164
 30
0.0
 11
38.06846826978413
 21
15.38413288302164
 31
0.0
 70
    32
  1
%%c<>
 71
     5
 42
38.00000000000001
 73
     0
 74
     0
 75
     0
  3
ISO-25
100
AcDbAlignedDimension
 13
19.06846826978412
 23
32.88986710732763
 33
0.0
 14
57.06846826978413
 24
32.88986710732755
 34
0.0
100
AcDbRotatedDimension
  0
DIMENSION
  5
3E6
102
{ACAD_REACTORS
330
3E8
102
}
102
{ACAD_XDICTIONARY
360
3E7
102
}
330
1F
100
AcDbEntity
  8
文字
100
AcDbDimension
280
     0
  2
*D23
 10
83.36690975019889
 20
45.47333317435934
 30
0.0
 11
83.36690975019889
 21
39.18160014084344
 31
0.0
 70
   160
  1
13
 71
     5
 42
12.58346606703179
 73
     0
 74
     0
 75
     0
  3
ISO-25
100
AcDbAlignedDimension
 13
57.06846826978413
 23
32.88986710732755
 33
0.0
 14
43.08469916216099
 24
45.47333317435934
 34
0.0
 50
90.0
100
AcDbRotatedDimension
  0
MTEXT
  5
3E9
330
1F
100
AcDbEntity
  8
文字・寸法線
 62
     0
100
AcDbMText
 10
26.61381480559018
 20
-5.006208138409846
 30
0.0
 40
4.0
 41
0.0
 46
10.66666666666667
 71
     9
 72
     1
  1
{\fＭＳ ゴシック|b0|i0|c0|p0;SUS t=1.5\PSS t=1.6}
 73
     1
 44
1.0
1001
ACAD
1000
ACAD_MTEXT_DEFINED_HEIGHT_BEGIN
1070
    46
1040
10.66666666666667
1000
ACAD_MTEXT_DEFINED_HEIGHT_END
  0
ENDSEC
  0
SECTION
  2
OBJECTS
  0
DICTIONARY
  5
C
330
0
100
AcDbDictionary
281
     1
  3
ACAD_COLOR
350
73
  3
ACAD_DETAILVIEWSTYLE
350
122
  3
ACAD_GROUP
350
D
  3
ACAD_IMAGE_VARS
350
DC
  3
ACAD_LAYOUT
350
1A
  3
ACAD_MATERIAL
350
72
  3
ACAD_MLEADERSTYLE
350
B5
  3
ACAD_MLINESTYLE
350
17
  3
ACAD_PLOTSETTINGS
350
19
  3
ACAD_PLOTSTYLENAME
350
E
  3
ACAD_SCALELIST
350
B6
  3
ACAD_SECTIONVIEWSTYLE
350
123
  3
ACAD_TABLESTYLE
350
86
  3
ACAD_VISUALSTYLE
350
99
  3
ACDB_RECOMPOSE_DATA
350
412
  3
AcDbVariableDictionary
350
66
  3
APPDATA
350
E1
  0
SUN
  5
ED
330
94
100
AcDbSun
 90
        1
290
     0
 63
     7
421
 16777215
 40
1.0
291
     1
 91
  2455826
 92
 54000000
292
     0
 70
     2
 71
   256
280
     1
  0
DICTIONARY
  5
214
330
213
100
AcDbDictionary
280
     1
281
     1
  3
ACAD_DIMASSOC
360
215
  0
DICTIONARY
  5
226
330
225
100
AcDbDictionary
280
     1
281
     1
  3
ACAD_DIMASSOC
360
227
  0
DICTIONARY
  5
229
330
228
100
AcDbDictionary
280
     1
281
     1
  3
ACAD_DIMASSOC
360
22A
  0
DICTIONARY
  5
24E
330
24D
100
AcDbDictionary
280
     1
281
     1
  3
ACAD_DIMASSOC
360
24F
  0
DICTIONARY
  5
3E3
330
3E2
100
AcDbDictionary
280
     1
281
     1
  3
ACAD_DIMASSOC
360
3E4
  0
DICTIONARY
  5
3E7
330
3E6
100
AcDbDictionary
280
     1
281
     1
  3
ACAD_DIMASSOC
360
3E8
  0
DICTIONARY
  5
73
102
{ACAD_REACTORS
330
C
102
}
330
C
100
AcDbDictionary
281
     1
  0
DICTIONARY
  5
122
102
{ACAD_REACTORS
330
C
102
}
330
C
100
AcDbDictionary
281
     1
  0
DICTIONARY
  5
D
102
{ACAD_REACTORS
330
C
102
}
330
C
100
AcDbDictionary
281
     1
  0
RASTERVARIABLES
  5
DC
102
{ACAD_REACTORS
330
C
102
}
330
C
100
AcDbRasterVariables
 90
        0
 70
     1
 71
     1
 72
     5
  0
DICTIONARY
  5
1A
102
{ACAD_REACTORS
330
C
102
}
330
C
100
AcDbDictionary
281
     1
  3
Model
350
22
  3
Sheet1
350
59
  3
Sheet2
350
5E
  0
DICTIONARY
  5
72
102
{ACAD_REACTORS
330
C
102
}
330
C
100
AcDbDictionary
281
     1
  3
ByBlock
350
E2
  3
ByLayer
350
96
  3
Global
350
98
  0
DICTIONARY
  5
B5
102
{ACAD_REACTORS
330
C
102
}
330
C
100
AcDbDictionary
281
     1
  0
DICTIONARY
  5
17
102
{ACAD_REACTORS
330
C
102
}
330
C
100
AcDbDictionary
281
     1
  3
Standard
350
18
  0
DICTIONARY
  5
19
102
{ACAD_REACTORS
330
C
102
}
330
C
100
AcDbDictionary
281
     1
  0
ACDBDICTIONARYWDFLT
  5
E
102
{ACAD_REACTORS
330
C
102
}
330
C
100
AcDbDictionary
281
     1
  3
Normal
350
F
100
AcDbDictionaryWithDefault
340
F
  0
DICTIONARY
  5
B6
102
{ACAD_REACTORS
330
C
102
}
330
C
100
AcDbDictionary
281
     1
  3
A0
350
B7
  3
A1
350
B8
  3
A2
350
B9
  3
A3
350
BA
  3
A4
350
BB
  3
A5
350
BC
  3
A6
350
BD
  3
A7
350
BE
  3
A8
350
BF
  3
A9
350
C0
  3
B0
350
C1
  3
B1
350
C2
  3
B2
350
C3
  3
B3
350
C4
  3
B4
350
C5
  3
B5
350
C6
  3
B6
350
C7
  3
B7
350
C8
  3
B8
350
C9
  3
B9
350
CA
  3
C0
350
CB
  3
C1
350
CC
  3
C2
350
CD
  3
C3
350
CE
  3
C4
350
CF
  3
C5
350
D0
  3
C6
350
D1
  3
C7
350
D2
  3
C8
350
D3
  3
C9
350
D4
  3
D0
350
D5
  3
D1
350
D6
  3
D2
350
D7
  0
DICTIONARY
  5
123
102
{ACAD_REACTORS
330
C
102
}
330
C
100
AcDbDictionary
281
     1
  0
DICTIONARY
  5
86
102
{ACAD_REACTORS
330
C
102
}
330
C
100
AcDbDictionary
281
     1
  3
Standard
350
87
  0
DICTIONARY
  5
99
102
{ACAD_REACTORS
330
C
102
}
330
C
100
AcDbDictionary
281
     1
  3
2dWireframe
350
9F
  3
3D Hidden
350
A1
  3
3dWireframe
350
A0
  3
Basic
350
9E
  3
Brighten
350
A5
  3
ColorChange
350
A9
  3
Conceptual
350
A2
  3
Dim
350
A4
  3
EdgeColorOff
350
E7
  3
Facepattern
350
A8
  3
Flat
350
9A
  3
FlatWithEdges
350
9B
  3
Gouraud
350
9C
  3
GouraudWithEdges
350
9D
  3
Hidden
350
E4
  3
JitterOff
350
E5
  3
Linepattern
350
A7
  3
OverhangOff
350
E6
  3
Realistic
350
A3
  3
Shaded
350
EC
  3
Shaded with edges
350
EB
  3
Shades of Gray
350
E8
  3
Sketchy
350
E9
  3
Thicken
350
A6
  3
Wireframe
350
E3
  3
X-Ray
350
EA
  0
XRECORD
  5
412
102
{ACAD_REACTORS
330
C
102
}
330
C
100
AcDbXrecord
280
     1
 90
        1
330
87
  0
DICTIONARY
  5
66
102
{ACAD_REACTORS
330
C
102
}
330
C
100
AcDbDictionary
281
     1
  3
CANNOSCALE
350
D8
  3
CTABLESTYLE
350
89
  3
DIMASSOC
350
67
  3
HIDETEXT
350
6B
  3
LIGHTSINBLOCKS
350
DF
  3
XCLIPFRAME
350
E0
  0
DICTIONARY
  5
E1
102
{ACAD_REACTORS
330
C
102
}
330
C
100
AcDbDictionary
281
     1
  0
DIMASSOC
  5
215
102
{ACAD_REACTORS
330
214
102
}
330
214
100
AcDbDimAssoc
330
213
 90
        3
 70
     0
 71
     0
  1
AcDbOsnapPointRef
 72
     5
331
20A
 73
     2
 91
        0
 40
3.141592653589793
 10
0.0
 20
0.0
 30
0.0
 75
     0
  1
AcDbOsnapPointRef
 72
     5
331
20A
 73
     2
 91
        0
 40
0.0
 10
0.0
 20
0.0
 30
0.0
 75
     0
  0
DIMASSOC
  5
227
102
{ACAD_REACTORS
330
226
102
}
330
226
100
AcDbDimAssoc
330
225
 90
        3
 70
     0
 71
     0
  1
AcDbOsnapPointRef
 72
     2
331
219
 73
     2
 91
        6
 40
0.5
 10
0.0
 20
0.0
 30
0.0
 75
     0
  1
AcDbOsnapPointRef
 72
     2
331
219
 73
     2
 91
        3
 40
0.5
 10
0.0
 20
0.0
 30
0.0
 75
     0
  0
DIMASSOC
  5
22A
102
{ACAD_REACTORS
330
229
102
}
330
229
100
AcDbDimAssoc
330
228
 90
        2
 70
     0
 71
     0
  1
AcDbOsnapPointRef
 72
     1
331
216
 73
     2
 91
        1
 40
1.0
 10
0.0
 20
0.0
 30
2.000000000000000E+50
 75
     0
  0
DIMASSOC
  5
24F
102
{ACAD_REACTORS
330
24E
102
}
330
24E
100
AcDbDimAssoc
330
24D
 90
        1
 70
     0
 71
     0
  1
AcDbOsnapPointRef
 72
    13
331
245
 73
     2
 91
        0
 40
0.0
 10
0.0
 20
0.0
 30
2.000000000000000E+50
 75
     0
  0
DIMASSOC
  5
3E4
102
{ACAD_REACTORS
330
3E3
102
}
330
3E3
100
AcDbDimAssoc
330
3E2
 90
        3
 70
     0
 71
     0
  1
AcDbOsnapPointRef
 72
    13
331
3DA
 73
     2
 91
        0
 40
0.0
 10
0.0
 20
0.0
 30
2.000000000000000E+50
 75
     0
  1
AcDbOsnapPointRef
 72
    13
331
3D7
 73
     2
 91
        0
 40
0.0
 10
0.0
 20
0.0
 30
2.000000000000000E+50
 75
     0
  0
DIMASSOC
  5
3E8
102
{ACAD_REACTORS
330
3E7
102
}
330
3E7
100
AcDbDimAssoc
330
3E6
 90
        1
 70
     0
 71
     0
  1
AcDbOsnapPointRef
 72
     1
331
3D8
 73
     2
 91
        0
 40
1.0
 10
0.0
 20
0.0
 30
2.000000000000000E+50
 75
     0
  0
LAYOUT
  5
22
102
{ACAD_REACTORS
330
1A
102
}
330
1A
100
AcDbPlotSettings
  1

  2
none_device
  4
ANSI_A_(8.50_x_11.00_Inches)
  6

 40
6.35
 41
19.05
 42
6.35
 43
19.05
 44
215.9
 45
279.4
 46
11.11250000000003
 47
0.0000000000000142
 48
0.0
 49
0.0
140
0.0
141
0.0
142
1.0
143
1.263157894736842
 70
 11444
 72
     0
 73
     1
 74
     1
  7
monochrome.ctb
 75
     0
 76
     0
 77
     2
 78
   300
147
0.7916666666666665
148
-702.8076765758875
149
-496.2830551296954
100
AcDbLayout
  1
Model
 70
     1
 71
     0
 10
0.0
 20
0.0
 11
12.0
 21
9.0
 12
0.0
 22
0.0
 32
0.0
 14
0.9781439135297814
 24
-5.006208138409846
 34
0.0
 15
151.234792879643
 25
189.3976122858711
 35
0.0
146
0.0
 13
0.0
 23
0.0
 33
0.0
 16
1.0
 26
0.0
 36
0.0
 17
0.0
 27
1.0
 37
0.0
 76
     0
330
1F
331
94
  0
LAYOUT
  5
59
102
{ACAD_REACTORS
330
1A
102
}
330
1A
100
AcDbPlotSettings
  1

  2
None
  4

  6

 40
0.0
 41
0.0
 42
0.0
 43
0.0
 44
0.0
 45
0.0
 46
0.0
 47
0.0
 48
0.0
 49
0.0
140
0.0
141
0.0
142
1.0
143
1.0
 70
   688
 72
     0
 73
     0
 74
     5
  7

 75
    16
 76
     0
 77
     2
 78
   300
147
1.0
148
0.0
149
0.0
100
AcDbLayout
  1
Sheet1
 70
     1
 71
     1
 10
0.0
 20
0.0
 11
12.0
 21
9.0
 12
0.0
 22
0.0
 32
0.0
 14
0.0
 24
0.0
 34
0.0
 15
0.0
 25
0.0
 35
0.0
146
0.0
 13
0.0
 23
0.0
 33
0.0
 16
1.0
 26
0.0
 36
0.0
 17
0.0
 27
1.0
 37
0.0
 76
     0
330
58
  0
LAYOUT
  5
5E
102
{ACAD_REACTORS
330
1A
102
}
330
1A
100
AcDbPlotSettings
  1

  2
None
  4

  6

 40
0.0
 41
0.0
 42
0.0
 43
0.0
 44
0.0
 45
0.0
 46
0.0
 47
0.0
 48
0.0
 49
0.0
140
0.0
141
0.0
142
1.0
143
1.0
 70
   688
 72
     0
 73
     0
 74
     5
  7

 75
    16
 76
     0
 77
     2
 78
   300
147
1.0
148
0.0
149
0.0
100
AcDbLayout
  1
Sheet2
 70
     1
 71
     2
 10
0.0
 20
0.0
 11
12.0
 21
9.0
 12
0.0
 22
0.0
 32
0.0
 14
0.0
 24
0.0
 34
0.0
 15
0.0
 25
0.0
 35
0.0
146
0.0
 13
0.0
 23
0.0
 33
0.0
 16
1.0
 26
0.0
 36
0.0
 17
0.0
 27
1.0
 37
0.0
 76
     0
330
5D
  0
MATERIAL
  5
E2
102
{ACAD_REACTORS
330
72
102
}
330
72
100
AcDbMaterial
  1
ByBlock
 72
     1
 94
      127
  0
MATERIAL
  5
96
102
{ACAD_REACTORS
330
72
102
}
330
72
100
AcDbMaterial
  1
ByLayer
 72
     1
 94
       63
  0
MATERIAL
  5
98
102
{ACAD_REACTORS
330
72
102
}
330
72
100
AcDbMaterial
  1
Global
 72
     1
 94
       63
  0
MLINESTYLE
  5
18
102
{ACAD_REACTORS
330
17
102
}
330
17
100
AcDbMlineStyle
  2
STANDARD
 70
     0
  3

 62
   256
 51
90.0
 52
90.0
 71
     2
 49
0.5
 62
   256
  6
BYLAYER
 49
-0.5
 62
   256
  6
BYLAYER
  0
ACDBPLACEHOLDER
  5
F
102
{ACAD_REACTORS
330
E
102
}
330
E
  0
SCALE
  5
B7
102
{ACAD_REACTORS
330
B6
102
}
330
B6
100
AcDbScale
 70
     0
300
1:1
140
1.0
141
1.0
290
     1
  0
SCALE
  5
B8
102
{ACAD_REACTORS
330
B6
102
}
330
B6
100
AcDbScale
 70
     0
300
1:2
140
1.0
141
2.0
290
     0
  0
SCALE
  5
B9
102
{ACAD_REACTORS
330
B6
102
}
330
B6
100
AcDbScale
 70
     0
300
1:4
140
1.0
141
4.0
290
     0
  0
SCALE
  5
BA
102
{ACAD_REACTORS
330
B6
102
}
330
B6
100
AcDbScale
 70
     0
300
1:5
140
1.0
141
5.0
290
     0
  0
SCALE
  5
BB
102
{ACAD_REACTORS
330
B6
102
}
330
B6
100
AcDbScale
 70
     0
300
1:8
140
1.0
141
8.0
290
     0
  0
SCALE
  5
BC
102
{ACAD_REACTORS
330
B6
102
}
330
B6
100
AcDbScale
 70
     0
300
1:10
140
1.0
141
10.0
290
     0
  0
SCALE
  5
BD
102
{ACAD_REACTORS
330
B6
102
}
330
B6
100
AcDbScale
 70
     0
300
1:16
140
1.0
141
16.0
290
     0
  0
SCALE
  5
BE
102
{ACAD_REACTORS
330
B6
102
}
330
B6
100
AcDbScale
 70
     0
300
1:20
140
1.0
141
20.0
290
     0
  0
SCALE
  5
BF
102
{ACAD_REACTORS
330
B6
102
}
330
B6
100
AcDbScale
 70
     0
300
1:30
140
1.0
141
30.0
290
     0
  0
SCALE
  5
C0
102
{ACAD_REACTORS
330
B6
102
}
330
B6
100
AcDbScale
 70
     0
300
1:40
140
1.0
141
40.0
290
     0
  0
SCALE
  5
C1
102
{ACAD_REACTORS
330
B6
102
}
330
B6
100
AcDbScale
 70
     0
300
1:50
140
1.0
141
50.0
290
     0
  0
SCALE
  5
C2
102
{ACAD_REACTORS
330
B6
102
}
330
B6
100
AcDbScale
 70
     0
300
1:100
140
1.0
141
100.0
290
     0
  0
SCALE
  5
C3
102
{ACAD_REACTORS
330
B6
102
}
330
B6
100
AcDbScale
 70
     0
300
2:1
140
2.0
141
1.0
290
     0
  0
SCALE
  5
C4
102
{ACAD_REACTORS
330
B6
102
}
330
B6
100
AcDbScale
 70
     0
300
4:1
140
4.0
141
1.0
290
     0
  0
SCALE
  5
C5
102
{ACAD_REACTORS
330
B6
102
}
330
B6
100
AcDbScale
 70
     0
300
8:1
140
8.0
141
1.0
290
     0
  0
SCALE
  5
C6
102
{ACAD_REACTORS
330
B6
102
}
330
B6
100
AcDbScale
 70
     0
300
10:1
140
10.0
141
1.0
290
     0
  0
SCALE
  5
C7
102
{ACAD_REACTORS
330
B6
102
}
330
B6
100
AcDbScale
 70
     0
300
100:1
140
100.0
141
1.0
290
     0
  0
SCALE
  5
C8
102
{ACAD_REACTORS
330
B6
102
}
330
B6
100
AcDbScale
 70
     0
300
1/128" = 1'-0"
140
0.0078125
141
12.0
290
     0
  0
SCALE
  5
C9
102
{ACAD_REACTORS
330
B6
102
}
330
B6
100
AcDbScale
 70
     0
300
1/64" = 1'-0"
140
0.015625
141
12.0
290
     0
  0
SCALE
  5
CA
102
{ACAD_REACTORS
330
B6
102
}
330
B6
100
AcDbScale
 70
     0
300
1/32" = 1'-0"
140
0.03125
141
12.0
290
     0
  0
SCALE
  5
CB
102
{ACAD_REACTORS
330
B6
102
}
330
B6
100
AcDbScale
 70
     0
300
1/16" = 1'-0"
140
0.0625
141
12.0
290
     0
  0
SCALE
  5
CC
102
{ACAD_REACTORS
330
B6
102
}
330
B6
100
AcDbScale
 70
     0
300
3/32" = 1'-0"
140
0.09375
141
12.0
290
     0
  0
SCALE
  5
CD
102
{ACAD_REACTORS
330
B6
102
}
330
B6
100
AcDbScale
 70
     0
300
1/8" = 1'-0"
140
0.125
141
12.0
290
     0
  0
SCALE
  5
CE
102
{ACAD_REACTORS
330
B6
102
}
330
B6
100
AcDbScale
 70
     0
300
3/16" = 1'-0"
140
0.1875
141
12.0
290
     0
  0
SCALE
  5
CF
102
{ACAD_REACTORS
330
B6
102
}
330
B6
100
AcDbScale
 70
     0
300
1/4" = 1'-0"
140
0.25
141
12.0
290
     0
  0
SCALE
  5
D0
102
{ACAD_REACTORS
330
B6
102
}
330
B6
100
AcDbScale
 70
     0
300
3/8" = 1'-0"
140
0.375
141
12.0
290
     0
  0
SCALE
  5
D1
102
{ACAD_REACTORS
330
B6
102
}
330
B6
100
AcDbScale
 70
     0
300
1/2" = 1'-0"
140
0.5
141
12.0
290
     0
  0
SCALE
  5
D2
102
{ACAD_REACTORS
330
B6
102
}
330
B6
100
AcDbScale
 70
     0
300
3/4" = 1'-0"
140
0.75
141
12.0
290
     0
  0
SCALE
  5
D3
102
{ACAD_REACTORS
330
B6
102
}
330
B6
100
AcDbScale
 70
     0
300
1" = 1'-0"
140
1.0
141
12.0
290
     0
  0
SCALE
  5
D4
102
{ACAD_REACTORS
330
B6
102
}
330
B6
100
AcDbScale
 70
     0
300
1-1/2" = 1'-0"
140
1.5
141
12.0
290
     0
  0
SCALE
  5
D5
102
{ACAD_REACTORS
330
B6
102
}
330
B6
100
AcDbScale
 70
     0
300
3" = 1'-0"
140
3.0
141
12.0
290
     0
  0
SCALE
  5
D6
102
{ACAD_REACTORS
330
B6
102
}
330
B6
100
AcDbScale
 70
     0
300
6" = 1'-0"
140
6.0
141
12.0
290
     0
  0
SCALE
  5
D7
102
{ACAD_REACTORS
330
B6
102
}
330
B6
100
AcDbScale
 70
     0
300
1'-0" = 1'-0"
140
12.0
141
12.0
290
     0
  0
TABLESTYLE
  5
87
102
{ACAD_REACTORS
330
86
102
}
102
{ACAD_XDICTIONARY
360
410
102
}
330
86
100
AcDbTableStyle
  3
Standard
 70
     0
 71
     0
 40
0.06
 41
0.06
280
     0
281
     0
  7
Standard
140
0.18
170
     2
 62
     0
 63
   257
283
     0
 90
      512
 91
        0
  1

274
    -2
284
     1
 64
     0
275
    -2
285
     1
 65
     0
276
    -2
286
     1
 66
     0
277
    -2
287
     1
 67
     0
278
    -2
288
     1
 68
     0
279
    -2
289
     1
 69
     0
  7
Standard
140
0.25
170
     5
 62
     0
 63
   257
283
     0
 90
      512
 91
        0
  1

274
    -2
284
     1
 64
     0
275
    -2
285
     1
 65
     0
276
    -2
286
     1
 66
     0
277
    -2
287
     1
 67
     0
278
    -2
288
     1
 68
     0
279
    -2
289
     1
 69
     0
  7
Standard
140
0.18
170
     5
 62
     0
 63
   257
283
     0
 90
      512
 91
        0
  1

274
    -2
284
     1
 64
     0
275
    -2
285
     1
 65
     0
276
    -2
286
     1
 66
     0
277
    -2
287
     1
 67
     0
278
    -2
288
     1
 68
     0
279
    -2
289
     1
 69
     0
  0
VISUALSTYLE
  5
9F
102
{ACAD_REACTORS
330
99
102
}
330
99
100
AcDbVisualStyle
  2
2dWireframe
 70
     4
177
     3
291
     0
 70
    58
 90
        0
176
     1
 90
        2
176
     1
 90
        1
176
     1
 90
        0
176
     1
 40
-0.6
176
     1
 40
-30.0
176
     1
 62
     7
420
 16777215
176
     1
 90
        1
176
     1
 90
        4
176
     1
 62
     7
176
     1
 62
   257
176
     1
 90
        1
176
     1
 90
        1
176
     1
 40
1.0
176
     1
 90
        0
176
     1
 62
   257
176
     1
 40
1.0
176
     1
 90
        1
176
     1
 90
        6
176
     1
 90
        2
176
     1
 62
     7
176
     1
 90
        5
176
     1
 90
        0
176
     1
 90
        0
176
     1
290
     0
176
     1
 90
        1
176
     1
 40
0.0
176
     1
 90
        0
176
     1
290
     1
176
     1
290
     1
176
     1
290
     0
176
     1
290
     0
176
     1
290
     0
176
     1
290
     0
176
     1
290
     0
176
     1
290
     0
176
     1
290
     0
176
     1
 90
       50
176
     1
 40
0.0
176
     1
 40
1.0
176
     1
 90
        0
176
     1
 62
    18
420
        0
176
     1
 90
       50
176
     1
 90
        3
176
     1
 62
     5
420
      255
176
     1
290
     0
176
     1
 90
       50
176
     1
 90
       50
176
     1
 90
       50
176
     1
290
     0
176
     1
 90
       50
176
     1
 62
   256
176
     0
 40
1.0
176
     0
 90
        2
176
     1
  1
strokes_ogs.tif
176
     1
290
     0
176
     1
 40
1.0
176
     1
 40
1.0
176
     1
  0
VISUALSTYLE
  5
A1
102
{ACAD_REACTORS
330
99
102
}
330
99
100
AcDbVisualStyle
  2
3D Hidden
 70
     6
177
     3
291
     0
 70
    58
 90
        1
176
     1
 90
        2
176
     1
 90
        2
176
     1
 90
        0
176
     1
 40
-0.6
176
     1
 40
-30.0
176
     1
 62
     7
420
 16777215
176
     1
 90
        2
176
     1
 90
        2
176
     1
 62
     7
176
     1
 62
   257
176
     1
 90
        2
176
     1
 90
        1
176
     1
 40
40.0
176
     1
 90
        0
176
     1
 62
   257
176
     1
 40
1.0
176
     1
 90
        1
176
     1
 90
        6
176
     1
 90
        2
176
     1
 62
     7
176
     1
 90
        3
176
     1
 90
        0
176
     1
 90
        0
176
     1
290
     0
176
     1
 90
        1
176
     1
 40
0.0
176
     1
 90
        0
176
     1
290
     0
176
     1
290
     1
176
     1
290
     1
176
     1
290
     0
176
     1
290
     0
176
     1
290
     0
176
     1
290
     0
176
     1
290
     0
176
     1
290
     0
176
     1
 90
       50
176
     1
 40
0.0
176
     1
 40
1.0
176
     1
 90
        0
176
     1
 62
    18
420
        0
176
     1
 90
       50
176
     1
 90
        3
176
     1
 62
     5
420
      255
176
     1
290
     0
176
     1
 90
       50
176
     1
 90
       50
176
     1
 90
       50
176
     1
290
     0
176
     1
 90
       50
176
     1
 62
   256
176
     0
 40
1.0
176
     0
 90
        2
176
     1
  1
strokes_ogs.tif
176
     1
290
     0
176
     1
 40
1.0
176
     1
 40
1.0
176
     1
  0
VISUALSTYLE
  5
A0
102
{ACAD_REACTORS
330
99
102
}
330
99
100
AcDbVisualStyle
  2
3dWireframe
 70
     5
177
     3
291
     0
 70
    58
 90
        0
176
     1
 90
        2
176
     1
 90
        1
176
     1
 90
        0
176
     1
 40
-0.6
176
     1
 40
-30.0
176
     1
 62
     7
420
 16777215
176
     1
 90
        1
176
     1
 90
        4
176
     1
 62
     7
176
     1
 62
   257
176
     1
 90
        1
176
     1
 90
        1
176
     1
 40
1.0
176
     1
 90
        0
176
     1
 62
   257
176
     1
 40
1.0
176
     1
 90
        1
176
     1
 90
        6
176
     1
 90
        2
176
     1
 62
     7
176
     1
 90
        5
176
     1
 90
        0
176
     1
 90
        0
176
     1
290
     0
176
     1
 90
        1
176
     1
 40
0.0
176
     1
 90
        0
176
     1
290
     0
176
     1
290
     1
176
     1
290
     1
176
     1
290
     0
176
     1
290
     0
176
     1
290
     0
176
     1
290
     0
176
     1
290
     0
176
     1
290
     0
176
     1
 90
       50
176
     1
 40
0.0
176
     1
 40
1.0
176
     1
 90
        0
176
     1
 62
    18
420
        0
176
     1
 90
       50
176
     1
 90
        3
176
     1
 62
     5
420
      255
176
     1
290
     0
176
     1
 90
       50
176
     1
 90
       50
176
     1
 90
       50
176
     1
290
     0
176
     1
 90
       50
176
     1
 62
   256
176
     0
 40
1.0
176
     0
 90
        2
176
     1
  1
strokes_ogs.tif
176
     1
290
     0
176
     1
 40
1.0
176
     1
 40
1.0
176
     1
  0
VISUALSTYLE
  5
9E
102
{ACAD_REACTORS
330
99
102
}
330
99
100
AcDbVisualStyle
  2
Basic
 70
     7
177
     3
291
     1
 70
    58
 90
        1
176
     1
 90
        0
176
     1
 90
        1
176
     1
 90
        0
176
     1
 40
-0.6
176
     1
 40
-30.0
176
     1
 62
     7
420
 16777215
176
     1
 90
        0
176
     1
 90
        4
176
     1
 62
     7
176
     1
 62
   257
176
     1
 90
        1
176
     1
 90
        1
176
     1
 40
1.0
176
     1
 90
        8
176
     1
 62
     7
176
     1
 40
1.0
176
     1
 90
        1
176
     1
 90
        6
176
     1
 90
        2
176
     1
 62
     7
176
     1
 90
        5
176
     1
 90
        0
176
     1
 90
        0
176
     1
290
     0
176
     1
 90
        1
176
     1
 40
0.0
176
     1
 90
        0
176
     1
290
     0
176
     1
290
     1
176
     1
290
     1
176
     1
290
     0
176
     1
290
     0
176
     1
290
     0
176
     1
290
     0
176
     1
290
     0
176
     1
290
     0
176
     1
 90
       50
176
     1
 40
0.0
176
     1
 40
1.0
176
     1
 90
        0
176
     1
 62
    18
420
        0
176
     1
 90
       50
176
     1
 90
        3
176
     1
 62
     5
420
      255
176
     1
290
     0
176
     1
 90
       50
176
     1
 90
       50
176
     1
 90
       50
176
     1
290
     0
176
     1
 90
       50
176
     1
 62
   256
176
     0
 40
1.0
176
     0
 90
        2
176
     1
  1
strokes_ogs.tif
176
     1
290
     0
176
     1
 40
1.0
176
     1
 40
1.0
176
     1
  0
VISUALSTYLE
  5
A5
102
{ACAD_REACTORS
330
99
102
}
330
99
100
AcDbVisualStyle
  2
Brighten
 70
    12
177
     3
291
     1
 70
    58
 90
        2
176
     1
 90
        2
176
     1
 90
        1
176
     1
 90
        0
176
     1
 40
-0.6
176
     1
 40
-30.0
176
     1
 62
     7
420
 16777215
176
     1
 90
        1
176
     1
 90
        4
176
     1
 62
     7
176
     1
 62
   257
176
     1
 90
        1
176
     1
 90
        1
176
     1
 40
1.0
176
     1
 90
        8
176
     1
 62
     7
176
     1
 40
1.0
176
     1
 90
        1
176
     1
 90
        6
176
     1
 90
        2
176
     1
 62
     7
176
     1
 90
        5
176
     1
 90
        0
176
     1
 90
        0
176
     1
290
     0
176
     1
 90
        1
176
     1
 40
50.0
176
     1
 90
        0
176
     1
290
     0
176
     1
290
     1
176
     1
290
     1
176
     1
290
     0
176
     1
290
     0
176
     1
290
     0
176
     1
290
     0
176
     1
290
     0
176
     1
290
     0
176
     1
 90
       50
176
     1
 40
0.0
176
     1
 40
1.0
176
     1
 90
        0
176
     1
 62
    18
420
        0
176
     1
 90
       50
176
     1
 90
        3
176
     1
 62
     5
420
      255
176
     1
290
     0
176
     1
 90
       50
176
     1
 90
       50
176
     1
 90
       50
176
     1
290
     0
176
     1
 90
       50
176
     1
 62
   256
176
     0
 40
1.0
176
     0
 90
        2
176
     1
  1
strokes_ogs.tif
176
     1
290
     0
176
     1
 40
1.0
176
     1
 40
1.0
176
     1
  0
VISUALSTYLE
  5
A9
102
{ACAD_REACTORS
330
99
102
}
330
99
100
AcDbVisualStyle
  2
ColorChange
 70
    16
177
     3
291
     1
 70
    58
 90
        2
176
     1
 90
        2
176
     1
 90
        3
176
     1
 90
        0
176
     1
 40
-0.6
176
     1
 40
-30.0
176
     1
 62
     8
420
  8421504
176
     1
 90
        1
176
     1
 90
        4
176
     1
 62
     7
176
     1
 62
   257
176
     1
 90
        1
176
     1
 90
        1
176
     1
 40
1.0
176
     1
 90
        8
176
     1
 62
     8
420
  8421504
176
     1
 40
1.0
176
     1
 90
        1
176
     1
 90
        6
176
     1
 90
        2
176
     1
 62
     7
176
     1
 90
        5
176
     1
 90
        0
176
     1
 90
        0
176
     1
290
     0
176
     1
 90
        1
176
     1
 40
0.0
176
     1
 90
        0
176
     1
290
     0
176
     1
290
     1
176
     1
290
     1
176
     1
290
     0
176
     1
290
     0
176
     1
290
     0
176
     1
290
     0
176
     1
290
     0
176
     1
290
     0
176
     1
 90
       50
176
     1
 40
0.0
176
     1
 40
1.0
176
     1
 90
        0
176
     1
 62
    18
420
        0
176
     1
 90
       50
176
     1
 90
        3
176
     1
 62
     5
420
      255
176
     1
290
     0
176
     1
 90
       50
176
     1
 90
       50
176
     1
 90
       50
176
     1
290
     0
176
     1
 90
       50
176
     1
 62
   256
176
     0
 40
1.0
176
     0
 90
        2
176
     1
  1
strokes_ogs.tif
176
     1
290
     0
176
     1
 40
1.0
176
     1
 40
1.0
176
     1
  0
VISUALSTYLE
  5
A2
102
{ACAD_REACTORS
330
99
102
}
330
99
100
AcDbVisualStyle
  2
Conceptual
 70
     9
177
     3
291
     0
 70
    58
 90
        3
176
     1
 90
        2
176
     1
 90
        1
176
     1
 90
        0
176
     1
 40
-0.6
176
     1
 40
-30.0
176
     1
 62
     7
420
 16777215
176
     1
 90
        2
176
     1
 90
        2
176
     1
 62
     7
176
     1
 62
   257
176
     1
 90
        1
176
     1
 90
        1
176
     1
 40
40.0
176
     1
 90
        8
176
     1
 62
     7
176
     1
 40
1.0
176
     1
 90
        1
176
     1
 90
        6
176
     1
 90
        2
176
     1
 62
     7
176
     1
 90
        3
176
     1
 90
        0
176
     1
 90
        0
176
     1
290
     0
176
     1
 90
        1
176
     1
 40
0.0
176
     1
 90
        0
176
     1
290
     0
176
     1
290
     1
176
     1
290
     1
176
     1
290
     0
176
     1
290
     0
176
     1
290
     0
176
     1
290
     0
176
     1
290
     0
176
     1
290
     0
176
     1
 90
       50
176
     1
 40
0.0
176
     1
 40
1.0
176
     1
 90
        0
176
     1
 62
    18
420
        0
176
     1
 90
       50
176
     1
 90
        3
176
     1
 62
     5
420
      255
176
     1
290
     0
176
     1
 90
       50
176
     1
 90
       50
176
     1
 90
       50
176
     1
290
     0
176
     1
 90
       50
176
     1
 62
   256
176
     0
 40
1.0
176
     0
 90
        2
176
     1
  1
strokes_ogs.tif
176
     1
290
     0
176
     1
 40
1.0
176
     1
 40
1.0
176
     1
  0
VISUALSTYLE
  5
A4
102
{ACAD_REACTORS
330
99
102
}
330
99
100
AcDbVisualStyle
  2
Dim
 70
    11
177
     3
291
     1
 70
    58
 90
        2
176
     1
 90
        2
176
     1
 90
        1
176
     1
 90
        0
176
     1
 40
-0.6
176
     1
 40
-30.0
176
     1
 62
     7
420
 16777215
176
     1
 90
        1
176
     1
 90
        4
176
     1
 62
     7
176
     1
 62
   257
176
     1
 90
        1
176
     1
 90
        1
176
     1
 40
1.0
176
     1
 90
        8
176
     1
 62
     7
176
     1
 40
1.0
176
     1
 90
        1
176
     1
 90
        6
176
     1
 90
        2
176
     1
 62
     7
176
     1
 90
        5
176
     1
 90
        0
176
     1
 90
        0
176
     1
290
     0
176
     1
 90
        1
176
     1
 40
-50.0
176
     1
 90
        0
176
     1
290
     0
176
     1
290
     1
176
     1
290
     1
176
     1
290
     0
176
     1
290
     0
176
     1
290
     0
176
     1
290
     0
176
     1
290
     0
176
     1
290
     0
176
     1
 90
       50
176
     1
 40
0.0
176
     1
 40
1.0
176
     1
 90
        0
176
     1
 62
    18
420
        0
176
     1
 90
       50
176
     1
 90
        3
176
     1
 62
     5
420
      255
176
     1
290
     0
176
     1
 90
       50
176
     1
 90
       50
176
     1
 90
       50
176
     1
290
     0
176
     1
 90
       50
176
     1
 62
   256
176
     0
 40
1.0
176
     0
 90
        2
176
     1
  1
strokes_ogs.tif
176
     1
290
     0
176
     1
 40
1.0
176
     1
 40
1.0
176
     1
  0
VISUALSTYLE
  5
E7
102
{ACAD_REACTORS
330
99
102
}
330
99
100
AcDbVisualStyle
  2
EdgeColorOff
 70
    22
177
     3
291
     1
 70
    58
 90
        2
176
     0
 90
        2
176
     0
 90
        0
176
     0
 90
        0
176
     0
 40
0.6
176
     0
 40
30.0
176
     0
 62
     7
420
 16777215
176
     0
 90
        1
176
     0
 90
        4
176
     0
 62
     7
176
     0
 62
   257
176
     0
 90
        1
176
     0
 90
        1
176
     0
 40
1.0
176
     0
 90
        8
176
     2
 62
     7
176
     0
 40
1.0
176
     0
 90
        1
176
     0
 90
        6
176
     0
 90
        2
176
     0
 62
     7
176
     0
 90
        5
176
     0
 90
        0
176
     0
 90
        0
176
     0
290
     0
176
     0
 90
        1
176
     0
 40
0.0
176
     0
 90
        0
176
     0
290
     0
176
     0
290
     1
176
     0
290
     1
176
     0
290
     0
176
     0
290
     0
176
     0
290
     0
176
     0
290
     0
176
     0
290
     0
176
     0
290
     0
176
     0
 90
       50
176
     0
 40
0.0
176
     0
 40
1.0
176
     0
 90
        0
176
     0
 62
    18
420
        0
176
     0
 90
       50
176
     0
 90
        3
176
     0
 62
     5
420
      255
176
     0
290
     0
176
     0
 90
       50
176
     0
 90
       50
176
     0
 90
       50
176
     0
290
     0
176
     0
 90
       50
176
     0
 62
   256
176
     0
 40
1.0
176
     0
 90
        2
176
     0
  1
strokes_ogs.tif
176
     0
290
     0
176
     0
 40
1.0
176
     0
 40
1.0
176
     0
  0
VISUALSTYLE
  5
A8
102
{ACAD_REACTORS
330
99
102
}
330
99
100
AcDbVisualStyle
  2
Facepattern
 70
    15
177
     3
291
     1
 70
    58
 90
        2
176
     1
 90
        2
176
     1
 90
        1
176
     1
 90
        0
176
     1
 40
-0.6
176
     1
 40
-30.0
176
     1
 62
     7
420
 16777215
176
     1
 90
        1
176
     1
 90
        4
176
     1
 62
     7
176
     1
 62
   257
176
     1
 90
        1
176
     1
 90
        1
176
     1
 40
1.0
176
     1
 90
        8
176
     1
 62
     7
176
     1
 40
1.0
176
     1
 90
        1
176
     1
 90
        6
176
     1
 90
        2
176
     1
 62
     7
176
     1
 90
        5
176
     1
 90
        0
176
     1
 90
        0
176
     1
290
     0
176
     1
 90
        1
176
     1
 40
0.0
176
     1
 90
        0
176
     1
290
     0
176
     1
290
     1
176
     1
290
     1
176
     1
290
     0
176
     1
290
     0
176
     1
290
     0
176
     1
290
     0
176
     1
290
     0
176
     1
290
     0
176
     1
 90
       50
176
     1
 40
0.0
176
     1
 40
1.0
176
     1
 90
        0
176
     1
 62
    18
420
        0
176
     1
 90
       50
176
     1
 90
        3
176
     1
 62
     5
420
      255
176
     1
290
     0
176
     1
 90
       50
176
     1
 90
       50
176
     1
 90
       50
176
     1
290
     0
176
     1
 90
       50
176
     1
 62
   256
176
     0
 40
1.0
176
     0
 90
        2
176
     1
  1
strokes_ogs.tif
176
     1
290
     0
176
     1
 40
1.0
176
     1
 40
1.0
176
     1
  0
VISUALSTYLE
  5
9A
102
{ACAD_REACTORS
330
99
102
}
330
99
100
AcDbVisualStyle
  2
Flat
 70
     0
177
     3
291
     1
 70
    58
 90
        2
176
     1
 90
        1
176
     1
 90
        1
176
     1
 90
        2
176
     1
 40
-0.6
176
     1
 40
30.0
176
     1
 62
     7
420
 16777215
176
     1
 90
        0
176
     1
 90
        4
176
     1
 62
     7
176
     1
 62
   257
176
     1
 90
        1
176
     1
 90
        1
176
     1
 40
1.0
176
     1
 90
        8
176
     1
 62
     7
176
     1
 40
1.0
176
     1
 90
        1
176
     1
 90
        6
176
     1
 90
        2
176
     1
 62
     7
176
     1
 90
        5
176
     1
 90
        0
176
     1
 90
        0
176
     1
290
     0
176
     1
 90
        1
176
     1
 40
0.0
176
     1
 90
        0
176
     1
290
     0
176
     1
290
     1
176
     1
290
     1
176
     1
290
     0
176
     1
290
     0
176
     1
290
     0
176
     1
290
     0
176
     1
290
     0
176
     1
290
     0
176
     1
 90
       50
176
     1
 40
0.0
176
     1
 40
1.0
176
     1
 90
        0
176
     1
 62
    18
420
        0
176
     1
 90
       50
176
     1
 90
        3
176
     1
 62
     5
420
      255
176
     1
290
     0
176
     1
 90
       50
176
     1
 90
       50
176
     1
 90
       50
176
     1
290
     0
176
     1
 90
       50
176
     1
 62
   256
176
     0
 40
1.0
176
     0
 90
        2
176
     1
  1
strokes_ogs.tif
176
     1
290
     0
176
     1
 40
1.0
176
     1
 40
1.0
176
     1
  0
VISUALSTYLE
  5
9B
102
{ACAD_REACTORS
330
99
102
}
330
99
100
AcDbVisualStyle
  2
FlatWithEdges
 70
     1
177
     3
291
     1
 70
    58
 90
        2
176
     1
 90
        1
176
     1
 90
        1
176
     1
 90
        2
176
     1
 40
-0.6
176
     1
 40
30.0
176
     1
 62
     7
420
 16777215
176
     1
 90
        1
176
     1
 90
        4
176
     1
 62
     7
176
     1
 62
   257
176
     1
 90
        1
176
     1
 90
        1
176
     1
 40
1.0
176
     1
 90
        0
176
     1
 62
   257
176
     1
 40
1.0
176
     1
 90
        1
176
     1
 90
        6
176
     1
 90
        2
176
     1
 62
     7
176
     1
 90
        5
176
     1
 90
        0
176
     1
 90
        0
176
     1
290
     0
176
     1
 90
        1
176
     1
 40
0.0
176
     1
 90
        0
176
     1
290
     0
176
     1
290
     1
176
     1
290
     1
176
     1
290
     0
176
     1
290
     0
176
     1
290
     0
176
     1
290
     0
176
     1
290
     0
176
     1
290
     0
176
     1
 90
       50
176
     1
 40
0.0
176
     1
 40
1.0
176
     1
 90
        0
176
     1
 62
    18
420
        0
176
     1
 90
       50
176
     1
 90
        3
176
     1
 62
     5
420
      255
176
     1
290
     0
176
     1
 90
       50
176
     1
 90
       50
176
     1
 90
       50
176
     1
290
     0
176
     1
 90
       50
176
     1
 62
   256
176
     0
 40
1.0
176
     0
 90
        2
176
     1
  1
strokes_ogs.tif
176
     1
290
     0
176
     1
 40
1.0
176
     1
 40
1.0
176
     1
  0
VISUALSTYLE
  5
9C
102
{ACAD_REACTORS
330
99
102
}
330
99
100
AcDbVisualStyle
  2
Gouraud
 70
     2
177
     3
291
     1
 70
    58
 90
        2
176
     1
 90
        2
176
     1
 90
        1
176
     1
 90
        2
176
     1
 40
-0.6
176
     1
 40
30.0
176
     1
 62
     7
420
 16777215
176
     1
 90
        0
176
     1
 90
        4
176
     1
 62
     7
176
     1
 62
   257
176
     1
 90
        1
176
     1
 90
        1
176
     1
 40
1.0
176
     1
 90
        0
176
     1
 62
     7
176
     1
 40
1.0
176
     1
 90
        1
176
     1
 90
        6
176
     1
 90
        2
176
     1
 62
     7
176
     1
 90
        5
176
     1
 90
        0
176
     1
 90
        0
176
     1
290
     0
176
     1
 90
        1
176
     1
 40
0.0
176
     1
 90
        0
176
     1
290
     0
176
     1
290
     1
176
     1
290
     1
176
     1
290
     0
176
     1
290
     0
176
     1
290
     0
176
     1
290
     0
176
     1
290
     0
176
     1
290
     0
176
     1
 90
       50
176
     1
 40
0.0
176
     1
 40
1.0
176
     1
 90
        0
176
     1
 62
    18
420
        0
176
     1
 90
       50
176
     1
 90
        3
176
     1
 62
     5
420
      255
176
     1
290
     0
176
     1
 90
       50
176
     1
 90
       50
176
     1
 90
       50
176
     1
290
     0
176
     1
 90
       50
176
     1
 62
   256
176
     0
 40
1.0
176
     0
 90
        2
176
     1
  1
strokes_ogs.tif
176
     1
290
     0
176
     1
 40
1.0
176
     1
 40
1.0
176
     1
  0
VISUALSTYLE
  5
9D
102
{ACAD_REACTORS
330
99
102
}
330
99
100
AcDbVisualStyle
  2
GouraudWithEdges
 70
     3
177
     3
291
     1
 70
    58
 90
        2
176
     1
 90
        2
176
     1
 90
        1
176
     1
 90
        2
176
     1
 40
-0.6
176
     1
 40
30.0
176
     1
 62
     7
420
 16777215
176
     1
 90
        1
176
     1
 90
        4
176
     1
 62
     7
176
     1
 62
   257
176
     1
 90
        1
176
     1
 90
        1
176
     1
 40
1.0
176
     1
 90
        0
176
     1
 62
   257
176
     1
 40
1.0
176
     1
 90
        1
176
     1
 90
        6
176
     1
 90
        2
176
     1
 62
     7
176
     1
 90
        5
176
     1
 90
        0
176
     1
 90
        0
176
     1
290
     0
176
     1
 90
        1
176
     1
 40
0.0
176
     1
 90
        0
176
     1
290
     0
176
     1
290
     1
176
     1
290
     1
176
     1
290
     0
176
     1
290
     0
176
     1
290
     0
176
     1
290
     0
176
     1
290
     0
176
     1
290
     0
176
     1
 90
       50
176
     1
 40
0.0
176
     1
 40
1.0
176
     1
 90
        0
176
     1
 62
    18
420
        0
176
     1
 90
       50
176
     1
 90
        3
176
     1
 62
     5
420
      255
176
     1
290
     0
176
     1
 90
       50
176
     1
 90
       50
176
     1
 90
       50
176
     1
290
     0
176
     1
 90
       50
176
     1
 62
   256
176
     0
 40
1.0
176
     0
 90
        2
176
     1
  1
strokes_ogs.tif
176
     1
290
     0
176
     1
 40
1.0
176
     1
 40
1.0
176
     1
  0
VISUALSTYLE
  5
E4
102
{ACAD_REACTORS
330
99
102
}
330
99
100
AcDbVisualStyle
  2
Hidden
 70
     6
177
     3
291
     0
 70
    58
 90
        1
176
     1
 90
        2
176
     1
 90
        2
176
     1
 90
        0
176
     1
 40
0.6
176
     1
 40
30.0
176
     1
 62
     7
420
 16777215
176
     1
 90
        2
176
     1
 90
        2
176
     1
 62
     7
176
     1
 62
   257
176
     1
 90
        2
176
     1
 90
        1
176
     1
 40
40.0
176
     1
 90
        0
176
     1
 62
   257
176
     1
 40
1.0
176
     1
 90
        1
176
     1
 90
        6
176
     1
 90
        2
176
     1
 62
     7
176
     1
 90
        3
176
     1
 90
        0
176
     1
 90
        0
176
     1
290
     0
176
     1
 90
        1
176
     1
 40
0.0
176
     1
 90
        0
176
     1
290
     0
176
     1
290
     1
176
     1
290
     1
176
     1
290
     0
176
     1
290
     0
176
     1
290
     0
176
     1
290
     0
176
     1
290
     0
176
     1
290
     0
176
     1
 90
       50
176
     1
 40
0.0
176
     1
 40
1.0
176
     1
 90
        0
176
     1
 62
    18
420
        0
176
     1
 90
       50
176
     1
 90
        3
176
     1
 62
     5
420
      255
176
     1
290
     0
176
     1
 90
       50
176
     1
 90
       50
176
     1
 90
       50
176
     1
290
     0
176
     1
 90
       50
176
     1
 62
   256
176
     0
 40
1.0
176
     0
 90
        2
176
     1
  1
strokes_ogs.tif
176
     1
290
     0
176
     1
 40
1.0
176
     1
 40
1.0
176
     1
  0
VISUALSTYLE
  5
E5
102
{ACAD_REACTORS
330
99
102
}
330
99
100
AcDbVisualStyle
  2
JitterOff
 70
    20
177
     3
291
     1
 70
    58
 90
        2
176
     0
 90
        2
176
     0
 90
        0
176
     0
 90
        0
176
     0
 40
0.6
176
     0
 40
30.0
176
     0
 62
     7
420
 16777215
176
     0
 90
        1
176
     0
 90
        4
176
     0
 62
     7
176
     0
 62
   257
176
     0
 90
        1
176
     0
 90
        1
176
     0
 40
1.0
176
     0
 90
       10
176
     2
 62
     7
176
     0
 40
1.0
176
     0
 90
        1
176
     0
 90
        6
176
     0
 90
        2
176
     0
 62
     7
176
     0
 90
        5
176
     0
 90
        0
176
     0
 90
        0
176
     0
290
     0
176
     0
 90
        1
176
     0
 40
0.0
176
     0
 90
        0
176
     0
290
     0
176
     0
290
     1
176
     0
290
     1
176
     0
290
     0
176
     0
290
     0
176
     0
290
     0
176
     0
290
     0
176
     0
290
     0
176
     0
290
     0
176
     0
 90
       50
176
     0
 40
0.0
176
     0
 40
1.0
176
     0
 90
        0
176
     0
 62
    18
420
        0
176
     0
 90
       50
176
     0
 90
        3
176
     0
 62
     5
420
      255
176
     0
290
     0
176
     0
 90
       50
176
     0
 90
       50
176
     0
 90
       50
176
     0
290
     0
176
     0
 90
       50
176
     0
 62
   256
176
     0
 40
1.0
176
     0
 90
        2
176
     0
  1
strokes_ogs.tif
176
     0
290
     0
176
     0
 40
1.0
176
     0
 40
1.0
176
     0
  0
VISUALSTYLE
  5
A7
102
{ACAD_REACTORS
330
99
102
}
330
99
100
AcDbVisualStyle
  2
Linepattern
 70
    14
177
     3
291
     1
 70
    58
 90
        2
176
     1
 90
        2
176
     1
 90
        1
176
     1
 90
        0
176
     1
 40
-0.6
176
     1
 40
-30.0
176
     1
 62
     7
420
 16777215
176
     1
 90
        1
176
     1
 90
        4
176
     1
 62
     7
176
     1
 62
   257
176
     1
 90
        7
176
     1
 90
        7
176
     1
 40
1.0
176
     1
 90
        8
176
     1
 62
     7
176
     1
 40
1.0
176
     1
 90
        1
176
     1
 90
        6
176
     1
 90
        2
176
     1
 62
     7
176
     1
 90
        5
176
     1
 90
        0
176
     1
 90
        0
176
     1
290
     0
176
     1
 90
        1
176
     1
 40
0.0
176
     1
 90
        0
176
     1
290
     0
176
     1
290
     1
176
     1
290
     1
176
     1
290
     0
176
     1
290
     0
176
     1
290
     0
176
     1
290
     0
176
     1
290
     0
176
     1
290
     0
176
     1
 90
       50
176
     1
 40
0.0
176
     1
 40
1.0
176
     1
 90
        0
176
     1
 62
    18
420
        0
176
     1
 90
       50
176
     1
 90
        3
176
     1
 62
     5
420
      255
176
     1
290
     0
176
     1
 90
       50
176
     1
 90
       50
176
     1
 90
       50
176
     1
290
     0
176
     1
 90
       50
176
     1
 62
   256
176
     0
 40
1.0
176
     0
 90
        2
176
     1
  1
strokes_ogs.tif
176
     1
290
     0
176
     1
 40
1.0
176
     1
 40
1.0
176
     1
  0
VISUALSTYLE
  5
E6
102
{ACAD_REACTORS
330
99
102
}
330
99
100
AcDbVisualStyle
  2
OverhangOff
 70
    21
177
     3
291
     1
 70
    58
 90
        2
176
     0
 90
        2
176
     0
 90
        0
176
     0
 90
        0
176
     0
 40
0.6
176
     0
 40
30.0
176
     0
 62
     7
420
 16777215
176
     0
 90
        1
176
     0
 90
        4
176
     0
 62
     7
176
     0
 62
   257
176
     0
 90
        1
176
     0
 90
        1
176
     0
 40
1.0
176
     0
 90
        9
176
     2
 62
     7
176
     0
 40
1.0
176
     0
 90
        1
176
     0
 90
        6
176
     0
 90
        2
176
     0
 62
     7
176
     0
 90
        5
176
     0
 90
        0
176
     0
 90
        0
176
     0
290
     0
176
     0
 90
        1
176
     0
 40
0.0
176
     0
 90
        0
176
     0
290
     0
176
     0
290
     1
176
     0
290
     1
176
     0
290
     0
176
     0
290
     0
176
     0
290
     0
176
     0
290
     0
176
     0
290
     0
176
     0
290
     0
176
     0
 90
       50
176
     0
 40
0.0
176
     0
 40
1.0
176
     0
 90
        0
176
     0
 62
    18
420
        0
176
     0
 90
       50
176
     0
 90
        3
176
     0
 62
     5
420
      255
176
     0
290
     0
176
     0
 90
       50
176
     0
 90
       50
176
     0
 90
       50
176
     0
290
     0
176
     0
 90
       50
176
     0
 62
   256
176
     0
 40
1.0
176
     0
 90
        2
176
     0
  1
strokes_ogs.tif
176
     0
290
     0
176
     0
 40
1.0
176
     0
 40
1.0
176
     0
  0
VISUALSTYLE
  5
A3
102
{ACAD_REACTORS
330
99
102
}
330
99
100
AcDbVisualStyle
  2
Realistic
 70
     8
177
     3
291
     0
 70
    58
 90
        2
176
     1
 90
        2
176
     1
 90
        1
176
     1
 90
        0
176
     1
 40
-0.6
176
     1
 40
-30.0
176
     1
 62
     7
420
 16777215
176
     1
 90
        1
176
     1
 90
        0
176
     1
 62
     7
176
     1
 62
   257
176
     1
 90
        1
176
     1
 90
        1
176
     1
 40
1.0
176
     1
 90
        8
176
     1
 62
     8
420
  7895160
176
     1
 40
1.0
176
     1
 90
        1
176
     1
 90
        6
176
     1
 90
        2
176
     1
 62
     7
176
     1
 90
        5
176
     1
 90
        0
176
     1
 90
        0
176
     1
290
     0
176
     1
 90
       13
176
     1
 40
0.0
176
     1
 90
        0
176
     1
290
     0
176
     1
290
     1
176
     1
290
     1
176
     1
290
     0
176
     1
290
     0
176
     1
290
     0
176
     1
290
     0
176
     1
290
     0
176
     1
290
     0
176
     1
 90
       50
176
     1
 40
0.0
176
     1
 40
1.0
176
     1
 90
        0
176
     1
 62
    18
420
        0
176
     1
 90
       50
176
     1
 90
        3
176
     1
 62
     5
420
      255
176
     1
290
     0
176
     1
 90
       50
176
     1
 90
       50
176
     1
 90
       50
176
     1
290
     0
176
     1
 90
       50
176
     1
 62
   256
176
     0
 40
1.0
176
     0
 90
        2
176
     1
  1
strokes_ogs.tif
176
     1
290
     0
176
     1
 40
1.0
176
     1
 40
1.0
176
     1
  0
VISUALSTYLE
  5
EC
102
{ACAD_REACTORS
330
99
102
}
330
99
100
AcDbVisualStyle
  2
Shaded
 70
    27
177
     3
291
     0
 70
    58
 90
        2
176
     1
 90
        2
176
     1
 90
        1
176
     1
 90
        2
176
     1
 40
0.6
176
     1
 40
30.0
176
     1
 62
     7
420
 16777215
176
     1
 90
        0
176
     1
 90
        4
176
     1
 62
     7
176
     1
 62
   257
176
     1
 90
        1
176
     1
 90
        1
176
     1
 40
1.0
176
     1
 90
        8
176
     1
 62
   257
176
     1
 40
1.0
176
     1
 90
        1
176
     1
 90
        6
176
     1
 90
        2
176
     1
 62
     8
420
  7895160
176
     1
 90
        3
176
     1
 90
        0
176
     1
 90
        0
176
     1
290
     0
176
     1
 90
        5
176
     1
 40
0.0
176
     1
 90
        0
176
     1
290
     0
176
     1
290
     1
176
     1
290
     1
176
     1
290
     0
176
     1
290
     0
176
     1
290
     0
176
     1
290
     0
176
     1
290
     0
176
     1
290
     0
176
     1
 90
       50
176
     1
 40
0.0
176
     1
 40
1.0
176
     1
 90
        0
176
     1
 62
    18
420
        0
176
     1
 90
       50
176
     1
 90
        3
176
     1
 62
     5
420
      255
176
     1
290
     0
176
     1
 90
       50
176
     1
 90
       50
176
     1
 90
       50
176
     1
290
     0
176
     1
 90
       50
176
     1
 62
   256
176
     0
 40
1.0
176
     0
 90
        2
176
     1
  1
strokes_ogs.tif
176
     1
290
     0
176
     1
 40
1.0
176
     1
 40
1.0
176
     1
  0
VISUALSTYLE
  5
EB
102
{ACAD_REACTORS
330
99
102
}
330
99
100
AcDbVisualStyle
  2
Shaded with edges
 70
    26
177
     3
291
     0
 70
    58
 90
        2
176
     1
 90
        2
176
     1
 90
        1
176
     1
 90
        2
176
     1
 40
0.6
176
     1
 40
30.0
176
     1
 62
     7
420
 16777215
176
     1
 90
        1
176
     1
 90
       10
176
     1
 62
     7
176
     1
 62
   257
176
     1
 90
        2
176
     1
 90
        1
176
     1
 40
1.0
176
     1
 90
        8
176
     1
 62
   257
176
     1
 40
1.0
176
     1
 90
        1
176
     1
 90
        6
176
     1
 90
        2
176
     1
 62
     7
176
     1
 90
        3
176
     1
 90
        0
176
     1
 90
        0
176
     1
290
     0
176
     1
 90
        5
176
     1
 40
0.0
176
     1
 90
        0
176
     1
290
     0
176
     1
290
     1
176
     1
290
     1
176
     1
290
     0
176
     1
290
     0
176
     1
290
     0
176
     1
290
     0
176
     1
290
     0
176
     1
290
     0
176
     1
 90
       50
176
     1
 40
0.0
176
     1
 40
1.0
176
     1
 90
        0
176
     1
 62
    18
420
        0
176
     1
 90
       50
176
     1
 90
        3
176
     1
 62
     5
420
      255
176
     1
290
     0
176
     1
 90
       50
176
     1
 90
       50
176
     1
 90
       50
176
     1
290
     0
176
     1
 90
       50
176
     1
 62
   256
176
     0
 40
1.0
176
     0
 90
        2
176
     1
  1
strokes_ogs.tif
176
     1
290
     0
176
     1
 40
1.0
176
     1
 40
1.0
176
     1
  0
VISUALSTYLE
  5
E8
102
{ACAD_REACTORS
330
99
102
}
330
99
100
AcDbVisualStyle
  2
Shades of Gray
 70
    23
177
     3
291
     0
 70
    58
 90
        2
176
     1
 90
        2
176
     1
 90
        3
176
     1
 90
        0
176
     1
 40
0.6
176
     1
 40
30.0
176
     1
 62
     7
420
 16777215
176
     1
 90
        2
176
     1
 90
        2
176
     1
 62
     7
176
     1
 62
     7
176
     1
 90
        1
176
     1
 90
        1
176
     1
 40
40.0
176
     1
 90
        8
176
     1
 62
     7
176
     1
 40
1.0
176
     1
 90
        1
176
     1
 90
        6
176
     1
 90
        2
176
     1
 62
     7
176
     1
 90
        3
176
     1
 90
        0
176
     1
 90
        0
176
     1
290
     0
176
     1
 90
        1
176
     1
 40
0.0
176
     1
 90
        0
176
     1
290
     0
176
     1
290
     1
176
     1
290
     1
176
     1
290
     0
176
     1
290
     0
176
     1
290
     0
176
     1
290
     0
176
     1
290
     0
176
     1
290
     0
176
     1
 90
       50
176
     1
 40
0.0
176
     1
 40
1.0
176
     1
 90
        0
176
     1
 62
    18
420
        0
176
     1
 90
       50
176
     1
 90
        3
176
     1
 62
     5
420
      255
176
     1
290
     0
176
     1
 90
       50
176
     1
 90
       50
176
     1
 90
       50
176
     1
290
     0
176
     1
 90
       50
176
     1
 62
   256
176
     0
 40
1.0
176
     0
 90
        2
176
     1
  1
strokes_ogs.tif
176
     1
290
     0
176
     1
 40
1.0
176
     1
 40
1.0
176
     1
  0
VISUALSTYLE
  5
E9
102
{ACAD_REACTORS
330
99
102
}
330
99
100
AcDbVisualStyle
  2
Sketchy
 70
    24
177
     3
291
     0
 70
    58
 90
        1
176
     1
 90
        2
176
     1
 90
        2
176
     1
 90
        0
176
     1
 40
0.6
176
     1
 40
30.0
176
     1
 62
     7
420
 16777215
176
     1
 90
        2
176
     1
 90
        2
176
     1
 62
     7
176
     1
 62
     7
176
     1
 90
        1
176
     1
 90
        1
176
     1
 40
40.0
176
     1
 90
       11
176
     1
 62
     7
176
     1
 40
1.0
176
     1
 90
        1
176
     1
 90
        6
176
     1
 90
        2
176
     1
 62
     7
176
     1
 90
        6
176
     1
 90
        0
176
     1
 90
        0
176
     1
290
     0
176
     1
 90
        1
176
     1
 40
0.0
176
     1
 90
        0
176
     1
290
     0
176
     1
290
     1
176
     1
290
     1
176
     1
290
     0
176
     1
290
     0
176
     1
290
     0
176
     1
290
     0
176
     1
290
     0
176
     1
290
     0
176
     1
 90
       50
176
     1
 40
0.0
176
     1
 40
1.0
176
     1
 90
        0
176
     1
 62
    18
420
        0
176
     1
 90
       50
176
     1
 90
        3
176
     1
 62
     5
420
      255
176
     1
290
     0
176
     1
 90
       50
176
     1
 90
       50
176
     1
 90
       50
176
     1
290
     0
176
     1
 90
       50
176
     1
 62
   256
176
     0
 40
1.0
176
     0
 90
        2
176
     1
  1
strokes_ogs.tif
176
     1
290
     0
176
     1
 40
1.0
176
     1
 40
1.0
176
     1
  0
VISUALSTYLE
  5
A6
102
{ACAD_REACTORS
330
99
102
}
330
99
100
AcDbVisualStyle
  2
Thicken
 70
    13
177
     3
291
     1
 70
    58
 90
        2
176
     1
 90
        2
176
     1
 90
        1
176
     1
 90
        0
176
     1
 40
-0.6
176
     1
 40
-30.0
176
     1
 62
     7
420
 16777215
176
     1
 90
        1
176
     1
 90
        4
176
     1
 62
     7
176
     1
 62
   257
176
     1
 90
        1
176
     1
 90
        1
176
     1
 40
1.0
176
     1
 90
       12
176
     1
 62
     7
176
     1
 40
1.0
176
     1
 90
        1
176
     1
 90
        6
176
     1
 90
        2
176
     1
 62
     7
176
     1
 90
        5
176
     1
 90
        0
176
     1
 90
        0
176
     1
290
     0
176
     1
 90
        1
176
     1
 40
0.0
176
     1
 90
        0
176
     1
290
     0
176
     1
290
     1
176
     1
290
     1
176
     1
290
     0
176
     1
290
     0
176
     1
290
     0
176
     1
290
     0
176
     1
290
     0
176
     1
290
     0
176
     1
 90
       50
176
     1
 40
0.0
176
     1
 40
1.0
176
     1
 90
        0
176
     1
 62
    18
420
        0
176
     1
 90
       50
176
     1
 90
        3
176
     1
 62
     5
420
      255
176
     1
290
     0
176
     1
 90
       50
176
     1
 90
       50
176
     1
 90
       50
176
     1
290
     0
176
     1
 90
       50
176
     1
 62
   256
176
     0
 40
1.0
176
     0
 90
        2
176
     1
  1
strokes_ogs.tif
176
     1
290
     0
176
     1
 40
1.0
176
     1
 40
1.0
176
     1
  0
VISUALSTYLE
  5
E3
102
{ACAD_REACTORS
330
99
102
}
330
99
100
AcDbVisualStyle
  2
Wireframe
 70
     5
177
     3
291
     0
 70
    58
 90
        0
176
     1
 90
        2
176
     1
 90
        0
176
     1
 90
        0
176
     1
 40
0.6
176
     1
 40
30.0
176
     1
 62
     7
420
 16777215
176
     1
 90
        1
176
     1
 90
        4
176
     1
 62
     7
176
     1
 62
   257
176
     1
 90
        1
176
     1
 90
        1
176
     1
 40
1.0
176
     1
 90
        0
176
     1
 62
   257
176
     1
 40
1.0
176
     1
 90
        1
176
     1
 90
        6
176
     1
 90
        2
176
     1
 62
     7
176
     1
 90
        3
176
     1
 90
        0
176
     1
 90
        0
176
     1
290
     0
176
     1
 90
        1
176
     1
 40
0.0
176
     1
 90
        0
176
     1
290
     0
176
     1
290
     1
176
     1
290
     1
176
     1
290
     0
176
     1
290
     0
176
     1
290
     0
176
     1
290
     0
176
     1
290
     0
176
     1
290
     0
176
     1
 90
       50
176
     1
 40
0.0
176
     1
 40
1.0
176
     1
 90
        0
176
     1
 62
    18
420
        0
176
     1
 90
       50
176
     1
 90
        3
176
     1
 62
     5
420
      255
176
     1
290
     0
176
     1
 90
       50
176
     1
 90
       50
176
     1
 90
       50
176
     1
290
     0
176
     1
 90
       50
176
     1
 62
   256
176
     0
 40
1.0
176
     0
 90
        2
176
     1
  1
strokes_ogs.tif
176
     1
290
     0
176
     1
 40
1.0
176
     1
 40
1.0
176
     1
  0
VISUALSTYLE
  5
EA
102
{ACAD_REACTORS
330
99
102
}
330
99
100
AcDbVisualStyle
  2
X-Ray
 70
    25
177
     3
291
     0
 70
    58
 90
        2
176
     1
 90
        2
176
     1
 90
        1
176
     1
 90
        1
176
     1
 40
0.5
176
     1
 40
30.0
176
     1
 62
     7
420
 16777215
176
     1
 90
        1
176
     1
 90
        0
176
     1
 62
     7
176
     1
 62
   257
176
     1
 90
        1
176
     1
 90
        1
176
     1
 40
1.0
176
     1
 90
        8
176
     1
 62
     7
176
     1
 40
1.0
176
     1
 90
        1
176
     1
 90
        6
176
     1
 90
        2
176
     1
 62
     7
176
     1
 90
        3
176
     1
 90
        0
176
     1
 90
        0
176
     1
290
     0
176
     1
 90
       13
176
     1
 40
0.0
176
     1
 90
        0
176
     1
290
     0
176
     1
290
     1
176
     1
290
     1
176
     1
290
     0
176
     1
290
     0
176
     1
290
     0
176
     1
290
     0
176
     1
290
     0
176
     1
290
     0
176
     1
 90
       50
176
     1
 40
0.0
176
     1
 40
1.0
176
     1
 90
        0
176
     1
 62
    18
420
        0
176
     1
 90
       50
176
     1
 90
        3
176
     1
 62
     5
420
      255
176
     1
290
     0
176
     1
 90
       50
176
     1
 90
       50
176
     1
 90
       50
176
     1
290
     0
176
     1
 90
       50
176
     1
 62
   256
176
     0
 40
1.0
176
     0
 90
        2
176
     1
  1
strokes_ogs.tif
176
     1
290
     0
176
     1
 40
1.0
176
     1
 40
1.0
176
     1
  0
DICTIONARYVAR
  5
D8
102
{ACAD_REACTORS
330
66
102
}
330
66
100
DictionaryVariables
280
     0
  1
1:1
  0
DICTIONARYVAR
  5
89
102
{ACAD_REACTORS
330
66
102
}
330
66
100
DictionaryVariables
280
     0
  1
Standard
  0
DICTIONARYVAR
  5
67
102
{ACAD_REACTORS
330
66
102
}
330
66
100
DictionaryVariables
280
     0
  1
2
  0
DICTIONARYVAR
  5
6B
102
{ACAD_REACTORS
330
66
102
}
330
66
100
DictionaryVariables
280
     0
  1
1
  0
DICTIONARYVAR
  5
DF
102
{ACAD_REACTORS
330
66
102
}
330
66
100
DictionaryVariables
280
     0
  1
0
  0
DICTIONARYVAR
  5
E0
102
{ACAD_REACTORS
330
66
102
}
330
66
100
DictionaryVariables
280
     0
  1
0
  0
DICTIONARY
  5
410
330
87
100
AcDbDictionary
280
     1
281
     1
  3
ACAD_ROUNDTRIP_2008_TABLESTYLE_CELLSTYLEMAP
360
411
  0
CELLSTYLEMAP
  5
411
102
{ACAD_REACTORS
330
410
102
}
330
410
100
AcDbCellStyleMap
 90
        3
300
CELLSTYLE
  1
TABLEFORMAT_BEGIN
 90
        5
170
     1
 91
        0
 92
    32768
 62
   257
 93
        1
300
CONTENTFORMAT
  1
CONTENTFORMAT_BEGIN
 90
        0
 91
        0
 92
      512
 93
        0
300

 40
0.0
140
1.0
 94
        5
 62
     0
340
11
144
0.25
309
CONTENTFORMAT_END
171
     0
 94
        6
 95
        1
302
GRIDFORMAT
  1
GRIDFORMAT_BEGIN
 90
        0
 91
        1
 62
     0
 92
       -2
340
0
 93
        0
 40
0.045
309
GRIDFORMAT_END
 95
        2
302
GRIDFORMAT
  1
GRIDFORMAT_BEGIN
 90
        0
 91
        1
 62
     0
 92
       -2
340
0
 93
        0
 40
0.045
309
GRIDFORMAT_END
 95
        4
302
GRIDFORMAT
  1
GRIDFORMAT_BEGIN
 90
        0
 91
        1
 62
     0
 92
       -2
340
0
 93
        0
 40
0.045
309
GRIDFORMAT_END
 95
        8
302
GRIDFORMAT
  1
GRIDFORMAT_BEGIN
 90
        0
 91
        1
 62
     0
 92
       -2
340
0
 93
        0
 40
0.045
309
GRIDFORMAT_END
 95
       16
302
GRIDFORMAT
  1
GRIDFORMAT_BEGIN
 90
        0
 91
        1
 62
     0
 92
       -2
340
0
 93
        0
 40
0.045
309
GRIDFORMAT_END
 95
       32
302
GRIDFORMAT
  1
GRIDFORMAT_BEGIN
 90
        0
 91
        1
 62
     0
 92
       -2
340
0
 93
        0
 40
0.045
309
GRIDFORMAT_END
309
TABLEFORMAT_END
  1
CELLSTYLE_BEGIN
 90
        1
 91
        1
300
_TITLE
309
CELLSTYLE_END
300
CELLSTYLE
  1
TABLEFORMAT_BEGIN
 90
        5
170
     1
 91
        0
 92
        0
 62
   257
 93
        1
300
CONTENTFORMAT
  1
CONTENTFORMAT_BEGIN
 90
        0
 91
        0
 92
      512
 93
        0
300

 40
0.0
140
1.0
 94
        5
 62
     0
340
11
144
0.18
309
CONTENTFORMAT_END
171
     0
 94
        6
 95
        1
302
GRIDFORMAT
  1
GRIDFORMAT_BEGIN
 90
        0
 91
        1
 62
     0
 92
       -2
340
0
 93
        0
 40
0.045
309
GRIDFORMAT_END
 95
        2
302
GRIDFORMAT
  1
GRIDFORMAT_BEGIN
 90
        0
 91
        1
 62
     0
 92
       -2
340
0
 93
        0
 40
0.045
309
GRIDFORMAT_END
 95
        4
302
GRIDFORMAT
  1
GRIDFORMAT_BEGIN
 90
        0
 91
        1
 62
     0
 92
       -2
340
0
 93
        0
 40
0.045
309
GRIDFORMAT_END
 95
        8
302
GRIDFORMAT
  1
GRIDFORMAT_BEGIN
 90
        0
 91
        1
 62
     0
 92
       -2
340
0
 93
        0
 40
0.045
309
GRIDFORMAT_END
 95
       16
302
GRIDFORMAT
  1
GRIDFORMAT_BEGIN
 90
        0
 91
        1
 62
     0
 92
       -2
340
0
 93
        0
 40
0.045
309
GRIDFORMAT_END
 95
       32
302
GRIDFORMAT
  1
GRIDFORMAT_BEGIN
 90
        0
 91
        1
 62
     0
 92
       -2
340
0
 93
        0
 40
0.045
309
GRIDFORMAT_END
309
TABLEFORMAT_END
  1
CELLSTYLE_BEGIN
 90
        2
 91
        1
300
_HEADER
309
CELLSTYLE_END
300
CELLSTYLE
  1
TABLEFORMAT_BEGIN
 90
        5
170
     1
 91
        0
 92
        0
 62
   257
 93
        1
300
CONTENTFORMAT
  1
CONTENTFORMAT_BEGIN
 90
        0
 91
        0
 92
      512
 93
        0
300

 40
0.0
140
1.0
 94
        2
 62
     0
340
11
144
0.18
309
CONTENTFORMAT_END
171
     0
 94
        6
 95
        1
302
GRIDFORMAT
  1
GRIDFORMAT_BEGIN
 90
        0
 91
        1
 62
     0
 92
       -2
340
0
 93
        0
 40
0.045
309
GRIDFORMAT_END
 95
        2
302
GRIDFORMAT
  1
GRIDFORMAT_BEGIN
 90
        0
 91
        1
 62
     0
 92
       -2
340
0
 93
        0
 40
0.045
309
GRIDFORMAT_END
 95
        4
302
GRIDFORMAT
  1
GRIDFORMAT_BEGIN
 90
        0
 91
        1
 62
     0
 92
       -2
340
0
 93
        0
 40
0.045
309
GRIDFORMAT_END
 95
        8
302
GRIDFORMAT
  1
GRIDFORMAT_BEGIN
 90
        0
 91
        1
 62
     0
 92
       -2
340
0
 93
        0
 40
0.045
309
GRIDFORMAT_END
 95
       16
302
GRIDFORMAT
  1
GRIDFORMAT_BEGIN
 90
        0
 91
        1
 62
     0
 92
       -2
340
0
 93
        0
 40
0.045
309
GRIDFORMAT_END
 95
       32
302
GRIDFORMAT
  1
GRIDFORMAT_BEGIN
 90
        0
 91
        1
 62
     0
 92
       -2
340
0
 93
        0
 40
0.045
309
GRIDFORMAT_END
309
TABLEFORMAT_END
  1
CELLSTYLE_BEGIN
 90
        3
 91
        2
300
_DATA
309
CELLSTYLE_END
  0
ENDSEC
  0
EOF
