  0
SECTION
  2
HEADER
  9
$ACADVER
  1
AC1027
  9
$ACADMAINTVER
 70
     8
  9
$DWGCODEPAGE
  3
ANSI_932
  9
$REQUIREDVERSIONS
160
                 0
  9
$LASTSAVEDBY
  1
Yasu
  9
$INSBASE
 10
0.0
 20
0.0
 30
0.0
  9
$EXTMIN
 10
35.12019828276062
 20
28.57423802958514
 30
0.0
  9
$EXTMAX
 10
191.5807173406764
 20
199.8193300143448
 30
0.0
  9
$LIMMIN
 10
0.0
 20
0.0
  9
$LIMMAX
 10
420.0
 20
297.0
  9
$ORTHOMODE
 70
     0
  9
$REGENMODE
 70
     1
  9
$FILLMODE
 70
     1
  9
$QTEXTMODE
 70
     0
  9
$MIRRTEXT
 70
     0
  9
$LTSCALE
 40
0.2
  9
$ATTMODE
 70
     1
  9
$TEXTSIZE
 40
3.0
  9
$TRACEWID
 40
1.0
  9
$TEXTSTYLE
  7
Standard
  9
$CLAYER
  8
実線
  9
$CELTYPE
  6
ByLayer
  9
$CECOLOR
 62
   256
  9
$CELTSCALE
 40
1.0
  9
$DISPSILH
 70
     0
  9
$DIMSCALE
 40
1.0
  9
$DIMASZ
 40
2.5
  9
$DIMEXO
 40
0.625
  9
$DIMDLI
 40
3.75
  9
$DIMRND
 40
0.0
  9
$DIMDLE
 40
0.0
  9
$DIMEXE
 40
1.25
  9
$DIMTP
 40
0.0
  9
$DIMTM
 40
0.0
  9
$DIMTXT
 40
2.5
  9
$DIMCEN
 40
2.5
  9
$DIMTSZ
 40
0.0
  9
$DIMTOL
 70
     0
  9
$DIMLIM
 70
     0
  9
$DIMTIH
 70
     0
  9
$DIMTOH
 70
     0
  9
$DIMSE1
 70
     0
  9
$DIMSE2
 70
     0
  9
$DIMTAD
 70
     1
  9
$DIMZIN
 70
     8
  9
$DIMBLK
  1

  9
$DIMASO
 70
     1
  9
$DIMSHO
 70
     1
  9
$DIMPOST
  1

  9
$DIMAPOST
  1

  9
$DIMALT
 70
     0
  9
$DIMALTD
 70
     3
  9
$DIMALTF
 40
0.03937007874016
  9
$DIMLFAC
 40
1.0
  9
$DIMTOFL
 70
     1
  9
$DIMTVP
 40
0.0
  9
$DIMTIX
 70
     0
  9
$DIMSOXD
 70
     0
  9
$DIMSAH
 70
     0
  9
$DIMBLK1
  1

  9
$DIMBLK2
  1

  9
$DIMSTYLE
  2
ISO-25
  9
$DIMCLRD
 70
     0
  9
$DIMCLRE
 70
     0
  9
$DIMCLRT
 70
     0
  9
$DIMTFAC
 40
1.0
  9
$DIMGAP
 40
0.625
  9
$DIMJUST
 70
     0
  9
$DIMSD1
 70
     0
  9
$DIMSD2
 70
     0
  9
$DIMTOLJ
 70
     0
  9
$DIMTZIN
 70
     8
  9
$DIMALTZ
 70
     0
  9
$DIMALTTZ
 70
     0
  9
$DIMUPT
 70
     0
  9
$DIMDEC
 70
     2
  9
$DIMTDEC
 70
     2
  9
$DIMALTU
 70
     2
  9
$DIMALTTD
 70
     3
  9
$DIMTXSTY
  7
Standard
  9
$DIMAUNIT
 70
     0
  9
$DIMADEC
 70
     0
  9
$DIMALTRND
 40
0.0
  9
$DIMAZIN
 70
     0
  9
$DIMDSEP
 70
    46
  9
$DIMATFIT
 70
     3
  9
$DIMFRAC
 70
     0
  9
$DIMLDRBLK
  1

  9
$DIMLUNIT
 70
     2
  9
$DIMLWD
 70
    -2
  9
$DIMLWE
 70
    -2
  9
$DIMTMOVE
 70
     0
  9
$DIMFXL
 40
1.0
  9
$DIMFXLON
 70
     0
  9
$DIMJOGANG
 40
0.7853981633974483
  9
$DIMTFILL
 70
     0
  9
$DIMTFILLCLR
 70
     0
  9
$DIMARCSYM
 70
     0
  9
$DIMLTYPE
  6

  9
$DIMLTEX1
  6

  9
$DIMLTEX2
  6

  9
$DIMTXTDIRECTION
 70
     0
  9
$LUNITS
 70
     2
  9
$LUPREC
 70
     4
  9
$SKETCHINC
 40
1.0
  9
$FILLETRAD
 40
2.0
  9
$AUNITS
 70
     0
  9
$AUPREC
 70
     0
  9
$MENU
  1
.
  9
$ELEVATION
 40
0.0
  9
$PELEVATION
 40
0.0
  9
$THICKNESS
 40
0.0
  9
$LIMCHECK
 70
     0
  9
$CHAMFERA
 40
1.0
  9
$CHAMFERB
 40
1.0
  9
$CHAMFERC
 40
0.0
  9
$CHAMFERD
 40
0.0
  9
$SKPOLY
 70
     0
  9
$TDCREATE
 40
2452936.788310359
  9
$TDUCREATE
 40
2452936.413310359
  9
$TDUPDATE
 40
2456739.895806875
  9
$TDUUPDATE
 40
2456739.520806875
  9
$TDINDWG
 40
0.6224282407
  9
$TDUSRTIMER
 40
2456739.519852303
  9
$USRTIMER
 70
     1
  9
$ANGBASE
 50
0.0
  9
$ANGDIR
 70
     0
  9
$PDMODE
 70
     0
  9
$PDSIZE
 40
0.0
  9
$PLINEWID
 40
0.0
  9
$SPLFRAME
 70
     0
  9
$SPLINETYPE
 70
     6
  9
$SPLINESEGS
 70
     8
  9
$HANDSEED
  5
1225
  9
$SURFTAB1
 70
     6
  9
$SURFTAB2
 70
     6
  9
$SURFTYPE
 70
     6
  9
$SURFU
 70
     6
  9
$SURFV
 70
     6
  9
$UCSBASE
  2

  9
$UCSNAME
  2

  9
$UCSORG
 10
0.0
 20
0.0
 30
0.0
  9
$UCSXDIR
 10
1.0
 20
0.0
 30
0.0
  9
$UCSYDIR
 10
0.0
 20
1.0
 30
0.0
  9
$UCSORTHOREF
  2

  9
$UCSORTHOVIEW
 70
     0
  9
$UCSORGTOP
 10
0.0
 20
0.0
 30
0.0
  9
$UCSORGBOTTOM
 10
0.0
 20
0.0
 30
0.0
  9
$UCSORGLEFT
 10
0.0
 20
0.0
 30
0.0
  9
$UCSORGRIGHT
 10
0.0
 20
0.0
 30
0.0
  9
$UCSORGFRONT
 10
0.0
 20
0.0
 30
0.0
  9
$UCSORGBACK
 10
0.0
 20
0.0
 30
0.0
  9
$PUCSBASE
  2

  9
$PUCSNAME
  2

  9
$PUCSORG
 10
0.0
 20
0.0
 30
0.0
  9
$PUCSXDIR
 10
1.0
 20
0.0
 30
0.0
  9
$PUCSYDIR
 10
0.0
 20
1.0
 30
0.0
  9
$PUCSORTHOREF
  2

  9
$PUCSORTHOVIEW
 70
     0
  9
$PUCSORGTOP
 10
0.0
 20
0.0
 30
0.0
  9
$PUCSORGBOTTOM
 10
0.0
 20
0.0
 30
0.0
  9
$PUCSORGLEFT
 10
0.0
 20
0.0
 30
0.0
  9
$PUCSORGRIGHT
 10
0.0
 20
0.0
 30
0.0
  9
$PUCSORGFRONT
 10
0.0
 20
0.0
 30
0.0
  9
$PUCSORGBACK
 10
0.0
 20
0.0
 30
0.0
  9
$USERI1
 70
     0
  9
$USERI2
 70
     0
  9
$USERI3
 70
     0
  9
$USERI4
 70
     0
  9
$USERI5
 70
     0
  9
$USERR1
 40
0.0
  9
$USERR2
 40
0.0
  9
$USERR3
 40
0.0
  9
$USERR4
 40
0.0
  9
$USERR5
 40
0.0
  9
$WORLDVIEW
 70
     1
  9
$SHADEDGE
 70
     3
  9
$SHADEDIF
 70
    70
  9
$TILEMODE
 70
     1
  9
$MAXACTVP
 70
    64
  9
$PINSBASE
 10
0.0
 20
0.0
 30
0.0
  9
$PLIMCHECK
 70
     0
  9
$PEXTMIN
 10
0.0
 20
0.0
 30
0.0
  9
$PEXTMAX
 10
0.0
 20
0.0
 30
0.0
  9
$PLIMMIN
 10
-6.35
 20
-6.35
  9
$PLIMMAX
 10
413.8083333333333
 20
290.6888888888888
  9
$UNITMODE
 70
     0
  9
$VISRETAIN
 70
     1
  9
$PLINEGEN
 70
     0
  9
$PSLTSCALE
 70
     1
  9
$TREEDEPTH
 70
  3020
  9
$CMLSTYLE
  2
Standard
  9
$CMLJUST
 70
     0
  9
$CMLSCALE
 40
20.0
  9
$PROXYGRAPHICS
 70
     1
  9
$MEASUREMENT
 70
     1
  9
$CELWEIGHT
370
    -1
  9
$ENDCAPS
280
     0
  9
$JOINSTYLE
280
     0
  9
$LWDISPLAY
290
     0
  9
$INSUNITS
 70
     4
  9
$HYPERLINKBASE
  1

  9
$STYLESHEET
  1

  9
$XEDIT
290
     1
  9
$CEPSNTYPE
380
     0
  9
$PSTYLEMODE
290
     1
  9
$FINGERPRINTGUID
  2
{86E58535-AB5B-4AFE-AB1B-6758AAB7EA7D}
  9
$VERSIONGUID
  2
{0A858A86-15C4-4CA1-9300-22784BB7A528}
  9
$EXTNAMES
290
     1
  9
$PSVPSCALE
 40
0.0
  9
$OLESTARTUP
290
     0
  9
$SORTENTS
280
   127
  9
$INDEXCTL
280
     0
  9
$HIDETEXT
280
     1
  9
$XCLIPFRAME
280
     0
  9
$HALOGAP
280
     0
  9
$OBSCOLOR
 70
   257
  9
$OBSLTYPE
280
     0
  9
$INTERSECTIONDISPLAY
280
     0
  9
$INTERSECTIONCOLOR
 70
   257
  9
$DIMASSOC
280
     2
  9
$PROJECTNAME
  1

  9
$CAMERADISPLAY
290
     0
  9
$LENSLENGTH
 40
50.0
  9
$CAMERAHEIGHT
 40
0.0
  9
$STEPSPERSEC
 40
2.0
  9
$STEPSIZE
 40
6.0
  9
$3DDWFPREC
 40
2.0
  9
$PSOLWIDTH
 40
0.25
  9
$PSOLHEIGHT
 40
4.0
  9
$LOFTANG1
 40
1.570796326794897
  9
$LOFTANG2
 40
1.570796326794897
  9
$LOFTMAG1
 40
0.0
  9
$LOFTMAG2
 40
0.0
  9
$LOFTPARAM
 70
     7
  9
$LOFTNORMALS
280
     1
  9
$LATITUDE
 40
37.795
  9
$LONGITUDE
 40
-122.394
  9
$NORTHDIRECTION
 40
0.0
  9
$TIMEZONE
 70
 -8000
  9
$LIGHTGLYPHDISPLAY
280
     1
  9
$TILEMODELIGHTSYNCH
280
     1
  9
$SOLIDHIST
280
     1
  9
$SHOWHIST
280
     1
  9
$DWFFRAME
280
     2
  9
$DGNFRAME
280
     2
  9
$REALWORLDSCALE
290
     1
  9
$INTERFERECOLOR
 62
   256
  9
$CSHADOW
280
     0
  9
$SHADOWPLANELOCATION
 40
0.0
  0
ENDSEC
  0
SECTION
  2
CLASSES
  0
CLASS
  1
ACDBDICTIONARYWDFLT
  2
AcDbDictionaryWithDefault
  3
ObjectDBX Classes
 90
        0
 91
       15
280
     0
281
     0
  0
CLASS
  1
DIMASSOC
  2
AcDbDimAssoc
  3
"AcDbDimAssoc|Product Desc:     AcDim ARX App For Dimension|Company:          Autodesk, Inc.|WEB Address:      www.autodesk.com"
 90
        0
 91
        9
280
     0
281
     0
  0
CLASS
  1
VISUALSTYLE
  2
AcDbVisualStyle
  3
ObjectDBX Classes
 90
     4095
 91
       15
280
     0
281
     0
  0
CLASS
  1
SCALE
  2
AcDbScale
  3
ObjectDBX Classes
 90
     1153
 91
       15
280
     0
281
     0
  0
CLASS
  1
MATERIAL
  2
AcDbMaterial
  3
ObjectDBX Classes
 90
     1153
 91
       15
280
     0
281
     0
  0
CLASS
  1
TABLESTYLE
  2
AcDbTableStyle
  3
ObjectDBX Classes
 90
     4095
 91
       15
280
     0
281
     0
  0
CLASS
  1
SUN
  2
AcDbSun
  3
SCENEOE
 90
     1153
 91
       15
280
     0
281
     0
  0
CLASS
  1
RASTERVARIABLES
  2
AcDbRasterVariables
  3
ISM
 90
        0
 91
       15
280
     0
281
     0
  0
CLASS
  1
DICTIONARYVAR
  2
AcDbDictionaryVar
  3
ObjectDBX Classes
 90
        0
 91
        9
280
     0
281
     0
  0
CLASS
  1
CELLSTYLEMAP
  2
AcDbCellStyleMap
  3
ObjectDBX Classes
 90
     1152
 91
        9
280
     0
281
     0
  0
ENDSEC
  0
SECTION
  2
TABLES
  0
TABLE
  2
VPORT
  5
8
330
0
100
AcDbSymbolTable
 70
     1
  0
VPORT
  5
10EF
330
8
100
AcDbSymbolTableRecord
100
AcDbViewportTableRecord
  2
*Active
 70
     0
 10
0.0
 20
0.0
 11
1.0
 21
1.0
 12
113.3504578117185
 22
114.196784021965
 13
0.0
 23
0.0
 14
10.0
 24
10.0
 15
10.0
 25
10.0
 16
0.0
 26
0.0
 36
1.0
 17
0.0
 27
0.0
 37
0.0
 40
174.6699938244549
 41
1.762376237623762
 42
50.0
 43
0.0
 44
0.0
 50
0.0
 51
0.0
 71
    16
 72
  1000
 73
     1
 74
     3
 75
     0
 76
     0
 77
     0
 78
     0
281
     0
 65
     1
110
0.0
120
0.0
130
0.0
111
1.0
121
0.0
131
0.0
112
0.0
122
1.0
132
0.0
 79
     0
146
0.0
348
10F5
 60
     3
 61
     5
292
     1
282
     1
141
0.0
142
0.0
 63
   256
361
1131
  0
ENDTAB
  0
TABLE
  2
LTYPE
  5
5
330
0
100
AcDbSymbolTable
 70
     6
  0
LTYPE
  5
14
330
5
100
AcDbSymbolTableRecord
100
AcDbLinetypeTableRecord
  2
ByBlock
 70
     0
  3

 72
    65
 73
     0
 40
0.0
  0
LTYPE
  5
15
330
5
100
AcDbSymbolTableRecord
100
AcDbLinetypeTableRecord
  2
ByLayer
 70
     0
  3

 72
    65
 73
     0
 40
0.0
  0
LTYPE
  5
16
330
5
100
AcDbSymbolTableRecord
100
AcDbLinetypeTableRecord
  2
Continuous
 70
     0
  3
Solid line
 72
    65
 73
     0
 40
0.0
  0
LTYPE
  5
35
330
5
100
AcDbSymbolTableRecord
100
AcDbLinetypeTableRecord
  2
ACAD_ISO08W100
 70
     0
  3
ISO long-dash short-dash ____ __ ____ __ ____ _
 72
    65
 73
     4
 40
36.0
 49
24.0
 74
     0
 49
-3.0
 74
     0
 49
6.0
 74
     0
 49
-3.0
 74
     0
  0
LTYPE
  5
127
330
5
100
AcDbSymbolTableRecord
100
AcDbLinetypeTableRecord
  2
HIDDENX2
 70
     0
  3
Hidden (2x) ____ ____ ____ ____ ____ ____ ____
 72
    65
 73
     2
 40
19.05
 49
12.7
 74
     0
 49
-6.35
 74
     0
  0
LTYPE
  5
5EC
330
5
100
AcDbSymbolTableRecord
100
AcDbLinetypeTableRecord
  2
CENTER
 70
     0
  3
Center ____ _ ____ _ ____ _ ____ _ ____ _ ____
 72
    65
 73
     4
 40
50.8
 49
31.75
 74
     0
 49
-6.35
 74
     0
 49
6.35
 74
     0
 49
-6.35
 74
     0
  0
LTYPE
  5
5ED
330
5
100
AcDbSymbolTableRecord
100
AcDbLinetypeTableRecord
  2
ACAD_ISO02W100
 70
     0
  3
ISO dash __ __ __ __ __ __ __ __ __ __ __ __ __
 72
    65
 73
     2
 40
15.0
 49
12.0
 74
     0
 49
-3.0
 74
     0
  0
LTYPE
  5
605
330
5
100
AcDbSymbolTableRecord
100
AcDbLinetypeTableRecord
  2
DASHED
 70
     0
  3
Dashed __ __ __ __ __ __ __ __ __ __ __ __ __ _
 72
    65
 73
     2
 40
19.05
 49
12.7
 74
     0
 49
-6.35
 74
     0
  0
ENDTAB
  0
TABLE
  2
LAYER
  5
2
330
0
100
AcDbSymbolTable
 70
     9
  0
LAYER
  5
10
330
2
100
AcDbSymbolTableRecord
100
AcDbLayerTableRecord
  2
0
 70
     0
 62
     7
  6
Continuous
370
    -3
390
F
347
112D
348
0
  0
LAYER
  5
2E
330
2
100
AcDbSymbolTableRecord
100
AcDbLayerTableRecord
  2
枠
 70
     0
 62
     1
  6
Continuous
370
    30
390
F
347
112D
348
0
  0
LAYER
  5
2F
330
2
100
AcDbSymbolTableRecord
100
AcDbLayerTableRecord
  2
文字
 70
     0
 62
     7
  6
Continuous
370
    25
390
F
347
112D
348
0
  0
LAYER
  5
36
330
2
100
AcDbSymbolTableRecord
100
AcDbLayerTableRecord
  2
中心線
 70
     0
 62
     7
  6
CENTER
370
    30
390
F
347
112D
348
0
  0
LAYER
  5
52
330
2
100
AcDbSymbolTableRecord
100
AcDbLayerTableRecord
  2
隠れ線
 70
     0
 62
     2
  6
Continuous
290
     0
370
    -3
390
F
347
112D
348
0
  0
LAYER
  5
128
330
2
100
AcDbSymbolTableRecord
100
AcDbLayerTableRecord
  2
実線
 70
     0
 62
     7
  6
Continuous
370
    50
390
F
347
112D
348
0
  0
LAYER
  5
129
330
2
100
AcDbSymbolTableRecord
100
AcDbLayerTableRecord
  2
破線
 70
     0
 62
     7
  6
DASHED
370
    20
390
F
347
112D
348
0
  0
LAYER
  5
69A
330
2
100
AcDbSymbolTableRecord
100
AcDbLayerTableRecord
  2
Defpoints
 70
     0
 62
     7
  6
Continuous
290
     0
370
    -3
390
F
347
112D
348
0
  0
LAYER
  5
114C
330
2
100
AcDbSymbolTableRecord
100
AcDbLayerTableRecord
  2
文字・寸法線
 70
     0
 62
     7
  6
Continuous
370
    -3
390
F
347
112D
348
0
  0
ENDTAB
  0
TABLE
  2
STYLE
  5
3
330
0
100
AcDbSymbolTable
 70
     2
  0
STYLE
  5
11
330
3
100
AcDbSymbolTableRecord
100
AcDbTextStyleTableRecord
  2
Standard
 70
     0
 40
0.0
 41
1.0
 50
0.0
 71
     0
 42
3.0
  3
txt.shx
  4
bigfont.shx
  0
STYLE
  5
34
330
3
100
AcDbSymbolTableRecord
100
AcDbTextStyleTableRecord
  2

 70
     1
 40
0.0
 41
1.0
 50
0.0
 71
     0
 42
2.5
  3
ltypeshp.shx
  4

  0
ENDTAB
  0
TABLE
  2
VIEW
  5
6
330
0
100
AcDbSymbolTable
 70
     0
  0
ENDTAB
  0
TABLE
  2
UCS
  5
7
330
0
100
AcDbSymbolTable
 70
     0
  0
ENDTAB
  0
TABLE
  2
APPID
  5
9
330
0
100
AcDbSymbolTable
 70
     1
  0
APPID
  5
12
330
9
100
AcDbSymbolTableRecord
100
AcDbRegAppTableRecord
  2
ACAD
 70
     0
  0
ENDTAB
  0
TABLE
  2
DIMSTYLE
  5
A
330
0
100
AcDbSymbolTable
 70
     2
100
AcDbDimStyleTable
  0
DIMSTYLE
105
29
102
{ACAD_REACTORS
330
795
330
1062
330
1063
330
106A
330
11AE
330
11B0
330
11B3
330
1211
102
}
330
A
100
AcDbSymbolTableRecord
100
AcDbDimStyleTableRecord
  2
ISO-25
 70
     0
 41
2.5
 42
0.625
 43
3.75
 44
1.25
 73
     0
 74
     0
 77
     1
 78
     8
140
2.5
141
2.5
143
0.03937007874016
147
0.625
171
     3
172
     1
178
     0
271
     2
272
     2
274
     3
283
     0
284
     8
340
11
  0
DIMSTYLE
105
1152
330
A
100
AcDbSymbolTableRecord
100
AcDbDimStyleTableRecord
  2
Standard
 70
     0
178
     0
340
11
  0
ENDTAB
  0
TABLE
  2
BLOCK_RECORD
  5
1
330
0
100
AcDbSymbolTable
 70
    15
  0
BLOCK_RECORD
  5
21
330
1
100
AcDbSymbolTableRecord
100
AcDbBlockTableRecord
  2
*Model_Space
340
24
 70
     0
280
     1
281
     0
  0
BLOCK_RECORD
  5
1139
330
1
100
AcDbSymbolTableRecord
100
AcDbBlockTableRecord
  2
*Paper_Space
340
113A
 70
     0
280
     1
281
     0
  0
BLOCK_RECORD
  5
796
330
1
100
AcDbSymbolTableRecord
100
AcDbBlockTableRecord
  2
*D0
340
0
 70
     0
280
     1
281
     0
  0
BLOCK_RECORD
  5
107D
330
1
100
AcDbSymbolTableRecord
100
AcDbBlockTableRecord
  2
*D1
340
0
 70
     0
280
     1
281
     0
  0
BLOCK_RECORD
  5
1089
330
1
100
AcDbSymbolTableRecord
100
AcDbBlockTableRecord
  2
*D2
340
0
 70
     0
280
     1
281
     0
  0
BLOCK_RECORD
  5
109E
330
1
100
AcDbSymbolTableRecord
100
AcDbBlockTableRecord
  2
*D3
340
0
 70
     0
280
     1
281
     0
  0
BLOCK_RECORD
  5
10AF
330
1
100
AcDbSymbolTableRecord
100
AcDbBlockTableRecord
  2
*D4
340
0
 70
     0
280
     1
281
     0
  0
BLOCK_RECORD
  5
10BB
330
1
100
AcDbSymbolTableRecord
100
AcDbBlockTableRecord
  2
*D5
340
0
 70
     0
280
     1
281
     0
  0
BLOCK_RECORD
  5
10C7
330
1
100
AcDbSymbolTableRecord
100
AcDbBlockTableRecord
  2
*D6
340
0
 70
     0
280
     1
281
     0
  0
BLOCK_RECORD
  5
1179
330
1
100
AcDbSymbolTableRecord
100
AcDbBlockTableRecord
  2
*D7
340
0
 70
     0
280
     1
281
     0
  0
BLOCK_RECORD
  5
1188
330
1
100
AcDbSymbolTableRecord
100
AcDbBlockTableRecord
  2
*D8
340
0
 70
     0
280
     1
281
     0
  0
BLOCK_RECORD
  5
1199
330
1
100
AcDbSymbolTableRecord
100
AcDbBlockTableRecord
  2
*D9
340
0
 70
     0
280
     1
281
     0
  0
BLOCK_RECORD
  5
11B7
330
1
100
AcDbSymbolTableRecord
100
AcDbBlockTableRecord
  2
*D10
340
0
 70
     0
280
     1
281
     0
  0
BLOCK_RECORD
  5
11C3
330
1
100
AcDbSymbolTableRecord
100
AcDbBlockTableRecord
  2
*D11
340
0
 70
     0
280
     1
281
     0
  0
BLOCK_RECORD
  5
11D1
330
1
100
AcDbSymbolTableRecord
100
AcDbBlockTableRecord
  2
*D12
340
0
 70
     0
280
     1
281
     0
  0
BLOCK_RECORD
  5
1202
330
1
100
AcDbSymbolTableRecord
100
AcDbBlockTableRecord
  2
*D13
340
0
 70
     0
280
     1
281
     0
  0
BLOCK_RECORD
  5
1213
330
1
100
AcDbSymbolTableRecord
100
AcDbBlockTableRecord
  2
*D14
340
0
 70
     0
280
     1
281
     0
  0
ENDTAB
  0
ENDSEC
  0
SECTION
  2
BLOCKS
  0
BLOCK
  5
22
330
21
100
AcDbEntity
  8
0
100
AcDbBlockBegin
  2
*Model_Space
 70
     0
 10
0.0
 20
0.0
 30
0.0
  3
*Model_Space
  1
*Model_Space
  0
ENDBLK
  5
23
330
21
100
AcDbEntity
  8
0
100
AcDbBlockEnd
  0
BLOCK
  5
113B
330
1139
100
AcDbEntity
 67
     1
  8
0
100
AcDbBlockBegin
  2
*Paper_Space
 70
     0
 10
0.0
 20
0.0
 30
0.0
  3
*Paper_Space
  1
*Paper_Space
  0
ENDBLK
  5
113C
330
1139
100
AcDbEntity
 67
     1
  8
0
100
AcDbBlockEnd
  0
BLOCK
  5
7A0
330
796
100
AcDbEntity
  8
0
370
    30
100
AcDbBlockBegin
  2
*D0
 70
     1
 10
0.0
 20
0.0
 30
0.0
  3
*D0
  1
*D1
  0
LINE
  5
BCB
330
796
100
AcDbEntity
  8
文字
 62
     0
370
    -2
100
AcDbLine
 10
154.8555580486412
 20
104.4746821159451
 30
0.0
 11
154.8555580486412
 21
71.60978922398854
 31
0.0
  0
LINE
  5
BCC
330
796
100
AcDbEntity
  8
文字
 62
     0
370
    -2
100
AcDbLine
 10
167.8459391054078
 20
104.4746821159451
 30
0.0
 11
167.8459391054078
 21
71.60978922398854
 31
0.0
  0
LINE
  5
BCD
330
796
100
AcDbEntity
  8
文字
 62
     0
370
    -2
100
AcDbLine
 10
157.3555580486412
 20
72.85978922398854
 30
0.0
 11
165.3459391054078
 21
72.85978922398854
 31
0.0
  0
SOLID
  5
BCE
330
796
100
AcDbEntity
  8
文字
 62
     0
100
AcDbTrace
 10
157.3555580486412
 20
73.27645589065521
 30
0.0
 11
157.3555580486412
 21
72.44312255732187
 31
0.0
 12
154.8555580486412
 22
72.85978922398854
 32
0.0
 13
154.8555580486412
 23
72.85978922398854
 33
0.0
  0
SOLID
  5
BCF
330
796
100
AcDbEntity
  8
文字
 62
     0
100
AcDbTrace
 10
165.3459391054078
 20
72.44312255732187
 30
0.0
 11
165.3459391054078
 21
73.27645589065521
 31
0.0
 12
167.8459391054078
 22
72.85978922398854
 32
0.0
 13
167.8459391054078
 23
72.85978922398854
 33
0.0
  0
MTEXT
  5
BD0
330
796
100
AcDbEntity
  8
文字
 62
     0
100
AcDbMText
 10
161.5334718167282
 20
74.73478922398854
 30
0.0
 40
2.5
 41
0.0
 46
0.0
 71
     5
 72
     1
  1
13
 73
     1
 44
1.0
  0
POINT
  5
BD1
330
796
100
AcDbEntity
  8
Defpoints
 62
     0
100
AcDbPoint
 10
154.8555580486412
 20
105.0996821159451
 30
0.0
  0
POINT
  5
BD2
330
796
100
AcDbEntity
  8
Defpoints
 62
     0
100
AcDbPoint
 10
167.8459391054078
 20
105.0996821159451
 30
0.0
  0
POINT
  5
BD3
330
796
100
AcDbEntity
  8
Defpoints
 62
     0
100
AcDbPoint
 10
167.8459391054078
 20
72.85978922398854
 30
0.0
  0
ENDBLK
  5
7A1
330
796
100
AcDbEntity
  8
0
370
    30
100
AcDbBlockEnd
  0
BLOCK
  5
1087
330
107D
100
AcDbEntity
  8
0
100
AcDbBlockBegin
  2
*D1
 70
     1
 10
0.0
 20
0.0
 30
0.0
  3
*D1
  1
*D2
  0
LINE
  5
1095
330
107D
100
AcDbEntity
  8
文字
 62
     0
370
    -2
100
AcDbLine
 10
72.72858490536568
 20
168.7871256921961
 30
0.0
 11
72.72858490536568
 21
181.6316451925803
 31
0.0
  0
LINE
  5
1096
330
107D
100
AcDbEntity
  8
文字
 62
     0
370
    -2
100
AcDbLine
 10
80.7285849053657
 20
168.7871256921961
 30
0.0
 11
80.7285849053657
 21
181.6316451925803
 31
0.0
  0
LINE
  5
1097
330
107D
100
AcDbEntity
  8
文字
 62
     0
370
    -2
100
AcDbLine
 10
75.22858490536568
 20
180.3816451925803
 30
0.0
 11
78.2285849053657
 21
180.3816451925803
 31
0.0
  0
SOLID
  5
1098
330
107D
100
AcDbEntity
  8
文字
 62
     0
100
AcDbTrace
 10
75.22858490536568
 20
180.7983118592469
 30
0.0
 11
75.22858490536568
 21
179.9649785259136
 31
0.0
 12
72.72858490536568
 22
180.3816451925803
 32
0.0
 13
72.72858490536568
 23
180.3816451925803
 33
0.0
  0
SOLID
  5
1099
330
107D
100
AcDbEntity
  8
文字
 62
     0
100
AcDbTrace
 10
78.2285849053657
 20
180.7983118592469
 30
0.0
 11
78.2285849053657
 21
179.9649785259136
 31
0.0
 12
80.7285849053657
 22
180.3816451925803
 32
0.0
 13
80.7285849053657
 23
180.3816451925803
 33
0.0
  0
MTEXT
  5
109A
330
107D
100
AcDbEntity
  8
文字
 62
     0
100
AcDbMText
 10
76.7285849053657
 20
182.2566451925803
 30
0.0
 40
2.5
 41
0.0
 46
0.0
 71
     5
 72
     1
  1
{\fArial|b0|i0|c0|p32;M}8
 73
     1
 44
1.0
  0
POINT
  5
109B
330
107D
100
AcDbEntity
  8
Defpoints
 62
     0
100
AcDbPoint
 10
72.72858490536568
 20
168.1621256921961
 30
0.0
  0
POINT
  5
109C
330
107D
100
AcDbEntity
  8
Defpoints
 62
     0
100
AcDbPoint
 10
80.7285849053657
 20
168.1621256921961
 30
0.0
  0
POINT
  5
109D
330
107D
100
AcDbEntity
  8
Defpoints
 62
     0
100
AcDbPoint
 10
80.7285849053657
 20
180.3816451925803
 30
0.0
  0
ENDBLK
  5
1088
330
107D
100
AcDbEntity
  8
0
100
AcDbBlockEnd
  0
BLOCK
  5
1093
330
1089
100
AcDbEntity
  8
0
100
AcDbBlockBegin
  2
*D2
 70
     1
 10
0.0
 20
0.0
 30
0.0
  3
*D2
  1
*D3
  0
LINE
  5
10D5
330
1089
100
AcDbEntity
  8
文字
 62
     0
370
    -2
100
AcDbLine
 10
97.47811838350987
 20
49.70389352633865
 30
0.0
 11
111.7098276623676
 21
49.70389352633865
 31
0.0
  0
LINE
  5
10D6
330
1089
100
AcDbEntity
  8
文字
 62
     0
370
    -2
100
AcDbLine
 10
83.11934927588672
 20
64.28735959337038
 30
0.0
 11
111.7098276623676
 21
64.28735959337037
 31
0.0
  0
LINE
  5
10D7
330
1089
100
AcDbEntity
  8
文字
 62
     0
370
    -2
100
AcDbLine
 10
110.4598276623676
 20
52.20389352633865
 30
0.0
 11
110.4598276623676
 21
61.78735959337038
 31
0.0
  0
SOLID
  5
10D8
330
1089
100
AcDbEntity
  8
文字
 62
     0
100
AcDbTrace
 10
110.0431609957009
 20
52.20389352633865
 30
0.0
 11
110.8764943290343
 21
52.20389352633865
 31
0.0
 12
110.4598276623676
 22
49.70389352633865
 32
0.0
 13
110.4598276623676
 23
49.70389352633865
 33
0.0
  0
SOLID
  5
10D9
330
1089
100
AcDbEntity
  8
文字
 62
     0
100
AcDbTrace
 10
110.0431609957009
 20
61.78735959337038
 30
0.0
 11
110.8764943290343
 21
61.78735959337038
 31
0.0
 12
110.4598276623676
 22
64.28735959337037
 32
0.0
 13
110.4598276623676
 23
64.28735959337037
 33
0.0
  0
MTEXT
  5
10DA
330
1089
100
AcDbEntity
  8
文字
 62
     0
100
AcDbMText
 10
108.5848276623676
 20
56.99562655985452
 30
0.0
 40
2.5
 41
0.0
 46
0.0
 71
     5
 72
     1
  1
15
 11
6.123031769111886E-17
 21
1.0
 31
0.0
 73
     1
 44
1.0
  0
POINT
  5
10DB
330
1089
100
AcDbEntity
  8
Defpoints
 62
     0
100
AcDbPoint
 10
96.85311838350987
 20
49.70389352633865
 30
0.0
  0
POINT
  5
10DC
330
1089
100
AcDbEntity
  8
Defpoints
 62
     0
100
AcDbPoint
 10
82.49434927588672
 20
64.28735959337038
 30
0.0
  0
POINT
  5
10DD
330
1089
100
AcDbEntity
  8
Defpoints
 62
     0
100
AcDbPoint
 10
110.4598276623676
 20
64.28735959337037
 30
0.0
  0
ENDBLK
  5
1094
330
1089
100
AcDbEntity
  8
0
100
AcDbBlockEnd
  0
BLOCK
  5
10AD
330
109E
100
AcDbEntity
  8
0
100
AcDbBlockBegin
  2
*D3
 70
     1
 10
0.0
 20
0.0
 30
0.0
  3
*D3
  1
*D4
  0
LINE
  5
109F
330
109E
100
AcDbEntity
  8
文字
 62
     0
370
    -2
100
AcDbLine
 10
82.36981579774252
 20
64.28735959337038
 30
0.0
 11
111.5852941842234
 21
64.28735959337037
 31
0.0
  0
LINE
  5
10A0
330
109E
100
AcDbEntity
  8
文字
 62
     0
370
    -2
100
AcDbLine
 10
84.88596800839247
 20
69.7871256921961
 30
0.0
 11
111.5852941842234
 21
69.78712569219608
 31
0.0
  0
LINE
  5
10A1
330
109E
100
AcDbEntity
  8
文字
 62
     0
370
    -2
100
AcDbLine
 10
110.3352941842234
 20
61.78735959337038
 30
0.0
 11
110.3352941842234
 21
59.28735959337038
 31
0.0
  0
LINE
  5
10A2
330
109E
100
AcDbEntity
  8
文字
 62
     0
370
    -2
100
AcDbLine
 10
110.3352941842234
 20
72.28712569219608
 30
0.0
 11
110.3352941842234
 21
74.78712569219608
 31
0.0
  0
LINE
  5
10A3
330
109E
100
AcDbEntity
  8
文字
 62
     0
370
    -2
100
AcDbLine
 10
110.3352941842234
 20
67.03724264278323
 30
0.0
 11
116.2727941842234
 21
68.81849264278323
 31
0.0
  0
LINE
  5
10A4
330
109E
100
AcDbEntity
  8
文字
 62
     0
370
    -2
100
AcDbLine
 10
116.2727941842234
 20
68.81849264278323
 30
0.0
 11
116.2727941842234
 21
75.06849264278323
 31
0.0
  0
MTEXT
  5
10A5
330
109E
100
AcDbEntity
  8
文字
 62
     0
100
AcDbMText
 10
114.3977941842234
 20
71.94349264278326
 30
0.0
 40
2.5
 41
0.0
 46
0.0
 71
     5
 72
     1
  1
5.5
 11
6.123031769111886E-17
 21
1.0
 31
0.0
 73
     1
 44
1.0
  0
LINE
  5
10A6
330
109E
100
AcDbEntity
  8
文字
 62
     0
370
    -2
100
AcDbLine
 10
110.3352941842234
 20
64.28735959337037
 30
0.0
 11
110.3352941842234
 21
69.78712569219608
 31
0.0
  0
LINE
  5
10A7
330
109E
100
AcDbEntity
  8
文字
 62
     0
370
    -2
100
AcDbLine
 10
110.3352941842234
 20
64.28735959337037
 30
0.0
 11
110.3352941842234
 21
69.78712569219608
 31
0.0
  0
SOLID
  5
10A8
330
109E
100
AcDbEntity
  8
文字
 62
     0
100
AcDbTrace
 10
109.9186275175568
 20
61.78735959337038
 30
0.0
 11
110.7519608508901
 21
61.78735959337038
 31
0.0
 12
110.3352941842234
 22
64.28735959337037
 32
0.0
 13
110.3352941842234
 23
64.28735959337037
 33
0.0
  0
SOLID
  5
10A9
330
109E
100
AcDbEntity
  8
文字
 62
     0
100
AcDbTrace
 10
109.9186275175568
 20
72.28712569219608
 30
0.0
 11
110.7519608508901
 21
72.28712569219608
 31
0.0
 12
110.3352941842234
 22
69.78712569219608
 32
0.0
 13
110.3352941842234
 23
69.78712569219608
 33
0.0
  0
POINT
  5
10AA
330
109E
100
AcDbEntity
  8
Defpoints
 62
     0
100
AcDbPoint
 10
81.74481579774252
 20
64.28735959337038
 30
0.0
  0
POINT
  5
10AB
330
109E
100
AcDbEntity
  8
Defpoints
 62
     0
100
AcDbPoint
 10
84.26096800839247
 20
69.7871256921961
 30
0.0
  0
POINT
  5
10AC
330
109E
100
AcDbEntity
  8
Defpoints
 62
     0
100
AcDbPoint
 10
110.3352941842234
 20
69.78712569219608
 30
0.0
  0
ENDBLK
  5
10AE
330
109E
100
AcDbEntity
  8
0
100
AcDbBlockEnd
  0
BLOCK
  5
10B9
330
10AF
100
AcDbEntity
  8
0
100
AcDbBlockBegin
  2
*D4
 70
     1
 10
0.0
 20
0.0
 30
0.0
  3
*D4
  1
*D5
  0
LINE
  5
10B0
330
10AF
100
AcDbEntity
  8
文字
 62
     0
370
    -2
100
AcDbLine
 10
80.35358490536568
 20
169.7871256921961
 30
0.0
 11
111.5852941842235
 21
169.7871256921961
 31
0.0
  0
LINE
  5
10B1
330
10AF
100
AcDbEntity
  8
文字
 62
     0
370
    -2
100
AcDbLine
 10
85.51096800839247
 20
69.7871256921961
 30
0.0
 11
111.5852941842234
 21
69.78712569219608
 31
0.0
  0
LINE
  5
10B2
330
10AF
100
AcDbEntity
  8
文字
 62
     0
370
    -2
100
AcDbLine
 10
110.3352941842235
 20
167.2871256921961
 30
0.0
 11
110.3352941842234
 21
72.28712569219608
 31
0.0
  0
SOLID
  5
10B3
330
10AF
100
AcDbEntity
  8
文字
 62
     0
100
AcDbTrace
 10
109.9186275175568
 20
167.2871256921961
 30
0.0
 11
110.7519608508901
 21
167.2871256921961
 31
0.0
 12
110.3352941842235
 22
169.7871256921961
 32
0.0
 13
110.3352941842235
 23
169.7871256921961
 33
0.0
  0
SOLID
  5
10B4
330
10AF
100
AcDbEntity
  8
文字
 62
     0
100
AcDbTrace
 10
109.9186275175568
 20
72.28712569219608
 30
0.0
 11
110.7519608508901
 21
72.28712569219608
 31
0.0
 12
110.3352941842234
 22
69.78712569219608
 32
0.0
 13
110.3352941842234
 23
69.78712569219608
 33
0.0
  0
MTEXT
  5
10B5
330
10AF
100
AcDbEntity
  8
文字
 62
     0
100
AcDbMText
 10
108.4602941842234
 20
119.7871256921961
 30
0.0
 40
2.5
 41
0.0
 46
0.0
 71
     5
 72
     1
  1
100
 11
6.123031769111886E-17
 21
1.0
 31
0.0
 73
     1
 44
1.0
  0
POINT
  5
10B6
330
10AF
100
AcDbEntity
  8
Defpoints
 62
     0
100
AcDbPoint
 10
79.72858490536568
 20
169.7871256921961
 30
0.0
  0
POINT
  5
10B7
330
10AF
100
AcDbEntity
  8
Defpoints
 62
     0
100
AcDbPoint
 10
84.88596800839247
 20
69.7871256921961
 30
0.0
  0
POINT
  5
10B8
330
10AF
100
AcDbEntity
  8
Defpoints
 62
     0
100
AcDbPoint
 10
110.3352941842234
 20
69.78712569219608
 30
0.0
  0
ENDBLK
  5
10BA
330
10AF
100
AcDbEntity
  8
0
100
AcDbBlockEnd
  0
BLOCK
  5
10C5
330
10BB
100
AcDbEntity
  8
0
100
AcDbBlockBegin
  2
*D5
 70
     1
 10
0.0
 20
0.0
 30
0.0
  3
*D5
  1
*D6
  0
LINE
  5
10BC
330
10BB
100
AcDbEntity
  8
文字
 62
     0
370
    -2
100
AcDbLine
 10
54.35311838350987
 20
49.07889352633865
 30
0.0
 11
54.35311838350987
 21
30.83058872928336
 31
0.0
  0
LINE
  5
10BD
330
10BB
100
AcDbEntity
  8
文字
 62
     0
370
    -2
100
AcDbLine
 10
99.35311838350987
 20
49.07889352633865
 30
0.0
 11
99.35311838350987
 21
30.83058872928336
 31
0.0
  0
LINE
  5
10BE
330
10BB
100
AcDbEntity
  8
文字
 62
     0
370
    -2
100
AcDbLine
 10
56.85311838350987
 20
32.08058872928336
 30
0.0
 11
96.85311838350987
 21
32.08058872928336
 31
0.0
  0
SOLID
  5
10BF
330
10BB
100
AcDbEntity
  8
文字
 62
     0
100
AcDbTrace
 10
56.85311838350987
 20
32.49725539595003
 30
0.0
 11
56.85311838350987
 21
31.6639220626167
 31
0.0
 12
54.35311838350987
 22
32.08058872928336
 32
0.0
 13
54.35311838350987
 23
32.08058872928336
 33
0.0
  0
SOLID
  5
10C0
330
10BB
100
AcDbEntity
  8
文字
 62
     0
100
AcDbTrace
 10
96.85311838350987
 20
32.49725539595003
 30
0.0
 11
96.85311838350987
 21
31.6639220626167
 31
0.0
 12
99.35311838350987
 22
32.08058872928336
 32
0.0
 13
99.35311838350987
 23
32.08058872928336
 33
0.0
  0
MTEXT
  5
10C1
330
10BB
100
AcDbEntity
  8
文字
 62
     0
100
AcDbMText
 10
76.85311838350987
 20
33.95558872928336
 30
0.0
 40
2.5
 41
0.0
 46
0.0
 71
     5
 72
     1
  1
%%c45
 73
     1
 44
1.0
  0
POINT
  5
10C2
330
10BB
100
AcDbEntity
  8
Defpoints
 62
     0
100
AcDbPoint
 10
54.35311838350987
 20
49.70389352633865
 30
0.0
  0
POINT
  5
10C3
330
10BB
100
AcDbEntity
  8
Defpoints
 62
     0
100
AcDbPoint
 10
99.35311838350987
 20
49.70389352633865
 30
0.0
  0
POINT
  5
10C4
330
10BB
100
AcDbEntity
  8
Defpoints
 62
     0
100
AcDbPoint
 10
99.35311838350987
 20
32.08058872928336
 30
0.0
  0
ENDBLK
  5
10C6
330
10BB
100
AcDbEntity
  8
0
100
AcDbBlockEnd
  0
BLOCK
  5
10D3
330
10C7
100
AcDbEntity
  8
0
100
AcDbBlockBegin
  2
*D6
 70
     1
 10
0.0
 20
0.0
 30
0.0
  3
*D6
  1
*D7
  0
LINE
  5
10C8
330
10C7
100
AcDbEntity
  8
文字
 62
     0
370
    -2
100
AcDbLine
 10
53.72811838350987
 20
55.70389352633865
 30
0.0
 11
42.37430653569891
 21
55.70389352633865
 31
0.0
  0
LINE
  5
10C9
330
10C7
100
AcDbEntity
  8
文字
 62
     0
370
    -2
100
AcDbLine
 10
53.72811838350987
 20
49.70389352633865
 30
0.0
 11
42.37430653569891
 21
49.70389352633865
 31
0.0
  0
LINE
  5
10CA
330
10C7
100
AcDbEntity
  8
文字
 62
     0
370
    -2
100
AcDbLine
 10
43.62430653569891
 20
58.20389352633865
 30
0.0
 11
43.62430653569891
 21
60.70389352633865
 31
0.0
  0
LINE
  5
10CB
330
10C7
100
AcDbEntity
  8
文字
 62
     0
370
    -2
100
AcDbLine
 10
43.62430653569891
 20
47.20389352633865
 30
0.0
 11
43.62430653569891
 21
44.70389352633865
 31
0.0
  0
LINE
  5
10CC
330
10C7
100
AcDbEntity
  8
文字
 62
     0
370
    -2
100
AcDbLine
 10
43.62430653569891
 20
55.70389352633865
 30
0.0
 11
43.62430653569891
 21
49.70389352633865
 31
0.0
  0
SOLID
  5
10CD
330
10C7
100
AcDbEntity
  8
文字
 62
     0
100
AcDbTrace
 10
43.20763986903225
 20
58.20389352633865
 30
0.0
 11
44.04097320236558
 21
58.20389352633865
 31
0.0
 12
43.62430653569891
 22
55.70389352633865
 32
0.0
 13
43.62430653569891
 23
55.70389352633865
 33
0.0
  0
SOLID
  5
10CE
330
10C7
100
AcDbEntity
  8
文字
 62
     0
100
AcDbTrace
 10
43.20763986903224
 20
47.20389352633865
 30
0.0
 11
44.04097320236557
 21
47.20389352633865
 31
0.0
 12
43.62430653569891
 22
49.70389352633865
 32
0.0
 13
43.62430653569891
 23
49.70389352633865
 33
0.0
  0
MTEXT
  5
10CF
330
10C7
100
AcDbEntity
  8
文字
 62
     0
100
AcDbMText
 10
41.7493065356989
 20
52.70389352633866
 30
0.0
 40
2.5
 41
0.0
 46
0.0
 71
     5
 72
     1
  1
6
 11
6.123031769111886E-17
 21
1.0
 31
0.0
 73
     1
 44
1.0
  0
POINT
  5
10D0
330
10C7
100
AcDbEntity
  8
Defpoints
 62
     0
100
AcDbPoint
 10
54.35311838350987
 20
55.70389352633865
 30
0.0
  0
POINT
  5
10D1
330
10C7
100
AcDbEntity
  8
Defpoints
 62
     0
100
AcDbPoint
 10
54.35311838350987
 20
49.70389352633865
 30
0.0
  0
POINT
  5
10D2
330
10C7
100
AcDbEntity
  8
Defpoints
 62
     0
100
AcDbPoint
 10
43.62430653569891
 20
49.70389352633865
 30
0.0
  0
ENDBLK
  5
10D4
330
10C7
100
AcDbEntity
  8
0
100
AcDbBlockEnd
  0
BLOCK
  5
117A
330
1179
100
AcDbEntity
  8
0
100
AcDbBlockBegin
  2
*D7
 70
     1
 10
0.0
 20
0.0
 30
0.0
  3
*D7
  1
*D8
  0
LINE
  5
117B
330
1179
100
AcDbEntity
  8
文字
 62
     0
370
    -2
100
AcDbLine
 10
53.36095590124977
 20
35.71017274872139
 30
0.0
 11
88.90049629705811
 21
35.71017274872139
 31
0.0
  0
LINE
  5
117C
330
1179
100
AcDbEntity
  8
文字
 62
     0
370
    -2
100
AcDbLine
 10
65.53050507032981
 20
19.70665082841047
 30
0.0
 11
88.90049629705811
 21
19.70665082841047
 31
0.0
  0
LINE
  5
117D
330
1179
100
AcDbEntity
  8
文字
 62
     0
370
    -2
100
AcDbLine
 10
87.65049629705811
 20
33.21017274872139
 30
0.0
 11
87.65049629705811
 21
22.20665082841047
 31
0.0
  0
SOLID
  5
117E
330
1179
100
AcDbEntity
  8
文字
 62
     0
100
AcDbTrace
 10
88.06716296372478
 20
33.21017274872139
 30
0.0
 11
87.23382963039144
 21
33.21017274872139
 31
0.0
 12
87.65049629705811
 22
35.71017274872139
 32
0.0
 13
87.65049629705811
 23
35.71017274872139
 33
0.0
  0
SOLID
  5
117F
330
1179
100
AcDbEntity
  8
文字
 62
     0
100
AcDbTrace
 10
87.23382963039144
 20
22.20665082841047
 30
0.0
 11
88.06716296372478
 21
22.20665082841047
 31
0.0
 12
87.65049629705811
 22
19.70665082841047
 32
0.0
 13
87.65049629705811
 23
19.70665082841047
 33
0.0
  0
MTEXT
  5
1180
330
1179
100
AcDbEntity
  8
文字
 62
     0
100
AcDbMText
 10
85.77549629705811
 20
27.70841178856593
 30
0.0
 40
2.5
 41
0.0
 46
0.0
 71
     5
 72
     1
  1
16
 11
0.0
 21
1.0
 31
0.0
 73
     1
 44
1.0
  0
POINT
  5
1181
330
1179
100
AcDbEntity
  8
Defpoints
 62
     0
100
AcDbPoint
 10
52.73595590124977
 20
35.71017274872139
 30
0.0
  0
POINT
  5
1182
330
1179
100
AcDbEntity
  8
Defpoints
 62
     0
100
AcDbPoint
 10
64.90550507032981
 20
19.70665082841047
 30
0.0
  0
POINT
  5
1183
330
1179
100
AcDbEntity
  8
Defpoints
 62
     0
100
AcDbPoint
 10
87.65049629705811
 20
19.70665082841047
 30
0.0
  0
ENDBLK
  5
1184
330
1179
100
AcDbEntity
  8
0
100
AcDbBlockEnd
  0
BLOCK
  5
1189
330
1188
100
AcDbEntity
  8
0
100
AcDbBlockBegin
  2
*D8
 70
     1
 10
0.0
 20
0.0
 30
0.0
  3
*D8
  1
*D9
  0
LINE
  5
118A
330
1188
100
AcDbEntity
  8
文字
 62
     0
370
    -2
100
AcDbLine
 10
19.18642710541309
 20
25.54327003021389
 30
0.0
 11
2.437999999999982
 21
25.54327003021389
 31
0.0
  0
LINE
  5
118B
330
1188
100
AcDbEntity
  8
文字
 62
     0
370
    -2
100
AcDbLine
 10
19.18642710541309
 20
19.54327003021389
 30
0.0
 11
2.437999999999981
 21
19.54327003021389
 31
0.0
  0
LINE
  5
118C
330
1188
100
AcDbEntity
  8
文字
 62
     0
370
    -2
100
AcDbLine
 10
3.687999999999982
 20
25.54327003021389
 30
0.0
 11
3.687999999999981
 21
19.54327003021389
 31
0.0
  0
LINE
  5
118D
330
1188
100
AcDbEntity
  8
文字
 62
     0
370
    -2
100
AcDbLine
 10
3.687999999999982
 20
28.04327003021389
 30
0.0
 11
3.687999999999982
 21
30.54327003021389
 31
0.0
  0
LINE
  5
118E
330
1188
100
AcDbEntity
  8
文字
 62
     0
370
    -2
100
AcDbLine
 10
3.687999999999981
 20
17.04327003021389
 30
0.0
 11
3.687999999999981
 21
14.54327003021389
 31
0.0
  0
SOLID
  5
118F
330
1188
100
AcDbEntity
  8
文字
 62
     0
100
AcDbTrace
 10
3.271333333333315
 20
28.04327003021389
 30
0.0
 11
4.104666666666648
 21
28.04327003021389
 31
0.0
 12
3.687999999999982
 22
25.54327003021389
 32
0.0
 13
3.687999999999982
 23
25.54327003021389
 33
0.0
  0
SOLID
  5
1190
330
1188
100
AcDbEntity
  8
文字
 62
     0
100
AcDbTrace
 10
4.104666666666648
 20
17.04327003021389
 30
0.0
 11
3.271333333333315
 21
17.04327003021389
 31
0.0
 12
3.687999999999981
 22
19.54327003021389
 32
0.0
 13
3.687999999999981
 23
19.54327003021389
 33
0.0
  0
MTEXT
  5
1191
330
1188
100
AcDbEntity
  8
文字
 62
     0
100
AcDbMText
 10
1.812999999999981
 20
22.54327003021389
 30
0.0
 40
2.5
 41
0.0
 46
0.0
 71
     5
 72
     1
  1
6
 11
7.401486830834377E-17
 21
1.0
 31
0.0
 73
     1
 44
1.0
  0
POINT
  5
1192
330
1188
100
AcDbEntity
  8
Defpoints
 62
     0
100
AcDbPoint
 10
19.81142710541309
 20
25.54327003021389
 30
0.0
  0
POINT
  5
1193
330
1188
100
AcDbEntity
  8
Defpoints
 62
     0
100
AcDbPoint
 10
19.81142710541309
 20
19.54327003021389
 30
0.0
  0
POINT
  5
1194
330
1188
100
AcDbEntity
  8
Defpoints
 62
     0
100
AcDbPoint
 10
3.687999999999981
 20
19.54327003021389
 30
0.0
  0
ENDBLK
  5
1195
330
1188
100
AcDbEntity
  8
0
100
AcDbBlockEnd
  0
BLOCK
  5
119A
330
1199
100
AcDbEntity
  8
0
100
AcDbBlockBegin
  2
*D9
 70
     1
 10
0.0
 20
0.0
 30
0.0
  3
*D9
  1
*D10
  0
LINE
  5
119B
330
1199
100
AcDbEntity
  8
文字
 62
     0
370
    -2
100
AcDbLine
 10
19.81142710541309
 20
18.91827003021389
 30
0.0
 11
19.81142710541309
 21
0.0
 31
0.0
  0
LINE
  5
119C
330
1199
100
AcDbEntity
  8
文字
 62
     0
370
    -2
100
AcDbLine
 10
64.81142710541313
 20
18.91827003021389
 30
0.0
 11
64.81142710541313
 21
0.0
 31
0.0
  0
LINE
  5
119D
330
1199
100
AcDbEntity
  8
文字
 62
     0
370
    -2
100
AcDbLine
 10
22.31142710541309
 20
1.25
 30
0.0
 11
62.31142710541313
 21
1.25
 31
0.0
  0
SOLID
  5
119E
330
1199
100
AcDbEntity
  8
文字
 62
     0
100
AcDbTrace
 10
22.31142710541309
 20
1.666666666666667
 30
0.0
 11
22.31142710541309
 21
0.8333333333333333
 31
0.0
 12
19.81142710541309
 22
1.25
 32
0.0
 13
19.81142710541309
 23
1.25
 33
0.0
  0
SOLID
  5
119F
330
1199
100
AcDbEntity
  8
文字
 62
     0
100
AcDbTrace
 10
62.31142710541313
 20
0.8333333333333333
 30
0.0
 11
62.31142710541313
 21
1.666666666666667
 31
0.0
 12
64.81142710541313
 22
1.25
 32
0.0
 13
64.81142710541313
 23
1.25
 33
0.0
  0
MTEXT
  5
11A0
330
1199
100
AcDbEntity
  8
文字
 62
     0
100
AcDbMText
 10
42.31142710541311
 20
3.125
 30
0.0
 40
2.5
 41
0.0
 46
0.0
 71
     5
 72
     1
  1
%%c45
 73
     1
 44
1.0
  0
POINT
  5
11A1
330
1199
100
AcDbEntity
  8
Defpoints
 62
     0
100
AcDbPoint
 10
19.81142710541309
 20
19.54327003021389
 30
0.0
  0
POINT
  5
11A2
330
1199
100
AcDbEntity
  8
Defpoints
 62
     0
100
AcDbPoint
 10
64.81142710541313
 20
19.54327003021389
 30
0.0
  0
POINT
  5
11A3
330
1199
100
AcDbEntity
  8
Defpoints
 62
     0
100
AcDbPoint
 10
64.81142710541313
 20
1.25
 30
0.0
  0
ENDBLK
  5
11A4
330
1199
100
AcDbEntity
  8
0
100
AcDbBlockEnd
  0
BLOCK
  5
11B8
330
11B7
100
AcDbEntity
  8
0
100
AcDbBlockBegin
  2
*D10
 70
     1
 10
0.0
 20
0.0
 30
0.0
  3
*D10
  1
*D11
  0
LINE
  5
11BA
330
11B7
100
AcDbEntity
  8
文字
 62
     0
370
    -2
100
AcDbLine
 10
87.91815418401038
 20
64.28441077830652
 30
0.0
 11
111.5002131527506
 21
64.28441077830652
 31
0.0
  0
LINE
  5
11BB
330
11B7
100
AcDbEntity
  8
文字
 62
     0
370
    -2
100
AcDbLine
 10
100.0877033530904
 20
48.28088885799561
 30
0.0
 11
111.5002131527506
 21
48.28088885799561
 31
0.0
  0
LINE
  5
11BC
330
11B7
100
AcDbEntity
  8
文字
 62
     0
370
    -2
100
AcDbLine
 10
110.2502131527506
 20
61.78441077830652
 30
0.0
 11
110.2502131527506
 21
50.78088885799561
 31
0.0
  0
SOLID
  5
11BD
330
11B7
100
AcDbEntity
  8
文字
 62
     0
100
AcDbTrace
 10
110.6668798194173
 20
61.78441077830652
 30
0.0
 11
109.833546486084
 21
61.78441077830652
 31
0.0
 12
110.2502131527506
 22
64.28441077830652
 32
0.0
 13
110.2502131527506
 23
64.28441077830652
 33
0.0
  0
SOLID
  5
11BE
330
11B7
100
AcDbEntity
  8
文字
 62
     0
100
AcDbTrace
 10
109.833546486084
 20
50.78088885799561
 30
0.0
 11
110.6668798194173
 21
50.78088885799561
 31
0.0
 12
110.2502131527506
 22
48.28088885799561
 32
0.0
 13
110.2502131527506
 23
48.28088885799561
 33
0.0
  0
MTEXT
  5
11BF
330
11B7
100
AcDbEntity
  8
文字
 62
     0
100
AcDbMText
 10
108.3752131527506
 20
56.3697876299066
 30
0.0
 40
2.5
 41
0.0
 46
0.0
 71
     5
 72
     1
  1
16
 11
0.0
 21
1.0
 31
0.0
 73
     1
 44
1.0
  0
POINT
  5
11C0
330
11B7
100
AcDbEntity
  8
Defpoints
 62
     0
100
AcDbPoint
 10
87.29315418401038
 20
64.28441077830652
 30
0.0
  0
POINT
  5
11C1
330
11B7
100
AcDbEntity
  8
Defpoints
 62
     0
100
AcDbPoint
 10
99.46270335309043
 20
48.28088885799561
 30
0.0
  0
POINT
  5
11C2
330
11B7
100
AcDbEntity
  8
Defpoints
 62
     0
100
AcDbPoint
 10
110.2502131527506
 20
48.28088885799561
 30
0.0
  0
ENDBLK
  5
11B9
330
11B7
100
AcDbEntity
  8
0
100
AcDbBlockEnd
  0
BLOCK
  5
11C4
330
11C3
100
AcDbEntity
  8
0
100
AcDbBlockBegin
  2
*D11
 70
     1
 10
0.0
 20
0.0
 30
0.0
  3
*D11
  1
*D12
  0
LINE
  5
11C6
330
11C3
100
AcDbEntity
  8
文字
 62
     0
370
    -2
100
AcDbLine
 10
53.74362538817371
 20
54.11750805979903
 30
0.0
 11
36.99519828276061
 21
54.11750805979903
 31
0.0
  0
LINE
  5
11C7
330
11C3
100
AcDbEntity
  8
文字
 62
     0
370
    -2
100
AcDbLine
 10
53.74362538817371
 20
48.11750805979903
 30
0.0
 11
36.99519828276061
 21
48.11750805979903
 31
0.0
  0
LINE
  5
11C8
330
11C3
100
AcDbEntity
  8
文字
 62
     0
370
    -2
100
AcDbLine
 10
38.24519828276061
 20
54.11750805979903
 30
0.0
 11
38.24519828276061
 21
48.11750805979903
 31
0.0
  0
LINE
  5
11C9
330
11C3
100
AcDbEntity
  8
文字
 62
     0
370
    -2
100
AcDbLine
 10
38.24519828276061
 20
56.61750805979903
 30
0.0
 11
38.24519828276061
 21
59.11750805979903
 31
0.0
  0
LINE
  5
11CA
330
11C3
100
AcDbEntity
  8
文字
 62
     0
370
    -2
100
AcDbLine
 10
38.24519828276061
 20
45.61750805979903
 30
0.0
 11
38.24519828276061
 21
43.11750805979903
 31
0.0
  0
SOLID
  5
11CB
330
11C3
100
AcDbEntity
  8
文字
 62
     0
100
AcDbTrace
 10
37.82853161609395
 20
56.61750805979903
 30
0.0
 11
38.66186494942728
 21
56.61750805979903
 31
0.0
 12
38.24519828276061
 22
54.11750805979903
 32
0.0
 13
38.24519828276061
 23
54.11750805979903
 33
0.0
  0
SOLID
  5
11CC
330
11C3
100
AcDbEntity
  8
文字
 62
     0
100
AcDbTrace
 10
38.66186494942728
 20
45.61750805979903
 30
0.0
 11
37.82853161609395
 21
45.61750805979903
 31
0.0
 12
38.24519828276061
 22
48.11750805979903
 32
0.0
 13
38.24519828276061
 23
48.11750805979903
 33
0.0
  0
MTEXT
  5
11CD
330
11C3
100
AcDbEntity
  8
文字
 62
     0
100
AcDbMText
 10
36.37019828276061
 20
51.11750805979903
 30
0.0
 40
2.5
 41
0.0
 46
0.0
 71
     5
 72
     1
  1
6
 11
0.0
 21
1.0
 31
0.0
 73
     1
 44
1.0
  0
POINT
  5
11CE
330
11C3
100
AcDbEntity
  8
Defpoints
 62
     0
100
AcDbPoint
 10
54.36862538817371
 20
54.11750805979903
 30
0.0
  0
POINT
  5
11CF
330
11C3
100
AcDbEntity
  8
Defpoints
 62
     0
100
AcDbPoint
 10
54.36862538817371
 20
48.11750805979903
 30
0.0
  0
POINT
  5
11D0
330
11C3
100
AcDbEntity
  8
Defpoints
 62
     0
100
AcDbPoint
 10
38.24519828276061
 20
48.11750805979903
 30
0.0
  0
ENDBLK
  5
11C5
330
11C3
100
AcDbEntity
  8
0
100
AcDbBlockEnd
  0
BLOCK
  5
11D2
330
11D1
100
AcDbEntity
  8
0
100
AcDbBlockBegin
  2
*D12
 70
     1
 10
0.0
 20
0.0
 30
0.0
  3
*D12
  1
*D13
  0
LINE
  5
11D4
330
11D1
100
AcDbEntity
  8
文字
 62
     0
370
    -2
100
AcDbLine
 10
54.36862538817371
 20
47.49250805979903
 30
0.0
 11
54.36862538817371
 21
28.57423802958514
 31
0.0
  0
LINE
  5
11D5
330
11D1
100
AcDbEntity
  8
文字
 62
     0
370
    -2
100
AcDbLine
 10
99.36862538817374
 20
47.49250805979903
 30
0.0
 11
99.36862538817374
 21
28.57423802958514
 31
0.0
  0
LINE
  5
11D6
330
11D1
100
AcDbEntity
  8
文字
 62
     0
370
    -2
100
AcDbLine
 10
56.86862538817371
 20
29.82423802958514
 30
0.0
 11
96.86862538817374
 21
29.82423802958514
 31
0.0
  0
SOLID
  5
11D7
330
11D1
100
AcDbEntity
  8
文字
 62
     0
100
AcDbTrace
 10
56.86862538817371
 20
30.24090469625181
 30
0.0
 11
56.86862538817371
 21
29.40757136291847
 31
0.0
 12
54.36862538817371
 22
29.82423802958514
 32
0.0
 13
54.36862538817371
 23
29.82423802958514
 33
0.0
  0
SOLID
  5
11D8
330
11D1
100
AcDbEntity
  8
文字
 62
     0
100
AcDbTrace
 10
96.86862538817374
 20
29.40757136291847
 30
0.0
 11
96.86862538817374
 21
30.24090469625181
 31
0.0
 12
99.36862538817374
 22
29.82423802958514
 32
0.0
 13
99.36862538817374
 23
29.82423802958514
 33
0.0
  0
MTEXT
  5
11D9
330
11D1
100
AcDbEntity
  8
文字
 62
     0
100
AcDbMText
 10
76.86862538817373
 20
31.69923802958514
 30
0.0
 40
2.5
 41
0.0
 46
0.0
 71
     5
 72
     1
  1
%%c45
 73
     1
 44
1.0
  0
POINT
  5
11DA
330
11D1
100
AcDbEntity
  8
Defpoints
 62
     0
100
AcDbPoint
 10
54.36862538817371
 20
48.11750805979903
 30
0.0
  0
POINT
  5
11DB
330
11D1
100
AcDbEntity
  8
Defpoints
 62
     0
100
AcDbPoint
 10
99.36862538817374
 20
48.11750805979903
 30
0.0
  0
POINT
  5
11DC
330
11D1
100
AcDbEntity
  8
Defpoints
 62
     0
100
AcDbPoint
 10
99.36862538817374
 20
29.82423802958514
 30
0.0
  0
ENDBLK
  5
11D3
330
11D1
100
AcDbEntity
  8
0
100
AcDbBlockEnd
  0
BLOCK
  5
1203
330
1202
100
AcDbEntity
  8
0
100
AcDbBlockBegin
  2
*D13
 70
     1
 10
0.0
 20
0.0
 30
0.0
  3
*D13
  1
*D15
  0
LINE
  5
1204
330
1202
100
AcDbEntity
  8
文字
 62
     0
370
    -2
100
AcDbLine
 10
0.0
 20
27.41950251549261
 30
0.0
 11
0.0
 21
0.0
 31
0.0
  0
LINE
  5
1205
330
1202
100
AcDbEntity
  8
文字
 62
     0
370
    -2
100
AcDbLine
 10
41.00268414918409
 20
26.81650250643591
 30
0.0
 11
41.00268414918409
 21
0.0
 31
0.0
  0
LINE
  5
1206
330
1202
100
AcDbEntity
  8
文字
 62
     0
370
    -2
100
AcDbLine
 10
2.5
 20
1.25
 30
0.0
 11
38.50268414918409
 21
1.25
 31
0.0
  0
SOLID
  5
1207
330
1202
100
AcDbEntity
  8
文字
 62
     0
100
AcDbTrace
 10
2.5
 20
1.666666666666667
 30
0.0
 11
2.5
 21
0.8333333333333333
 31
0.0
 12
0.0
 22
1.25
 32
0.0
 13
0.0
 23
1.25
 33
0.0
  0
SOLID
  5
1208
330
1202
100
AcDbEntity
  8
文字
 62
     0
100
AcDbTrace
 10
38.50268414918409
 20
0.8333333333333333
 30
0.0
 11
38.50268414918409
 21
1.666666666666667
 31
0.0
 12
41.00268414918409
 22
1.25
 32
0.0
 13
41.00268414918409
 23
1.25
 33
0.0
  0
MTEXT
  5
1209
330
1202
100
AcDbEntity
  8
文字
 62
     0
100
AcDbMText
 10
20.50134207459205
 20
3.125
 30
0.0
 40
2.5
 41
0.0
 46
0.0
 71
     5
 72
     1
  1
%%c41
 73
     1
 44
1.0
  0
POINT
  5
120A
330
1202
100
AcDbEntity
  8
Defpoints
 62
     0
100
AcDbPoint
 10
0.0
 20
28.04450251549261
 30
0.0
  0
POINT
  5
120B
330
1202
100
AcDbEntity
  8
Defpoints
 62
     0
100
AcDbPoint
 10
41.00268414918409
 20
27.44150250643591
 30
0.0
  0
POINT
  5
120C
330
1202
100
AcDbEntity
  8
Defpoints
 62
     0
100
AcDbPoint
 10
41.00268414918409
 20
1.25
 30
0.0
  0
ENDBLK
  5
120D
330
1202
100
AcDbEntity
  8
0
100
AcDbBlockEnd
  0
BLOCK
  5
1214
330
1213
100
AcDbEntity
  8
0
100
AcDbBlockBegin
  2
*D14
 70
     1
 10
0.0
 20
0.0
 30
0.0
  3
*D14
  1
*D16
  0
LINE
  5
1216
330
1213
100
AcDbEntity
  8
文字
 62
     0
370
    -2
100
AcDbLine
 10
147.3507485770245
 20
104.4746821159451
 30
0.0
 11
147.3507485770245
 21
55.1952745874336
 31
0.0
  0
LINE
  5
1217
330
1213
100
AcDbEntity
  8
文字
 62
     0
370
    -2
100
AcDbLine
 10
175.3507485770245
 20
104.4746821159451
 30
0.0
 11
175.3507485770245
 21
55.1952745874336
 31
0.0
  0
LINE
  5
1218
330
1213
100
AcDbEntity
  8
文字
 62
     0
370
    -2
100
AcDbLine
 10
149.8507485770245
 20
56.4452745874336
 30
0.0
 11
172.8507485770245
 21
56.4452745874336
 31
0.0
  0
SOLID
  5
1219
330
1213
100
AcDbEntity
  8
文字
 62
     0
100
AcDbTrace
 10
149.8507485770245
 20
56.86194125410027
 30
0.0
 11
149.8507485770245
 21
56.02860792076694
 31
0.0
 12
147.3507485770245
 22
56.4452745874336
 32
0.0
 13
147.3507485770245
 23
56.4452745874336
 33
0.0
  0
SOLID
  5
121A
330
1213
100
AcDbEntity
  8
文字
 62
     0
100
AcDbTrace
 10
172.8507485770245
 20
56.02860792076694
 30
0.0
 11
172.8507485770245
 21
56.86194125410027
 31
0.0
 12
175.3507485770245
 22
56.4452745874336
 32
0.0
 13
175.3507485770245
 23
56.4452745874336
 33
0.0
  0
MTEXT
  5
121B
330
1213
100
AcDbEntity
  8
文字
 62
     0
100
AcDbMText
 10
161.3507485770245
 20
58.3202745874336
 30
0.0
 40
2.5
 41
0.0
 46
0.0
 71
     5
 72
     1
  1
%%c28
 73
     1
 44
1.0
  0
POINT
  5
121C
330
1213
100
AcDbEntity
  8
Defpoints
 62
     0
100
AcDbPoint
 10
147.3507485770245
 20
105.0996821159451
 30
0.0
  0
POINT
  5
121D
330
1213
100
AcDbEntity
  8
Defpoints
 62
     0
100
AcDbPoint
 10
175.3507485770245
 20
105.0996821159451
 30
0.0
  0
POINT
  5
121E
330
1213
100
AcDbEntity
  8
Defpoints
 62
     0
100
AcDbPoint
 10
175.3507485770245
 20
56.4452745874336
 30
0.0
  0
ENDBLK
  5
1215
330
1213
100
AcDbEntity
  8
0
100
AcDbBlockEnd
  0
ENDSEC
  0
SECTION
  2
ENTITIES
  0
CIRCLE
  5
65D
330
21
100
AcDbEntity
  8
実線
370
    50
100
AcDbCircle
 10
161.3507485770245
 20
105.0996821159451
 30
0.0
 40
14.0
  0
LINE
  5
65F
330
21
100
AcDbEntity
  8
中心線
100
AcDbLine
 10
170.9384191231691
 20
105.0996821159451
 30
0.0
 11
191.5807173406764
 21
105.0996821159451
 31
0.0
  0
LINE
  5
672
102
{ACAD_REACTORS
330
7AC
102
}
330
21
100
AcDbEntity
  8
中心線
100
AcDbLine
 10
130.935987972727
 20
105.0996821159451
 30
0.0
 11
170.9384191231691
 21
105.0996821159451
 31
0.0
  0
LWPOLYLINE
  5
6FE
102
{ACAD_REACTORS
330
7AC
102
}
330
21
100
AcDbEntity
  8
実線
370
    50
100
AcDbPolyline
 90
        6
 70
     1
 43
0.0
 10
167.8459391054078
 20
108.8496821159451
 10
161.3507485770245
 20
112.5996821159451
 10
154.8555580486412
 20
108.8496821159451
 10
154.8555580486412
 20
101.3496821159451
 10
161.3507485770245
 20
97.59968211594507
 10
167.8459391054078
 20
101.3496821159451
  0
CIRCLE
  5
6FF
330
21
100
AcDbEntity
  8
実線
370
    50
100
AcDbCircle
 10
161.3507485770245
 20
105.0996821159451
 30
0.0
 40
4.0
  0
CIRCLE
  5
700
330
21
100
AcDbEntity
  8
実線
370
    20
100
AcDbCircle
 10
161.3507485770245
 20
105.0996821159451
 30
0.0
 40
3.4
  0
DIMENSION
  5
795
102
{ACAD_REACTORS
330
7AC
102
}
102
{ACAD_XDICTIONARY
360
7A2
102
}
330
21
100
AcDbEntity
  8
文字
100
AcDbDimension
280
     0
  2
*D0
 10
167.8459391054078
 20
72.85978922398854
 30
0.0
 11
161.5334718167282
 21
72.85978922398854
 31
0.0
 70
   160
  1
13
 71
     5
 42
12.99038105676658
 73
     0
 74
     0
 75
     0
  3
ISO-25
100
AcDbAlignedDimension
 13
154.8555580486412
 23
105.0996821159451
 33
0.0
 14
167.8459391054078
 24
105.0996821159451
 34
0.0
100
AcDbRotatedDimension
  0
LINE
  5
B55
330
21
100
AcDbEntity
  8
中心線
100
AcDbLine
 10
161.3507485770245
 20
105.0996821159451
 30
0.0
 11
161.3507485770245
 21
130.7950934306428
 31
0.0
  0
LINE
  5
B68
330
21
100
AcDbEntity
  8
中心線
100
AcDbLine
 10
161.3507485770245
 20
105.0996821159451
 30
0.0
 11
161.3507485770245
 21
81.17457823100884
 31
0.0
  0
LWPOLYLINE
  5
105A
102
{ACAD_REACTORS
330
1065
102
}
330
21
100
AcDbEntity
  8
実線
370
    50
100
AcDbPolyline
 90
        4
 70
     0
 43
0.0
 10
84.26096800839248
 20
65.28712569219607
 10
84.26096800839248
 20
69.7871256921961
 10
69.26096800839248
 20
69.7871256921961
 10
69.26096800839248
 20
65.2871256921961
  0
LINE
  5
105B
330
21
100
AcDbEntity
  8
実線
370
    50
100
AcDbLine
 10
73.36169086539465
 20
69.7871256921961
 30
0.0
 11
73.36169086539465
 21
65.2871256921961
 31
0.0
  0
LINE
  5
105C
330
21
100
AcDbEntity
  8
実線
370
    50
100
AcDbLine
 10
80.22001242348122
 20
69.7871256921961
 30
0.0
 11
80.22001242348122
 21
65.2871256921961
 31
0.0
  0
ARC
  5
105D
330
21
100
AcDbEntity
  8
実線
370
    50
100
AcDbCircle
 10
71.31132943689357
 20
66.88752381189343
 30
0.0
 40
2.601010597636193
100
AcDbArc
 50
217.9736186349941
 51
322.0263813650057
  0
ARC
  5
105E
330
21
100
AcDbEntity
  8
実線
370
    50
100
AcDbCircle
 10
76.79085164443795
 20
70.66625100060884
 30
0.0
 40
6.379195304435764
100
AcDbArc
 50
237.4827287485464
 51
302.5172712514527
  0
ARC
  5
105F
330
21
100
AcDbEntity
  8
実線
370
    50
100
AcDbCircle
 10
82.24049021593687
 20
66.82713171188385
 30
0.0
 40
2.540462369428222
100
AcDbArc
 50
217.3146110078781
 51
322.6853889921219
  0
LINE
  5
1060
330
21
100
AcDbEntity
  8
実線
370
    50
100
AcDbLine
 10
76.72858490536568
 20
64.28735959337038
 30
0.0
 11
71.71235401298887
 21
64.28735959337038
 31
0.0
  0
LINE
  5
1061
330
21
100
AcDbEntity
  8
実線
370
    50
100
AcDbLine
 10
76.72858490536541
 20
64.28735959337038
 30
0.0
 11
81.74481579774252
 21
64.28735959337038
 31
0.0
  0
DIMENSION
  5
1062
330
21
100
AcDbEntity
  8
文字
100
AcDbDimension
280
     0
  2
*D1
 10
80.7285849053657
 20
180.3816451925803
 30
0.0
 11
76.7285849053657
 21
182.2566451925803
 31
0.0
 70
    32
  1
{\fArial|b0|i0|c0|p32;M}<>
 71
     5
 42
8.000000000000014
 73
     0
 74
     0
 75
     0
  3
ISO-25
100
AcDbAlignedDimension
 13
72.72858490536568
 23
168.1621256921961
 33
0.0
 14
80.7285849053657
 24
168.1621256921961
 34
0.0
100
AcDbRotatedDimension
  0
DIMENSION
  5
1063
102
{ACAD_REACTORS
330
1065
102
}
102
{ACAD_XDICTIONARY
360
1064
102
}
330
21
100
AcDbEntity
  8
文字
100
AcDbDimension
280
     0
  2
*D3
 10
110.3352941842234
 20
69.78712569219608
 30
0.0
 11
114.3977941842234
 21
69.44349264278326
 31
0.0
 70
    32
 71
     5
 42
5.499766098825717
 73
     0
 74
     0
 75
     0
  3
ISO-25
100
AcDbAlignedDimension
 13
81.74481579774252
 23
64.28735959337038
 33
0.0
 14
84.26096800839247
 24
69.7871256921961
 34
0.0
 50
90.0
100
AcDbRotatedDimension
1001
ACAD
1000
DSTYLE
1002
{
1070
   279
1070
     1
1002
}
  0
LWPOLYLINE
  5
1066
330
21
100
AcDbEntity
  8
実線
100
AcDbPolyline
 90
        6
 70
     1
 43
0.0
 10
72.72858490536568
 20
69.7871256921961
 10
80.72858490536568
 20
69.7871256921961
 10
80.72858490536568
 20
168.7871256921961
 10
79.72858490536568
 20
169.7871256921961
 10
73.72858490536568
 20
169.7871256921961
 10
72.72858490536568
 20
168.7871256921961
  0
LINE
  5
1067
330
21
100
AcDbEntity
  8
実線
370
    20
100
AcDbLine
 10
72.72858490536568
 20
168.7871256921961
 30
0.0
 11
80.72858490536568
 21
168.7871256921961
 31
0.0
  0
LINE
  5
1068
330
21
100
AcDbEntity
  8
実線
370
    20
100
AcDbLine
 10
73.72858490536568
 20
169.7871256921961
 30
0.0
 11
73.72858490536566
 21
69.7871256921961
 31
0.0
  0
LINE
  5
1069
102
{ACAD_REACTORS
330
106C
102
}
330
21
100
AcDbEntity
  8
実線
370
    20
100
AcDbLine
 10
79.72858490536568
 20
169.7871256921961
 30
0.0
 11
79.72858490536566
 21
69.7871256921961
 31
0.0
  0
DIMENSION
  5
106A
102
{ACAD_REACTORS
330
106C
102
}
102
{ACAD_XDICTIONARY
360
106B
102
}
330
21
100
AcDbEntity
  8
文字
100
AcDbDimension
280
     0
  2
*D4
 10
110.3352941842234
 20
69.78712569219608
 30
0.0
 11
108.4602941842234
 21
119.7871256921961
 31
0.0
 70
    32
 71
     5
 42
100.0
 73
     0
 74
     0
 75
     0
  3
ISO-25
100
AcDbAlignedDimension
 13
79.72858490536568
 23
169.7871256921961
 33
0.0
 14
84.88596800839247
 24
69.7871256921961
 34
0.0
 50
90.0
100
AcDbRotatedDimension
  0
LINE
  5
106D
330
21
100
AcDbEntity
  8
実線
370
    50
100
AcDbLine
 10
76.72858490536568
 20
64.28735959337038
 30
0.0
 11
71.71235401298887
 21
64.28735959337038
 31
0.0
  0
LINE
  5
106E
330
21
100
AcDbEntity
  8
実線
370
    50
100
AcDbLine
 10
76.72858490536541
 20
64.28735959337038
 30
0.0
 11
81.74481579774252
 21
64.28735959337038
 31
0.0
  0
LINE
  5
106F
330
21
100
AcDbEntity
  8
実線
370
    50
100
AcDbLine
 10
76.85311838350987
 20
64.28735959337038
 30
0.0
 11
71.83688749113306
 21
64.28735959337038
 31
0.0
  0
LINE
  5
1070
330
21
100
AcDbEntity
  8
実線
370
    50
100
AcDbLine
 10
76.8531183835096
 20
64.28735959337038
 30
0.0
 11
81.8693492758867
 21
64.28735959337038
 31
0.0
  0
LINE
  5
107A
330
21
100
AcDbEntity
  8
実線
370
    50
100
AcDbLine
 10
76.8531183835096
 20
64.28735959337038
 30
0.0
 11
81.8693492758867
 21
64.28735959337038
 31
0.0
  0
LINE
  5
107B
330
21
100
AcDbEntity
  8
実線
370
    50
100
AcDbLine
 10
76.85311838350987
 20
64.28735959337038
 30
0.0
 11
71.83688749113306
 21
64.28735959337038
 31
0.0
  0
CIRCLE
  5
10E6
330
21
100
AcDbEntity
  8
実線
100
AcDbCircle
 10
161.3507485770245
 20
105.0996821159451
 30
0.0
 40
22.5
  0
ARC
  5
11AA
330
21
100
AcDbEntity
  8
実線
370
    50
100
AcDbCircle
 10
76.32256019776392
 20
51.81866329267417
 30
0.0
 40
13.24316634049441
100
AcDbArc
 50
109.7295435093523
 51
170.0035449917054
  0
ARC
  5
11AB
330
21
100
AcDbEntity
  8
実線
370
    50
100
AcDbCircle
 10
77.41374817025687
 20
51.81866329267412
 30
0.0
 40
13.24316634049445
100
AcDbArc
 50
9.99645500829481
 51
70.27045649064763
  0
LINE
  5
11AC
330
21
100
AcDbEntity
  8
中心線
100
AcDbLine
 10
76.8681541840104
 20
40.78417687713223
 30
0.0
 11
76.90258438856003
 21
175.0707088277936
 31
0.0
  0
LWPOLYLINE
  5
11AD
102
{ACAD_REACTORS
330
11B2
330
11B5
102
}
330
21
100
AcDbEntity
  8
実線
100
AcDbPolyline
 90
        4
 70
     1
 43
0.0
 10
54.36862538817371
 20
48.11750805979903
 10
99.36862538817374
 20
48.11750805979903
 10
99.36862538817374
 20
54.11750805979903
 10
54.36862538817371
 20
54.11750805979903
  0
DIMENSION
  5
11AE
102
{ACAD_XDICTIONARY
360
11AF
102
}
330
21
100
AcDbEntity
  8
文字
100
AcDbDimension
280
     0
  2
*D10
 10
110.2502131527506
 20
48.28088885799561
 30
0.0
 11
110.2502131527506
 21
56.3697876299066
 31
0.0
 70
   160
 71
     5
 42
16.00352192031091
 73
     0
 74
     0
 75
     0
  3
ISO-25
100
AcDbAlignedDimension
 13
87.29315418401038
 23
64.28441077830652
 33
0.0
 14
99.46270335309043
 24
48.28088885799561
 34
0.0
 50
90.0
100
AcDbRotatedDimension
  0
DIMENSION
  5
11B0
102
{ACAD_REACTORS
330
11B2
102
}
102
{ACAD_XDICTIONARY
360
11B1
102
}
330
21
100
AcDbEntity
  8
文字
100
AcDbDimension
280
     0
  2
*D11
 10
38.24519828276061
 20
48.11750805979903
 30
0.0
 11
36.37019828276061
 21
51.11750805979903
 31
0.0
 70
    32
 71
     5
 42
6.0
 73
     0
 74
     0
 75
     0
  3
ISO-25
100
AcDbAlignedDimension
 13
54.36862538817371
 23
54.11750805979903
 33
0.0
 14
54.36862538817371
 24
48.11750805979903
 34
0.0
 50
90.0
100
AcDbRotatedDimension
  0
DIMENSION
  5
11B3
102
{ACAD_REACTORS
330
11B5
102
}
102
{ACAD_XDICTIONARY
360
11B4
102
}
330
21
100
AcDbEntity
  8
文字
100
AcDbDimension
280
     0
  2
*D12
 10
99.36862538817374
 20
29.82423802958514
 30
0.0
 11
76.86862538817373
 21
31.69923802958514
 31
0.0
 70
    32
  1
%%c<>
 71
     5
 42
45.00000000000003
 73
     0
 74
     0
 75
     0
  3
ISO-25
100
AcDbAlignedDimension
 13
54.36862538817371
 23
48.11750805979903
 33
0.0
 14
99.36862538817374
 24
48.11750805979903
 34
0.0
100
AcDbRotatedDimension
  0
MTEXT
  5
11B6
330
21
100
AcDbEntity
  8
文字・寸法線
 62
     0
100
AcDbMText
 10
93.01698119130995
 20
193.8193300143448
 30
0.0
 40
6.0
 41
0.0
 46
6.0
 71
     9
 72
     1
  1
{\fＭＳ ゴシック|b0|i0|c0|p0;S-M2 M8X100}
 73
     1
 44
1.0
1001
ACAD
1000
ACAD_MTEXT_DEFINED_HEIGHT_BEGIN
1070
    46
1040
6.0
1000
ACAD_MTEXT_DEFINED_HEIGHT_END
  0
DIMENSION
  5
1211
102
{ACAD_XDICTIONARY
360
1212
102
}
330
21
100
AcDbEntity
  8
文字
 62
     0
100
AcDbDimension
280
     0
  2
*D14
 10
175.3507485770245
 20
56.4452745874336
 30
0.0
 11
161.3507485770245
 21
58.3202745874336
 31
0.0
 70
    32
  1
%%c<>
 71
     5
 42
28.0
 73
     0
 74
     0
 75
     0
  3
ISO-25
100
AcDbAlignedDimension
 13
147.3507485770245
 23
105.0996821159451
 33
0.0
 14
175.3507485770245
 24
105.0996821159451
 34
0.0
100
AcDbRotatedDimension
1001
ACAD
1000
DSTYLE
1002
{
1070
    77
1070
     1
1002
}
  0
VIEWPORT
  5
113D
330
1139
100
AcDbEntity
 67
     1
  8
0
100
AcDbViewport
 10
203.7291666666666
 20
142.1694444444444
 30
0.0
 40
488.9499999999999
 41
341.2066666666665
 68
     1
 69
     1
 12
203.7291666666666
 22
142.1694444444444
 13
0.0
 23
0.0
 14
0.5
 24
0.5
 15
0.0
 25
0.0
 16
0.0
 26
0.0
 36
1.0
 17
0.0
 27
0.0
 37
0.0
 42
50.0
 43
0.0
 44
0.0
 45
341.2066666666665
 50
0.0
 51
0.0
 72
   100
 90
   557152
  1

281
     0
 71
     1
 74
     0
110
0.0
120
0.0
130
0.0
111
1.0
121
0.0
131
0.0
112
0.0
122
1.0
132
0.0
 79
     0
146
0.0
170
     0
 61
     5
348
10F5
292
     1
282
     1
141
0.0
142
0.0
 63
   256
361
113F
  0
VIEWPORT
  5
113E
330
1139
100
AcDbEntity
 67
     1
  8
0
100
AcDbViewport
 10
203.7291666666666
 20
142.1694444444444
 30
0.0
 40
325.9666666666666
 41
227.471111111111
 68
     2
 69
     2
 12
148.5000001180429
 22
105.0
 13
0.0
 23
0.0
 14
0.5
 24
0.5
 15
0.0
 25
0.0
 16
0.0
 26
0.0
 36
1.0
 17
0.0
 27
0.0
 37
0.0
 42
50.0
 43
0.0
 44
0.0
 45
214.2
 50
0.0
 51
0.0
 72
   100
 90
   557152
  1

281
     0
 71
     1
 74
     0
110
0.0
120
0.0
130
0.0
111
1.0
121
0.0
131
0.0
112
0.0
122
1.0
132
0.0
 79
     0
146
0.0
170
     0
 61
     5
348
10F5
292
     1
282
     1
141
0.0
142
0.0
 63
   256
  0
ENDSEC
  0
SECTION
  2
OBJECTS
  0
DICTIONARY
  5
C
330
0
100
AcDbDictionary
281
     1
  3
ACAD_COLOR
350
1C
  3
ACAD_DETAILVIEWSTYLE
350
1149
  3
ACAD_GROUP
350
D
  3
ACAD_IMAGE_VARS
350
1132
  3
ACAD_LAYOUT
350
1A
  3
ACAD_MATERIAL
350
1B
  3
ACAD_MLEADERSTYLE
350
1146
  3
ACAD_MLINESTYLE
350
17
  3
ACAD_PLOTSETTINGS
350
19
  3
ACAD_PLOTSTYLENAME
350
E
  3
ACAD_SCALELIST
350
1109
  3
ACAD_SECTIONVIEWSTYLE
350
114A
  3
ACAD_TABLESTYLE
350
112E
  3
ACAD_VISUALSTYLE
350
10F0
  3
AcadDim
350
7AD
  3
ACDB_RECOMPOSE_DATA
350
1224
  3
AcDbVariableDictionary
350
1140
  3
APPDATA
350
1130
  0
SUN
  5
1131
330
10EF
100
AcDbSun
 90
        1
290
     0
 63
     7
421
 16777215
 40
1.0
291
     1
 91
  2455826
 92
 54000000
292
     0
 70
     2
 71
   256
280
     1
  0
DICTIONARY
  5
7A2
330
795
100
AcDbDictionary
280
     1
281
     1
  3
ACAD_DIMASSOC
360
7AC
  0
DICTIONARY
  5
1064
330
1063
100
AcDbDictionary
280
     1
281
     1
  3
ACAD_DIMASSOC
360
1065
  0
DICTIONARY
  5
106B
330
106A
100
AcDbDictionary
280
     1
281
     1
  3
ACAD_DIMASSOC
360
106C
  0
DICTIONARY
  5
11AF
330
11AE
100
AcDbDictionary
280
     1
281
     1
  0
DICTIONARY
  5
11B1
330
11B0
100
AcDbDictionary
280
     1
281
     1
  3
ACAD_DIMASSOC
360
11B2
  0
DICTIONARY
  5
11B4
330
11B3
100
AcDbDictionary
280
     1
281
     1
  3
ACAD_DIMASSOC
360
11B5
  0
DICTIONARY
  5
1212
330
1211
100
AcDbDictionary
280
     1
281
     1
  0
SUN
  5
113F
330
113D
100
AcDbSun
 90
        1
290
     0
 63
     7
421
 16777215
 40
1.0
291
     1
 91
  2455826
 92
 54000000
292
     0
 70
     2
 71
   256
280
     1
  0
DICTIONARY
  5
1C
102
{ACAD_REACTORS
330
C
102
}
330
C
100
AcDbDictionary
281
     1
  0
DICTIONARY
  5
1149
102
{ACAD_REACTORS
330
C
102
}
330
C
100
AcDbDictionary
281
     1
  0
DICTIONARY
  5
D
102
{ACAD_REACTORS
330
C
102
}
330
C
100
AcDbDictionary
281
     1
  0
RASTERVARIABLES
  5
1132
102
{ACAD_REACTORS
330
C
102
}
330
C
100
AcDbRasterVariables
 90
        0
 70
     1
 71
     1
 72
     1
  0
DICTIONARY
  5
1A
102
{ACAD_REACTORS
330
C
102
}
330
C
100
AcDbDictionary
281
     1
  3
Model
350
24
  3
Sheet1
350
113A
  0
DICTIONARY
  5
1B
102
{ACAD_REACTORS
330
C
102
}
330
C
100
AcDbDictionary
281
     1
  3
ByBlock
350
112C
  3
ByLayer
350
112B
  3
Global
350
112D
  0
DICTIONARY
  5
1146
102
{ACAD_REACTORS
330
C
102
}
330
C
100
AcDbDictionary
281
     1
  0
DICTIONARY
  5
17
102
{ACAD_REACTORS
330
C
102
}
330
C
100
AcDbDictionary
281
     1
  3
Standard
350
18
  0
DICTIONARY
  5
19
102
{ACAD_REACTORS
330
C
102
}
330
C
100
AcDbDictionary
281
     1
  0
ACDBDICTIONARYWDFLT
  5
E
102
{ACAD_REACTORS
330
C
102
}
330
C
100
AcDbDictionary
281
     1
  3
Normal
350
F
100
AcDbDictionaryWithDefault
340
F
  0
DICTIONARY
  5
1109
102
{ACAD_REACTORS
330
C
102
}
330
C
100
AcDbDictionary
281
     1
  3
A0
350
110A
  3
A1
350
110B
  3
A2
350
110C
  3
A3
350
110D
  3
A4
350
110E
  3
A5
350
110F
  3
A6
350
1110
  3
A7
350
1111
  3
A8
350
1112
  3
A9
350
1113
  3
B0
350
1114
  3
B1
350
1115
  3
B2
350
1116
  3
B3
350
1117
  3
B4
350
1118
  3
B5
350
1119
  3
B6
350
111A
  3
B7
350
111B
  3
B8
350
111C
  3
B9
350
111D
  3
C0
350
111E
  3
C1
350
111F
  3
C2
350
1120
  3
C3
350
1121
  3
C4
350
1122
  3
C5
350
1123
  3
C6
350
1124
  3
C7
350
1125
  3
C8
350
1126
  3
C9
350
1127
  3
D0
350
1128
  3
D1
350
1129
  3
D2
350
112A
  0
DICTIONARY
  5
114A
102
{ACAD_REACTORS
330
C
102
}
330
C
100
AcDbDictionary
281
     1
  0
DICTIONARY
  5
112E
102
{ACAD_REACTORS
330
C
102
}
330
C
100
AcDbDictionary
281
     1
  3
Standard
350
112F
  0
DICTIONARY
  5
10F0
102
{ACAD_REACTORS
330
C
102
}
330
C
100
AcDbDictionary
281
     1
  3
2dWireframe
350
10F5
  3
Basic
350
10F8
  3
Brighten
350
10FC
  3
ColorChange
350
1100
  3
Conceptual
350
10FA
  3
Dim
350
10FB
  3
EdgeColorOff
350
1103
  3
Facepattern
350
10FF
  3
Flat
350
10F1
  3
FlatWithEdges
350
10F2
  3
Gouraud
350
10F3
  3
GouraudWithEdges
350
10F4
  3
Hidden
350
10F7
  3
JitterOff
350
1101
  3
Linepattern
350
10FE
  3
OverhangOff
350
1102
  3
Realistic
350
10F9
  3
Shaded
350
1108
  3
Shaded with edges
350
1107
  3
Shades of Gray
350
1104
  3
Sketchy
350
1105
  3
Thicken
350
10FD
  3
Wireframe
350
10F6
  3
X-Ray
350
1106
  0
XRECORD
  5
7AD
102
{ACAD_REACTORS
330
C
102
}
330
C
100
AcDbXrecord
280
     1
 90
   990106
  3

 60
     0
 61
     0
 62
     4
 63
     4
 64
     1
 65
     0
 66
     0
 67
     3
 68
     1
 69
     0
 70
     0
 71
     0
 72
     0
 40
0.0
170
     2
340
0
  0
XRECORD
  5
1224
102
{ACAD_REACTORS
330
C
102
}
330
C
100
AcDbXrecord
280
     1
 90
        1
330
112F
  0
DICTIONARY
  5
1140
102
{ACAD_REACTORS
330
C
102
}
330
C
100
AcDbDictionary
281
     1
  3
CANNOSCALE
350
1141
  3
CTABLESTYLE
350
1145
  3
MSLTSCALE
350
1147
  3
XCLIPFRAME
350
1148
  0
DICTIONARY
  5
1130
102
{ACAD_REACTORS
330
C
102
}
330
C
100
AcDbDictionary
281
     1
  0
DIMASSOC
  5
7AC
102
{ACAD_REACTORS
330
7A2
102
}
330
7A2
100
AcDbDimAssoc
330
795
 90
        3
 70
     0
 71
     0
  1
AcDbOsnapPointRef
 72
     2
331
6FE
 73
     2
 91
        3
 40
0.5
 10
0.0
 20
0.0
 30
0.0
 75
     0
  1
AcDbOsnapPointRef
 72
     6
331
6FE
 73
     2
 91
        6
 40
0.5000000000000038
 10
0.0
 20
0.0
 30
0.0
332
672
 74
     2
 92
        0
 75
     0
  0
DIMASSOC
  5
1065
102
{ACAD_REACTORS
330
1064
102
}
330
1064
100
AcDbDimAssoc
330
1063
 90
        2
 70
     0
 71
     0
  1
AcDbOsnapPointRef
 72
     1
331
105A
 73
     2
 91
        1
 40
1.0
 10
0.0
 20
0.0
 30
2.000000000000000E+50
 75
     0
  0
DIMASSOC
  5
106C
102
{ACAD_REACTORS
330
106B
102
}
330
106B
100
AcDbDimAssoc
330
106A
 90
        1
 70
     0
 71
     0
  1
AcDbOsnapPointRef
 72
    13
331
1069
 73
     2
 91
        0
 40
0.0
 10
0.0
 20
0.0
 30
2.000000000000000E+50
 75
     0
  0
DIMASSOC
  5
11B2
102
{ACAD_REACTORS
330
11B1
102
}
330
11B1
100
AcDbDimAssoc
330
11B0
 90
        3
 70
     0
 71
     0
  1
AcDbOsnapPointRef
 72
     1
331
11AD
 73
     2
 91
        3
 40
1.0
 10
0.0
 20
0.0
 30
2.000000000000000E+50
 75
     0
  1
AcDbOsnapPointRef
 72
    13
331
11AD
 73
     2
 91
        1
 40
0.0
 10
0.0
 20
0.0
 30
2.000000000000000E+50
 75
     0
  0
DIMASSOC
  5
11B5
102
{ACAD_REACTORS
330
11B4
102
}
330
11B4
100
AcDbDimAssoc
330
11B3
 90
        3
 70
     0
 71
     0
  1
AcDbOsnapPointRef
 72
    13
331
11AD
 73
     2
 91
        1
 40
0.0
 10
0.0
 20
0.0
 30
2.000000000000000E+50
 75
     0
  1
AcDbOsnapPointRef
 72
     1
331
11AD
 73
     2
 91
        1
 40
1.0
 10
0.0
 20
0.0
 30
2.000000000000000E+50
 75
     0
  0
LAYOUT
  5
24
102
{ACAD_REACTORS
330
1A
102
}
330
1A
100
AcDbPlotSettings
  1

  2
\\SF05\Brother HL-1440 series
  4
A4
  6

 40
6.72041654586792
 41
5.027085304260254
 42
6.889755249023438
 43
5.027069091796875
 44
209.9733276367188
 45
296.9259948730469
 46
3.18
 47
4.94
 48
10.0
 49
10.00000018588798
140
287.0000002360858
141
200.000000185888
142
1.0
143
1.0
 70
 11956
 72
     1
 73
     1
 74
     4
  7

 75
    16
 76
     0
 77
     2
 78
   300
147
1.0
148
-10.0
149
-10.00000018588798
100
AcDbLayout
  1
Model
 70
     1
 71
     0
 10
0.0
 20
0.0
 11
12.0
 21
9.0
 12
0.0
 22
0.0
 32
0.0
 14
35.12019828276062
 24
28.57423802958514
 34
0.0
 15
191.5807173406764
 25
199.8193300143448
 35
0.0
146
0.0
 13
0.0
 23
0.0
 33
0.0
 16
1.0
 26
0.0
 36
0.0
 17
0.0
 27
1.0
 37
0.0
 76
     0
330
21
331
10EF
  0
LAYOUT
  5
113A
102
{ACAD_REACTORS
330
1A
102
}
330
1A
100
AcDbPlotSettings
  1

  2
none_device
  4
iso-a3
  6

 40
6.35
 41
6.35
 42
6.35
 43
6.35
 44
297.0388888888888
 45
420.1583333333333
 46
0.0
 47
0.0
 48
0.0
 49
0.0
140
0.0
141
0.0
142
1.0
143
1.0
 70
   688
 72
     1
 73
     1
 74
     5
  7

 75
    16
 76
     0
 77
     2
 78
   300
147
1.0
148
0.0
149
0.0
100
AcDbLayout
  1
Sheet1
 70
     1
 71
     1
 10
0.0
 20
0.0
 11
0.0
 21
0.0
 12
0.0
 22
0.0
 32
0.0
 14
0.0
 24
0.0
 34
0.0
 15
0.0
 25
0.0
 35
0.0
146
0.0
 13
0.0
 23
0.0
 33
0.0
 16
1.0
 26
0.0
 36
0.0
 17
0.0
 27
1.0
 37
0.0
 76
     0
330
1139
331
113D
  0
MATERIAL
  5
112C
102
{ACAD_REACTORS
330
1B
102
}
330
1B
100
AcDbMaterial
  1
ByBlock
 72
     1
 94
      127
  0
MATERIAL
  5
112B
102
{ACAD_REACTORS
330
1B
102
}
330
1B
100
AcDbMaterial
  1
ByLayer
 72
     1
 94
      127
  0
MATERIAL
  5
112D
102
{ACAD_REACTORS
330
1B
102
}
330
1B
100
AcDbMaterial
  1
Global
 72
     1
 94
      127
  0
MLINESTYLE
  5
18
102
{ACAD_REACTORS
330
17
102
}
330
17
100
AcDbMlineStyle
  2
STANDARD
 70
     0
  3

 62
   256
 51
90.0
 52
90.0
 71
     2
 49
0.5
 62
   256
  6
BYLAYER
 49
-0.5
 62
   256
  6
BYLAYER
  0
ACDBPLACEHOLDER
  5
F
102
{ACAD_REACTORS
330
E
102
}
330
E
  0
SCALE
  5
110A
102
{ACAD_REACTORS
330
1109
102
}
330
1109
100
AcDbScale
 70
     0
300
1:1
140
1.0
141
1.0
290
     1
  0
SCALE
  5
110B
102
{ACAD_REACTORS
330
1109
102
}
330
1109
100
AcDbScale
 70
     0
300
1:2
140
1.0
141
2.0
290
     0
  0
SCALE
  5
110C
102
{ACAD_REACTORS
330
1109
102
}
330
1109
100
AcDbScale
 70
     0
300
1:4
140
1.0
141
4.0
290
     0
  0
SCALE
  5
110D
102
{ACAD_REACTORS
330
1109
102
}
330
1109
100
AcDbScale
 70
     0
300
1:5
140
1.0
141
5.0
290
     0
  0
SCALE
  5
110E
102
{ACAD_REACTORS
330
1109
102
}
330
1109
100
AcDbScale
 70
     0
300
1:8
140
1.0
141
8.0
290
     0
  0
SCALE
  5
110F
102
{ACAD_REACTORS
330
1109
102
}
330
1109
100
AcDbScale
 70
     0
300
1:10
140
1.0
141
10.0
290
     0
  0
SCALE
  5
1110
102
{ACAD_REACTORS
330
1109
102
}
330
1109
100
AcDbScale
 70
     0
300
1:16
140
1.0
141
16.0
290
     0
  0
SCALE
  5
1111
102
{ACAD_REACTORS
330
1109
102
}
330
1109
100
AcDbScale
 70
     0
300
1:20
140
1.0
141
20.0
290
     0
  0
SCALE
  5
1112
102
{ACAD_REACTORS
330
1109
102
}
330
1109
100
AcDbScale
 70
     0
300
1:30
140
1.0
141
30.0
290
     0
  0
SCALE
  5
1113
102
{ACAD_REACTORS
330
1109
102
}
330
1109
100
AcDbScale
 70
     0
300
1:40
140
1.0
141
40.0
290
     0
  0
SCALE
  5
1114
102
{ACAD_REACTORS
330
1109
102
}
330
1109
100
AcDbScale
 70
     0
300
1:50
140
1.0
141
50.0
290
     0
  0
SCALE
  5
1115
102
{ACAD_REACTORS
330
1109
102
}
330
1109
100
AcDbScale
 70
     0
300
1:100
140
1.0
141
100.0
290
     0
  0
SCALE
  5
1116
102
{ACAD_REACTORS
330
1109
102
}
330
1109
100
AcDbScale
 70
     0
300
2:1
140
2.0
141
1.0
290
     0
  0
SCALE
  5
1117
102
{ACAD_REACTORS
330
1109
102
}
330
1109
100
AcDbScale
 70
     0
300
4:1
140
4.0
141
1.0
290
     0
  0
SCALE
  5
1118
102
{ACAD_REACTORS
330
1109
102
}
330
1109
100
AcDbScale
 70
     0
300
8:1
140
8.0
141
1.0
290
     0
  0
SCALE
  5
1119
102
{ACAD_REACTORS
330
1109
102
}
330
1109
100
AcDbScale
 70
     0
300
10:1
140
10.0
141
1.0
290
     0
  0
SCALE
  5
111A
102
{ACAD_REACTORS
330
1109
102
}
330
1109
100
AcDbScale
 70
     0
300
100:1
140
100.0
141
1.0
290
     0
  0
SCALE
  5
111B
102
{ACAD_REACTORS
330
1109
102
}
330
1109
100
AcDbScale
 70
     0
300
1/128" = 1'-0"
140
0.0078125
141
12.0
290
     0
  0
SCALE
  5
111C
102
{ACAD_REACTORS
330
1109
102
}
330
1109
100
AcDbScale
 70
     0
300
1/64" = 1'-0"
140
0.015625
141
12.0
290
     0
  0
SCALE
  5
111D
102
{ACAD_REACTORS
330
1109
102
}
330
1109
100
AcDbScale
 70
     0
300
1/32" = 1'-0"
140
0.03125
141
12.0
290
     0
  0
SCALE
  5
111E
102
{ACAD_REACTORS
330
1109
102
}
330
1109
100
AcDbScale
 70
     0
300
1/16" = 1'-0"
140
0.0625
141
12.0
290
     0
  0
SCALE
  5
111F
102
{ACAD_REACTORS
330
1109
102
}
330
1109
100
AcDbScale
 70
     0
300
3/32" = 1'-0"
140
0.09375
141
12.0
290
     0
  0
SCALE
  5
1120
102
{ACAD_REACTORS
330
1109
102
}
330
1109
100
AcDbScale
 70
     0
300
1/8" = 1'-0"
140
0.125
141
12.0
290
     0
  0
SCALE
  5
1121
102
{ACAD_REACTORS
330
1109
102
}
330
1109
100
AcDbScale
 70
     0
300
3/16" = 1'-0"
140
0.1875
141
12.0
290
     0
  0
SCALE
  5
1122
102
{ACAD_REACTORS
330
1109
102
}
330
1109
100
AcDbScale
 70
     0
300
1/4" = 1'-0"
140
0.25
141
12.0
290
     0
  0
SCALE
  5
1123
102
{ACAD_REACTORS
330
1109
102
}
330
1109
100
AcDbScale
 70
     0
300
3/8" = 1'-0"
140
0.375
141
12.0
290
     0
  0
SCALE
  5
1124
102
{ACAD_REACTORS
330
1109
102
}
330
1109
100
AcDbScale
 70
     0
300
1/2" = 1'-0"
140
0.5
141
12.0
290
     0
  0
SCALE
  5
1125
102
{ACAD_REACTORS
330
1109
102
}
330
1109
100
AcDbScale
 70
     0
300
3/4" = 1'-0"
140
0.75
141
12.0
290
     0
  0
SCALE
  5
1126
102
{ACAD_REACTORS
330
1109
102
}
330
1109
100
AcDbScale
 70
     0
300
1" = 1'-0"
140
1.0
141
12.0
290
     0
  0
SCALE
  5
1127
102
{ACAD_REACTORS
330
1109
102
}
330
1109
100
AcDbScale
 70
     0
300
1-1/2" = 1'-0"
140
1.5
141
12.0
290
     0
  0
SCALE
  5
1128
102
{ACAD_REACTORS
330
1109
102
}
330
1109
100
AcDbScale
 70
     0
300
3" = 1'-0"
140
3.0
141
12.0
290
     0
  0
SCALE
  5
1129
102
{ACAD_REACTORS
330
1109
102
}
330
1109
100
AcDbScale
 70
     0
300
6" = 1'-0"
140
6.0
141
12.0
290
     0
  0
SCALE
  5
112A
102
{ACAD_REACTORS
330
1109
102
}
330
1109
100
AcDbScale
 70
     0
300
1'-0" = 1'-0"
140
12.0
141
12.0
290
     0
  0
TABLESTYLE
  5
112F
102
{ACAD_REACTORS
330
112E
102
}
102
{ACAD_XDICTIONARY
360
1222
102
}
330
112E
100
AcDbTableStyle
  3
Standard
 70
     0
 71
     0
 40
0.06
 41
0.06
280
     0
281
     0
  7
Standard
140
4.5
170
     2
 62
     0
 63
   257
283
     0
 90
        4
 91
        0
  1

274
    -2
284
     1
 64
     0
275
    -2
285
     1
 65
     0
276
    -2
286
     1
 66
     0
277
    -2
287
     1
 67
     0
278
    -2
288
     1
 68
     0
279
    -2
289
     1
 69
     0
  7
Standard
140
6.0
170
     5
 62
     0
 63
   257
283
     0
 90
        4
 91
        0
  1

274
    -2
284
     1
 64
     0
275
    -2
285
     1
 65
     0
276
    -2
286
     1
 66
     0
277
    -2
287
     1
 67
     0
278
    -2
288
     1
 68
     0
279
    -2
289
     1
 69
     0
  7
Standard
140
4.5
170
     5
 62
     0
 63
   257
283
     0
 90
        4
 91
        0
  1

274
    -2
284
     1
 64
     0
275
    -2
285
     1
 65
     0
276
    -2
286
     1
 66
     0
277
    -2
287
     1
 67
     0
278
    -2
288
     1
 68
     0
279
    -2
289
     1
 69
     0
  0
VISUALSTYLE
  5
10F5
102
{ACAD_REACTORS
330
10F0
102
}
330
10F0
100
AcDbVisualStyle
  2
2dWireframe
 70
     4
177
     3
291
     0
 70
    58
 90
        0
176
     1
 90
        2
176
     1
 90
        0
176
     1
 90
        0
176
     1
 40
0.6
176
     1
 40
30.0
176
     1
 62
     7
420
 16777215
176
     1
 90
        1
176
     1
 90
        4
176
     1
 62
     7
176
     1
 62
   257
176
     1
 90
        1
176
     1
 90
        1
176
     1
 40
1.0
176
     1
 90
        0
176
     1
 62
   257
176
     1
 40
1.0
176
     1
 90
        1
176
     1
 90
        6
176
     1
 90
        2
176
     1
 62
     7
176
     1
 90
        5
176
     1
 90
        0
176
     1
 90
        0
176
     1
290
     0
176
     1
 90
        1
176
     1
 40
0.0
176
     1
 90
        0
176
     1
290
     1
176
     1
290
     1
176
     1
290
     0
176
     1
290
     0
176
     1
290
     0
176
     1
290
     0
176
     1
290
     0
176
     1
290
     0
176
     1
290
     0
176
     1
 90
       50
176
     1
 40
0.0
176
     1
 40
1.0
176
     1
 90
        0
176
     1
 62
    18
420
        0
176
     1
 90
       50
176
     1
 90
        3
176
     1
 62
     5
420
      255
176
     1
290
     0
176
     1
 90
       50
176
     1
 90
       50
176
     1
 90
       50
176
     1
290
     0
176
     1
 90
       50
176
     1
 62
   256
176
     0
 40
1.0
176
     0
 90
        2
176
     1
  1
strokes_ogs.tif
176
     1
290
     0
176
     1
 40
1.0
176
     1
 40
1.0
176
     1
  0
VISUALSTYLE
  5
10F8
102
{ACAD_REACTORS
330
10F0
102
}
330
10F0
100
AcDbVisualStyle
  2
Basic
 70
     7
177
     3
291
     1
 70
    58
 90
        1
176
     1
 90
        0
176
     1
 90
        1
176
     1
 90
        0
176
     1
 40
0.6
176
     1
 40
30.0
176
     1
 62
     7
420
 16777215
176
     1
 90
        0
176
     1
 90
        4
176
     1
 62
     7
176
     1
 62
   257
176
     1
 90
        1
176
     1
 90
        1
176
     1
 40
1.0
176
     1
 90
        8
176
     1
 62
     7
176
     1
 40
1.0
176
     1
 90
        1
176
     1
 90
        6
176
     1
 90
        2
176
     1
 62
     7
176
     1
 90
        5
176
     1
 90
        0
176
     1
 90
        0
176
     1
290
     0
176
     1
 90
        1
176
     1
 40
0.0
176
     1
 90
        0
176
     1
290
     0
176
     1
290
     1
176
     1
290
     1
176
     1
290
     0
176
     1
290
     0
176
     1
290
     0
176
     1
290
     0
176
     1
290
     0
176
     1
290
     0
176
     1
 90
       50
176
     1
 40
0.0
176
     1
 40
1.0
176
     1
 90
        0
176
     1
 62
    18
420
        0
176
     1
 90
       50
176
     1
 90
        3
176
     1
 62
     5
420
      255
176
     1
290
     0
176
     1
 90
       50
176
     1
 90
       50
176
     1
 90
       50
176
     1
290
     0
176
     1
 90
       50
176
     1
 62
   256
176
     0
 40
1.0
176
     0
 90
        2
176
     1
  1
strokes_ogs.tif
176
     1
290
     0
176
     1
 40
1.0
176
     1
 40
1.0
176
     1
  0
VISUALSTYLE
  5
10FC
102
{ACAD_REACTORS
330
10F0
102
}
330
10F0
100
AcDbVisualStyle
  2
Brighten
 70
    12
177
     3
291
     1
 70
    58
 90
        2
176
     1
 90
        2
176
     1
 90
        0
176
     1
 90
        0
176
     1
 40
0.6
176
     1
 40
30.0
176
     1
 62
     7
420
 16777215
176
     1
 90
        1
176
     1
 90
        4
176
     1
 62
     7
176
     1
 62
   257
176
     1
 90
        1
176
     1
 90
        1
176
     1
 40
1.0
176
     1
 90
        8
176
     1
 62
     7
176
     1
 40
1.0
176
     1
 90
        1
176
     1
 90
        6
176
     1
 90
        2
176
     1
 62
     7
176
     1
 90
        5
176
     1
 90
        0
176
     1
 90
        0
176
     1
290
     0
176
     1
 90
        1
176
     1
 40
50.0
176
     1
 90
        0
176
     1
290
     0
176
     1
290
     1
176
     1
290
     1
176
     1
290
     0
176
     1
290
     0
176
     1
290
     0
176
     1
290
     0
176
     1
290
     0
176
     1
290
     0
176
     1
 90
       50
176
     1
 40
0.0
176
     1
 40
1.0
176
     1
 90
        0
176
     1
 62
    18
420
        0
176
     1
 90
       50
176
     1
 90
        3
176
     1
 62
     5
420
      255
176
     1
290
     0
176
     1
 90
       50
176
     1
 90
       50
176
     1
 90
       50
176
     1
290
     0
176
     1
 90
       50
176
     1
 62
   256
176
     0
 40
1.0
176
     0
 90
        2
176
     1
  1
strokes_ogs.tif
176
     1
290
     0
176
     1
 40
1.0
176
     1
 40
1.0
176
     1
  0
VISUALSTYLE
  5
1100
102
{ACAD_REACTORS
330
10F0
102
}
330
10F0
100
AcDbVisualStyle
  2
ColorChange
 70
    16
177
     3
291
     1
 70
    58
 90
        2
176
     1
 90
        2
176
     1
 90
        3
176
     1
 90
        0
176
     1
 40
0.6
176
     1
 40
30.0
176
     1
 62
     8
420
  8421504
176
     1
 90
        1
176
     1
 90
        4
176
     1
 62
     7
176
     1
 62
   257
176
     1
 90
        1
176
     1
 90
        1
176
     1
 40
1.0
176
     1
 90
        8
176
     1
 62
     8
420
  8421504
176
     1
 40
1.0
176
     1
 90
        1
176
     1
 90
        6
176
     1
 90
        2
176
     1
 62
     7
176
     1
 90
        5
176
     1
 90
        0
176
     1
 90
        0
176
     1
290
     0
176
     1
 90
        1
176
     1
 40
0.0
176
     1
 90
        0
176
     1
290
     0
176
     1
290
     1
176
     1
290
     1
176
     1
290
     0
176
     1
290
     0
176
     1
290
     0
176
     1
290
     0
176
     1
290
     0
176
     1
290
     0
176
     1
 90
       50
176
     1
 40
0.0
176
     1
 40
1.0
176
     1
 90
        0
176
     1
 62
    18
420
        0
176
     1
 90
       50
176
     1
 90
        3
176
     1
 62
     5
420
      255
176
     1
290
     0
176
     1
 90
       50
176
     1
 90
       50
176
     1
 90
       50
176
     1
290
     0
176
     1
 90
       50
176
     1
 62
   256
176
     0
 40
1.0
176
     0
 90
        2
176
     1
  1
strokes_ogs.tif
176
     1
290
     0
176
     1
 40
1.0
176
     1
 40
1.0
176
     1
  0
VISUALSTYLE
  5
10FA
102
{ACAD_REACTORS
330
10F0
102
}
330
10F0
100
AcDbVisualStyle
  2
Conceptual
 70
     9
177
     3
291
     0
 70
    58
 90
        3
176
     1
 90
        2
176
     1
 90
        0
176
     1
 90
        0
176
     1
 40
0.6
176
     1
 40
30.0
176
     1
 62
     7
420
 16777215
176
     1
 90
        2
176
     1
 90
        2
176
     1
 62
     7
176
     1
 62
   257
176
     1
 90
        1
176
     1
 90
        1
176
     1
 40
179.0
176
     1
 90
        8
176
     1
 62
     7
176
     1
 40
1.0
176
     1
 90
        1
176
     1
 90
        6
176
     1
 90
        2
176
     1
 62
     7
176
     1
 90
        3
176
     1
 90
        0
176
     1
 90
        0
176
     1
290
     0
176
     1
 90
        1
176
     1
 40
0.0
176
     1
 90
        0
176
     1
290
     0
176
     1
290
     1
176
     1
290
     1
176
     1
290
     0
176
     1
290
     0
176
     1
290
     0
176
     1
290
     0
176
     1
290
     0
176
     1
290
     0
176
     1
 90
       50
176
     1
 40
0.0
176
     1
 40
1.0
176
     1
 90
        0
176
     1
 62
    18
420
        0
176
     1
 90
       50
176
     1
 90
        3
176
     1
 62
     5
420
      255
176
     1
290
     0
176
     1
 90
       50
176
     1
 90
       50
176
     1
 90
       50
176
     1
290
     0
176
     1
 90
       50
176
     1
 62
   256
176
     0
 40
1.0
176
     0
 90
        2
176
     1
  1
strokes_ogs.tif
176
     1
290
     0
176
     1
 40
1.0
176
     1
 40
1.0
176
     1
  0
VISUALSTYLE
  5
10FB
102
{ACAD_REACTORS
330
10F0
102
}
330
10F0
100
AcDbVisualStyle
  2
Dim
 70
    11
177
     3
291
     1
 70
    58
 90
        2
176
     1
 90
        2
176
     1
 90
        0
176
     1
 90
        0
176
     1
 40
0.6
176
     1
 40
30.0
176
     1
 62
     7
420
 16777215
176
     1
 90
        1
176
     1
 90
        4
176
     1
 62
     7
176
     1
 62
   257
176
     1
 90
        1
176
     1
 90
        1
176
     1
 40
1.0
176
     1
 90
        8
176
     1
 62
     7
176
     1
 40
1.0
176
     1
 90
        1
176
     1
 90
        6
176
     1
 90
        2
176
     1
 62
     7
176
     1
 90
        5
176
     1
 90
        0
176
     1
 90
        0
176
     1
290
     0
176
     1
 90
        1
176
     1
 40
-50.0
176
     1
 90
        0
176
     1
290
     0
176
     1
290
     1
176
     1
290
     1
176
     1
290
     0
176
     1
290
     0
176
     1
290
     0
176
     1
290
     0
176
     1
290
     0
176
     1
290
     0
176
     1
 90
       50
176
     1
 40
0.0
176
     1
 40
1.0
176
     1
 90
        0
176
     1
 62
    18
420
        0
176
     1
 90
       50
176
     1
 90
        3
176
     1
 62
     5
420
      255
176
     1
290
     0
176
     1
 90
       50
176
     1
 90
       50
176
     1
 90
       50
176
     1
290
     0
176
     1
 90
       50
176
     1
 62
   256
176
     0
 40
1.0
176
     0
 90
        2
176
     1
  1
strokes_ogs.tif
176
     1
290
     0
176
     1
 40
1.0
176
     1
 40
1.0
176
     1
  0
VISUALSTYLE
  5
1103
102
{ACAD_REACTORS
330
10F0
102
}
330
10F0
100
AcDbVisualStyle
  2
EdgeColorOff
 70
    22
177
     3
291
     1
 70
    58
 90
        2
176
     0
 90
        2
176
     0
 90
        0
176
     0
 90
        0
176
     0
 40
0.6
176
     0
 40
30.0
176
     0
 62
     7
420
 16777215
176
     0
 90
        1
176
     0
 90
        4
176
     0
 62
     7
176
     0
 62
   257
176
     0
 90
        1
176
     0
 90
        1
176
     0
 40
1.0
176
     0
 90
        8
176
     2
 62
     7
176
     0
 40
1.0
176
     0
 90
        1
176
     0
 90
        6
176
     0
 90
        2
176
     0
 62
     7
176
     0
 90
        5
176
     0
 90
        0
176
     0
 90
        0
176
     0
290
     0
176
     0
 90
        1
176
     0
 40
0.0
176
     0
 90
        0
176
     0
290
     0
176
     0
290
     1
176
     0
290
     1
176
     0
290
     0
176
     0
290
     0
176
     0
290
     0
176
     0
290
     0
176
     0
290
     0
176
     0
290
     0
176
     0
 90
       50
176
     0
 40
0.0
176
     0
 40
1.0
176
     0
 90
        0
176
     0
 62
    18
420
        0
176
     0
 90
       50
176
     0
 90
        3
176
     0
 62
     5
420
      255
176
     0
290
     0
176
     0
 90
       50
176
     0
 90
       50
176
     0
 90
       50
176
     0
290
     0
176
     0
 90
       50
176
     0
 62
   256
176
     0
 40
1.0
176
     0
 90
        2
176
     0
  1
strokes_ogs.tif
176
     0
290
     0
176
     0
 40
1.0
176
     0
 40
1.0
176
     0
  0
VISUALSTYLE
  5
10FF
102
{ACAD_REACTORS
330
10F0
102
}
330
10F0
100
AcDbVisualStyle
  2
Facepattern
 70
    15
177
     3
291
     1
 70
    58
 90
        2
176
     1
 90
        2
176
     1
 90
        0
176
     1
 90
        0
176
     1
 40
0.6
176
     1
 40
30.0
176
     1
 62
     7
420
 16777215
176
     1
 90
        1
176
     1
 90
        4
176
     1
 62
     7
176
     1
 62
   257
176
     1
 90
        1
176
     1
 90
        1
176
     1
 40
1.0
176
     1
 90
        8
176
     1
 62
     7
176
     1
 40
1.0
176
     1
 90
        1
176
     1
 90
        6
176
     1
 90
        2
176
     1
 62
     7
176
     1
 90
        5
176
     1
 90
        0
176
     1
 90
        0
176
     1
290
     0
176
     1
 90
        1
176
     1
 40
0.0
176
     1
 90
        0
176
     1
290
     0
176
     1
290
     1
176
     1
290
     1
176
     1
290
     0
176
     1
290
     0
176
     1
290
     0
176
     1
290
     0
176
     1
290
     0
176
     1
290
     0
176
     1
 90
       50
176
     1
 40
0.0
176
     1
 40
1.0
176
     1
 90
        0
176
     1
 62
    18
420
        0
176
     1
 90
       50
176
     1
 90
        3
176
     1
 62
     5
420
      255
176
     1
290
     0
176
     1
 90
       50
176
     1
 90
       50
176
     1
 90
       50
176
     1
290
     0
176
     1
 90
       50
176
     1
 62
   256
176
     0
 40
1.0
176
     0
 90
        2
176
     1
  1
strokes_ogs.tif
176
     1
290
     0
176
     1
 40
1.0
176
     1
 40
1.0
176
     1
  0
VISUALSTYLE
  5
10F1
102
{ACAD_REACTORS
330
10F0
102
}
330
10F0
100
AcDbVisualStyle
  2
Flat
 70
     0
177
     3
291
     1
 70
    58
 90
        2
176
     1
 90
        1
176
     1
 90
        1
176
     1
 90
        2
176
     1
 40
0.6
176
     1
 40
30.0
176
     1
 62
     7
420
 16777215
176
     1
 90
        0
176
     1
 90
        0
176
     1
 62
     7
176
     1
 62
   257
176
     1
 90
        1
176
     1
 90
        1
176
     1
 40
1.0
176
     1
 90
        8
176
     1
 62
     7
176
     1
 40
1.0
176
     1
 90
        1
176
     1
 90
        6
176
     1
 90
        2
176
     1
 62
     7
176
     1
 90
        5
176
     1
 90
        0
176
     1
 90
        0
176
     1
290
     0
176
     1
 90
       13
176
     1
 40
0.0
176
     1
 90
        0
176
     1
290
     0
176
     1
290
     1
176
     1
290
     1
176
     1
290
     0
176
     1
290
     0
176
     1
290
     0
176
     1
290
     0
176
     1
290
     0
176
     1
290
     0
176
     1
 90
       50
176
     1
 40
0.0
176
     1
 40
1.0
176
     1
 90
        0
176
     1
 62
    18
420
        0
176
     1
 90
       50
176
     1
 90
        3
176
     1
 62
     5
420
      255
176
     1
290
     0
176
     1
 90
       50
176
     1
 90
       50
176
     1
 90
       50
176
     1
290
     0
176
     1
 90
       50
176
     1
 62
   256
176
     0
 40
1.0
176
     0
 90
        2
176
     1
  1
strokes_ogs.tif
176
     1
290
     0
176
     1
 40
1.0
176
     1
 40
1.0
176
     1
  0
VISUALSTYLE
  5
10F2
102
{ACAD_REACTORS
330
10F0
102
}
330
10F0
100
AcDbVisualStyle
  2
FlatWithEdges
 70
     1
177
     3
291
     1
 70
    58
 90
        2
176
     1
 90
        1
176
     1
 90
        1
176
     1
 90
        2
176
     1
 40
0.6
176
     1
 40
30.0
176
     1
 62
     7
420
 16777215
176
     1
 90
        1
176
     1
 90
        0
176
     1
 62
     7
176
     1
 62
   257
176
     1
 90
        1
176
     1
 90
        1
176
     1
 40
1.0
176
     1
 90
        0
176
     1
 62
   257
176
     1
 40
1.0
176
     1
 90
        1
176
     1
 90
        6
176
     1
 90
        2
176
     1
 62
     7
176
     1
 90
        5
176
     1
 90
        0
176
     1
 90
        0
176
     1
290
     0
176
     1
 90
       13
176
     1
 40
0.0
176
     1
 90
        0
176
     1
290
     0
176
     1
290
     1
176
     1
290
     1
176
     1
290
     0
176
     1
290
     0
176
     1
290
     0
176
     1
290
     0
176
     1
290
     0
176
     1
290
     0
176
     1
 90
       50
176
     1
 40
0.0
176
     1
 40
1.0
176
     1
 90
        0
176
     1
 62
    18
420
        0
176
     1
 90
       50
176
     1
 90
        3
176
     1
 62
     5
420
      255
176
     1
290
     0
176
     1
 90
       50
176
     1
 90
       50
176
     1
 90
       50
176
     1
290
     0
176
     1
 90
       50
176
     1
 62
   256
176
     0
 40
1.0
176
     0
 90
        2
176
     1
  1
strokes_ogs.tif
176
     1
290
     0
176
     1
 40
1.0
176
     1
 40
1.0
176
     1
  0
VISUALSTYLE
  5
10F3
102
{ACAD_REACTORS
330
10F0
102
}
330
10F0
100
AcDbVisualStyle
  2
Gouraud
 70
     2
177
     3
291
     1
 70
    58
 90
        2
176
     1
 90
        2
176
     1
 90
        1
176
     1
 90
        2
176
     1
 40
0.6
176
     1
 40
30.0
176
     1
 62
     7
420
 16777215
176
     1
 90
        0
176
     1
 90
        0
176
     1
 62
     7
176
     1
 62
   257
176
     1
 90
        1
176
     1
 90
        1
176
     1
 40
1.0
176
     1
 90
        0
176
     1
 62
     7
176
     1
 40
1.0
176
     1
 90
        1
176
     1
 90
        6
176
     1
 90
        2
176
     1
 62
     7
176
     1
 90
        5
176
     1
 90
        0
176
     1
 90
        0
176
     1
290
     0
176
     1
 90
       13
176
     1
 40
0.0
176
     1
 90
        0
176
     1
290
     0
176
     1
290
     1
176
     1
290
     1
176
     1
290
     0
176
     1
290
     0
176
     1
290
     0
176
     1
290
     0
176
     1
290
     0
176
     1
290
     0
176
     1
 90
       50
176
     1
 40
0.0
176
     1
 40
1.0
176
     1
 90
        0
176
     1
 62
    18
420
        0
176
     1
 90
       50
176
     1
 90
        3
176
     1
 62
     5
420
      255
176
     1
290
     0
176
     1
 90
       50
176
     1
 90
       50
176
     1
 90
       50
176
     1
290
     0
176
     1
 90
       50
176
     1
 62
   256
176
     0
 40
1.0
176
     0
 90
        2
176
     1
  1
strokes_ogs.tif
176
     1
290
     0
176
     1
 40
1.0
176
     1
 40
1.0
176
     1
  0
VISUALSTYLE
  5
10F4
102
{ACAD_REACTORS
330
10F0
102
}
330
10F0
100
AcDbVisualStyle
  2
GouraudWithEdges
 70
     3
177
     3
291
     1
 70
    58
 90
        2
176
     1
 90
        2
176
     1
 90
        1
176
     1
 90
        2
176
     1
 40
0.6
176
     1
 40
30.0
176
     1
 62
     7
420
 16777215
176
     1
 90
        1
176
     1
 90
        0
176
     1
 62
     7
176
     1
 62
   257
176
     1
 90
        1
176
     1
 90
        1
176
     1
 40
1.0
176
     1
 90
        0
176
     1
 62
   257
176
     1
 40
1.0
176
     1
 90
        1
176
     1
 90
        6
176
     1
 90
        2
176
     1
 62
     7
176
     1
 90
        5
176
     1
 90
        0
176
     1
 90
        0
176
     1
290
     0
176
     1
 90
       13
176
     1
 40
0.0
176
     1
 90
        0
176
     1
290
     0
176
     1
290
     1
176
     1
290
     1
176
     1
290
     0
176
     1
290
     0
176
     1
290
     0
176
     1
290
     0
176
     1
290
     0
176
     1
290
     0
176
     1
 90
       50
176
     1
 40
0.0
176
     1
 40
1.0
176
     1
 90
        0
176
     1
 62
    18
420
        0
176
     1
 90
       50
176
     1
 90
        3
176
     1
 62
     5
420
      255
176
     1
290
     0
176
     1
 90
       50
176
     1
 90
       50
176
     1
 90
       50
176
     1
290
     0
176
     1
 90
       50
176
     1
 62
   256
176
     0
 40
1.0
176
     0
 90
        2
176
     1
  1
strokes_ogs.tif
176
     1
290
     0
176
     1
 40
1.0
176
     1
 40
1.0
176
     1
  0
VISUALSTYLE
  5
10F7
102
{ACAD_REACTORS
330
10F0
102
}
330
10F0
100
AcDbVisualStyle
  2
Hidden
 70
     6
177
     3
291
     0
 70
    58
 90
        1
176
     1
 90
        2
176
     1
 90
        2
176
     1
 90
        0
176
     1
 40
0.6
176
     1
 40
30.0
176
     1
 62
     7
420
 16777215
176
     1
 90
        2
176
     1
 90
        2
176
     1
 62
     7
176
     1
 62
   257
176
     1
 90
        2
176
     1
 90
        1
176
     1
 40
40.0
176
     1
 90
        0
176
     1
 62
   257
176
     1
 40
1.0
176
     1
 90
        1
176
     1
 90
        6
176
     1
 90
        2
176
     1
 62
     7
176
     1
 90
        3
176
     1
 90
        0
176
     1
 90
        0
176
     1
290
     0
176
     1
 90
        1
176
     1
 40
0.0
176
     1
 90
        0
176
     1
290
     0
176
     1
290
     1
176
     1
290
     1
176
     1
290
     0
176
     1
290
     0
176
     1
290
     0
176
     1
290
     0
176
     1
290
     0
176
     1
290
     0
176
     1
 90
       50
176
     1
 40
0.0
176
     1
 40
1.0
176
     1
 90
        0
176
     1
 62
    18
420
        0
176
     1
 90
       50
176
     1
 90
        3
176
     1
 62
     5
420
      255
176
     1
290
     0
176
     1
 90
       50
176
     1
 90
       50
176
     1
 90
       50
176
     1
290
     0
176
     1
 90
       50
176
     1
 62
   256
176
     0
 40
1.0
176
     0
 90
        2
176
     1
  1
strokes_ogs.tif
176
     1
290
     0
176
     1
 40
1.0
176
     1
 40
1.0
176
     1
  0
VISUALSTYLE
  5
1101
102
{ACAD_REACTORS
330
10F0
102
}
330
10F0
100
AcDbVisualStyle
  2
JitterOff
 70
    20
177
     3
291
     1
 70
    58
 90
        2
176
     0
 90
        2
176
     0
 90
        0
176
     0
 90
        0
176
     0
 40
0.6
176
     0
 40
30.0
176
     0
 62
     7
420
 16777215
176
     0
 90
        1
176
     0
 90
        4
176
     0
 62
     7
176
     0
 62
   257
176
     0
 90
        1
176
     0
 90
        1
176
     0
 40
1.0
176
     0
 90
       10
176
     2
 62
     7
176
     0
 40
1.0
176
     0
 90
        1
176
     0
 90
        6
176
     0
 90
        2
176
     0
 62
     7
176
     0
 90
        5
176
     0
 90
        0
176
     0
 90
        0
176
     0
290
     0
176
     0
 90
        1
176
     0
 40
0.0
176
     0
 90
        0
176
     0
290
     0
176
     0
290
     1
176
     0
290
     1
176
     0
290
     0
176
     0
290
     0
176
     0
290
     0
176
     0
290
     0
176
     0
290
     0
176
     0
290
     0
176
     0
 90
       50
176
     0
 40
0.0
176
     0
 40
1.0
176
     0
 90
        0
176
     0
 62
    18
420
        0
176
     0
 90
       50
176
     0
 90
        3
176
     0
 62
     5
420
      255
176
     0
290
     0
176
     0
 90
       50
176
     0
 90
       50
176
     0
 90
       50
176
     0
290
     0
176
     0
 90
       50
176
     0
 62
   256
176
     0
 40
1.0
176
     0
 90
        2
176
     0
  1
strokes_ogs.tif
176
     0
290
     0
176
     0
 40
1.0
176
     0
 40
1.0
176
     0
  0
VISUALSTYLE
  5
10FE
102
{ACAD_REACTORS
330
10F0
102
}
330
10F0
100
AcDbVisualStyle
  2
Linepattern
 70
    14
177
     3
291
     1
 70
    58
 90
        2
176
     1
 90
        2
176
     1
 90
        0
176
     1
 90
        0
176
     1
 40
0.6
176
     1
 40
30.0
176
     1
 62
     7
420
 16777215
176
     1
 90
        1
176
     1
 90
        4
176
     1
 62
     7
176
     1
 62
   257
176
     1
 90
        7
176
     1
 90
        7
176
     1
 40
1.0
176
     1
 90
        8
176
     1
 62
     7
176
     1
 40
1.0
176
     1
 90
        1
176
     1
 90
        6
176
     1
 90
        2
176
     1
 62
     7
176
     1
 90
        5
176
     1
 90
        0
176
     1
 90
        0
176
     1
290
     0
176
     1
 90
        1
176
     1
 40
0.0
176
     1
 90
        0
176
     1
290
     0
176
     1
290
     1
176
     1
290
     1
176
     1
290
     0
176
     1
290
     0
176
     1
290
     0
176
     1
290
     0
176
     1
290
     0
176
     1
290
     0
176
     1
 90
       50
176
     1
 40
0.0
176
     1
 40
1.0
176
     1
 90
        0
176
     1
 62
    18
420
        0
176
     1
 90
       50
176
     1
 90
        3
176
     1
 62
     5
420
      255
176
     1
290
     0
176
     1
 90
       50
176
     1
 90
       50
176
     1
 90
       50
176
     1
290
     0
176
     1
 90
       50
176
     1
 62
   256
176
     0
 40
1.0
176
     0
 90
        2
176
     1
  1
strokes_ogs.tif
176
     1
290
     0
176
     1
 40
1.0
176
     1
 40
1.0
176
     1
  0
VISUALSTYLE
  5
1102
102
{ACAD_REACTORS
330
10F0
102
}
330
10F0
100
AcDbVisualStyle
  2
OverhangOff
 70
    21
177
     3
291
     1
 70
    58
 90
        2
176
     0
 90
        2
176
     0
 90
        0
176
     0
 90
        0
176
     0
 40
0.6
176
     0
 40
30.0
176
     0
 62
     7
420
 16777215
176
     0
 90
        1
176
     0
 90
        4
176
     0
 62
     7
176
     0
 62
   257
176
     0
 90
        1
176
     0
 90
        1
176
     0
 40
1.0
176
     0
 90
        9
176
     2
 62
     7
176
     0
 40
1.0
176
     0
 90
        1
176
     0
 90
        6
176
     0
 90
        2
176
     0
 62
     7
176
     0
 90
        5
176
     0
 90
        0
176
     0
 90
        0
176
     0
290
     0
176
     0
 90
        1
176
     0
 40
0.0
176
     0
 90
        0
176
     0
290
     0
176
     0
290
     1
176
     0
290
     1
176
     0
290
     0
176
     0
290
     0
176
     0
290
     0
176
     0
290
     0
176
     0
290
     0
176
     0
290
     0
176
     0
 90
       50
176
     0
 40
0.0
176
     0
 40
1.0
176
     0
 90
        0
176
     0
 62
    18
420
        0
176
     0
 90
       50
176
     0
 90
        3
176
     0
 62
     5
420
      255
176
     0
290
     0
176
     0
 90
       50
176
     0
 90
       50
176
     0
 90
       50
176
     0
290
     0
176
     0
 90
       50
176
     0
 62
   256
176
     0
 40
1.0
176
     0
 90
        2
176
     0
  1
strokes_ogs.tif
176
     0
290
     0
176
     0
 40
1.0
176
     0
 40
1.0
176
     0
  0
VISUALSTYLE
  5
10F9
102
{ACAD_REACTORS
330
10F0
102
}
330
10F0
100
AcDbVisualStyle
  2
Realistic
 70
     8
177
     3
291
     0
 70
    58
 90
        2
176
     1
 90
        3
176
     1
 90
        0
176
     1
 90
        2
176
     1
 40
0.6
176
     1
 40
30.0
176
     1
 62
     7
420
 16777215
176
     1
 90
        0
176
     1
 90
        0
176
     1
 62
     7
176
     1
 62
   257
176
     1
 90
        1
176
     1
 90
        1
176
     1
 40
1.0
176
     1
 90
        8
176
     1
 62
   257
176
     1
 40
1.0
176
     1
 90
        1
176
     1
 90
        6
176
     1
 90
        2
176
     1
 62
     7
176
     1
 90
        3
176
     1
 90
        0
176
     1
 90
        0
176
     1
290
     0
176
     1
 90
       13
176
     1
 40
0.0
176
     1
 90
        0
176
     1
290
     0
176
     1
290
     1
176
     1
290
     1
176
     1
290
     0
176
     1
290
     0
176
     1
290
     0
176
     1
290
     0
176
     1
290
     0
176
     1
290
     0
176
     1
 90
       50
176
     1
 40
0.0
176
     1
 40
1.0
176
     1
 90
        0
176
     1
 62
    18
420
        0
176
     1
 90
       50
176
     1
 90
        3
176
     1
 62
     5
420
      255
176
     1
290
     0
176
     1
 90
       50
176
     1
 90
       50
176
     1
 90
       50
176
     1
290
     0
176
     1
 90
       50
176
     1
 62
   256
176
     0
 40
1.0
176
     0
 90
        2
176
     1
  1
strokes_ogs.tif
176
     1
290
     0
176
     1
 40
1.0
176
     1
 40
1.0
176
     1
  0
VISUALSTYLE
  5
1108
102
{ACAD_REACTORS
330
10F0
102
}
330
10F0
100
AcDbVisualStyle
  2
Shaded
 70
    27
177
     3
291
     0
 70
    58
 90
        2
176
     1
 90
        2
176
     1
 90
        1
176
     1
 90
        2
176
     1
 40
0.6
176
     1
 40
30.0
176
     1
 62
     7
420
 16777215
176
     1
 90
        0
176
     1
 90
        4
176
     1
 62
     7
176
     1
 62
   257
176
     1
 90
        1
176
     1
 90
        1
176
     1
 40
1.0
176
     1
 90
        8
176
     1
 62
   257
176
     1
 40
1.0
176
     1
 90
        1
176
     1
 90
        6
176
     1
 90
        2
176
     1
 62
     8
420
  7895160
176
     1
 90
        3
176
     1
 90
        0
176
     1
 90
        0
176
     1
290
     0
176
     1
 90
        5
176
     1
 40
0.0
176
     1
 90
        0
176
     1
290
     0
176
     1
290
     1
176
     1
290
     1
176
     1
290
     0
176
     1
290
     0
176
     1
290
     0
176
     1
290
     0
176
     1
290
     0
176
     1
290
     0
176
     1
 90
       50
176
     1
 40
0.0
176
     1
 40
1.0
176
     1
 90
        0
176
     1
 62
    18
420
        0
176
     1
 90
       50
176
     1
 90
        3
176
     1
 62
     5
420
      255
176
     1
290
     0
176
     1
 90
       50
176
     1
 90
       50
176
     1
 90
       50
176
     1
290
     0
176
     1
 90
       50
176
     1
 62
   256
176
     0
 40
1.0
176
     0
 90
        2
176
     1
  1
strokes_ogs.tif
176
     1
290
     0
176
     1
 40
1.0
176
     1
 40
1.0
176
     1
  0
VISUALSTYLE
  5
1107
102
{ACAD_REACTORS
330
10F0
102
}
330
10F0
100
AcDbVisualStyle
  2
Shaded with edges
 70
    26
177
     3
291
     0
 70
    58
 90
        2
176
     1
 90
        2
176
     1
 90
        1
176
     1
 90
        2
176
     1
 40
0.6
176
     1
 40
30.0
176
     1
 62
     7
420
 16777215
176
     1
 90
        1
176
     1
 90
       10
176
     1
 62
     7
176
     1
 62
   257
176
     1
 90
        2
176
     1
 90
        1
176
     1
 40
1.0
176
     1
 90
        8
176
     1
 62
   257
176
     1
 40
1.0
176
     1
 90
        1
176
     1
 90
        6
176
     1
 90
        2
176
     1
 62
     7
176
     1
 90
        3
176
     1
 90
        0
176
     1
 90
        0
176
     1
290
     0
176
     1
 90
        5
176
     1
 40
0.0
176
     1
 90
        0
176
     1
290
     0
176
     1
290
     1
176
     1
290
     1
176
     1
290
     0
176
     1
290
     0
176
     1
290
     0
176
     1
290
     0
176
     1
290
     0
176
     1
290
     0
176
     1
 90
       50
176
     1
 40
0.0
176
     1
 40
1.0
176
     1
 90
        0
176
     1
 62
    18
420
        0
176
     1
 90
       50
176
     1
 90
        3
176
     1
 62
     5
420
      255
176
     1
290
     0
176
     1
 90
       50
176
     1
 90
       50
176
     1
 90
       50
176
     1
290
     0
176
     1
 90
       50
176
     1
 62
   256
176
     0
 40
1.0
176
     0
 90
        2
176
     1
  1
strokes_ogs.tif
176
     1
290
     0
176
     1
 40
1.0
176
     1
 40
1.0
176
     1
  0
VISUALSTYLE
  5
1104
102
{ACAD_REACTORS
330
10F0
102
}
330
10F0
100
AcDbVisualStyle
  2
Shades of Gray
 70
    23
177
     3
291
     0
 70
    58
 90
        2
176
     1
 90
        2
176
     1
 90
        3
176
     1
 90
        0
176
     1
 40
0.6
176
     1
 40
30.0
176
     1
 62
     7
420
 16777215
176
     1
 90
        2
176
     1
 90
        2
176
     1
 62
     7
176
     1
 62
     7
176
     1
 90
        1
176
     1
 90
        1
176
     1
 40
40.0
176
     1
 90
        8
176
     1
 62
     7
176
     1
 40
1.0
176
     1
 90
        1
176
     1
 90
        6
176
     1
 90
        2
176
     1
 62
     7
176
     1
 90
        3
176
     1
 90
        0
176
     1
 90
        0
176
     1
290
     0
176
     1
 90
        1
176
     1
 40
0.0
176
     1
 90
        0
176
     1
290
     0
176
     1
290
     1
176
     1
290
     1
176
     1
290
     0
176
     1
290
     0
176
     1
290
     0
176
     1
290
     0
176
     1
290
     0
176
     1
290
     0
176
     1
 90
       50
176
     1
 40
0.0
176
     1
 40
1.0
176
     1
 90
        0
176
     1
 62
    18
420
        0
176
     1
 90
       50
176
     1
 90
        3
176
     1
 62
     5
420
      255
176
     1
290
     0
176
     1
 90
       50
176
     1
 90
       50
176
     1
 90
       50
176
     1
290
     0
176
     1
 90
       50
176
     1
 62
   256
176
     0
 40
1.0
176
     0
 90
        2
176
     1
  1
strokes_ogs.tif
176
     1
290
     0
176
     1
 40
1.0
176
     1
 40
1.0
176
     1
  0
VISUALSTYLE
  5
1105
102
{ACAD_REACTORS
330
10F0
102
}
330
10F0
100
AcDbVisualStyle
  2
Sketchy
 70
    24
177
     3
291
     0
 70
    58
 90
        1
176
     1
 90
        2
176
     1
 90
        2
176
     1
 90
        0
176
     1
 40
0.6
176
     1
 40
30.0
176
     1
 62
     7
420
 16777215
176
     1
 90
        2
176
     1
 90
        2
176
     1
 62
     7
176
     1
 62
     7
176
     1
 90
        1
176
     1
 90
        1
176
     1
 40
40.0
176
     1
 90
       11
176
     1
 62
     7
176
     1
 40
1.0
176
     1
 90
        1
176
     1
 90
        6
176
     1
 90
        2
176
     1
 62
     7
176
     1
 90
        6
176
     1
 90
        0
176
     1
 90
        0
176
     1
290
     0
176
     1
 90
        1
176
     1
 40
0.0
176
     1
 90
        0
176
     1
290
     0
176
     1
290
     1
176
     1
290
     1
176
     1
290
     0
176
     1
290
     0
176
     1
290
     0
176
     1
290
     0
176
     1
290
     0
176
     1
290
     0
176
     1
 90
       50
176
     1
 40
0.0
176
     1
 40
1.0
176
     1
 90
        0
176
     1
 62
    18
420
        0
176
     1
 90
       50
176
     1
 90
        3
176
     1
 62
     5
420
      255
176
     1
290
     0
176
     1
 90
       50
176
     1
 90
       50
176
     1
 90
       50
176
     1
290
     0
176
     1
 90
       50
176
     1
 62
   256
176
     0
 40
1.0
176
     0
 90
        2
176
     1
  1
strokes_ogs.tif
176
     1
290
     0
176
     1
 40
1.0
176
     1
 40
1.0
176
     1
  0
VISUALSTYLE
  5
10FD
102
{ACAD_REACTORS
330
10F0
102
}
330
10F0
100
AcDbVisualStyle
  2
Thicken
 70
    13
177
     3
291
     1
 70
    58
 90
        2
176
     1
 90
        2
176
     1
 90
        0
176
     1
 90
        0
176
     1
 40
0.6
176
     1
 40
30.0
176
     1
 62
     7
420
 16777215
176
     1
 90
        1
176
     1
 90
        4
176
     1
 62
     7
176
     1
 62
   257
176
     1
 90
        1
176
     1
 90
        1
176
     1
 40
1.0
176
     1
 90
       12
176
     1
 62
     7
176
     1
 40
1.0
176
     1
 90
        1
176
     1
 90
        6
176
     1
 90
        2
176
     1
 62
     7
176
     1
 90
        5
176
     1
 90
        0
176
     1
 90
        0
176
     1
290
     0
176
     1
 90
        1
176
     1
 40
0.0
176
     1
 90
        0
176
     1
290
     0
176
     1
290
     1
176
     1
290
     1
176
     1
290
     0
176
     1
290
     0
176
     1
290
     0
176
     1
290
     0
176
     1
290
     0
176
     1
290
     0
176
     1
 90
       50
176
     1
 40
0.0
176
     1
 40
1.0
176
     1
 90
        0
176
     1
 62
    18
420
        0
176
     1
 90
       50
176
     1
 90
        3
176
     1
 62
     5
420
      255
176
     1
290
     0
176
     1
 90
       50
176
     1
 90
       50
176
     1
 90
       50
176
     1
290
     0
176
     1
 90
       50
176
     1
 62
   256
176
     0
 40
1.0
176
     0
 90
        2
176
     1
  1
strokes_ogs.tif
176
     1
290
     0
176
     1
 40
1.0
176
     1
 40
1.0
176
     1
  0
VISUALSTYLE
  5
10F6
102
{ACAD_REACTORS
330
10F0
102
}
330
10F0
100
AcDbVisualStyle
  2
Wireframe
 70
     5
177
     3
291
     0
 70
    58
 90
        0
176
     1
 90
        2
176
     1
 90
        0
176
     1
 90
        0
176
     1
 40
0.6
176
     1
 40
30.0
176
     1
 62
     7
420
 16777215
176
     1
 90
        1
176
     1
 90
        4
176
     1
 62
     7
176
     1
 62
   257
176
     1
 90
        1
176
     1
 90
        1
176
     1
 40
1.0
176
     1
 90
        0
176
     1
 62
   257
176
     1
 40
1.0
176
     1
 90
        1
176
     1
 90
        6
176
     1
 90
        2
176
     1
 62
     7
176
     1
 90
        3
176
     1
 90
        0
176
     1
 90
        0
176
     1
290
     0
176
     1
 90
        1
176
     1
 40
0.0
176
     1
 90
        0
176
     1
290
     0
176
     1
290
     1
176
     1
290
     1
176
     1
290
     0
176
     1
290
     0
176
     1
290
     0
176
     1
290
     0
176
     1
290
     0
176
     1
290
     0
176
     1
 90
       50
176
     1
 40
0.0
176
     1
 40
1.0
176
     1
 90
        0
176
     1
 62
    18
420
        0
176
     1
 90
       50
176
     1
 90
        3
176
     1
 62
     5
420
      255
176
     1
290
     0
176
     1
 90
       50
176
     1
 90
       50
176
     1
 90
       50
176
     1
290
     0
176
     1
 90
       50
176
     1
 62
   256
176
     0
 40
1.0
176
     0
 90
        2
176
     1
  1
strokes_ogs.tif
176
     1
290
     0
176
     1
 40
1.0
176
     1
 40
1.0
176
     1
  0
VISUALSTYLE
  5
1106
102
{ACAD_REACTORS
330
10F0
102
}
330
10F0
100
AcDbVisualStyle
  2
X-Ray
 70
    25
177
     3
291
     0
 70
    58
 90
        2
176
     1
 90
        2
176
     1
 90
        1
176
     1
 90
        1
176
     1
 40
0.5
176
     1
 40
30.0
176
     1
 62
     7
420
 16777215
176
     1
 90
        1
176
     1
 90
        0
176
     1
 62
     7
176
     1
 62
   257
176
     1
 90
        1
176
     1
 90
        1
176
     1
 40
1.0
176
     1
 90
        8
176
     1
 62
     7
176
     1
 40
1.0
176
     1
 90
        1
176
     1
 90
        6
176
     1
 90
        2
176
     1
 62
     7
176
     1
 90
        3
176
     1
 90
        0
176
     1
 90
        0
176
     1
290
     0
176
     1
 90
       13
176
     1
 40
0.0
176
     1
 90
        0
176
     1
290
     0
176
     1
290
     1
176
     1
290
     1
176
     1
290
     0
176
     1
290
     0
176
     1
290
     0
176
     1
290
     0
176
     1
290
     0
176
     1
290
     0
176
     1
 90
       50
176
     1
 40
0.0
176
     1
 40
1.0
176
     1
 90
        0
176
     1
 62
    18
420
        0
176
     1
 90
       50
176
     1
 90
        3
176
     1
 62
     5
420
      255
176
     1
290
     0
176
     1
 90
       50
176
     1
 90
       50
176
     1
 90
       50
176
     1
290
     0
176
     1
 90
       50
176
     1
 62
   256
176
     0
 40
1.0
176
     0
 90
        2
176
     1
  1
strokes_ogs.tif
176
     1
290
     0
176
     1
 40
1.0
176
     1
 40
1.0
176
     1
  0
DICTIONARYVAR
  5
1141
102
{ACAD_REACTORS
330
1140
102
}
330
1140
100
DictionaryVariables
280
     0
  1
1:1
  0
DICTIONARYVAR
  5
1145
102
{ACAD_REACTORS
330
1140
102
}
330
1140
100
DictionaryVariables
280
     0
  1
Standard
  0
DICTIONARYVAR
  5
1147
102
{ACAD_REACTORS
330
1140
102
}
330
1140
100
DictionaryVariables
280
     0
  1
0
  0
DICTIONARYVAR
  5
1148
102
{ACAD_REACTORS
330
1140
102
}
330
1140
100
DictionaryVariables
280
     0
  1
0
  0
DICTIONARY
  5
1222
330
112F
100
AcDbDictionary
280
     1
281
     1
  3
ACAD_ROUNDTRIP_2008_TABLESTYLE_CELLSTYLEMAP
360
1223
  0
CELLSTYLEMAP
  5
1223
102
{ACAD_REACTORS
330
1222
102
}
330
1222
100
AcDbCellStyleMap
 90
        3
300
CELLSTYLE
  1
TABLEFORMAT_BEGIN
 90
        5
170
     1
 91
        0
 92
        0
 62
   257
 93
        1
300
CONTENTFORMAT
  1
CONTENTFORMAT_BEGIN
 90
        0
 91
        0
 92
        4
 93
        0
300

 40
0.0
140
1.0
 94
        5
 62
     0
340
11
144
6.0
309
CONTENTFORMAT_END
171
     1
301
MARGIN
  1
CELLMARGIN_BEGIN
 40
1.5
 40
1.5
 40
1.5
 40
1.5
 40
1.5
 40
1.5
309
CELLMARGIN_END
 94
        6
 95
        1
302
GRIDFORMAT
  1
GRIDFORMAT_BEGIN
 90
        0
 91
        1
 62
     0
 92
       -2
340
14
 93
        0
 40
0.045
309
GRIDFORMAT_END
 95
        2
302
GRIDFORMAT
  1
GRIDFORMAT_BEGIN
 90
        0
 91
        1
 62
     0
 92
       -2
340
14
 93
        0
 40
0.045
309
GRIDFORMAT_END
 95
        4
302
GRIDFORMAT
  1
GRIDFORMAT_BEGIN
 90
        0
 91
        1
 62
     0
 92
       -2
340
14
 93
        0
 40
0.045
309
GRIDFORMAT_END
 95
        8
302
GRIDFORMAT
  1
GRIDFORMAT_BEGIN
 90
        0
 91
        1
 62
     0
 92
       -2
340
14
 93
        0
 40
0.045
309
GRIDFORMAT_END
 95
       16
302
GRIDFORMAT
  1
GRIDFORMAT_BEGIN
 90
        0
 91
        1
 62
     0
 92
       -2
340
14
 93
        0
 40
0.045
309
GRIDFORMAT_END
 95
       32
302
GRIDFORMAT
  1
GRIDFORMAT_BEGIN
 90
        0
 91
        1
 62
     0
 92
       -2
340
14
 93
        0
 40
0.045
309
GRIDFORMAT_END
309
TABLEFORMAT_END
  1
CELLSTYLE_BEGIN
 90
        1
 91
        1
300
_TITLE
309
CELLSTYLE_END
300
CELLSTYLE
  1
TABLEFORMAT_BEGIN
 90
        5
170
     1
 91
        0
 92
        0
 62
   257
 93
        1
300
CONTENTFORMAT
  1
CONTENTFORMAT_BEGIN
 90
        0
 91
        0
 92
        4
 93
        0
300

 40
0.0
140
1.0
 94
        5
 62
     0
340
11
144
4.5
309
CONTENTFORMAT_END
171
     1
301
MARGIN
  1
CELLMARGIN_BEGIN
 40
1.5
 40
1.5
 40
1.5
 40
1.5
 40
1.5
 40
1.5
309
CELLMARGIN_END
 94
        6
 95
        1
302
GRIDFORMAT
  1
GRIDFORMAT_BEGIN
 90
        0
 91
        1
 62
     0
 92
       -2
340
14
 93
        0
 40
0.045
309
GRIDFORMAT_END
 95
        2
302
GRIDFORMAT
  1
GRIDFORMAT_BEGIN
 90
        0
 91
        1
 62
     0
 92
       -2
340
14
 93
        0
 40
0.045
309
GRIDFORMAT_END
 95
        4
302
GRIDFORMAT
  1
GRIDFORMAT_BEGIN
 90
        0
 91
        1
 62
     0
 92
       -2
340
14
 93
        0
 40
0.045
309
GRIDFORMAT_END
 95
        8
302
GRIDFORMAT
  1
GRIDFORMAT_BEGIN
 90
        0
 91
        1
 62
     0
 92
       -2
340
14
 93
        0
 40
0.045
309
GRIDFORMAT_END
 95
       16
302
GRIDFORMAT
  1
GRIDFORMAT_BEGIN
 90
        0
 91
        1
 62
     0
 92
       -2
340
14
 93
        0
 40
0.045
309
GRIDFORMAT_END
 95
       32
302
GRIDFORMAT
  1
GRIDFORMAT_BEGIN
 90
        0
 91
        1
 62
     0
 92
       -2
340
14
 93
        0
 40
0.045
309
GRIDFORMAT_END
309
TABLEFORMAT_END
  1
CELLSTYLE_BEGIN
 90
        2
 91
        1
300
_HEADER
309
CELLSTYLE_END
300
CELLSTYLE
  1
TABLEFORMAT_BEGIN
 90
        5
170
     1
 91
        0
 92
        0
 62
   257
 93
        1
300
CONTENTFORMAT
  1
CONTENTFORMAT_BEGIN
 90
        0
 91
        0
 92
        4
 93
        0
300

 40
0.0
140
1.0
 94
        2
 62
     0
340
11
144
4.5
309
CONTENTFORMAT_END
171
     1
301
MARGIN
  1
CELLMARGIN_BEGIN
 40
1.5
 40
1.5
 40
1.5
 40
1.5
 40
1.5
 40
1.5
309
CELLMARGIN_END
 94
        6
 95
        1
302
GRIDFORMAT
  1
GRIDFORMAT_BEGIN
 90
        0
 91
        1
 62
     0
 92
       -2
340
14
 93
        0
 40
0.045
309
GRIDFORMAT_END
 95
        2
302
GRIDFORMAT
  1
GRIDFORMAT_BEGIN
 90
        0
 91
        1
 62
     0
 92
       -2
340
14
 93
        0
 40
0.045
309
GRIDFORMAT_END
 95
        4
302
GRIDFORMAT
  1
GRIDFORMAT_BEGIN
 90
        0
 91
        1
 62
     0
 92
       -2
340
14
 93
        0
 40
0.045
309
GRIDFORMAT_END
 95
        8
302
GRIDFORMAT
  1
GRIDFORMAT_BEGIN
 90
        0
 91
        1
 62
     0
 92
       -2
340
14
 93
        0
 40
0.045
309
GRIDFORMAT_END
 95
       16
302
GRIDFORMAT
  1
GRIDFORMAT_BEGIN
 90
        0
 91
        1
 62
     0
 92
       -2
340
14
 93
        0
 40
0.045
309
GRIDFORMAT_END
 95
       32
302
GRIDFORMAT
  1
GRIDFORMAT_BEGIN
 90
        0
 91
        1
 62
     0
 92
       -2
340
14
 93
        0
 40
0.045
309
GRIDFORMAT_END
309
TABLEFORMAT_END
  1
CELLSTYLE_BEGIN
 90
        3
 91
        2
300
_DATA
309
CELLSTYLE_END
  0
ENDSEC
  0
EOF
