  0
SECTION
  2
HEADER
  9
$ACADVER
  1
AC1024
  9
$ACADMAINTVER
 70
     6
  9
$DWGCODEPAGE
  3
ANSI_932
  9
$LASTSAVEDBY
  1
AKIHIROMURAKAMI
  9
$INSBASE
 10
0.0
 20
0.0
 30
0.0
  9
$EXTMIN
 10
31.10401665531798
 20
59.52096596383105
 30
0.0
  9
$EXTMAX
 10
228.0432277339854
 20
193.295154575985
 30
0.0
  9
$LIMMIN
 10
0.0
 20
0.0
  9
$LIMMAX
 10
420.0
 20
297.0
  9
$ORTHOMODE
 70
     0
  9
$REGENMODE
 70
     1
  9
$FILLMODE
 70
     1
  9
$QTEXTMODE
 70
     0
  9
$MIRRTEXT
 70
     0
  9
$LTSCALE
 40
0.2
  9
$ATTMODE
 70
     1
  9
$TEXTSIZE
 40
3.0
  9
$TRACEWID
 40
1.0
  9
$TEXTSTYLE
  7
Standard
  9
$CLAYER
  8
文字
  9
$CELTYPE
  6
ByLayer
  9
$CECOLOR
 62
   256
  9
$CELTSCALE
 40
1.0
  9
$DISPSILH
 70
     0
  9
$DIMSCALE
 40
1.0
  9
$DIMASZ
 40
2.5
  9
$DIMEXO
 40
0.625
  9
$DIMDLI
 40
3.75
  9
$DIMRND
 40
0.0
  9
$DIMDLE
 40
0.0
  9
$DIMEXE
 40
1.25
  9
$DIMTP
 40
0.0
  9
$DIMTM
 40
0.0
  9
$DIMTXT
 40
2.5
  9
$DIMCEN
 40
2.5
  9
$DIMTSZ
 40
0.0
  9
$DIMTOL
 70
     0
  9
$DIMLIM
 70
     0
  9
$DIMTIH
 70
     0
  9
$DIMTOH
 70
     0
  9
$DIMSE1
 70
     0
  9
$DIMSE2
 70
     0
  9
$DIMTAD
 70
     1
  9
$DIMZIN
 70
     8
  9
$DIMBLK
  1

  9
$DIMASO
 70
     1
  9
$DIMSHO
 70
     1
  9
$DIMPOST
  1

  9
$DIMAPOST
  1

  9
$DIMALT
 70
     0
  9
$DIMALTD
 70
     3
  9
$DIMALTF
 40
0.03937007874016
  9
$DIMLFAC
 40
1.0
  9
$DIMTOFL
 70
     1
  9
$DIMTVP
 40
0.0
  9
$DIMTIX
 70
     0
  9
$DIMSOXD
 70
     0
  9
$DIMSAH
 70
     0
  9
$DIMBLK1
  1

  9
$DIMBLK2
  1

  9
$DIMSTYLE
  2
ISO-25
  9
$DIMCLRD
 70
     0
  9
$DIMCLRE
 70
     0
  9
$DIMCLRT
 70
     0
  9
$DIMTFAC
 40
1.0
  9
$DIMGAP
 40
0.625
  9
$DIMJUST
 70
     0
  9
$DIMSD1
 70
     0
  9
$DIMSD2
 70
     0
  9
$DIMTOLJ
 70
     0
  9
$DIMTZIN
 70
     8
  9
$DIMALTZ
 70
     0
  9
$DIMALTTZ
 70
     0
  9
$DIMUPT
 70
     0
  9
$DIMDEC
 70
     2
  9
$DIMTDEC
 70
     2
  9
$DIMALTU
 70
     2
  9
$DIMALTTD
 70
     3
  9
$DIMTXSTY
  7
Standard
  9
$DIMAUNIT
 70
     0
  9
$DIMADEC
 70
     0
  9
$DIMALTRND
 40
0.0
  9
$DIMAZIN
 70
     0
  9
$DIMDSEP
 70
    46
  9
$DIMATFIT
 70
     3
  9
$DIMFRAC
 70
     0
  9
$DIMLDRBLK
  1

  9
$DIMLUNIT
 70
     2
  9
$DIMLWD
 70
    -2
  9
$DIMLWE
 70
    -2
  9
$DIMTMOVE
 70
     0
  9
$DIMFXL
 40
1.0
  9
$DIMFXLON
 70
     0
  9
$DIMJOGANG
 40
0.7853981633974483
  9
$DIMTFILL
 70
     0
  9
$DIMTFILLCLR
 70
     0
  9
$DIMARCSYM
 70
     0
  9
$DIMLTYPE
  6

  9
$DIMLTEX1
  6

  9
$DIMLTEX2
  6

  9
$DIMTXTDIRECTION
 70
     0
  9
$LUNITS
 70
     2
  9
$LUPREC
 70
     4
  9
$SKETCHINC
 40
1.0
  9
$FILLETRAD
 40
2.0
  9
$AUNITS
 70
     0
  9
$AUPREC
 70
     0
  9
$MENU
  1
.
  9
$ELEVATION
 40
0.0
  9
$PELEVATION
 40
0.0
  9
$THICKNESS
 40
0.0
  9
$LIMCHECK
 70
     0
  9
$CHAMFERA
 40
1.0
  9
$CHAMFERB
 40
1.0
  9
$CHAMFERC
 40
0.0
  9
$CHAMFERD
 40
0.0
  9
$SKPOLY
 70
     0
  9
$TDCREATE
 40
2452936.788310359
  9
$TDUCREATE
 40
2452936.413310359
  9
$TDUPDATE
 40
2458715.742779421
  9
$TDUUPDATE
 40
2458715.367779421
  9
$TDINDWG
 40
0.6263845949
  9
$TDUSRTIMER
 40
0.0024377778
  9
$USRTIMER
 70
     1
  9
$ANGBASE
 50
0.0
  9
$ANGDIR
 70
     0
  9
$PDMODE
 70
     0
  9
$PDSIZE
 40
0.0
  9
$PLINEWID
 40
0.0
  9
$SPLFRAME
 70
     0
  9
$SPLINETYPE
 70
     6
  9
$SPLINESEGS
 70
     8
  9
$HANDSEED
  5
1335
  9
$SURFTAB1
 70
     6
  9
$SURFTAB2
 70
     6
  9
$SURFTYPE
 70
     6
  9
$SURFU
 70
     6
  9
$SURFV
 70
     6
  9
$UCSBASE
  2

  9
$UCSNAME
  2

  9
$UCSORG
 10
0.0
 20
0.0
 30
0.0
  9
$UCSXDIR
 10
1.0
 20
0.0
 30
0.0
  9
$UCSYDIR
 10
0.0
 20
1.0
 30
0.0
  9
$UCSORTHOREF
  2

  9
$UCSORTHOVIEW
 70
     0
  9
$UCSORGTOP
 10
0.0
 20
0.0
 30
0.0
  9
$UCSORGBOTTOM
 10
0.0
 20
0.0
 30
0.0
  9
$UCSORGLEFT
 10
0.0
 20
0.0
 30
0.0
  9
$UCSORGRIGHT
 10
0.0
 20
0.0
 30
0.0
  9
$UCSORGFRONT
 10
0.0
 20
0.0
 30
0.0
  9
$UCSORGBACK
 10
0.0
 20
0.0
 30
0.0
  9
$PUCSBASE
  2

  9
$PUCSNAME
  2

  9
$PUCSORG
 10
0.0
 20
0.0
 30
0.0
  9
$PUCSXDIR
 10
1.0
 20
0.0
 30
0.0
  9
$PUCSYDIR
 10
0.0
 20
1.0
 30
0.0
  9
$PUCSORTHOREF
  2

  9
$PUCSORTHOVIEW
 70
     0
  9
$PUCSORGTOP
 10
0.0
 20
0.0
 30
0.0
  9
$PUCSORGBOTTOM
 10
0.0
 20
0.0
 30
0.0
  9
$PUCSORGLEFT
 10
0.0
 20
0.0
 30
0.0
  9
$PUCSORGRIGHT
 10
0.0
 20
0.0
 30
0.0
  9
$PUCSORGFRONT
 10
0.0
 20
0.0
 30
0.0
  9
$PUCSORGBACK
 10
0.0
 20
0.0
 30
0.0
  9
$USERI1
 70
     0
  9
$USERI2
 70
     0
  9
$USERI3
 70
     0
  9
$USERI4
 70
     0
  9
$USERI5
 70
     0
  9
$USERR1
 40
0.0
  9
$USERR2
 40
0.0
  9
$USERR3
 40
0.0
  9
$USERR4
 40
0.0
  9
$USERR5
 40
0.0
  9
$WORLDVIEW
 70
     1
  9
$SHADEDGE
 70
     3
  9
$SHADEDIF
 70
    70
  9
$TILEMODE
 70
     1
  9
$MAXACTVP
 70
    64
  9
$PINSBASE
 10
0.0
 20
0.0
 30
0.0
  9
$PLIMCHECK
 70
     0
  9
$PEXTMIN
 10
0.0
 20
0.0
 30
0.0
  9
$PEXTMAX
 10
0.0
 20
0.0
 30
0.0
  9
$PLIMMIN
 10
-6.35
 20
-6.35
  9
$PLIMMAX
 10
413.8083333333333
 20
290.6888888888888
  9
$UNITMODE
 70
     0
  9
$VISRETAIN
 70
     1
  9
$PLINEGEN
 70
     0
  9
$PSLTSCALE
 70
     1
  9
$TREEDEPTH
 70
  3020
  9
$CMLSTYLE
  2
Standard
  9
$CMLJUST
 70
     0
  9
$CMLSCALE
 40
20.0
  9
$PROXYGRAPHICS
 70
     1
  9
$MEASUREMENT
 70
     1
  9
$CELWEIGHT
370
    -1
  9
$ENDCAPS
280
     0
  9
$JOINSTYLE
280
     0
  9
$LWDISPLAY
290
     0
  9
$INSUNITS
 70
     4
  9
$HYPERLINKBASE
  1

  9
$STYLESHEET
  1

  9
$XEDIT
290
     1
  9
$CEPSNTYPE
380
     0
  9
$PSTYLEMODE
290
     1
  9
$FINGERPRINTGUID
  2
{86E58535-AB5B-4AFE-AB1B-6758AAB7EA7D}
  9
$VERSIONGUID
  2
{30C5A045-9EB7-4E80-9C65-5A24DA1C3356}
  9
$EXTNAMES
290
     1
  9
$PSVPSCALE
 40
0.0
  9
$OLESTARTUP
290
     0
  9
$SORTENTS
280
   127
  9
$INDEXCTL
280
     0
  9
$HIDETEXT
280
     1
  9
$XCLIPFRAME
280
     0
  9
$HALOGAP
280
     0
  9
$OBSCOLOR
 70
   257
  9
$OBSLTYPE
280
     0
  9
$INTERSECTIONDISPLAY
280
     0
  9
$INTERSECTIONCOLOR
 70
   257
  9
$DIMASSOC
280
     2
  9
$PROJECTNAME
  1

  9
$CAMERADISPLAY
290
     0
  9
$LENSLENGTH
 40
50.0
  9
$CAMERAHEIGHT
 40
0.0
  9
$STEPSPERSEC
 40
2.0
  9
$STEPSIZE
 40
6.0
  9
$3DDWFPREC
 40
2.0
  9
$PSOLWIDTH
 40
0.25
  9
$PSOLHEIGHT
 40
4.0
  9
$LOFTANG1
 40
1.570796326794897
  9
$LOFTANG2
 40
1.570796326794897
  9
$LOFTMAG1
 40
0.0
  9
$LOFTMAG2
 40
0.0
  9
$LOFTPARAM
 70
     7
  9
$LOFTNORMALS
280
     1
  9
$LATITUDE
 40
37.795
  9
$LONGITUDE
 40
-122.394
  9
$NORTHDIRECTION
 40
0.0
  9
$TIMEZONE
 70
 -8000
  9
$LIGHTGLYPHDISPLAY
280
     1
  9
$TILEMODELIGHTSYNCH
280
     1
  9
$SOLIDHIST
280
     1
  9
$SHOWHIST
280
     1
  9
$DWFFRAME
280
     2
  9
$DGNFRAME
280
     2
  9
$REALWORLDSCALE
290
     1
  9
$INTERFERECOLOR
 62
   256
  9
$CSHADOW
280
     0
  9
$SHADOWPLANELOCATION
 40
0.0
  0
ENDSEC
  0
SECTION
  2
CLASSES
  0
CLASS
  1
ACDBDICTIONARYWDFLT
  2
AcDbDictionaryWithDefault
  3
ObjectDBX Classes
 90
        0
 91
        3
280
     0
281
     0
  0
CLASS
  1
DIMASSOC
  2
AcDbDimAssoc
  3
"AcDbDimAssoc|Product Desc:     AcDim ARX App For Dimension|Company:          Autodesk, Inc.|WEB Address:      www.autodesk.com"
 90
        0
 91
        3
280
     0
281
     0
  0
CLASS
  1
VISUALSTYLE
  2
AcDbVisualStyle
  3
ObjectDBX Classes
 90
     4095
 91
        3
280
     0
281
     0
  0
CLASS
  1
SCALE
  2
AcDbScale
  3
ObjectDBX Classes
 90
     1153
 91
        3
280
     0
281
     0
  0
CLASS
  1
MATERIAL
  2
AcDbMaterial
  3
ObjectDBX Classes
 90
     1153
 91
        3
280
     0
281
     0
  0
CLASS
  1
TABLESTYLE
  2
AcDbTableStyle
  3
ObjectDBX Classes
 90
     4095
 91
        3
280
     0
281
     0
  0
CLASS
  1
SUN
  2
AcDbSun
  3
SCENEOE
 90
     1153
 91
        3
280
     0
281
     0
  0
CLASS
  1
RASTERVARIABLES
  2
AcDbRasterVariables
  3
ISM
 90
        0
 91
        3
280
     0
281
     0
  0
CLASS
  1
DICTIONARYVAR
  2
AcDbDictionaryVar
  3
ObjectDBX Classes
 90
        0
 91
        3
280
     0
281
     0
  0
CLASS
  1
CELLSTYLEMAP
  2
AcDbCellStyleMap
  3
ObjectDBX Classes
 90
     1152
 91
        3
280
     0
281
     0
  0
CLASS
  1
MLEADERSTYLE
  2
AcDbMLeaderStyle
  3
ACDB_MLEADERSTYLE_CLASS
 90
     4095
 91
        3
280
     0
281
     0
  0
ENDSEC
  0
SECTION
  2
TABLES
  0
TABLE
  2
VPORT
  5
8
330
0
100
AcDbSymbolTable
 70
     1
  0
VPORT
  5
128C
330
8
100
AcDbSymbolTableRecord
100
AcDbViewportTableRecord
  2
*Active
 70
     0
 10
0.0
 20
0.0
 11
1.0
 21
1.0
 12
142.1531556526765
 22
101.3553311392281
 13
0.0
 23
0.0
 14
10.0
 24
10.0
 15
10.0
 25
10.0
 16
0.0
 26
0.0
 36
1.0
 17
0.0
 27
0.0
 37
0.0
 40
216.2602047240113
 41
1.102362204724409
 42
50.0
 43
0.0
 44
0.0
 50
0.0
 51
0.0
 71
    16
 72
  1000
 73
     1
 74
     3
 75
     0
 76
     0
 77
     0
 78
     0
281
     0
 65
     1
110
0.0
120
0.0
130
0.0
111
1.0
121
0.0
131
0.0
112
0.0
122
1.0
132
0.0
 79
     0
146
0.0
348
1292
 60
     3
 61
     5
292
     1
282
     1
141
0.0
142
0.0
 63
   256
361
12CE
  0
ENDTAB
  0
TABLE
  2
LTYPE
  5
5
330
0
100
AcDbSymbolTable
 70
     6
  0
LTYPE
  5
14
330
5
100
AcDbSymbolTableRecord
100
AcDbLinetypeTableRecord
  2
ByBlock
 70
     0
  3

 72
    65
 73
     0
 40
0.0
  0
LTYPE
  5
15
330
5
100
AcDbSymbolTableRecord
100
AcDbLinetypeTableRecord
  2
ByLayer
 70
     0
  3

 72
    65
 73
     0
 40
0.0
  0
LTYPE
  5
16
330
5
100
AcDbSymbolTableRecord
100
AcDbLinetypeTableRecord
  2
Continuous
 70
     0
  3
Solid line
 72
    65
 73
     0
 40
0.0
  0
LTYPE
  5
35
330
5
100
AcDbSymbolTableRecord
100
AcDbLinetypeTableRecord
  2
ACAD_ISO08W100
 70
     0
  3
ISO long-dash short-dash ____ __ ____ __ ____ _
 72
    65
 73
     4
 40
36.0
 49
24.0
 74
     0
 49
-3.0
 74
     0
 49
6.0
 74
     0
 49
-3.0
 74
     0
  0
LTYPE
  5
127
330
5
100
AcDbSymbolTableRecord
100
AcDbLinetypeTableRecord
  2
HIDDENX2
 70
     0
  3
Hidden (2x) ____ ____ ____ ____ ____ ____ ____
 72
    65
 73
     2
 40
19.05
 49
12.7
 74
     0
 49
-6.35
 74
     0
  0
LTYPE
  5
5EC
330
5
100
AcDbSymbolTableRecord
100
AcDbLinetypeTableRecord
  2
CENTER
 70
     0
  3
Center ____ _ ____ _ ____ _ ____ _ ____ _ ____
 72
    65
 73
     4
 40
50.8
 49
31.75
 74
     0
 49
-6.35
 74
     0
 49
6.35
 74
     0
 49
-6.35
 74
     0
  0
LTYPE
  5
5ED
330
5
100
AcDbSymbolTableRecord
100
AcDbLinetypeTableRecord
  2
ACAD_ISO02W100
 70
     0
  3
ISO dash __ __ __ __ __ __ __ __ __ __ __ __ __
 72
    65
 73
     2
 40
15.0
 49
12.0
 74
     0
 49
-3.0
 74
     0
  0
LTYPE
  5
605
330
5
100
AcDbSymbolTableRecord
100
AcDbLinetypeTableRecord
  2
DASHED
 70
     0
  3
Dashed __ __ __ __ __ __ __ __ __ __ __ __ __ _
 72
    65
 73
     2
 40
19.05
 49
12.7
 74
     0
 49
-6.35
 74
     0
  0
ENDTAB
  0
TABLE
  2
LAYER
  5
2
330
0
100
AcDbSymbolTable
 70
     9
  0
LAYER
  5
10
330
2
100
AcDbSymbolTableRecord
100
AcDbLayerTableRecord
  2
0
 70
     0
 62
     7
  6
Continuous
370
    -3
390
F
347
12CA
  0
LAYER
  5
2E
330
2
100
AcDbSymbolTableRecord
100
AcDbLayerTableRecord
  2
枠
 70
     0
 62
     1
  6
Continuous
370
    30
390
F
347
12CA
  0
LAYER
  5
2F
330
2
100
AcDbSymbolTableRecord
100
AcDbLayerTableRecord
  2
文字
 70
     0
 62
     7
  6
Continuous
370
    25
390
F
347
12CA
  0
LAYER
  5
36
330
2
100
AcDbSymbolTableRecord
100
AcDbLayerTableRecord
  2
中心線
 70
     0
 62
     7
  6
CENTER
370
    30
390
F
347
12CA
  0
LAYER
  5
52
330
2
100
AcDbSymbolTableRecord
100
AcDbLayerTableRecord
  2
隠れ線
 70
     0
 62
     2
  6
Continuous
290
     0
370
    -3
390
F
347
12CA
  0
LAYER
  5
128
330
2
100
AcDbSymbolTableRecord
100
AcDbLayerTableRecord
  2
実線
 70
     0
 62
     7
  6
Continuous
370
    50
390
F
347
12CA
  0
LAYER
  5
129
330
2
100
AcDbSymbolTableRecord
100
AcDbLayerTableRecord
  2
破線
 70
     0
 62
     7
  6
DASHED
370
    20
390
F
347
12CA
  0
LAYER
  5
69A
330
2
100
AcDbSymbolTableRecord
100
AcDbLayerTableRecord
  2
Defpoints
 70
     0
 62
     7
  6
Continuous
290
     0
370
    -3
390
F
347
12CA
  0
LAYER
  5
12E9
330
2
100
AcDbSymbolTableRecord
100
AcDbLayerTableRecord
  2
文字・寸法線
 70
     0
 62
     7
  6
Continuous
370
    -3
390
F
347
12CA
  0
ENDTAB
  0
TABLE
  2
STYLE
  5
3
330
0
100
AcDbSymbolTable
 70
     2
  0
STYLE
  5
11
330
3
100
AcDbSymbolTableRecord
100
AcDbTextStyleTableRecord
  2
Standard
 70
     0
 40
0.0
 41
1.0
 50
0.0
 71
     0
 42
3.0
  3
txt.shx
  4
bigfont.shx
  0
STYLE
  5
34
330
3
100
AcDbSymbolTableRecord
100
AcDbTextStyleTableRecord
  2

 70
     1
 40
0.0
 41
1.0
 50
0.0
 71
     0
 42
2.5
  3
ltypeshp.shx
  4

  0
ENDTAB
  0
TABLE
  2
VIEW
  5
6
330
0
100
AcDbSymbolTable
 70
     0
  0
ENDTAB
  0
TABLE
  2
UCS
  5
7
330
0
100
AcDbSymbolTable
 70
     0
  0
ENDTAB
  0
TABLE
  2
APPID
  5
9
330
0
100
AcDbSymbolTable
 70
     1
  0
APPID
  5
12
330
9
100
AcDbSymbolTableRecord
100
AcDbRegAppTableRecord
  2
ACAD
 70
     0
  0
ENDTAB
  0
TABLE
  2
DIMSTYLE
  5
A
330
0
100
AcDbSymbolTable
 70
     2
100
AcDbDimStyleTable
  0
DIMSTYLE
105
29
102
{ACAD_REACTORS
330
1182
330
118B
330
118D
330
1190
330
1225
330
123D
330
1259
330
131E
102
}
330
A
100
AcDbSymbolTableRecord
100
AcDbDimStyleTableRecord
  2
ISO-25
 70
     0
 41
2.5
 42
0.625
 43
3.75
 44
1.25
 73
     0
 74
     0
 77
     1
 78
     8
140
2.5
141
2.5
143
0.03937007874016
147
0.625
171
     3
172
     1
178
     0
271
     2
272
     2
274
     3
283
     0
284
     8
340
11
  0
DIMSTYLE
105
12EC
330
A
100
AcDbSymbolTableRecord
100
AcDbDimStyleTableRecord
  2
Standard
 70
     0
178
     0
340
11
  0
ENDTAB
  0
TABLE
  2
BLOCK_RECORD
  5
1
330
0
100
AcDbSymbolTable
 70
     9
  0
BLOCK_RECORD
  5
21
330
1
100
AcDbSymbolTableRecord
100
AcDbBlockTableRecord
  2
*Model_Space
340
24
 70
     0
280
     1
281
     0
  0
BLOCK_RECORD
  5
12D6
330
1
100
AcDbSymbolTableRecord
100
AcDbBlockTableRecord
  2
*Paper_Space
340
12D7
 70
     0
280
     1
281
     0
  0
BLOCK_RECORD
  5
11B8
330
1
100
AcDbSymbolTableRecord
100
AcDbBlockTableRecord
  2
*D0
340
0
 70
     0
280
     1
281
     0
  0
BLOCK_RECORD
  5
11C4
330
1
100
AcDbSymbolTableRecord
100
AcDbBlockTableRecord
  2
*D1
340
0
 70
     0
280
     1
281
     0
  0
BLOCK_RECORD
  5
11D9
330
1
100
AcDbSymbolTableRecord
100
AcDbBlockTableRecord
  2
*D2
340
0
 70
     0
280
     1
281
     0
  0
BLOCK_RECORD
  5
11E5
330
1
100
AcDbSymbolTableRecord
100
AcDbBlockTableRecord
  2
*D3
340
0
 70
     0
280
     1
281
     0
  0
BLOCK_RECORD
  5
1226
330
1
100
AcDbSymbolTableRecord
100
AcDbBlockTableRecord
  2
*D4
340
0
 70
     0
280
     1
281
     0
  0
BLOCK_RECORD
  5
123E
330
1
100
AcDbSymbolTableRecord
100
AcDbBlockTableRecord
  2
*D5
340
0
 70
     0
280
     1
281
     0
  0
BLOCK_RECORD
  5
125A
330
1
100
AcDbSymbolTableRecord
100
AcDbBlockTableRecord
  2
*D6
340
0
 70
     0
280
     1
281
     0
  0
BLOCK_RECORD
  5
130E
330
1
100
AcDbSymbolTableRecord
100
AcDbBlockTableRecord
  2
*D7
340
0
 70
     0
280
     1
281
     0
  0
BLOCK_RECORD
  5
1321
330
1
100
AcDbSymbolTableRecord
100
AcDbBlockTableRecord
  2
*D8
340
0
 70
     0
280
     1
281
     0
  0
ENDTAB
  0
ENDSEC
  0
SECTION
  2
BLOCKS
  0
BLOCK
  5
22
330
21
100
AcDbEntity
  8
0
100
AcDbBlockBegin
  2
*Model_Space
 70
     0
 10
0.0
 20
0.0
 30
0.0
  3
*Model_Space
  1
*Model_Space
  0
ENDBLK
  5
23
330
21
100
AcDbEntity
  8
0
100
AcDbBlockEnd
  0
BLOCK
  5
12D8
330
12D6
100
AcDbEntity
 67
     1
  8
0
100
AcDbBlockBegin
  2
*Paper_Space
 70
     0
 10
0.0
 20
0.0
 30
0.0
  3
*Paper_Space
  1
*Paper_Space
  0
ENDBLK
  5
12D9
330
12D6
100
AcDbEntity
 67
     1
  8
0
100
AcDbBlockEnd
  0
BLOCK
  5
11C2
330
11B8
100
AcDbEntity
  8
0
100
AcDbBlockBegin
  2
*D0
 70
     1
 10
0.0
 20
0.0
 30
0.0
  3
*D0
  1
*D16
  0
LINE
  5
11D0
330
11B8
100
AcDbEntity
  8
文字
 62
     0
370
    -2
100
AcDbLine
 10
77.78760286997115
 20
132.1649218633972
 30
0.0
 11
77.78760286997115
 21
148.4636460798203
 31
0.0
  0
LINE
  5
11D1
330
11B8
100
AcDbEntity
  8
文字
 62
     0
370
    -2
100
AcDbLine
 10
87.78760286997115
 20
132.1649218633973
 30
0.0
 11
87.78760286997115
 21
148.4636460798203
 31
0.0
  0
LINE
  5
11D2
330
11B8
100
AcDbEntity
  8
文字
 62
     0
370
    -2
100
AcDbLine
 10
80.28760286997115
 20
147.2136460798203
 30
0.0
 11
85.28760286997115
 21
147.2136460798203
 31
0.0
  0
SOLID
  5
11D3
330
11B8
100
AcDbEntity
  8
文字
 62
     0
100
AcDbTrace
 10
80.28760286997115
 20
147.6303127464869
 30
0.0
 11
80.28760286997115
 21
146.7969794131536
 31
0.0
 12
77.78760286997115
 22
147.2136460798203
 32
0.0
 13
77.78760286997115
 23
147.2136460798203
 33
0.0
  0
SOLID
  5
11D4
330
11B8
100
AcDbEntity
  8
文字
 62
     0
100
AcDbTrace
 10
85.28760286997115
 20
146.7969794131536
 30
0.0
 11
85.28760286997115
 21
147.6303127464869
 31
0.0
 12
87.78760286997115
 22
147.2136460798203
 32
0.0
 13
87.78760286997115
 23
147.2136460798203
 33
0.0
  0
MTEXT
  5
11D5
330
11B8
100
AcDbEntity
  8
文字
 62
     0
100
AcDbMText
 10
82.78760286997115
 20
149.1150785491245
 30
0.0
 40
2.5
 41
0.0
 46
0.0
 71
     5
 72
     1
  1
{\fArial|b0|i0|c0|p32;M10}
 73
     1
 44
1.0
  0
POINT
  5
11D6
330
11B8
100
AcDbEntity
  8
Defpoints
 62
     0
100
AcDbPoint
 10
77.78760286997115
 20
131.5399218633972
 30
0.0
  0
POINT
  5
11D7
330
11B8
100
AcDbEntity
  8
Defpoints
 62
     0
100
AcDbPoint
 10
87.78760286997115
 20
131.5399218633973
 30
0.0
  0
POINT
  5
11D8
330
11B8
100
AcDbEntity
  8
Defpoints
 62
     0
100
AcDbPoint
 10
87.78760286997115
 20
147.2136460798203
 30
0.0
  0
ENDBLK
  5
11C3
330
11B8
100
AcDbEntity
  8
0
100
AcDbBlockEnd
  0
BLOCK
  5
11CE
330
11C4
100
AcDbEntity
  8
0
100
AcDbBlockBegin
  2
*D1
 70
     1
 10
0.0
 20
0.0
 30
0.0
  3
*D1
  1
*D17
  0
LINE
  5
11C5
330
11C4
100
AcDbEntity
  8
文字
 62
     0
370
    -2
100
AcDbLine
 10
93.86308475389136
 20
102.2311387125524
 30
0.0
 11
129.4026251496997
 21
102.2311387125524
 31
0.0
  0
LINE
  5
11C6
330
11C4
100
AcDbEntity
  8
文字
 62
     0
370
    -2
100
AcDbLine
 10
86.43808475389136
 20
137.2311387125524
 30
0.0
 11
129.4026251496997
 21
137.2311387125524
 31
0.0
  0
LINE
  5
11C7
330
11C4
100
AcDbEntity
  8
文字
 62
     0
370
    -2
100
AcDbLine
 10
128.1526251496997
 20
104.7311387125524
 30
0.0
 11
128.1526251496997
 21
134.7311387125524
 31
0.0
  0
SOLID
  5
11C8
330
11C4
100
AcDbEntity
  8
文字
 62
     0
100
AcDbTrace
 10
127.735958483033
 20
104.7311387125524
 30
0.0
 11
128.5692918163664
 21
104.7311387125524
 31
0.0
 12
128.1526251496997
 22
102.2311387125524
 32
0.0
 13
128.1526251496997
 23
102.2311387125524
 33
0.0
  0
SOLID
  5
11C9
330
11C4
100
AcDbEntity
  8
文字
 62
     0
100
AcDbTrace
 10
128.5692918163664
 20
134.7311387125524
 30
0.0
 11
127.735958483033
 21
134.7311387125524
 31
0.0
 12
128.1526251496997
 22
137.2311387125524
 32
0.0
 13
128.1526251496997
 23
137.2311387125524
 33
0.0
  0
MTEXT
  5
11CA
330
11C4
100
AcDbEntity
  8
文字
 62
     0
100
AcDbMText
 10
126.2776251496997
 20
119.7311387125524
 30
0.0
 40
2.5
 41
0.0
 46
0.0
 71
     5
 72
     1
  1
35
 11
0.0
 21
1.0
 31
0.0
 73
     1
 44
1.0
  0
POINT
  5
11CB
330
11C4
100
AcDbEntity
  8
Defpoints
 62
     0
100
AcDbPoint
 10
93.23808475389136
 20
102.2311387125524
 30
0.0
  0
POINT
  5
11CC
330
11C4
100
AcDbEntity
  8
Defpoints
 62
     0
100
AcDbPoint
 10
85.81308475389136
 20
137.2311387125524
 30
0.0
  0
POINT
  5
11CD
330
11C4
100
AcDbEntity
  8
Defpoints
 62
     0
100
AcDbPoint
 10
128.1526251496997
 20
137.2311387125524
 30
0.0
  0
ENDBLK
  5
11CF
330
11C4
100
AcDbEntity
  8
0
100
AcDbBlockEnd
  0
BLOCK
  5
11E3
330
11D9
100
AcDbEntity
  8
0
100
AcDbBlockBegin
  2
*D2
 70
     1
 10
0.0
 20
0.0
 30
0.0
  3
*D2
  1
*D18
  0
LINE
  5
11DA
330
11D9
100
AcDbEntity
  8
文字
 62
     0
370
    -2
100
AcDbLine
 10
93.23808475389136
 20
95.23113871255242
 30
0.0
 11
129.4026251496997
 21
95.23113871255241
 31
0.0
  0
LINE
  5
11DB
330
11D9
100
AcDbEntity
  8
文字
 62
     0
370
    -2
100
AcDbLine
 10
93.23808475389136
 20
102.2311387125524
 30
0.0
 11
129.4026251496997
 21
102.2311387125524
 31
0.0
  0
LINE
  5
11DC
330
11D9
100
AcDbEntity
  8
文字
 62
     0
370
    -2
100
AcDbLine
 10
128.1526251496997
 20
97.73113871255241
 30
0.0
 11
128.1526251496997
 21
99.73113871255241
 31
0.0
  0
SOLID
  5
11DD
330
11D9
100
AcDbEntity
  8
文字
 62
     0
100
AcDbTrace
 10
127.735958483033
 20
97.73113871255241
 30
0.0
 11
128.5692918163664
 21
97.73113871255241
 31
0.0
 12
128.1526251496997
 22
95.23113871255241
 32
0.0
 13
128.1526251496997
 23
95.23113871255241
 33
0.0
  0
SOLID
  5
11DE
330
11D9
100
AcDbEntity
  8
文字
 62
     0
100
AcDbTrace
 10
127.735958483033
 20
99.73113871255241
 30
0.0
 11
128.5692918163664
 21
99.73113871255241
 31
0.0
 12
128.1526251496997
 22
102.2311387125524
 32
0.0
 13
128.1526251496997
 23
102.2311387125524
 33
0.0
  0
MTEXT
  5
11DF
330
11D9
100
AcDbEntity
  8
文字
 62
     0
100
AcDbMText
 10
126.2776251496997
 20
98.73113871255242
 30
0.0
 40
2.5
 41
0.0
 46
0.0
 71
     5
 72
     1
  1
7
 11
6.123031769111886E-17
 21
1.0
 31
0.0
 73
     1
 44
1.0
  0
POINT
  5
11E0
330
11D9
100
AcDbEntity
  8
Defpoints
 62
     0
100
AcDbPoint
 10
92.61308475389136
 20
95.23113871255242
 30
0.0
  0
POINT
  5
11E1
330
11D9
100
AcDbEntity
  8
Defpoints
 62
     0
100
AcDbPoint
 10
92.61308475389136
 20
102.2311387125524
 30
0.0
  0
POINT
  5
11E2
330
11D9
100
AcDbEntity
  8
Defpoints
 62
     0
100
AcDbPoint
 10
128.1526251496997
 20
102.2311387125524
 30
0.0
  0
ENDBLK
  5
11E4
330
11D9
100
AcDbEntity
  8
0
100
AcDbBlockEnd
  0
BLOCK
  5
11EF
330
11E5
100
AcDbEntity
  8
0
100
AcDbBlockBegin
  2
*D3
 70
     1
 10
0.0
 20
0.0
 30
0.0
  3
*D3
  1
*D19
  0
LINE
  5
11E6
330
11E5
100
AcDbEntity
  8
文字
 62
     0
370
    -2
100
AcDbLine
 10
189.3262100132461
 20
118.9299814199556
 30
0.0
 11
189.3262100132461
 21
85.26458381963147
 31
0.0
  0
LINE
  5
11E7
330
11E5
100
AcDbEntity
  8
文字
 62
     0
370
    -2
100
AcDbLine
 10
206.300307927421
 20
118.9299814199556
 30
0.0
 11
206.300307927421
 21
85.26458381963147
 31
0.0
  0
LINE
  5
11E8
330
11E5
100
AcDbEntity
  8
文字
 62
     0
370
    -2
100
AcDbLine
 10
191.8262100132461
 20
86.51458381963147
 30
0.0
 11
203.800307927421
 21
86.51458381963147
 31
0.0
  0
SOLID
  5
11E9
330
11E5
100
AcDbEntity
  8
文字
 62
     0
100
AcDbTrace
 10
191.8262100132461
 20
86.93125048629814
 30
0.0
 11
191.8262100132461
 21
86.0979171529648
 31
0.0
 12
189.3262100132461
 22
86.51458381963147
 32
0.0
 13
189.3262100132461
 23
86.51458381963147
 33
0.0
  0
SOLID
  5
11EA
330
11E5
100
AcDbEntity
  8
文字
 62
     0
100
AcDbTrace
 10
203.800307927421
 20
86.93125048629814
 30
0.0
 11
203.800307927421
 21
86.0979171529648
 31
0.0
 12
206.300307927421
 22
86.51458381963147
 32
0.0
 13
206.300307927421
 23
86.51458381963147
 33
0.0
  0
MTEXT
  5
11EB
330
11E5
100
AcDbEntity
  8
文字
 62
     0
100
AcDbMText
 10
197.8132589703335
 20
88.38958381963147
 30
0.0
 40
2.5
 41
0.0
 46
0.0
 71
     5
 72
     1
  1
17
 73
     1
 44
1.0
  0
POINT
  5
11EC
330
11E5
100
AcDbEntity
  8
Defpoints
 62
     0
100
AcDbPoint
 10
189.3262100132461
 20
119.5549814199556
 30
0.0
  0
POINT
  5
11ED
330
11E5
100
AcDbEntity
  8
Defpoints
 62
     0
100
AcDbPoint
 10
206.300307927421
 20
119.5549814199556
 30
0.0
  0
POINT
  5
11EE
330
11E5
100
AcDbEntity
  8
Defpoints
 62
     0
100
AcDbPoint
 10
206.300307927421
 20
86.51458381963147
 30
0.0
  0
ENDBLK
  5
11F0
330
11E5
100
AcDbEntity
  8
0
100
AcDbBlockEnd
  0
BLOCK
  5
1230
330
1226
100
AcDbEntity
  8
0
100
AcDbBlockBegin
  2
*D4
 70
     1
 10
0.0
 20
0.0
 30
0.0
  3
*D4
  1
*D24
  0
LINE
  5
1271
330
1226
100
AcDbEntity
  8
文字
 62
     0
370
    -2
100
AcDbLine
 10
93.86308475389136
 20
95.23113871255242
 30
0.0
 11
129.4026251496997
 21
95.23113871255242
 31
0.0
  0
LINE
  5
1272
330
1226
100
AcDbEntity
  8
文字
 62
     0
370
    -2
100
AcDbLine
 10
106.0326339229714
 20
79.22761679224152
 30
0.0
 11
129.4026251496997
 21
79.22761679224152
 31
0.0
  0
LINE
  5
1273
330
1226
100
AcDbEntity
  8
文字
 62
     0
370
    -2
100
AcDbLine
 10
128.1526251496997
 20
92.73113871255242
 30
0.0
 11
128.1526251496997
 21
81.72761679224152
 31
0.0
  0
SOLID
  5
1274
330
1226
100
AcDbEntity
  8
文字
 62
     0
100
AcDbTrace
 10
128.5692918163664
 20
92.73113871255242
 30
0.0
 11
127.735958483033
 21
92.73113871255242
 31
0.0
 12
128.1526251496997
 22
95.23113871255242
 32
0.0
 13
128.1526251496997
 23
95.23113871255242
 33
0.0
  0
SOLID
  5
1275
330
1226
100
AcDbEntity
  8
文字
 62
     0
100
AcDbTrace
 10
127.735958483033
 20
81.72761679224152
 30
0.0
 11
128.5692918163664
 21
81.72761679224152
 31
0.0
 12
128.1526251496997
 22
79.22761679224152
 32
0.0
 13
128.1526251496997
 23
79.22761679224152
 33
0.0
  0
MTEXT
  5
1276
330
1226
100
AcDbEntity
  8
文字
 62
     0
100
AcDbMText
 10
126.2776251496997
 20
87.22937775239697
 30
0.0
 40
2.5
 41
0.0
 46
0.0
 71
     5
 72
     1
  1
16
 11
0.0
 21
1.0
 31
0.0
 73
     1
 44
1.0
  0
POINT
  5
1277
330
1226
100
AcDbEntity
  8
Defpoints
 62
     0
100
AcDbPoint
 10
93.23808475389136
 20
95.23113871255242
 30
0.0
  0
POINT
  5
1278
330
1226
100
AcDbEntity
  8
Defpoints
 62
     0
100
AcDbPoint
 10
105.4076339229714
 20
79.22761679224152
 30
0.0
  0
POINT
  5
1279
330
1226
100
AcDbEntity
  8
Defpoints
 62
     0
100
AcDbPoint
 10
128.1526251496997
 20
79.22761679224152
 30
0.0
  0
ENDBLK
  5
1231
330
1226
100
AcDbEntity
  8
0
100
AcDbBlockEnd
  0
BLOCK
  5
124A
330
123E
100
AcDbEntity
  8
0
100
AcDbBlockBegin
  2
*D5
 70
     1
 10
0.0
 20
0.0
 30
0.0
  3
*D5
  1
*D25
  0
LINE
  5
124D
330
123E
100
AcDbEntity
  8
文字
 62
     0
370
    -2
100
AcDbLine
 10
59.68855595805468
 20
85.06423599404494
 30
0.0
 11
42.94012885264157
 21
85.06423599404494
 31
0.0
  0
LINE
  5
124E
330
123E
100
AcDbEntity
  8
文字
 62
     0
370
    -2
100
AcDbLine
 10
59.68855595805468
 20
79.06423599404494
 30
0.0
 11
42.94012885264157
 21
79.06423599404494
 31
0.0
  0
LINE
  5
124F
330
123E
100
AcDbEntity
  8
文字
 62
     0
370
    -2
100
AcDbLine
 10
44.19012885264157
 20
85.06423599404494
 30
0.0
 11
44.19012885264157
 21
79.06423599404494
 31
0.0
  0
LINE
  5
1250
330
123E
100
AcDbEntity
  8
文字
 62
     0
370
    -2
100
AcDbLine
 10
44.19012885264157
 20
87.56423599404494
 30
0.0
 11
44.19012885264157
 21
90.06423599404494
 31
0.0
  0
LINE
  5
1251
330
123E
100
AcDbEntity
  8
文字
 62
     0
370
    -2
100
AcDbLine
 10
44.19012885264157
 20
76.56423599404494
 30
0.0
 11
44.19012885264157
 21
74.06423599404494
 31
0.0
  0
SOLID
  5
1252
330
123E
100
AcDbEntity
  8
文字
 62
     0
100
AcDbTrace
 10
43.77346218597491
 20
87.56423599404494
 30
0.0
 11
44.60679551930824
 21
87.56423599404494
 31
0.0
 12
44.19012885264157
 22
85.06423599404494
 32
0.0
 13
44.19012885264157
 23
85.06423599404494
 33
0.0
  0
SOLID
  5
1253
330
123E
100
AcDbEntity
  8
文字
 62
     0
100
AcDbTrace
 10
44.60679551930824
 20
76.56423599404494
 30
0.0
 11
43.77346218597491
 21
76.56423599404494
 31
0.0
 12
44.19012885264157
 22
79.06423599404494
 32
0.0
 13
44.19012885264157
 23
79.06423599404494
 33
0.0
  0
MTEXT
  5
1254
330
123E
100
AcDbEntity
  8
文字
 62
     0
100
AcDbMText
 10
42.31512885264157
 20
82.06423599404494
 30
0.0
 40
2.5
 41
0.0
 46
0.0
 71
     5
 72
     1
  1
6
 11
0.0
 21
1.0
 31
0.0
 73
     1
 44
1.0
  0
POINT
  5
1255
330
123E
100
AcDbEntity
  8
Defpoints
 62
     0
100
AcDbPoint
 10
60.31355595805468
 20
85.06423599404494
 30
0.0
  0
POINT
  5
1256
330
123E
100
AcDbEntity
  8
Defpoints
 62
     0
100
AcDbPoint
 10
60.31355595805468
 20
79.06423599404494
 30
0.0
  0
POINT
  5
1257
330
123E
100
AcDbEntity
  8
Defpoints
 62
     0
100
AcDbPoint
 10
44.19012885264157
 20
79.06423599404494
 30
0.0
  0
ENDBLK
  5
124B
330
123E
100
AcDbEntity
  8
0
100
AcDbBlockEnd
  0
BLOCK
  5
1264
330
125A
100
AcDbEntity
  8
0
100
AcDbBlockBegin
  2
*D6
 70
     1
 10
0.0
 20
0.0
 30
0.0
  3
*D6
  1
*D26
  0
LINE
  5
127A
330
125A
100
AcDbEntity
  8
文字
 62
     0
370
    -2
100
AcDbLine
 10
60.31355595805468
 20
78.43923599404494
 30
0.0
 11
60.31355595805468
 21
59.52096596383105
 31
0.0
  0
LINE
  5
127B
330
125A
100
AcDbEntity
  8
文字
 62
     0
370
    -2
100
AcDbLine
 10
105.3135559580547
 20
78.43923599404494
 30
0.0
 11
105.3135559580547
 21
59.52096596383105
 31
0.0
  0
LINE
  5
127C
330
125A
100
AcDbEntity
  8
文字
 62
     0
370
    -2
100
AcDbLine
 10
62.81355595805468
 20
60.77096596383105
 30
0.0
 11
102.8135559580547
 21
60.77096596383105
 31
0.0
  0
SOLID
  5
127D
330
125A
100
AcDbEntity
  8
文字
 62
     0
100
AcDbTrace
 10
62.81355595805468
 20
61.18763263049771
 30
0.0
 11
62.81355595805468
 21
60.35429929716438
 31
0.0
 12
60.31355595805468
 22
60.77096596383105
 32
0.0
 13
60.31355595805468
 23
60.77096596383105
 33
0.0
  0
SOLID
  5
127E
330
125A
100
AcDbEntity
  8
文字
 62
     0
100
AcDbTrace
 10
102.8135559580547
 20
60.35429929716438
 30
0.0
 11
102.8135559580547
 21
61.18763263049771
 31
0.0
 12
105.3135559580547
 22
60.77096596383105
 32
0.0
 13
105.3135559580547
 23
60.77096596383105
 33
0.0
  0
MTEXT
  5
127F
330
125A
100
AcDbEntity
  8
文字
 62
     0
100
AcDbMText
 10
82.8135559580547
 20
62.64596596383105
 30
0.0
 40
2.5
 41
0.0
 46
0.0
 71
     5
 72
     1
  1
%%c45
 73
     1
 44
1.0
  0
POINT
  5
1280
330
125A
100
AcDbEntity
  8
Defpoints
 62
     0
100
AcDbPoint
 10
60.31355595805468
 20
79.06423599404494
 30
0.0
  0
POINT
  5
1281
330
125A
100
AcDbEntity
  8
Defpoints
 62
     0
100
AcDbPoint
 10
105.3135559580547
 20
79.06423599404494
 30
0.0
  0
POINT
  5
1282
330
125A
100
AcDbEntity
  8
Defpoints
 62
     0
100
AcDbPoint
 10
105.3135559580547
 20
60.77096596383105
 30
0.0
  0
ENDBLK
  5
1265
330
125A
100
AcDbEntity
  8
0
100
AcDbBlockEnd
  0
BLOCK
  5
130F
330
130E
100
AcDbEntity
  8
0
100
AcDbBlockBegin
  2
*D7
 70
     1
 10
0.0
 20
0.0
 30
0.0
  3
*D7
  1
*D8
  0
LINE
  5
1310
330
130E
100
AcDbEntity
  8
文字
 62
     0
370
    -2
100
AcDbLine
 10
0.0
 20
27.41950251549261
 30
0.0
 11
0.0
 21
0.0
 31
0.0
  0
LINE
  5
1311
330
130E
100
AcDbEntity
  8
文字
 62
     0
370
    -2
100
AcDbLine
 10
41.00268414918409
 20
26.81650250643591
 30
0.0
 11
41.00268414918409
 21
0.0
 31
0.0
  0
LINE
  5
1312
330
130E
100
AcDbEntity
  8
文字
 62
     0
370
    -2
100
AcDbLine
 10
2.5
 20
1.25
 30
0.0
 11
38.50268414918409
 21
1.25
 31
0.0
  0
SOLID
  5
1313
330
130E
100
AcDbEntity
  8
文字
 62
     0
100
AcDbTrace
 10
2.5
 20
1.666666666666667
 30
0.0
 11
2.5
 21
0.8333333333333333
 31
0.0
 12
0.0
 22
1.25
 32
0.0
 13
0.0
 23
1.25
 33
0.0
  0
SOLID
  5
1314
330
130E
100
AcDbEntity
  8
文字
 62
     0
100
AcDbTrace
 10
38.50268414918409
 20
0.8333333333333333
 30
0.0
 11
38.50268414918409
 21
1.666666666666667
 31
0.0
 12
41.00268414918409
 22
1.25
 32
0.0
 13
41.00268414918409
 23
1.25
 33
0.0
  0
MTEXT
  5
1315
330
130E
100
AcDbEntity
  8
文字
 62
     0
100
AcDbMText
 10
20.50134207459205
 20
3.125
 30
0.0
 40
2.5
 41
0.0
 46
0.0
 71
     5
 72
     1
  1
%%c41
 73
     1
 44
1.0
  0
POINT
  5
1316
330
130E
100
AcDbEntity
  8
Defpoints
 62
     0
100
AcDbPoint
 10
0.0
 20
28.04450251549261
 30
0.0
  0
POINT
  5
1317
330
130E
100
AcDbEntity
  8
Defpoints
 62
     0
100
AcDbPoint
 10
41.00268414918409
 20
27.44150250643591
 30
0.0
  0
POINT
  5
1318
330
130E
100
AcDbEntity
  8
Defpoints
 62
     0
100
AcDbPoint
 10
41.00268414918409
 20
1.25
 30
0.0
  0
ENDBLK
  5
1319
330
130E
100
AcDbEntity
  8
0
100
AcDbBlockEnd
  0
BLOCK
  5
1322
330
1321
100
AcDbEntity
  8
0
100
AcDbBlockBegin
  2
*D8
 70
     1
 10
0.0
 20
0.0
 30
0.0
  3
*D8
  1
*D9
  0
LINE
  5
1324
330
1321
100
AcDbEntity
  8
文字
 62
     0
370
    -2
100
AcDbLine
 10
183.8132589703335
 20
118.9299814199556
 30
0.0
 11
183.8132589703335
 21
76.6512175543726
 31
0.0
  0
LINE
  5
1325
330
1321
100
AcDbEntity
  8
文字
 62
     0
370
    -2
100
AcDbLine
 10
211.8132589703335
 20
118.9299814199556
 30
0.0
 11
211.8132589703335
 21
76.6512175543726
 31
0.0
  0
LINE
  5
1326
330
1321
100
AcDbEntity
  8
文字
 62
     0
370
    -2
100
AcDbLine
 10
186.3132589703335
 20
77.9012175543726
 30
0.0
 11
209.3132589703335
 21
77.9012175543726
 31
0.0
  0
SOLID
  5
1327
330
1321
100
AcDbEntity
  8
文字
 62
     0
100
AcDbTrace
 10
186.3132589703335
 20
78.31788422103926
 30
0.0
 11
186.3132589703335
 21
77.48455088770592
 31
0.0
 12
183.8132589703335
 22
77.9012175543726
 32
0.0
 13
183.8132589703335
 23
77.9012175543726
 33
0.0
  0
SOLID
  5
1328
330
1321
100
AcDbEntity
  8
文字
 62
     0
100
AcDbTrace
 10
209.3132589703335
 20
77.48455088770592
 30
0.0
 11
209.3132589703335
 21
78.31788422103926
 31
0.0
 12
211.8132589703335
 22
77.9012175543726
 32
0.0
 13
211.8132589703335
 23
77.9012175543726
 33
0.0
  0
MTEXT
  5
1329
330
1321
100
AcDbEntity
  8
文字
 62
     0
100
AcDbMText
 10
197.8132589703335
 20
79.7762175543726
 30
0.0
 40
2.5
 41
0.0
 46
0.0
 71
     5
 72
     1
  1
%%c28
 73
     1
 44
1.0
  0
POINT
  5
132A
330
1321
100
AcDbEntity
  8
Defpoints
 62
     0
100
AcDbPoint
 10
183.8132589703335
 20
119.5549814199556
 30
0.0
  0
POINT
  5
132B
330
1321
100
AcDbEntity
  8
Defpoints
 62
     0
100
AcDbPoint
 10
211.8132589703335
 20
119.5549814199556
 30
0.0
  0
POINT
  5
132C
330
1321
100
AcDbEntity
  8
Defpoints
 62
     0
100
AcDbPoint
 10
211.8132589703335
 20
77.9012175543726
 30
0.0
  0
ENDBLK
  5
1323
330
1321
100
AcDbEntity
  8
0
100
AcDbBlockEnd
  0
ENDSEC
  0
SECTION
  2
ENTITIES
  0
DIMENSION
  5
1182
102
{ACAD_XDICTIONARY
360
1183
102
}
330
21
100
AcDbEntity
  8
文字
100
AcDbDimension
280
     0
  2
*D1
 10
128.1526251496997
 20
137.2311387125524
 30
0.0
 11
126.2776251496997
 21
119.7311387125524
 31
0.0
 70
    32
 71
     5
 42
35.0
 73
     0
 74
     0
 75
     0
  3
ISO-25
100
AcDbAlignedDimension
 13
93.23808475389136
 23
102.2311387125524
 33
0.0
 14
85.81308475389136
 24
137.2311387125524
 34
0.0
 50
90.0
100
AcDbRotatedDimension
  0
CIRCLE
  5
1185
330
21
100
AcDbEntity
  8
実線
370
    20
100
AcDbCircle
 10
197.8132589703335
 20
119.5549814199556
 30
0.0
 40
3.0
  0
LINE
  5
1186
330
21
100
AcDbEntity
  8
実線
370
    20
100
AcDbLine
 10
85.81308475389136
 20
137.2434701597458
 30
0.0
 11
85.81308475389135
 21
102.2311387125524
 31
0.0
  0
LINE
  5
1187
330
21
100
AcDbEntity
  8
実線
370
    20
100
AcDbLine
 10
79.81308475389135
 20
137.2434701597458
 30
0.0
 11
79.81308475389133
 21
102.2311387125524
 31
0.0
  0
LINE
  5
1188
330
21
100
AcDbEntity
  8
実線
370
    20
100
AcDbLine
 10
77.81308475389135
 20
135.2434701597458
 30
0.0
 11
87.81308475389136
 21
135.2434701597458
 31
0.0
  0
LINE
  5
1189
330
21
100
AcDbEntity
  8
中心線
100
AcDbLine
 10
197.8132589703335
 20
119.5549814199556
 30
0.0
 11
197.8132589703335
 21
92.6943503247615
 31
0.0
  0
LINE
  5
118A
330
21
100
AcDbEntity
  8
中心線
100
AcDbLine
 10
197.8132589703335
 20
119.5549814199556
 30
0.0
 11
197.8132589703335
 21
145.2045846804749
 31
0.0
  0
DIMENSION
  5
118B
330
21
100
AcDbEntity
  8
文字
100
AcDbDimension
280
     0
  2
*D0
 10
87.78760286997115
 20
147.2136460798203
 30
0.0
 11
82.78760286997115
 21
149.1150785491245
 31
0.0
 70
    32
  1
{\fArial|b0|i0|c0|p32;M10}
 71
     5
 42
10.0
 73
     0
 74
     0
 75
     0
  3
ISO-25
100
AcDbAlignedDimension
 13
77.78760286997115
 23
131.5399218633972
 33
0.0
 14
87.78760286997115
 24
131.5399218633973
 34
0.0
100
AcDbRotatedDimension
  0
LWPOLYLINE
  5
118C
330
21
100
AcDbEntity
  8
実線
100
AcDbPolyline
 90
        6
 70
     1
 43
0.0
 10
77.81308475389135
 20
102.2311387125524
 10
87.81308475389136
 20
102.2311387125524
 10
87.81308475389136
 20
135.2434701597458
 10
85.81308475389136
 20
137.2434701597458
 10
79.81308475389135
 20
137.2434701597458
 10
77.81308475389135
 20
135.2434701597458
  0
DIMENSION
  5
118D
102
{ACAD_REACTORS
330
118F
102
}
102
{ACAD_XDICTIONARY
360
118E
102
}
330
21
100
AcDbEntity
  8
文字
100
AcDbDimension
280
     0
  2
*D2
 10
128.1526251496997
 20
102.2311387125524
 30
0.0
 11
126.2776251496997
 21
98.73113871255242
 31
0.0
 70
    32
  1
7
 71
     5
 42
7.0
 73
     0
 74
     0
 75
     0
  3
ISO-25
100
AcDbAlignedDimension
 13
92.61308475389136
 23
95.23113871255242
 33
0.0
 14
92.61308475389136
 24
102.2311387125524
 34
0.0
 50
90.0
100
AcDbRotatedDimension
  0
DIMENSION
  5
1190
102
{ACAD_REACTORS
330
1192
102
}
102
{ACAD_XDICTIONARY
360
1191
102
}
330
21
100
AcDbEntity
  8
文字
100
AcDbDimension
280
     0
  2
*D3
 10
206.300307927421
 20
86.51458381963147
 30
0.0
 11
197.8132589703335
 21
86.51458381963147
 31
0.0
 70
   160
  1
17
 71
     5
 42
16.97409791417499
 73
     0
 74
     0
 75
     0
  3
ISO-25
100
AcDbAlignedDimension
 13
189.3262100132461
 23
119.5549814199556
 33
0.0
 14
206.300307927421
 24
119.5549814199556
 34
0.0
100
AcDbRotatedDimension
  0
CIRCLE
  5
1193
330
21
100
AcDbEntity
  8
実線
370
    50
100
AcDbCircle
 10
197.8132589703335
 20
119.5549814199556
 30
0.0
 40
5.0
  0
ARC
  5
119A
330
21
100
AcDbEntity
  8
実線
370
    50
100
AcDbCircle
 10
90.10813487173745
 20
97.94761904094668
 30
0.0
 40
2.716538372492689
100
AcDbArc
 50
202.7633354902942
 51
337.2366715329315
  0
ARC
  5
119B
330
21
100
AcDbEntity
  8
実線
370
    50
100
AcDbCircle
 10
82.87585327712087
 20
102.7721180049415
 30
0.0
 40
7.541240519685672
100
AcDbArc
 50
231.180866270598
 51
308.8191315053855
  0
ARC
  5
119C
330
21
100
AcDbEntity
  8
実線
370
    50
100
AcDbCircle
 10
75.58080274905149
 20
98.04255382758672
 30
0.0
 40
2.811861775624425
100
AcDbArc
 50
204.052326073835
 51
335.9476739261655
  0
LINE
  5
119D
330
21
100
AcDbEntity
  8
実線
370
    50
100
AcDbLine
 10
90.12589310003588
 20
95.23113871255242
 30
0.0
 11
75.53068592378796
 21
95.23113871255242
 31
0.0
  0
LWPOLYLINE
  5
119E
102
{ACAD_REACTORS
330
1192
102
}
330
21
100
AcDbEntity
  8
実線
370
    50
100
AcDbPolyline
 90
        6
 70
     1
 43
0.0
 10
189.3262100132461
 20
114.6549814199556
 10
197.8132589703335
 20
109.7549814199556
 10
206.300307927421
 20
114.6549814199556
 10
206.3003079274211
 20
124.4549814199556
 10
197.8132589703336
 20
129.3549814199556
 10
189.3262100132461
 20
124.4549814199556
  0
LINE
  5
119F
330
21
100
AcDbEntity
  8
実線
370
    50
100
AcDbLine
 10
87.60318550006112
 20
102.2311387125524
 30
0.0
 11
87.60318550006112
 21
96.89652113060608
 31
0.0
  0
LINE
  5
11A0
330
21
100
AcDbEntity
  8
実線
370
    50
100
AcDbLine
 10
78.14852074421162
 20
102.2311387125524
 30
0.0
 11
78.14852074421162
 21
96.89652113060613
 31
0.0
  0
LWPOLYLINE
  5
11A1
102
{ACAD_REACTORS
330
118F
102
}
330
21
100
AcDbEntity
  8
実線
370
    50
100
AcDbPolyline
 90
        4
 70
     0
 43
0.0
 10
92.61308475389136
 20
96.89652113060609
 10
92.61308475389136
 20
102.2311387125524
 10
73.01308475389136
 20
102.2311387125524
 10
73.01308475389136
 20
96.89652113060612
  0
ARC
  5
11A8
330
21
100
AcDbEntity
  8
実線
370
    50
100
AcDbCircle
 10
82.26749076764489
 20
82.76539122692007
 30
0.0
 40
13.24316634049441
100
AcDbArc
 50
109.7295435093523
 51
170.0035449917053
  0
LINE
  5
11A9
330
21
100
AcDbEntity
  8
中心線
100
AcDbLine
 10
167.3984983660361
 20
119.5549814199556
 30
0.0
 11
207.4009295164782
 21
119.5549814199556
 31
0.0
  0
LINE
  5
11AB
330
21
100
AcDbEntity
  8
中心線
100
AcDbLine
 10
207.4009295164782
 20
119.5549814199556
 30
0.0
 11
228.0432277339854
 21
119.5549814199556
 31
0.0
  0
CIRCLE
  5
11AD
330
21
100
AcDbEntity
  8
実線
370
    50
100
AcDbCircle
 10
197.8132589703335
 20
119.5549814199556
 30
0.0
 40
14.0
  0
ARC
  5
11B1
330
21
100
AcDbEntity
  8
実線
370
    50
100
AcDbCircle
 10
83.35867874013783
 20
82.76539122692003
 30
0.0
 40
13.24316634049445
100
AcDbArc
 50
9.99645500829481
 51
70.2704564906476
  0
LINE
  5
11B4
330
21
100
AcDbEntity
  8
中心線
100
AcDbLine
 10
82.81308475389136
 20
71.73090481137814
 30
0.0
 11
82.81308475389135
 21
158.274680429735
 31
0.0
  0
CIRCLE
  5
1223
330
21
100
AcDbEntity
  8
実線
100
AcDbCircle
 10
197.8132589703335
 20
119.5549814199556
 30
0.0
 40
22.5
  0
LWPOLYLINE
  5
1224
102
{ACAD_REACTORS
330
1258
330
1270
102
}
330
21
100
AcDbEntity
  8
実線
100
AcDbPolyline
 90
        4
 70
     1
 43
0.0
 10
60.31355595805468
 20
79.06423599404494
 10
105.3135559580547
 20
79.06423599404494
 10
105.3135559580547
 20
85.06423599404494
 10
60.31355595805468
 20
85.06423599404494
  0
DIMENSION
  5
1225
102
{ACAD_XDICTIONARY
360
1232
102
}
330
21
100
AcDbEntity
  8
文字
100
AcDbDimension
280
     0
  2
*D4
 10
128.1526251496997
 20
79.22761679224152
 30
0.0
 11
126.2776251496997
 21
87.22937775239697
 31
0.0
 70
    32
 71
     5
 42
16.0035219203109
 73
     0
 74
     0
 75
     0
  3
ISO-25
100
AcDbAlignedDimension
 13
93.23808475389136
 23
95.23113871255242
 33
0.0
 14
105.4076339229714
 24
79.22761679224152
 34
0.0
 50
90.0
100
AcDbRotatedDimension
  0
DIMENSION
  5
123D
102
{ACAD_REACTORS
330
1258
102
}
102
{ACAD_XDICTIONARY
360
124C
102
}
330
21
100
AcDbEntity
  8
文字
100
AcDbDimension
280
     0
  2
*D5
 10
44.19012885264157
 20
79.06423599404494
 30
0.0
 11
42.31512885264157
 21
82.06423599404494
 31
0.0
 70
    32
 71
     5
 42
6.0
 73
     0
 74
     0
 75
     0
  3
ISO-25
100
AcDbAlignedDimension
 13
60.31355595805468
 23
85.06423599404494
 33
0.0
 14
60.31355595805468
 24
79.06423599404494
 34
0.0
 50
90.0
100
AcDbRotatedDimension
  0
DIMENSION
  5
1259
102
{ACAD_REACTORS
330
1270
102
}
102
{ACAD_XDICTIONARY
360
1266
102
}
330
21
100
AcDbEntity
  8
文字
100
AcDbDimension
280
     0
  2
*D6
 10
105.3135559580547
 20
60.77096596383105
 30
0.0
 11
82.8135559580547
 21
62.64596596383105
 31
0.0
 70
    32
  1
%%c<>
 71
     5
 42
45.00000000000004
 73
     0
 74
     0
 75
     0
  3
ISO-25
100
AcDbAlignedDimension
 13
60.31355595805468
 23
79.06423599404494
 33
0.0
 14
105.3135559580547
 24
79.06423599404494
 34
0.0
100
AcDbRotatedDimension
  0
DIMENSION
  5
131E
102
{ACAD_XDICTIONARY
360
131F
102
}
330
21
100
AcDbEntity
  8
文字
 62
     0
100
AcDbDimension
280
     0
  2
*D8
 10
211.8132589703335
 20
77.9012175543726
 30
0.0
 11
197.8132589703335
 21
79.7762175543726
 31
0.0
 70
    32
  1
%%c<>
 71
     5
 42
28.0
 73
     0
 74
     0
 75
     0
  3
ISO-25
100
AcDbAlignedDimension
 13
183.8132589703335
 23
119.5549814199556
 33
0.0
 14
211.8132589703335
 24
119.5549814199556
 34
0.0
100
AcDbRotatedDimension
1001
ACAD
1000
DSTYLE
1002
{
1070
    77
1070
     1
1002
}
  0
MTEXT
  5
1320
330
21
100
AcDbEntity
  8
文字・寸法線
 62
     0
100
AcDbMText
 10
92.98973094103226
 20
187.295154575985
 30
0.0
 40
6.0
 41
0.0
 46
6.0
 71
     9
 72
     1
  1
{\fＭＳ ゴシック|b0|i0|c0|p0;S-M2 M10X35}
 73
     1
 44
1.0
1001
ACAD
1000
ACAD_MTEXT_DEFINED_HEIGHT_BEGIN
1070
    46
1040
6.0
1000
ACAD_MTEXT_DEFINED_HEIGHT_END
  0
VIEWPORT
  5
12DA
330
12D6
100
AcDbEntity
 67
     1
  8
0
100
AcDbViewport
 10
203.7291666666666
 20
142.1694444444444
 30
0.0
 40
488.9499999999999
 41
341.2066666666665
 68
     1
 69
     1
 12
203.7291666666666
 22
142.1694444444444
 13
0.0
 23
0.0
 14
0.5
 24
0.5
 15
0.0
 25
0.0
 16
0.0
 26
0.0
 36
1.0
 17
0.0
 27
0.0
 37
0.0
 42
50.0
 43
0.0
 44
0.0
 45
341.2066666666665
 50
0.0
 51
0.0
 72
   100
 90
   557152
  1

281
     0
 71
     1
 74
     0
110
0.0
120
0.0
130
0.0
111
1.0
121
0.0
131
0.0
112
0.0
122
1.0
132
0.0
 79
     0
146
0.0
170
     0
 61
     5
348
1292
292
     1
282
     1
141
0.0
142
0.0
 63
   256
361
12DC
  0
VIEWPORT
  5
12DB
330
12D6
100
AcDbEntity
 67
     1
  8
0
100
AcDbViewport
 10
203.7291666666666
 20
142.1694444444444
 30
0.0
 40
325.9666666666666
 41
227.471111111111
 68
     2
 69
     2
 12
148.5000001180429
 22
105.0
 13
0.0
 23
0.0
 14
0.5
 24
0.5
 15
0.0
 25
0.0
 16
0.0
 26
0.0
 36
1.0
 17
0.0
 27
0.0
 37
0.0
 42
50.0
 43
0.0
 44
0.0
 45
214.2
 50
0.0
 51
0.0
 72
   100
 90
   557152
  1

281
     0
 71
     1
 74
     0
110
0.0
120
0.0
130
0.0
111
1.0
121
0.0
131
0.0
112
0.0
122
1.0
132
0.0
 79
     0
146
0.0
170
     0
 61
     5
348
1292
292
     1
282
     1
141
0.0
142
0.0
 63
   256
  0
ENDSEC
  0
SECTION
  2
OBJECTS
  0
DICTIONARY
  5
C
330
0
100
AcDbDictionary
281
     1
  3
AcadDim
350
7AD
  3
ACAD_COLOR
350
1C
  3
ACAD_DETAILVIEWSTYLE
350
12E6
  3
ACAD_GROUP
350
D
  3
ACAD_IMAGE_VARS
350
12CF
  3
ACAD_LAYOUT
350
1A
  3
ACAD_MATERIAL
350
1B
  3
ACAD_MLEADERSTYLE
350
12E3
  3
ACAD_MLINESTYLE
350
17
  3
ACAD_PLOTSETTINGS
350
19
  3
ACAD_PLOTSTYLENAME
350
E
  3
ACAD_SCALELIST
350
12A6
  3
ACAD_SECTIONVIEWSTYLE
350
12E7
  3
ACAD_TABLESTYLE
350
12CB
  3
ACAD_VISUALSTYLE
350
128D
  3
AcDbVariableDictionary
350
12DD
  3
ACDB_RECOMPOSE_DATA
350
1333
  3
APPDATA
350
12CD
  0
SUN
  5
12CE
330
128C
100
AcDbSun
 90
        1
290
     0
 63
     7
421
 16777215
 40
1.0
291
     1
 91
  2455826
 92
 54000000
292
     0
 70
     2
 71
   256
280
     1
  0
DICTIONARY
  5
1183
330
1182
100
AcDbDictionary
280
     1
281
     1
  0
DICTIONARY
  5
118E
330
118D
100
AcDbDictionary
280
     1
281
     1
  3
ACAD_DIMASSOC
360
118F
  0
DICTIONARY
  5
1191
330
1190
100
AcDbDictionary
280
     1
281
     1
  3
ACAD_DIMASSOC
360
1192
  0
DICTIONARY
  5
1232
330
1225
100
AcDbDictionary
280
     1
281
     1
  0
DICTIONARY
  5
124C
330
123D
100
AcDbDictionary
280
     1
281
     1
  3
ACAD_DIMASSOC
360
1258
  0
DICTIONARY
  5
1266
330
1259
100
AcDbDictionary
280
     1
281
     1
  3
ACAD_DIMASSOC
360
1270
  0
DICTIONARY
  5
131F
330
131E
100
AcDbDictionary
280
     1
281
     1
  0
SUN
  5
12DC
330
12DA
100
AcDbSun
 90
        1
290
     0
 63
     7
421
 16777215
 40
1.0
291
     1
 91
  2455826
 92
 54000000
292
     0
 70
     2
 71
   256
280
     1
  0
XRECORD
  5
7AD
102
{ACAD_REACTORS
330
C
102
}
330
C
100
AcDbXrecord
280
     1
 90
   990106
  3

 60
     0
 61
     0
 62
     4
 63
     4
 64
     1
 65
     0
 66
     0
 67
     3
 68
     1
 69
     0
 70
     0
 71
     0
 72
     0
 40
0.0
170
     2
340
0
  0
DICTIONARY
  5
1C
102
{ACAD_REACTORS
330
C
102
}
330
C
100
AcDbDictionary
281
     1
  0
DICTIONARY
  5
12E6
102
{ACAD_REACTORS
330
C
102
}
330
C
100
AcDbDictionary
281
     1
  0
DICTIONARY
  5
D
102
{ACAD_REACTORS
330
C
102
}
330
C
100
AcDbDictionary
281
     1
  0
RASTERVARIABLES
  5
12CF
102
{ACAD_REACTORS
330
C
102
}
330
C
100
AcDbRasterVariables
 90
        0
 70
     1
 71
     1
 72
     1
  0
DICTIONARY
  5
1A
102
{ACAD_REACTORS
330
C
102
}
330
C
100
AcDbDictionary
281
     1
  3
Model
350
24
  3
Sheet1
350
12D7
  0
DICTIONARY
  5
1B
102
{ACAD_REACTORS
330
C
102
}
330
C
100
AcDbDictionary
281
     1
  3
ByBlock
350
12C9
  3
ByLayer
350
12C8
  3
Global
350
12CA
  0
DICTIONARY
  5
12E3
102
{ACAD_REACTORS
330
C
102
}
330
C
100
AcDbDictionary
281
     1
  3
Standard
350
1330
  0
DICTIONARY
  5
17
102
{ACAD_REACTORS
330
C
102
}
330
C
100
AcDbDictionary
281
     1
  3
Standard
350
18
  0
DICTIONARY
  5
19
102
{ACAD_REACTORS
330
C
102
}
330
C
100
AcDbDictionary
281
     1
  0
ACDBDICTIONARYWDFLT
  5
E
102
{ACAD_REACTORS
330
C
102
}
330
C
100
AcDbDictionary
281
     1
  3
Normal
350
F
100
AcDbDictionaryWithDefault
340
F
  0
DICTIONARY
  5
12A6
102
{ACAD_REACTORS
330
C
102
}
330
C
100
AcDbDictionary
281
     1
  3
A0
350
12A7
  3
A1
350
12A8
  3
A2
350
12A9
  3
A3
350
12AA
  3
A4
350
12AB
  3
A5
350
12AC
  3
A6
350
12AD
  3
A7
350
12AE
  3
A8
350
12AF
  3
A9
350
12B0
  3
B0
350
12B1
  3
B1
350
12B2
  3
B2
350
12B3
  3
B3
350
12B4
  3
B4
350
12B5
  3
B5
350
12B6
  3
B6
350
12B7
  3
B7
350
12B8
  3
B8
350
12B9
  3
B9
350
12BA
  3
C0
350
12BB
  3
C1
350
12BC
  3
C2
350
12BD
  3
C3
350
12BE
  3
C4
350
12BF
  3
C5
350
12C0
  3
C6
350
12C1
  3
C7
350
12C2
  3
C8
350
12C3
  3
C9
350
12C4
  3
D0
350
12C5
  3
D1
350
12C6
  3
D2
350
12C7
  0
DICTIONARY
  5
12E7
102
{ACAD_REACTORS
330
C
102
}
330
C
100
AcDbDictionary
281
     1
  0
DICTIONARY
  5
12CB
102
{ACAD_REACTORS
330
C
102
}
330
C
100
AcDbDictionary
281
     1
  3
Standard
350
12CC
  0
DICTIONARY
  5
128D
102
{ACAD_REACTORS
330
C
102
}
330
C
100
AcDbDictionary
281
     1
  3
2dWireframe
350
1292
  3
Basic
350
1295
  3
Brighten
350
1299
  3
ColorChange
350
129D
  3
Conceptual
350
1297
  3
Dim
350
1298
  3
EdgeColorOff
350
12A0
  3
Facepattern
350
129C
  3
Flat
350
128E
  3
FlatWithEdges
350
128F
  3
Gouraud
350
1290
  3
GouraudWithEdges
350
1291
  3
Hidden
350
1294
  3
JitterOff
350
129E
  3
Linepattern
350
129B
  3
OverhangOff
350
129F
  3
Realistic
350
1296
  3
Shaded
350
12A5
  3
Shaded with edges
350
12A4
  3
Shades of Gray
350
12A1
  3
Sketchy
350
12A2
  3
Thicken
350
129A
  3
Wireframe
350
1293
  3
X-Ray
350
12A3
  0
DICTIONARY
  5
12DD
102
{ACAD_REACTORS
330
C
102
}
330
C
100
AcDbDictionary
281
     1
  3
CANNOSCALE
350
12DE
  3
CMLEADERSTYLE
350
1334
  3
CTABLESTYLE
350
12E2
  3
MSLTSCALE
350
12E4
  3
XCLIPFRAME
350
12E5
  0
XRECORD
  5
1333
102
{ACAD_REACTORS
330
C
102
}
330
C
100
AcDbXrecord
280
     1
 90
        1
330
12CC
  0
DICTIONARY
  5
12CD
102
{ACAD_REACTORS
330
C
102
}
330
C
100
AcDbDictionary
281
     1
  0
DIMASSOC
  5
118F
102
{ACAD_REACTORS
330
118E
102
}
330
118E
100
AcDbDimAssoc
330
118D
 90
        2
 70
     0
 71
     0
  1
AcDbOsnapPointRef
 72
     1
331
11A1
 73
     2
 91
        1
 40
1.0
 10
0.0
 20
0.0
 30
2.000000000000000E+50
 75
     0
  0
DIMASSOC
  5
1192
102
{ACAD_REACTORS
330
1191
102
}
330
1191
100
AcDbDimAssoc
330
1190
 90
        3
 70
     0
 71
     0
  1
AcDbOsnapPointRef
 72
     2
331
119E
 73
     2
 91
        6
 40
0.5
 10
0.0
 20
0.0
 30
0.0
 75
     0
  1
AcDbOsnapPointRef
 72
     2
331
119E
 73
     2
 91
        3
 40
0.5
 10
0.0
 20
0.0
 30
0.0
 75
     0
  0
DIMASSOC
  5
1258
102
{ACAD_REACTORS
330
124C
102
}
330
124C
100
AcDbDimAssoc
330
123D
 90
        3
 70
     0
 71
     0
  1
AcDbOsnapPointRef
 72
     1
331
1224
 73
     2
 91
        3
 40
1.0
 10
0.0
 20
0.0
 30
2.000000000000000E+50
 75
     0
  1
AcDbOsnapPointRef
 72
    13
331
1224
 73
     2
 91
        1
 40
0.0
 10
0.0
 20
0.0
 30
2.000000000000000E+50
 75
     0
  0
DIMASSOC
  5
1270
102
{ACAD_REACTORS
330
1266
102
}
330
1266
100
AcDbDimAssoc
330
1259
 90
        3
 70
     0
 71
     0
  1
AcDbOsnapPointRef
 72
    13
331
1224
 73
     2
 91
        1
 40
0.0
 10
0.0
 20
0.0
 30
2.000000000000000E+50
 75
     0
  1
AcDbOsnapPointRef
 72
     1
331
1224
 73
     2
 91
        1
 40
1.0
 10
0.0
 20
0.0
 30
2.000000000000000E+50
 75
     0
  0
LAYOUT
  5
24
102
{ACAD_REACTORS
330
1A
102
}
330
1A
100
AcDbPlotSettings
  1

  2
\\SF05\Brother HL-1440 series
  4
A4
  6

 40
6.72041654586792
 41
5.027085304260254
 42
6.889755249023438
 43
5.027069091796875
 44
209.9733276367188
 45
296.9259948730469
 46
3.18
 47
4.94
 48
10.0
 49
10.00000018588798
140
287.0000002360858
141
200.000000185888
142
1.0
143
1.0
 70
 11956
 72
     1
 73
     1
 74
     4
  7

 75
    16
 76
     0
 77
     2
 78
   300
147
1.0
148
-10.0
149
-10.00000018588798
100
AcDbLayout
  1
Model
 70
     1
 71
     0
 10
0.0
 20
0.0
 11
12.0
 21
9.0
 12
0.0
 22
0.0
 32
0.0
 14
31.10401665531798
 24
59.52096596383105
 34
0.0
 15
228.0432277339854
 25
193.295154575985
 35
0.0
146
0.0
 13
0.0
 23
0.0
 33
0.0
 16
1.0
 26
0.0
 36
0.0
 17
0.0
 27
1.0
 37
0.0
 76
     0
330
21
331
128C
  0
LAYOUT
  5
12D7
102
{ACAD_REACTORS
330
1A
102
}
330
1A
100
AcDbPlotSettings
  1

  2
none_device
  4
iso-a3
  6

 40
6.35
 41
6.35
 42
6.35
 43
6.35
 44
297.0388888888888
 45
420.1583333333333
 46
0.0
 47
0.0
 48
0.0
 49
0.0
140
0.0
141
0.0
142
1.0
143
1.0
 70
   688
 72
     1
 73
     1
 74
     5
  7

 75
    16
 76
     0
 77
     2
 78
   300
147
1.0
148
0.0
149
0.0
100
AcDbLayout
  1
Sheet1
 70
     1
 71
     1
 10
0.0
 20
0.0
 11
0.0
 21
0.0
 12
0.0
 22
0.0
 32
0.0
 14
0.0
 24
0.0
 34
0.0
 15
0.0
 25
0.0
 35
0.0
146
0.0
 13
0.0
 23
0.0
 33
0.0
 16
1.0
 26
0.0
 36
0.0
 17
0.0
 27
1.0
 37
0.0
 76
     0
330
12D6
331
12DA
  0
MATERIAL
  5
12C9
102
{ACAD_REACTORS
330
1B
102
}
330
1B
100
AcDbMaterial
  1
ByBlock
 72
     1
 94
      127
  0
MATERIAL
  5
12C8
102
{ACAD_REACTORS
330
1B
102
}
330
1B
100
AcDbMaterial
  1
ByLayer
 72
     1
 94
      127
  0
MATERIAL
  5
12CA
102
{ACAD_REACTORS
330
1B
102
}
330
1B
100
AcDbMaterial
  1
Global
 72
     1
 94
      127
  0
MLEADERSTYLE
  5
1330
102
{ACAD_REACTORS
330
12E3
102
}
330
12E3
100
AcDbMLeaderStyle
179
     2
170
     2
171
     1
172
     0
 90
        2
 40
0.0
 41
0.0
173
     1
 91
-1056964608
340
14
 92
       -2
290
     1
 42
2.0
291
     1
 43
8.0
  3
Standard
341
0
 44
4.0
300

342
11
174
     1
178
     1
175
     1
176
     0
 93
-1056964608
 45
4.0
292
     0
297
     0
 46
4.0
343
0
 94
-1056964608
 47
1.0
 49
1.0
140
1.0
293
     1
141
0.0
294
     1
177
     0
142
1.0
295
     0
296
     0
143
3.75
271
     0
272
     9
273
     9
  0
MLINESTYLE
  5
18
102
{ACAD_REACTORS
330
17
102
}
330
17
100
AcDbMlineStyle
  2
STANDARD
 70
     0
  3

 62
   256
 51
90.0
 52
90.0
 71
     2
 49
0.5
 62
   256
  6
BYLAYER
 49
-0.5
 62
   256
  6
BYLAYER
  0
ACDBPLACEHOLDER
  5
F
102
{ACAD_REACTORS
330
E
102
}
330
E
  0
SCALE
  5
12A7
102
{ACAD_REACTORS
330
12A6
102
}
330
12A6
100
AcDbScale
 70
     0
300
1:1
140
1.0
141
1.0
290
     1
  0
SCALE
  5
12A8
102
{ACAD_REACTORS
330
12A6
102
}
330
12A6
100
AcDbScale
 70
     0
300
1:2
140
1.0
141
2.0
290
     0
  0
SCALE
  5
12A9
102
{ACAD_REACTORS
330
12A6
102
}
330
12A6
100
AcDbScale
 70
     0
300
1:4
140
1.0
141
4.0
290
     0
  0
SCALE
  5
12AA
102
{ACAD_REACTORS
330
12A6
102
}
330
12A6
100
AcDbScale
 70
     0
300
1:5
140
1.0
141
5.0
290
     0
  0
SCALE
  5
12AB
102
{ACAD_REACTORS
330
12A6
102
}
330
12A6
100
AcDbScale
 70
     0
300
1:8
140
1.0
141
8.0
290
     0
  0
SCALE
  5
12AC
102
{ACAD_REACTORS
330
12A6
102
}
330
12A6
100
AcDbScale
 70
     0
300
1:10
140
1.0
141
10.0
290
     0
  0
SCALE
  5
12AD
102
{ACAD_REACTORS
330
12A6
102
}
330
12A6
100
AcDbScale
 70
     0
300
1:16
140
1.0
141
16.0
290
     0
  0
SCALE
  5
12AE
102
{ACAD_REACTORS
330
12A6
102
}
330
12A6
100
AcDbScale
 70
     0
300
1:20
140
1.0
141
20.0
290
     0
  0
SCALE
  5
12AF
102
{ACAD_REACTORS
330
12A6
102
}
330
12A6
100
AcDbScale
 70
     0
300
1:30
140
1.0
141
30.0
290
     0
  0
SCALE
  5
12B0
102
{ACAD_REACTORS
330
12A6
102
}
330
12A6
100
AcDbScale
 70
     0
300
1:40
140
1.0
141
40.0
290
     0
  0
SCALE
  5
12B1
102
{ACAD_REACTORS
330
12A6
102
}
330
12A6
100
AcDbScale
 70
     0
300
1:50
140
1.0
141
50.0
290
     0
  0
SCALE
  5
12B2
102
{ACAD_REACTORS
330
12A6
102
}
330
12A6
100
AcDbScale
 70
     0
300
1:100
140
1.0
141
100.0
290
     0
  0
SCALE
  5
12B3
102
{ACAD_REACTORS
330
12A6
102
}
330
12A6
100
AcDbScale
 70
     0
300
2:1
140
2.0
141
1.0
290
     0
  0
SCALE
  5
12B4
102
{ACAD_REACTORS
330
12A6
102
}
330
12A6
100
AcDbScale
 70
     0
300
4:1
140
4.0
141
1.0
290
     0
  0
SCALE
  5
12B5
102
{ACAD_REACTORS
330
12A6
102
}
330
12A6
100
AcDbScale
 70
     0
300
8:1
140
8.0
141
1.0
290
     0
  0
SCALE
  5
12B6
102
{ACAD_REACTORS
330
12A6
102
}
330
12A6
100
AcDbScale
 70
     0
300
10:1
140
10.0
141
1.0
290
     0
  0
SCALE
  5
12B7
102
{ACAD_REACTORS
330
12A6
102
}
330
12A6
100
AcDbScale
 70
     0
300
100:1
140
100.0
141
1.0
290
     0
  0
SCALE
  5
12B8
102
{ACAD_REACTORS
330
12A6
102
}
330
12A6
100
AcDbScale
 70
     0
300
1/128" = 1'-0"
140
0.0078125
141
12.0
290
     0
  0
SCALE
  5
12B9
102
{ACAD_REACTORS
330
12A6
102
}
330
12A6
100
AcDbScale
 70
     0
300
1/64" = 1'-0"
140
0.015625
141
12.0
290
     0
  0
SCALE
  5
12BA
102
{ACAD_REACTORS
330
12A6
102
}
330
12A6
100
AcDbScale
 70
     0
300
1/32" = 1'-0"
140
0.03125
141
12.0
290
     0
  0
SCALE
  5
12BB
102
{ACAD_REACTORS
330
12A6
102
}
330
12A6
100
AcDbScale
 70
     0
300
1/16" = 1'-0"
140
0.0625
141
12.0
290
     0
  0
SCALE
  5
12BC
102
{ACAD_REACTORS
330
12A6
102
}
330
12A6
100
AcDbScale
 70
     0
300
3/32" = 1'-0"
140
0.09375
141
12.0
290
     0
  0
SCALE
  5
12BD
102
{ACAD_REACTORS
330
12A6
102
}
330
12A6
100
AcDbScale
 70
     0
300
1/8" = 1'-0"
140
0.125
141
12.0
290
     0
  0
SCALE
  5
12BE
102
{ACAD_REACTORS
330
12A6
102
}
330
12A6
100
AcDbScale
 70
     0
300
3/16" = 1'-0"
140
0.1875
141
12.0
290
     0
  0
SCALE
  5
12BF
102
{ACAD_REACTORS
330
12A6
102
}
330
12A6
100
AcDbScale
 70
     0
300
1/4" = 1'-0"
140
0.25
141
12.0
290
     0
  0
SCALE
  5
12C0
102
{ACAD_REACTORS
330
12A6
102
}
330
12A6
100
AcDbScale
 70
     0
300
3/8" = 1'-0"
140
0.375
141
12.0
290
     0
  0
SCALE
  5
12C1
102
{ACAD_REACTORS
330
12A6
102
}
330
12A6
100
AcDbScale
 70
     0
300
1/2" = 1'-0"
140
0.5
141
12.0
290
     0
  0
SCALE
  5
12C2
102
{ACAD_REACTORS
330
12A6
102
}
330
12A6
100
AcDbScale
 70
     0
300
3/4" = 1'-0"
140
0.75
141
12.0
290
     0
  0
SCALE
  5
12C3
102
{ACAD_REACTORS
330
12A6
102
}
330
12A6
100
AcDbScale
 70
     0
300
1" = 1'-0"
140
1.0
141
12.0
290
     0
  0
SCALE
  5
12C4
102
{ACAD_REACTORS
330
12A6
102
}
330
12A6
100
AcDbScale
 70
     0
300
1-1/2" = 1'-0"
140
1.5
141
12.0
290
     0
  0
SCALE
  5
12C5
102
{ACAD_REACTORS
330
12A6
102
}
330
12A6
100
AcDbScale
 70
     0
300
3" = 1'-0"
140
3.0
141
12.0
290
     0
  0
SCALE
  5
12C6
102
{ACAD_REACTORS
330
12A6
102
}
330
12A6
100
AcDbScale
 70
     0
300
6" = 1'-0"
140
6.0
141
12.0
290
     0
  0
SCALE
  5
12C7
102
{ACAD_REACTORS
330
12A6
102
}
330
12A6
100
AcDbScale
 70
     0
300
1'-0" = 1'-0"
140
12.0
141
12.0
290
     0
  0
TABLESTYLE
  5
12CC
102
{ACAD_REACTORS
330
12CB
102
}
102
{ACAD_XDICTIONARY
360
1331
102
}
330
12CB
100
AcDbTableStyle
  3
Standard
 70
     0
 71
     0
 40
0.06
 41
0.06
280
     0
281
     0
  7
Standard
140
4.5
170
     2
 62
     0
 63
   257
283
     0
 90
        4
 91
        0
  1

274
    -2
284
     1
 64
     0
275
    -2
285
     1
 65
     0
276
    -2
286
     1
 66
     0
277
    -2
287
     1
 67
     0
278
    -2
288
     1
 68
     0
279
    -2
289
     1
 69
     0
  7
Standard
140
6.0
170
     5
 62
     0
 63
   257
283
     0
 90
        4
 91
        0
  1

274
    -2
284
     1
 64
     0
275
    -2
285
     1
 65
     0
276
    -2
286
     1
 66
     0
277
    -2
287
     1
 67
     0
278
    -2
288
     1
 68
     0
279
    -2
289
     1
 69
     0
  7
Standard
140
4.5
170
     5
 62
     0
 63
   257
283
     0
 90
        4
 91
        0
  1

274
    -2
284
     1
 64
     0
275
    -2
285
     1
 65
     0
276
    -2
286
     1
 66
     0
277
    -2
287
     1
 67
     0
278
    -2
288
     1
 68
     0
279
    -2
289
     1
 69
     0
  0
VISUALSTYLE
  5
1292
102
{ACAD_REACTORS
330
128D
102
}
330
128D
100
AcDbVisualStyle
  2
2dWireframe
 70
     4
177
     2
291
     0
 71
     0
176
     1
 72
     2
176
     1
 73
     0
176
     1
 90
        0
176
     1
 40
0.6
176
     1
 41
30.0
176
     1
 62
     5
 63
     7
421
 16777215
176
     1
 74
     1
176
     1
 91
        4
176
     1
 64
     7
176
     1
 65
   257
176
     1
 75
     1
176
     1
175
     1
176
     1
 42
1.0
176
     1
 92
        0
176
     1
 66
   257
176
     1
 43
1.0
176
     1
 76
     1
176
     1
 77
     6
176
     1
 78
     2
176
     1
 67
     7
176
     1
 79
     5
176
     1
170
     0
176
     1
171
     0
176
     1
290
     0
176
     1
 93
        1
176
     1
 44
0.0
176
     1
173
     0
176
     1
  0
VISUALSTYLE
  5
1295
102
{ACAD_REACTORS
330
128D
102
}
330
128D
100
AcDbVisualStyle
  2
Basic
 70
     7
177
     2
291
     1
 71
     1
176
     1
 72
     0
176
     1
 73
     1
176
     1
 90
        0
176
     1
 40
0.6
176
     1
 41
30.0
176
     1
 62
     5
 63
     7
421
 16777215
176
     1
 74
     0
176
     1
 91
        4
176
     1
 64
     7
176
     1
 65
   257
176
     1
 75
     1
176
     1
175
     1
176
     1
 42
1.0
176
     1
 92
        8
176
     1
 66
     7
176
     1
 43
1.0
176
     1
 76
     1
176
     1
 77
     6
176
     1
 78
     2
176
     1
 67
     7
176
     1
 79
     5
176
     1
170
     0
176
     1
171
     0
176
     1
290
     0
176
     1
 93
        1
176
     1
 44
0.0
176
     1
173
     0
176
     1
  0
VISUALSTYLE
  5
1299
102
{ACAD_REACTORS
330
128D
102
}
330
128D
100
AcDbVisualStyle
  2
Brighten
 70
    12
177
     2
291
     1
 71
     2
176
     1
 72
     2
176
     1
 73
     0
176
     1
 90
        0
176
     1
 40
0.6
176
     1
 41
30.0
176
     1
 62
     5
 63
     7
421
 16777215
176
     1
 74
     1
176
     1
 91
        4
176
     1
 64
     7
176
     1
 65
   257
176
     1
 75
     1
176
     1
175
     1
176
     1
 42
1.0
176
     1
 92
        8
176
     1
 66
     7
176
     1
 43
1.0
176
     1
 76
     1
176
     1
 77
     6
176
     1
 78
     2
176
     1
 67
     7
176
     1
 79
     5
176
     1
170
     0
176
     1
171
     0
176
     1
290
     0
176
     1
 93
        1
176
     1
 44
50.0
176
     1
173
     0
176
     1
  0
VISUALSTYLE
  5
129D
102
{ACAD_REACTORS
330
128D
102
}
330
128D
100
AcDbVisualStyle
  2
ColorChange
 70
    16
177
     2
291
     1
 71
     2
176
     1
 72
     2
176
     1
 73
     3
176
     1
 90
        0
176
     1
 40
0.6
176
     1
 41
30.0
176
     1
 62
     5
 63
     8
421
  8421504
176
     1
 74
     1
176
     1
 91
        4
176
     1
 64
     7
176
     1
 65
   257
176
     1
 75
     1
176
     1
175
     1
176
     1
 42
1.0
176
     1
 92
        8
176
     1
 66
     8
424
  8421504
176
     1
 43
1.0
176
     1
 76
     1
176
     1
 77
     6
176
     1
 78
     2
176
     1
 67
     7
176
     1
 79
     5
176
     1
170
     0
176
     1
171
     0
176
     1
290
     0
176
     1
 93
        1
176
     1
 44
0.0
176
     1
173
     0
176
     1
  0
VISUALSTYLE
  5
1297
102
{ACAD_REACTORS
330
128D
102
}
330
128D
100
AcDbVisualStyle
  2
Conceptual
 70
     9
177
     2
291
     0
 71
     3
176
     1
 72
     2
176
     1
 73
     0
176
     1
 90
        0
176
     1
 40
0.6
176
     1
 41
30.0
176
     1
 62
     5
 63
     7
421
 16777215
176
     1
 74
     2
176
     1
 91
        2
176
     1
 64
     7
176
     1
 65
   257
176
     1
 75
     1
176
     1
175
     1
176
     1
 42
179.0
176
     1
 92
        8
176
     1
 66
     7
176
     1
 43
1.0
176
     1
 76
     1
176
     1
 77
     6
176
     1
 78
     2
176
     1
 67
     7
176
     1
 79
     3
176
     1
170
     0
176
     1
171
     0
176
     1
290
     0
176
     1
 93
        1
176
     1
 44
0.0
176
     1
173
     0
176
     1
  0
VISUALSTYLE
  5
1298
102
{ACAD_REACTORS
330
128D
102
}
330
128D
100
AcDbVisualStyle
  2
Dim
 70
    11
177
     2
291
     1
 71
     2
176
     1
 72
     2
176
     1
 73
     0
176
     1
 90
        0
176
     1
 40
0.6
176
     1
 41
30.0
176
     1
 62
     5
 63
     7
421
 16777215
176
     1
 74
     1
176
     1
 91
        4
176
     1
 64
     7
176
     1
 65
   257
176
     1
 75
     1
176
     1
175
     1
176
     1
 42
1.0
176
     1
 92
        8
176
     1
 66
     7
176
     1
 43
1.0
176
     1
 76
     1
176
     1
 77
     6
176
     1
 78
     2
176
     1
 67
     7
176
     1
 79
     5
176
     1
170
     0
176
     1
171
     0
176
     1
290
     0
176
     1
 93
        1
176
     1
 44
-50.0
176
     1
173
     0
176
     1
  0
VISUALSTYLE
  5
12A0
102
{ACAD_REACTORS
330
128D
102
}
330
128D
100
AcDbVisualStyle
  2
EdgeColorOff
 70
    22
177
     2
291
     1
 71
     2
176
     0
 72
     2
176
     0
 73
     0
176
     0
 90
        0
176
     0
 40
0.6
176
     0
 41
30.0
176
     0
 62
     5
 63
     7
421
 16777215
176
     0
 74
     1
176
     0
 91
        4
176
     0
 64
     7
176
     0
 65
   257
176
     0
 75
     1
176
     0
175
     1
176
     0
 42
1.0
176
     0
 92
        8
176
     2
 66
     7
176
     0
 43
1.0
176
     0
 76
     1
176
     0
 77
     6
176
     0
 78
     2
176
     0
 67
     7
176
     0
 79
     5
176
     0
170
     0
176
     0
171
     0
176
     0
290
     0
176
     0
 93
        1
176
     0
 44
0.0
176
     0
173
     0
176
     0
  0
VISUALSTYLE
  5
129C
102
{ACAD_REACTORS
330
128D
102
}
330
128D
100
AcDbVisualStyle
  2
Facepattern
 70
    15
177
     2
291
     1
 71
     2
176
     1
 72
     2
176
     1
 73
     0
176
     1
 90
        0
176
     1
 40
0.6
176
     1
 41
30.0
176
     1
 62
     5
 63
     7
421
 16777215
176
     1
 74
     1
176
     1
 91
        4
176
     1
 64
     7
176
     1
 65
   257
176
     1
 75
     1
176
     1
175
     1
176
     1
 42
1.0
176
     1
 92
        8
176
     1
 66
     7
176
     1
 43
1.0
176
     1
 76
     1
176
     1
 77
     6
176
     1
 78
     2
176
     1
 67
     7
176
     1
 79
     5
176
     1
170
     0
176
     1
171
     0
176
     1
290
     0
176
     1
 93
        1
176
     1
 44
0.0
176
     1
173
     0
176
     1
  0
VISUALSTYLE
  5
128E
102
{ACAD_REACTORS
330
128D
102
}
330
128D
100
AcDbVisualStyle
  2
Flat
 70
     0
177
     2
291
     1
 71
     2
176
     1
 72
     1
176
     1
 73
     1
176
     1
 90
        2
176
     1
 40
0.6
176
     1
 41
30.0
176
     1
 62
     5
 63
     7
421
 16777215
176
     1
 74
     0
176
     1
 91
        0
176
     1
 64
     7
176
     1
 65
   257
176
     1
 75
     1
176
     1
175
     1
176
     1
 42
1.0
176
     1
 92
        8
176
     1
 66
     7
176
     1
 43
1.0
176
     1
 76
     1
176
     1
 77
     6
176
     1
 78
     2
176
     1
 67
     7
176
     1
 79
     5
176
     1
170
     0
176
     1
171
     0
176
     1
290
     0
176
     1
 93
       13
176
     1
 44
0.0
176
     1
173
     0
176
     1
  0
VISUALSTYLE
  5
128F
102
{ACAD_REACTORS
330
128D
102
}
330
128D
100
AcDbVisualStyle
  2
FlatWithEdges
 70
     1
177
     2
291
     1
 71
     2
176
     1
 72
     1
176
     1
 73
     1
176
     1
 90
        2
176
     1
 40
0.6
176
     1
 41
30.0
176
     1
 62
     5
 63
     7
421
 16777215
176
     1
 74
     1
176
     1
 91
        0
176
     1
 64
     7
176
     1
 65
   257
176
     1
 75
     1
176
     1
175
     1
176
     1
 42
1.0
176
     1
 92
        0
176
     1
 66
   257
176
     1
 43
1.0
176
     1
 76
     1
176
     1
 77
     6
176
     1
 78
     2
176
     1
 67
     7
176
     1
 79
     5
176
     1
170
     0
176
     1
171
     0
176
     1
290
     0
176
     1
 93
       13
176
     1
 44
0.0
176
     1
173
     0
176
     1
  0
VISUALSTYLE
  5
1290
102
{ACAD_REACTORS
330
128D
102
}
330
128D
100
AcDbVisualStyle
  2
Gouraud
 70
     2
177
     2
291
     1
 71
     2
176
     1
 72
     2
176
     1
 73
     1
176
     1
 90
        2
176
     1
 40
0.6
176
     1
 41
30.0
176
     1
 62
     5
 63
     7
421
 16777215
176
     1
 74
     0
176
     1
 91
        0
176
     1
 64
     7
176
     1
 65
   257
176
     1
 75
     1
176
     1
175
     1
176
     1
 42
1.0
176
     1
 92
        0
176
     1
 66
     7
176
     1
 43
1.0
176
     1
 76
     1
176
     1
 77
     6
176
     1
 78
     2
176
     1
 67
     7
176
     1
 79
     5
176
     1
170
     0
176
     1
171
     0
176
     1
290
     0
176
     1
 93
       13
176
     1
 44
0.0
176
     1
173
     0
176
     1
  0
VISUALSTYLE
  5
1291
102
{ACAD_REACTORS
330
128D
102
}
330
128D
100
AcDbVisualStyle
  2
GouraudWithEdges
 70
     3
177
     2
291
     1
 71
     2
176
     1
 72
     2
176
     1
 73
     1
176
     1
 90
        2
176
     1
 40
0.6
176
     1
 41
30.0
176
     1
 62
     5
 63
     7
421
 16777215
176
     1
 74
     1
176
     1
 91
        0
176
     1
 64
     7
176
     1
 65
   257
176
     1
 75
     1
176
     1
175
     1
176
     1
 42
1.0
176
     1
 92
        0
176
     1
 66
   257
176
     1
 43
1.0
176
     1
 76
     1
176
     1
 77
     6
176
     1
 78
     2
176
     1
 67
     7
176
     1
 79
     5
176
     1
170
     0
176
     1
171
     0
176
     1
290
     0
176
     1
 93
       13
176
     1
 44
0.0
176
     1
173
     0
176
     1
  0
VISUALSTYLE
  5
1294
102
{ACAD_REACTORS
330
128D
102
}
330
128D
100
AcDbVisualStyle
  2
Hidden
 70
     6
177
     2
291
     0
 71
     1
176
     1
 72
     2
176
     1
 73
     2
176
     1
 90
        0
176
     1
 40
0.6
176
     1
 41
30.0
176
     1
 62
     5
 63
     7
421
 16777215
176
     1
 74
     2
176
     1
 91
        2
176
     1
 64
     7
176
     1
 65
   257
176
     1
 75
     2
176
     1
175
     1
176
     1
 42
40.0
176
     1
 92
        0
176
     1
 66
   257
176
     1
 43
1.0
176
     1
 76
     1
176
     1
 77
     6
176
     1
 78
     2
176
     1
 67
     7
176
     1
 79
     3
176
     1
170
     0
176
     1
171
     0
176
     1
290
     0
176
     1
 93
        1
176
     1
 44
0.0
176
     1
173
     0
176
     1
  0
VISUALSTYLE
  5
129E
102
{ACAD_REACTORS
330
128D
102
}
330
128D
100
AcDbVisualStyle
  2
JitterOff
 70
    20
177
     2
291
     1
 71
     2
176
     0
 72
     2
176
     0
 73
     0
176
     0
 90
        0
176
     0
 40
0.6
176
     0
 41
30.0
176
     0
 62
     5
 63
     7
421
 16777215
176
     0
 74
     1
176
     0
 91
        4
176
     0
 64
     7
176
     0
 65
   257
176
     0
 75
     1
176
     0
175
     1
176
     0
 42
1.0
176
     0
 92
       10
176
     2
 66
     7
176
     0
 43
1.0
176
     0
 76
     1
176
     0
 77
     6
176
     0
 78
     2
176
     0
 67
     7
176
     0
 79
     5
176
     0
170
     0
176
     0
171
     0
176
     0
290
     0
176
     0
 93
        1
176
     0
 44
0.0
176
     0
173
     0
176
     0
  0
VISUALSTYLE
  5
129B
102
{ACAD_REACTORS
330
128D
102
}
330
128D
100
AcDbVisualStyle
  2
Linepattern
 70
    14
177
     2
291
     1
 71
     2
176
     1
 72
     2
176
     1
 73
     0
176
     1
 90
        0
176
     1
 40
0.6
176
     1
 41
30.0
176
     1
 62
     5
 63
     7
421
 16777215
176
     1
 74
     1
176
     1
 91
        4
176
     1
 64
     7
176
     1
 65
   257
176
     1
 75
     7
176
     1
175
     7
176
     1
 42
1.0
176
     1
 92
        8
176
     1
 66
     7
176
     1
 43
1.0
176
     1
 76
     1
176
     1
 77
     6
176
     1
 78
     2
176
     1
 67
     7
176
     1
 79
     5
176
     1
170
     0
176
     1
171
     0
176
     1
290
     0
176
     1
 93
        1
176
     1
 44
0.0
176
     1
173
     0
176
     1
  0
VISUALSTYLE
  5
129F
102
{ACAD_REACTORS
330
128D
102
}
330
128D
100
AcDbVisualStyle
  2
OverhangOff
 70
    21
177
     2
291
     1
 71
     2
176
     0
 72
     2
176
     0
 73
     0
176
     0
 90
        0
176
     0
 40
0.6
176
     0
 41
30.0
176
     0
 62
     5
 63
     7
421
 16777215
176
     0
 74
     1
176
     0
 91
        4
176
     0
 64
     7
176
     0
 65
   257
176
     0
 75
     1
176
     0
175
     1
176
     0
 42
1.0
176
     0
 92
        9
176
     2
 66
     7
176
     0
 43
1.0
176
     0
 76
     1
176
     0
 77
     6
176
     0
 78
     2
176
     0
 67
     7
176
     0
 79
     5
176
     0
170
     0
176
     0
171
     0
176
     0
290
     0
176
     0
 93
        1
176
     0
 44
0.0
176
     0
173
     0
176
     0
  0
VISUALSTYLE
  5
1296
102
{ACAD_REACTORS
330
128D
102
}
330
128D
100
AcDbVisualStyle
  2
Realistic
 70
     8
177
     2
291
     0
 71
     2
176
     1
 72
     3
176
     1
 73
     0
176
     1
 90
        2
176
     1
 40
0.6
176
     1
 41
30.0
176
     1
 62
     5
 63
     7
421
 16777215
176
     1
 74
     0
176
     1
 91
        0
176
     1
 64
     7
176
     1
 65
   257
176
     1
 75
     1
176
     1
175
     1
176
     1
 42
1.0
176
     1
 92
        8
176
     1
 66
   257
176
     1
 43
1.0
176
     1
 76
     1
176
     1
 77
     6
176
     1
 78
     2
176
     1
 67
     7
176
     1
 79
     3
176
     1
170
     0
176
     1
171
     0
176
     1
290
     0
176
     1
 93
       13
176
     1
 44
0.0
176
     1
173
     0
176
     1
  0
VISUALSTYLE
  5
12A5
102
{ACAD_REACTORS
330
128D
102
}
330
128D
100
AcDbVisualStyle
  2
Shaded
 70
    27
177
     2
291
     0
 71
     2
176
     1
 72
     2
176
     1
 73
     1
176
     1
 90
        2
176
     1
 40
0.6
176
     1
 41
30.0
176
     1
 62
     5
 63
     7
421
 16777215
176
     1
 74
     0
176
     1
 91
        4
176
     1
 64
     7
176
     1
 65
   257
176
     1
 75
     1
176
     1
175
     1
176
     1
 42
1.0
176
     1
 92
        8
176
     1
 66
   257
176
     1
 43
1.0
176
     1
 76
     1
176
     1
 77
     6
176
     1
 78
     2
176
     1
 67
     8
425
  7895160
176
     1
 79
     3
176
     1
170
     0
176
     1
171
     0
176
     1
290
     0
176
     1
 93
        5
176
     1
 44
0.0
176
     1
173
     0
176
     1
  0
VISUALSTYLE
  5
12A4
102
{ACAD_REACTORS
330
128D
102
}
330
128D
100
AcDbVisualStyle
  2
Shaded with edges
 70
    26
177
     2
291
     0
 71
     2
176
     1
 72
     2
176
     1
 73
     1
176
     1
 90
        2
176
     1
 40
0.6
176
     1
 41
30.0
176
     1
 62
     5
 63
     7
421
 16777215
176
     1
 74
     1
176
     1
 91
       10
176
     1
 64
     7
176
     1
 65
   257
176
     1
 75
     2
176
     1
175
     1
176
     1
 42
1.0
176
     1
 92
        8
176
     1
 66
   257
176
     1
 43
1.0
176
     1
 76
     1
176
     1
 77
     6
176
     1
 78
     2
176
     1
 67
     7
176
     1
 79
     3
176
     1
170
     0
176
     1
171
     0
176
     1
290
     0
176
     1
 93
        5
176
     1
 44
0.0
176
     1
173
     0
176
     1
  0
VISUALSTYLE
  5
12A1
102
{ACAD_REACTORS
330
128D
102
}
330
128D
100
AcDbVisualStyle
  2
Shades of Gray
 70
    23
177
     2
291
     0
 71
     2
176
     1
 72
     2
176
     1
 73
     3
176
     1
 90
        0
176
     1
 40
0.6
176
     1
 41
30.0
176
     1
 62
     5
 63
     7
421
 16777215
176
     1
 74
     2
176
     1
 91
        2
176
     1
 64
     7
176
     1
 65
     7
176
     1
 75
     1
176
     1
175
     1
176
     1
 42
40.0
176
     1
 92
        8
176
     1
 66
     7
176
     1
 43
1.0
176
     1
 76
     1
176
     1
 77
     6
176
     1
 78
     2
176
     1
 67
     7
176
     1
 79
     3
176
     1
170
     0
176
     1
171
     0
176
     1
290
     0
176
     1
 93
        1
176
     1
 44
0.0
176
     1
173
     0
176
     1
  0
VISUALSTYLE
  5
12A2
102
{ACAD_REACTORS
330
128D
102
}
330
128D
100
AcDbVisualStyle
  2
Sketchy
 70
    24
177
     2
291
     0
 71
     1
176
     1
 72
     2
176
     1
 73
     2
176
     1
 90
        0
176
     1
 40
0.6
176
     1
 41
30.0
176
     1
 62
     5
 63
     7
421
 16777215
176
     1
 74
     2
176
     1
 91
        2
176
     1
 64
     7
176
     1
 65
     7
176
     1
 75
     1
176
     1
175
     1
176
     1
 42
40.0
176
     1
 92
       11
176
     1
 66
     7
176
     1
 43
1.0
176
     1
 76
     1
176
     1
 77
     6
176
     1
 78
     2
176
     1
 67
     7
176
     1
 79
     6
176
     1
170
     0
176
     1
171
     0
176
     1
290
     0
176
     1
 93
        1
176
     1
 44
0.0
176
     1
173
     0
176
     1
  0
VISUALSTYLE
  5
129A
102
{ACAD_REACTORS
330
128D
102
}
330
128D
100
AcDbVisualStyle
  2
Thicken
 70
    13
177
     2
291
     1
 71
     2
176
     1
 72
     2
176
     1
 73
     0
176
     1
 90
        0
176
     1
 40
0.6
176
     1
 41
30.0
176
     1
 62
     5
 63
     7
421
 16777215
176
     1
 74
     1
176
     1
 91
        4
176
     1
 64
     7
176
     1
 65
   257
176
     1
 75
     1
176
     1
175
     1
176
     1
 42
1.0
176
     1
 92
       12
176
     1
 66
     7
176
     1
 43
1.0
176
     1
 76
     1
176
     1
 77
     6
176
     1
 78
     2
176
     1
 67
     7
176
     1
 79
     5
176
     1
170
     0
176
     1
171
     0
176
     1
290
     0
176
     1
 93
        1
176
     1
 44
0.0
176
     1
173
     0
176
     1
  0
VISUALSTYLE
  5
1293
102
{ACAD_REACTORS
330
128D
102
}
330
128D
100
AcDbVisualStyle
  2
Wireframe
 70
     5
177
     2
291
     0
 71
     0
176
     1
 72
     2
176
     1
 73
     0
176
     1
 90
        0
176
     1
 40
0.6
176
     1
 41
30.0
176
     1
 62
     5
 63
     7
421
 16777215
176
     1
 74
     1
176
     1
 91
        4
176
     1
 64
     7
176
     1
 65
   257
176
     1
 75
     1
176
     1
175
     1
176
     1
 42
1.0
176
     1
 92
        0
176
     1
 66
   257
176
     1
 43
1.0
176
     1
 76
     1
176
     1
 77
     6
176
     1
 78
     2
176
     1
 67
     7
176
     1
 79
     3
176
     1
170
     0
176
     1
171
     0
176
     1
290
     0
176
     1
 93
        1
176
     1
 44
0.0
176
     1
173
     0
176
     1
  0
VISUALSTYLE
  5
12A3
102
{ACAD_REACTORS
330
128D
102
}
330
128D
100
AcDbVisualStyle
  2
X-Ray
 70
    25
177
     2
291
     0
 71
     2
176
     1
 72
     2
176
     1
 73
     1
176
     1
 90
        1
176
     1
 40
0.5
176
     1
 41
30.0
176
     1
 62
     5
 63
     7
421
 16777215
176
     1
 74
     1
176
     1
 91
        0
176
     1
 64
     7
176
     1
 65
   257
176
     1
 75
     1
176
     1
175
     1
176
     1
 42
1.0
176
     1
 92
        8
176
     1
 66
     7
176
     1
 43
1.0
176
     1
 76
     1
176
     1
 77
     6
176
     1
 78
     2
176
     1
 67
     7
176
     1
 79
     3
176
     1
170
     0
176
     1
171
     0
176
     1
290
     0
176
     1
 93
       13
176
     1
 44
0.0
176
     1
173
     0
176
     1
  0
DICTIONARYVAR
  5
12DE
102
{ACAD_REACTORS
330
12DD
102
}
330
12DD
100
DictionaryVariables
280
     0
  1
1:1
  0
DICTIONARYVAR
  5
1334
102
{ACAD_REACTORS
330
12DD
102
}
330
12DD
100
DictionaryVariables
280
     0
  1
Standard
  0
DICTIONARYVAR
  5
12E2
102
{ACAD_REACTORS
330
12DD
102
}
330
12DD
100
DictionaryVariables
280
     0
  1
Standard
  0
DICTIONARYVAR
  5
12E4
102
{ACAD_REACTORS
330
12DD
102
}
330
12DD
100
DictionaryVariables
280
     0
  1
0
  0
DICTIONARYVAR
  5
12E5
102
{ACAD_REACTORS
330
12DD
102
}
330
12DD
100
DictionaryVariables
280
     0
  1
0
  0
DICTIONARY
  5
1331
330
12CC
100
AcDbDictionary
280
     1
281
     1
  3
ACAD_ROUNDTRIP_2008_TABLESTYLE_CELLSTYLEMAP
360
1332
  0
CELLSTYLEMAP
  5
1332
102
{ACAD_REACTORS
330
1331
102
}
330
1331
100
AcDbCellStyleMap
 90
        3
300
CELLSTYLE
  1
TABLEFORMAT_BEGIN
 90
        5
170
     1
 91
        0
 92
        0
 62
   257
 93
        1
300
CONTENTFORMAT
  1
CONTENTFORMAT_BEGIN
 90
        0
 91
        0
 92
        4
 93
        0
300

 40
0.0
140
1.0
 94
        5
 62
     0
340
11
144
6.0
309
CONTENTFORMAT_END
171
     1
301
MARGIN
  1
CELLMARGIN_BEGIN
 40
1.5
 40
1.5
 40
1.5
 40
1.5
 40
1.5
 40
1.5
309
CELLMARGIN_END
 94
        6
 95
        1
302
GRIDFORMAT
  1
GRIDFORMAT_BEGIN
 90
        0
 91
        1
 62
     0
 92
       -2
340
14
 93
        0
 40
0.045
309
GRIDFORMAT_END
 95
        2
302
GRIDFORMAT
  1
GRIDFORMAT_BEGIN
 90
        0
 91
        1
 62
     0
 92
       -2
340
14
 93
        0
 40
0.045
309
GRIDFORMAT_END
 95
        4
302
GRIDFORMAT
  1
GRIDFORMAT_BEGIN
 90
        0
 91
        1
 62
     0
 92
       -2
340
14
 93
        0
 40
0.045
309
GRIDFORMAT_END
 95
        8
302
GRIDFORMAT
  1
GRIDFORMAT_BEGIN
 90
        0
 91
        1
 62
     0
 92
       -2
340
14
 93
        0
 40
0.045
309
GRIDFORMAT_END
 95
       16
302
GRIDFORMAT
  1
GRIDFORMAT_BEGIN
 90
        0
 91
        1
 62
     0
 92
       -2
340
14
 93
        0
 40
0.045
309
GRIDFORMAT_END
 95
       32
302
GRIDFORMAT
  1
GRIDFORMAT_BEGIN
 90
        0
 91
        1
 62
     0
 92
       -2
340
14
 93
        0
 40
0.045
309
GRIDFORMAT_END
309
TABLEFORMAT_END
  1
CELLSTYLE_BEGIN
 90
        1
 91
        1
300
_TITLE
309
CELLSTYLE_END
300
CELLSTYLE
  1
TABLEFORMAT_BEGIN
 90
        5
170
     1
 91
        0
 92
        0
 62
   257
 93
        1
300
CONTENTFORMAT
  1
CONTENTFORMAT_BEGIN
 90
        0
 91
        0
 92
        4
 93
        0
300

 40
0.0
140
1.0
 94
        5
 62
     0
340
11
144
4.5
309
CONTENTFORMAT_END
171
     1
301
MARGIN
  1
CELLMARGIN_BEGIN
 40
1.5
 40
1.5
 40
1.5
 40
1.5
 40
1.5
 40
1.5
309
CELLMARGIN_END
 94
        6
 95
        1
302
GRIDFORMAT
  1
GRIDFORMAT_BEGIN
 90
        0
 91
        1
 62
     0
 92
       -2
340
14
 93
        0
 40
0.045
309
GRIDFORMAT_END
 95
        2
302
GRIDFORMAT
  1
GRIDFORMAT_BEGIN
 90
        0
 91
        1
 62
     0
 92
       -2
340
14
 93
        0
 40
0.045
309
GRIDFORMAT_END
 95
        4
302
GRIDFORMAT
  1
GRIDFORMAT_BEGIN
 90
        0
 91
        1
 62
     0
 92
       -2
340
14
 93
        0
 40
0.045
309
GRIDFORMAT_END
 95
        8
302
GRIDFORMAT
  1
GRIDFORMAT_BEGIN
 90
        0
 91
        1
 62
     0
 92
       -2
340
14
 93
        0
 40
0.045
309
GRIDFORMAT_END
 95
       16
302
GRIDFORMAT
  1
GRIDFORMAT_BEGIN
 90
        0
 91
        1
 62
     0
 92
       -2
340
14
 93
        0
 40
0.045
309
GRIDFORMAT_END
 95
       32
302
GRIDFORMAT
  1
GRIDFORMAT_BEGIN
 90
        0
 91
        1
 62
     0
 92
       -2
340
14
 93
        0
 40
0.045
309
GRIDFORMAT_END
309
TABLEFORMAT_END
  1
CELLSTYLE_BEGIN
 90
        2
 91
        1
300
_HEADER
309
CELLSTYLE_END
300
CELLSTYLE
  1
TABLEFORMAT_BEGIN
 90
        5
170
     1
 91
        0
 92
        0
 62
   257
 93
        1
300
CONTENTFORMAT
  1
CONTENTFORMAT_BEGIN
 90
        0
 91
        0
 92
        4
 93
        0
300

 40
0.0
140
1.0
 94
        2
 62
     0
340
11
144
4.5
309
CONTENTFORMAT_END
171
     1
301
MARGIN
  1
CELLMARGIN_BEGIN
 40
1.5
 40
1.5
 40
1.5
 40
1.5
 40
1.5
 40
1.5
309
CELLMARGIN_END
 94
        6
 95
        1
302
GRIDFORMAT
  1
GRIDFORMAT_BEGIN
 90
        0
 91
        1
 62
     0
 92
       -2
340
14
 93
        0
 40
0.045
309
GRIDFORMAT_END
 95
        2
302
GRIDFORMAT
  1
GRIDFORMAT_BEGIN
 90
        0
 91
        1
 62
     0
 92
       -2
340
14
 93
        0
 40
0.045
309
GRIDFORMAT_END
 95
        4
302
GRIDFORMAT
  1
GRIDFORMAT_BEGIN
 90
        0
 91
        1
 62
     0
 92
       -2
340
14
 93
        0
 40
0.045
309
GRIDFORMAT_END
 95
        8
302
GRIDFORMAT
  1
GRIDFORMAT_BEGIN
 90
        0
 91
        1
 62
     0
 92
       -2
340
14
 93
        0
 40
0.045
309
GRIDFORMAT_END
 95
       16
302
GRIDFORMAT
  1
GRIDFORMAT_BEGIN
 90
        0
 91
        1
 62
     0
 92
       -2
340
14
 93
        0
 40
0.045
309
GRIDFORMAT_END
 95
       32
302
GRIDFORMAT
  1
GRIDFORMAT_BEGIN
 90
        0
 91
        1
 62
     0
 92
       -2
340
14
 93
        0
 40
0.045
309
GRIDFORMAT_END
309
TABLEFORMAT_END
  1
CELLSTYLE_BEGIN
 90
        3
 91
        2
300
_DATA
309
CELLSTYLE_END
  0
ENDSEC
  0
EOF
