  0
SECTION
  2
HEADER
  9
$ACADVER
  1
AC1027
  9
$ACADMAINTVER
 70
     8
  9
$DWGCODEPAGE
  3
ANSI_932
  9
$REQUIREDVERSIONS
160
                 0
  9
$LASTSAVEDBY
  1
akihiro
  9
$INSBASE
 10
0.0
 20
0.0
 30
0.0
  9
$EXTMIN
 10
38.96142414213294
 20
42.91341073075731
 30
0.0
  9
$EXTMAX
 10
196.3585197892364
 20
194.9087154646469
 30
0.0
  9
$LIMMIN
 10
0.0
 20
0.0
  9
$LIMMAX
 10
420.0
 20
297.0
  9
$ORTHOMODE
 70
     0
  9
$REGENMODE
 70
     1
  9
$FILLMODE
 70
     1
  9
$QTEXTMODE
 70
     0
  9
$MIRRTEXT
 70
     0
  9
$LTSCALE
 40
0.2
  9
$ATTMODE
 70
     1
  9
$TEXTSIZE
 40
3.0
  9
$TRACEWID
 40
1.0
  9
$TEXTSTYLE
  7
Standard
  9
$CLAYER
  8
文字
  9
$CELTYPE
  6
ByLayer
  9
$CECOLOR
 62
   256
  9
$CELTSCALE
 40
1.0
  9
$DISPSILH
 70
     0
  9
$DIMSCALE
 40
1.0
  9
$DIMASZ
 40
2.5
  9
$DIMEXO
 40
0.625
  9
$DIMDLI
 40
3.75
  9
$DIMRND
 40
0.0
  9
$DIMDLE
 40
0.0
  9
$DIMEXE
 40
1.25
  9
$DIMTP
 40
0.0
  9
$DIMTM
 40
0.0
  9
$DIMTXT
 40
2.5
  9
$DIMCEN
 40
2.5
  9
$DIMTSZ
 40
0.0
  9
$DIMTOL
 70
     0
  9
$DIMLIM
 70
     0
  9
$DIMTIH
 70
     0
  9
$DIMTOH
 70
     0
  9
$DIMSE1
 70
     0
  9
$DIMSE2
 70
     0
  9
$DIMTAD
 70
     1
  9
$DIMZIN
 70
     8
  9
$DIMBLK
  1

  9
$DIMASO
 70
     1
  9
$DIMSHO
 70
     1
  9
$DIMPOST
  1

  9
$DIMAPOST
  1

  9
$DIMALT
 70
     0
  9
$DIMALTD
 70
     3
  9
$DIMALTF
 40
0.03937007874016
  9
$DIMLFAC
 40
1.0
  9
$DIMTOFL
 70
     1
  9
$DIMTVP
 40
0.0
  9
$DIMTIX
 70
     0
  9
$DIMSOXD
 70
     0
  9
$DIMSAH
 70
     0
  9
$DIMBLK1
  1

  9
$DIMBLK2
  1

  9
$DIMSTYLE
  2
ISO-25
  9
$DIMCLRD
 70
     0
  9
$DIMCLRE
 70
     0
  9
$DIMCLRT
 70
     0
  9
$DIMTFAC
 40
1.0
  9
$DIMGAP
 40
0.625
  9
$DIMJUST
 70
     0
  9
$DIMSD1
 70
     0
  9
$DIMSD2
 70
     0
  9
$DIMTOLJ
 70
     0
  9
$DIMTZIN
 70
     8
  9
$DIMALTZ
 70
     0
  9
$DIMALTTZ
 70
     0
  9
$DIMUPT
 70
     0
  9
$DIMDEC
 70
     2
  9
$DIMTDEC
 70
     2
  9
$DIMALTU
 70
     2
  9
$DIMALTTD
 70
     3
  9
$DIMTXSTY
  7
Standard
  9
$DIMAUNIT
 70
     0
  9
$DIMADEC
 70
     0
  9
$DIMALTRND
 40
0.0
  9
$DIMAZIN
 70
     0
  9
$DIMDSEP
 70
    46
  9
$DIMATFIT
 70
     3
  9
$DIMFRAC
 70
     0
  9
$DIMLDRBLK
  1

  9
$DIMLUNIT
 70
     2
  9
$DIMLWD
 70
    -2
  9
$DIMLWE
 70
    -2
  9
$DIMTMOVE
 70
     0
  9
$DIMFXL
 40
1.0
  9
$DIMFXLON
 70
     0
  9
$DIMJOGANG
 40
0.7853981633974483
  9
$DIMTFILL
 70
     0
  9
$DIMTFILLCLR
 70
     0
  9
$DIMARCSYM
 70
     0
  9
$DIMLTYPE
  6

  9
$DIMLTEX1
  6

  9
$DIMLTEX2
  6

  9
$DIMTXTDIRECTION
 70
     0
  9
$LUNITS
 70
     2
  9
$LUPREC
 70
     4
  9
$SKETCHINC
 40
1.0
  9
$FILLETRAD
 40
2.0
  9
$AUNITS
 70
     0
  9
$AUPREC
 70
     0
  9
$MENU
  1
.
  9
$ELEVATION
 40
0.0
  9
$PELEVATION
 40
0.0
  9
$THICKNESS
 40
0.0
  9
$LIMCHECK
 70
     0
  9
$CHAMFERA
 40
1.0
  9
$CHAMFERB
 40
1.0
  9
$CHAMFERC
 40
0.0
  9
$CHAMFERD
 40
0.0
  9
$SKPOLY
 70
     0
  9
$TDCREATE
 40
2452936.788310359
  9
$TDUCREATE
 40
2452936.413310359
  9
$TDUPDATE
 40
2456721.486216667
  9
$TDUUPDATE
 40
2456721.111216667
  9
$TDINDWG
 40
0.6264792245
  9
$TDUSRTIMER
 40
2456721.110542755
  9
$USRTIMER
 70
     1
  9
$ANGBASE
 50
0.0
  9
$ANGDIR
 70
     0
  9
$PDMODE
 70
     0
  9
$PDSIZE
 40
0.0
  9
$PLINEWID
 40
0.0
  9
$SPLFRAME
 70
     0
  9
$SPLINETYPE
 70
     6
  9
$SPLINESEGS
 70
     8
  9
$HANDSEED
  5
14F4
  9
$SURFTAB1
 70
     6
  9
$SURFTAB2
 70
     6
  9
$SURFTYPE
 70
     6
  9
$SURFU
 70
     6
  9
$SURFV
 70
     6
  9
$UCSBASE
  2

  9
$UCSNAME
  2

  9
$UCSORG
 10
0.0
 20
0.0
 30
0.0
  9
$UCSXDIR
 10
1.0
 20
0.0
 30
0.0
  9
$UCSYDIR
 10
0.0
 20
1.0
 30
0.0
  9
$UCSORTHOREF
  2

  9
$UCSORTHOVIEW
 70
     0
  9
$UCSORGTOP
 10
0.0
 20
0.0
 30
0.0
  9
$UCSORGBOTTOM
 10
0.0
 20
0.0
 30
0.0
  9
$UCSORGLEFT
 10
0.0
 20
0.0
 30
0.0
  9
$UCSORGRIGHT
 10
0.0
 20
0.0
 30
0.0
  9
$UCSORGFRONT
 10
0.0
 20
0.0
 30
0.0
  9
$UCSORGBACK
 10
0.0
 20
0.0
 30
0.0
  9
$PUCSBASE
  2

  9
$PUCSNAME
  2

  9
$PUCSORG
 10
0.0
 20
0.0
 30
0.0
  9
$PUCSXDIR
 10
1.0
 20
0.0
 30
0.0
  9
$PUCSYDIR
 10
0.0
 20
1.0
 30
0.0
  9
$PUCSORTHOREF
  2

  9
$PUCSORTHOVIEW
 70
     0
  9
$PUCSORGTOP
 10
0.0
 20
0.0
 30
0.0
  9
$PUCSORGBOTTOM
 10
0.0
 20
0.0
 30
0.0
  9
$PUCSORGLEFT
 10
0.0
 20
0.0
 30
0.0
  9
$PUCSORGRIGHT
 10
0.0
 20
0.0
 30
0.0
  9
$PUCSORGFRONT
 10
0.0
 20
0.0
 30
0.0
  9
$PUCSORGBACK
 10
0.0
 20
0.0
 30
0.0
  9
$USERI1
 70
     0
  9
$USERI2
 70
     0
  9
$USERI3
 70
     0
  9
$USERI4
 70
     0
  9
$USERI5
 70
     0
  9
$USERR1
 40
0.0
  9
$USERR2
 40
0.0
  9
$USERR3
 40
0.0
  9
$USERR4
 40
0.0
  9
$USERR5
 40
0.0
  9
$WORLDVIEW
 70
     1
  9
$SHADEDGE
 70
     3
  9
$SHADEDIF
 70
    70
  9
$TILEMODE
 70
     1
  9
$MAXACTVP
 70
    64
  9
$PINSBASE
 10
0.0
 20
0.0
 30
0.0
  9
$PLIMCHECK
 70
     0
  9
$PEXTMIN
 10
0.0
 20
0.0
 30
0.0
  9
$PEXTMAX
 10
0.0
 20
0.0
 30
0.0
  9
$PLIMMIN
 10
-6.35
 20
-6.35
  9
$PLIMMAX
 10
413.8083333333333
 20
290.6888888888888
  9
$UNITMODE
 70
     0
  9
$VISRETAIN
 70
     1
  9
$PLINEGEN
 70
     0
  9
$PSLTSCALE
 70
     1
  9
$TREEDEPTH
 70
  3020
  9
$CMLSTYLE
  2
Standard
  9
$CMLJUST
 70
     0
  9
$CMLSCALE
 40
20.0
  9
$PROXYGRAPHICS
 70
     1
  9
$MEASUREMENT
 70
     1
  9
$CELWEIGHT
370
    -1
  9
$ENDCAPS
280
     0
  9
$JOINSTYLE
280
     0
  9
$LWDISPLAY
290
     0
  9
$INSUNITS
 70
     4
  9
$HYPERLINKBASE
  1

  9
$STYLESHEET
  1

  9
$XEDIT
290
     1
  9
$CEPSNTYPE
380
     0
  9
$PSTYLEMODE
290
     1
  9
$FINGERPRINTGUID
  2
{86E58535-AB5B-4AFE-AB1B-6758AAB7EA7D}
  9
$VERSIONGUID
  2
{EDD7FE5E-8925-4A92-A384-5AC8294C2E9A}
  9
$EXTNAMES
290
     1
  9
$PSVPSCALE
 40
0.0
  9
$OLESTARTUP
290
     0
  9
$SORTENTS
280
   127
  9
$INDEXCTL
280
     0
  9
$HIDETEXT
280
     1
  9
$XCLIPFRAME
280
     0
  9
$HALOGAP
280
     0
  9
$OBSCOLOR
 70
   257
  9
$OBSLTYPE
280
     0
  9
$INTERSECTIONDISPLAY
280
     0
  9
$INTERSECTIONCOLOR
 70
   257
  9
$DIMASSOC
280
     2
  9
$PROJECTNAME
  1

  9
$CAMERADISPLAY
290
     0
  9
$LENSLENGTH
 40
50.0
  9
$CAMERAHEIGHT
 40
0.0
  9
$STEPSPERSEC
 40
2.0
  9
$STEPSIZE
 40
6.0
  9
$3DDWFPREC
 40
2.0
  9
$PSOLWIDTH
 40
0.25
  9
$PSOLHEIGHT
 40
4.0
  9
$LOFTANG1
 40
1.570796326794897
  9
$LOFTANG2
 40
1.570796326794897
  9
$LOFTMAG1
 40
0.0
  9
$LOFTMAG2
 40
0.0
  9
$LOFTPARAM
 70
     7
  9
$LOFTNORMALS
280
     1
  9
$LATITUDE
 40
37.795
  9
$LONGITUDE
 40
-122.394
  9
$NORTHDIRECTION
 40
0.0
  9
$TIMEZONE
 70
 -8000
  9
$LIGHTGLYPHDISPLAY
280
     1
  9
$TILEMODELIGHTSYNCH
280
     1
  9
$SOLIDHIST
280
     1
  9
$SHOWHIST
280
     1
  9
$DWFFRAME
280
     2
  9
$DGNFRAME
280
     2
  9
$REALWORLDSCALE
290
     1
  9
$INTERFERECOLOR
 62
   256
  9
$CSHADOW
280
     0
  9
$SHADOWPLANELOCATION
 40
0.0
  0
ENDSEC
  0
SECTION
  2
CLASSES
  0
CLASS
  1
ACDBDICTIONARYWDFLT
  2
AcDbDictionaryWithDefault
  3
ObjectDBX Classes
 90
        0
 91
        7
280
     0
281
     0
  0
CLASS
  1
DIMASSOC
  2
AcDbDimAssoc
  3
"AcDbDimAssoc|Product Desc:     AcDim ARX App For Dimension|Company:          Autodesk, Inc.|WEB Address:      www.autodesk.com"
 90
        0
 91
        5
280
     0
281
     0
  0
CLASS
  1
VISUALSTYLE
  2
AcDbVisualStyle
  3
ObjectDBX Classes
 90
     4095
 91
        7
280
     0
281
     0
  0
CLASS
  1
SCALE
  2
AcDbScale
  3
ObjectDBX Classes
 90
     1153
 91
        7
280
     0
281
     0
  0
CLASS
  1
MATERIAL
  2
AcDbMaterial
  3
ObjectDBX Classes
 90
     1153
 91
        7
280
     0
281
     0
  0
CLASS
  1
TABLESTYLE
  2
AcDbTableStyle
  3
ObjectDBX Classes
 90
     4095
 91
        7
280
     0
281
     0
  0
CLASS
  1
SUN
  2
AcDbSun
  3
SCENEOE
 90
     1153
 91
        7
280
     0
281
     0
  0
CLASS
  1
RASTERVARIABLES
  2
AcDbRasterVariables
  3
ISM
 90
        0
 91
        7
280
     0
281
     0
  0
CLASS
  1
DICTIONARYVAR
  2
AcDbDictionaryVar
  3
ObjectDBX Classes
 90
        0
 91
        5
280
     0
281
     0
  0
CLASS
  1
CELLSTYLEMAP
  2
AcDbCellStyleMap
  3
ObjectDBX Classes
 90
     1152
 91
        5
280
     0
281
     0
  0
ENDSEC
  0
SECTION
  2
TABLES
  0
TABLE
  2
VPORT
  5
8
330
0
100
AcDbSymbolTable
 70
     1
  0
VPORT
  5
139A
330
8
100
AcDbSymbolTableRecord
100
AcDbViewportTableRecord
  2
*Active
 70
     0
 10
0.0
 20
0.0
 11
1.0
 21
1.0
 12
117.6599719656847
 22
118.9110630977021
 13
0.0
 23
0.0
 14
10.0
 24
10.0
 15
10.0
 25
10.0
 16
0.0
 26
0.0
 36
1.0
 17
0.0
 27
0.0
 37
0.0
 40
155.0352108285674
 41
1.102362204724409
 42
50.0
 43
0.0
 44
0.0
 50
0.0
 51
0.0
 71
    16
 72
  1000
 73
     1
 74
     3
 75
     0
 76
     0
 77
     0
 78
     0
281
     0
 65
     1
110
0.0
120
0.0
130
0.0
111
1.0
121
0.0
131
0.0
112
0.0
122
1.0
132
0.0
 79
     0
146
0.0
348
13A0
 60
     3
 61
     5
292
     1
282
     1
141
0.0
142
0.0
 63
   256
361
13DC
  0
ENDTAB
  0
TABLE
  2
LTYPE
  5
5
330
0
100
AcDbSymbolTable
 70
     6
  0
LTYPE
  5
14
330
5
100
AcDbSymbolTableRecord
100
AcDbLinetypeTableRecord
  2
ByBlock
 70
     0
  3

 72
    65
 73
     0
 40
0.0
  0
LTYPE
  5
15
330
5
100
AcDbSymbolTableRecord
100
AcDbLinetypeTableRecord
  2
ByLayer
 70
     0
  3

 72
    65
 73
     0
 40
0.0
  0
LTYPE
  5
16
330
5
100
AcDbSymbolTableRecord
100
AcDbLinetypeTableRecord
  2
Continuous
 70
     0
  3
Solid line
 72
    65
 73
     0
 40
0.0
  0
LTYPE
  5
35
330
5
100
AcDbSymbolTableRecord
100
AcDbLinetypeTableRecord
  2
ACAD_ISO08W100
 70
     0
  3
ISO long-dash short-dash ____ __ ____ __ ____ _
 72
    65
 73
     4
 40
36.0
 49
24.0
 74
     0
 49
-3.0
 74
     0
 49
6.0
 74
     0
 49
-3.0
 74
     0
  0
LTYPE
  5
127
330
5
100
AcDbSymbolTableRecord
100
AcDbLinetypeTableRecord
  2
HIDDENX2
 70
     0
  3
Hidden (2x) ____ ____ ____ ____ ____ ____ ____
 72
    65
 73
     2
 40
19.05
 49
12.7
 74
     0
 49
-6.35
 74
     0
  0
LTYPE
  5
5EC
330
5
100
AcDbSymbolTableRecord
100
AcDbLinetypeTableRecord
  2
CENTER
 70
     0
  3
Center ____ _ ____ _ ____ _ ____ _ ____ _ ____
 72
    65
 73
     4
 40
50.8
 49
31.75
 74
     0
 49
-6.35
 74
     0
 49
6.35
 74
     0
 49
-6.35
 74
     0
  0
LTYPE
  5
5ED
330
5
100
AcDbSymbolTableRecord
100
AcDbLinetypeTableRecord
  2
ACAD_ISO02W100
 70
     0
  3
ISO dash __ __ __ __ __ __ __ __ __ __ __ __ __
 72
    65
 73
     2
 40
15.0
 49
12.0
 74
     0
 49
-3.0
 74
     0
  0
LTYPE
  5
605
330
5
100
AcDbSymbolTableRecord
100
AcDbLinetypeTableRecord
  2
DASHED
 70
     0
  3
Dashed __ __ __ __ __ __ __ __ __ __ __ __ __ _
 72
    65
 73
     2
 40
19.05
 49
12.7
 74
     0
 49
-6.35
 74
     0
  0
ENDTAB
  0
TABLE
  2
LAYER
  5
2
330
0
100
AcDbSymbolTable
 70
     9
  0
LAYER
  5
10
330
2
100
AcDbSymbolTableRecord
100
AcDbLayerTableRecord
  2
0
 70
     0
 62
     7
  6
Continuous
370
    -3
390
F
347
13D8
348
0
  0
LAYER
  5
2E
330
2
100
AcDbSymbolTableRecord
100
AcDbLayerTableRecord
  2
枠
 70
     0
 62
     1
  6
Continuous
370
    30
390
F
347
13D8
348
0
  0
LAYER
  5
2F
330
2
100
AcDbSymbolTableRecord
100
AcDbLayerTableRecord
  2
文字
 70
     0
 62
     7
  6
Continuous
370
    25
390
F
347
13D8
348
0
  0
LAYER
  5
36
330
2
100
AcDbSymbolTableRecord
100
AcDbLayerTableRecord
  2
中心線
 70
     0
 62
     7
  6
CENTER
370
    30
390
F
347
13D8
348
0
  0
LAYER
  5
52
330
2
100
AcDbSymbolTableRecord
100
AcDbLayerTableRecord
  2
隠れ線
 70
     0
 62
     2
  6
Continuous
290
     0
370
    -3
390
F
347
13D8
348
0
  0
LAYER
  5
128
330
2
100
AcDbSymbolTableRecord
100
AcDbLayerTableRecord
  2
実線
 70
     0
 62
     7
  6
Continuous
370
    50
390
F
347
13D8
348
0
  0
LAYER
  5
129
330
2
100
AcDbSymbolTableRecord
100
AcDbLayerTableRecord
  2
破線
 70
     0
 62
     7
  6
DASHED
370
    20
390
F
347
13D8
348
0
  0
LAYER
  5
69A
330
2
100
AcDbSymbolTableRecord
100
AcDbLayerTableRecord
  2
Defpoints
 70
     0
 62
     7
  6
Continuous
290
     0
370
    -3
390
F
347
13D8
348
0
  0
LAYER
  5
1483
330
2
100
AcDbSymbolTableRecord
100
AcDbLayerTableRecord
  2
文字・寸法線
 70
     0
 62
     7
  6
Continuous
370
    -3
390
F
347
13D8
348
0
  0
ENDTAB
  0
TABLE
  2
STYLE
  5
3
330
0
100
AcDbSymbolTable
 70
     2
  0
STYLE
  5
11
330
3
100
AcDbSymbolTableRecord
100
AcDbTextStyleTableRecord
  2
Standard
 70
     0
 40
0.0
 41
1.0
 50
0.0
 71
     0
 42
3.0
  3
txt.shx
  4
bigfont.shx
  0
STYLE
  5
34
330
3
100
AcDbSymbolTableRecord
100
AcDbTextStyleTableRecord
  2

 70
     1
 40
0.0
 41
1.0
 50
0.0
 71
     0
 42
2.5
  3
ltypeshp.shx
  4

  0
ENDTAB
  0
TABLE
  2
VIEW
  5
6
330
0
100
AcDbSymbolTable
 70
     0
  0
ENDTAB
  0
TABLE
  2
UCS
  5
7
330
0
100
AcDbSymbolTable
 70
     0
  0
ENDTAB
  0
TABLE
  2
APPID
  5
9
330
0
100
AcDbSymbolTable
 70
     1
  0
APPID
  5
12
330
9
100
AcDbSymbolTableRecord
100
AcDbRegAppTableRecord
  2
ACAD
 70
     0
  0
ENDTAB
  0
TABLE
  2
DIMSTYLE
  5
A
330
0
100
AcDbSymbolTable
 70
     2
100
AcDbDimStyleTable
  0
DIMSTYLE
105
29
102
{ACAD_REACTORS
330
1190
330
12C7
330
12CE
330
12CF
330
1454
330
1456
330
1459
330
14D2
330
14E3
102
}
330
A
100
AcDbSymbolTableRecord
100
AcDbDimStyleTableRecord
  2
ISO-25
 70
     0
 41
2.5
 42
0.625
 43
3.75
 44
1.25
 73
     0
 74
     0
 77
     1
 78
     8
140
2.5
141
2.5
143
0.03937007874016
147
0.625
171
     3
172
     1
178
     0
271
     2
272
     2
274
     3
283
     0
284
     8
340
11
  0
DIMSTYLE
105
1485
330
A
100
AcDbSymbolTableRecord
100
AcDbDimStyleTableRecord
  2
Standard
 70
     0
178
     0
340
11
  0
ENDTAB
  0
TABLE
  2
BLOCK_RECORD
  5
1
330
0
100
AcDbSymbolTable
 70
    16
  0
BLOCK_RECORD
  5
21
330
1
100
AcDbSymbolTableRecord
100
AcDbBlockTableRecord
  2
*Model_Space
340
24
 70
     0
280
     1
281
     0
  0
BLOCK_RECORD
  5
13E4
330
1
100
AcDbSymbolTableRecord
100
AcDbBlockTableRecord
  2
*Paper_Space
340
13E5
 70
     0
280
     1
281
     0
  0
BLOCK_RECORD
  5
11E5
330
1
100
AcDbSymbolTableRecord
100
AcDbBlockTableRecord
  2
*D0
340
0
 70
     0
280
     1
281
     0
  0
BLOCK_RECORD
  5
1226
330
1
100
AcDbSymbolTableRecord
100
AcDbBlockTableRecord
  2
*D1
340
0
 70
     0
280
     1
281
     0
  0
BLOCK_RECORD
  5
123E
330
1
100
AcDbSymbolTableRecord
100
AcDbBlockTableRecord
  2
*D2
340
0
 70
     0
280
     1
281
     0
  0
BLOCK_RECORD
  5
125A
330
1
100
AcDbSymbolTableRecord
100
AcDbBlockTableRecord
  2
*D3
340
0
 70
     0
280
     1
281
     0
  0
BLOCK_RECORD
  5
12DA
330
1
100
AcDbSymbolTableRecord
100
AcDbBlockTableRecord
  2
*D4
340
0
 70
     0
280
     1
281
     0
  0
BLOCK_RECORD
  5
12E6
330
1
100
AcDbSymbolTableRecord
100
AcDbBlockTableRecord
  2
*D5
340
0
 70
     0
280
     1
281
     0
  0
BLOCK_RECORD
  5
12FB
330
1
100
AcDbSymbolTableRecord
100
AcDbBlockTableRecord
  2
*D6
340
0
 70
     0
280
     1
281
     0
  0
BLOCK_RECORD
  5
1421
330
1
100
AcDbSymbolTableRecord
100
AcDbBlockTableRecord
  2
*D7
340
0
 70
     0
280
     1
281
     0
  0
BLOCK_RECORD
  5
1430
330
1
100
AcDbSymbolTableRecord
100
AcDbBlockTableRecord
  2
*D8
340
0
 70
     0
280
     1
281
     0
  0
BLOCK_RECORD
  5
1441
330
1
100
AcDbSymbolTableRecord
100
AcDbBlockTableRecord
  2
*D9
340
0
 70
     0
280
     1
281
     0
  0
BLOCK_RECORD
  5
145C
330
1
100
AcDbSymbolTableRecord
100
AcDbBlockTableRecord
  2
*D10
340
0
 70
     0
280
     1
281
     0
  0
BLOCK_RECORD
  5
1468
330
1
100
AcDbSymbolTableRecord
100
AcDbBlockTableRecord
  2
*D11
340
0
 70
     0
280
     1
281
     0
  0
BLOCK_RECORD
  5
1476
330
1
100
AcDbSymbolTableRecord
100
AcDbBlockTableRecord
  2
*D12
340
0
 70
     0
280
     1
281
     0
  0
BLOCK_RECORD
  5
14D4
330
1
100
AcDbSymbolTableRecord
100
AcDbBlockTableRecord
  2
*D14
340
0
 70
     0
280
     1
281
     0
  0
BLOCK_RECORD
  5
14E5
330
1
100
AcDbSymbolTableRecord
100
AcDbBlockTableRecord
  2
*D15
340
0
 70
     0
280
     1
281
     0
  0
ENDTAB
  0
ENDSEC
  0
SECTION
  2
BLOCKS
  0
BLOCK
  5
22
330
21
100
AcDbEntity
  8
0
100
AcDbBlockBegin
  2
*Model_Space
 70
     0
 10
0.0
 20
0.0
 30
0.0
  3
*Model_Space
  1
*Model_Space
  0
ENDBLK
  5
23
330
21
100
AcDbEntity
  8
0
100
AcDbBlockEnd
  0
BLOCK
  5
13E6
330
13E4
100
AcDbEntity
 67
     1
  8
0
100
AcDbBlockBegin
  2
*Paper_Space
 70
     0
 10
0.0
 20
0.0
 30
0.0
  3
*Paper_Space
  1
*Paper_Space
  0
ENDBLK
  5
13E7
330
13E4
100
AcDbEntity
 67
     1
  8
0
100
AcDbBlockEnd
  0
BLOCK
  5
11EF
330
11E5
100
AcDbEntity
  8
0
100
AcDbBlockBegin
  2
*D0
 70
     1
 10
0.0
 20
0.0
 30
0.0
  3
*D0
  1
*D4
  0
LINE
  5
11E6
330
11E5
100
AcDbEntity
  8
文字
 62
     0
370
    -2
100
AcDbLine
 10
157.6415020684971
 20
106.138018585119
 30
0.0
 11
157.6415020684971
 21
72.47262098479491
 31
0.0
  0
LINE
  5
11E7
330
11E5
100
AcDbEntity
  8
文字
 62
     0
370
    -2
100
AcDbLine
 10
174.615599982672
 20
106.138018585119
 30
0.0
 11
174.615599982672
 21
72.47262098479491
 31
0.0
  0
LINE
  5
11E8
330
11E5
100
AcDbEntity
  8
文字
 62
     0
370
    -2
100
AcDbLine
 10
160.1415020684971
 20
73.72262098479491
 30
0.0
 11
172.115599982672
 21
73.72262098479491
 31
0.0
  0
SOLID
  5
11E9
330
11E5
100
AcDbEntity
  8
文字
 62
     0
100
AcDbTrace
 10
160.1415020684971
 20
74.13928765146159
 30
0.0
 11
160.1415020684971
 21
73.30595431812824
 31
0.0
 12
157.6415020684971
 22
73.72262098479491
 32
0.0
 13
157.6415020684971
 23
73.72262098479491
 33
0.0
  0
SOLID
  5
11EA
330
11E5
100
AcDbEntity
  8
文字
 62
     0
100
AcDbTrace
 10
172.115599982672
 20
73.30595431812824
 30
0.0
 11
172.115599982672
 21
74.13928765146159
 31
0.0
 12
174.615599982672
 22
73.72262098479491
 32
0.0
 13
174.615599982672
 23
73.72262098479491
 33
0.0
  0
MTEXT
  5
11EB
330
11E5
100
AcDbEntity
  8
文字
 62
     0
100
AcDbMText
 10
166.1285510255845
 20
75.59762098479491
 30
0.0
 40
2.5
 41
0.0
 46
0.0
 71
     5
 72
     1
  1
17
 73
     1
 44
1.0
  0
POINT
  5
11EC
330
11E5
100
AcDbEntity
  8
Defpoints
 62
     0
100
AcDbPoint
 10
157.6415020684971
 20
106.763018585119
 30
0.0
  0
POINT
  5
11ED
330
11E5
100
AcDbEntity
  8
Defpoints
 62
     0
100
AcDbPoint
 10
174.615599982672
 20
106.763018585119
 30
0.0
  0
POINT
  5
11EE
330
11E5
100
AcDbEntity
  8
Defpoints
 62
     0
100
AcDbPoint
 10
174.615599982672
 20
73.72262098479491
 30
0.0
  0
ENDBLK
  5
11F0
330
11E5
100
AcDbEntity
  8
0
100
AcDbBlockEnd
  0
BLOCK
  5
1230
330
1226
100
AcDbEntity
  8
0
100
AcDbBlockBegin
  2
*D1
 70
     1
 10
0.0
 20
0.0
 30
0.0
  3
*D1
  1
*D5
  0
LINE
  5
1389
330
1226
100
AcDbEntity
  8
文字
 62
     0
370
    -2
100
AcDbLine
 10
91.63942187858564
 20
78.6476726455207
 30
0.0
 11
127.178962274394
 21
78.64767264552069
 31
0.0
  0
LINE
  5
138A
330
1226
100
AcDbEntity
  8
文字
 62
     0
370
    -2
100
AcDbLine
 10
103.7144218785856
 20
63.06420657848898
 30
0.0
 11
127.178962274394
 21
63.06420657848897
 31
0.0
  0
LINE
  5
138B
330
1226
100
AcDbEntity
  8
文字
 62
     0
370
    -2
100
AcDbLine
 10
125.928962274394
 20
76.14767264552069
 30
0.0
 11
125.928962274394
 21
65.56420657848898
 31
0.0
  0
SOLID
  5
138C
330
1226
100
AcDbEntity
  8
文字
 62
     0
100
AcDbTrace
 10
125.5122956077273
 20
76.14767264552069
 30
0.0
 11
126.3456289410607
 21
76.14767264552069
 31
0.0
 12
125.928962274394
 22
78.64767264552069
 32
0.0
 13
125.928962274394
 23
78.64767264552069
 33
0.0
  0
SOLID
  5
138D
330
1226
100
AcDbEntity
  8
文字
 62
     0
100
AcDbTrace
 10
125.5122956077273
 20
65.56420657848898
 30
0.0
 11
126.3456289410607
 21
65.56420657848898
 31
0.0
 12
125.928962274394
 22
63.06420657848897
 32
0.0
 13
125.928962274394
 23
63.06420657848897
 33
0.0
  0
MTEXT
  5
138E
330
1226
100
AcDbEntity
  8
文字
 62
     0
100
AcDbMText
 10
124.053962274394
 20
70.85593961200485
 30
0.0
 40
2.5
 41
0.0
 46
0.0
 71
     5
 72
     1
  1
15
 11
6.123031769111886E-17
 21
1.0
 31
0.0
 73
     1
 44
1.0
  0
POINT
  5
138F
330
1226
100
AcDbEntity
  8
Defpoints
 62
     0
100
AcDbPoint
 10
91.01442187858564
 20
78.6476726455207
 30
0.0
  0
POINT
  5
1390
330
1226
100
AcDbEntity
  8
Defpoints
 62
     0
100
AcDbPoint
 10
103.0894218785856
 20
63.06420657848898
 30
0.0
  0
POINT
  5
1391
330
1226
100
AcDbEntity
  8
Defpoints
 62
     0
100
AcDbPoint
 10
125.928962274394
 20
63.06420657848897
 30
0.0
  0
ENDBLK
  5
1231
330
1226
100
AcDbEntity
  8
0
100
AcDbBlockEnd
  0
BLOCK
  5
124A
330
123E
100
AcDbEntity
  8
0
100
AcDbBlockBegin
  2
*D2
 70
     1
 10
0.0
 20
0.0
 30
0.0
  3
*D2
  1
*D6
  0
LINE
  5
137E
330
123E
100
AcDbEntity
  8
文字
 62
     0
370
    -2
100
AcDbLine
 10
57.46442187858564
 20
69.06420657848898
 30
0.0
 11
40.71599477317253
 21
69.06420657848898
 31
0.0
  0
LINE
  5
137F
330
123E
100
AcDbEntity
  8
文字
 62
     0
370
    -2
100
AcDbLine
 10
57.46442187858564
 20
63.06420657848898
 30
0.0
 11
40.71599477317253
 21
63.06420657848899
 31
0.0
  0
LINE
  5
1380
330
123E
100
AcDbEntity
  8
文字
 62
     0
370
    -2
100
AcDbLine
 10
41.96599477317253
 20
71.56420657848898
 30
0.0
 11
41.96599477317253
 21
74.06420657848898
 31
0.0
  0
LINE
  5
1381
330
123E
100
AcDbEntity
  8
文字
 62
     0
370
    -2
100
AcDbLine
 10
41.96599477317253
 20
60.56420657848899
 30
0.0
 11
41.96599477317253
 21
58.06420657848899
 31
0.0
  0
LINE
  5
1382
330
123E
100
AcDbEntity
  8
文字
 62
     0
370
    -2
100
AcDbLine
 10
41.96599477317253
 20
69.06420657848898
 30
0.0
 11
41.96599477317253
 21
63.06420657848899
 31
0.0
  0
SOLID
  5
1383
330
123E
100
AcDbEntity
  8
文字
 62
     0
100
AcDbTrace
 10
41.54932810650587
 20
71.56420657848898
 30
0.0
 11
42.3826614398392
 21
71.56420657848898
 31
0.0
 12
41.96599477317253
 22
69.06420657848898
 32
0.0
 13
41.96599477317253
 23
69.06420657848898
 33
0.0
  0
SOLID
  5
1384
330
123E
100
AcDbEntity
  8
文字
 62
     0
100
AcDbTrace
 10
41.54932810650587
 20
60.56420657848899
 30
0.0
 11
42.3826614398392
 21
60.56420657848899
 31
0.0
 12
41.96599477317253
 22
63.06420657848899
 32
0.0
 13
41.96599477317253
 23
63.06420657848899
 33
0.0
  0
MTEXT
  5
1385
330
123E
100
AcDbEntity
  8
文字
 62
     0
100
AcDbMText
 10
40.09099477317253
 20
66.06420657848899
 30
0.0
 40
2.5
 41
0.0
 46
0.0
 71
     5
 72
     1
  1
6
 11
6.123031769111886E-17
 21
1.0
 31
0.0
 73
     1
 44
1.0
  0
POINT
  5
1386
330
123E
100
AcDbEntity
  8
Defpoints
 62
     0
100
AcDbPoint
 10
58.08942187858564
 20
69.06420657848898
 30
0.0
  0
POINT
  5
1387
330
123E
100
AcDbEntity
  8
Defpoints
 62
     0
100
AcDbPoint
 10
58.08942187858564
 20
63.06420657848898
 30
0.0
  0
POINT
  5
1388
330
123E
100
AcDbEntity
  8
Defpoints
 62
     0
100
AcDbPoint
 10
41.96599477317253
 20
63.06420657848899
 30
0.0
  0
ENDBLK
  5
124B
330
123E
100
AcDbEntity
  8
0
100
AcDbBlockEnd
  0
BLOCK
  5
1264
330
125A
100
AcDbEntity
  8
0
100
AcDbBlockBegin
  2
*D3
 70
     1
 10
0.0
 20
0.0
 30
0.0
  3
*D3
  1
*D7
  0
LINE
  5
1375
330
125A
100
AcDbEntity
  8
文字
 62
     0
370
    -2
100
AcDbLine
 10
58.08942187858564
 20
62.43920657848898
 30
0.0
 11
58.08942187858564
 21
43.52093654827509
 31
0.0
  0
LINE
  5
1376
330
125A
100
AcDbEntity
  8
文字
 62
     0
370
    -2
100
AcDbLine
 10
103.0894218785856
 20
62.43920657848898
 30
0.0
 11
103.0894218785856
 21
43.52093654827509
 31
0.0
  0
LINE
  5
1377
330
125A
100
AcDbEntity
  8
文字
 62
     0
370
    -2
100
AcDbLine
 10
60.58942187858564
 20
44.77093654827509
 30
0.0
 11
100.5894218785856
 21
44.77093654827509
 31
0.0
  0
SOLID
  5
1378
330
125A
100
AcDbEntity
  8
文字
 62
     0
100
AcDbTrace
 10
60.58942187858564
 20
45.18760321494175
 30
0.0
 11
60.58942187858564
 21
44.35426988160842
 31
0.0
 12
58.08942187858564
 22
44.77093654827509
 32
0.0
 13
58.08942187858564
 23
44.77093654827509
 33
0.0
  0
SOLID
  5
1379
330
125A
100
AcDbEntity
  8
文字
 62
     0
100
AcDbTrace
 10
100.5894218785856
 20
45.18760321494175
 30
0.0
 11
100.5894218785856
 21
44.35426988160842
 31
0.0
 12
103.0894218785856
 22
44.77093654827509
 32
0.0
 13
103.0894218785856
 23
44.77093654827509
 33
0.0
  0
MTEXT
  5
137A
330
125A
100
AcDbEntity
  8
文字
 62
     0
100
AcDbMText
 10
80.58942187858564
 20
46.64593654827509
 30
0.0
 40
2.5
 41
0.0
 46
0.0
 71
     5
 72
     1
  1
%%c45
 73
     1
 44
1.0
  0
POINT
  5
137B
330
125A
100
AcDbEntity
  8
Defpoints
 62
     0
100
AcDbPoint
 10
58.08942187858564
 20
63.06420657848898
 30
0.0
  0
POINT
  5
137C
330
125A
100
AcDbEntity
  8
Defpoints
 62
     0
100
AcDbPoint
 10
103.0894218785856
 20
63.06420657848898
 30
0.0
  0
POINT
  5
137D
330
125A
100
AcDbEntity
  8
Defpoints
 62
     0
100
AcDbPoint
 10
103.0894218785856
 20
44.77093654827509
 30
0.0
  0
ENDBLK
  5
1265
330
125A
100
AcDbEntity
  8
0
100
AcDbBlockEnd
  0
BLOCK
  5
12E4
330
12DA
100
AcDbEntity
  8
0
100
AcDbBlockBegin
  2
*D4
 70
     1
 10
0.0
 20
0.0
 30
0.0
  3
*D4
  1
*D11
  0
LINE
  5
1363
330
12DA
100
AcDbEntity
  8
文字
 62
     0
370
    -2
100
AcDbLine
 10
75.58942187858561
 20
158.6476726455207
 30
0.0
 11
75.58942187858561
 21
174.9463968619438
 31
0.0
  0
LINE
  5
1364
330
12DA
100
AcDbEntity
  8
文字
 62
     0
370
    -2
100
AcDbLine
 10
85.58942187858561
 20
158.6476726455207
 30
0.0
 11
85.58942187858561
 21
174.9463968619438
 31
0.0
  0
LINE
  5
1365
330
12DA
100
AcDbEntity
  8
文字
 62
     0
370
    -2
100
AcDbLine
 10
78.08942187858561
 20
173.6963968619438
 30
0.0
 11
83.08942187858561
 21
173.6963968619438
 31
0.0
  0
SOLID
  5
1366
330
12DA
100
AcDbEntity
  8
文字
 62
     0
100
AcDbTrace
 10
78.08942187858561
 20
174.1130635286105
 30
0.0
 11
78.08942187858561
 21
173.2797301952772
 31
0.0
 12
75.58942187858561
 22
173.6963968619438
 32
0.0
 13
75.58942187858561
 23
173.6963968619438
 33
0.0
  0
SOLID
  5
1367
330
12DA
100
AcDbEntity
  8
文字
 62
     0
100
AcDbTrace
 10
83.08942187858561
 20
174.1130635286105
 30
0.0
 11
83.08942187858561
 21
173.2797301952772
 31
0.0
 12
85.58942187858561
 22
173.6963968619438
 32
0.0
 13
85.58942187858561
 23
173.6963968619438
 33
0.0
  0
MTEXT
  5
1368
330
12DA
100
AcDbEntity
  8
文字
 62
     0
100
AcDbMText
 10
80.58942187858561
 20
175.5978293312481
 30
0.0
 40
2.5
 41
0.0
 46
0.0
 71
     5
 72
     1
  1
{\fArial|b0|i0|c0|p32;M10}
 73
     1
 44
1.0
  0
POINT
  5
1369
330
12DA
100
AcDbEntity
  8
Defpoints
 62
     0
100
AcDbPoint
 10
75.58942187858561
 20
158.0226726455207
 30
0.0
  0
POINT
  5
136A
330
12DA
100
AcDbEntity
  8
Defpoints
 62
     0
100
AcDbPoint
 10
85.58942187858561
 20
158.0226726455207
 30
0.0
  0
POINT
  5
136B
330
12DA
100
AcDbEntity
  8
Defpoints
 62
     0
100
AcDbPoint
 10
85.58942187858561
 20
173.6963968619438
 30
0.0
  0
ENDBLK
  5
12E5
330
12DA
100
AcDbEntity
  8
0
100
AcDbBlockEnd
  0
BLOCK
  5
12F0
330
12E6
100
AcDbEntity
  8
0
100
AcDbBlockBegin
  2
*D5
 70
     1
 10
0.0
 20
0.0
 30
0.0
  3
*D5
  1
*D12
  0
LINE
  5
136C
330
12E6
100
AcDbEntity
  8
文字
 62
     0
370
    -2
100
AcDbLine
 10
84.21442187858563
 20
160.6476726455207
 30
0.0
 11
127.178962274394
 21
160.6476726455207
 31
0.0
  0
LINE
  5
136D
330
12E6
100
AcDbEntity
  8
文字
 62
     0
370
    -2
100
AcDbLine
 10
91.01442187858561
 20
85.6476726455207
 30
0.0
 11
127.178962274394
 21
85.64767264552069
 31
0.0
  0
LINE
  5
136E
330
12E6
100
AcDbEntity
  8
文字
 62
     0
370
    -2
100
AcDbLine
 10
125.928962274394
 20
158.1476726455207
 30
0.0
 11
125.928962274394
 21
88.14767264552069
 31
0.0
  0
SOLID
  5
136F
330
12E6
100
AcDbEntity
  8
文字
 62
     0
100
AcDbTrace
 10
125.5122956077273
 20
158.1476726455207
 30
0.0
 11
126.3456289410606
 21
158.1476726455207
 31
0.0
 12
125.928962274394
 22
160.6476726455207
 32
0.0
 13
125.928962274394
 23
160.6476726455207
 33
0.0
  0
SOLID
  5
1370
330
12E6
100
AcDbEntity
  8
文字
 62
     0
100
AcDbTrace
 10
125.5122956077273
 20
88.14767264552069
 30
0.0
 11
126.3456289410606
 21
88.14767264552069
 31
0.0
 12
125.928962274394
 22
85.64767264552069
 32
0.0
 13
125.928962274394
 23
85.64767264552069
 33
0.0
  0
MTEXT
  5
1371
330
12E6
100
AcDbEntity
  8
文字
 62
     0
100
AcDbMText
 10
124.053962274394
 20
123.1476726455207
 30
0.0
 40
2.5
 41
0.0
 46
0.0
 71
     5
 72
     1
  1
75
 11
6.123031769111886E-17
 21
1.0
 31
0.0
 73
     1
 44
1.0
  0
POINT
  5
1372
330
12E6
100
AcDbEntity
  8
Defpoints
 62
     0
100
AcDbPoint
 10
83.58942187858563
 20
160.6476726455207
 30
0.0
  0
POINT
  5
1373
330
12E6
100
AcDbEntity
  8
Defpoints
 62
     0
100
AcDbPoint
 10
90.38942187858561
 20
85.6476726455207
 30
0.0
  0
POINT
  5
1374
330
12E6
100
AcDbEntity
  8
Defpoints
 62
     0
100
AcDbPoint
 10
125.928962274394
 20
85.64767264552069
 30
0.0
  0
ENDBLK
  5
12F1
330
12E6
100
AcDbEntity
  8
0
100
AcDbBlockEnd
  0
BLOCK
  5
1305
330
12FB
100
AcDbEntity
  8
0
100
AcDbBlockBegin
  2
*D6
 70
     1
 10
0.0
 20
0.0
 30
0.0
  3
*D6
  1
*D13
  0
LINE
  5
135A
330
12FB
100
AcDbEntity
  8
文字
 62
     0
370
    -2
100
AcDbLine
 10
91.01442187858561
 20
78.6476726455207
 30
0.0
 11
127.178962274394
 21
78.64767264552069
 31
0.0
  0
LINE
  5
135B
330
12FB
100
AcDbEntity
  8
文字
 62
     0
370
    -2
100
AcDbLine
 10
91.01442187858561
 20
85.6476726455207
 30
0.0
 11
127.178962274394
 21
85.64767264552069
 31
0.0
  0
LINE
  5
135C
330
12FB
100
AcDbEntity
  8
文字
 62
     0
370
    -2
100
AcDbLine
 10
125.928962274394
 20
81.14767264552069
 30
0.0
 11
125.928962274394
 21
83.14767264552069
 31
0.0
  0
SOLID
  5
135D
330
12FB
100
AcDbEntity
  8
文字
 62
     0
100
AcDbTrace
 10
125.5122956077273
 20
81.14767264552069
 30
0.0
 11
126.3456289410606
 21
81.14767264552069
 31
0.0
 12
125.928962274394
 22
78.64767264552069
 32
0.0
 13
125.928962274394
 23
78.64767264552069
 33
0.0
  0
SOLID
  5
135E
330
12FB
100
AcDbEntity
  8
文字
 62
     0
100
AcDbTrace
 10
125.5122956077273
 20
83.14767264552069
 30
0.0
 11
126.3456289410606
 21
83.14767264552069
 31
0.0
 12
125.928962274394
 22
85.64767264552069
 32
0.0
 13
125.928962274394
 23
85.64767264552069
 33
0.0
  0
MTEXT
  5
135F
330
12FB
100
AcDbEntity
  8
文字
 62
     0
100
AcDbMText
 10
124.0539622743939
 20
82.1476726455207
 30
0.0
 40
2.5
 41
0.0
 46
0.0
 71
     5
 72
     1
  1
7
 11
6.123031769111886E-17
 21
1.0
 31
0.0
 73
     1
 44
1.0
  0
POINT
  5
1360
330
12FB
100
AcDbEntity
  8
Defpoints
 62
     0
100
AcDbPoint
 10
90.38942187858561
 20
78.6476726455207
 30
0.0
  0
POINT
  5
1361
330
12FB
100
AcDbEntity
  8
Defpoints
 62
     0
100
AcDbPoint
 10
90.38942187858561
 20
85.6476726455207
 30
0.0
  0
POINT
  5
1362
330
12FB
100
AcDbEntity
  8
Defpoints
 62
     0
100
AcDbPoint
 10
125.928962274394
 20
85.64767264552069
 30
0.0
  0
ENDBLK
  5
1306
330
12FB
100
AcDbEntity
  8
0
100
AcDbBlockEnd
  0
BLOCK
  5
1422
330
1421
100
AcDbEntity
  8
0
100
AcDbBlockBegin
  2
*D7
 70
     1
 10
0.0
 20
0.0
 30
0.0
  3
*D7
  1
*D24
  0
LINE
  5
1423
330
1421
100
AcDbEntity
  8
文字
 62
     0
370
    -2
100
AcDbLine
 10
52.79795590124978
 20
35.71017274872138
 30
0.0
 11
88.33749629705812
 21
35.71017274872138
 31
0.0
  0
LINE
  5
1424
330
1421
100
AcDbEntity
  8
文字
 62
     0
370
    -2
100
AcDbLine
 10
64.96750507032982
 20
19.70665082841047
 30
0.0
 11
88.33749629705812
 21
19.70665082841047
 31
0.0
  0
LINE
  5
1425
330
1421
100
AcDbEntity
  8
文字
 62
     0
370
    -2
100
AcDbLine
 10
87.08749629705812
 20
33.21017274872138
 30
0.0
 11
87.08749629705812
 21
22.20665082841047
 31
0.0
  0
SOLID
  5
1426
330
1421
100
AcDbEntity
  8
文字
 62
     0
100
AcDbTrace
 10
87.5041629637248
 20
33.21017274872138
 30
0.0
 11
86.67082963039145
 21
33.21017274872138
 31
0.0
 12
87.08749629705812
 22
35.71017274872138
 32
0.0
 13
87.08749629705812
 23
35.71017274872138
 33
0.0
  0
SOLID
  5
1427
330
1421
100
AcDbEntity
  8
文字
 62
     0
100
AcDbTrace
 10
86.67082963039145
 20
22.20665082841047
 30
0.0
 11
87.5041629637248
 21
22.20665082841047
 31
0.0
 12
87.08749629705812
 22
19.70665082841047
 32
0.0
 13
87.08749629705812
 23
19.70665082841047
 33
0.0
  0
MTEXT
  5
1428
330
1421
100
AcDbEntity
  8
文字
 62
     0
100
AcDbMText
 10
85.21249629705812
 20
27.70841178856593
 30
0.0
 40
2.5
 41
0.0
 46
0.0
 71
     5
 72
     1
  1
16
 11
0.0
 21
1.0
 31
0.0
 73
     1
 44
1.0
  0
POINT
  5
1429
330
1421
100
AcDbEntity
  8
Defpoints
 62
     0
100
AcDbPoint
 10
52.17295590124978
 20
35.71017274872138
 30
0.0
  0
POINT
  5
142A
330
1421
100
AcDbEntity
  8
Defpoints
 62
     0
100
AcDbPoint
 10
64.34250507032982
 20
19.70665082841047
 30
0.0
  0
POINT
  5
142B
330
1421
100
AcDbEntity
  8
Defpoints
 62
     0
100
AcDbPoint
 10
87.08749629705812
 20
19.70665082841047
 30
0.0
  0
ENDBLK
  5
142C
330
1421
100
AcDbEntity
  8
0
100
AcDbBlockEnd
  0
BLOCK
  5
1431
330
1430
100
AcDbEntity
  8
0
100
AcDbBlockBegin
  2
*D8
 70
     1
 10
0.0
 20
0.0
 30
0.0
  3
*D8
  1
*D25
  0
LINE
  5
1432
330
1430
100
AcDbEntity
  8
文字
 62
     0
370
    -2
100
AcDbLine
 10
18.6234271054131
 20
25.54327003021389
 30
0.0
 11
1.874999999999993
 21
25.54327003021389
 31
0.0
  0
LINE
  5
1433
330
1430
100
AcDbEntity
  8
文字
 62
     0
370
    -2
100
AcDbLine
 10
18.6234271054131
 20
19.54327003021389
 30
0.0
 11
1.874999999999993
 21
19.54327003021389
 31
0.0
  0
LINE
  5
1434
330
1430
100
AcDbEntity
  8
文字
 62
     0
370
    -2
100
AcDbLine
 10
3.124999999999993
 20
25.54327003021389
 30
0.0
 11
3.124999999999993
 21
19.54327003021389
 31
0.0
  0
LINE
  5
1435
330
1430
100
AcDbEntity
  8
文字
 62
     0
370
    -2
100
AcDbLine
 10
3.124999999999993
 20
28.04327003021389
 30
0.0
 11
3.124999999999993
 21
30.54327003021389
 31
0.0
  0
LINE
  5
1436
330
1430
100
AcDbEntity
  8
文字
 62
     0
370
    -2
100
AcDbLine
 10
3.124999999999993
 20
17.04327003021389
 30
0.0
 11
3.124999999999993
 21
14.54327003021389
 31
0.0
  0
SOLID
  5
1437
330
1430
100
AcDbEntity
  8
文字
 62
     0
100
AcDbTrace
 10
2.708333333333327
 20
28.04327003021389
 30
0.0
 11
3.54166666666666
 21
28.04327003021389
 31
0.0
 12
3.124999999999993
 22
25.54327003021389
 32
0.0
 13
3.124999999999993
 23
25.54327003021389
 33
0.0
  0
SOLID
  5
1438
330
1430
100
AcDbEntity
  8
文字
 62
     0
100
AcDbTrace
 10
3.541666666666659
 20
17.04327003021389
 30
0.0
 11
2.708333333333326
 21
17.04327003021389
 31
0.0
 12
3.124999999999993
 22
19.54327003021389
 32
0.0
 13
3.124999999999993
 23
19.54327003021389
 33
0.0
  0
MTEXT
  5
1439
330
1430
100
AcDbEntity
  8
文字
 62
     0
100
AcDbMText
 10
1.249999999999993
 20
22.54327003021389
 30
0.0
 40
2.5
 41
0.0
 46
0.0
 71
     5
 72
     1
  1
6
 11
7.401486830834377E-17
 21
1.0
 31
0.0
 73
     1
 44
1.0
  0
POINT
  5
143A
330
1430
100
AcDbEntity
  8
Defpoints
 62
     0
100
AcDbPoint
 10
19.2484271054131
 20
25.54327003021389
 30
0.0
  0
POINT
  5
143B
330
1430
100
AcDbEntity
  8
Defpoints
 62
     0
100
AcDbPoint
 10
19.2484271054131
 20
19.54327003021389
 30
0.0
  0
POINT
  5
143C
330
1430
100
AcDbEntity
  8
Defpoints
 62
     0
100
AcDbPoint
 10
3.124999999999993
 20
19.54327003021389
 30
0.0
  0
ENDBLK
  5
143D
330
1430
100
AcDbEntity
  8
0
100
AcDbBlockEnd
  0
BLOCK
  5
1442
330
1441
100
AcDbEntity
  8
0
100
AcDbBlockBegin
  2
*D9
 70
     1
 10
0.0
 20
0.0
 30
0.0
  3
*D9
  1
*D26
  0
LINE
  5
1443
330
1441
100
AcDbEntity
  8
文字
 62
     0
370
    -2
100
AcDbLine
 10
19.2484271054131
 20
18.91827003021389
 30
0.0
 11
19.2484271054131
 21
0.0
 31
0.0
  0
LINE
  5
1444
330
1441
100
AcDbEntity
  8
文字
 62
     0
370
    -2
100
AcDbLine
 10
64.24842710541314
 20
18.91827003021389
 30
0.0
 11
64.24842710541314
 21
0.0
 31
0.0
  0
LINE
  5
1445
330
1441
100
AcDbEntity
  8
文字
 62
     0
370
    -2
100
AcDbLine
 10
21.7484271054131
 20
1.25
 30
0.0
 11
61.74842710541314
 21
1.25
 31
0.0
  0
SOLID
  5
1446
330
1441
100
AcDbEntity
  8
文字
 62
     0
100
AcDbTrace
 10
21.7484271054131
 20
1.666666666666667
 30
0.0
 11
21.7484271054131
 21
0.8333333333333333
 31
0.0
 12
19.2484271054131
 22
1.25
 32
0.0
 13
19.2484271054131
 23
1.25
 33
0.0
  0
SOLID
  5
1447
330
1441
100
AcDbEntity
  8
文字
 62
     0
100
AcDbTrace
 10
61.74842710541314
 20
0.8333333333333333
 30
0.0
 11
61.74842710541314
 21
1.666666666666667
 31
0.0
 12
64.24842710541314
 22
1.25
 32
0.0
 13
64.24842710541314
 23
1.25
 33
0.0
  0
MTEXT
  5
1448
330
1441
100
AcDbEntity
  8
文字
 62
     0
100
AcDbMText
 10
41.74842710541312
 20
3.125
 30
0.0
 40
2.5
 41
0.0
 46
0.0
 71
     5
 72
     1
  1
%%c45
 73
     1
 44
1.0
  0
POINT
  5
1449
330
1441
100
AcDbEntity
  8
Defpoints
 62
     0
100
AcDbPoint
 10
19.2484271054131
 20
19.54327003021389
 30
0.0
  0
POINT
  5
144A
330
1441
100
AcDbEntity
  8
Defpoints
 62
     0
100
AcDbPoint
 10
64.24842710541314
 20
19.54327003021389
 30
0.0
  0
POINT
  5
144B
330
1441
100
AcDbEntity
  8
Defpoints
 62
     0
100
AcDbPoint
 10
64.24842710541314
 20
1.25
 30
0.0
  0
ENDBLK
  5
144C
330
1441
100
AcDbEntity
  8
0
100
AcDbBlockEnd
  0
BLOCK
  5
145D
330
145C
100
AcDbEntity
  8
0
100
AcDbBlockBegin
  2
*D10
 70
     1
 10
0.0
 20
0.0
 30
0.0
  3
*D10
  1
*D11
  0
LINE
  5
145F
330
145C
100
AcDbEntity
  8
文字
 62
     0
370
    -2
100
AcDbLine
 10
91.75938004338273
 20
78.62358347947868
 30
0.0
 11
127.2989204391911
 21
78.62358347947868
 31
0.0
  0
LINE
  5
1460
330
145C
100
AcDbEntity
  8
文字
 62
     0
370
    -2
100
AcDbLine
 10
103.9289292124628
 20
62.62006155916778
 30
0.0
 11
127.2989204391911
 21
62.62006155916778
 31
0.0
  0
LINE
  5
1461
330
145C
100
AcDbEntity
  8
文字
 62
     0
370
    -2
100
AcDbLine
 10
126.0489204391911
 20
76.12358347947868
 30
0.0
 11
126.0489204391911
 21
65.12006155916778
 31
0.0
  0
SOLID
  5
1462
330
145C
100
AcDbEntity
  8
文字
 62
     0
100
AcDbTrace
 10
126.4655871058578
 20
76.12358347947868
 30
0.0
 11
125.6322537725244
 21
76.12358347947868
 31
0.0
 12
126.0489204391911
 22
78.62358347947868
 32
0.0
 13
126.0489204391911
 23
78.62358347947868
 33
0.0
  0
SOLID
  5
1463
330
145C
100
AcDbEntity
  8
文字
 62
     0
100
AcDbTrace
 10
125.6322537725244
 20
65.12006155916778
 30
0.0
 11
126.4655871058578
 21
65.12006155916778
 31
0.0
 12
126.0489204391911
 22
62.62006155916778
 32
0.0
 13
126.0489204391911
 23
62.62006155916778
 33
0.0
  0
MTEXT
  5
1464
330
145C
100
AcDbEntity
  8
文字
 62
     0
100
AcDbMText
 10
124.1739204391911
 20
70.62182251932323
 30
0.0
 40
2.5
 41
0.0
 46
0.0
 71
     5
 72
     1
  1
16
 11
0.0
 21
1.0
 31
0.0
 73
     1
 44
1.0
  0
POINT
  5
1465
330
145C
100
AcDbEntity
  8
Defpoints
 62
     0
100
AcDbPoint
 10
91.13438004338273
 20
78.62358347947868
 30
0.0
  0
POINT
  5
1466
330
145C
100
AcDbEntity
  8
Defpoints
 62
     0
100
AcDbPoint
 10
103.3039292124628
 20
62.62006155916778
 30
0.0
  0
POINT
  5
1467
330
145C
100
AcDbEntity
  8
Defpoints
 62
     0
100
AcDbPoint
 10
126.0489204391911
 20
62.62006155916778
 30
0.0
  0
ENDBLK
  5
145E
330
145C
100
AcDbEntity
  8
0
100
AcDbBlockEnd
  0
BLOCK
  5
1469
330
1468
100
AcDbEntity
  8
0
100
AcDbBlockBegin
  2
*D11
 70
     1
 10
0.0
 20
0.0
 30
0.0
  3
*D11
  1
*D12
  0
LINE
  5
146B
330
1468
100
AcDbEntity
  8
文字
 62
     0
370
    -2
100
AcDbLine
 10
57.58485124754606
 20
68.4566807609712
 30
0.0
 11
40.83642414213295
 21
68.4566807609712
 31
0.0
  0
LINE
  5
146C
330
1468
100
AcDbEntity
  8
文字
 62
     0
370
    -2
100
AcDbLine
 10
57.58485124754606
 20
62.4566807609712
 30
0.0
 11
40.83642414213295
 21
62.4566807609712
 31
0.0
  0
LINE
  5
146D
330
1468
100
AcDbEntity
  8
文字
 62
     0
370
    -2
100
AcDbLine
 10
42.08642414213295
 20
68.4566807609712
 30
0.0
 11
42.08642414213295
 21
62.4566807609712
 31
0.0
  0
LINE
  5
146E
330
1468
100
AcDbEntity
  8
文字
 62
     0
370
    -2
100
AcDbLine
 10
42.08642414213295
 20
70.9566807609712
 30
0.0
 11
42.08642414213295
 21
73.4566807609712
 31
0.0
  0
LINE
  5
146F
330
1468
100
AcDbEntity
  8
文字
 62
     0
370
    -2
100
AcDbLine
 10
42.08642414213295
 20
59.9566807609712
 30
0.0
 11
42.08642414213295
 21
57.4566807609712
 31
0.0
  0
SOLID
  5
1470
330
1468
100
AcDbEntity
  8
文字
 62
     0
100
AcDbTrace
 10
41.66975747546628
 20
70.9566807609712
 30
0.0
 11
42.50309080879961
 21
70.9566807609712
 31
0.0
 12
42.08642414213295
 22
68.4566807609712
 32
0.0
 13
42.08642414213295
 23
68.4566807609712
 33
0.0
  0
SOLID
  5
1471
330
1468
100
AcDbEntity
  8
文字
 62
     0
100
AcDbTrace
 10
42.50309080879961
 20
59.9566807609712
 30
0.0
 11
41.66975747546628
 21
59.9566807609712
 31
0.0
 12
42.08642414213295
 22
62.4566807609712
 32
0.0
 13
42.08642414213295
 23
62.4566807609712
 33
0.0
  0
MTEXT
  5
1472
330
1468
100
AcDbEntity
  8
文字
 62
     0
100
AcDbMText
 10
40.21142414213295
 20
65.4566807609712
 30
0.0
 40
2.5
 41
0.0
 46
0.0
 71
     5
 72
     1
  1
6
 11
0.0
 21
1.0
 31
0.0
 73
     1
 44
1.0
  0
POINT
  5
1473
330
1468
100
AcDbEntity
  8
Defpoints
 62
     0
100
AcDbPoint
 10
58.20985124754606
 20
68.4566807609712
 30
0.0
  0
POINT
  5
1474
330
1468
100
AcDbEntity
  8
Defpoints
 62
     0
100
AcDbPoint
 10
58.20985124754606
 20
62.4566807609712
 30
0.0
  0
POINT
  5
1475
330
1468
100
AcDbEntity
  8
Defpoints
 62
     0
100
AcDbPoint
 10
42.08642414213295
 20
62.4566807609712
 30
0.0
  0
ENDBLK
  5
146A
330
1468
100
AcDbEntity
  8
0
100
AcDbBlockEnd
  0
BLOCK
  5
1477
330
1476
100
AcDbEntity
  8
0
100
AcDbBlockBegin
  2
*D12
 70
     1
 10
0.0
 20
0.0
 30
0.0
  3
*D12
  1
*D13
  0
LINE
  5
1479
330
1476
100
AcDbEntity
  8
文字
 62
     0
370
    -2
100
AcDbLine
 10
58.20985124754606
 20
61.8316807609712
 30
0.0
 11
58.20985124754606
 21
42.91341073075731
 31
0.0
  0
LINE
  5
147A
330
1476
100
AcDbEntity
  8
文字
 62
     0
370
    -2
100
AcDbLine
 10
103.2098512475461
 20
61.8316807609712
 30
0.0
 11
103.2098512475461
 21
42.91341073075731
 31
0.0
  0
LINE
  5
147B
330
1476
100
AcDbEntity
  8
文字
 62
     0
370
    -2
100
AcDbLine
 10
60.70985124754606
 20
44.16341073075731
 30
0.0
 11
100.7098512475461
 21
44.16341073075731
 31
0.0
  0
SOLID
  5
147C
330
1476
100
AcDbEntity
  8
文字
 62
     0
100
AcDbTrace
 10
60.70985124754606
 20
44.58007739742397
 30
0.0
 11
60.70985124754606
 21
43.74674406409064
 31
0.0
 12
58.20985124754606
 22
44.16341073075731
 32
0.0
 13
58.20985124754606
 23
44.16341073075731
 33
0.0
  0
SOLID
  5
147D
330
1476
100
AcDbEntity
  8
文字
 62
     0
100
AcDbTrace
 10
100.7098512475461
 20
43.74674406409064
 30
0.0
 11
100.7098512475461
 21
44.58007739742397
 31
0.0
 12
103.2098512475461
 22
44.16341073075731
 32
0.0
 13
103.2098512475461
 23
44.16341073075731
 33
0.0
  0
MTEXT
  5
147E
330
1476
100
AcDbEntity
  8
文字
 62
     0
100
AcDbMText
 10
80.70985124754608
 20
46.03841073075731
 30
0.0
 40
2.5
 41
0.0
 46
0.0
 71
     5
 72
     1
  1
%%c45
 73
     1
 44
1.0
  0
POINT
  5
147F
330
1476
100
AcDbEntity
  8
Defpoints
 62
     0
100
AcDbPoint
 10
58.20985124754606
 20
62.4566807609712
 30
0.0
  0
POINT
  5
1480
330
1476
100
AcDbEntity
  8
Defpoints
 62
     0
100
AcDbPoint
 10
103.2098512475461
 20
62.4566807609712
 30
0.0
  0
POINT
  5
1481
330
1476
100
AcDbEntity
  8
Defpoints
 62
     0
100
AcDbPoint
 10
103.2098512475461
 20
44.16341073075731
 30
0.0
  0
ENDBLK
  5
1478
330
1476
100
AcDbEntity
  8
0
100
AcDbBlockEnd
  0
BLOCK
  5
14D5
330
14D4
100
AcDbEntity
  8
0
100
AcDbBlockBegin
  2
*D14
 70
     1
 10
0.0
 20
0.0
 30
0.0
  3
*D14
  1
*D14
  0
LINE
  5
14D6
330
14D4
100
AcDbEntity
  8
文字
 62
     0
370
    -2
100
AcDbLine
 10
0.0
 20
27.41950251549261
 30
0.0
 11
0.0
 21
0.0
 31
0.0
  0
LINE
  5
14D7
330
14D4
100
AcDbEntity
  8
文字
 62
     0
370
    -2
100
AcDbLine
 10
41.00268414918409
 20
26.81650250643591
 30
0.0
 11
41.00268414918409
 21
0.0
 31
0.0
  0
LINE
  5
14D8
330
14D4
100
AcDbEntity
  8
文字
 62
     0
370
    -2
100
AcDbLine
 10
2.5
 20
1.25
 30
0.0
 11
38.50268414918409
 21
1.25
 31
0.0
  0
SOLID
  5
14D9
330
14D4
100
AcDbEntity
  8
文字
 62
     0
100
AcDbTrace
 10
2.5
 20
1.666666666666667
 30
0.0
 11
2.5
 21
0.8333333333333333
 31
0.0
 12
0.0
 22
1.25
 32
0.0
 13
0.0
 23
1.25
 33
0.0
  0
SOLID
  5
14DA
330
14D4
100
AcDbEntity
  8
文字
 62
     0
100
AcDbTrace
 10
38.50268414918409
 20
0.8333333333333333
 30
0.0
 11
38.50268414918409
 21
1.666666666666667
 31
0.0
 12
41.00268414918409
 22
1.25
 32
0.0
 13
41.00268414918409
 23
1.25
 33
0.0
  0
MTEXT
  5
14DB
330
14D4
100
AcDbEntity
  8
文字
 62
     0
100
AcDbMText
 10
20.50134207459205
 20
3.125
 30
0.0
 40
2.5
 41
0.0
 46
0.0
 71
     5
 72
     1
  1
%%c41
 73
     1
 44
1.0
  0
POINT
  5
14DC
330
14D4
100
AcDbEntity
  8
Defpoints
 62
     0
100
AcDbPoint
 10
0.0
 20
28.04450251549261
 30
0.0
  0
POINT
  5
14DD
330
14D4
100
AcDbEntity
  8
Defpoints
 62
     0
100
AcDbPoint
 10
41.00268414918409
 20
27.44150250643591
 30
0.0
  0
POINT
  5
14DE
330
14D4
100
AcDbEntity
  8
Defpoints
 62
     0
100
AcDbPoint
 10
41.00268414918409
 20
1.25
 30
0.0
  0
ENDBLK
  5
14DF
330
14D4
100
AcDbEntity
  8
0
100
AcDbBlockEnd
  0
BLOCK
  5
14E6
330
14E5
100
AcDbEntity
  8
0
100
AcDbBlockBegin
  2
*D15
 70
     1
 10
0.0
 20
0.0
 30
0.0
  3
*D15
  1
*D15
  0
LINE
  5
14E8
330
14E5
100
AcDbEntity
  8
文字
 62
     0
370
    -2
100
AcDbLine
 10
152.1285510255845
 20
106.138018585119
 30
0.0
 11
152.1285510255845
 21
63.87187510907475
 31
0.0
  0
LINE
  5
14E9
330
14E5
100
AcDbEntity
  8
文字
 62
     0
370
    -2
100
AcDbLine
 10
180.132193922827
 20
106.3049941669392
 30
0.0
 11
180.132193922827
 21
63.87187510907475
 31
0.0
  0
LINE
  5
14EA
330
14E5
100
AcDbEntity
  8
文字
 62
     0
370
    -2
100
AcDbLine
 10
154.6285510255845
 20
65.12187510907475
 30
0.0
 11
177.632193922827
 21
65.12187510907475
 31
0.0
  0
SOLID
  5
14EB
330
14E5
100
AcDbEntity
  8
文字
 62
     0
100
AcDbTrace
 10
154.6285510255845
 20
65.53854177574142
 30
0.0
 11
154.6285510255845
 21
64.70520844240808
 31
0.0
 12
152.1285510255845
 22
65.12187510907475
 32
0.0
 13
152.1285510255845
 23
65.12187510907475
 33
0.0
  0
SOLID
  5
14EC
330
14E5
100
AcDbEntity
  8
文字
 62
     0
100
AcDbTrace
 10
177.632193922827
 20
64.70520844240808
 30
0.0
 11
177.632193922827
 21
65.53854177574142
 31
0.0
 12
180.132193922827
 22
65.12187510907475
 32
0.0
 13
180.132193922827
 23
65.12187510907475
 33
0.0
  0
MTEXT
  5
14ED
330
14E5
100
AcDbEntity
  8
文字
 62
     0
100
AcDbMText
 10
166.1303724742058
 20
66.99687510907475
 30
0.0
 40
2.5
 41
0.0
 46
0.0
 71
     5
 72
     1
  1
%%c28
 73
     1
 44
1.0
  0
POINT
  5
14EE
330
14E5
100
AcDbEntity
  8
Defpoints
 62
     0
100
AcDbPoint
 10
152.1285510255845
 20
106.763018585119
 30
0.0
  0
POINT
  5
14EF
330
14E5
100
AcDbEntity
  8
Defpoints
 62
     0
100
AcDbPoint
 10
180.132193922827
 20
106.9299941669392
 30
0.0
  0
POINT
  5
14F0
330
14E5
100
AcDbEntity
  8
Defpoints
 62
     0
100
AcDbPoint
 10
180.132193922827
 20
65.12187510907475
 30
0.0
  0
ENDBLK
  5
14E7
330
14E5
100
AcDbEntity
  8
0
100
AcDbBlockEnd
  0
ENDSEC
  0
SECTION
  2
ENTITIES
  0
CIRCLE
  5
1185
330
21
100
AcDbEntity
  8
実線
370
    20
100
AcDbCircle
 10
166.1285510255845
 20
106.763018585119
 30
0.0
 40
3.0
  0
LINE
  5
1189
330
21
100
AcDbEntity
  8
中心線
100
AcDbLine
 10
166.1285510255845
 20
106.763018585119
 30
0.0
 11
166.1285510255845
 21
79.90238748992495
 31
0.0
  0
LINE
  5
118A
330
21
100
AcDbEntity
  8
中心線
100
AcDbLine
 10
166.1285510255845
 20
106.763018585119
 30
0.0
 11
166.1285510255845
 21
132.4126218456383
 31
0.0
  0
DIMENSION
  5
1190
102
{ACAD_REACTORS
330
1192
102
}
102
{ACAD_XDICTIONARY
360
1191
102
}
330
21
100
AcDbEntity
  8
文字
100
AcDbDimension
280
     0
  2
*D0
 10
174.615599982672
 20
73.72262098479491
 30
0.0
 11
166.1285510255845
 21
73.72262098479491
 31
0.0
 70
   160
  1
17
 71
     5
 42
16.97409791417488
 73
     0
 74
     0
 75
     0
  3
ISO-25
100
AcDbAlignedDimension
 13
157.6415020684971
 23
106.763018585119
 33
0.0
 14
174.615599982672
 24
106.763018585119
 34
0.0
100
AcDbRotatedDimension
  0
CIRCLE
  5
1193
330
21
100
AcDbEntity
  8
実線
370
    50
100
AcDbCircle
 10
166.1285510255845
 20
106.763018585119
 30
0.0
 40
5.0
  0
LINE
  5
119D
330
21
100
AcDbEntity
  8
実線
370
    50
100
AcDbLine
 10
87.90223022473016
 20
78.6476726455207
 30
0.0
 11
73.30702304848224
 21
78.6476726455207
 31
0.0
  0
LWPOLYLINE
  5
119E
102
{ACAD_REACTORS
330
1192
102
}
330
21
100
AcDbEntity
  8
実線
370
    50
100
AcDbPolyline
 90
        6
 70
     1
 43
0.0
 10
157.6415020684971
 20
101.8630185851191
 10
166.1285510255845
 20
96.96301858511904
 10
174.615599982672
 20
101.8630185851191
 10
174.6155999826721
 20
111.663018585119
 10
166.1285510255846
 20
116.5630185851191
 10
157.6415020684971
 20
111.663018585119
  0
LINE
  5
11A9
330
21
100
AcDbEntity
  8
中心線
100
AcDbLine
 10
135.7137904212871
 20
106.763018585119
 30
0.0
 11
175.7162215717292
 21
106.763018585119
 31
0.0
  0
LINE
  5
11AB
330
21
100
AcDbEntity
  8
中心線
100
AcDbLine
 10
175.7162215717292
 20
106.763018585119
 30
0.0
 11
196.3585197892364
 21
106.763018585119
 31
0.0
  0
CIRCLE
  5
11AD
330
21
100
AcDbEntity
  8
実線
370
    50
100
AcDbCircle
 10
166.1285510255845
 20
106.763018585119
 30
0.0
 40
14.0
  0
CIRCLE
  5
1223
330
21
100
AcDbEntity
  8
実線
100
AcDbCircle
 10
166.1285510255845
 20
106.763018585119
 30
0.0
 40
22.5
  0
DIMENSION
  5
12C7
102
{ACAD_REACTORS
330
12C9
102
}
102
{ACAD_XDICTIONARY
360
12C8
102
}
330
21
100
AcDbEntity
  8
文字
100
AcDbDimension
280
     0
  2
*D5
 10
125.928962274394
 20
85.64767264552069
 30
0.0
 11
124.053962274394
 21
123.1476726455207
 31
0.0
 70
    32
 71
     5
 42
75.0
 73
     0
 74
     0
 75
     0
  3
ISO-25
100
AcDbAlignedDimension
 13
83.58942187858563
 23
160.6476726455207
 33
0.0
 14
90.38942187858561
 24
85.6476726455207
 34
0.0
 50
90.0
100
AcDbRotatedDimension
  0
LINE
  5
12CA
102
{ACAD_REACTORS
330
12C9
102
}
330
21
100
AcDbEntity
  8
実線
370
    20
100
AcDbLine
 10
83.58942187858563
 20
160.6476726455207
 30
0.0
 11
83.58942187858561
 21
85.6476726455207
 31
0.0
  0
LINE
  5
12CB
330
21
100
AcDbEntity
  8
実線
370
    20
100
AcDbLine
 10
77.58942187858561
 20
160.6476726455207
 30
0.0
 11
77.5894218785856
 21
85.6476726455207
 31
0.0
  0
LINE
  5
12CC
330
21
100
AcDbEntity
  8
実線
370
    20
100
AcDbLine
 10
75.58942187858561
 20
158.6476726455207
 30
0.0
 11
85.58942187858563
 21
158.6476726455207
 31
0.0
  0
LWPOLYLINE
  5
12CD
330
21
100
AcDbEntity
  8
実線
100
AcDbPolyline
 90
        6
 70
     1
 43
0.0
 10
75.58942187858561
 20
85.6476726455207
 10
85.58942187858561
 20
85.6476726455207
 10
85.58942187858563
 20
158.6476726455207
 10
83.58942187858563
 20
160.6476726455207
 10
77.58942187858561
 20
160.6476726455207
 10
75.58942187858561
 20
158.6476726455207
  0
DIMENSION
  5
12CE
330
21
100
AcDbEntity
  8
文字
100
AcDbDimension
280
     0
  2
*D4
 10
85.58942187858561
 20
173.6963968619438
 30
0.0
 11
80.58942187858561
 21
175.5978293312481
 31
0.0
 70
    32
  1
{\fArial|b0|i0|c0|p32;M10}
 71
     5
 42
10.0
 73
     0
 74
     0
 75
     0
  3
ISO-25
100
AcDbAlignedDimension
 13
75.58942187858561
 23
158.0226726455207
 33
0.0
 14
85.58942187858561
 24
158.0226726455207
 34
0.0
100
AcDbRotatedDimension
  0
DIMENSION
  5
12CF
102
{ACAD_REACTORS
330
12D1
102
}
102
{ACAD_XDICTIONARY
360
12D0
102
}
330
21
100
AcDbEntity
  8
文字
100
AcDbDimension
280
     0
  2
*D6
 10
125.928962274394
 20
85.64767264552069
 30
0.0
 11
124.0539622743939
 21
82.1476726455207
 31
0.0
 70
    32
  1
7
 71
     5
 42
7.0
 73
     0
 74
     0
 75
     0
  3
ISO-25
100
AcDbAlignedDimension
 13
90.38942187858561
 23
78.6476726455207
 33
0.0
 14
90.38942187858561
 24
85.6476726455207
 34
0.0
 50
90.0
100
AcDbRotatedDimension
  0
ARC
  5
12D2
330
21
100
AcDbEntity
  8
実線
370
    50
100
AcDbCircle
 10
87.8844719964317
 20
81.36415297391495
 30
0.0
 40
2.716538372492689
100
AcDbArc
 50
202.7633354902944
 51
337.236671532932
  0
ARC
  5
12D3
330
21
100
AcDbEntity
  8
実線
370
    50
100
AcDbCircle
 10
80.65219040181512
 20
86.18865193790977
 30
0.0
 40
7.541240519685672
100
AcDbArc
 50
231.180866270598
 51
308.8191315053852
  0
ARC
  5
12D4
330
21
100
AcDbEntity
  8
実線
370
    50
100
AcDbCircle
 10
73.35713987374574
 20
81.459087760555
 30
0.0
 40
2.811861775624425
100
AcDbArc
 50
204.052326073835
 51
335.947673926165
  0
LINE
  5
12D5
330
21
100
AcDbEntity
  8
実線
370
    50
100
AcDbLine
 10
87.90223022473013
 20
78.6476726455207
 30
0.0
 11
73.30702304848221
 21
78.6476726455207
 31
0.0
  0
LINE
  5
12D6
330
21
100
AcDbEntity
  8
実線
370
    50
100
AcDbLine
 10
85.37952262475537
 20
85.6476726455207
 30
0.0
 11
85.37952262475537
 21
80.31305506357435
 31
0.0
  0
LINE
  5
12D7
330
21
100
AcDbEntity
  8
実線
370
    50
100
AcDbLine
 10
75.92485786890587
 20
85.6476726455207
 30
0.0
 11
75.92485786890587
 21
80.31305506357441
 31
0.0
  0
LWPOLYLINE
  5
12D8
102
{ACAD_REACTORS
330
12D1
330
12C9
102
}
330
21
100
AcDbEntity
  8
実線
370
    50
100
AcDbPolyline
 90
        4
 70
     0
 43
0.0
 10
90.38942187858561
 20
80.31305506357437
 10
90.38942187858561
 20
85.6476726455207
 10
70.78942187858561
 20
85.6476726455207
 10
70.78942187858561
 20
80.3130550635744
  0
ARC
  5
1450
330
21
100
AcDbEntity
  8
実線
370
    50
100
AcDbCircle
 10
80.16378605713626
 20
66.15783599384633
 30
0.0
 40
13.24316634049441
100
AcDbArc
 50
109.7295435093523
 51
170.0035449917054
  0
ARC
  5
1451
330
21
100
AcDbEntity
  8
実線
370
    50
100
AcDbCircle
 10
81.25497402962921
 20
66.15783599384629
 30
0.0
 40
13.24316634049445
100
AcDbArc
 50
9.99645500829481
 51
70.27045649064762
  0
LINE
  5
1452
330
21
100
AcDbEntity
  8
中心線
100
AcDbLine
 10
80.70938004338274
 20
55.1233495783044
 30
0.0
 11
80.76007917288692
 21
168.6383743571367
 31
0.0
  0
LWPOLYLINE
  5
1453
102
{ACAD_REACTORS
330
1458
330
145B
102
}
330
21
100
AcDbEntity
  8
実線
100
AcDbPolyline
 90
        4
 70
     1
 43
0.0
 10
58.20985124754606
 20
62.4566807609712
 10
103.2098512475461
 20
62.4566807609712
 10
103.2098512475461
 20
68.4566807609712
 10
58.20985124754606
 20
68.4566807609712
  0
DIMENSION
  5
1454
102
{ACAD_XDICTIONARY
360
1455
102
}
330
21
100
AcDbEntity
  8
文字
100
AcDbDimension
280
     0
  2
*D10
 10
126.0489204391911
 20
62.62006155916778
 30
0.0
 11
124.1739204391911
 21
70.62182251932323
 31
0.0
 70
    32
 71
     5
 42
16.0035219203109
 73
     0
 74
     0
 75
     0
  3
ISO-25
100
AcDbAlignedDimension
 13
91.13438004338273
 23
78.62358347947868
 33
0.0
 14
103.3039292124628
 24
62.62006155916778
 34
0.0
 50
90.0
100
AcDbRotatedDimension
  0
DIMENSION
  5
1456
102
{ACAD_REACTORS
330
1458
102
}
102
{ACAD_XDICTIONARY
360
1457
102
}
330
21
100
AcDbEntity
  8
文字
100
AcDbDimension
280
     0
  2
*D11
 10
42.08642414213295
 20
62.4566807609712
 30
0.0
 11
40.21142414213295
 21
65.4566807609712
 31
0.0
 70
    32
 71
     5
 42
6.0
 73
     0
 74
     0
 75
     0
  3
ISO-25
100
AcDbAlignedDimension
 13
58.20985124754606
 23
68.4566807609712
 33
0.0
 14
58.20985124754606
 24
62.4566807609712
 34
0.0
 50
90.0
100
AcDbRotatedDimension
  0
DIMENSION
  5
1459
102
{ACAD_REACTORS
330
145B
102
}
102
{ACAD_XDICTIONARY
360
145A
102
}
330
21
100
AcDbEntity
  8
文字
100
AcDbDimension
280
     0
  2
*D12
 10
103.2098512475461
 20
44.16341073075731
 30
0.0
 11
80.70985124754608
 21
46.03841073075731
 31
0.0
 70
    32
  1
%%c<>
 71
     5
 42
45.00000000000004
 73
     0
 74
     0
 75
     0
  3
ISO-25
100
AcDbAlignedDimension
 13
58.20985124754606
 23
62.4566807609712
 33
0.0
 14
103.2098512475461
 24
62.4566807609712
 34
0.0
100
AcDbRotatedDimension
  0
MTEXT
  5
14A8
330
21
100
AcDbEntity
  8
文字・寸法線
 62
     0
100
AcDbMText
 10
88.80497866117065
 20
188.9087154646469
 30
0.0
 40
6.0
 41
0.0
 46
6.0
 71
     9
 72
     1
  1
{\fＭＳ ゴシック|b0|i0|c0|p0;S-M2 M10X75}
 73
     1
 44
1.0
1001
ACAD
1000
ACAD_MTEXT_DEFINED_HEIGHT_BEGIN
1070
    46
1040
6.0
1000
ACAD_MTEXT_DEFINED_HEIGHT_END
  0
DIMENSION
  5
14E3
102
{ACAD_XDICTIONARY
360
14E4
102
}
330
21
100
AcDbEntity
  8
文字
 62
     0
100
AcDbDimension
280
     0
  2
*D15
 10
180.132193922827
 20
65.12187510907475
 30
0.0
 11
166.1303724742058
 21
66.99687510907475
 31
0.0
 70
    32
  1
%%c<>
 71
     5
 42
28.00364289724254
 73
     0
 74
     0
 75
     0
  3
ISO-25
100
AcDbAlignedDimension
 13
152.1285510255845
 23
106.763018585119
 33
0.0
 14
180.132193922827
 24
106.9299941669392
 34
0.0
100
AcDbRotatedDimension
1001
ACAD
1000
DSTYLE
1002
{
1070
    77
1070
     1
1002
}
  0
VIEWPORT
  5
13E8
330
13E4
100
AcDbEntity
 67
     1
  8
0
100
AcDbViewport
 10
203.7291666666666
 20
142.1694444444444
 30
0.0
 40
488.9499999999999
 41
341.2066666666665
 68
     1
 69
     1
 12
203.7291666666666
 22
142.1694444444444
 13
0.0
 23
0.0
 14
0.5
 24
0.5
 15
0.0
 25
0.0
 16
0.0
 26
0.0
 36
1.0
 17
0.0
 27
0.0
 37
0.0
 42
50.0
 43
0.0
 44
0.0
 45
341.2066666666665
 50
0.0
 51
0.0
 72
   100
 90
   557152
  1

281
     0
 71
     1
 74
     0
110
0.0
120
0.0
130
0.0
111
1.0
121
0.0
131
0.0
112
0.0
122
1.0
132
0.0
 79
     0
146
0.0
170
     0
 61
     5
348
13A0
292
     1
282
     1
141
0.0
142
0.0
 63
   256
361
13EA
  0
VIEWPORT
  5
13E9
330
13E4
100
AcDbEntity
 67
     1
  8
0
100
AcDbViewport
 10
203.7291666666666
 20
142.1694444444444
 30
0.0
 40
325.9666666666666
 41
227.471111111111
 68
     2
 69
     2
 12
133.442111253579
 22
110.1971728442636
 13
0.0
 23
0.0
 14
0.5
 24
0.5
 15
0.0
 25
0.0
 16
0.0
 26
0.0
 36
1.0
 17
0.0
 27
0.0
 37
0.0
 42
50.0
 43
0.0
 44
0.0
 45
136.0195220438166
 50
0.0
 51
0.0
 72
   100
 90
   557152
  1

281
     0
 71
     1
 74
     0
110
0.0
120
0.0
130
0.0
111
1.0
121
0.0
131
0.0
112
0.0
122
1.0
132
0.0
 79
     0
146
0.0
170
     0
 61
     5
348
13A0
292
     1
282
     1
141
0.0
142
0.0
 63
   256
  0
ENDSEC
  0
SECTION
  2
OBJECTS
  0
DICTIONARY
  5
C
330
0
100
AcDbDictionary
281
     1
  3
ACAD_COLOR
350
1C
  3
ACAD_DETAILVIEWSTYLE
350
13F4
  3
ACAD_GROUP
350
D
  3
ACAD_IMAGE_VARS
350
13DD
  3
ACAD_LAYOUT
350
1A
  3
ACAD_MATERIAL
350
1B
  3
ACAD_MLEADERSTYLE
350
13F1
  3
ACAD_MLINESTYLE
350
17
  3
ACAD_PLOTSETTINGS
350
19
  3
ACAD_PLOTSTYLENAME
350
E
  3
ACAD_SCALELIST
350
13B4
  3
ACAD_SECTIONVIEWSTYLE
350
13F5
  3
ACAD_TABLESTYLE
350
13D9
  3
ACAD_VISUALSTYLE
350
139B
  3
AcadDim
350
7AD
  3
ACDB_RECOMPOSE_DATA
350
14F3
  3
AcDbVariableDictionary
350
13EB
  3
APPDATA
350
13DB
  0
SUN
  5
13DC
330
139A
100
AcDbSun
 90
        1
290
     0
 63
     7
421
 16777215
 40
1.0
291
     1
 91
  2455826
 92
 54000000
292
     0
 70
     2
 71
   256
280
     1
  0
DICTIONARY
  5
1191
330
1190
100
AcDbDictionary
280
     1
281
     1
  3
ACAD_DIMASSOC
360
1192
  0
DICTIONARY
  5
12C8
330
12C7
100
AcDbDictionary
280
     1
281
     1
  3
ACAD_DIMASSOC
360
12C9
  0
DICTIONARY
  5
12D0
330
12CF
100
AcDbDictionary
280
     1
281
     1
  3
ACAD_DIMASSOC
360
12D1
  0
DICTIONARY
  5
1455
330
1454
100
AcDbDictionary
280
     1
281
     1
  0
DICTIONARY
  5
1457
330
1456
100
AcDbDictionary
280
     1
281
     1
  3
ACAD_DIMASSOC
360
1458
  0
DICTIONARY
  5
145A
330
1459
100
AcDbDictionary
280
     1
281
     1
  3
ACAD_DIMASSOC
360
145B
  0
DICTIONARY
  5
14E4
330
14E3
100
AcDbDictionary
280
     1
281
     1
  0
SUN
  5
13EA
330
13E8
100
AcDbSun
 90
        1
290
     0
 63
     7
421
 16777215
 40
1.0
291
     1
 91
  2455826
 92
 54000000
292
     0
 70
     2
 71
   256
280
     1
  0
DICTIONARY
  5
1C
102
{ACAD_REACTORS
330
C
102
}
330
C
100
AcDbDictionary
281
     1
  0
DICTIONARY
  5
13F4
102
{ACAD_REACTORS
330
C
102
}
330
C
100
AcDbDictionary
281
     1
  0
DICTIONARY
  5
D
102
{ACAD_REACTORS
330
C
102
}
330
C
100
AcDbDictionary
281
     1
  0
RASTERVARIABLES
  5
13DD
102
{ACAD_REACTORS
330
C
102
}
330
C
100
AcDbRasterVariables
 90
        0
 70
     1
 71
     1
 72
     1
  0
DICTIONARY
  5
1A
102
{ACAD_REACTORS
330
C
102
}
330
C
100
AcDbDictionary
281
     1
  3
Model
350
24
  3
Sheet1
350
13E5
  0
DICTIONARY
  5
1B
102
{ACAD_REACTORS
330
C
102
}
330
C
100
AcDbDictionary
281
     1
  3
ByBlock
350
13D7
  3
ByLayer
350
13D6
  3
Global
350
13D8
  0
DICTIONARY
  5
13F1
102
{ACAD_REACTORS
330
C
102
}
330
C
100
AcDbDictionary
281
     1
  0
DICTIONARY
  5
17
102
{ACAD_REACTORS
330
C
102
}
330
C
100
AcDbDictionary
281
     1
  3
Standard
350
18
  0
DICTIONARY
  5
19
102
{ACAD_REACTORS
330
C
102
}
330
C
100
AcDbDictionary
281
     1
  0
ACDBDICTIONARYWDFLT
  5
E
102
{ACAD_REACTORS
330
C
102
}
330
C
100
AcDbDictionary
281
     1
  3
Normal
350
F
100
AcDbDictionaryWithDefault
340
F
  0
DICTIONARY
  5
13B4
102
{ACAD_REACTORS
330
C
102
}
330
C
100
AcDbDictionary
281
     1
  3
A0
350
13B5
  3
A1
350
13B6
  3
A2
350
13B7
  3
A3
350
13B8
  3
A4
350
13B9
  3
A5
350
13BA
  3
A6
350
13BB
  3
A7
350
13BC
  3
A8
350
13BD
  3
A9
350
13BE
  3
B0
350
13BF
  3
B1
350
13C0
  3
B2
350
13C1
  3
B3
350
13C2
  3
B4
350
13C3
  3
B5
350
13C4
  3
B6
350
13C5
  3
B7
350
13C6
  3
B8
350
13C7
  3
B9
350
13C8
  3
C0
350
13C9
  3
C1
350
13CA
  3
C2
350
13CB
  3
C3
350
13CC
  3
C4
350
13CD
  3
C5
350
13CE
  3
C6
350
13CF
  3
C7
350
13D0
  3
C8
350
13D1
  3
C9
350
13D2
  3
D0
350
13D3
  3
D1
350
13D4
  3
D2
350
13D5
  0
DICTIONARY
  5
13F5
102
{ACAD_REACTORS
330
C
102
}
330
C
100
AcDbDictionary
281
     1
  0
DICTIONARY
  5
13D9
102
{ACAD_REACTORS
330
C
102
}
330
C
100
AcDbDictionary
281
     1
  3
Standard
350
13DA
  0
DICTIONARY
  5
139B
102
{ACAD_REACTORS
330
C
102
}
330
C
100
AcDbDictionary
281
     1
  3
2dWireframe
350
13A0
  3
Basic
350
13A3
  3
Brighten
350
13A7
  3
ColorChange
350
13AB
  3
Conceptual
350
13A5
  3
Dim
350
13A6
  3
EdgeColorOff
350
13AE
  3
Facepattern
350
13AA
  3
Flat
350
139C
  3
FlatWithEdges
350
139D
  3
Gouraud
350
139E
  3
GouraudWithEdges
350
139F
  3
Hidden
350
13A2
  3
JitterOff
350
13AC
  3
Linepattern
350
13A9
  3
OverhangOff
350
13AD
  3
Realistic
350
13A4
  3
Shaded
350
13B3
  3
Shaded with edges
350
13B2
  3
Shades of Gray
350
13AF
  3
Sketchy
350
13B0
  3
Thicken
350
13A8
  3
Wireframe
350
13A1
  3
X-Ray
350
13B1
  0
XRECORD
  5
7AD
102
{ACAD_REACTORS
330
C
102
}
330
C
100
AcDbXrecord
280
     1
 90
   990106
  3

 60
     0
 61
     0
 62
     4
 63
     4
 64
     1
 65
     0
 66
     0
 67
     3
 68
     1
 69
     0
 70
     0
 71
     0
 72
     0
 40
0.0
170
     2
340
0
  0
XRECORD
  5
14F3
102
{ACAD_REACTORS
330
C
102
}
330
C
100
AcDbXrecord
280
     1
 90
        1
330
13DA
  0
DICTIONARY
  5
13EB
102
{ACAD_REACTORS
330
C
102
}
330
C
100
AcDbDictionary
281
     1
  3
CANNOSCALE
350
13EC
  3
CTABLESTYLE
350
13F0
  3
MSLTSCALE
350
13F2
  3
XCLIPFRAME
350
13F3
  0
DICTIONARY
  5
13DB
102
{ACAD_REACTORS
330
C
102
}
330
C
100
AcDbDictionary
281
     1
  0
DIMASSOC
  5
1192
102
{ACAD_REACTORS
330
1191
102
}
330
1191
100
AcDbDimAssoc
330
1190
 90
        3
 70
     0
 71
     0
  1
AcDbOsnapPointRef
 72
     2
331
119E
 73
     2
 91
        6
 40
0.5
 10
0.0
 20
0.0
 30
0.0
 75
     0
  1
AcDbOsnapPointRef
 72
     2
331
119E
 73
     2
 91
        3
 40
0.5
 10
0.0
 20
0.0
 30
0.0
 75
     0
  0
DIMASSOC
  5
12C9
102
{ACAD_REACTORS
330
12C8
102
}
330
12C8
100
AcDbDimAssoc
330
12C7
 90
        3
 70
     0
 71
     0
  1
AcDbOsnapPointRef
 72
    13
331
12CA
 73
     2
 91
        0
 40
0.0
 10
0.0
 20
0.0
 30
2.000000000000000E+50
 75
     0
  1
AcDbOsnapPointRef
 72
     1
331
12D8
 73
     2
 91
        1
 40
1.0
 10
0.0
 20
0.0
 30
2.000000000000000E+50
 75
     0
  0
DIMASSOC
  5
12D1
102
{ACAD_REACTORS
330
12D0
102
}
330
12D0
100
AcDbDimAssoc
330
12CF
 90
        2
 70
     0
 71
     0
  1
AcDbOsnapPointRef
 72
     1
331
12D8
 73
     2
 91
        1
 40
1.0
 10
0.0
 20
0.0
 30
2.000000000000000E+50
 75
     0
  0
DIMASSOC
  5
1458
102
{ACAD_REACTORS
330
1457
102
}
330
1457
100
AcDbDimAssoc
330
1456
 90
        3
 70
     0
 71
     0
  1
AcDbOsnapPointRef
 72
     1
331
1453
 73
     2
 91
        3
 40
1.0
 10
0.0
 20
0.0
 30
2.000000000000000E+50
 75
     0
  1
AcDbOsnapPointRef
 72
    13
331
1453
 73
     2
 91
        1
 40
0.0
 10
0.0
 20
0.0
 30
2.000000000000000E+50
 75
     0
  0
DIMASSOC
  5
145B
102
{ACAD_REACTORS
330
145A
102
}
330
145A
100
AcDbDimAssoc
330
1459
 90
        3
 70
     0
 71
     0
  1
AcDbOsnapPointRef
 72
    13
331
1453
 73
     2
 91
        1
 40
0.0
 10
0.0
 20
0.0
 30
2.000000000000000E+50
 75
     0
  1
AcDbOsnapPointRef
 72
     1
331
1453
 73
     2
 91
        1
 40
1.0
 10
0.0
 20
0.0
 30
2.000000000000000E+50
 75
     0
  0
LAYOUT
  5
24
102
{ACAD_REACTORS
330
1A
102
}
330
1A
100
AcDbPlotSettings
  1

  2
\\SF05\Brother HL-1440 series
  4
A4
  6

 40
6.72041654586792
 41
5.027085304260254
 42
6.889755249023438
 43
5.027069091796875
 44
209.9733276367188
 45
296.9259948730469
 46
3.18
 47
4.94
 48
10.0
 49
10.00000018588798
140
287.0000002360858
141
200.000000185888
142
1.0
143
1.0
 70
 11956
 72
     1
 73
     1
 74
     4
  7

 75
    16
 76
     0
 77
     2
 78
   300
147
1.0
148
-10.0
149
-10.00000018588798
100
AcDbLayout
  1
Model
 70
     1
 71
     0
 10
0.0
 20
0.0
 11
12.0
 21
9.0
 12
0.0
 22
0.0
 32
0.0
 14
38.96142414213294
 24
42.91341073075731
 34
0.0
 15
196.3585197892364
 25
194.9087154646469
 35
0.0
146
0.0
 13
0.0
 23
0.0
 33
0.0
 16
1.0
 26
0.0
 36
0.0
 17
0.0
 27
1.0
 37
0.0
 76
     0
330
21
331
139A
  0
LAYOUT
  5
13E5
102
{ACAD_REACTORS
330
1A
102
}
330
1A
100
AcDbPlotSettings
  1

  2
none_device
  4
iso-a3
  6

 40
6.35
 41
6.35
 42
6.35
 43
6.35
 44
297.0388888888888
 45
420.1583333333333
 46
0.0
 47
0.0
 48
0.0
 49
0.0
140
0.0
141
0.0
142
1.0
143
1.0
 70
   688
 72
     1
 73
     1
 74
     5
  7

 75
    16
 76
     0
 77
     2
 78
   300
147
1.0
148
0.0
149
0.0
100
AcDbLayout
  1
Sheet1
 70
     1
 71
     1
 10
0.0
 20
0.0
 11
0.0
 21
0.0
 12
0.0
 22
0.0
 32
0.0
 14
0.0
 24
0.0
 34
0.0
 15
0.0
 25
0.0
 35
0.0
146
0.0
 13
0.0
 23
0.0
 33
0.0
 16
1.0
 26
0.0
 36
0.0
 17
0.0
 27
1.0
 37
0.0
 76
     0
330
13E4
331
13E8
  0
MATERIAL
  5
13D7
102
{ACAD_REACTORS
330
1B
102
}
330
1B
100
AcDbMaterial
  1
ByBlock
 72
     1
 94
      127
  0
MATERIAL
  5
13D6
102
{ACAD_REACTORS
330
1B
102
}
330
1B
100
AcDbMaterial
  1
ByLayer
 72
     1
 94
      127
  0
MATERIAL
  5
13D8
102
{ACAD_REACTORS
330
1B
102
}
330
1B
100
AcDbMaterial
  1
Global
 72
     1
 94
      127
  0
MLINESTYLE
  5
18
102
{ACAD_REACTORS
330
17
102
}
330
17
100
AcDbMlineStyle
  2
STANDARD
 70
     0
  3

 62
   256
 51
90.0
 52
90.0
 71
     2
 49
0.5
 62
   256
  6
BYLAYER
 49
-0.5
 62
   256
  6
BYLAYER
  0
ACDBPLACEHOLDER
  5
F
102
{ACAD_REACTORS
330
E
102
}
330
E
  0
SCALE
  5
13B5
102
{ACAD_REACTORS
330
13B4
102
}
330
13B4
100
AcDbScale
 70
     0
300
1:1
140
1.0
141
1.0
290
     1
  0
SCALE
  5
13B6
102
{ACAD_REACTORS
330
13B4
102
}
330
13B4
100
AcDbScale
 70
     0
300
1:2
140
1.0
141
2.0
290
     0
  0
SCALE
  5
13B7
102
{ACAD_REACTORS
330
13B4
102
}
330
13B4
100
AcDbScale
 70
     0
300
1:4
140
1.0
141
4.0
290
     0
  0
SCALE
  5
13B8
102
{ACAD_REACTORS
330
13B4
102
}
330
13B4
100
AcDbScale
 70
     0
300
1:5
140
1.0
141
5.0
290
     0
  0
SCALE
  5
13B9
102
{ACAD_REACTORS
330
13B4
102
}
330
13B4
100
AcDbScale
 70
     0
300
1:8
140
1.0
141
8.0
290
     0
  0
SCALE
  5
13BA
102
{ACAD_REACTORS
330
13B4
102
}
330
13B4
100
AcDbScale
 70
     0
300
1:10
140
1.0
141
10.0
290
     0
  0
SCALE
  5
13BB
102
{ACAD_REACTORS
330
13B4
102
}
330
13B4
100
AcDbScale
 70
     0
300
1:16
140
1.0
141
16.0
290
     0
  0
SCALE
  5
13BC
102
{ACAD_REACTORS
330
13B4
102
}
330
13B4
100
AcDbScale
 70
     0
300
1:20
140
1.0
141
20.0
290
     0
  0
SCALE
  5
13BD
102
{ACAD_REACTORS
330
13B4
102
}
330
13B4
100
AcDbScale
 70
     0
300
1:30
140
1.0
141
30.0
290
     0
  0
SCALE
  5
13BE
102
{ACAD_REACTORS
330
13B4
102
}
330
13B4
100
AcDbScale
 70
     0
300
1:40
140
1.0
141
40.0
290
     0
  0
SCALE
  5
13BF
102
{ACAD_REACTORS
330
13B4
102
}
330
13B4
100
AcDbScale
 70
     0
300
1:50
140
1.0
141
50.0
290
     0
  0
SCALE
  5
13C0
102
{ACAD_REACTORS
330
13B4
102
}
330
13B4
100
AcDbScale
 70
     0
300
1:100
140
1.0
141
100.0
290
     0
  0
SCALE
  5
13C1
102
{ACAD_REACTORS
330
13B4
102
}
330
13B4
100
AcDbScale
 70
     0
300
2:1
140
2.0
141
1.0
290
     0
  0
SCALE
  5
13C2
102
{ACAD_REACTORS
330
13B4
102
}
330
13B4
100
AcDbScale
 70
     0
300
4:1
140
4.0
141
1.0
290
     0
  0
SCALE
  5
13C3
102
{ACAD_REACTORS
330
13B4
102
}
330
13B4
100
AcDbScale
 70
     0
300
8:1
140
8.0
141
1.0
290
     0
  0
SCALE
  5
13C4
102
{ACAD_REACTORS
330
13B4
102
}
330
13B4
100
AcDbScale
 70
     0
300
10:1
140
10.0
141
1.0
290
     0
  0
SCALE
  5
13C5
102
{ACAD_REACTORS
330
13B4
102
}
330
13B4
100
AcDbScale
 70
     0
300
100:1
140
100.0
141
1.0
290
     0
  0
SCALE
  5
13C6
102
{ACAD_REACTORS
330
13B4
102
}
330
13B4
100
AcDbScale
 70
     0
300
1/128" = 1'-0"
140
0.0078125
141
12.0
290
     0
  0
SCALE
  5
13C7
102
{ACAD_REACTORS
330
13B4
102
}
330
13B4
100
AcDbScale
 70
     0
300
1/64" = 1'-0"
140
0.015625
141
12.0
290
     0
  0
SCALE
  5
13C8
102
{ACAD_REACTORS
330
13B4
102
}
330
13B4
100
AcDbScale
 70
     0
300
1/32" = 1'-0"
140
0.03125
141
12.0
290
     0
  0
SCALE
  5
13C9
102
{ACAD_REACTORS
330
13B4
102
}
330
13B4
100
AcDbScale
 70
     0
300
1/16" = 1'-0"
140
0.0625
141
12.0
290
     0
  0
SCALE
  5
13CA
102
{ACAD_REACTORS
330
13B4
102
}
330
13B4
100
AcDbScale
 70
     0
300
3/32" = 1'-0"
140
0.09375
141
12.0
290
     0
  0
SCALE
  5
13CB
102
{ACAD_REACTORS
330
13B4
102
}
330
13B4
100
AcDbScale
 70
     0
300
1/8" = 1'-0"
140
0.125
141
12.0
290
     0
  0
SCALE
  5
13CC
102
{ACAD_REACTORS
330
13B4
102
}
330
13B4
100
AcDbScale
 70
     0
300
3/16" = 1'-0"
140
0.1875
141
12.0
290
     0
  0
SCALE
  5
13CD
102
{ACAD_REACTORS
330
13B4
102
}
330
13B4
100
AcDbScale
 70
     0
300
1/4" = 1'-0"
140
0.25
141
12.0
290
     0
  0
SCALE
  5
13CE
102
{ACAD_REACTORS
330
13B4
102
}
330
13B4
100
AcDbScale
 70
     0
300
3/8" = 1'-0"
140
0.375
141
12.0
290
     0
  0
SCALE
  5
13CF
102
{ACAD_REACTORS
330
13B4
102
}
330
13B4
100
AcDbScale
 70
     0
300
1/2" = 1'-0"
140
0.5
141
12.0
290
     0
  0
SCALE
  5
13D0
102
{ACAD_REACTORS
330
13B4
102
}
330
13B4
100
AcDbScale
 70
     0
300
3/4" = 1'-0"
140
0.75
141
12.0
290
     0
  0
SCALE
  5
13D1
102
{ACAD_REACTORS
330
13B4
102
}
330
13B4
100
AcDbScale
 70
     0
300
1" = 1'-0"
140
1.0
141
12.0
290
     0
  0
SCALE
  5
13D2
102
{ACAD_REACTORS
330
13B4
102
}
330
13B4
100
AcDbScale
 70
     0
300
1-1/2" = 1'-0"
140
1.5
141
12.0
290
     0
  0
SCALE
  5
13D3
102
{ACAD_REACTORS
330
13B4
102
}
330
13B4
100
AcDbScale
 70
     0
300
3" = 1'-0"
140
3.0
141
12.0
290
     0
  0
SCALE
  5
13D4
102
{ACAD_REACTORS
330
13B4
102
}
330
13B4
100
AcDbScale
 70
     0
300
6" = 1'-0"
140
6.0
141
12.0
290
     0
  0
SCALE
  5
13D5
102
{ACAD_REACTORS
330
13B4
102
}
330
13B4
100
AcDbScale
 70
     0
300
1'-0" = 1'-0"
140
12.0
141
12.0
290
     0
  0
TABLESTYLE
  5
13DA
102
{ACAD_REACTORS
330
13D9
102
}
102
{ACAD_XDICTIONARY
360
14F1
102
}
330
13D9
100
AcDbTableStyle
  3
Standard
 70
     0
 71
     0
 40
0.06
 41
0.06
280
     0
281
     0
  7
Standard
140
4.5
170
     2
 62
     0
 63
   257
283
     0
 90
        4
 91
        0
  1

274
    -2
284
     1
 64
     0
275
    -2
285
     1
 65
     0
276
    -2
286
     1
 66
     0
277
    -2
287
     1
 67
     0
278
    -2
288
     1
 68
     0
279
    -2
289
     1
 69
     0
  7
Standard
140
6.0
170
     5
 62
     0
 63
   257
283
     0
 90
        4
 91
        0
  1

274
    -2
284
     1
 64
     0
275
    -2
285
     1
 65
     0
276
    -2
286
     1
 66
     0
277
    -2
287
     1
 67
     0
278
    -2
288
     1
 68
     0
279
    -2
289
     1
 69
     0
  7
Standard
140
4.5
170
     5
 62
     0
 63
   257
283
     0
 90
        4
 91
        0
  1

274
    -2
284
     1
 64
     0
275
    -2
285
     1
 65
     0
276
    -2
286
     1
 66
     0
277
    -2
287
     1
 67
     0
278
    -2
288
     1
 68
     0
279
    -2
289
     1
 69
     0
  0
VISUALSTYLE
  5
13A0
102
{ACAD_REACTORS
330
139B
102
}
330
139B
100
AcDbVisualStyle
  2
2dWireframe
 70
     4
177
     3
291
     0
 70
    58
 90
        0
176
     1
 90
        2
176
     1
 90
        0
176
     1
 90
        0
176
     1
 40
0.6
176
     1
 40
30.0
176
     1
 62
     7
420
 16777215
176
     1
 90
        1
176
     1
 90
        4
176
     1
 62
     7
176
     1
 62
   257
176
     1
 90
        1
176
     1
 90
        1
176
     1
 40
1.0
176
     1
 90
        0
176
     1
 62
   257
176
     1
 40
1.0
176
     1
 90
        1
176
     1
 90
        6
176
     1
 90
        2
176
     1
 62
     7
176
     1
 90
        5
176
     1
 90
        0
176
     1
 90
        0
176
     1
290
     0
176
     1
 90
        1
176
     1
 40
0.0
176
     1
 90
        0
176
     1
290
     1
176
     1
290
     1
176
     1
290
     0
176
     1
290
     0
176
     1
290
     0
176
     1
290
     0
176
     1
290
     0
176
     1
290
     0
176
     1
290
     0
176
     1
 90
       50
176
     1
 40
0.0
176
     1
 40
1.0
176
     1
 90
        0
176
     1
 62
    18
420
        0
176
     1
 90
       50
176
     1
 90
        3
176
     1
 62
     5
420
      255
176
     1
290
     0
176
     1
 90
       50
176
     1
 90
       50
176
     1
 90
       50
176
     1
290
     0
176
     1
 90
       50
176
     1
 62
   256
176
     0
 40
1.0
176
     0
 90
        2
176
     1
  1
strokes_ogs.tif
176
     1
290
     0
176
     1
 40
1.0
176
     1
 40
1.0
176
     1
  0
VISUALSTYLE
  5
13A3
102
{ACAD_REACTORS
330
139B
102
}
330
139B
100
AcDbVisualStyle
  2
Basic
 70
     7
177
     3
291
     1
 70
    58
 90
        1
176
     1
 90
        0
176
     1
 90
        1
176
     1
 90
        0
176
     1
 40
0.6
176
     1
 40
30.0
176
     1
 62
     7
420
 16777215
176
     1
 90
        0
176
     1
 90
        4
176
     1
 62
     7
176
     1
 62
   257
176
     1
 90
        1
176
     1
 90
        1
176
     1
 40
1.0
176
     1
 90
        8
176
     1
 62
     7
176
     1
 40
1.0
176
     1
 90
        1
176
     1
 90
        6
176
     1
 90
        2
176
     1
 62
     7
176
     1
 90
        5
176
     1
 90
        0
176
     1
 90
        0
176
     1
290
     0
176
     1
 90
        1
176
     1
 40
0.0
176
     1
 90
        0
176
     1
290
     0
176
     1
290
     1
176
     1
290
     1
176
     1
290
     0
176
     1
290
     0
176
     1
290
     0
176
     1
290
     0
176
     1
290
     0
176
     1
290
     0
176
     1
 90
       50
176
     1
 40
0.0
176
     1
 40
1.0
176
     1
 90
        0
176
     1
 62
    18
420
        0
176
     1
 90
       50
176
     1
 90
        3
176
     1
 62
     5
420
      255
176
     1
290
     0
176
     1
 90
       50
176
     1
 90
       50
176
     1
 90
       50
176
     1
290
     0
176
     1
 90
       50
176
     1
 62
   256
176
     0
 40
1.0
176
     0
 90
        2
176
     1
  1
strokes_ogs.tif
176
     1
290
     0
176
     1
 40
1.0
176
     1
 40
1.0
176
     1
  0
VISUALSTYLE
  5
13A7
102
{ACAD_REACTORS
330
139B
102
}
330
139B
100
AcDbVisualStyle
  2
Brighten
 70
    12
177
     3
291
     1
 70
    58
 90
        2
176
     1
 90
        2
176
     1
 90
        0
176
     1
 90
        0
176
     1
 40
0.6
176
     1
 40
30.0
176
     1
 62
     7
420
 16777215
176
     1
 90
        1
176
     1
 90
        4
176
     1
 62
     7
176
     1
 62
   257
176
     1
 90
        1
176
     1
 90
        1
176
     1
 40
1.0
176
     1
 90
        8
176
     1
 62
     7
176
     1
 40
1.0
176
     1
 90
        1
176
     1
 90
        6
176
     1
 90
        2
176
     1
 62
     7
176
     1
 90
        5
176
     1
 90
        0
176
     1
 90
        0
176
     1
290
     0
176
     1
 90
        1
176
     1
 40
50.0
176
     1
 90
        0
176
     1
290
     0
176
     1
290
     1
176
     1
290
     1
176
     1
290
     0
176
     1
290
     0
176
     1
290
     0
176
     1
290
     0
176
     1
290
     0
176
     1
290
     0
176
     1
 90
       50
176
     1
 40
0.0
176
     1
 40
1.0
176
     1
 90
        0
176
     1
 62
    18
420
        0
176
     1
 90
       50
176
     1
 90
        3
176
     1
 62
     5
420
      255
176
     1
290
     0
176
     1
 90
       50
176
     1
 90
       50
176
     1
 90
       50
176
     1
290
     0
176
     1
 90
       50
176
     1
 62
   256
176
     0
 40
1.0
176
     0
 90
        2
176
     1
  1
strokes_ogs.tif
176
     1
290
     0
176
     1
 40
1.0
176
     1
 40
1.0
176
     1
  0
VISUALSTYLE
  5
13AB
102
{ACAD_REACTORS
330
139B
102
}
330
139B
100
AcDbVisualStyle
  2
ColorChange
 70
    16
177
     3
291
     1
 70
    58
 90
        2
176
     1
 90
        2
176
     1
 90
        3
176
     1
 90
        0
176
     1
 40
0.6
176
     1
 40
30.0
176
     1
 62
     8
420
  8421504
176
     1
 90
        1
176
     1
 90
        4
176
     1
 62
     7
176
     1
 62
   257
176
     1
 90
        1
176
     1
 90
        1
176
     1
 40
1.0
176
     1
 90
        8
176
     1
 62
     8
420
  8421504
176
     1
 40
1.0
176
     1
 90
        1
176
     1
 90
        6
176
     1
 90
        2
176
     1
 62
     7
176
     1
 90
        5
176
     1
 90
        0
176
     1
 90
        0
176
     1
290
     0
176
     1
 90
        1
176
     1
 40
0.0
176
     1
 90
        0
176
     1
290
     0
176
     1
290
     1
176
     1
290
     1
176
     1
290
     0
176
     1
290
     0
176
     1
290
     0
176
     1
290
     0
176
     1
290
     0
176
     1
290
     0
176
     1
 90
       50
176
     1
 40
0.0
176
     1
 40
1.0
176
     1
 90
        0
176
     1
 62
    18
420
        0
176
     1
 90
       50
176
     1
 90
        3
176
     1
 62
     5
420
      255
176
     1
290
     0
176
     1
 90
       50
176
     1
 90
       50
176
     1
 90
       50
176
     1
290
     0
176
     1
 90
       50
176
     1
 62
   256
176
     0
 40
1.0
176
     0
 90
        2
176
     1
  1
strokes_ogs.tif
176
     1
290
     0
176
     1
 40
1.0
176
     1
 40
1.0
176
     1
  0
VISUALSTYLE
  5
13A5
102
{ACAD_REACTORS
330
139B
102
}
330
139B
100
AcDbVisualStyle
  2
Conceptual
 70
     9
177
     3
291
     0
 70
    58
 90
        3
176
     1
 90
        2
176
     1
 90
        0
176
     1
 90
        0
176
     1
 40
0.6
176
     1
 40
30.0
176
     1
 62
     7
420
 16777215
176
     1
 90
        2
176
     1
 90
        2
176
     1
 62
     7
176
     1
 62
   257
176
     1
 90
        1
176
     1
 90
        1
176
     1
 40
179.0
176
     1
 90
        8
176
     1
 62
     7
176
     1
 40
1.0
176
     1
 90
        1
176
     1
 90
        6
176
     1
 90
        2
176
     1
 62
     7
176
     1
 90
        3
176
     1
 90
        0
176
     1
 90
        0
176
     1
290
     0
176
     1
 90
        1
176
     1
 40
0.0
176
     1
 90
        0
176
     1
290
     0
176
     1
290
     1
176
     1
290
     1
176
     1
290
     0
176
     1
290
     0
176
     1
290
     0
176
     1
290
     0
176
     1
290
     0
176
     1
290
     0
176
     1
 90
       50
176
     1
 40
0.0
176
     1
 40
1.0
176
     1
 90
        0
176
     1
 62
    18
420
        0
176
     1
 90
       50
176
     1
 90
        3
176
     1
 62
     5
420
      255
176
     1
290
     0
176
     1
 90
       50
176
     1
 90
       50
176
     1
 90
       50
176
     1
290
     0
176
     1
 90
       50
176
     1
 62
   256
176
     0
 40
1.0
176
     0
 90
        2
176
     1
  1
strokes_ogs.tif
176
     1
290
     0
176
     1
 40
1.0
176
     1
 40
1.0
176
     1
  0
VISUALSTYLE
  5
13A6
102
{ACAD_REACTORS
330
139B
102
}
330
139B
100
AcDbVisualStyle
  2
Dim
 70
    11
177
     3
291
     1
 70
    58
 90
        2
176
     1
 90
        2
176
     1
 90
        0
176
     1
 90
        0
176
     1
 40
0.6
176
     1
 40
30.0
176
     1
 62
     7
420
 16777215
176
     1
 90
        1
176
     1
 90
        4
176
     1
 62
     7
176
     1
 62
   257
176
     1
 90
        1
176
     1
 90
        1
176
     1
 40
1.0
176
     1
 90
        8
176
     1
 62
     7
176
     1
 40
1.0
176
     1
 90
        1
176
     1
 90
        6
176
     1
 90
        2
176
     1
 62
     7
176
     1
 90
        5
176
     1
 90
        0
176
     1
 90
        0
176
     1
290
     0
176
     1
 90
        1
176
     1
 40
-50.0
176
     1
 90
        0
176
     1
290
     0
176
     1
290
     1
176
     1
290
     1
176
     1
290
     0
176
     1
290
     0
176
     1
290
     0
176
     1
290
     0
176
     1
290
     0
176
     1
290
     0
176
     1
 90
       50
176
     1
 40
0.0
176
     1
 40
1.0
176
     1
 90
        0
176
     1
 62
    18
420
        0
176
     1
 90
       50
176
     1
 90
        3
176
     1
 62
     5
420
      255
176
     1
290
     0
176
     1
 90
       50
176
     1
 90
       50
176
     1
 90
       50
176
     1
290
     0
176
     1
 90
       50
176
     1
 62
   256
176
     0
 40
1.0
176
     0
 90
        2
176
     1
  1
strokes_ogs.tif
176
     1
290
     0
176
     1
 40
1.0
176
     1
 40
1.0
176
     1
  0
VISUALSTYLE
  5
13AE
102
{ACAD_REACTORS
330
139B
102
}
330
139B
100
AcDbVisualStyle
  2
EdgeColorOff
 70
    22
177
     3
291
     1
 70
    58
 90
        2
176
     0
 90
        2
176
     0
 90
        0
176
     0
 90
        0
176
     0
 40
0.6
176
     0
 40
30.0
176
     0
 62
     7
420
 16777215
176
     0
 90
        1
176
     0
 90
        4
176
     0
 62
     7
176
     0
 62
   257
176
     0
 90
        1
176
     0
 90
        1
176
     0
 40
1.0
176
     0
 90
        8
176
     2
 62
     7
176
     0
 40
1.0
176
     0
 90
        1
176
     0
 90
        6
176
     0
 90
        2
176
     0
 62
     7
176
     0
 90
        5
176
     0
 90
        0
176
     0
 90
        0
176
     0
290
     0
176
     0
 90
        1
176
     0
 40
0.0
176
     0
 90
        0
176
     0
290
     0
176
     0
290
     1
176
     0
290
     1
176
     0
290
     0
176
     0
290
     0
176
     0
290
     0
176
     0
290
     0
176
     0
290
     0
176
     0
290
     0
176
     0
 90
       50
176
     0
 40
0.0
176
     0
 40
1.0
176
     0
 90
        0
176
     0
 62
    18
420
        0
176
     0
 90
       50
176
     0
 90
        3
176
     0
 62
     5
420
      255
176
     0
290
     0
176
     0
 90
       50
176
     0
 90
       50
176
     0
 90
       50
176
     0
290
     0
176
     0
 90
       50
176
     0
 62
   256
176
     0
 40
1.0
176
     0
 90
        2
176
     0
  1
strokes_ogs.tif
176
     0
290
     0
176
     0
 40
1.0
176
     0
 40
1.0
176
     0
  0
VISUALSTYLE
  5
13AA
102
{ACAD_REACTORS
330
139B
102
}
330
139B
100
AcDbVisualStyle
  2
Facepattern
 70
    15
177
     3
291
     1
 70
    58
 90
        2
176
     1
 90
        2
176
     1
 90
        0
176
     1
 90
        0
176
     1
 40
0.6
176
     1
 40
30.0
176
     1
 62
     7
420
 16777215
176
     1
 90
        1
176
     1
 90
        4
176
     1
 62
     7
176
     1
 62
   257
176
     1
 90
        1
176
     1
 90
        1
176
     1
 40
1.0
176
     1
 90
        8
176
     1
 62
     7
176
     1
 40
1.0
176
     1
 90
        1
176
     1
 90
        6
176
     1
 90
        2
176
     1
 62
     7
176
     1
 90
        5
176
     1
 90
        0
176
     1
 90
        0
176
     1
290
     0
176
     1
 90
        1
176
     1
 40
0.0
176
     1
 90
        0
176
     1
290
     0
176
     1
290
     1
176
     1
290
     1
176
     1
290
     0
176
     1
290
     0
176
     1
290
     0
176
     1
290
     0
176
     1
290
     0
176
     1
290
     0
176
     1
 90
       50
176
     1
 40
0.0
176
     1
 40
1.0
176
     1
 90
        0
176
     1
 62
    18
420
        0
176
     1
 90
       50
176
     1
 90
        3
176
     1
 62
     5
420
      255
176
     1
290
     0
176
     1
 90
       50
176
     1
 90
       50
176
     1
 90
       50
176
     1
290
     0
176
     1
 90
       50
176
     1
 62
   256
176
     0
 40
1.0
176
     0
 90
        2
176
     1
  1
strokes_ogs.tif
176
     1
290
     0
176
     1
 40
1.0
176
     1
 40
1.0
176
     1
  0
VISUALSTYLE
  5
139C
102
{ACAD_REACTORS
330
139B
102
}
330
139B
100
AcDbVisualStyle
  2
Flat
 70
     0
177
     3
291
     1
 70
    58
 90
        2
176
     1
 90
        1
176
     1
 90
        1
176
     1
 90
        2
176
     1
 40
0.6
176
     1
 40
30.0
176
     1
 62
     7
420
 16777215
176
     1
 90
        0
176
     1
 90
        0
176
     1
 62
     7
176
     1
 62
   257
176
     1
 90
        1
176
     1
 90
        1
176
     1
 40
1.0
176
     1
 90
        8
176
     1
 62
     7
176
     1
 40
1.0
176
     1
 90
        1
176
     1
 90
        6
176
     1
 90
        2
176
     1
 62
     7
176
     1
 90
        5
176
     1
 90
        0
176
     1
 90
        0
176
     1
290
     0
176
     1
 90
       13
176
     1
 40
0.0
176
     1
 90
        0
176
     1
290
     0
176
     1
290
     1
176
     1
290
     1
176
     1
290
     0
176
     1
290
     0
176
     1
290
     0
176
     1
290
     0
176
     1
290
     0
176
     1
290
     0
176
     1
 90
       50
176
     1
 40
0.0
176
     1
 40
1.0
176
     1
 90
        0
176
     1
 62
    18
420
        0
176
     1
 90
       50
176
     1
 90
        3
176
     1
 62
     5
420
      255
176
     1
290
     0
176
     1
 90
       50
176
     1
 90
       50
176
     1
 90
       50
176
     1
290
     0
176
     1
 90
       50
176
     1
 62
   256
176
     0
 40
1.0
176
     0
 90
        2
176
     1
  1
strokes_ogs.tif
176
     1
290
     0
176
     1
 40
1.0
176
     1
 40
1.0
176
     1
  0
VISUALSTYLE
  5
139D
102
{ACAD_REACTORS
330
139B
102
}
330
139B
100
AcDbVisualStyle
  2
FlatWithEdges
 70
     1
177
     3
291
     1
 70
    58
 90
        2
176
     1
 90
        1
176
     1
 90
        1
176
     1
 90
        2
176
     1
 40
0.6
176
     1
 40
30.0
176
     1
 62
     7
420
 16777215
176
     1
 90
        1
176
     1
 90
        0
176
     1
 62
     7
176
     1
 62
   257
176
     1
 90
        1
176
     1
 90
        1
176
     1
 40
1.0
176
     1
 90
        0
176
     1
 62
   257
176
     1
 40
1.0
176
     1
 90
        1
176
     1
 90
        6
176
     1
 90
        2
176
     1
 62
     7
176
     1
 90
        5
176
     1
 90
        0
176
     1
 90
        0
176
     1
290
     0
176
     1
 90
       13
176
     1
 40
0.0
176
     1
 90
        0
176
     1
290
     0
176
     1
290
     1
176
     1
290
     1
176
     1
290
     0
176
     1
290
     0
176
     1
290
     0
176
     1
290
     0
176
     1
290
     0
176
     1
290
     0
176
     1
 90
       50
176
     1
 40
0.0
176
     1
 40
1.0
176
     1
 90
        0
176
     1
 62
    18
420
        0
176
     1
 90
       50
176
     1
 90
        3
176
     1
 62
     5
420
      255
176
     1
290
     0
176
     1
 90
       50
176
     1
 90
       50
176
     1
 90
       50
176
     1
290
     0
176
     1
 90
       50
176
     1
 62
   256
176
     0
 40
1.0
176
     0
 90
        2
176
     1
  1
strokes_ogs.tif
176
     1
290
     0
176
     1
 40
1.0
176
     1
 40
1.0
176
     1
  0
VISUALSTYLE
  5
139E
102
{ACAD_REACTORS
330
139B
102
}
330
139B
100
AcDbVisualStyle
  2
Gouraud
 70
     2
177
     3
291
     1
 70
    58
 90
        2
176
     1
 90
        2
176
     1
 90
        1
176
     1
 90
        2
176
     1
 40
0.6
176
     1
 40
30.0
176
     1
 62
     7
420
 16777215
176
     1
 90
        0
176
     1
 90
        0
176
     1
 62
     7
176
     1
 62
   257
176
     1
 90
        1
176
     1
 90
        1
176
     1
 40
1.0
176
     1
 90
        0
176
     1
 62
     7
176
     1
 40
1.0
176
     1
 90
        1
176
     1
 90
        6
176
     1
 90
        2
176
     1
 62
     7
176
     1
 90
        5
176
     1
 90
        0
176
     1
 90
        0
176
     1
290
     0
176
     1
 90
       13
176
     1
 40
0.0
176
     1
 90
        0
176
     1
290
     0
176
     1
290
     1
176
     1
290
     1
176
     1
290
     0
176
     1
290
     0
176
     1
290
     0
176
     1
290
     0
176
     1
290
     0
176
     1
290
     0
176
     1
 90
       50
176
     1
 40
0.0
176
     1
 40
1.0
176
     1
 90
        0
176
     1
 62
    18
420
        0
176
     1
 90
       50
176
     1
 90
        3
176
     1
 62
     5
420
      255
176
     1
290
     0
176
     1
 90
       50
176
     1
 90
       50
176
     1
 90
       50
176
     1
290
     0
176
     1
 90
       50
176
     1
 62
   256
176
     0
 40
1.0
176
     0
 90
        2
176
     1
  1
strokes_ogs.tif
176
     1
290
     0
176
     1
 40
1.0
176
     1
 40
1.0
176
     1
  0
VISUALSTYLE
  5
139F
102
{ACAD_REACTORS
330
139B
102
}
330
139B
100
AcDbVisualStyle
  2
GouraudWithEdges
 70
     3
177
     3
291
     1
 70
    58
 90
        2
176
     1
 90
        2
176
     1
 90
        1
176
     1
 90
        2
176
     1
 40
0.6
176
     1
 40
30.0
176
     1
 62
     7
420
 16777215
176
     1
 90
        1
176
     1
 90
        0
176
     1
 62
     7
176
     1
 62
   257
176
     1
 90
        1
176
     1
 90
        1
176
     1
 40
1.0
176
     1
 90
        0
176
     1
 62
   257
176
     1
 40
1.0
176
     1
 90
        1
176
     1
 90
        6
176
     1
 90
        2
176
     1
 62
     7
176
     1
 90
        5
176
     1
 90
        0
176
     1
 90
        0
176
     1
290
     0
176
     1
 90
       13
176
     1
 40
0.0
176
     1
 90
        0
176
     1
290
     0
176
     1
290
     1
176
     1
290
     1
176
     1
290
     0
176
     1
290
     0
176
     1
290
     0
176
     1
290
     0
176
     1
290
     0
176
     1
290
     0
176
     1
 90
       50
176
     1
 40
0.0
176
     1
 40
1.0
176
     1
 90
        0
176
     1
 62
    18
420
        0
176
     1
 90
       50
176
     1
 90
        3
176
     1
 62
     5
420
      255
176
     1
290
     0
176
     1
 90
       50
176
     1
 90
       50
176
     1
 90
       50
176
     1
290
     0
176
     1
 90
       50
176
     1
 62
   256
176
     0
 40
1.0
176
     0
 90
        2
176
     1
  1
strokes_ogs.tif
176
     1
290
     0
176
     1
 40
1.0
176
     1
 40
1.0
176
     1
  0
VISUALSTYLE
  5
13A2
102
{ACAD_REACTORS
330
139B
102
}
330
139B
100
AcDbVisualStyle
  2
Hidden
 70
     6
177
     3
291
     0
 70
    58
 90
        1
176
     1
 90
        2
176
     1
 90
        2
176
     1
 90
        0
176
     1
 40
0.6
176
     1
 40
30.0
176
     1
 62
     7
420
 16777215
176
     1
 90
        2
176
     1
 90
        2
176
     1
 62
     7
176
     1
 62
   257
176
     1
 90
        2
176
     1
 90
        1
176
     1
 40
40.0
176
     1
 90
        0
176
     1
 62
   257
176
     1
 40
1.0
176
     1
 90
        1
176
     1
 90
        6
176
     1
 90
        2
176
     1
 62
     7
176
     1
 90
        3
176
     1
 90
        0
176
     1
 90
        0
176
     1
290
     0
176
     1
 90
        1
176
     1
 40
0.0
176
     1
 90
        0
176
     1
290
     0
176
     1
290
     1
176
     1
290
     1
176
     1
290
     0
176
     1
290
     0
176
     1
290
     0
176
     1
290
     0
176
     1
290
     0
176
     1
290
     0
176
     1
 90
       50
176
     1
 40
0.0
176
     1
 40
1.0
176
     1
 90
        0
176
     1
 62
    18
420
        0
176
     1
 90
       50
176
     1
 90
        3
176
     1
 62
     5
420
      255
176
     1
290
     0
176
     1
 90
       50
176
     1
 90
       50
176
     1
 90
       50
176
     1
290
     0
176
     1
 90
       50
176
     1
 62
   256
176
     0
 40
1.0
176
     0
 90
        2
176
     1
  1
strokes_ogs.tif
176
     1
290
     0
176
     1
 40
1.0
176
     1
 40
1.0
176
     1
  0
VISUALSTYLE
  5
13AC
102
{ACAD_REACTORS
330
139B
102
}
330
139B
100
AcDbVisualStyle
  2
JitterOff
 70
    20
177
     3
291
     1
 70
    58
 90
        2
176
     0
 90
        2
176
     0
 90
        0
176
     0
 90
        0
176
     0
 40
0.6
176
     0
 40
30.0
176
     0
 62
     7
420
 16777215
176
     0
 90
        1
176
     0
 90
        4
176
     0
 62
     7
176
     0
 62
   257
176
     0
 90
        1
176
     0
 90
        1
176
     0
 40
1.0
176
     0
 90
       10
176
     2
 62
     7
176
     0
 40
1.0
176
     0
 90
        1
176
     0
 90
        6
176
     0
 90
        2
176
     0
 62
     7
176
     0
 90
        5
176
     0
 90
        0
176
     0
 90
        0
176
     0
290
     0
176
     0
 90
        1
176
     0
 40
0.0
176
     0
 90
        0
176
     0
290
     0
176
     0
290
     1
176
     0
290
     1
176
     0
290
     0
176
     0
290
     0
176
     0
290
     0
176
     0
290
     0
176
     0
290
     0
176
     0
290
     0
176
     0
 90
       50
176
     0
 40
0.0
176
     0
 40
1.0
176
     0
 90
        0
176
     0
 62
    18
420
        0
176
     0
 90
       50
176
     0
 90
        3
176
     0
 62
     5
420
      255
176
     0
290
     0
176
     0
 90
       50
176
     0
 90
       50
176
     0
 90
       50
176
     0
290
     0
176
     0
 90
       50
176
     0
 62
   256
176
     0
 40
1.0
176
     0
 90
        2
176
     0
  1
strokes_ogs.tif
176
     0
290
     0
176
     0
 40
1.0
176
     0
 40
1.0
176
     0
  0
VISUALSTYLE
  5
13A9
102
{ACAD_REACTORS
330
139B
102
}
330
139B
100
AcDbVisualStyle
  2
Linepattern
 70
    14
177
     3
291
     1
 70
    58
 90
        2
176
     1
 90
        2
176
     1
 90
        0
176
     1
 90
        0
176
     1
 40
0.6
176
     1
 40
30.0
176
     1
 62
     7
420
 16777215
176
     1
 90
        1
176
     1
 90
        4
176
     1
 62
     7
176
     1
 62
   257
176
     1
 90
        7
176
     1
 90
        7
176
     1
 40
1.0
176
     1
 90
        8
176
     1
 62
     7
176
     1
 40
1.0
176
     1
 90
        1
176
     1
 90
        6
176
     1
 90
        2
176
     1
 62
     7
176
     1
 90
        5
176
     1
 90
        0
176
     1
 90
        0
176
     1
290
     0
176
     1
 90
        1
176
     1
 40
0.0
176
     1
 90
        0
176
     1
290
     0
176
     1
290
     1
176
     1
290
     1
176
     1
290
     0
176
     1
290
     0
176
     1
290
     0
176
     1
290
     0
176
     1
290
     0
176
     1
290
     0
176
     1
 90
       50
176
     1
 40
0.0
176
     1
 40
1.0
176
     1
 90
        0
176
     1
 62
    18
420
        0
176
     1
 90
       50
176
     1
 90
        3
176
     1
 62
     5
420
      255
176
     1
290
     0
176
     1
 90
       50
176
     1
 90
       50
176
     1
 90
       50
176
     1
290
     0
176
     1
 90
       50
176
     1
 62
   256
176
     0
 40
1.0
176
     0
 90
        2
176
     1
  1
strokes_ogs.tif
176
     1
290
     0
176
     1
 40
1.0
176
     1
 40
1.0
176
     1
  0
VISUALSTYLE
  5
13AD
102
{ACAD_REACTORS
330
139B
102
}
330
139B
100
AcDbVisualStyle
  2
OverhangOff
 70
    21
177
     3
291
     1
 70
    58
 90
        2
176
     0
 90
        2
176
     0
 90
        0
176
     0
 90
        0
176
     0
 40
0.6
176
     0
 40
30.0
176
     0
 62
     7
420
 16777215
176
     0
 90
        1
176
     0
 90
        4
176
     0
 62
     7
176
     0
 62
   257
176
     0
 90
        1
176
     0
 90
        1
176
     0
 40
1.0
176
     0
 90
        9
176
     2
 62
     7
176
     0
 40
1.0
176
     0
 90
        1
176
     0
 90
        6
176
     0
 90
        2
176
     0
 62
     7
176
     0
 90
        5
176
     0
 90
        0
176
     0
 90
        0
176
     0
290
     0
176
     0
 90
        1
176
     0
 40
0.0
176
     0
 90
        0
176
     0
290
     0
176
     0
290
     1
176
     0
290
     1
176
     0
290
     0
176
     0
290
     0
176
     0
290
     0
176
     0
290
     0
176
     0
290
     0
176
     0
290
     0
176
     0
 90
       50
176
     0
 40
0.0
176
     0
 40
1.0
176
     0
 90
        0
176
     0
 62
    18
420
        0
176
     0
 90
       50
176
     0
 90
        3
176
     0
 62
     5
420
      255
176
     0
290
     0
176
     0
 90
       50
176
     0
 90
       50
176
     0
 90
       50
176
     0
290
     0
176
     0
 90
       50
176
     0
 62
   256
176
     0
 40
1.0
176
     0
 90
        2
176
     0
  1
strokes_ogs.tif
176
     0
290
     0
176
     0
 40
1.0
176
     0
 40
1.0
176
     0
  0
VISUALSTYLE
  5
13A4
102
{ACAD_REACTORS
330
139B
102
}
330
139B
100
AcDbVisualStyle
  2
Realistic
 70
     8
177
     3
291
     0
 70
    58
 90
        2
176
     1
 90
        3
176
     1
 90
        0
176
     1
 90
        2
176
     1
 40
0.6
176
     1
 40
30.0
176
     1
 62
     7
420
 16777215
176
     1
 90
        0
176
     1
 90
        0
176
     1
 62
     7
176
     1
 62
   257
176
     1
 90
        1
176
     1
 90
        1
176
     1
 40
1.0
176
     1
 90
        8
176
     1
 62
   257
176
     1
 40
1.0
176
     1
 90
        1
176
     1
 90
        6
176
     1
 90
        2
176
     1
 62
     7
176
     1
 90
        3
176
     1
 90
        0
176
     1
 90
        0
176
     1
290
     0
176
     1
 90
       13
176
     1
 40
0.0
176
     1
 90
        0
176
     1
290
     0
176
     1
290
     1
176
     1
290
     1
176
     1
290
     0
176
     1
290
     0
176
     1
290
     0
176
     1
290
     0
176
     1
290
     0
176
     1
290
     0
176
     1
 90
       50
176
     1
 40
0.0
176
     1
 40
1.0
176
     1
 90
        0
176
     1
 62
    18
420
        0
176
     1
 90
       50
176
     1
 90
        3
176
     1
 62
     5
420
      255
176
     1
290
     0
176
     1
 90
       50
176
     1
 90
       50
176
     1
 90
       50
176
     1
290
     0
176
     1
 90
       50
176
     1
 62
   256
176
     0
 40
1.0
176
     0
 90
        2
176
     1
  1
strokes_ogs.tif
176
     1
290
     0
176
     1
 40
1.0
176
     1
 40
1.0
176
     1
  0
VISUALSTYLE
  5
13B3
102
{ACAD_REACTORS
330
139B
102
}
330
139B
100
AcDbVisualStyle
  2
Shaded
 70
    27
177
     3
291
     0
 70
    58
 90
        2
176
     1
 90
        2
176
     1
 90
        1
176
     1
 90
        2
176
     1
 40
0.6
176
     1
 40
30.0
176
     1
 62
     7
420
 16777215
176
     1
 90
        0
176
     1
 90
        4
176
     1
 62
     7
176
     1
 62
   257
176
     1
 90
        1
176
     1
 90
        1
176
     1
 40
1.0
176
     1
 90
        8
176
     1
 62
   257
176
     1
 40
1.0
176
     1
 90
        1
176
     1
 90
        6
176
     1
 90
        2
176
     1
 62
     8
420
  7895160
176
     1
 90
        3
176
     1
 90
        0
176
     1
 90
        0
176
     1
290
     0
176
     1
 90
        5
176
     1
 40
0.0
176
     1
 90
        0
176
     1
290
     0
176
     1
290
     1
176
     1
290
     1
176
     1
290
     0
176
     1
290
     0
176
     1
290
     0
176
     1
290
     0
176
     1
290
     0
176
     1
290
     0
176
     1
 90
       50
176
     1
 40
0.0
176
     1
 40
1.0
176
     1
 90
        0
176
     1
 62
    18
420
        0
176
     1
 90
       50
176
     1
 90
        3
176
     1
 62
     5
420
      255
176
     1
290
     0
176
     1
 90
       50
176
     1
 90
       50
176
     1
 90
       50
176
     1
290
     0
176
     1
 90
       50
176
     1
 62
   256
176
     0
 40
1.0
176
     0
 90
        2
176
     1
  1
strokes_ogs.tif
176
     1
290
     0
176
     1
 40
1.0
176
     1
 40
1.0
176
     1
  0
VISUALSTYLE
  5
13B2
102
{ACAD_REACTORS
330
139B
102
}
330
139B
100
AcDbVisualStyle
  2
Shaded with edges
 70
    26
177
     3
291
     0
 70
    58
 90
        2
176
     1
 90
        2
176
     1
 90
        1
176
     1
 90
        2
176
     1
 40
0.6
176
     1
 40
30.0
176
     1
 62
     7
420
 16777215
176
     1
 90
        1
176
     1
 90
       10
176
     1
 62
     7
176
     1
 62
   257
176
     1
 90
        2
176
     1
 90
        1
176
     1
 40
1.0
176
     1
 90
        8
176
     1
 62
   257
176
     1
 40
1.0
176
     1
 90
        1
176
     1
 90
        6
176
     1
 90
        2
176
     1
 62
     7
176
     1
 90
        3
176
     1
 90
        0
176
     1
 90
        0
176
     1
290
     0
176
     1
 90
        5
176
     1
 40
0.0
176
     1
 90
        0
176
     1
290
     0
176
     1
290
     1
176
     1
290
     1
176
     1
290
     0
176
     1
290
     0
176
     1
290
     0
176
     1
290
     0
176
     1
290
     0
176
     1
290
     0
176
     1
 90
       50
176
     1
 40
0.0
176
     1
 40
1.0
176
     1
 90
        0
176
     1
 62
    18
420
        0
176
     1
 90
       50
176
     1
 90
        3
176
     1
 62
     5
420
      255
176
     1
290
     0
176
     1
 90
       50
176
     1
 90
       50
176
     1
 90
       50
176
     1
290
     0
176
     1
 90
       50
176
     1
 62
   256
176
     0
 40
1.0
176
     0
 90
        2
176
     1
  1
strokes_ogs.tif
176
     1
290
     0
176
     1
 40
1.0
176
     1
 40
1.0
176
     1
  0
VISUALSTYLE
  5
13AF
102
{ACAD_REACTORS
330
139B
102
}
330
139B
100
AcDbVisualStyle
  2
Shades of Gray
 70
    23
177
     3
291
     0
 70
    58
 90
        2
176
     1
 90
        2
176
     1
 90
        3
176
     1
 90
        0
176
     1
 40
0.6
176
     1
 40
30.0
176
     1
 62
     7
420
 16777215
176
     1
 90
        2
176
     1
 90
        2
176
     1
 62
     7
176
     1
 62
     7
176
     1
 90
        1
176
     1
 90
        1
176
     1
 40
40.0
176
     1
 90
        8
176
     1
 62
     7
176
     1
 40
1.0
176
     1
 90
        1
176
     1
 90
        6
176
     1
 90
        2
176
     1
 62
     7
176
     1
 90
        3
176
     1
 90
        0
176
     1
 90
        0
176
     1
290
     0
176
     1
 90
        1
176
     1
 40
0.0
176
     1
 90
        0
176
     1
290
     0
176
     1
290
     1
176
     1
290
     1
176
     1
290
     0
176
     1
290
     0
176
     1
290
     0
176
     1
290
     0
176
     1
290
     0
176
     1
290
     0
176
     1
 90
       50
176
     1
 40
0.0
176
     1
 40
1.0
176
     1
 90
        0
176
     1
 62
    18
420
        0
176
     1
 90
       50
176
     1
 90
        3
176
     1
 62
     5
420
      255
176
     1
290
     0
176
     1
 90
       50
176
     1
 90
       50
176
     1
 90
       50
176
     1
290
     0
176
     1
 90
       50
176
     1
 62
   256
176
     0
 40
1.0
176
     0
 90
        2
176
     1
  1
strokes_ogs.tif
176
     1
290
     0
176
     1
 40
1.0
176
     1
 40
1.0
176
     1
  0
VISUALSTYLE
  5
13B0
102
{ACAD_REACTORS
330
139B
102
}
330
139B
100
AcDbVisualStyle
  2
Sketchy
 70
    24
177
     3
291
     0
 70
    58
 90
        1
176
     1
 90
        2
176
     1
 90
        2
176
     1
 90
        0
176
     1
 40
0.6
176
     1
 40
30.0
176
     1
 62
     7
420
 16777215
176
     1
 90
        2
176
     1
 90
        2
176
     1
 62
     7
176
     1
 62
     7
176
     1
 90
        1
176
     1
 90
        1
176
     1
 40
40.0
176
     1
 90
       11
176
     1
 62
     7
176
     1
 40
1.0
176
     1
 90
        1
176
     1
 90
        6
176
     1
 90
        2
176
     1
 62
     7
176
     1
 90
        6
176
     1
 90
        0
176
     1
 90
        0
176
     1
290
     0
176
     1
 90
        1
176
     1
 40
0.0
176
     1
 90
        0
176
     1
290
     0
176
     1
290
     1
176
     1
290
     1
176
     1
290
     0
176
     1
290
     0
176
     1
290
     0
176
     1
290
     0
176
     1
290
     0
176
     1
290
     0
176
     1
 90
       50
176
     1
 40
0.0
176
     1
 40
1.0
176
     1
 90
        0
176
     1
 62
    18
420
        0
176
     1
 90
       50
176
     1
 90
        3
176
     1
 62
     5
420
      255
176
     1
290
     0
176
     1
 90
       50
176
     1
 90
       50
176
     1
 90
       50
176
     1
290
     0
176
     1
 90
       50
176
     1
 62
   256
176
     0
 40
1.0
176
     0
 90
        2
176
     1
  1
strokes_ogs.tif
176
     1
290
     0
176
     1
 40
1.0
176
     1
 40
1.0
176
     1
  0
VISUALSTYLE
  5
13A8
102
{ACAD_REACTORS
330
139B
102
}
330
139B
100
AcDbVisualStyle
  2
Thicken
 70
    13
177
     3
291
     1
 70
    58
 90
        2
176
     1
 90
        2
176
     1
 90
        0
176
     1
 90
        0
176
     1
 40
0.6
176
     1
 40
30.0
176
     1
 62
     7
420
 16777215
176
     1
 90
        1
176
     1
 90
        4
176
     1
 62
     7
176
     1
 62
   257
176
     1
 90
        1
176
     1
 90
        1
176
     1
 40
1.0
176
     1
 90
       12
176
     1
 62
     7
176
     1
 40
1.0
176
     1
 90
        1
176
     1
 90
        6
176
     1
 90
        2
176
     1
 62
     7
176
     1
 90
        5
176
     1
 90
        0
176
     1
 90
        0
176
     1
290
     0
176
     1
 90
        1
176
     1
 40
0.0
176
     1
 90
        0
176
     1
290
     0
176
     1
290
     1
176
     1
290
     1
176
     1
290
     0
176
     1
290
     0
176
     1
290
     0
176
     1
290
     0
176
     1
290
     0
176
     1
290
     0
176
     1
 90
       50
176
     1
 40
0.0
176
     1
 40
1.0
176
     1
 90
        0
176
     1
 62
    18
420
        0
176
     1
 90
       50
176
     1
 90
        3
176
     1
 62
     5
420
      255
176
     1
290
     0
176
     1
 90
       50
176
     1
 90
       50
176
     1
 90
       50
176
     1
290
     0
176
     1
 90
       50
176
     1
 62
   256
176
     0
 40
1.0
176
     0
 90
        2
176
     1
  1
strokes_ogs.tif
176
     1
290
     0
176
     1
 40
1.0
176
     1
 40
1.0
176
     1
  0
VISUALSTYLE
  5
13A1
102
{ACAD_REACTORS
330
139B
102
}
330
139B
100
AcDbVisualStyle
  2
Wireframe
 70
     5
177
     3
291
     0
 70
    58
 90
        0
176
     1
 90
        2
176
     1
 90
        0
176
     1
 90
        0
176
     1
 40
0.6
176
     1
 40
30.0
176
     1
 62
     7
420
 16777215
176
     1
 90
        1
176
     1
 90
        4
176
     1
 62
     7
176
     1
 62
   257
176
     1
 90
        1
176
     1
 90
        1
176
     1
 40
1.0
176
     1
 90
        0
176
     1
 62
   257
176
     1
 40
1.0
176
     1
 90
        1
176
     1
 90
        6
176
     1
 90
        2
176
     1
 62
     7
176
     1
 90
        3
176
     1
 90
        0
176
     1
 90
        0
176
     1
290
     0
176
     1
 90
        1
176
     1
 40
0.0
176
     1
 90
        0
176
     1
290
     0
176
     1
290
     1
176
     1
290
     1
176
     1
290
     0
176
     1
290
     0
176
     1
290
     0
176
     1
290
     0
176
     1
290
     0
176
     1
290
     0
176
     1
 90
       50
176
     1
 40
0.0
176
     1
 40
1.0
176
     1
 90
        0
176
     1
 62
    18
420
        0
176
     1
 90
       50
176
     1
 90
        3
176
     1
 62
     5
420
      255
176
     1
290
     0
176
     1
 90
       50
176
     1
 90
       50
176
     1
 90
       50
176
     1
290
     0
176
     1
 90
       50
176
     1
 62
   256
176
     0
 40
1.0
176
     0
 90
        2
176
     1
  1
strokes_ogs.tif
176
     1
290
     0
176
     1
 40
1.0
176
     1
 40
1.0
176
     1
  0
VISUALSTYLE
  5
13B1
102
{ACAD_REACTORS
330
139B
102
}
330
139B
100
AcDbVisualStyle
  2
X-Ray
 70
    25
177
     3
291
     0
 70
    58
 90
        2
176
     1
 90
        2
176
     1
 90
        1
176
     1
 90
        1
176
     1
 40
0.5
176
     1
 40
30.0
176
     1
 62
     7
420
 16777215
176
     1
 90
        1
176
     1
 90
        0
176
     1
 62
     7
176
     1
 62
   257
176
     1
 90
        1
176
     1
 90
        1
176
     1
 40
1.0
176
     1
 90
        8
176
     1
 62
     7
176
     1
 40
1.0
176
     1
 90
        1
176
     1
 90
        6
176
     1
 90
        2
176
     1
 62
     7
176
     1
 90
        3
176
     1
 90
        0
176
     1
 90
        0
176
     1
290
     0
176
     1
 90
       13
176
     1
 40
0.0
176
     1
 90
        0
176
     1
290
     0
176
     1
290
     1
176
     1
290
     1
176
     1
290
     0
176
     1
290
     0
176
     1
290
     0
176
     1
290
     0
176
     1
290
     0
176
     1
290
     0
176
     1
 90
       50
176
     1
 40
0.0
176
     1
 40
1.0
176
     1
 90
        0
176
     1
 62
    18
420
        0
176
     1
 90
       50
176
     1
 90
        3
176
     1
 62
     5
420
      255
176
     1
290
     0
176
     1
 90
       50
176
     1
 90
       50
176
     1
 90
       50
176
     1
290
     0
176
     1
 90
       50
176
     1
 62
   256
176
     0
 40
1.0
176
     0
 90
        2
176
     1
  1
strokes_ogs.tif
176
     1
290
     0
176
     1
 40
1.0
176
     1
 40
1.0
176
     1
  0
DICTIONARYVAR
  5
13EC
102
{ACAD_REACTORS
330
13EB
102
}
330
13EB
100
DictionaryVariables
280
     0
  1
1:1
  0
DICTIONARYVAR
  5
13F0
102
{ACAD_REACTORS
330
13EB
102
}
330
13EB
100
DictionaryVariables
280
     0
  1
Standard
  0
DICTIONARYVAR
  5
13F2
102
{ACAD_REACTORS
330
13EB
102
}
330
13EB
100
DictionaryVariables
280
     0
  1
0
  0
DICTIONARYVAR
  5
13F3
102
{ACAD_REACTORS
330
13EB
102
}
330
13EB
100
DictionaryVariables
280
     0
  1
0
  0
DICTIONARY
  5
14F1
330
13DA
100
AcDbDictionary
280
     1
281
     1
  3
ACAD_ROUNDTRIP_2008_TABLESTYLE_CELLSTYLEMAP
360
14F2
  0
CELLSTYLEMAP
  5
14F2
102
{ACAD_REACTORS
330
14F1
102
}
330
14F1
100
AcDbCellStyleMap
 90
        3
300
CELLSTYLE
  1
TABLEFORMAT_BEGIN
 90
        5
170
     1
 91
        0
 92
        0
 62
   257
 93
        1
300
CONTENTFORMAT
  1
CONTENTFORMAT_BEGIN
 90
        0
 91
        0
 92
        4
 93
        0
300

 40
0.0
140
1.0
 94
        5
 62
     0
340
11
144
6.0
309
CONTENTFORMAT_END
171
     1
301
MARGIN
  1
CELLMARGIN_BEGIN
 40
1.5
 40
1.5
 40
1.5
 40
1.5
 40
1.5
 40
1.5
309
CELLMARGIN_END
 94
        6
 95
        1
302
GRIDFORMAT
  1
GRIDFORMAT_BEGIN
 90
        0
 91
        1
 62
     0
 92
       -2
340
14
 93
        0
 40
0.045
309
GRIDFORMAT_END
 95
        2
302
GRIDFORMAT
  1
GRIDFORMAT_BEGIN
 90
        0
 91
        1
 62
     0
 92
       -2
340
14
 93
        0
 40
0.045
309
GRIDFORMAT_END
 95
        4
302
GRIDFORMAT
  1
GRIDFORMAT_BEGIN
 90
        0
 91
        1
 62
     0
 92
       -2
340
14
 93
        0
 40
0.045
309
GRIDFORMAT_END
 95
        8
302
GRIDFORMAT
  1
GRIDFORMAT_BEGIN
 90
        0
 91
        1
 62
     0
 92
       -2
340
14
 93
        0
 40
0.045
309
GRIDFORMAT_END
 95
       16
302
GRIDFORMAT
  1
GRIDFORMAT_BEGIN
 90
        0
 91
        1
 62
     0
 92
       -2
340
14
 93
        0
 40
0.045
309
GRIDFORMAT_END
 95
       32
302
GRIDFORMAT
  1
GRIDFORMAT_BEGIN
 90
        0
 91
        1
 62
     0
 92
       -2
340
14
 93
        0
 40
0.045
309
GRIDFORMAT_END
309
TABLEFORMAT_END
  1
CELLSTYLE_BEGIN
 90
        1
 91
        1
300
_TITLE
309
CELLSTYLE_END
300
CELLSTYLE
  1
TABLEFORMAT_BEGIN
 90
        5
170
     1
 91
        0
 92
        0
 62
   257
 93
        1
300
CONTENTFORMAT
  1
CONTENTFORMAT_BEGIN
 90
        0
 91
        0
 92
        4
 93
        0
300

 40
0.0
140
1.0
 94
        5
 62
     0
340
11
144
4.5
309
CONTENTFORMAT_END
171
     1
301
MARGIN
  1
CELLMARGIN_BEGIN
 40
1.5
 40
1.5
 40
1.5
 40
1.5
 40
1.5
 40
1.5
309
CELLMARGIN_END
 94
        6
 95
        1
302
GRIDFORMAT
  1
GRIDFORMAT_BEGIN
 90
        0
 91
        1
 62
     0
 92
       -2
340
14
 93
        0
 40
0.045
309
GRIDFORMAT_END
 95
        2
302
GRIDFORMAT
  1
GRIDFORMAT_BEGIN
 90
        0
 91
        1
 62
     0
 92
       -2
340
14
 93
        0
 40
0.045
309
GRIDFORMAT_END
 95
        4
302
GRIDFORMAT
  1
GRIDFORMAT_BEGIN
 90
        0
 91
        1
 62
     0
 92
       -2
340
14
 93
        0
 40
0.045
309
GRIDFORMAT_END
 95
        8
302
GRIDFORMAT
  1
GRIDFORMAT_BEGIN
 90
        0
 91
        1
 62
     0
 92
       -2
340
14
 93
        0
 40
0.045
309
GRIDFORMAT_END
 95
       16
302
GRIDFORMAT
  1
GRIDFORMAT_BEGIN
 90
        0
 91
        1
 62
     0
 92
       -2
340
14
 93
        0
 40
0.045
309
GRIDFORMAT_END
 95
       32
302
GRIDFORMAT
  1
GRIDFORMAT_BEGIN
 90
        0
 91
        1
 62
     0
 92
       -2
340
14
 93
        0
 40
0.045
309
GRIDFORMAT_END
309
TABLEFORMAT_END
  1
CELLSTYLE_BEGIN
 90
        2
 91
        1
300
_HEADER
309
CELLSTYLE_END
300
CELLSTYLE
  1
TABLEFORMAT_BEGIN
 90
        5
170
     1
 91
        0
 92
        0
 62
   257
 93
        1
300
CONTENTFORMAT
  1
CONTENTFORMAT_BEGIN
 90
        0
 91
        0
 92
        4
 93
        0
300

 40
0.0
140
1.0
 94
        2
 62
     0
340
11
144
4.5
309
CONTENTFORMAT_END
171
     1
301
MARGIN
  1
CELLMARGIN_BEGIN
 40
1.5
 40
1.5
 40
1.5
 40
1.5
 40
1.5
 40
1.5
309
CELLMARGIN_END
 94
        6
 95
        1
302
GRIDFORMAT
  1
GRIDFORMAT_BEGIN
 90
        0
 91
        1
 62
     0
 92
       -2
340
14
 93
        0
 40
0.045
309
GRIDFORMAT_END
 95
        2
302
GRIDFORMAT
  1
GRIDFORMAT_BEGIN
 90
        0
 91
        1
 62
     0
 92
       -2
340
14
 93
        0
 40
0.045
309
GRIDFORMAT_END
 95
        4
302
GRIDFORMAT
  1
GRIDFORMAT_BEGIN
 90
        0
 91
        1
 62
     0
 92
       -2
340
14
 93
        0
 40
0.045
309
GRIDFORMAT_END
 95
        8
302
GRIDFORMAT
  1
GRIDFORMAT_BEGIN
 90
        0
 91
        1
 62
     0
 92
       -2
340
14
 93
        0
 40
0.045
309
GRIDFORMAT_END
 95
       16
302
GRIDFORMAT
  1
GRIDFORMAT_BEGIN
 90
        0
 91
        1
 62
     0
 92
       -2
340
14
 93
        0
 40
0.045
309
GRIDFORMAT_END
 95
       32
302
GRIDFORMAT
  1
GRIDFORMAT_BEGIN
 90
        0
 91
        1
 62
     0
 92
       -2
340
14
 93
        0
 40
0.045
309
GRIDFORMAT_END
309
TABLEFORMAT_END
  1
CELLSTYLE_BEGIN
 90
        3
 91
        2
300
_DATA
309
CELLSTYLE_END
  0
ENDSEC
  0
EOF
