  0
SECTION
  2
HEADER
  9
$ACADVER
  1
AC1027
  9
$ACADMAINTVER
 70
     8
  9
$DWGCODEPAGE
  3
ANSI_932
  9
$REQUIREDVERSIONS
160
                 0
  9
$LASTSAVEDBY
  1
Yasu
  9
$INSBASE
 10
0.0
 20
0.0
 30
0.0
  9
$EXTMIN
 10
38.79825288314534
 20
26.34030576788081
 30
0.0
  9
$EXTMAX
 10
208.5914289045107
 20
214.7133902929683
 30
0.0
  9
$LIMMIN
 10
0.0
 20
0.0
  9
$LIMMAX
 10
420.0
 20
297.0
  9
$ORTHOMODE
 70
     0
  9
$REGENMODE
 70
     1
  9
$FILLMODE
 70
     1
  9
$QTEXTMODE
 70
     0
  9
$MIRRTEXT
 70
     0
  9
$LTSCALE
 40
0.2
  9
$ATTMODE
 70
     1
  9
$TEXTSIZE
 40
3.0
  9
$TRACEWID
 40
1.0
  9
$TEXTSTYLE
  7
Standard
  9
$CLAYER
  8
文字
  9
$CELTYPE
  6
ByLayer
  9
$CECOLOR
 62
   256
  9
$CELTSCALE
 40
1.0
  9
$DISPSILH
 70
     0
  9
$DIMSCALE
 40
1.0
  9
$DIMASZ
 40
2.5
  9
$DIMEXO
 40
0.625
  9
$DIMDLI
 40
3.75
  9
$DIMRND
 40
0.0
  9
$DIMDLE
 40
0.0
  9
$DIMEXE
 40
1.25
  9
$DIMTP
 40
0.0
  9
$DIMTM
 40
0.0
  9
$DIMTXT
 40
2.5
  9
$DIMCEN
 40
2.5
  9
$DIMTSZ
 40
0.0
  9
$DIMTOL
 70
     0
  9
$DIMLIM
 70
     0
  9
$DIMTIH
 70
     0
  9
$DIMTOH
 70
     0
  9
$DIMSE1
 70
     0
  9
$DIMSE2
 70
     0
  9
$DIMTAD
 70
     1
  9
$DIMZIN
 70
     8
  9
$DIMBLK
  1

  9
$DIMASO
 70
     1
  9
$DIMSHO
 70
     1
  9
$DIMPOST
  1

  9
$DIMAPOST
  1

  9
$DIMALT
 70
     0
  9
$DIMALTD
 70
     3
  9
$DIMALTF
 40
0.03937007874016
  9
$DIMLFAC
 40
1.0
  9
$DIMTOFL
 70
     1
  9
$DIMTVP
 40
0.0
  9
$DIMTIX
 70
     0
  9
$DIMSOXD
 70
     0
  9
$DIMSAH
 70
     0
  9
$DIMBLK1
  1

  9
$DIMBLK2
  1

  9
$DIMSTYLE
  2
ISO-25
  9
$DIMCLRD
 70
     0
  9
$DIMCLRE
 70
     0
  9
$DIMCLRT
 70
     0
  9
$DIMTFAC
 40
1.0
  9
$DIMGAP
 40
0.625
  9
$DIMJUST
 70
     0
  9
$DIMSD1
 70
     0
  9
$DIMSD2
 70
     0
  9
$DIMTOLJ
 70
     0
  9
$DIMTZIN
 70
     8
  9
$DIMALTZ
 70
     0
  9
$DIMALTTZ
 70
     0
  9
$DIMUPT
 70
     0
  9
$DIMDEC
 70
     2
  9
$DIMTDEC
 70
     2
  9
$DIMALTU
 70
     2
  9
$DIMALTTD
 70
     3
  9
$DIMTXSTY
  7
Standard
  9
$DIMAUNIT
 70
     0
  9
$DIMADEC
 70
     0
  9
$DIMALTRND
 40
0.0
  9
$DIMAZIN
 70
     0
  9
$DIMDSEP
 70
    46
  9
$DIMATFIT
 70
     3
  9
$DIMFRAC
 70
     0
  9
$DIMLDRBLK
  1

  9
$DIMLUNIT
 70
     2
  9
$DIMLWD
 70
    -2
  9
$DIMLWE
 70
    -2
  9
$DIMTMOVE
 70
     0
  9
$DIMFXL
 40
1.0
  9
$DIMFXLON
 70
     0
  9
$DIMJOGANG
 40
0.7853981633974483
  9
$DIMTFILL
 70
     0
  9
$DIMTFILLCLR
 70
     0
  9
$DIMARCSYM
 70
     0
  9
$DIMLTYPE
  6

  9
$DIMLTEX1
  6

  9
$DIMLTEX2
  6

  9
$DIMTXTDIRECTION
 70
     0
  9
$LUNITS
 70
     2
  9
$LUPREC
 70
     4
  9
$SKETCHINC
 40
1.0
  9
$FILLETRAD
 40
2.0
  9
$AUNITS
 70
     0
  9
$AUPREC
 70
     0
  9
$MENU
  1
.
  9
$ELEVATION
 40
0.0
  9
$PELEVATION
 40
0.0
  9
$THICKNESS
 40
0.0
  9
$LIMCHECK
 70
     0
  9
$CHAMFERA
 40
1.0
  9
$CHAMFERB
 40
1.0
  9
$CHAMFERC
 40
0.0
  9
$CHAMFERD
 40
0.0
  9
$SKPOLY
 70
     0
  9
$TDCREATE
 40
2452936.788310359
  9
$TDUCREATE
 40
2452936.413310359
  9
$TDUPDATE
 40
2456739.896352408
  9
$TDUUPDATE
 40
2456739.521352408
  9
$TDINDWG
 40
0.6278135532
  9
$TDUSRTIMER
 40
2456739.52117625
  9
$USRTIMER
 70
     1
  9
$ANGBASE
 50
0.0
  9
$ANGDIR
 70
     0
  9
$PDMODE
 70
     0
  9
$PDSIZE
 40
0.0
  9
$PLINEWID
 40
0.0
  9
$SPLFRAME
 70
     0
  9
$SPLINETYPE
 70
     6
  9
$SPLINESEGS
 70
     8
  9
$HANDSEED
  5
15C8
  9
$SURFTAB1
 70
     6
  9
$SURFTAB2
 70
     6
  9
$SURFTYPE
 70
     6
  9
$SURFU
 70
     6
  9
$SURFV
 70
     6
  9
$UCSBASE
  2

  9
$UCSNAME
  2

  9
$UCSORG
 10
0.0
 20
0.0
 30
0.0
  9
$UCSXDIR
 10
1.0
 20
0.0
 30
0.0
  9
$UCSYDIR
 10
0.0
 20
1.0
 30
0.0
  9
$UCSORTHOREF
  2

  9
$UCSORTHOVIEW
 70
     0
  9
$UCSORGTOP
 10
0.0
 20
0.0
 30
0.0
  9
$UCSORGBOTTOM
 10
0.0
 20
0.0
 30
0.0
  9
$UCSORGLEFT
 10
0.0
 20
0.0
 30
0.0
  9
$UCSORGRIGHT
 10
0.0
 20
0.0
 30
0.0
  9
$UCSORGFRONT
 10
0.0
 20
0.0
 30
0.0
  9
$UCSORGBACK
 10
0.0
 20
0.0
 30
0.0
  9
$PUCSBASE
  2

  9
$PUCSNAME
  2

  9
$PUCSORG
 10
0.0
 20
0.0
 30
0.0
  9
$PUCSXDIR
 10
1.0
 20
0.0
 30
0.0
  9
$PUCSYDIR
 10
0.0
 20
1.0
 30
0.0
  9
$PUCSORTHOREF
  2

  9
$PUCSORTHOVIEW
 70
     0
  9
$PUCSORGTOP
 10
0.0
 20
0.0
 30
0.0
  9
$PUCSORGBOTTOM
 10
0.0
 20
0.0
 30
0.0
  9
$PUCSORGLEFT
 10
0.0
 20
0.0
 30
0.0
  9
$PUCSORGRIGHT
 10
0.0
 20
0.0
 30
0.0
  9
$PUCSORGFRONT
 10
0.0
 20
0.0
 30
0.0
  9
$PUCSORGBACK
 10
0.0
 20
0.0
 30
0.0
  9
$USERI1
 70
     0
  9
$USERI2
 70
     0
  9
$USERI3
 70
     0
  9
$USERI4
 70
     0
  9
$USERI5
 70
     0
  9
$USERR1
 40
0.0
  9
$USERR2
 40
0.0
  9
$USERR3
 40
0.0
  9
$USERR4
 40
0.0
  9
$USERR5
 40
0.0
  9
$WORLDVIEW
 70
     1
  9
$SHADEDGE
 70
     3
  9
$SHADEDIF
 70
    70
  9
$TILEMODE
 70
     1
  9
$MAXACTVP
 70
    64
  9
$PINSBASE
 10
0.0
 20
0.0
 30
0.0
  9
$PLIMCHECK
 70
     0
  9
$PEXTMIN
 10
0.0
 20
0.0
 30
0.0
  9
$PEXTMAX
 10
0.0
 20
0.0
 30
0.0
  9
$PLIMMIN
 10
-6.35
 20
-6.35
  9
$PLIMMAX
 10
413.8083333333333
 20
290.6888888888888
  9
$UNITMODE
 70
     0
  9
$VISRETAIN
 70
     1
  9
$PLINEGEN
 70
     0
  9
$PSLTSCALE
 70
     1
  9
$TREEDEPTH
 70
  3020
  9
$CMLSTYLE
  2
Standard
  9
$CMLJUST
 70
     0
  9
$CMLSCALE
 40
20.0
  9
$PROXYGRAPHICS
 70
     1
  9
$MEASUREMENT
 70
     1
  9
$CELWEIGHT
370
    -1
  9
$ENDCAPS
280
     0
  9
$JOINSTYLE
280
     0
  9
$LWDISPLAY
290
     0
  9
$INSUNITS
 70
     4
  9
$HYPERLINKBASE
  1

  9
$STYLESHEET
  1

  9
$XEDIT
290
     1
  9
$CEPSNTYPE
380
     0
  9
$PSTYLEMODE
290
     1
  9
$FINGERPRINTGUID
  2
{86E58535-AB5B-4AFE-AB1B-6758AAB7EA7D}
  9
$VERSIONGUID
  2
{59D8FF90-8FBA-4F65-8A17-5A9D002001C8}
  9
$EXTNAMES
290
     1
  9
$PSVPSCALE
 40
0.0
  9
$OLESTARTUP
290
     0
  9
$SORTENTS
280
   127
  9
$INDEXCTL
280
     0
  9
$HIDETEXT
280
     1
  9
$XCLIPFRAME
280
     0
  9
$HALOGAP
280
     0
  9
$OBSCOLOR
 70
   257
  9
$OBSLTYPE
280
     0
  9
$INTERSECTIONDISPLAY
280
     0
  9
$INTERSECTIONCOLOR
 70
   257
  9
$DIMASSOC
280
     2
  9
$PROJECTNAME
  1

  9
$CAMERADISPLAY
290
     0
  9
$LENSLENGTH
 40
50.0
  9
$CAMERAHEIGHT
 40
0.0
  9
$STEPSPERSEC
 40
2.0
  9
$STEPSIZE
 40
6.0
  9
$3DDWFPREC
 40
2.0
  9
$PSOLWIDTH
 40
0.25
  9
$PSOLHEIGHT
 40
4.0
  9
$LOFTANG1
 40
1.570796326794897
  9
$LOFTANG2
 40
1.570796326794897
  9
$LOFTMAG1
 40
0.0
  9
$LOFTMAG2
 40
0.0
  9
$LOFTPARAM
 70
     7
  9
$LOFTNORMALS
280
     1
  9
$LATITUDE
 40
37.795
  9
$LONGITUDE
 40
-122.394
  9
$NORTHDIRECTION
 40
0.0
  9
$TIMEZONE
 70
 -8000
  9
$LIGHTGLYPHDISPLAY
280
     1
  9
$TILEMODELIGHTSYNCH
280
     1
  9
$SOLIDHIST
280
     1
  9
$SHOWHIST
280
     1
  9
$DWFFRAME
280
     2
  9
$DGNFRAME
280
     2
  9
$REALWORLDSCALE
290
     1
  9
$INTERFERECOLOR
 62
   256
  9
$CSHADOW
280
     0
  9
$SHADOWPLANELOCATION
 40
0.0
  0
ENDSEC
  0
SECTION
  2
CLASSES
  0
CLASS
  1
ACDBDICTIONARYWDFLT
  2
AcDbDictionaryWithDefault
  3
ObjectDBX Classes
 90
        0
 91
        7
280
     0
281
     0
  0
CLASS
  1
DIMASSOC
  2
AcDbDimAssoc
  3
"AcDbDimAssoc|Product Desc:     AcDim ARX App For Dimension|Company:          Autodesk, Inc.|WEB Address:      www.autodesk.com"
 90
        0
 91
        5
280
     0
281
     0
  0
CLASS
  1
VISUALSTYLE
  2
AcDbVisualStyle
  3
ObjectDBX Classes
 90
     4095
 91
        7
280
     0
281
     0
  0
CLASS
  1
SCALE
  2
AcDbScale
  3
ObjectDBX Classes
 90
     1153
 91
        7
280
     0
281
     0
  0
CLASS
  1
MATERIAL
  2
AcDbMaterial
  3
ObjectDBX Classes
 90
     1153
 91
        7
280
     0
281
     0
  0
CLASS
  1
TABLESTYLE
  2
AcDbTableStyle
  3
ObjectDBX Classes
 90
     4095
 91
        7
280
     0
281
     0
  0
CLASS
  1
SUN
  2
AcDbSun
  3
SCENEOE
 90
     1153
 91
        7
280
     0
281
     0
  0
CLASS
  1
RASTERVARIABLES
  2
AcDbRasterVariables
  3
ISM
 90
        0
 91
        7
280
     0
281
     0
  0
CLASS
  1
DICTIONARYVAR
  2
AcDbDictionaryVar
  3
ObjectDBX Classes
 90
        0
 91
        5
280
     0
281
     0
  0
CLASS
  1
CELLSTYLEMAP
  2
AcDbCellStyleMap
  3
ObjectDBX Classes
 90
     1152
 91
        5
280
     0
281
     0
  0
ENDSEC
  0
SECTION
  2
TABLES
  0
TABLE
  2
VPORT
  5
8
330
0
100
AcDbSymbolTable
 70
     1
  0
VPORT
  5
146B
330
8
100
AcDbSymbolTableRecord
100
AcDbViewportTableRecord
  2
*Active
 70
     0
 10
0.0
 20
0.0
 11
1.0
 21
1.0
 12
123.694840893828
 22
120.5268480304246
 13
0.0
 23
0.0
 14
10.0
 24
10.0
 15
10.0
 25
10.0
 16
0.0
 26
0.0
 36
1.0
 17
0.0
 27
0.0
 37
0.0
 40
192.1405462155893
 41
1.102362204724409
 42
50.0
 43
0.0
 44
0.0
 50
0.0
 51
0.0
 71
    16
 72
  1000
 73
     1
 74
     3
 75
     0
 76
     0
 77
     0
 78
     0
281
     0
 65
     1
110
0.0
120
0.0
130
0.0
111
1.0
121
0.0
131
0.0
112
0.0
122
1.0
132
0.0
 79
     0
146
0.0
348
1471
 60
     3
 61
     5
292
     1
282
     1
141
0.0
142
0.0
 63
   256
361
14AD
  0
ENDTAB
  0
TABLE
  2
LTYPE
  5
5
330
0
100
AcDbSymbolTable
 70
     6
  0
LTYPE
  5
14
330
5
100
AcDbSymbolTableRecord
100
AcDbLinetypeTableRecord
  2
ByBlock
 70
     0
  3

 72
    65
 73
     0
 40
0.0
  0
LTYPE
  5
15
330
5
100
AcDbSymbolTableRecord
100
AcDbLinetypeTableRecord
  2
ByLayer
 70
     0
  3

 72
    65
 73
     0
 40
0.0
  0
LTYPE
  5
16
330
5
100
AcDbSymbolTableRecord
100
AcDbLinetypeTableRecord
  2
Continuous
 70
     0
  3
Solid line
 72
    65
 73
     0
 40
0.0
  0
LTYPE
  5
35
330
5
100
AcDbSymbolTableRecord
100
AcDbLinetypeTableRecord
  2
ACAD_ISO08W100
 70
     0
  3
ISO long-dash short-dash ____ __ ____ __ ____ _
 72
    65
 73
     4
 40
36.0
 49
24.0
 74
     0
 49
-3.0
 74
     0
 49
6.0
 74
     0
 49
-3.0
 74
     0
  0
LTYPE
  5
127
330
5
100
AcDbSymbolTableRecord
100
AcDbLinetypeTableRecord
  2
HIDDENX2
 70
     0
  3
Hidden (2x) ____ ____ ____ ____ ____ ____ ____
 72
    65
 73
     2
 40
19.05
 49
12.7
 74
     0
 49
-6.35
 74
     0
  0
LTYPE
  5
5EC
330
5
100
AcDbSymbolTableRecord
100
AcDbLinetypeTableRecord
  2
CENTER
 70
     0
  3
Center ____ _ ____ _ ____ _ ____ _ ____ _ ____
 72
    65
 73
     4
 40
50.8
 49
31.75
 74
     0
 49
-6.35
 74
     0
 49
6.35
 74
     0
 49
-6.35
 74
     0
  0
LTYPE
  5
5ED
330
5
100
AcDbSymbolTableRecord
100
AcDbLinetypeTableRecord
  2
ACAD_ISO02W100
 70
     0
  3
ISO dash __ __ __ __ __ __ __ __ __ __ __ __ __
 72
    65
 73
     2
 40
15.0
 49
12.0
 74
     0
 49
-3.0
 74
     0
  0
LTYPE
  5
605
330
5
100
AcDbSymbolTableRecord
100
AcDbLinetypeTableRecord
  2
DASHED
 70
     0
  3
Dashed __ __ __ __ __ __ __ __ __ __ __ __ __ _
 72
    65
 73
     2
 40
19.05
 49
12.7
 74
     0
 49
-6.35
 74
     0
  0
ENDTAB
  0
TABLE
  2
LAYER
  5
2
330
0
100
AcDbSymbolTable
 70
     9
  0
LAYER
  5
10
330
2
100
AcDbSymbolTableRecord
100
AcDbLayerTableRecord
  2
0
 70
     0
 62
     7
  6
Continuous
370
    -3
390
F
347
14A9
348
0
  0
LAYER
  5
2E
330
2
100
AcDbSymbolTableRecord
100
AcDbLayerTableRecord
  2
枠
 70
     0
 62
     1
  6
Continuous
370
    30
390
F
347
14A9
348
0
  0
LAYER
  5
2F
330
2
100
AcDbSymbolTableRecord
100
AcDbLayerTableRecord
  2
文字
 70
     0
 62
     7
  6
Continuous
370
    25
390
F
347
14A9
348
0
  0
LAYER
  5
36
330
2
100
AcDbSymbolTableRecord
100
AcDbLayerTableRecord
  2
中心線
 70
     0
 62
     7
  6
CENTER
370
    30
390
F
347
14A9
348
0
  0
LAYER
  5
52
330
2
100
AcDbSymbolTableRecord
100
AcDbLayerTableRecord
  2
隠れ線
 70
     0
 62
     2
  6
Continuous
290
     0
370
    -3
390
F
347
14A9
348
0
  0
LAYER
  5
128
330
2
100
AcDbSymbolTableRecord
100
AcDbLayerTableRecord
  2
実線
 70
     0
 62
     7
  6
Continuous
370
    50
390
F
347
14A9
348
0
  0
LAYER
  5
129
330
2
100
AcDbSymbolTableRecord
100
AcDbLayerTableRecord
  2
破線
 70
     0
 62
     7
  6
DASHED
370
    20
390
F
347
14A9
348
0
  0
LAYER
  5
69A
330
2
100
AcDbSymbolTableRecord
100
AcDbLayerTableRecord
  2
Defpoints
 70
     0
 62
     7
  6
Continuous
290
     0
370
    -3
390
F
347
14A9
348
0
  0
LAYER
  5
14CA
330
2
100
AcDbSymbolTableRecord
100
AcDbLayerTableRecord
  2
文字・寸法線
 70
     0
 62
     7
  6
Continuous
370
    -3
390
F
347
14A9
348
0
  0
ENDTAB
  0
TABLE
  2
STYLE
  5
3
330
0
100
AcDbSymbolTable
 70
     2
  0
STYLE
  5
11
330
3
100
AcDbSymbolTableRecord
100
AcDbTextStyleTableRecord
  2
Standard
 70
     0
 40
0.0
 41
1.0
 50
0.0
 71
     0
 42
3.0
  3
txt.shx
  4
bigfont.shx
  0
STYLE
  5
34
330
3
100
AcDbSymbolTableRecord
100
AcDbTextStyleTableRecord
  2

 70
     1
 40
0.0
 41
1.0
 50
0.0
 71
     0
 42
2.5
  3
ltypeshp.shx
  4

  0
ENDTAB
  0
TABLE
  2
VIEW
  5
6
330
0
100
AcDbSymbolTable
 70
     0
  0
ENDTAB
  0
TABLE
  2
UCS
  5
7
330
0
100
AcDbSymbolTable
 70
     0
  0
ENDTAB
  0
TABLE
  2
APPID
  5
9
330
0
100
AcDbSymbolTable
 70
     1
  0
APPID
  5
12
330
9
100
AcDbSymbolTableRecord
100
AcDbRegAppTableRecord
  2
ACAD
 70
     0
  0
ENDTAB
  0
TABLE
  2
DIMSTYLE
  5
A
330
0
100
AcDbSymbolTable
 70
     2
100
AcDbDimStyleTable
  0
DIMSTYLE
105
29
102
{ACAD_REACTORS
330
1190
330
13CF
330
13D7
330
13D8
330
1550
330
1552
330
1555
330
15B4
102
}
330
A
100
AcDbSymbolTableRecord
100
AcDbDimStyleTableRecord
  2
ISO-25
 70
     0
 41
2.5
 42
0.625
 43
3.75
 44
1.25
 73
     0
 74
     0
 77
     1
 78
     8
140
2.5
141
2.5
143
0.03937007874016
147
0.625
171
     3
172
     1
178
     0
271
     2
272
     2
274
     3
283
     0
284
     8
340
11
  0
DIMSTYLE
105
14F5
330
A
100
AcDbSymbolTableRecord
100
AcDbDimStyleTableRecord
  2
Standard
 70
     0
178
     0
340
11
  0
ENDTAB
  0
TABLE
  2
BLOCK_RECORD
  5
1
330
0
100
AcDbSymbolTable
 70
    15
  0
BLOCK_RECORD
  5
21
330
1
100
AcDbSymbolTableRecord
100
AcDbBlockTableRecord
  2
*Model_Space
340
24
 70
     0
280
     1
281
     0
  0
BLOCK_RECORD
  5
14B5
330
1
100
AcDbSymbolTableRecord
100
AcDbBlockTableRecord
  2
*Paper_Space
340
14B6
 70
     0
280
     1
281
     0
  0
BLOCK_RECORD
  5
11E5
330
1
100
AcDbSymbolTableRecord
100
AcDbBlockTableRecord
  2
*D0
340
0
 70
     0
280
     1
281
     0
  0
BLOCK_RECORD
  5
1226
330
1
100
AcDbSymbolTableRecord
100
AcDbBlockTableRecord
  2
*D1
340
0
 70
     0
280
     1
281
     0
  0
BLOCK_RECORD
  5
123E
330
1
100
AcDbSymbolTableRecord
100
AcDbBlockTableRecord
  2
*D2
340
0
 70
     0
280
     1
281
     0
  0
BLOCK_RECORD
  5
125A
330
1
100
AcDbSymbolTableRecord
100
AcDbBlockTableRecord
  2
*D3
340
0
 70
     0
280
     1
281
     0
  0
BLOCK_RECORD
  5
13E3
330
1
100
AcDbSymbolTableRecord
100
AcDbBlockTableRecord
  2
*D4
340
0
 70
     0
280
     1
281
     0
  0
BLOCK_RECORD
  5
13EF
330
1
100
AcDbSymbolTableRecord
100
AcDbBlockTableRecord
  2
*D5
340
0
 70
     0
280
     1
281
     0
  0
BLOCK_RECORD
  5
1404
330
1
100
AcDbSymbolTableRecord
100
AcDbBlockTableRecord
  2
*D6
340
0
 70
     0
280
     1
281
     0
  0
BLOCK_RECORD
  5
151C
330
1
100
AcDbSymbolTableRecord
100
AcDbBlockTableRecord
  2
*D7
340
0
 70
     0
280
     1
281
     0
  0
BLOCK_RECORD
  5
152B
330
1
100
AcDbSymbolTableRecord
100
AcDbBlockTableRecord
  2
*D8
340
0
 70
     0
280
     1
281
     0
  0
BLOCK_RECORD
  5
153C
330
1
100
AcDbSymbolTableRecord
100
AcDbBlockTableRecord
  2
*D9
340
0
 70
     0
280
     1
281
     0
  0
BLOCK_RECORD
  5
1558
330
1
100
AcDbSymbolTableRecord
100
AcDbBlockTableRecord
  2
*D10
340
0
 70
     0
280
     1
281
     0
  0
BLOCK_RECORD
  5
1564
330
1
100
AcDbSymbolTableRecord
100
AcDbBlockTableRecord
  2
*D11
340
0
 70
     0
280
     1
281
     0
  0
BLOCK_RECORD
  5
1572
330
1
100
AcDbSymbolTableRecord
100
AcDbBlockTableRecord
  2
*D12
340
0
 70
     0
280
     1
281
     0
  0
BLOCK_RECORD
  5
15A5
330
1
100
AcDbSymbolTableRecord
100
AcDbBlockTableRecord
  2
*D13
340
0
 70
     0
280
     1
281
     0
  0
BLOCK_RECORD
  5
15B6
330
1
100
AcDbSymbolTableRecord
100
AcDbBlockTableRecord
  2
*D14
340
0
 70
     0
280
     1
281
     0
  0
ENDTAB
  0
ENDSEC
  0
SECTION
  2
BLOCKS
  0
BLOCK
  5
22
330
21
100
AcDbEntity
  8
0
100
AcDbBlockBegin
  2
*Model_Space
 70
     0
 10
0.0
 20
0.0
 30
0.0
  3
*Model_Space
  1
*Model_Space
  0
ENDBLK
  5
23
330
21
100
AcDbEntity
  8
0
100
AcDbBlockEnd
  0
BLOCK
  5
14B7
330
14B5
100
AcDbEntity
 67
     1
  8
0
100
AcDbBlockBegin
  2
*Paper_Space
 70
     0
 10
0.0
 20
0.0
 30
0.0
  3
*Paper_Space
  1
*Paper_Space
  0
ENDBLK
  5
14B8
330
14B5
100
AcDbEntity
 67
     1
  8
0
100
AcDbBlockEnd
  0
BLOCK
  5
11EF
330
11E5
100
AcDbEntity
  8
0
100
AcDbBlockBegin
  2
*D0
 70
     1
 10
0.0
 20
0.0
 30
0.0
  3
*D0
  1
*D4
  0
LINE
  5
11E6
330
11E5
100
AcDbEntity
  8
文字
 62
     0
370
    -2
100
AcDbLine
 10
169.8744111837714
 20
88.45549658711185
 30
0.0
 11
169.8744111837714
 21
54.79009898678773
 31
0.0
  0
LINE
  5
11E7
330
11E5
100
AcDbEntity
  8
文字
 62
     0
370
    -2
100
AcDbLine
 10
186.8485090979463
 20
88.45549658711185
 30
0.0
 11
186.8485090979463
 21
54.79009898678773
 31
0.0
  0
LINE
  5
11E8
330
11E5
100
AcDbEntity
  8
文字
 62
     0
370
    -2
100
AcDbLine
 10
172.3744111837714
 20
56.04009898678773
 30
0.0
 11
184.3485090979463
 21
56.04009898678773
 31
0.0
  0
SOLID
  5
11E9
330
11E5
100
AcDbEntity
  8
文字
 62
     0
100
AcDbTrace
 10
172.3744111837714
 20
56.45676565345439
 30
0.0
 11
172.3744111837714
 21
55.62343232012106
 31
0.0
 12
169.8744111837714
 22
56.04009898678773
 32
0.0
 13
169.8744111837714
 23
56.04009898678773
 33
0.0
  0
SOLID
  5
11EA
330
11E5
100
AcDbEntity
  8
文字
 62
     0
100
AcDbTrace
 10
184.3485090979463
 20
55.62343232012106
 30
0.0
 11
184.3485090979463
 21
56.45676565345439
 31
0.0
 12
186.8485090979463
 22
56.04009898678773
 32
0.0
 13
186.8485090979463
 23
56.04009898678773
 33
0.0
  0
MTEXT
  5
11EB
330
11E5
100
AcDbEntity
  8
文字
 62
     0
100
AcDbMText
 10
178.3614601408588
 20
57.91509898678773
 30
0.0
 40
2.5
 41
0.0
 46
0.0
 71
     5
 72
     1
  1
17
 73
     1
 44
1.0
  0
POINT
  5
11EC
330
11E5
100
AcDbEntity
  8
Defpoints
 62
     0
100
AcDbPoint
 10
169.8744111837714
 20
89.08049658711185
 30
0.0
  0
POINT
  5
11ED
330
11E5
100
AcDbEntity
  8
Defpoints
 62
     0
100
AcDbPoint
 10
186.8485090979463
 20
89.08049658711185
 30
0.0
  0
POINT
  5
11EE
330
11E5
100
AcDbEntity
  8
Defpoints
 62
     0
100
AcDbPoint
 10
186.8485090979463
 20
56.04009898678773
 30
0.0
  0
ENDBLK
  5
11F0
330
11E5
100
AcDbEntity
  8
0
100
AcDbBlockEnd
  0
BLOCK
  5
1230
330
1226
100
AcDbEntity
  8
0
100
AcDbBlockBegin
  2
*D1
 70
     1
 10
0.0
 20
0.0
 30
0.0
  3
*D1
  1
*D5
  0
LINE
  5
145A
330
1226
100
AcDbEntity
  8
文字
 62
     0
370
    -2
100
AcDbLine
 10
91.63942187858564
 20
62.06420657848898
 30
0.0
 11
127.178962274394
 21
62.06420657848897
 31
0.0
  0
LINE
  5
145B
330
1226
100
AcDbEntity
  8
文字
 62
     0
370
    -2
100
AcDbLine
 10
103.7144218785856
 20
46.48074051145726
 30
0.0
 11
127.178962274394
 21
46.48074051145725
 31
0.0
  0
LINE
  5
145C
330
1226
100
AcDbEntity
  8
文字
 62
     0
370
    -2
100
AcDbLine
 10
125.928962274394
 20
59.56420657848897
 30
0.0
 11
125.928962274394
 21
48.98074051145725
 31
0.0
  0
SOLID
  5
145D
330
1226
100
AcDbEntity
  8
文字
 62
     0
100
AcDbTrace
 10
125.5122956077273
 20
59.56420657848897
 30
0.0
 11
126.3456289410607
 21
59.56420657848897
 31
0.0
 12
125.928962274394
 22
62.06420657848897
 32
0.0
 13
125.928962274394
 23
62.06420657848897
 33
0.0
  0
SOLID
  5
145E
330
1226
100
AcDbEntity
  8
文字
 62
     0
100
AcDbTrace
 10
125.5122956077273
 20
48.98074051145725
 30
0.0
 11
126.3456289410607
 21
48.98074051145725
 31
0.0
 12
125.928962274394
 22
46.48074051145725
 32
0.0
 13
125.928962274394
 23
46.48074051145725
 33
0.0
  0
MTEXT
  5
145F
330
1226
100
AcDbEntity
  8
文字
 62
     0
100
AcDbMText
 10
124.053962274394
 20
54.27247354497313
 30
0.0
 40
2.5
 41
0.0
 46
0.0
 71
     5
 72
     1
  1
15
 11
6.123031769111886E-17
 21
1.0
 31
0.0
 73
     1
 44
1.0
  0
POINT
  5
1460
330
1226
100
AcDbEntity
  8
Defpoints
 62
     0
100
AcDbPoint
 10
91.01442187858564
 20
62.06420657848898
 30
0.0
  0
POINT
  5
1461
330
1226
100
AcDbEntity
  8
Defpoints
 62
     0
100
AcDbPoint
 10
103.0894218785856
 20
46.48074051145726
 30
0.0
  0
POINT
  5
1462
330
1226
100
AcDbEntity
  8
Defpoints
 62
     0
100
AcDbPoint
 10
125.928962274394
 20
46.48074051145725
 30
0.0
  0
ENDBLK
  5
1231
330
1226
100
AcDbEntity
  8
0
100
AcDbBlockEnd
  0
BLOCK
  5
124A
330
123E
100
AcDbEntity
  8
0
100
AcDbBlockBegin
  2
*D2
 70
     1
 10
0.0
 20
0.0
 30
0.0
  3
*D2
  1
*D6
  0
LINE
  5
144F
330
123E
100
AcDbEntity
  8
文字
 62
     0
370
    -2
100
AcDbLine
 10
57.46442187858564
 20
52.48074051145726
 30
0.0
 11
40.71599477317254
 21
52.48074051145726
 31
0.0
  0
LINE
  5
1450
330
123E
100
AcDbEntity
  8
文字
 62
     0
370
    -2
100
AcDbLine
 10
57.46442187858564
 20
46.48074051145726
 30
0.0
 11
40.71599477317253
 21
46.48074051145726
 31
0.0
  0
LINE
  5
1451
330
123E
100
AcDbEntity
  8
文字
 62
     0
370
    -2
100
AcDbLine
 10
41.96599477317254
 20
54.98074051145726
 30
0.0
 11
41.96599477317254
 21
57.48074051145726
 31
0.0
  0
LINE
  5
1452
330
123E
100
AcDbEntity
  8
文字
 62
     0
370
    -2
100
AcDbLine
 10
41.96599477317253
 20
43.98074051145726
 30
0.0
 11
41.96599477317253
 21
41.48074051145726
 31
0.0
  0
LINE
  5
1453
330
123E
100
AcDbEntity
  8
文字
 62
     0
370
    -2
100
AcDbLine
 10
41.96599477317254
 20
52.48074051145726
 30
0.0
 11
41.96599477317253
 21
46.48074051145726
 31
0.0
  0
SOLID
  5
1454
330
123E
100
AcDbEntity
  8
文字
 62
     0
100
AcDbTrace
 10
41.54932810650588
 20
54.98074051145726
 30
0.0
 11
42.3826614398392
 21
54.98074051145726
 31
0.0
 12
41.96599477317254
 22
52.48074051145726
 32
0.0
 13
41.96599477317254
 23
52.48074051145726
 33
0.0
  0
SOLID
  5
1455
330
123E
100
AcDbEntity
  8
文字
 62
     0
100
AcDbTrace
 10
41.54932810650587
 20
43.98074051145726
 30
0.0
 11
42.3826614398392
 21
43.98074051145726
 31
0.0
 12
41.96599477317253
 22
46.48074051145726
 32
0.0
 13
41.96599477317253
 23
46.48074051145726
 33
0.0
  0
MTEXT
  5
1456
330
123E
100
AcDbEntity
  8
文字
 62
     0
100
AcDbMText
 10
40.09099477317253
 20
49.48074051145727
 30
0.0
 40
2.5
 41
0.0
 46
0.0
 71
     5
 72
     1
  1
6
 11
6.123031769111886E-17
 21
1.0
 31
0.0
 73
     1
 44
1.0
  0
POINT
  5
1457
330
123E
100
AcDbEntity
  8
Defpoints
 62
     0
100
AcDbPoint
 10
58.08942187858564
 20
52.48074051145726
 30
0.0
  0
POINT
  5
1458
330
123E
100
AcDbEntity
  8
Defpoints
 62
     0
100
AcDbPoint
 10
58.08942187858564
 20
46.48074051145726
 30
0.0
  0
POINT
  5
1459
330
123E
100
AcDbEntity
  8
Defpoints
 62
     0
100
AcDbPoint
 10
41.96599477317253
 20
46.48074051145726
 30
0.0
  0
ENDBLK
  5
124B
330
123E
100
AcDbEntity
  8
0
100
AcDbBlockEnd
  0
BLOCK
  5
1264
330
125A
100
AcDbEntity
  8
0
100
AcDbBlockBegin
  2
*D3
 70
     1
 10
0.0
 20
0.0
 30
0.0
  3
*D3
  1
*D7
  0
LINE
  5
1446
330
125A
100
AcDbEntity
  8
文字
 62
     0
370
    -2
100
AcDbLine
 10
58.08942187858564
 20
45.85574051145726
 30
0.0
 11
58.08942187858564
 21
26.93747048124337
 31
0.0
  0
LINE
  5
1447
330
125A
100
AcDbEntity
  8
文字
 62
     0
370
    -2
100
AcDbLine
 10
103.0894218785856
 20
45.85574051145726
 30
0.0
 11
103.0894218785856
 21
26.93747048124337
 31
0.0
  0
LINE
  5
1448
330
125A
100
AcDbEntity
  8
文字
 62
     0
370
    -2
100
AcDbLine
 10
60.58942187858564
 20
28.18747048124337
 30
0.0
 11
100.5894218785856
 21
28.18747048124337
 31
0.0
  0
SOLID
  5
1449
330
125A
100
AcDbEntity
  8
文字
 62
     0
100
AcDbTrace
 10
60.58942187858564
 20
28.60413714791003
 30
0.0
 11
60.58942187858564
 21
27.7708038145767
 31
0.0
 12
58.08942187858564
 22
28.18747048124337
 32
0.0
 13
58.08942187858564
 23
28.18747048124337
 33
0.0
  0
SOLID
  5
144A
330
125A
100
AcDbEntity
  8
文字
 62
     0
100
AcDbTrace
 10
100.5894218785856
 20
28.60413714791003
 30
0.0
 11
100.5894218785856
 21
27.7708038145767
 31
0.0
 12
103.0894218785856
 22
28.18747048124337
 32
0.0
 13
103.0894218785856
 23
28.18747048124337
 33
0.0
  0
MTEXT
  5
144B
330
125A
100
AcDbEntity
  8
文字
 62
     0
100
AcDbMText
 10
80.58942187858564
 20
30.06247048124337
 30
0.0
 40
2.5
 41
0.0
 46
0.0
 71
     5
 72
     1
  1
%%c45
 73
     1
 44
1.0
  0
POINT
  5
144C
330
125A
100
AcDbEntity
  8
Defpoints
 62
     0
100
AcDbPoint
 10
58.08942187858564
 20
46.48074051145726
 30
0.0
  0
POINT
  5
144D
330
125A
100
AcDbEntity
  8
Defpoints
 62
     0
100
AcDbPoint
 10
103.0894218785856
 20
46.48074051145726
 30
0.0
  0
POINT
  5
144E
330
125A
100
AcDbEntity
  8
Defpoints
 62
     0
100
AcDbPoint
 10
103.0894218785856
 20
28.18747048124337
 30
0.0
  0
ENDBLK
  5
1265
330
125A
100
AcDbEntity
  8
0
100
AcDbBlockEnd
  0
BLOCK
  5
13ED
330
13E3
100
AcDbEntity
  8
0
100
AcDbBlockBegin
  2
*D4
 70
     1
 10
0.0
 20
0.0
 30
0.0
  3
*D4
  1
*D17
  0
LINE
  5
1434
330
13E3
100
AcDbEntity
  8
文字
 62
     0
370
    -2
100
AcDbLine
 10
75.46388483212662
 20
167.0642065784889
 30
0.0
 11
75.46388483212662
 21
183.3629307949121
 31
0.0
  0
LINE
  5
1435
330
13E3
100
AcDbEntity
  8
文字
 62
     0
370
    -2
100
AcDbLine
 10
85.46388483212662
 20
167.0642065784889
 30
0.0
 11
85.46388483212662
 21
183.3629307949121
 31
0.0
  0
LINE
  5
1436
330
13E3
100
AcDbEntity
  8
文字
 62
     0
370
    -2
100
AcDbLine
 10
77.96388483212662
 20
182.1129307949121
 30
0.0
 11
82.96388483212662
 21
182.1129307949121
 31
0.0
  0
SOLID
  5
1437
330
13E3
100
AcDbEntity
  8
文字
 62
     0
100
AcDbTrace
 10
77.96388483212662
 20
182.5295974615787
 30
0.0
 11
77.96388483212662
 21
181.6962641282454
 31
0.0
 12
75.46388483212662
 22
182.1129307949121
 32
0.0
 13
75.46388483212662
 23
182.1129307949121
 33
0.0
  0
SOLID
  5
1438
330
13E3
100
AcDbEntity
  8
文字
 62
     0
100
AcDbTrace
 10
82.96388483212662
 20
182.5295974615787
 30
0.0
 11
82.96388483212662
 21
181.6962641282454
 31
0.0
 12
85.46388483212662
 22
182.1129307949121
 32
0.0
 13
85.46388483212662
 23
182.1129307949121
 33
0.0
  0
MTEXT
  5
1439
330
13E3
100
AcDbEntity
  8
文字
 62
     0
100
AcDbMText
 10
80.46388483212662
 20
184.0143632642163
 30
0.0
 40
2.5
 41
0.0
 46
0.0
 71
     5
 72
     1
  1
{\fArial|b0|i0|c0|p32;M10}
 73
     1
 44
1.0
  0
POINT
  5
143A
330
13E3
100
AcDbEntity
  8
Defpoints
 62
     0
100
AcDbPoint
 10
75.46388483212662
 20
166.4392065784889
 30
0.0
  0
POINT
  5
143B
330
13E3
100
AcDbEntity
  8
Defpoints
 62
     0
100
AcDbPoint
 10
85.46388483212662
 20
166.4392065784889
 30
0.0
  0
POINT
  5
143C
330
13E3
100
AcDbEntity
  8
Defpoints
 62
     0
100
AcDbPoint
 10
85.46388483212662
 20
182.1129307949121
 30
0.0
  0
ENDBLK
  5
13EE
330
13E3
100
AcDbEntity
  8
0
100
AcDbBlockEnd
  0
BLOCK
  5
13F9
330
13EF
100
AcDbEntity
  8
0
100
AcDbBlockBegin
  2
*D5
 70
     1
 10
0.0
 20
0.0
 30
0.0
  3
*D5
  1
*D18
  0
LINE
  5
143D
330
13EF
100
AcDbEntity
  8
文字
 62
     0
370
    -2
100
AcDbLine
 10
84.08888483212664
 20
169.064206578489
 30
0.0
 11
127.053425227935
 21
169.064206578489
 31
0.0
  0
LINE
  5
143E
330
13EF
100
AcDbEntity
  8
文字
 62
     0
370
    -2
100
AcDbLine
 10
91.51388483212664
 20
69.06420657848898
 30
0.0
 11
127.053425227935
 21
69.06420657848896
 31
0.0
  0
LINE
  5
143F
330
13EF
100
AcDbEntity
  8
文字
 62
     0
370
    -2
100
AcDbLine
 10
125.803425227935
 20
166.564206578489
 30
0.0
 11
125.803425227935
 21
71.56420657848896
 31
0.0
  0
SOLID
  5
1440
330
13EF
100
AcDbEntity
  8
文字
 62
     0
100
AcDbTrace
 10
125.3867585612683
 20
166.564206578489
 30
0.0
 11
126.2200918946017
 21
166.564206578489
 31
0.0
 12
125.803425227935
 22
169.064206578489
 32
0.0
 13
125.803425227935
 23
169.064206578489
 33
0.0
  0
SOLID
  5
1441
330
13EF
100
AcDbEntity
  8
文字
 62
     0
100
AcDbTrace
 10
125.3867585612683
 20
71.56420657848896
 30
0.0
 11
126.2200918946017
 21
71.56420657848896
 31
0.0
 12
125.803425227935
 22
69.06420657848896
 32
0.0
 13
125.803425227935
 23
69.06420657848896
 33
0.0
  0
MTEXT
  5
1442
330
13EF
100
AcDbEntity
  8
文字
 62
     0
100
AcDbMText
 10
123.928425227935
 20
119.064206578489
 30
0.0
 40
2.5
 41
0.0
 46
0.0
 71
     5
 72
     1
  1
100
 11
6.123031769111886E-17
 21
1.0
 31
0.0
 73
     1
 44
1.0
  0
POINT
  5
1443
330
13EF
100
AcDbEntity
  8
Defpoints
 62
     0
100
AcDbPoint
 10
83.46388483212664
 20
169.064206578489
 30
0.0
  0
POINT
  5
1444
330
13EF
100
AcDbEntity
  8
Defpoints
 62
     0
100
AcDbPoint
 10
90.88888483212664
 20
69.06420657848898
 30
0.0
  0
POINT
  5
1445
330
13EF
100
AcDbEntity
  8
Defpoints
 62
     0
100
AcDbPoint
 10
125.803425227935
 20
69.06420657848896
 30
0.0
  0
ENDBLK
  5
13FA
330
13EF
100
AcDbEntity
  8
0
100
AcDbBlockEnd
  0
BLOCK
  5
140E
330
1404
100
AcDbEntity
  8
0
100
AcDbBlockBegin
  2
*D6
 70
     1
 10
0.0
 20
0.0
 30
0.0
  3
*D6
  1
*D19
  0
LINE
  5
142B
330
1404
100
AcDbEntity
  8
文字
 62
     0
370
    -2
100
AcDbLine
 10
90.88888483212664
 20
62.06420657848898
 30
0.0
 11
127.053425227935
 21
62.06420657848897
 31
0.0
  0
LINE
  5
142C
330
1404
100
AcDbEntity
  8
文字
 62
     0
370
    -2
100
AcDbLine
 10
90.88888483212664
 20
69.06420657848898
 30
0.0
 11
127.053425227935
 21
69.06420657848896
 31
0.0
  0
LINE
  5
142D
330
1404
100
AcDbEntity
  8
文字
 62
     0
370
    -2
100
AcDbLine
 10
125.803425227935
 20
64.56420657848898
 30
0.0
 11
125.803425227935
 21
66.56420657848896
 31
0.0
  0
SOLID
  5
142E
330
1404
100
AcDbEntity
  8
文字
 62
     0
100
AcDbTrace
 10
125.3867585612683
 20
64.56420657848898
 30
0.0
 11
126.2200918946017
 21
64.56420657848898
 31
0.0
 12
125.803425227935
 22
62.06420657848897
 32
0.0
 13
125.803425227935
 23
62.06420657848897
 33
0.0
  0
SOLID
  5
142F
330
1404
100
AcDbEntity
  8
文字
 62
     0
100
AcDbTrace
 10
125.3867585612683
 20
66.56420657848896
 30
0.0
 11
126.2200918946017
 21
66.56420657848896
 31
0.0
 12
125.803425227935
 22
69.06420657848896
 32
0.0
 13
125.803425227935
 23
69.06420657848896
 33
0.0
  0
MTEXT
  5
1430
330
1404
100
AcDbEntity
  8
文字
 62
     0
100
AcDbMText
 10
123.928425227935
 20
65.56420657848899
 30
0.0
 40
2.5
 41
0.0
 46
0.0
 71
     5
 72
     1
  1
7
 11
6.123031769111886E-17
 21
1.0
 31
0.0
 73
     1
 44
1.0
  0
POINT
  5
1431
330
1404
100
AcDbEntity
  8
Defpoints
 62
     0
100
AcDbPoint
 10
90.26388483212664
 20
62.06420657848898
 30
0.0
  0
POINT
  5
1432
330
1404
100
AcDbEntity
  8
Defpoints
 62
     0
100
AcDbPoint
 10
90.26388483212664
 20
69.06420657848898
 30
0.0
  0
POINT
  5
1433
330
1404
100
AcDbEntity
  8
Defpoints
 62
     0
100
AcDbPoint
 10
125.803425227935
 20
69.06420657848896
 30
0.0
  0
ENDBLK
  5
140F
330
1404
100
AcDbEntity
  8
0
100
AcDbBlockEnd
  0
BLOCK
  5
151D
330
151C
100
AcDbEntity
  8
0
100
AcDbBlockBegin
  2
*D7
 70
     1
 10
0.0
 20
0.0
 30
0.0
  3
*D7
  1
*D9
  0
LINE
  5
151E
330
151C
100
AcDbEntity
  8
文字
 62
     0
370
    -2
100
AcDbLine
 10
53.36095590124977
 20
35.71017274872139
 30
0.0
 11
88.90049629705811
 21
35.71017274872139
 31
0.0
  0
LINE
  5
151F
330
151C
100
AcDbEntity
  8
文字
 62
     0
370
    -2
100
AcDbLine
 10
65.53050507032981
 20
19.70665082841047
 30
0.0
 11
88.90049629705811
 21
19.70665082841047
 31
0.0
  0
LINE
  5
1520
330
151C
100
AcDbEntity
  8
文字
 62
     0
370
    -2
100
AcDbLine
 10
87.65049629705811
 20
33.21017274872139
 30
0.0
 11
87.65049629705811
 21
22.20665082841047
 31
0.0
  0
SOLID
  5
1521
330
151C
100
AcDbEntity
  8
文字
 62
     0
100
AcDbTrace
 10
88.06716296372478
 20
33.21017274872139
 30
0.0
 11
87.23382963039144
 21
33.21017274872139
 31
0.0
 12
87.65049629705811
 22
35.71017274872139
 32
0.0
 13
87.65049629705811
 23
35.71017274872139
 33
0.0
  0
SOLID
  5
1522
330
151C
100
AcDbEntity
  8
文字
 62
     0
100
AcDbTrace
 10
87.23382963039144
 20
22.20665082841047
 30
0.0
 11
88.06716296372478
 21
22.20665082841047
 31
0.0
 12
87.65049629705811
 22
19.70665082841047
 32
0.0
 13
87.65049629705811
 23
19.70665082841047
 33
0.0
  0
MTEXT
  5
1523
330
151C
100
AcDbEntity
  8
文字
 62
     0
100
AcDbMText
 10
85.77549629705811
 20
27.70841178856593
 30
0.0
 40
2.5
 41
0.0
 46
0.0
 71
     5
 72
     1
  1
16
 11
0.0
 21
1.0
 31
0.0
 73
     1
 44
1.0
  0
POINT
  5
1524
330
151C
100
AcDbEntity
  8
Defpoints
 62
     0
100
AcDbPoint
 10
52.73595590124977
 20
35.71017274872139
 30
0.0
  0
POINT
  5
1525
330
151C
100
AcDbEntity
  8
Defpoints
 62
     0
100
AcDbPoint
 10
64.90550507032981
 20
19.70665082841047
 30
0.0
  0
POINT
  5
1526
330
151C
100
AcDbEntity
  8
Defpoints
 62
     0
100
AcDbPoint
 10
87.65049629705811
 20
19.70665082841047
 30
0.0
  0
ENDBLK
  5
1527
330
151C
100
AcDbEntity
  8
0
100
AcDbBlockEnd
  0
BLOCK
  5
152C
330
152B
100
AcDbEntity
  8
0
100
AcDbBlockBegin
  2
*D8
 70
     1
 10
0.0
 20
0.0
 30
0.0
  3
*D8
  1
*D10
  0
LINE
  5
152D
330
152B
100
AcDbEntity
  8
文字
 62
     0
370
    -2
100
AcDbLine
 10
19.18642710541309
 20
25.54327003021389
 30
0.0
 11
2.437999999999982
 21
25.54327003021389
 31
0.0
  0
LINE
  5
152E
330
152B
100
AcDbEntity
  8
文字
 62
     0
370
    -2
100
AcDbLine
 10
19.18642710541309
 20
19.54327003021389
 30
0.0
 11
2.437999999999981
 21
19.54327003021389
 31
0.0
  0
LINE
  5
152F
330
152B
100
AcDbEntity
  8
文字
 62
     0
370
    -2
100
AcDbLine
 10
3.687999999999982
 20
25.54327003021389
 30
0.0
 11
3.687999999999981
 21
19.54327003021389
 31
0.0
  0
LINE
  5
1530
330
152B
100
AcDbEntity
  8
文字
 62
     0
370
    -2
100
AcDbLine
 10
3.687999999999982
 20
28.04327003021389
 30
0.0
 11
3.687999999999982
 21
30.54327003021389
 31
0.0
  0
LINE
  5
1531
330
152B
100
AcDbEntity
  8
文字
 62
     0
370
    -2
100
AcDbLine
 10
3.687999999999981
 20
17.04327003021389
 30
0.0
 11
3.687999999999981
 21
14.54327003021389
 31
0.0
  0
SOLID
  5
1532
330
152B
100
AcDbEntity
  8
文字
 62
     0
100
AcDbTrace
 10
3.271333333333315
 20
28.04327003021389
 30
0.0
 11
4.104666666666648
 21
28.04327003021389
 31
0.0
 12
3.687999999999982
 22
25.54327003021389
 32
0.0
 13
3.687999999999982
 23
25.54327003021389
 33
0.0
  0
SOLID
  5
1533
330
152B
100
AcDbEntity
  8
文字
 62
     0
100
AcDbTrace
 10
4.104666666666648
 20
17.04327003021389
 30
0.0
 11
3.271333333333315
 21
17.04327003021389
 31
0.0
 12
3.687999999999981
 22
19.54327003021389
 32
0.0
 13
3.687999999999981
 23
19.54327003021389
 33
0.0
  0
MTEXT
  5
1534
330
152B
100
AcDbEntity
  8
文字
 62
     0
100
AcDbMText
 10
1.812999999999981
 20
22.54327003021389
 30
0.0
 40
2.5
 41
0.0
 46
0.0
 71
     5
 72
     1
  1
6
 11
7.401486830834377E-17
 21
1.0
 31
0.0
 73
     1
 44
1.0
  0
POINT
  5
1535
330
152B
100
AcDbEntity
  8
Defpoints
 62
     0
100
AcDbPoint
 10
19.81142710541309
 20
25.54327003021389
 30
0.0
  0
POINT
  5
1536
330
152B
100
AcDbEntity
  8
Defpoints
 62
     0
100
AcDbPoint
 10
19.81142710541309
 20
19.54327003021389
 30
0.0
  0
POINT
  5
1537
330
152B
100
AcDbEntity
  8
Defpoints
 62
     0
100
AcDbPoint
 10
3.687999999999981
 20
19.54327003021389
 30
0.0
  0
ENDBLK
  5
1538
330
152B
100
AcDbEntity
  8
0
100
AcDbBlockEnd
  0
BLOCK
  5
153D
330
153C
100
AcDbEntity
  8
0
100
AcDbBlockBegin
  2
*D9
 70
     1
 10
0.0
 20
0.0
 30
0.0
  3
*D9
  1
*D11
  0
LINE
  5
153E
330
153C
100
AcDbEntity
  8
文字
 62
     0
370
    -2
100
AcDbLine
 10
19.81142710541309
 20
18.91827003021389
 30
0.0
 11
19.81142710541309
 21
0.0
 31
0.0
  0
LINE
  5
153F
330
153C
100
AcDbEntity
  8
文字
 62
     0
370
    -2
100
AcDbLine
 10
64.81142710541313
 20
18.91827003021389
 30
0.0
 11
64.81142710541313
 21
0.0
 31
0.0
  0
LINE
  5
1540
330
153C
100
AcDbEntity
  8
文字
 62
     0
370
    -2
100
AcDbLine
 10
22.31142710541309
 20
1.25
 30
0.0
 11
62.31142710541313
 21
1.25
 31
0.0
  0
SOLID
  5
1541
330
153C
100
AcDbEntity
  8
文字
 62
     0
100
AcDbTrace
 10
22.31142710541309
 20
1.666666666666667
 30
0.0
 11
22.31142710541309
 21
0.8333333333333333
 31
0.0
 12
19.81142710541309
 22
1.25
 32
0.0
 13
19.81142710541309
 23
1.25
 33
0.0
  0
SOLID
  5
1542
330
153C
100
AcDbEntity
  8
文字
 62
     0
100
AcDbTrace
 10
62.31142710541313
 20
0.8333333333333333
 30
0.0
 11
62.31142710541313
 21
1.666666666666667
 31
0.0
 12
64.81142710541313
 22
1.25
 32
0.0
 13
64.81142710541313
 23
1.25
 33
0.0
  0
MTEXT
  5
1543
330
153C
100
AcDbEntity
  8
文字
 62
     0
100
AcDbMText
 10
42.31142710541311
 20
3.125
 30
0.0
 40
2.5
 41
0.0
 46
0.0
 71
     5
 72
     1
  1
%%c45
 73
     1
 44
1.0
  0
POINT
  5
1544
330
153C
100
AcDbEntity
  8
Defpoints
 62
     0
100
AcDbPoint
 10
19.81142710541309
 20
19.54327003021389
 30
0.0
  0
POINT
  5
1545
330
153C
100
AcDbEntity
  8
Defpoints
 62
     0
100
AcDbPoint
 10
64.81142710541313
 20
19.54327003021389
 30
0.0
  0
POINT
  5
1546
330
153C
100
AcDbEntity
  8
Defpoints
 62
     0
100
AcDbPoint
 10
64.81142710541313
 20
1.25
 30
0.0
  0
ENDBLK
  5
1547
330
153C
100
AcDbEntity
  8
0
100
AcDbBlockEnd
  0
BLOCK
  5
1559
330
1558
100
AcDbEntity
  8
0
100
AcDbBlockBegin
  2
*D10
 70
     1
 10
0.0
 20
0.0
 30
0.0
  3
*D10
  1
*D12
  0
LINE
  5
155B
330
1558
100
AcDbEntity
  8
文字
 62
     0
370
    -2
100
AcDbLine
 10
91.59620878439512
 20
62.0504785166022
 30
0.0
 11
127.1357491802035
 21
62.0504785166022
 31
0.0
  0
LINE
  5
155C
330
1558
100
AcDbEntity
  8
文字
 62
     0
370
    -2
100
AcDbLine
 10
103.7657579534752
 20
46.04695659629128
 30
0.0
 11
127.1357491802035
 21
46.04695659629128
 31
0.0
  0
LINE
  5
155D
330
1558
100
AcDbEntity
  8
文字
 62
     0
370
    -2
100
AcDbLine
 10
125.8857491802035
 20
59.5504785166022
 30
0.0
 11
125.8857491802035
 21
48.54695659629128
 31
0.0
  0
SOLID
  5
155E
330
1558
100
AcDbEntity
  8
文字
 62
     0
100
AcDbTrace
 10
126.3024158468701
 20
59.5504785166022
 30
0.0
 11
125.4690825135368
 21
59.5504785166022
 31
0.0
 12
125.8857491802035
 22
62.0504785166022
 32
0.0
 13
125.8857491802035
 23
62.0504785166022
 33
0.0
  0
SOLID
  5
155F
330
1558
100
AcDbEntity
  8
文字
 62
     0
100
AcDbTrace
 10
125.4690825135368
 20
48.54695659629128
 30
0.0
 11
126.3024158468701
 21
48.54695659629128
 31
0.0
 12
125.8857491802035
 22
46.04695659629128
 32
0.0
 13
125.8857491802035
 23
46.04695659629128
 33
0.0
  0
MTEXT
  5
1560
330
1558
100
AcDbEntity
  8
文字
 62
     0
100
AcDbMText
 10
124.0107491802035
 20
54.04871755644674
 30
0.0
 40
2.5
 41
0.0
 46
0.0
 71
     5
 72
     1
  1
16
 11
0.0
 21
1.0
 31
0.0
 73
     1
 44
1.0
  0
POINT
  5
1561
330
1558
100
AcDbEntity
  8
Defpoints
 62
     0
100
AcDbPoint
 10
90.97120878439512
 20
62.0504785166022
 30
0.0
  0
POINT
  5
1562
330
1558
100
AcDbEntity
  8
Defpoints
 62
     0
100
AcDbPoint
 10
103.1407579534752
 20
46.04695659629128
 30
0.0
  0
POINT
  5
1563
330
1558
100
AcDbEntity
  8
Defpoints
 62
     0
100
AcDbPoint
 10
125.8857491802035
 20
46.04695659629128
 30
0.0
  0
ENDBLK
  5
155A
330
1558
100
AcDbEntity
  8
0
100
AcDbBlockEnd
  0
BLOCK
  5
1565
330
1564
100
AcDbEntity
  8
0
100
AcDbBlockBegin
  2
*D11
 70
     1
 10
0.0
 20
0.0
 30
0.0
  3
*D11
  1
*D13
  0
LINE
  5
1567
330
1564
100
AcDbEntity
  8
文字
 62
     0
370
    -2
100
AcDbLine
 10
57.42167998855845
 20
51.8835757980947
 30
0.0
 11
40.67325288314534
 21
51.8835757980947
 31
0.0
  0
LINE
  5
1568
330
1564
100
AcDbEntity
  8
文字
 62
     0
370
    -2
100
AcDbLine
 10
57.42167998855845
 20
45.8835757980947
 30
0.0
 11
40.67325288314534
 21
45.8835757980947
 31
0.0
  0
LINE
  5
1569
330
1564
100
AcDbEntity
  8
文字
 62
     0
370
    -2
100
AcDbLine
 10
41.92325288314534
 20
51.8835757980947
 30
0.0
 11
41.92325288314534
 21
45.8835757980947
 31
0.0
  0
LINE
  5
156A
330
1564
100
AcDbEntity
  8
文字
 62
     0
370
    -2
100
AcDbLine
 10
41.92325288314534
 20
54.3835757980947
 30
0.0
 11
41.92325288314534
 21
56.8835757980947
 31
0.0
  0
LINE
  5
156B
330
1564
100
AcDbEntity
  8
文字
 62
     0
370
    -2
100
AcDbLine
 10
41.92325288314534
 20
43.3835757980947
 30
0.0
 11
41.92325288314534
 21
40.8835757980947
 31
0.0
  0
SOLID
  5
156C
330
1564
100
AcDbEntity
  8
文字
 62
     0
100
AcDbTrace
 10
41.50658621647867
 20
54.3835757980947
 30
0.0
 11
42.339919549812
 21
54.3835757980947
 31
0.0
 12
41.92325288314534
 22
51.8835757980947
 32
0.0
 13
41.92325288314534
 23
51.8835757980947
 33
0.0
  0
SOLID
  5
156D
330
1564
100
AcDbEntity
  8
文字
 62
     0
100
AcDbTrace
 10
42.339919549812
 20
43.3835757980947
 30
0.0
 11
41.50658621647867
 21
43.3835757980947
 31
0.0
 12
41.92325288314534
 22
45.8835757980947
 32
0.0
 13
41.92325288314534
 23
45.8835757980947
 33
0.0
  0
MTEXT
  5
156E
330
1564
100
AcDbEntity
  8
文字
 62
     0
100
AcDbMText
 10
40.04825288314534
 20
48.8835757980947
 30
0.0
 40
2.5
 41
0.0
 46
0.0
 71
     5
 72
     1
  1
6
 11
0.0
 21
1.0
 31
0.0
 73
     1
 44
1.0
  0
POINT
  5
156F
330
1564
100
AcDbEntity
  8
Defpoints
 62
     0
100
AcDbPoint
 10
58.04667998855845
 20
51.8835757980947
 30
0.0
  0
POINT
  5
1570
330
1564
100
AcDbEntity
  8
Defpoints
 62
     0
100
AcDbPoint
 10
58.04667998855845
 20
45.8835757980947
 30
0.0
  0
POINT
  5
1571
330
1564
100
AcDbEntity
  8
Defpoints
 62
     0
100
AcDbPoint
 10
41.92325288314534
 20
45.8835757980947
 30
0.0
  0
ENDBLK
  5
1566
330
1564
100
AcDbEntity
  8
0
100
AcDbBlockEnd
  0
BLOCK
  5
1573
330
1572
100
AcDbEntity
  8
0
100
AcDbBlockBegin
  2
*D12
 70
     1
 10
0.0
 20
0.0
 30
0.0
  3
*D12
  1
*D14
  0
LINE
  5
1575
330
1572
100
AcDbEntity
  8
文字
 62
     0
370
    -2
100
AcDbLine
 10
58.04667998855845
 20
45.2585757980947
 30
0.0
 11
58.04667998855845
 21
26.34030576788081
 31
0.0
  0
LINE
  5
1576
330
1572
100
AcDbEntity
  8
文字
 62
     0
370
    -2
100
AcDbLine
 10
103.0466799885585
 20
45.2585757980947
 30
0.0
 11
103.0466799885585
 21
26.34030576788081
 31
0.0
  0
LINE
  5
1577
330
1572
100
AcDbEntity
  8
文字
 62
     0
370
    -2
100
AcDbLine
 10
60.54667998855845
 20
27.59030576788081
 30
0.0
 11
100.5466799885585
 21
27.59030576788081
 31
0.0
  0
SOLID
  5
1578
330
1572
100
AcDbEntity
  8
文字
 62
     0
100
AcDbTrace
 10
60.54667998855845
 20
28.00697243454747
 30
0.0
 11
60.54667998855845
 21
27.17363910121414
 31
0.0
 12
58.04667998855845
 22
27.59030576788081
 32
0.0
 13
58.04667998855845
 23
27.59030576788081
 33
0.0
  0
SOLID
  5
1579
330
1572
100
AcDbEntity
  8
文字
 62
     0
100
AcDbTrace
 10
100.5466799885585
 20
27.17363910121414
 30
0.0
 11
100.5466799885585
 21
28.00697243454747
 31
0.0
 12
103.0466799885585
 22
27.59030576788081
 32
0.0
 13
103.0466799885585
 23
27.59030576788081
 33
0.0
  0
MTEXT
  5
157A
330
1572
100
AcDbEntity
  8
文字
 62
     0
100
AcDbMText
 10
80.54667998855847
 20
29.46530576788081
 30
0.0
 40
2.5
 41
0.0
 46
0.0
 71
     5
 72
     1
  1
%%c45
 73
     1
 44
1.0
  0
POINT
  5
157B
330
1572
100
AcDbEntity
  8
Defpoints
 62
     0
100
AcDbPoint
 10
58.04667998855845
 20
45.8835757980947
 30
0.0
  0
POINT
  5
157C
330
1572
100
AcDbEntity
  8
Defpoints
 62
     0
100
AcDbPoint
 10
103.0466799885585
 20
45.8835757980947
 30
0.0
  0
POINT
  5
157D
330
1572
100
AcDbEntity
  8
Defpoints
 62
     0
100
AcDbPoint
 10
103.0466799885585
 20
27.59030576788081
 30
0.0
  0
ENDBLK
  5
1574
330
1572
100
AcDbEntity
  8
0
100
AcDbBlockEnd
  0
BLOCK
  5
15A6
330
15A5
100
AcDbEntity
  8
0
100
AcDbBlockBegin
  2
*D13
 70
     1
 10
0.0
 20
0.0
 30
0.0
  3
*D13
  1
*D15
  0
LINE
  5
15A7
330
15A5
100
AcDbEntity
  8
文字
 62
     0
370
    -2
100
AcDbLine
 10
0.0
 20
42.26614347604425
 30
0.0
 11
0.0
 21
0.0
 31
0.0
  0
LINE
  5
15A8
330
15A5
100
AcDbEntity
  8
文字
 62
     0
370
    -2
100
AcDbLine
 10
28.00364289724251
 20
42.43311905786445
 30
0.0
 11
28.00364289724251
 21
0.0
 31
0.0
  0
LINE
  5
15A9
330
15A5
100
AcDbEntity
  8
文字
 62
     0
370
    -2
100
AcDbLine
 10
2.5
 20
1.25
 30
0.0
 11
25.50364289724251
 21
1.25
 31
0.0
  0
SOLID
  5
15AA
330
15A5
100
AcDbEntity
  8
文字
 62
     0
100
AcDbTrace
 10
2.5
 20
1.666666666666667
 30
0.0
 11
2.5
 21
0.8333333333333333
 31
0.0
 12
0.0
 22
1.25
 32
0.0
 13
0.0
 23
1.25
 33
0.0
  0
SOLID
  5
15AB
330
15A5
100
AcDbEntity
  8
文字
 62
     0
100
AcDbTrace
 10
25.50364289724251
 20
0.8333333333333333
 30
0.0
 11
25.50364289724251
 21
1.666666666666667
 31
0.0
 12
28.00364289724251
 22
1.25
 32
0.0
 13
28.00364289724251
 23
1.25
 33
0.0
  0
MTEXT
  5
15AC
330
15A5
100
AcDbEntity
  8
文字
 62
     0
100
AcDbMText
 10
14.00182144862126
 20
3.125
 30
0.0
 40
2.5
 41
0.0
 46
0.0
 71
     5
 72
     1
  1
%%c28
 73
     1
 44
1.0
  0
POINT
  5
15AD
330
15A5
100
AcDbEntity
  8
Defpoints
 62
     0
100
AcDbPoint
 10
0.0
 20
42.89114347604425
 30
0.0
  0
POINT
  5
15AE
330
15A5
100
AcDbEntity
  8
Defpoints
 62
     0
100
AcDbPoint
 10
28.00364289724251
 20
43.05811905786445
 30
0.0
  0
POINT
  5
15AF
330
15A5
100
AcDbEntity
  8
Defpoints
 62
     0
100
AcDbPoint
 10
28.00364289724251
 20
1.25
 30
0.0
  0
ENDBLK
  5
15B0
330
15A5
100
AcDbEntity
  8
0
100
AcDbBlockEnd
  0
BLOCK
  5
15B7
330
15B6
100
AcDbEntity
  8
0
100
AcDbBlockBegin
  2
*D14
 70
     1
 10
0.0
 20
0.0
 30
0.0
  3
*D14
  1
*D15
  0
LINE
  5
15B9
330
15B6
100
AcDbEntity
  8
文字
 62
     0
370
    -2
100
AcDbLine
 10
164.3274873376197
 20
88.55195930730696
 30
0.0
 11
164.3274873376197
 21
46.28581583126271
 31
0.0
  0
LINE
  5
15BA
330
15B6
100
AcDbEntity
  8
文字
 62
     0
370
    -2
100
AcDbLine
 10
192.3311302348622
 20
88.71893488912715
 30
0.0
 11
192.3311302348622
 21
46.28581583126271
 31
0.0
  0
LINE
  5
15BB
330
15B6
100
AcDbEntity
  8
文字
 62
     0
370
    -2
100
AcDbLine
 10
166.8274873376197
 20
47.53581583126271
 30
0.0
 11
189.8311302348622
 21
47.53581583126271
 31
0.0
  0
SOLID
  5
15BC
330
15B6
100
AcDbEntity
  8
文字
 62
     0
100
AcDbTrace
 10
166.8274873376197
 20
47.95248249792937
 30
0.0
 11
166.8274873376197
 21
47.11914916459605
 31
0.0
 12
164.3274873376197
 22
47.53581583126271
 32
0.0
 13
164.3274873376197
 23
47.53581583126271
 33
0.0
  0
SOLID
  5
15BD
330
15B6
100
AcDbEntity
  8
文字
 62
     0
100
AcDbTrace
 10
189.8311302348622
 20
47.11914916459605
 30
0.0
 11
189.8311302348622
 21
47.95248249792937
 31
0.0
 12
192.3311302348622
 22
47.53581583126271
 32
0.0
 13
192.3311302348622
 23
47.53581583126271
 33
0.0
  0
MTEXT
  5
15BE
330
15B6
100
AcDbEntity
  8
文字
 62
     0
100
AcDbMText
 10
178.329308786241
 20
49.41081583126271
 30
0.0
 40
2.5
 41
0.0
 46
0.0
 71
     5
 72
     1
  1
%%c28
 73
     1
 44
1.0
  0
POINT
  5
15BF
330
15B6
100
AcDbEntity
  8
Defpoints
 62
     0
100
AcDbPoint
 10
164.3274873376197
 20
89.17695930730696
 30
0.0
  0
POINT
  5
15C0
330
15B6
100
AcDbEntity
  8
Defpoints
 62
     0
100
AcDbPoint
 10
192.3311302348622
 20
89.34393488912715
 30
0.0
  0
POINT
  5
15C1
330
15B6
100
AcDbEntity
  8
Defpoints
 62
     0
100
AcDbPoint
 10
192.3311302348622
 20
47.53581583126271
 30
0.0
  0
ENDBLK
  5
15B8
330
15B6
100
AcDbEntity
  8
0
100
AcDbBlockEnd
  0
ENDSEC
  0
SECTION
  2
ENTITIES
  0
CIRCLE
  5
1185
330
21
100
AcDbEntity
  8
実線
370
    20
100
AcDbCircle
 10
178.3614601408588
 20
89.08049658711185
 30
0.0
 40
3.0
  0
LINE
  5
1189
330
21
100
AcDbEntity
  8
中心線
100
AcDbLine
 10
178.3614601408588
 20
89.08049658711185
 30
0.0
 11
178.3614601408588
 21
62.21986549191776
 31
0.0
  0
LINE
  5
118A
330
21
100
AcDbEntity
  8
中心線
100
AcDbLine
 10
178.3614601408588
 20
89.08049658711185
 30
0.0
 11
178.3614601408588
 21
114.7300998476312
 31
0.0
  0
DIMENSION
  5
1190
102
{ACAD_REACTORS
330
1192
102
}
102
{ACAD_XDICTIONARY
360
1191
102
}
330
21
100
AcDbEntity
  8
文字
100
AcDbDimension
280
     0
  2
*D0
 10
186.8485090979463
 20
56.04009898678773
 30
0.0
 11
178.3614601408588
 21
56.04009898678773
 31
0.0
 70
   160
  1
17
 71
     5
 42
16.97409791417488
 73
     0
 74
     0
 75
     0
  3
ISO-25
100
AcDbAlignedDimension
 13
169.8744111837714
 23
89.08049658711185
 33
0.0
 14
186.8485090979463
 24
89.08049658711185
 34
0.0
100
AcDbRotatedDimension
  0
CIRCLE
  5
1193
330
21
100
AcDbEntity
  8
実線
370
    50
100
AcDbCircle
 10
178.3614601408588
 20
89.08049658711185
 30
0.0
 40
5.0
  0
LINE
  5
119D
330
21
100
AcDbEntity
  8
実線
370
    50
100
AcDbLine
 10
87.90223022473016
 20
62.06420657848898
 30
0.0
 11
73.30702304848224
 21
62.06420657848898
 31
0.0
  0
LWPOLYLINE
  5
119E
102
{ACAD_REACTORS
330
1192
102
}
330
21
100
AcDbEntity
  8
実線
370
    50
100
AcDbPolyline
 90
        6
 70
     1
 43
0.0
 10
169.8744111837714
 20
84.18049658711186
 10
178.3614601408588
 20
79.28049658711186
 10
186.8485090979463
 20
84.18049658711186
 10
186.8485090979464
 20
93.98049658711186
 10
178.3614601408589
 20
98.88049658711186
 10
169.8744111837714
 20
93.98049658711186
  0
LINE
  5
11A9
330
21
100
AcDbEntity
  8
中心線
100
AcDbLine
 10
147.9466995365614
 20
89.08049658711185
 30
0.0
 11
187.9491306870035
 21
89.08049658711185
 31
0.0
  0
LINE
  5
11AB
330
21
100
AcDbEntity
  8
中心線
100
AcDbLine
 10
187.9491306870035
 20
89.08049658711185
 30
0.0
 11
208.5914289045107
 21
89.08049658711185
 31
0.0
  0
CIRCLE
  5
11AD
330
21
100
AcDbEntity
  8
実線
370
    50
100
AcDbCircle
 10
178.3614601408588
 20
89.08049658711185
 30
0.0
 40
14.0
  0
CIRCLE
  5
1223
330
21
100
AcDbEntity
  8
実線
100
AcDbCircle
 10
178.3614601408588
 20
89.08049658711185
 30
0.0
 40
22.5
  0
LINE
  5
12D5
330
21
100
AcDbEntity
  8
実線
370
    50
100
AcDbLine
 10
87.90223022473013
 20
62.06420657848898
 30
0.0
 11
73.30702304848221
 21
62.06420657848898
 31
0.0
  0
DIMENSION
  5
13CF
102
{ACAD_REACTORS
330
13D1
102
}
102
{ACAD_XDICTIONARY
360
13D0
102
}
330
21
100
AcDbEntity
  8
文字
100
AcDbDimension
280
     0
  2
*D5
 10
125.803425227935
 20
69.06420657848896
 30
0.0
 11
123.928425227935
 21
119.064206578489
 31
0.0
 70
    32
 71
     5
 42
100.0
 73
     0
 74
     0
 75
     0
  3
ISO-25
100
AcDbAlignedDimension
 13
83.46388483212664
 23
169.064206578489
 33
0.0
 14
90.88888483212664
 24
69.06420657848898
 34
0.0
 50
90.0
100
AcDbRotatedDimension
  0
LINE
  5
13D2
102
{ACAD_REACTORS
330
13D1
102
}
330
21
100
AcDbEntity
  8
実線
370
    20
100
AcDbLine
 10
83.46388483212664
 20
169.064206578489
 30
0.0
 11
83.46388483212662
 21
69.06420657848898
 31
0.0
  0
LINE
  5
13D3
330
21
100
AcDbEntity
  8
実線
370
    20
100
AcDbLine
 10
77.46388483212662
 20
169.0642065784889
 30
0.0
 11
77.46388483212661
 21
69.06420657848898
 31
0.0
  0
LINE
  5
13D4
330
21
100
AcDbEntity
  8
実線
370
    20
100
AcDbLine
 10
75.46388483212662
 20
167.0642065784889
 30
0.0
 11
85.46388483212664
 21
167.064206578489
 31
0.0
  0
LWPOLYLINE
  5
13D5
330
21
100
AcDbEntity
  8
実線
100
AcDbPolyline
 90
        6
 70
     1
 43
0.0
 10
75.46388483212664
 20
69.06420657848898
 10
85.46388483212664
 20
69.06420657848898
 10
85.46388483212664
 20
167.064206578489
 10
83.46388483212664
 20
169.064206578489
 10
77.46388483212662
 20
169.0642065784889
 10
75.46388483212662
 20
167.0642065784889
  0
DIMENSION
  5
13D7
330
21
100
AcDbEntity
  8
文字
100
AcDbDimension
280
     0
  2
*D4
 10
85.46388483212662
 20
182.1129307949121
 30
0.0
 11
80.46388483212662
 21
184.0143632642163
 31
0.0
 70
    32
  1
{\fArial|b0|i0|c0|p32;M10}
 71
     5
 42
10.0
 73
     0
 74
     0
 75
     0
  3
ISO-25
100
AcDbAlignedDimension
 13
75.46388483212662
 23
166.4392065784889
 33
0.0
 14
85.46388483212662
 24
166.4392065784889
 34
0.0
100
AcDbRotatedDimension
  0
DIMENSION
  5
13D8
102
{ACAD_REACTORS
330
13DA
102
}
102
{ACAD_XDICTIONARY
360
13D9
102
}
330
21
100
AcDbEntity
  8
文字
100
AcDbDimension
280
     0
  2
*D6
 10
125.803425227935
 20
69.06420657848896
 30
0.0
 11
123.928425227935
 21
65.56420657848899
 31
0.0
 70
    32
  1
7
 71
     5
 42
6.999999999999993
 73
     0
 74
     0
 75
     0
  3
ISO-25
100
AcDbAlignedDimension
 13
90.26388483212664
 23
62.06420657848898
 33
0.0
 14
90.26388483212664
 24
69.06420657848898
 34
0.0
 50
90.0
100
AcDbRotatedDimension
  0
ARC
  5
13DB
330
21
100
AcDbEntity
  8
実線
370
    50
100
AcDbCircle
 10
87.75893494997273
 20
64.78068690688323
 30
0.0
 40
2.716538372492689
100
AcDbArc
 50
202.7633354902944
 51
337.2366715329317
  0
ARC
  5
13DC
330
21
100
AcDbEntity
  8
実線
370
    50
100
AcDbCircle
 10
80.52665335535615
 20
69.60518587087805
 30
0.0
 40
7.541240519685672
100
AcDbArc
 50
231.180866270598
 51
308.8191315053852
  0
ARC
  5
13DD
330
21
100
AcDbEntity
  8
実線
370
    50
100
AcDbCircle
 10
73.23160282728676
 20
64.87562169352327
 30
0.0
 40
2.811861775624425
100
AcDbArc
 50
204.052326073835
 51
335.9476739261654
  0
LINE
  5
13DE
330
21
100
AcDbEntity
  8
実線
370
    50
100
AcDbLine
 10
87.77669317827116
 20
62.06420657848898
 30
0.0
 11
73.18148600202323
 21
62.06420657848898
 31
0.0
  0
LINE
  5
13DF
330
21
100
AcDbEntity
  8
実線
370
    50
100
AcDbLine
 10
85.2539855782964
 20
69.06420657848898
 30
0.0
 11
85.2539855782964
 21
63.72958899654263
 31
0.0
  0
LINE
  5
13E0
330
21
100
AcDbEntity
  8
実線
370
    50
100
AcDbLine
 10
75.7993208224469
 20
69.06420657848898
 30
0.0
 11
75.7993208224469
 21
63.72958899654269
 31
0.0
  0
LWPOLYLINE
  5
13E1
102
{ACAD_REACTORS
330
13DA
102
}
330
21
100
AcDbEntity
  8
実線
370
    50
100
AcDbPolyline
 90
        4
 70
     0
 43
0.0
 10
90.26388483212664
 20
63.72958899654265
 10
90.26388483212664
 20
69.06420657848898
 10
70.66388483212664
 20
69.06420657848898
 10
70.66388483212664
 20
63.72958899654267
  0
MTEXT
  5
14EE
330
21
100
AcDbEntity
  8
文字・寸法線
 62
     0
100
AcDbMText
 10
86.01993274156831
 20
208.7133902929683
 30
0.0
 40
6.0
 41
0.0
 46
6.0
 71
     9
 72
     1
  1
{\fＭＳ ゴシック|b0|i0|c0|p0;S-M2 M10X100}
 73
     1
 44
1.0
1001
ACAD
1000
ACAD_MTEXT_DEFINED_HEIGHT_BEGIN
1070
    46
1040
6.0
1000
ACAD_MTEXT_DEFINED_HEIGHT_END
  0
ARC
  5
154C
330
21
100
AcDbEntity
  8
実線
370
    50
100
AcDbCircle
 10
80.00061479814866
 20
49.58473103096983
 30
0.0
 40
13.24316634049441
100
AcDbArc
 50
109.7295435093523
 51
170.0035449917054
  0
ARC
  5
154D
330
21
100
AcDbEntity
  8
実線
370
    50
100
AcDbCircle
 10
81.0918027706416
 20
49.58473103096979
 30
0.0
 40
13.24316634049445
100
AcDbArc
 50
9.99645500829481
 51
70.27045649064762
  0
LINE
  5
154E
330
21
100
AcDbEntity
  8
中心線
100
AcDbLine
 10
80.54620878439513
 20
38.5502446154279
 30
0.0
 11
80.46862127277304
 21
176.6128679887434
 31
0.0
  0
LWPOLYLINE
  5
154F
102
{ACAD_REACTORS
330
1554
330
1557
102
}
330
21
100
AcDbEntity
  8
実線
100
AcDbPolyline
 90
        4
 70
     1
 43
0.0
 10
58.04667998855845
 20
45.8835757980947
 10
103.0466799885585
 20
45.8835757980947
 10
103.0466799885585
 20
51.8835757980947
 10
58.04667998855845
 20
51.8835757980947
  0
DIMENSION
  5
1550
102
{ACAD_XDICTIONARY
360
1551
102
}
330
21
100
AcDbEntity
  8
文字
100
AcDbDimension
280
     0
  2
*D10
 10
125.8857491802035
 20
46.04695659629128
 30
0.0
 11
124.0107491802035
 21
54.04871755644674
 31
0.0
 70
    32
 71
     5
 42
16.00352192031092
 73
     0
 74
     0
 75
     0
  3
ISO-25
100
AcDbAlignedDimension
 13
90.97120878439512
 23
62.0504785166022
 33
0.0
 14
103.1407579534752
 24
46.04695659629128
 34
0.0
 50
90.0
100
AcDbRotatedDimension
  0
DIMENSION
  5
1552
102
{ACAD_REACTORS
330
1554
102
}
102
{ACAD_XDICTIONARY
360
1553
102
}
330
21
100
AcDbEntity
  8
文字
100
AcDbDimension
280
     0
  2
*D11
 10
41.92325288314534
 20
45.8835757980947
 30
0.0
 11
40.04825288314534
 21
48.8835757980947
 31
0.0
 70
    32
 71
     5
 42
6.0
 73
     0
 74
     0
 75
     0
  3
ISO-25
100
AcDbAlignedDimension
 13
58.04667998855845
 23
51.8835757980947
 33
0.0
 14
58.04667998855845
 24
45.8835757980947
 34
0.0
 50
90.0
100
AcDbRotatedDimension
  0
DIMENSION
  5
1555
102
{ACAD_REACTORS
330
1557
102
}
102
{ACAD_XDICTIONARY
360
1556
102
}
330
21
100
AcDbEntity
  8
文字
100
AcDbDimension
280
     0
  2
*D12
 10
103.0466799885585
 20
27.59030576788081
 30
0.0
 11
80.54667998855847
 21
29.46530576788081
 31
0.0
 70
    32
  1
%%c<>
 71
     5
 42
45.00000000000004
 73
     0
 74
     0
 75
     0
  3
ISO-25
100
AcDbAlignedDimension
 13
58.04667998855845
 23
45.8835757980947
 33
0.0
 14
103.0466799885585
 24
45.8835757980947
 34
0.0
100
AcDbRotatedDimension
  0
DIMENSION
  5
15B4
102
{ACAD_XDICTIONARY
360
15B5
102
}
330
21
100
AcDbEntity
  8
文字
 62
     0
100
AcDbDimension
280
     0
  2
*D14
 10
192.3311302348622
 20
47.53581583126271
 30
0.0
 11
178.329308786241
 21
49.41081583126271
 31
0.0
 70
    32
  1
%%c<>
 71
     5
 42
28.00364289724251
 73
     0
 74
     0
 75
     0
  3
ISO-25
100
AcDbAlignedDimension
 13
164.3274873376197
 23
89.17695930730696
 33
0.0
 14
192.3311302348622
 24
89.34393488912715
 34
0.0
100
AcDbRotatedDimension
1001
ACAD
1000
DSTYLE
1002
{
1070
    77
1070
     1
1002
}
  0
VIEWPORT
  5
14B9
330
14B5
100
AcDbEntity
 67
     1
  8
0
100
AcDbViewport
 10
203.7291666666666
 20
142.1694444444444
 30
0.0
 40
488.9499999999999
 41
341.2066666666665
 68
     1
 69
     1
 12
203.7291666666666
 22
142.1694444444444
 13
0.0
 23
0.0
 14
0.5
 24
0.5
 15
0.0
 25
0.0
 16
0.0
 26
0.0
 36
1.0
 17
0.0
 27
0.0
 37
0.0
 42
50.0
 43
0.0
 44
0.0
 45
341.2066666666665
 50
0.0
 51
0.0
 72
   100
 90
   557152
  1

281
     0
 71
     1
 74
     0
110
0.0
120
0.0
130
0.0
111
1.0
121
0.0
131
0.0
112
0.0
122
1.0
132
0.0
 79
     0
146
0.0
170
     0
 61
     5
348
1471
292
     1
282
     1
141
0.0
142
0.0
 63
   256
361
14BB
  0
VIEWPORT
  5
14BA
330
14B5
100
AcDbEntity
 67
     1
  8
0
100
AcDbViewport
 10
203.7291666666666
 20
142.1694444444444
 30
0.0
 40
325.9666666666666
 41
227.471111111111
 68
     2
 69
     2
 12
148.5000001180429
 22
105.0
 13
0.0
 23
0.0
 14
0.5
 24
0.5
 15
0.0
 25
0.0
 16
0.0
 26
0.0
 36
1.0
 17
0.0
 27
0.0
 37
0.0
 42
50.0
 43
0.0
 44
0.0
 45
214.2
 50
0.0
 51
0.0
 72
   100
 90
   557152
  1

281
     0
 71
     1
 74
     0
110
0.0
120
0.0
130
0.0
111
1.0
121
0.0
131
0.0
112
0.0
122
1.0
132
0.0
 79
     0
146
0.0
170
     0
 61
     5
348
1471
292
     1
282
     1
141
0.0
142
0.0
 63
   256
  0
ENDSEC
  0
SECTION
  2
OBJECTS
  0
DICTIONARY
  5
C
330
0
100
AcDbDictionary
281
     1
  3
ACAD_COLOR
350
1C
  3
ACAD_DETAILVIEWSTYLE
350
14C5
  3
ACAD_GROUP
350
D
  3
ACAD_IMAGE_VARS
350
14AE
  3
ACAD_LAYOUT
350
1A
  3
ACAD_MATERIAL
350
1B
  3
ACAD_MLEADERSTYLE
350
14C2
  3
ACAD_MLINESTYLE
350
17
  3
ACAD_PLOTSETTINGS
350
19
  3
ACAD_PLOTSTYLENAME
350
E
  3
ACAD_SCALELIST
350
1485
  3
ACAD_SECTIONVIEWSTYLE
350
14C6
  3
ACAD_TABLESTYLE
350
14AA
  3
ACAD_VISUALSTYLE
350
146C
  3
AcadDim
350
7AD
  3
ACDB_RECOMPOSE_DATA
350
15C7
  3
AcDbVariableDictionary
350
14BC
  3
APPDATA
350
14AC
  0
SUN
  5
14AD
330
146B
100
AcDbSun
 90
        1
290
     0
 63
     7
421
 16777215
 40
1.0
291
     1
 91
  2455826
 92
 54000000
292
     0
 70
     2
 71
   256
280
     1
  0
DICTIONARY
  5
1191
330
1190
100
AcDbDictionary
280
     1
281
     1
  3
ACAD_DIMASSOC
360
1192
  0
DICTIONARY
  5
13D0
330
13CF
100
AcDbDictionary
280
     1
281
     1
  3
ACAD_DIMASSOC
360
13D1
  0
DICTIONARY
  5
13D9
330
13D8
100
AcDbDictionary
280
     1
281
     1
  3
ACAD_DIMASSOC
360
13DA
  0
DICTIONARY
  5
1551
330
1550
100
AcDbDictionary
280
     1
281
     1
  0
DICTIONARY
  5
1553
330
1552
100
AcDbDictionary
280
     1
281
     1
  3
ACAD_DIMASSOC
360
1554
  0
DICTIONARY
  5
1556
330
1555
100
AcDbDictionary
280
     1
281
     1
  3
ACAD_DIMASSOC
360
1557
  0
DICTIONARY
  5
15B5
330
15B4
100
AcDbDictionary
280
     1
281
     1
  0
SUN
  5
14BB
330
14B9
100
AcDbSun
 90
        1
290
     0
 63
     7
421
 16777215
 40
1.0
291
     1
 91
  2455826
 92
 54000000
292
     0
 70
     2
 71
   256
280
     1
  0
DICTIONARY
  5
1C
102
{ACAD_REACTORS
330
C
102
}
330
C
100
AcDbDictionary
281
     1
  0
DICTIONARY
  5
14C5
102
{ACAD_REACTORS
330
C
102
}
330
C
100
AcDbDictionary
281
     1
  0
DICTIONARY
  5
D
102
{ACAD_REACTORS
330
C
102
}
330
C
100
AcDbDictionary
281
     1
  0
RASTERVARIABLES
  5
14AE
102
{ACAD_REACTORS
330
C
102
}
330
C
100
AcDbRasterVariables
 90
        0
 70
     1
 71
     1
 72
     1
  0
DICTIONARY
  5
1A
102
{ACAD_REACTORS
330
C
102
}
330
C
100
AcDbDictionary
281
     1
  3
Model
350
24
  3
Sheet1
350
14B6
  0
DICTIONARY
  5
1B
102
{ACAD_REACTORS
330
C
102
}
330
C
100
AcDbDictionary
281
     1
  3
ByBlock
350
14A8
  3
ByLayer
350
14A7
  3
Global
350
14A9
  0
DICTIONARY
  5
14C2
102
{ACAD_REACTORS
330
C
102
}
330
C
100
AcDbDictionary
281
     1
  0
DICTIONARY
  5
17
102
{ACAD_REACTORS
330
C
102
}
330
C
100
AcDbDictionary
281
     1
  3
Standard
350
18
  0
DICTIONARY
  5
19
102
{ACAD_REACTORS
330
C
102
}
330
C
100
AcDbDictionary
281
     1
  0
ACDBDICTIONARYWDFLT
  5
E
102
{ACAD_REACTORS
330
C
102
}
330
C
100
AcDbDictionary
281
     1
  3
Normal
350
F
100
AcDbDictionaryWithDefault
340
F
  0
DICTIONARY
  5
1485
102
{ACAD_REACTORS
330
C
102
}
330
C
100
AcDbDictionary
281
     1
  3
A0
350
1486
  3
A1
350
1487
  3
A2
350
1488
  3
A3
350
1489
  3
A4
350
148A
  3
A5
350
148B
  3
A6
350
148C
  3
A7
350
148D
  3
A8
350
148E
  3
A9
350
148F
  3
B0
350
1490
  3
B1
350
1491
  3
B2
350
1492
  3
B3
350
1493
  3
B4
350
1494
  3
B5
350
1495
  3
B6
350
1496
  3
B7
350
1497
  3
B8
350
1498
  3
B9
350
1499
  3
C0
350
149A
  3
C1
350
149B
  3
C2
350
149C
  3
C3
350
149D
  3
C4
350
149E
  3
C5
350
149F
  3
C6
350
14A0
  3
C7
350
14A1
  3
C8
350
14A2
  3
C9
350
14A3
  3
D0
350
14A4
  3
D1
350
14A5
  3
D2
350
14A6
  0
DICTIONARY
  5
14C6
102
{ACAD_REACTORS
330
C
102
}
330
C
100
AcDbDictionary
281
     1
  0
DICTIONARY
  5
14AA
102
{ACAD_REACTORS
330
C
102
}
330
C
100
AcDbDictionary
281
     1
  3
Standard
350
14AB
  0
DICTIONARY
  5
146C
102
{ACAD_REACTORS
330
C
102
}
330
C
100
AcDbDictionary
281
     1
  3
2dWireframe
350
1471
  3
Basic
350
1474
  3
Brighten
350
1478
  3
ColorChange
350
147C
  3
Conceptual
350
1476
  3
Dim
350
1477
  3
EdgeColorOff
350
147F
  3
Facepattern
350
147B
  3
Flat
350
146D
  3
FlatWithEdges
350
146E
  3
Gouraud
350
146F
  3
GouraudWithEdges
350
1470
  3
Hidden
350
1473
  3
JitterOff
350
147D
  3
Linepattern
350
147A
  3
OverhangOff
350
147E
  3
Realistic
350
1475
  3
Shaded
350
1484
  3
Shaded with edges
350
1483
  3
Shades of Gray
350
1480
  3
Sketchy
350
1481
  3
Thicken
350
1479
  3
Wireframe
350
1472
  3
X-Ray
350
1482
  0
XRECORD
  5
7AD
102
{ACAD_REACTORS
330
C
102
}
330
C
100
AcDbXrecord
280
     1
 90
   990106
  3

 60
     0
 61
     0
 62
     4
 63
     4
 64
     1
 65
     0
 66
     0
 67
     3
 68
     1
 69
     0
 70
     0
 71
     0
 72
     0
 40
0.0
170
     2
340
0
  0
XRECORD
  5
15C7
102
{ACAD_REACTORS
330
C
102
}
330
C
100
AcDbXrecord
280
     1
 90
        1
330
14AB
  0
DICTIONARY
  5
14BC
102
{ACAD_REACTORS
330
C
102
}
330
C
100
AcDbDictionary
281
     1
  3
CANNOSCALE
350
14BD
  3
CTABLESTYLE
350
14C1
  3
MSLTSCALE
350
14C3
  3
XCLIPFRAME
350
14C4
  0
DICTIONARY
  5
14AC
102
{ACAD_REACTORS
330
C
102
}
330
C
100
AcDbDictionary
281
     1
  0
DIMASSOC
  5
1192
102
{ACAD_REACTORS
330
1191
102
}
330
1191
100
AcDbDimAssoc
330
1190
 90
        3
 70
     0
 71
     0
  1
AcDbOsnapPointRef
 72
     2
331
119E
 73
     2
 91
        6
 40
0.5
 10
0.0
 20
0.0
 30
0.0
 75
     0
  1
AcDbOsnapPointRef
 72
     2
331
119E
 73
     2
 91
        3
 40
0.5
 10
0.0
 20
0.0
 30
0.0
 75
     0
  0
DIMASSOC
  5
13D1
102
{ACAD_REACTORS
330
13D0
102
}
330
13D0
100
AcDbDimAssoc
330
13CF
 90
        1
 70
     0
 71
     0
  1
AcDbOsnapPointRef
 72
    13
331
13D2
 73
     2
 91
        0
 40
0.0
 10
0.0
 20
0.0
 30
2.000000000000000E+50
 75
     0
  0
DIMASSOC
  5
13DA
102
{ACAD_REACTORS
330
13D9
102
}
330
13D9
100
AcDbDimAssoc
330
13D8
 90
        2
 70
     0
 71
     0
  1
AcDbOsnapPointRef
 72
     1
331
13E1
 73
     2
 91
        1
 40
1.0
 10
0.0
 20
0.0
 30
2.000000000000000E+50
 75
     0
  0
DIMASSOC
  5
1554
102
{ACAD_REACTORS
330
1553
102
}
330
1553
100
AcDbDimAssoc
330
1552
 90
        3
 70
     0
 71
     0
  1
AcDbOsnapPointRef
 72
     1
331
154F
 73
     2
 91
        3
 40
1.0
 10
0.0
 20
0.0
 30
2.000000000000000E+50
 75
     0
  1
AcDbOsnapPointRef
 72
    13
331
154F
 73
     2
 91
        1
 40
0.0
 10
0.0
 20
0.0
 30
2.000000000000000E+50
 75
     0
  0
DIMASSOC
  5
1557
102
{ACAD_REACTORS
330
1556
102
}
330
1556
100
AcDbDimAssoc
330
1555
 90
        3
 70
     0
 71
     0
  1
AcDbOsnapPointRef
 72
    13
331
154F
 73
     2
 91
        1
 40
0.0
 10
0.0
 20
0.0
 30
2.000000000000000E+50
 75
     0
  1
AcDbOsnapPointRef
 72
     1
331
154F
 73
     2
 91
        1
 40
1.0
 10
0.0
 20
0.0
 30
2.000000000000000E+50
 75
     0
  0
LAYOUT
  5
24
102
{ACAD_REACTORS
330
1A
102
}
330
1A
100
AcDbPlotSettings
  1

  2
\\SF05\Brother HL-1440 series
  4
A4
  6

 40
6.72041654586792
 41
5.027085304260254
 42
6.889755249023438
 43
5.027069091796875
 44
209.9733276367188
 45
296.9259948730469
 46
3.18
 47
4.94
 48
10.0
 49
10.00000018588798
140
287.0000002360858
141
200.000000185888
142
1.0
143
1.0
 70
 11956
 72
     1
 73
     1
 74
     4
  7

 75
    16
 76
     0
 77
     2
 78
   300
147
1.0
148
-10.0
149
-10.00000018588798
100
AcDbLayout
  1
Model
 70
     1
 71
     0
 10
0.0
 20
0.0
 11
12.0
 21
9.0
 12
0.0
 22
0.0
 32
0.0
 14
38.79825288314534
 24
26.34030576788081
 34
0.0
 15
208.5914289045107
 25
214.7133902929683
 35
0.0
146
0.0
 13
0.0
 23
0.0
 33
0.0
 16
1.0
 26
0.0
 36
0.0
 17
0.0
 27
1.0
 37
0.0
 76
     0
330
21
331
146B
  0
LAYOUT
  5
14B6
102
{ACAD_REACTORS
330
1A
102
}
330
1A
100
AcDbPlotSettings
  1

  2
none_device
  4
iso-a3
  6

 40
6.35
 41
6.35
 42
6.35
 43
6.35
 44
297.0388888888888
 45
420.1583333333333
 46
0.0
 47
0.0
 48
0.0
 49
0.0
140
0.0
141
0.0
142
1.0
143
1.0
 70
   688
 72
     1
 73
     1
 74
     5
  7

 75
    16
 76
     0
 77
     2
 78
   300
147
1.0
148
0.0
149
0.0
100
AcDbLayout
  1
Sheet1
 70
     1
 71
     1
 10
0.0
 20
0.0
 11
0.0
 21
0.0
 12
0.0
 22
0.0
 32
0.0
 14
0.0
 24
0.0
 34
0.0
 15
0.0
 25
0.0
 35
0.0
146
0.0
 13
0.0
 23
0.0
 33
0.0
 16
1.0
 26
0.0
 36
0.0
 17
0.0
 27
1.0
 37
0.0
 76
     0
330
14B5
331
14B9
  0
MATERIAL
  5
14A8
102
{ACAD_REACTORS
330
1B
102
}
330
1B
100
AcDbMaterial
  1
ByBlock
 72
     1
 94
      127
  0
MATERIAL
  5
14A7
102
{ACAD_REACTORS
330
1B
102
}
330
1B
100
AcDbMaterial
  1
ByLayer
 72
     1
 94
      127
  0
MATERIAL
  5
14A9
102
{ACAD_REACTORS
330
1B
102
}
330
1B
100
AcDbMaterial
  1
Global
 72
     1
 94
      127
  0
MLINESTYLE
  5
18
102
{ACAD_REACTORS
330
17
102
}
330
17
100
AcDbMlineStyle
  2
STANDARD
 70
     0
  3

 62
   256
 51
90.0
 52
90.0
 71
     2
 49
0.5
 62
   256
  6
BYLAYER
 49
-0.5
 62
   256
  6
BYLAYER
  0
ACDBPLACEHOLDER
  5
F
102
{ACAD_REACTORS
330
E
102
}
330
E
  0
SCALE
  5
1486
102
{ACAD_REACTORS
330
1485
102
}
330
1485
100
AcDbScale
 70
     0
300
1:1
140
1.0
141
1.0
290
     1
  0
SCALE
  5
1487
102
{ACAD_REACTORS
330
1485
102
}
330
1485
100
AcDbScale
 70
     0
300
1:2
140
1.0
141
2.0
290
     0
  0
SCALE
  5
1488
102
{ACAD_REACTORS
330
1485
102
}
330
1485
100
AcDbScale
 70
     0
300
1:4
140
1.0
141
4.0
290
     0
  0
SCALE
  5
1489
102
{ACAD_REACTORS
330
1485
102
}
330
1485
100
AcDbScale
 70
     0
300
1:5
140
1.0
141
5.0
290
     0
  0
SCALE
  5
148A
102
{ACAD_REACTORS
330
1485
102
}
330
1485
100
AcDbScale
 70
     0
300
1:8
140
1.0
141
8.0
290
     0
  0
SCALE
  5
148B
102
{ACAD_REACTORS
330
1485
102
}
330
1485
100
AcDbScale
 70
     0
300
1:10
140
1.0
141
10.0
290
     0
  0
SCALE
  5
148C
102
{ACAD_REACTORS
330
1485
102
}
330
1485
100
AcDbScale
 70
     0
300
1:16
140
1.0
141
16.0
290
     0
  0
SCALE
  5
148D
102
{ACAD_REACTORS
330
1485
102
}
330
1485
100
AcDbScale
 70
     0
300
1:20
140
1.0
141
20.0
290
     0
  0
SCALE
  5
148E
102
{ACAD_REACTORS
330
1485
102
}
330
1485
100
AcDbScale
 70
     0
300
1:30
140
1.0
141
30.0
290
     0
  0
SCALE
  5
148F
102
{ACAD_REACTORS
330
1485
102
}
330
1485
100
AcDbScale
 70
     0
300
1:40
140
1.0
141
40.0
290
     0
  0
SCALE
  5
1490
102
{ACAD_REACTORS
330
1485
102
}
330
1485
100
AcDbScale
 70
     0
300
1:50
140
1.0
141
50.0
290
     0
  0
SCALE
  5
1491
102
{ACAD_REACTORS
330
1485
102
}
330
1485
100
AcDbScale
 70
     0
300
1:100
140
1.0
141
100.0
290
     0
  0
SCALE
  5
1492
102
{ACAD_REACTORS
330
1485
102
}
330
1485
100
AcDbScale
 70
     0
300
2:1
140
2.0
141
1.0
290
     0
  0
SCALE
  5
1493
102
{ACAD_REACTORS
330
1485
102
}
330
1485
100
AcDbScale
 70
     0
300
4:1
140
4.0
141
1.0
290
     0
  0
SCALE
  5
1494
102
{ACAD_REACTORS
330
1485
102
}
330
1485
100
AcDbScale
 70
     0
300
8:1
140
8.0
141
1.0
290
     0
  0
SCALE
  5
1495
102
{ACAD_REACTORS
330
1485
102
}
330
1485
100
AcDbScale
 70
     0
300
10:1
140
10.0
141
1.0
290
     0
  0
SCALE
  5
1496
102
{ACAD_REACTORS
330
1485
102
}
330
1485
100
AcDbScale
 70
     0
300
100:1
140
100.0
141
1.0
290
     0
  0
SCALE
  5
1497
102
{ACAD_REACTORS
330
1485
102
}
330
1485
100
AcDbScale
 70
     0
300
1/128" = 1'-0"
140
0.0078125
141
12.0
290
     0
  0
SCALE
  5
1498
102
{ACAD_REACTORS
330
1485
102
}
330
1485
100
AcDbScale
 70
     0
300
1/64" = 1'-0"
140
0.015625
141
12.0
290
     0
  0
SCALE
  5
1499
102
{ACAD_REACTORS
330
1485
102
}
330
1485
100
AcDbScale
 70
     0
300
1/32" = 1'-0"
140
0.03125
141
12.0
290
     0
  0
SCALE
  5
149A
102
{ACAD_REACTORS
330
1485
102
}
330
1485
100
AcDbScale
 70
     0
300
1/16" = 1'-0"
140
0.0625
141
12.0
290
     0
  0
SCALE
  5
149B
102
{ACAD_REACTORS
330
1485
102
}
330
1485
100
AcDbScale
 70
     0
300
3/32" = 1'-0"
140
0.09375
141
12.0
290
     0
  0
SCALE
  5
149C
102
{ACAD_REACTORS
330
1485
102
}
330
1485
100
AcDbScale
 70
     0
300
1/8" = 1'-0"
140
0.125
141
12.0
290
     0
  0
SCALE
  5
149D
102
{ACAD_REACTORS
330
1485
102
}
330
1485
100
AcDbScale
 70
     0
300
3/16" = 1'-0"
140
0.1875
141
12.0
290
     0
  0
SCALE
  5
149E
102
{ACAD_REACTORS
330
1485
102
}
330
1485
100
AcDbScale
 70
     0
300
1/4" = 1'-0"
140
0.25
141
12.0
290
     0
  0
SCALE
  5
149F
102
{ACAD_REACTORS
330
1485
102
}
330
1485
100
AcDbScale
 70
     0
300
3/8" = 1'-0"
140
0.375
141
12.0
290
     0
  0
SCALE
  5
14A0
102
{ACAD_REACTORS
330
1485
102
}
330
1485
100
AcDbScale
 70
     0
300
1/2" = 1'-0"
140
0.5
141
12.0
290
     0
  0
SCALE
  5
14A1
102
{ACAD_REACTORS
330
1485
102
}
330
1485
100
AcDbScale
 70
     0
300
3/4" = 1'-0"
140
0.75
141
12.0
290
     0
  0
SCALE
  5
14A2
102
{ACAD_REACTORS
330
1485
102
}
330
1485
100
AcDbScale
 70
     0
300
1" = 1'-0"
140
1.0
141
12.0
290
     0
  0
SCALE
  5
14A3
102
{ACAD_REACTORS
330
1485
102
}
330
1485
100
AcDbScale
 70
     0
300
1-1/2" = 1'-0"
140
1.5
141
12.0
290
     0
  0
SCALE
  5
14A4
102
{ACAD_REACTORS
330
1485
102
}
330
1485
100
AcDbScale
 70
     0
300
3" = 1'-0"
140
3.0
141
12.0
290
     0
  0
SCALE
  5
14A5
102
{ACAD_REACTORS
330
1485
102
}
330
1485
100
AcDbScale
 70
     0
300
6" = 1'-0"
140
6.0
141
12.0
290
     0
  0
SCALE
  5
14A6
102
{ACAD_REACTORS
330
1485
102
}
330
1485
100
AcDbScale
 70
     0
300
1'-0" = 1'-0"
140
12.0
141
12.0
290
     0
  0
TABLESTYLE
  5
14AB
102
{ACAD_REACTORS
330
14AA
102
}
102
{ACAD_XDICTIONARY
360
15C5
102
}
330
14AA
100
AcDbTableStyle
  3
Standard
 70
     0
 71
     0
 40
0.06
 41
0.06
280
     0
281
     0
  7
Standard
140
4.5
170
     2
 62
     0
 63
   257
283
     0
 90
        4
 91
        0
  1

274
    -2
284
     1
 64
     0
275
    -2
285
     1
 65
     0
276
    -2
286
     1
 66
     0
277
    -2
287
     1
 67
     0
278
    -2
288
     1
 68
     0
279
    -2
289
     1
 69
     0
  7
Standard
140
6.0
170
     5
 62
     0
 63
   257
283
     0
 90
        4
 91
        0
  1

274
    -2
284
     1
 64
     0
275
    -2
285
     1
 65
     0
276
    -2
286
     1
 66
     0
277
    -2
287
     1
 67
     0
278
    -2
288
     1
 68
     0
279
    -2
289
     1
 69
     0
  7
Standard
140
4.5
170
     5
 62
     0
 63
   257
283
     0
 90
        4
 91
        0
  1

274
    -2
284
     1
 64
     0
275
    -2
285
     1
 65
     0
276
    -2
286
     1
 66
     0
277
    -2
287
     1
 67
     0
278
    -2
288
     1
 68
     0
279
    -2
289
     1
 69
     0
  0
VISUALSTYLE
  5
1471
102
{ACAD_REACTORS
330
146C
102
}
330
146C
100
AcDbVisualStyle
  2
2dWireframe
 70
     4
177
     3
291
     0
 70
    58
 90
        0
176
     1
 90
        2
176
     1
 90
        0
176
     1
 90
        0
176
     1
 40
0.6
176
     1
 40
30.0
176
     1
 62
     7
420
 16777215
176
     1
 90
        1
176
     1
 90
        4
176
     1
 62
     7
176
     1
 62
   257
176
     1
 90
        1
176
     1
 90
        1
176
     1
 40
1.0
176
     1
 90
        0
176
     1
 62
   257
176
     1
 40
1.0
176
     1
 90
        1
176
     1
 90
        6
176
     1
 90
        2
176
     1
 62
     7
176
     1
 90
        5
176
     1
 90
        0
176
     1
 90
        0
176
     1
290
     0
176
     1
 90
        1
176
     1
 40
0.0
176
     1
 90
        0
176
     1
290
     1
176
     1
290
     1
176
     1
290
     0
176
     1
290
     0
176
     1
290
     0
176
     1
290
     0
176
     1
290
     0
176
     1
290
     0
176
     1
290
     0
176
     1
 90
       50
176
     1
 40
0.0
176
     1
 40
1.0
176
     1
 90
        0
176
     1
 62
    18
420
        0
176
     1
 90
       50
176
     1
 90
        3
176
     1
 62
     5
420
      255
176
     1
290
     0
176
     1
 90
       50
176
     1
 90
       50
176
     1
 90
       50
176
     1
290
     0
176
     1
 90
       50
176
     1
 62
   256
176
     0
 40
1.0
176
     0
 90
        2
176
     1
  1
strokes_ogs.tif
176
     1
290
     0
176
     1
 40
1.0
176
     1
 40
1.0
176
     1
  0
VISUALSTYLE
  5
1474
102
{ACAD_REACTORS
330
146C
102
}
330
146C
100
AcDbVisualStyle
  2
Basic
 70
     7
177
     3
291
     1
 70
    58
 90
        1
176
     1
 90
        0
176
     1
 90
        1
176
     1
 90
        0
176
     1
 40
0.6
176
     1
 40
30.0
176
     1
 62
     7
420
 16777215
176
     1
 90
        0
176
     1
 90
        4
176
     1
 62
     7
176
     1
 62
   257
176
     1
 90
        1
176
     1
 90
        1
176
     1
 40
1.0
176
     1
 90
        8
176
     1
 62
     7
176
     1
 40
1.0
176
     1
 90
        1
176
     1
 90
        6
176
     1
 90
        2
176
     1
 62
     7
176
     1
 90
        5
176
     1
 90
        0
176
     1
 90
        0
176
     1
290
     0
176
     1
 90
        1
176
     1
 40
0.0
176
     1
 90
        0
176
     1
290
     0
176
     1
290
     1
176
     1
290
     1
176
     1
290
     0
176
     1
290
     0
176
     1
290
     0
176
     1
290
     0
176
     1
290
     0
176
     1
290
     0
176
     1
 90
       50
176
     1
 40
0.0
176
     1
 40
1.0
176
     1
 90
        0
176
     1
 62
    18
420
        0
176
     1
 90
       50
176
     1
 90
        3
176
     1
 62
     5
420
      255
176
     1
290
     0
176
     1
 90
       50
176
     1
 90
       50
176
     1
 90
       50
176
     1
290
     0
176
     1
 90
       50
176
     1
 62
   256
176
     0
 40
1.0
176
     0
 90
        2
176
     1
  1
strokes_ogs.tif
176
     1
290
     0
176
     1
 40
1.0
176
     1
 40
1.0
176
     1
  0
VISUALSTYLE
  5
1478
102
{ACAD_REACTORS
330
146C
102
}
330
146C
100
AcDbVisualStyle
  2
Brighten
 70
    12
177
     3
291
     1
 70
    58
 90
        2
176
     1
 90
        2
176
     1
 90
        0
176
     1
 90
        0
176
     1
 40
0.6
176
     1
 40
30.0
176
     1
 62
     7
420
 16777215
176
     1
 90
        1
176
     1
 90
        4
176
     1
 62
     7
176
     1
 62
   257
176
     1
 90
        1
176
     1
 90
        1
176
     1
 40
1.0
176
     1
 90
        8
176
     1
 62
     7
176
     1
 40
1.0
176
     1
 90
        1
176
     1
 90
        6
176
     1
 90
        2
176
     1
 62
     7
176
     1
 90
        5
176
     1
 90
        0
176
     1
 90
        0
176
     1
290
     0
176
     1
 90
        1
176
     1
 40
50.0
176
     1
 90
        0
176
     1
290
     0
176
     1
290
     1
176
     1
290
     1
176
     1
290
     0
176
     1
290
     0
176
     1
290
     0
176
     1
290
     0
176
     1
290
     0
176
     1
290
     0
176
     1
 90
       50
176
     1
 40
0.0
176
     1
 40
1.0
176
     1
 90
        0
176
     1
 62
    18
420
        0
176
     1
 90
       50
176
     1
 90
        3
176
     1
 62
     5
420
      255
176
     1
290
     0
176
     1
 90
       50
176
     1
 90
       50
176
     1
 90
       50
176
     1
290
     0
176
     1
 90
       50
176
     1
 62
   256
176
     0
 40
1.0
176
     0
 90
        2
176
     1
  1
strokes_ogs.tif
176
     1
290
     0
176
     1
 40
1.0
176
     1
 40
1.0
176
     1
  0
VISUALSTYLE
  5
147C
102
{ACAD_REACTORS
330
146C
102
}
330
146C
100
AcDbVisualStyle
  2
ColorChange
 70
    16
177
     3
291
     1
 70
    58
 90
        2
176
     1
 90
        2
176
     1
 90
        3
176
     1
 90
        0
176
     1
 40
0.6
176
     1
 40
30.0
176
     1
 62
     8
420
  8421504
176
     1
 90
        1
176
     1
 90
        4
176
     1
 62
     7
176
     1
 62
   257
176
     1
 90
        1
176
     1
 90
        1
176
     1
 40
1.0
176
     1
 90
        8
176
     1
 62
     8
420
  8421504
176
     1
 40
1.0
176
     1
 90
        1
176
     1
 90
        6
176
     1
 90
        2
176
     1
 62
     7
176
     1
 90
        5
176
     1
 90
        0
176
     1
 90
        0
176
     1
290
     0
176
     1
 90
        1
176
     1
 40
0.0
176
     1
 90
        0
176
     1
290
     0
176
     1
290
     1
176
     1
290
     1
176
     1
290
     0
176
     1
290
     0
176
     1
290
     0
176
     1
290
     0
176
     1
290
     0
176
     1
290
     0
176
     1
 90
       50
176
     1
 40
0.0
176
     1
 40
1.0
176
     1
 90
        0
176
     1
 62
    18
420
        0
176
     1
 90
       50
176
     1
 90
        3
176
     1
 62
     5
420
      255
176
     1
290
     0
176
     1
 90
       50
176
     1
 90
       50
176
     1
 90
       50
176
     1
290
     0
176
     1
 90
       50
176
     1
 62
   256
176
     0
 40
1.0
176
     0
 90
        2
176
     1
  1
strokes_ogs.tif
176
     1
290
     0
176
     1
 40
1.0
176
     1
 40
1.0
176
     1
  0
VISUALSTYLE
  5
1476
102
{ACAD_REACTORS
330
146C
102
}
330
146C
100
AcDbVisualStyle
  2
Conceptual
 70
     9
177
     3
291
     0
 70
    58
 90
        3
176
     1
 90
        2
176
     1
 90
        0
176
     1
 90
        0
176
     1
 40
0.6
176
     1
 40
30.0
176
     1
 62
     7
420
 16777215
176
     1
 90
        2
176
     1
 90
        2
176
     1
 62
     7
176
     1
 62
   257
176
     1
 90
        1
176
     1
 90
        1
176
     1
 40
179.0
176
     1
 90
        8
176
     1
 62
     7
176
     1
 40
1.0
176
     1
 90
        1
176
     1
 90
        6
176
     1
 90
        2
176
     1
 62
     7
176
     1
 90
        3
176
     1
 90
        0
176
     1
 90
        0
176
     1
290
     0
176
     1
 90
        1
176
     1
 40
0.0
176
     1
 90
        0
176
     1
290
     0
176
     1
290
     1
176
     1
290
     1
176
     1
290
     0
176
     1
290
     0
176
     1
290
     0
176
     1
290
     0
176
     1
290
     0
176
     1
290
     0
176
     1
 90
       50
176
     1
 40
0.0
176
     1
 40
1.0
176
     1
 90
        0
176
     1
 62
    18
420
        0
176
     1
 90
       50
176
     1
 90
        3
176
     1
 62
     5
420
      255
176
     1
290
     0
176
     1
 90
       50
176
     1
 90
       50
176
     1
 90
       50
176
     1
290
     0
176
     1
 90
       50
176
     1
 62
   256
176
     0
 40
1.0
176
     0
 90
        2
176
     1
  1
strokes_ogs.tif
176
     1
290
     0
176
     1
 40
1.0
176
     1
 40
1.0
176
     1
  0
VISUALSTYLE
  5
1477
102
{ACAD_REACTORS
330
146C
102
}
330
146C
100
AcDbVisualStyle
  2
Dim
 70
    11
177
     3
291
     1
 70
    58
 90
        2
176
     1
 90
        2
176
     1
 90
        0
176
     1
 90
        0
176
     1
 40
0.6
176
     1
 40
30.0
176
     1
 62
     7
420
 16777215
176
     1
 90
        1
176
     1
 90
        4
176
     1
 62
     7
176
     1
 62
   257
176
     1
 90
        1
176
     1
 90
        1
176
     1
 40
1.0
176
     1
 90
        8
176
     1
 62
     7
176
     1
 40
1.0
176
     1
 90
        1
176
     1
 90
        6
176
     1
 90
        2
176
     1
 62
     7
176
     1
 90
        5
176
     1
 90
        0
176
     1
 90
        0
176
     1
290
     0
176
     1
 90
        1
176
     1
 40
-50.0
176
     1
 90
        0
176
     1
290
     0
176
     1
290
     1
176
     1
290
     1
176
     1
290
     0
176
     1
290
     0
176
     1
290
     0
176
     1
290
     0
176
     1
290
     0
176
     1
290
     0
176
     1
 90
       50
176
     1
 40
0.0
176
     1
 40
1.0
176
     1
 90
        0
176
     1
 62
    18
420
        0
176
     1
 90
       50
176
     1
 90
        3
176
     1
 62
     5
420
      255
176
     1
290
     0
176
     1
 90
       50
176
     1
 90
       50
176
     1
 90
       50
176
     1
290
     0
176
     1
 90
       50
176
     1
 62
   256
176
     0
 40
1.0
176
     0
 90
        2
176
     1
  1
strokes_ogs.tif
176
     1
290
     0
176
     1
 40
1.0
176
     1
 40
1.0
176
     1
  0
VISUALSTYLE
  5
147F
102
{ACAD_REACTORS
330
146C
102
}
330
146C
100
AcDbVisualStyle
  2
EdgeColorOff
 70
    22
177
     3
291
     1
 70
    58
 90
        2
176
     0
 90
        2
176
     0
 90
        0
176
     0
 90
        0
176
     0
 40
0.6
176
     0
 40
30.0
176
     0
 62
     7
420
 16777215
176
     0
 90
        1
176
     0
 90
        4
176
     0
 62
     7
176
     0
 62
   257
176
     0
 90
        1
176
     0
 90
        1
176
     0
 40
1.0
176
     0
 90
        8
176
     2
 62
     7
176
     0
 40
1.0
176
     0
 90
        1
176
     0
 90
        6
176
     0
 90
        2
176
     0
 62
     7
176
     0
 90
        5
176
     0
 90
        0
176
     0
 90
        0
176
     0
290
     0
176
     0
 90
        1
176
     0
 40
0.0
176
     0
 90
        0
176
     0
290
     0
176
     0
290
     1
176
     0
290
     1
176
     0
290
     0
176
     0
290
     0
176
     0
290
     0
176
     0
290
     0
176
     0
290
     0
176
     0
290
     0
176
     0
 90
       50
176
     0
 40
0.0
176
     0
 40
1.0
176
     0
 90
        0
176
     0
 62
    18
420
        0
176
     0
 90
       50
176
     0
 90
        3
176
     0
 62
     5
420
      255
176
     0
290
     0
176
     0
 90
       50
176
     0
 90
       50
176
     0
 90
       50
176
     0
290
     0
176
     0
 90
       50
176
     0
 62
   256
176
     0
 40
1.0
176
     0
 90
        2
176
     0
  1
strokes_ogs.tif
176
     0
290
     0
176
     0
 40
1.0
176
     0
 40
1.0
176
     0
  0
VISUALSTYLE
  5
147B
102
{ACAD_REACTORS
330
146C
102
}
330
146C
100
AcDbVisualStyle
  2
Facepattern
 70
    15
177
     3
291
     1
 70
    58
 90
        2
176
     1
 90
        2
176
     1
 90
        0
176
     1
 90
        0
176
     1
 40
0.6
176
     1
 40
30.0
176
     1
 62
     7
420
 16777215
176
     1
 90
        1
176
     1
 90
        4
176
     1
 62
     7
176
     1
 62
   257
176
     1
 90
        1
176
     1
 90
        1
176
     1
 40
1.0
176
     1
 90
        8
176
     1
 62
     7
176
     1
 40
1.0
176
     1
 90
        1
176
     1
 90
        6
176
     1
 90
        2
176
     1
 62
     7
176
     1
 90
        5
176
     1
 90
        0
176
     1
 90
        0
176
     1
290
     0
176
     1
 90
        1
176
     1
 40
0.0
176
     1
 90
        0
176
     1
290
     0
176
     1
290
     1
176
     1
290
     1
176
     1
290
     0
176
     1
290
     0
176
     1
290
     0
176
     1
290
     0
176
     1
290
     0
176
     1
290
     0
176
     1
 90
       50
176
     1
 40
0.0
176
     1
 40
1.0
176
     1
 90
        0
176
     1
 62
    18
420
        0
176
     1
 90
       50
176
     1
 90
        3
176
     1
 62
     5
420
      255
176
     1
290
     0
176
     1
 90
       50
176
     1
 90
       50
176
     1
 90
       50
176
     1
290
     0
176
     1
 90
       50
176
     1
 62
   256
176
     0
 40
1.0
176
     0
 90
        2
176
     1
  1
strokes_ogs.tif
176
     1
290
     0
176
     1
 40
1.0
176
     1
 40
1.0
176
     1
  0
VISUALSTYLE
  5
146D
102
{ACAD_REACTORS
330
146C
102
}
330
146C
100
AcDbVisualStyle
  2
Flat
 70
     0
177
     3
291
     1
 70
    58
 90
        2
176
     1
 90
        1
176
     1
 90
        1
176
     1
 90
        2
176
     1
 40
0.6
176
     1
 40
30.0
176
     1
 62
     7
420
 16777215
176
     1
 90
        0
176
     1
 90
        0
176
     1
 62
     7
176
     1
 62
   257
176
     1
 90
        1
176
     1
 90
        1
176
     1
 40
1.0
176
     1
 90
        8
176
     1
 62
     7
176
     1
 40
1.0
176
     1
 90
        1
176
     1
 90
        6
176
     1
 90
        2
176
     1
 62
     7
176
     1
 90
        5
176
     1
 90
        0
176
     1
 90
        0
176
     1
290
     0
176
     1
 90
       13
176
     1
 40
0.0
176
     1
 90
        0
176
     1
290
     0
176
     1
290
     1
176
     1
290
     1
176
     1
290
     0
176
     1
290
     0
176
     1
290
     0
176
     1
290
     0
176
     1
290
     0
176
     1
290
     0
176
     1
 90
       50
176
     1
 40
0.0
176
     1
 40
1.0
176
     1
 90
        0
176
     1
 62
    18
420
        0
176
     1
 90
       50
176
     1
 90
        3
176
     1
 62
     5
420
      255
176
     1
290
     0
176
     1
 90
       50
176
     1
 90
       50
176
     1
 90
       50
176
     1
290
     0
176
     1
 90
       50
176
     1
 62
   256
176
     0
 40
1.0
176
     0
 90
        2
176
     1
  1
strokes_ogs.tif
176
     1
290
     0
176
     1
 40
1.0
176
     1
 40
1.0
176
     1
  0
VISUALSTYLE
  5
146E
102
{ACAD_REACTORS
330
146C
102
}
330
146C
100
AcDbVisualStyle
  2
FlatWithEdges
 70
     1
177
     3
291
     1
 70
    58
 90
        2
176
     1
 90
        1
176
     1
 90
        1
176
     1
 90
        2
176
     1
 40
0.6
176
     1
 40
30.0
176
     1
 62
     7
420
 16777215
176
     1
 90
        1
176
     1
 90
        0
176
     1
 62
     7
176
     1
 62
   257
176
     1
 90
        1
176
     1
 90
        1
176
     1
 40
1.0
176
     1
 90
        0
176
     1
 62
   257
176
     1
 40
1.0
176
     1
 90
        1
176
     1
 90
        6
176
     1
 90
        2
176
     1
 62
     7
176
     1
 90
        5
176
     1
 90
        0
176
     1
 90
        0
176
     1
290
     0
176
     1
 90
       13
176
     1
 40
0.0
176
     1
 90
        0
176
     1
290
     0
176
     1
290
     1
176
     1
290
     1
176
     1
290
     0
176
     1
290
     0
176
     1
290
     0
176
     1
290
     0
176
     1
290
     0
176
     1
290
     0
176
     1
 90
       50
176
     1
 40
0.0
176
     1
 40
1.0
176
     1
 90
        0
176
     1
 62
    18
420
        0
176
     1
 90
       50
176
     1
 90
        3
176
     1
 62
     5
420
      255
176
     1
290
     0
176
     1
 90
       50
176
     1
 90
       50
176
     1
 90
       50
176
     1
290
     0
176
     1
 90
       50
176
     1
 62
   256
176
     0
 40
1.0
176
     0
 90
        2
176
     1
  1
strokes_ogs.tif
176
     1
290
     0
176
     1
 40
1.0
176
     1
 40
1.0
176
     1
  0
VISUALSTYLE
  5
146F
102
{ACAD_REACTORS
330
146C
102
}
330
146C
100
AcDbVisualStyle
  2
Gouraud
 70
     2
177
     3
291
     1
 70
    58
 90
        2
176
     1
 90
        2
176
     1
 90
        1
176
     1
 90
        2
176
     1
 40
0.6
176
     1
 40
30.0
176
     1
 62
     7
420
 16777215
176
     1
 90
        0
176
     1
 90
        0
176
     1
 62
     7
176
     1
 62
   257
176
     1
 90
        1
176
     1
 90
        1
176
     1
 40
1.0
176
     1
 90
        0
176
     1
 62
     7
176
     1
 40
1.0
176
     1
 90
        1
176
     1
 90
        6
176
     1
 90
        2
176
     1
 62
     7
176
     1
 90
        5
176
     1
 90
        0
176
     1
 90
        0
176
     1
290
     0
176
     1
 90
       13
176
     1
 40
0.0
176
     1
 90
        0
176
     1
290
     0
176
     1
290
     1
176
     1
290
     1
176
     1
290
     0
176
     1
290
     0
176
     1
290
     0
176
     1
290
     0
176
     1
290
     0
176
     1
290
     0
176
     1
 90
       50
176
     1
 40
0.0
176
     1
 40
1.0
176
     1
 90
        0
176
     1
 62
    18
420
        0
176
     1
 90
       50
176
     1
 90
        3
176
     1
 62
     5
420
      255
176
     1
290
     0
176
     1
 90
       50
176
     1
 90
       50
176
     1
 90
       50
176
     1
290
     0
176
     1
 90
       50
176
     1
 62
   256
176
     0
 40
1.0
176
     0
 90
        2
176
     1
  1
strokes_ogs.tif
176
     1
290
     0
176
     1
 40
1.0
176
     1
 40
1.0
176
     1
  0
VISUALSTYLE
  5
1470
102
{ACAD_REACTORS
330
146C
102
}
330
146C
100
AcDbVisualStyle
  2
GouraudWithEdges
 70
     3
177
     3
291
     1
 70
    58
 90
        2
176
     1
 90
        2
176
     1
 90
        1
176
     1
 90
        2
176
     1
 40
0.6
176
     1
 40
30.0
176
     1
 62
     7
420
 16777215
176
     1
 90
        1
176
     1
 90
        0
176
     1
 62
     7
176
     1
 62
   257
176
     1
 90
        1
176
     1
 90
        1
176
     1
 40
1.0
176
     1
 90
        0
176
     1
 62
   257
176
     1
 40
1.0
176
     1
 90
        1
176
     1
 90
        6
176
     1
 90
        2
176
     1
 62
     7
176
     1
 90
        5
176
     1
 90
        0
176
     1
 90
        0
176
     1
290
     0
176
     1
 90
       13
176
     1
 40
0.0
176
     1
 90
        0
176
     1
290
     0
176
     1
290
     1
176
     1
290
     1
176
     1
290
     0
176
     1
290
     0
176
     1
290
     0
176
     1
290
     0
176
     1
290
     0
176
     1
290
     0
176
     1
 90
       50
176
     1
 40
0.0
176
     1
 40
1.0
176
     1
 90
        0
176
     1
 62
    18
420
        0
176
     1
 90
       50
176
     1
 90
        3
176
     1
 62
     5
420
      255
176
     1
290
     0
176
     1
 90
       50
176
     1
 90
       50
176
     1
 90
       50
176
     1
290
     0
176
     1
 90
       50
176
     1
 62
   256
176
     0
 40
1.0
176
     0
 90
        2
176
     1
  1
strokes_ogs.tif
176
     1
290
     0
176
     1
 40
1.0
176
     1
 40
1.0
176
     1
  0
VISUALSTYLE
  5
1473
102
{ACAD_REACTORS
330
146C
102
}
330
146C
100
AcDbVisualStyle
  2
Hidden
 70
     6
177
     3
291
     0
 70
    58
 90
        1
176
     1
 90
        2
176
     1
 90
        2
176
     1
 90
        0
176
     1
 40
0.6
176
     1
 40
30.0
176
     1
 62
     7
420
 16777215
176
     1
 90
        2
176
     1
 90
        2
176
     1
 62
     7
176
     1
 62
   257
176
     1
 90
        2
176
     1
 90
        1
176
     1
 40
40.0
176
     1
 90
        0
176
     1
 62
   257
176
     1
 40
1.0
176
     1
 90
        1
176
     1
 90
        6
176
     1
 90
        2
176
     1
 62
     7
176
     1
 90
        3
176
     1
 90
        0
176
     1
 90
        0
176
     1
290
     0
176
     1
 90
        1
176
     1
 40
0.0
176
     1
 90
        0
176
     1
290
     0
176
     1
290
     1
176
     1
290
     1
176
     1
290
     0
176
     1
290
     0
176
     1
290
     0
176
     1
290
     0
176
     1
290
     0
176
     1
290
     0
176
     1
 90
       50
176
     1
 40
0.0
176
     1
 40
1.0
176
     1
 90
        0
176
     1
 62
    18
420
        0
176
     1
 90
       50
176
     1
 90
        3
176
     1
 62
     5
420
      255
176
     1
290
     0
176
     1
 90
       50
176
     1
 90
       50
176
     1
 90
       50
176
     1
290
     0
176
     1
 90
       50
176
     1
 62
   256
176
     0
 40
1.0
176
     0
 90
        2
176
     1
  1
strokes_ogs.tif
176
     1
290
     0
176
     1
 40
1.0
176
     1
 40
1.0
176
     1
  0
VISUALSTYLE
  5
147D
102
{ACAD_REACTORS
330
146C
102
}
330
146C
100
AcDbVisualStyle
  2
JitterOff
 70
    20
177
     3
291
     1
 70
    58
 90
        2
176
     0
 90
        2
176
     0
 90
        0
176
     0
 90
        0
176
     0
 40
0.6
176
     0
 40
30.0
176
     0
 62
     7
420
 16777215
176
     0
 90
        1
176
     0
 90
        4
176
     0
 62
     7
176
     0
 62
   257
176
     0
 90
        1
176
     0
 90
        1
176
     0
 40
1.0
176
     0
 90
       10
176
     2
 62
     7
176
     0
 40
1.0
176
     0
 90
        1
176
     0
 90
        6
176
     0
 90
        2
176
     0
 62
     7
176
     0
 90
        5
176
     0
 90
        0
176
     0
 90
        0
176
     0
290
     0
176
     0
 90
        1
176
     0
 40
0.0
176
     0
 90
        0
176
     0
290
     0
176
     0
290
     1
176
     0
290
     1
176
     0
290
     0
176
     0
290
     0
176
     0
290
     0
176
     0
290
     0
176
     0
290
     0
176
     0
290
     0
176
     0
 90
       50
176
     0
 40
0.0
176
     0
 40
1.0
176
     0
 90
        0
176
     0
 62
    18
420
        0
176
     0
 90
       50
176
     0
 90
        3
176
     0
 62
     5
420
      255
176
     0
290
     0
176
     0
 90
       50
176
     0
 90
       50
176
     0
 90
       50
176
     0
290
     0
176
     0
 90
       50
176
     0
 62
   256
176
     0
 40
1.0
176
     0
 90
        2
176
     0
  1
strokes_ogs.tif
176
     0
290
     0
176
     0
 40
1.0
176
     0
 40
1.0
176
     0
  0
VISUALSTYLE
  5
147A
102
{ACAD_REACTORS
330
146C
102
}
330
146C
100
AcDbVisualStyle
  2
Linepattern
 70
    14
177
     3
291
     1
 70
    58
 90
        2
176
     1
 90
        2
176
     1
 90
        0
176
     1
 90
        0
176
     1
 40
0.6
176
     1
 40
30.0
176
     1
 62
     7
420
 16777215
176
     1
 90
        1
176
     1
 90
        4
176
     1
 62
     7
176
     1
 62
   257
176
     1
 90
        7
176
     1
 90
        7
176
     1
 40
1.0
176
     1
 90
        8
176
     1
 62
     7
176
     1
 40
1.0
176
     1
 90
        1
176
     1
 90
        6
176
     1
 90
        2
176
     1
 62
     7
176
     1
 90
        5
176
     1
 90
        0
176
     1
 90
        0
176
     1
290
     0
176
     1
 90
        1
176
     1
 40
0.0
176
     1
 90
        0
176
     1
290
     0
176
     1
290
     1
176
     1
290
     1
176
     1
290
     0
176
     1
290
     0
176
     1
290
     0
176
     1
290
     0
176
     1
290
     0
176
     1
290
     0
176
     1
 90
       50
176
     1
 40
0.0
176
     1
 40
1.0
176
     1
 90
        0
176
     1
 62
    18
420
        0
176
     1
 90
       50
176
     1
 90
        3
176
     1
 62
     5
420
      255
176
     1
290
     0
176
     1
 90
       50
176
     1
 90
       50
176
     1
 90
       50
176
     1
290
     0
176
     1
 90
       50
176
     1
 62
   256
176
     0
 40
1.0
176
     0
 90
        2
176
     1
  1
strokes_ogs.tif
176
     1
290
     0
176
     1
 40
1.0
176
     1
 40
1.0
176
     1
  0
VISUALSTYLE
  5
147E
102
{ACAD_REACTORS
330
146C
102
}
330
146C
100
AcDbVisualStyle
  2
OverhangOff
 70
    21
177
     3
291
     1
 70
    58
 90
        2
176
     0
 90
        2
176
     0
 90
        0
176
     0
 90
        0
176
     0
 40
0.6
176
     0
 40
30.0
176
     0
 62
     7
420
 16777215
176
     0
 90
        1
176
     0
 90
        4
176
     0
 62
     7
176
     0
 62
   257
176
     0
 90
        1
176
     0
 90
        1
176
     0
 40
1.0
176
     0
 90
        9
176
     2
 62
     7
176
     0
 40
1.0
176
     0
 90
        1
176
     0
 90
        6
176
     0
 90
        2
176
     0
 62
     7
176
     0
 90
        5
176
     0
 90
        0
176
     0
 90
        0
176
     0
290
     0
176
     0
 90
        1
176
     0
 40
0.0
176
     0
 90
        0
176
     0
290
     0
176
     0
290
     1
176
     0
290
     1
176
     0
290
     0
176
     0
290
     0
176
     0
290
     0
176
     0
290
     0
176
     0
290
     0
176
     0
290
     0
176
     0
 90
       50
176
     0
 40
0.0
176
     0
 40
1.0
176
     0
 90
        0
176
     0
 62
    18
420
        0
176
     0
 90
       50
176
     0
 90
        3
176
     0
 62
     5
420
      255
176
     0
290
     0
176
     0
 90
       50
176
     0
 90
       50
176
     0
 90
       50
176
     0
290
     0
176
     0
 90
       50
176
     0
 62
   256
176
     0
 40
1.0
176
     0
 90
        2
176
     0
  1
strokes_ogs.tif
176
     0
290
     0
176
     0
 40
1.0
176
     0
 40
1.0
176
     0
  0
VISUALSTYLE
  5
1475
102
{ACAD_REACTORS
330
146C
102
}
330
146C
100
AcDbVisualStyle
  2
Realistic
 70
     8
177
     3
291
     0
 70
    58
 90
        2
176
     1
 90
        3
176
     1
 90
        0
176
     1
 90
        2
176
     1
 40
0.6
176
     1
 40
30.0
176
     1
 62
     7
420
 16777215
176
     1
 90
        0
176
     1
 90
        0
176
     1
 62
     7
176
     1
 62
   257
176
     1
 90
        1
176
     1
 90
        1
176
     1
 40
1.0
176
     1
 90
        8
176
     1
 62
   257
176
     1
 40
1.0
176
     1
 90
        1
176
     1
 90
        6
176
     1
 90
        2
176
     1
 62
     7
176
     1
 90
        3
176
     1
 90
        0
176
     1
 90
        0
176
     1
290
     0
176
     1
 90
       13
176
     1
 40
0.0
176
     1
 90
        0
176
     1
290
     0
176
     1
290
     1
176
     1
290
     1
176
     1
290
     0
176
     1
290
     0
176
     1
290
     0
176
     1
290
     0
176
     1
290
     0
176
     1
290
     0
176
     1
 90
       50
176
     1
 40
0.0
176
     1
 40
1.0
176
     1
 90
        0
176
     1
 62
    18
420
        0
176
     1
 90
       50
176
     1
 90
        3
176
     1
 62
     5
420
      255
176
     1
290
     0
176
     1
 90
       50
176
     1
 90
       50
176
     1
 90
       50
176
     1
290
     0
176
     1
 90
       50
176
     1
 62
   256
176
     0
 40
1.0
176
     0
 90
        2
176
     1
  1
strokes_ogs.tif
176
     1
290
     0
176
     1
 40
1.0
176
     1
 40
1.0
176
     1
  0
VISUALSTYLE
  5
1484
102
{ACAD_REACTORS
330
146C
102
}
330
146C
100
AcDbVisualStyle
  2
Shaded
 70
    27
177
     3
291
     0
 70
    58
 90
        2
176
     1
 90
        2
176
     1
 90
        1
176
     1
 90
        2
176
     1
 40
0.6
176
     1
 40
30.0
176
     1
 62
     7
420
 16777215
176
     1
 90
        0
176
     1
 90
        4
176
     1
 62
     7
176
     1
 62
   257
176
     1
 90
        1
176
     1
 90
        1
176
     1
 40
1.0
176
     1
 90
        8
176
     1
 62
   257
176
     1
 40
1.0
176
     1
 90
        1
176
     1
 90
        6
176
     1
 90
        2
176
     1
 62
     8
420
  7895160
176
     1
 90
        3
176
     1
 90
        0
176
     1
 90
        0
176
     1
290
     0
176
     1
 90
        5
176
     1
 40
0.0
176
     1
 90
        0
176
     1
290
     0
176
     1
290
     1
176
     1
290
     1
176
     1
290
     0
176
     1
290
     0
176
     1
290
     0
176
     1
290
     0
176
     1
290
     0
176
     1
290
     0
176
     1
 90
       50
176
     1
 40
0.0
176
     1
 40
1.0
176
     1
 90
        0
176
     1
 62
    18
420
        0
176
     1
 90
       50
176
     1
 90
        3
176
     1
 62
     5
420
      255
176
     1
290
     0
176
     1
 90
       50
176
     1
 90
       50
176
     1
 90
       50
176
     1
290
     0
176
     1
 90
       50
176
     1
 62
   256
176
     0
 40
1.0
176
     0
 90
        2
176
     1
  1
strokes_ogs.tif
176
     1
290
     0
176
     1
 40
1.0
176
     1
 40
1.0
176
     1
  0
VISUALSTYLE
  5
1483
102
{ACAD_REACTORS
330
146C
102
}
330
146C
100
AcDbVisualStyle
  2
Shaded with edges
 70
    26
177
     3
291
     0
 70
    58
 90
        2
176
     1
 90
        2
176
     1
 90
        1
176
     1
 90
        2
176
     1
 40
0.6
176
     1
 40
30.0
176
     1
 62
     7
420
 16777215
176
     1
 90
        1
176
     1
 90
       10
176
     1
 62
     7
176
     1
 62
   257
176
     1
 90
        2
176
     1
 90
        1
176
     1
 40
1.0
176
     1
 90
        8
176
     1
 62
   257
176
     1
 40
1.0
176
     1
 90
        1
176
     1
 90
        6
176
     1
 90
        2
176
     1
 62
     7
176
     1
 90
        3
176
     1
 90
        0
176
     1
 90
        0
176
     1
290
     0
176
     1
 90
        5
176
     1
 40
0.0
176
     1
 90
        0
176
     1
290
     0
176
     1
290
     1
176
     1
290
     1
176
     1
290
     0
176
     1
290
     0
176
     1
290
     0
176
     1
290
     0
176
     1
290
     0
176
     1
290
     0
176
     1
 90
       50
176
     1
 40
0.0
176
     1
 40
1.0
176
     1
 90
        0
176
     1
 62
    18
420
        0
176
     1
 90
       50
176
     1
 90
        3
176
     1
 62
     5
420
      255
176
     1
290
     0
176
     1
 90
       50
176
     1
 90
       50
176
     1
 90
       50
176
     1
290
     0
176
     1
 90
       50
176
     1
 62
   256
176
     0
 40
1.0
176
     0
 90
        2
176
     1
  1
strokes_ogs.tif
176
     1
290
     0
176
     1
 40
1.0
176
     1
 40
1.0
176
     1
  0
VISUALSTYLE
  5
1480
102
{ACAD_REACTORS
330
146C
102
}
330
146C
100
AcDbVisualStyle
  2
Shades of Gray
 70
    23
177
     3
291
     0
 70
    58
 90
        2
176
     1
 90
        2
176
     1
 90
        3
176
     1
 90
        0
176
     1
 40
0.6
176
     1
 40
30.0
176
     1
 62
     7
420
 16777215
176
     1
 90
        2
176
     1
 90
        2
176
     1
 62
     7
176
     1
 62
     7
176
     1
 90
        1
176
     1
 90
        1
176
     1
 40
40.0
176
     1
 90
        8
176
     1
 62
     7
176
     1
 40
1.0
176
     1
 90
        1
176
     1
 90
        6
176
     1
 90
        2
176
     1
 62
     7
176
     1
 90
        3
176
     1
 90
        0
176
     1
 90
        0
176
     1
290
     0
176
     1
 90
        1
176
     1
 40
0.0
176
     1
 90
        0
176
     1
290
     0
176
     1
290
     1
176
     1
290
     1
176
     1
290
     0
176
     1
290
     0
176
     1
290
     0
176
     1
290
     0
176
     1
290
     0
176
     1
290
     0
176
     1
 90
       50
176
     1
 40
0.0
176
     1
 40
1.0
176
     1
 90
        0
176
     1
 62
    18
420
        0
176
     1
 90
       50
176
     1
 90
        3
176
     1
 62
     5
420
      255
176
     1
290
     0
176
     1
 90
       50
176
     1
 90
       50
176
     1
 90
       50
176
     1
290
     0
176
     1
 90
       50
176
     1
 62
   256
176
     0
 40
1.0
176
     0
 90
        2
176
     1
  1
strokes_ogs.tif
176
     1
290
     0
176
     1
 40
1.0
176
     1
 40
1.0
176
     1
  0
VISUALSTYLE
  5
1481
102
{ACAD_REACTORS
330
146C
102
}
330
146C
100
AcDbVisualStyle
  2
Sketchy
 70
    24
177
     3
291
     0
 70
    58
 90
        1
176
     1
 90
        2
176
     1
 90
        2
176
     1
 90
        0
176
     1
 40
0.6
176
     1
 40
30.0
176
     1
 62
     7
420
 16777215
176
     1
 90
        2
176
     1
 90
        2
176
     1
 62
     7
176
     1
 62
     7
176
     1
 90
        1
176
     1
 90
        1
176
     1
 40
40.0
176
     1
 90
       11
176
     1
 62
     7
176
     1
 40
1.0
176
     1
 90
        1
176
     1
 90
        6
176
     1
 90
        2
176
     1
 62
     7
176
     1
 90
        6
176
     1
 90
        0
176
     1
 90
        0
176
     1
290
     0
176
     1
 90
        1
176
     1
 40
0.0
176
     1
 90
        0
176
     1
290
     0
176
     1
290
     1
176
     1
290
     1
176
     1
290
     0
176
     1
290
     0
176
     1
290
     0
176
     1
290
     0
176
     1
290
     0
176
     1
290
     0
176
     1
 90
       50
176
     1
 40
0.0
176
     1
 40
1.0
176
     1
 90
        0
176
     1
 62
    18
420
        0
176
     1
 90
       50
176
     1
 90
        3
176
     1
 62
     5
420
      255
176
     1
290
     0
176
     1
 90
       50
176
     1
 90
       50
176
     1
 90
       50
176
     1
290
     0
176
     1
 90
       50
176
     1
 62
   256
176
     0
 40
1.0
176
     0
 90
        2
176
     1
  1
strokes_ogs.tif
176
     1
290
     0
176
     1
 40
1.0
176
     1
 40
1.0
176
     1
  0
VISUALSTYLE
  5
1479
102
{ACAD_REACTORS
330
146C
102
}
330
146C
100
AcDbVisualStyle
  2
Thicken
 70
    13
177
     3
291
     1
 70
    58
 90
        2
176
     1
 90
        2
176
     1
 90
        0
176
     1
 90
        0
176
     1
 40
0.6
176
     1
 40
30.0
176
     1
 62
     7
420
 16777215
176
     1
 90
        1
176
     1
 90
        4
176
     1
 62
     7
176
     1
 62
   257
176
     1
 90
        1
176
     1
 90
        1
176
     1
 40
1.0
176
     1
 90
       12
176
     1
 62
     7
176
     1
 40
1.0
176
     1
 90
        1
176
     1
 90
        6
176
     1
 90
        2
176
     1
 62
     7
176
     1
 90
        5
176
     1
 90
        0
176
     1
 90
        0
176
     1
290
     0
176
     1
 90
        1
176
     1
 40
0.0
176
     1
 90
        0
176
     1
290
     0
176
     1
290
     1
176
     1
290
     1
176
     1
290
     0
176
     1
290
     0
176
     1
290
     0
176
     1
290
     0
176
     1
290
     0
176
     1
290
     0
176
     1
 90
       50
176
     1
 40
0.0
176
     1
 40
1.0
176
     1
 90
        0
176
     1
 62
    18
420
        0
176
     1
 90
       50
176
     1
 90
        3
176
     1
 62
     5
420
      255
176
     1
290
     0
176
     1
 90
       50
176
     1
 90
       50
176
     1
 90
       50
176
     1
290
     0
176
     1
 90
       50
176
     1
 62
   256
176
     0
 40
1.0
176
     0
 90
        2
176
     1
  1
strokes_ogs.tif
176
     1
290
     0
176
     1
 40
1.0
176
     1
 40
1.0
176
     1
  0
VISUALSTYLE
  5
1472
102
{ACAD_REACTORS
330
146C
102
}
330
146C
100
AcDbVisualStyle
  2
Wireframe
 70
     5
177
     3
291
     0
 70
    58
 90
        0
176
     1
 90
        2
176
     1
 90
        0
176
     1
 90
        0
176
     1
 40
0.6
176
     1
 40
30.0
176
     1
 62
     7
420
 16777215
176
     1
 90
        1
176
     1
 90
        4
176
     1
 62
     7
176
     1
 62
   257
176
     1
 90
        1
176
     1
 90
        1
176
     1
 40
1.0
176
     1
 90
        0
176
     1
 62
   257
176
     1
 40
1.0
176
     1
 90
        1
176
     1
 90
        6
176
     1
 90
        2
176
     1
 62
     7
176
     1
 90
        3
176
     1
 90
        0
176
     1
 90
        0
176
     1
290
     0
176
     1
 90
        1
176
     1
 40
0.0
176
     1
 90
        0
176
     1
290
     0
176
     1
290
     1
176
     1
290
     1
176
     1
290
     0
176
     1
290
     0
176
     1
290
     0
176
     1
290
     0
176
     1
290
     0
176
     1
290
     0
176
     1
 90
       50
176
     1
 40
0.0
176
     1
 40
1.0
176
     1
 90
        0
176
     1
 62
    18
420
        0
176
     1
 90
       50
176
     1
 90
        3
176
     1
 62
     5
420
      255
176
     1
290
     0
176
     1
 90
       50
176
     1
 90
       50
176
     1
 90
       50
176
     1
290
     0
176
     1
 90
       50
176
     1
 62
   256
176
     0
 40
1.0
176
     0
 90
        2
176
     1
  1
strokes_ogs.tif
176
     1
290
     0
176
     1
 40
1.0
176
     1
 40
1.0
176
     1
  0
VISUALSTYLE
  5
1482
102
{ACAD_REACTORS
330
146C
102
}
330
146C
100
AcDbVisualStyle
  2
X-Ray
 70
    25
177
     3
291
     0
 70
    58
 90
        2
176
     1
 90
        2
176
     1
 90
        1
176
     1
 90
        1
176
     1
 40
0.5
176
     1
 40
30.0
176
     1
 62
     7
420
 16777215
176
     1
 90
        1
176
     1
 90
        0
176
     1
 62
     7
176
     1
 62
   257
176
     1
 90
        1
176
     1
 90
        1
176
     1
 40
1.0
176
     1
 90
        8
176
     1
 62
     7
176
     1
 40
1.0
176
     1
 90
        1
176
     1
 90
        6
176
     1
 90
        2
176
     1
 62
     7
176
     1
 90
        3
176
     1
 90
        0
176
     1
 90
        0
176
     1
290
     0
176
     1
 90
       13
176
     1
 40
0.0
176
     1
 90
        0
176
     1
290
     0
176
     1
290
     1
176
     1
290
     1
176
     1
290
     0
176
     1
290
     0
176
     1
290
     0
176
     1
290
     0
176
     1
290
     0
176
     1
290
     0
176
     1
 90
       50
176
     1
 40
0.0
176
     1
 40
1.0
176
     1
 90
        0
176
     1
 62
    18
420
        0
176
     1
 90
       50
176
     1
 90
        3
176
     1
 62
     5
420
      255
176
     1
290
     0
176
     1
 90
       50
176
     1
 90
       50
176
     1
 90
       50
176
     1
290
     0
176
     1
 90
       50
176
     1
 62
   256
176
     0
 40
1.0
176
     0
 90
        2
176
     1
  1
strokes_ogs.tif
176
     1
290
     0
176
     1
 40
1.0
176
     1
 40
1.0
176
     1
  0
DICTIONARYVAR
  5
14BD
102
{ACAD_REACTORS
330
14BC
102
}
330
14BC
100
DictionaryVariables
280
     0
  1
1:1
  0
DICTIONARYVAR
  5
14C1
102
{ACAD_REACTORS
330
14BC
102
}
330
14BC
100
DictionaryVariables
280
     0
  1
Standard
  0
DICTIONARYVAR
  5
14C3
102
{ACAD_REACTORS
330
14BC
102
}
330
14BC
100
DictionaryVariables
280
     0
  1
0
  0
DICTIONARYVAR
  5
14C4
102
{ACAD_REACTORS
330
14BC
102
}
330
14BC
100
DictionaryVariables
280
     0
  1
0
  0
DICTIONARY
  5
15C5
330
14AB
100
AcDbDictionary
280
     1
281
     1
  3
ACAD_ROUNDTRIP_2008_TABLESTYLE_CELLSTYLEMAP
360
15C6
  0
CELLSTYLEMAP
  5
15C6
102
{ACAD_REACTORS
330
15C5
102
}
330
15C5
100
AcDbCellStyleMap
 90
        3
300
CELLSTYLE
  1
TABLEFORMAT_BEGIN
 90
        5
170
     1
 91
        0
 92
        0
 62
   257
 93
        1
300
CONTENTFORMAT
  1
CONTENTFORMAT_BEGIN
 90
        0
 91
        0
 92
        4
 93
        0
300

 40
0.0
140
1.0
 94
        5
 62
     0
340
11
144
6.0
309
CONTENTFORMAT_END
171
     1
301
MARGIN
  1
CELLMARGIN_BEGIN
 40
1.5
 40
1.5
 40
1.5
 40
1.5
 40
1.5
 40
1.5
309
CELLMARGIN_END
 94
        6
 95
        1
302
GRIDFORMAT
  1
GRIDFORMAT_BEGIN
 90
        0
 91
        1
 62
     0
 92
       -2
340
14
 93
        0
 40
0.045
309
GRIDFORMAT_END
 95
        2
302
GRIDFORMAT
  1
GRIDFORMAT_BEGIN
 90
        0
 91
        1
 62
     0
 92
       -2
340
14
 93
        0
 40
0.045
309
GRIDFORMAT_END
 95
        4
302
GRIDFORMAT
  1
GRIDFORMAT_BEGIN
 90
        0
 91
        1
 62
     0
 92
       -2
340
14
 93
        0
 40
0.045
309
GRIDFORMAT_END
 95
        8
302
GRIDFORMAT
  1
GRIDFORMAT_BEGIN
 90
        0
 91
        1
 62
     0
 92
       -2
340
14
 93
        0
 40
0.045
309
GRIDFORMAT_END
 95
       16
302
GRIDFORMAT
  1
GRIDFORMAT_BEGIN
 90
        0
 91
        1
 62
     0
 92
       -2
340
14
 93
        0
 40
0.045
309
GRIDFORMAT_END
 95
       32
302
GRIDFORMAT
  1
GRIDFORMAT_BEGIN
 90
        0
 91
        1
 62
     0
 92
       -2
340
14
 93
        0
 40
0.045
309
GRIDFORMAT_END
309
TABLEFORMAT_END
  1
CELLSTYLE_BEGIN
 90
        1
 91
        1
300
_TITLE
309
CELLSTYLE_END
300
CELLSTYLE
  1
TABLEFORMAT_BEGIN
 90
        5
170
     1
 91
        0
 92
        0
 62
   257
 93
        1
300
CONTENTFORMAT
  1
CONTENTFORMAT_BEGIN
 90
        0
 91
        0
 92
        4
 93
        0
300

 40
0.0
140
1.0
 94
        5
 62
     0
340
11
144
4.5
309
CONTENTFORMAT_END
171
     1
301
MARGIN
  1
CELLMARGIN_BEGIN
 40
1.5
 40
1.5
 40
1.5
 40
1.5
 40
1.5
 40
1.5
309
CELLMARGIN_END
 94
        6
 95
        1
302
GRIDFORMAT
  1
GRIDFORMAT_BEGIN
 90
        0
 91
        1
 62
     0
 92
       -2
340
14
 93
        0
 40
0.045
309
GRIDFORMAT_END
 95
        2
302
GRIDFORMAT
  1
GRIDFORMAT_BEGIN
 90
        0
 91
        1
 62
     0
 92
       -2
340
14
 93
        0
 40
0.045
309
GRIDFORMAT_END
 95
        4
302
GRIDFORMAT
  1
GRIDFORMAT_BEGIN
 90
        0
 91
        1
 62
     0
 92
       -2
340
14
 93
        0
 40
0.045
309
GRIDFORMAT_END
 95
        8
302
GRIDFORMAT
  1
GRIDFORMAT_BEGIN
 90
        0
 91
        1
 62
     0
 92
       -2
340
14
 93
        0
 40
0.045
309
GRIDFORMAT_END
 95
       16
302
GRIDFORMAT
  1
GRIDFORMAT_BEGIN
 90
        0
 91
        1
 62
     0
 92
       -2
340
14
 93
        0
 40
0.045
309
GRIDFORMAT_END
 95
       32
302
GRIDFORMAT
  1
GRIDFORMAT_BEGIN
 90
        0
 91
        1
 62
     0
 92
       -2
340
14
 93
        0
 40
0.045
309
GRIDFORMAT_END
309
TABLEFORMAT_END
  1
CELLSTYLE_BEGIN
 90
        2
 91
        1
300
_HEADER
309
CELLSTYLE_END
300
CELLSTYLE
  1
TABLEFORMAT_BEGIN
 90
        5
170
     1
 91
        0
 92
        0
 62
   257
 93
        1
300
CONTENTFORMAT
  1
CONTENTFORMAT_BEGIN
 90
        0
 91
        0
 92
        4
 93
        0
300

 40
0.0
140
1.0
 94
        2
 62
     0
340
11
144
4.5
309
CONTENTFORMAT_END
171
     1
301
MARGIN
  1
CELLMARGIN_BEGIN
 40
1.5
 40
1.5
 40
1.5
 40
1.5
 40
1.5
 40
1.5
309
CELLMARGIN_END
 94
        6
 95
        1
302
GRIDFORMAT
  1
GRIDFORMAT_BEGIN
 90
        0
 91
        1
 62
     0
 92
       -2
340
14
 93
        0
 40
0.045
309
GRIDFORMAT_END
 95
        2
302
GRIDFORMAT
  1
GRIDFORMAT_BEGIN
 90
        0
 91
        1
 62
     0
 92
       -2
340
14
 93
        0
 40
0.045
309
GRIDFORMAT_END
 95
        4
302
GRIDFORMAT
  1
GRIDFORMAT_BEGIN
 90
        0
 91
        1
 62
     0
 92
       -2
340
14
 93
        0
 40
0.045
309
GRIDFORMAT_END
 95
        8
302
GRIDFORMAT
  1
GRIDFORMAT_BEGIN
 90
        0
 91
        1
 62
     0
 92
       -2
340
14
 93
        0
 40
0.045
309
GRIDFORMAT_END
 95
       16
302
GRIDFORMAT
  1
GRIDFORMAT_BEGIN
 90
        0
 91
        1
 62
     0
 92
       -2
340
14
 93
        0
 40
0.045
309
GRIDFORMAT_END
 95
       32
302
GRIDFORMAT
  1
GRIDFORMAT_BEGIN
 90
        0
 91
        1
 62
     0
 92
       -2
340
14
 93
        0
 40
0.045
309
GRIDFORMAT_END
309
TABLEFORMAT_END
  1
CELLSTYLE_BEGIN
 90
        3
 91
        2
300
_DATA
309
CELLSTYLE_END
  0
ENDSEC
  0
EOF
