  0
SECTION
  2
HEADER
  9
$ACADVER
  1
AC1027
  9
$ACADMAINTVER
 70
     8
  9
$DWGCODEPAGE
  3
ANSI_932
  9
$REQUIREDVERSIONS
160
                 0
  9
$LASTSAVEDBY
  1
Yasu
  9
$INSBASE
 10
0.0
 20
0.0
 30
0.0
  9
$EXTMIN
 10
36.10421760357725
 20
36.14134189267429
 30
0.0
  9
$EXTMAX
 10
392.9250094237923
 20
242.1872424965921
 30
0.0
  9
$LIMMIN
 10
0.0
 20
0.0
  9
$LIMMAX
 10
12.0
 20
9.0
  9
$ORTHOMODE
 70
     0
  9
$REGENMODE
 70
     1
  9
$FILLMODE
 70
     1
  9
$QTEXTMODE
 70
     0
  9
$MIRRTEXT
 70
     0
  9
$LTSCALE
 40
1.0
  9
$ATTMODE
 70
     1
  9
$TEXTSIZE
 40
0.2
  9
$TRACEWID
 40
0.05
  9
$TEXTSTYLE
  7
Standard
  9
$CLAYER
  8
0
  9
$CELTYPE
  6
ByLayer
  9
$CECOLOR
 62
   256
  9
$CELTSCALE
 40
1.0
  9
$DISPSILH
 70
     0
  9
$DIMSCALE
 40
1.0
  9
$DIMASZ
 40
0.18
  9
$DIMEXO
 40
0.0625
  9
$DIMDLI
 40
0.38
  9
$DIMRND
 40
0.0
  9
$DIMDLE
 40
0.0
  9
$DIMEXE
 40
0.18
  9
$DIMTP
 40
0.0
  9
$DIMTM
 40
0.0
  9
$DIMTXT
 40
0.18
  9
$DIMCEN
 40
0.09
  9
$DIMTSZ
 40
0.0
  9
$DIMTOL
 70
     0
  9
$DIMLIM
 70
     0
  9
$DIMTIH
 70
     1
  9
$DIMTOH
 70
     1
  9
$DIMSE1
 70
     0
  9
$DIMSE2
 70
     0
  9
$DIMTAD
 70
     0
  9
$DIMZIN
 70
     0
  9
$DIMBLK
  1

  9
$DIMASO
 70
     1
  9
$DIMSHO
 70
     1
  9
$DIMPOST
  1

  9
$DIMAPOST
  1

  9
$DIMALT
 70
     0
  9
$DIMALTD
 70
     2
  9
$DIMALTF
 40
25.4
  9
$DIMLFAC
 40
1.0
  9
$DIMTOFL
 70
     0
  9
$DIMTVP
 40
0.0
  9
$DIMTIX
 70
     0
  9
$DIMSOXD
 70
     0
  9
$DIMSAH
 70
     0
  9
$DIMBLK1
  1

  9
$DIMBLK2
  1

  9
$DIMSTYLE
  2
Standard
  9
$DIMCLRD
 70
     0
  9
$DIMCLRE
 70
     0
  9
$DIMCLRT
 70
     0
  9
$DIMTFAC
 40
1.0
  9
$DIMGAP
 40
0.09
  9
$DIMJUST
 70
     0
  9
$DIMSD1
 70
     0
  9
$DIMSD2
 70
     0
  9
$DIMTOLJ
 70
     1
  9
$DIMTZIN
 70
     0
  9
$DIMALTZ
 70
     0
  9
$DIMALTTZ
 70
     0
  9
$DIMUPT
 70
     0
  9
$DIMDEC
 70
     4
  9
$DIMTDEC
 70
     4
  9
$DIMALTU
 70
     2
  9
$DIMALTTD
 70
     2
  9
$DIMTXSTY
  7
Standard
  9
$DIMAUNIT
 70
     0
  9
$DIMADEC
 70
     0
  9
$DIMALTRND
 40
0.0
  9
$DIMAZIN
 70
     0
  9
$DIMDSEP
 70
    46
  9
$DIMATFIT
 70
     3
  9
$DIMFRAC
 70
     0
  9
$DIMLDRBLK
  1

  9
$DIMLUNIT
 70
     2
  9
$DIMLWD
 70
    -2
  9
$DIMLWE
 70
    -2
  9
$DIMTMOVE
 70
     0
  9
$DIMFXL
 40
1.0
  9
$DIMFXLON
 70
     0
  9
$DIMJOGANG
 40
0.7853981633974483
  9
$DIMTFILL
 70
     0
  9
$DIMTFILLCLR
 70
     0
  9
$DIMARCSYM
 70
     0
  9
$DIMLTYPE
  6

  9
$DIMLTEX1
  6

  9
$DIMLTEX2
  6

  9
$DIMTXTDIRECTION
 70
     0
  9
$LUNITS
 70
     2
  9
$LUPREC
 70
     4
  9
$SKETCHINC
 40
0.1
  9
$FILLETRAD
 40
0.0
  9
$AUNITS
 70
     0
  9
$AUPREC
 70
     0
  9
$MENU
  1
.
  9
$ELEVATION
 40
0.0
  9
$PELEVATION
 40
0.0
  9
$THICKNESS
 40
0.0
  9
$LIMCHECK
 70
     0
  9
$CHAMFERA
 40
0.0
  9
$CHAMFERB
 40
0.0
  9
$CHAMFERC
 40
0.0
  9
$CHAMFERD
 40
0.0
  9
$SKPOLY
 70
     0
  9
$TDCREATE
 40
2452643.438384271
  9
$TDUCREATE
 40
2452643.063384271
  9
$TDUPDATE
 40
2456738.804525718
  9
$TDUUPDATE
 40
2456738.429525718
  9
$TDINDWG
 40
0.0068927431
  9
$TDUSRTIMER
 40
2456738.428268947
  9
$USRTIMER
 70
     1
  9
$ANGBASE
 50
0.0
  9
$ANGDIR
 70
     0
  9
$PDMODE
 70
     0
  9
$PDSIZE
 40
0.0
  9
$PLINEWID
 40
0.0
  9
$SPLFRAME
 70
     0
  9
$SPLINETYPE
 70
     6
  9
$SPLINESEGS
 70
     8
  9
$HANDSEED
  5
44C
  9
$SURFTAB1
 70
     6
  9
$SURFTAB2
 70
     6
  9
$SURFTYPE
 70
     6
  9
$SURFU
 70
     6
  9
$SURFV
 70
     6
  9
$UCSBASE
  2

  9
$UCSNAME
  2

  9
$UCSORG
 10
0.0
 20
0.0
 30
0.0
  9
$UCSXDIR
 10
1.0
 20
0.0
 30
0.0
  9
$UCSYDIR
 10
0.0
 20
1.0
 30
0.0
  9
$UCSORTHOREF
  2

  9
$UCSORTHOVIEW
 70
     0
  9
$UCSORGTOP
 10
0.0
 20
0.0
 30
0.0
  9
$UCSORGBOTTOM
 10
0.0
 20
0.0
 30
0.0
  9
$UCSORGLEFT
 10
0.0
 20
0.0
 30
0.0
  9
$UCSORGRIGHT
 10
0.0
 20
0.0
 30
0.0
  9
$UCSORGFRONT
 10
0.0
 20
0.0
 30
0.0
  9
$UCSORGBACK
 10
0.0
 20
0.0
 30
0.0
  9
$PUCSBASE
  2

  9
$PUCSNAME
  2

  9
$PUCSORG
 10
0.0
 20
0.0
 30
0.0
  9
$PUCSXDIR
 10
1.0
 20
0.0
 30
0.0
  9
$PUCSYDIR
 10
0.0
 20
1.0
 30
0.0
  9
$PUCSORTHOREF
  2

  9
$PUCSORTHOVIEW
 70
     0
  9
$PUCSORGTOP
 10
0.0
 20
0.0
 30
0.0
  9
$PUCSORGBOTTOM
 10
0.0
 20
0.0
 30
0.0
  9
$PUCSORGLEFT
 10
0.0
 20
0.0
 30
0.0
  9
$PUCSORGRIGHT
 10
0.0
 20
0.0
 30
0.0
  9
$PUCSORGFRONT
 10
0.0
 20
0.0
 30
0.0
  9
$PUCSORGBACK
 10
0.0
 20
0.0
 30
0.0
  9
$USERI1
 70
     0
  9
$USERI2
 70
     0
  9
$USERI3
 70
     0
  9
$USERI4
 70
     0
  9
$USERI5
 70
     0
  9
$USERR1
 40
0.0
  9
$USERR2
 40
0.0
  9
$USERR3
 40
0.0
  9
$USERR4
 40
0.0
  9
$USERR5
 40
0.0
  9
$WORLDVIEW
 70
     1
  9
$SHADEDGE
 70
     3
  9
$SHADEDIF
 70
    70
  9
$TILEMODE
 70
     1
  9
$MAXACTVP
 70
    64
  9
$PINSBASE
 10
0.0
 20
0.0
 30
0.0
  9
$PLIMCHECK
 70
     0
  9
$PEXTMIN
 10
0.0
 20
0.0
 30
0.0
  9
$PEXTMAX
 10
0.0
 20
0.0
 30
0.0
  9
$PLIMMIN
 10
0.0
 20
0.0
  9
$PLIMMAX
 10
0.0
 20
0.0
  9
$UNITMODE
 70
     0
  9
$VISRETAIN
 70
     1
  9
$PLINEGEN
 70
     0
  9
$PSLTSCALE
 70
     1
  9
$TREEDEPTH
 70
  3020
  9
$CMLSTYLE
  2
Standard
  9
$CMLJUST
 70
     0
  9
$CMLSCALE
 40
1.0
  9
$PROXYGRAPHICS
 70
     1
  9
$MEASUREMENT
 70
     0
  9
$CELWEIGHT
370
    -1
  9
$ENDCAPS
280
     0
  9
$JOINSTYLE
280
     0
  9
$LWDISPLAY
290
     0
  9
$INSUNITS
 70
     1
  9
$HYPERLINKBASE
  1

  9
$STYLESHEET
  1

  9
$XEDIT
290
     1
  9
$CEPSNTYPE
380
     0
  9
$PSTYLEMODE
290
     1
  9
$FINGERPRINTGUID
  2
{FDEAD576-A652-11D2-9A35-0060089B3A3F}
  9
$VERSIONGUID
  2
{147C83EB-F58F-4AC2-ADC0-4E51F57DD172}
  9
$EXTNAMES
290
     1
  9
$PSVPSCALE
 40
0.0
  9
$OLESTARTUP
290
     0
  9
$SORTENTS
280
   127
  9
$INDEXCTL
280
     0
  9
$HIDETEXT
280
     1
  9
$XCLIPFRAME
280
     0
  9
$HALOGAP
280
     0
  9
$OBSCOLOR
 70
   257
  9
$OBSLTYPE
280
     0
  9
$INTERSECTIONDISPLAY
280
     0
  9
$INTERSECTIONCOLOR
 70
   257
  9
$DIMASSOC
280
     2
  9
$PROJECTNAME
  1

  9
$CAMERADISPLAY
290
     0
  9
$LENSLENGTH
 40
50.0
  9
$CAMERAHEIGHT
 40
0.0
  9
$STEPSPERSEC
 40
2.0
  9
$STEPSIZE
 40
6.0
  9
$3DDWFPREC
 40
2.0
  9
$PSOLWIDTH
 40
0.25
  9
$PSOLHEIGHT
 40
4.0
  9
$LOFTANG1
 40
1.570796326794897
  9
$LOFTANG2
 40
1.570796326794897
  9
$LOFTMAG1
 40
0.0
  9
$LOFTMAG2
 40
0.0
  9
$LOFTPARAM
 70
     7
  9
$LOFTNORMALS
280
     1
  9
$LATITUDE
 40
37.795
  9
$LONGITUDE
 40
-122.394
  9
$NORTHDIRECTION
 40
0.0
  9
$TIMEZONE
 70
 -8000
  9
$LIGHTGLYPHDISPLAY
280
     1
  9
$TILEMODELIGHTSYNCH
280
     1
  9
$CMATERIAL
347
96
  9
$SOLIDHIST
280
     1
  9
$SHOWHIST
280
     1
  9
$DWFFRAME
280
     2
  9
$DGNFRAME
280
     0
  9
$REALWORLDSCALE
290
     1
  9
$INTERFERECOLOR
 62
     1
  9
$CSHADOW
280
     0
  9
$SHADOWPLANELOCATION
 40
0.0
  0
ENDSEC
  0
SECTION
  2
CLASSES
  0
CLASS
  1
ACDBDICTIONARYWDFLT
  2
AcDbDictionaryWithDefault
  3
ObjectDBX Classes
 90
        0
 91
        5
280
     0
281
     0
  0
CLASS
  1
ACDBPLACEHOLDER
  2
AcDbPlaceHolder
  3
ObjectDBX Classes
 90
        0
 91
        1
280
     0
281
     0
  0
CLASS
  1
LAYOUT
  2
AcDbLayout
  3
ObjectDBX Classes
 90
        0
 91
        1
280
     0
281
     0
  0
CLASS
  1
DICTIONARYVAR
  2
AcDbDictionaryVar
  3
ObjectDBX Classes
 90
        0
 91
        4
280
     0
281
     0
  0
CLASS
  1
TABLESTYLE
  2
AcDbTableStyle
  3
ObjectDBX Classes
 90
     4095
 91
        5
280
     0
281
     0
  0
CLASS
  1
MATERIAL
  2
AcDbMaterial
  3
ObjectDBX Classes
 90
     1153
 91
        5
280
     0
281
     0
  0
CLASS
  1
VISUALSTYLE
  2
AcDbVisualStyle
  3
ObjectDBX Classes
 90
     4095
 91
        5
280
     0
281
     0
  0
CLASS
  1
SCALE
  2
AcDbScale
  3
ObjectDBX Classes
 90
     1153
 91
        5
280
     0
281
     0
  0
CLASS
  1
CELLSTYLEMAP
  2
AcDbCellStyleMap
  3
ObjectDBX Classes
 90
     1152
 91
        4
280
     0
281
     0
  0
CLASS
  1
RASTERVARIABLES
  2
AcDbRasterVariables
  3
ISM
 90
        0
 91
        5
280
     0
281
     0
  0
CLASS
  1
SUN
  2
AcDbSun
  3
SCENEOE
 90
     1153
 91
        5
280
     0
281
     0
  0
CLASS
  1
DIMASSOC
  2
AcDbDimAssoc
  3
"AcDbDimAssoc|Product Desc:     AcDim ARX App For Dimension|Company:          Autodesk, Inc.|WEB Address:      www.autodesk.com"
 90
        0
 91
        4
280
     0
281
     0
  0
CLASS
  1
MLEADERSTYLE
  2
AcDbMLeaderStyle
  3
ACDB_MLEADERSTYLE_CLASS
 90
     4095
 91
        4
280
     0
281
     0
  0
CLASS
  1
ACDBSECTIONVIEWSTYLE
  2
AcDbSectionViewStyle
  3
ObjectDBX Classes
 90
     1025
 91
        2
280
     1
281
     0
  0
CLASS
  1
ACDBDETAILVIEWSTYLE
  2
AcDbDetailViewStyle
  3
ObjectDBX Classes
 90
     1025
 91
        2
280
     1
281
     0
  0
ENDSEC
  0
SECTION
  2
TABLES
  0
TABLE
  2
VPORT
  5
8
330
0
100
AcDbSymbolTable
 70
     1
  0
VPORT
  5
94
330
8
100
AcDbSymbolTableRecord
100
AcDbViewportTableRecord
  2
*Active
 70
     0
 10
0.0
 20
0.0
 11
1.0
 21
1.0
 12
242.1842070796647
 22
158.7029951524952
 13
0.0
 23
0.0
 14
0.5
 24
0.5
 15
0.5
 25
0.5
 16
0.0
 26
0.0
 36
1.0
 17
-27.66959356597994
 27
-19.53870295786203
 37
0.0
 40
210.1668186159962
 41
1.762376237623762
 42
50.0
 43
0.0
 44
0.0
 50
0.0
 51
0.0
 71
    16
 72
  1000
 73
     1
 74
     3
 75
     0
 76
     0
 77
     0
 78
     0
281
     0
 65
     1
110
0.0
120
0.0
130
0.0
111
1.0
121
0.0
131
0.0
112
0.0
122
1.0
132
0.0
 79
     0
146
0.0
348
9F
 60
     2
 61
     5
292
     1
282
     1
141
0.0
142
0.0
 63
   250
421
  3355443
361
ED
1001
ACAD_NAV_VCDISPLAY
1070
     3
  0
ENDTAB
  0
TABLE
  2
LTYPE
  5
5
330
0
100
AcDbSymbolTable
 70
     2
  0
LTYPE
  5
14
330
5
100
AcDbSymbolTableRecord
100
AcDbLinetypeTableRecord
  2
ByBlock
 70
     0
  3

 72
    65
 73
     0
 40
0.0
  0
LTYPE
  5
15
330
5
100
AcDbSymbolTableRecord
100
AcDbLinetypeTableRecord
  2
ByLayer
 70
     0
  3

 72
    65
 73
     0
 40
0.0
  0
LTYPE
  5
16
330
5
100
AcDbSymbolTableRecord
100
AcDbLinetypeTableRecord
  2
Continuous
 70
     0
  3
Solid line
 72
    65
 73
     0
 40
0.0
  0
LTYPE
  5
129
330
5
100
AcDbSymbolTableRecord
100
AcDbLinetypeTableRecord
  2
CENTER
 70
     0
  3
Center ____ _ ____ _ ____ _ ____ _ ____ _ ____
 72
    65
 73
     4
 40
50.8
 49
31.75
 74
     0
 49
-6.35
 74
     0
 49
6.35
 74
     0
 49
-6.35
 74
     0
  0
ENDTAB
  0
TABLE
  2
LAYER
  5
2
330
0
100
AcDbSymbolTable
 70
     7
  0
LAYER
  5
10
330
2
100
AcDbSymbolTableRecord
100
AcDbLayerTableRecord
  2
0
 70
     0
 62
     7
  6
Continuous
370
    -3
390
F
347
98
348
0
  0
LAYER
  5
125
330
2
100
AcDbSymbolTableRecord
100
AcDbLayerTableRecord
  2
Defpoints
 70
     0
 62
     7
  6
Continuous
290
     0
370
    -3
390
F
347
98
348
0
  0
LAYER
  5
126
330
2
100
AcDbSymbolTableRecord
100
AcDbLayerTableRecord
  2
文字
 70
     0
 62
     7
  6
Continuous
370
    18
390
F
347
98
348
0
  0
LAYER
  5
128
330
2
100
AcDbSymbolTableRecord
100
AcDbLayerTableRecord
  2
中心線
 70
     0
 62
     7
  6
CENTER
370
    15
390
F
347
98
348
0
  0
LAYER
  5
12A
330
2
100
AcDbSymbolTableRecord
100
AcDbLayerTableRecord
  2
実線
 70
     0
 62
     7
  6
Continuous
370
    25
390
F
347
98
348
0
  0
LAYER
  5
12B
330
2
100
AcDbSymbolTableRecord
100
AcDbLayerTableRecord
  2
細線
 70
     0
 62
     7
  6
Continuous
370
     9
390
F
347
98
348
0
  0
LAYER
  5
12C
330
2
100
AcDbSymbolTableRecord
100
AcDbLayerTableRecord
  2
文字・寸法線
 70
     0
 62
     7
  6
Continuous
370
    13
390
F
347
98
348
0
  0
ENDTAB
  0
TABLE
  2
STYLE
  5
3
330
0
100
AcDbSymbolTable
 70
     1
  0
STYLE
  5
11
330
3
100
AcDbSymbolTableRecord
100
AcDbTextStyleTableRecord
  2
Standard
 70
     0
 40
0.0
 41
1.0
 50
0.0
 71
     0
 42
0.2
  3
arial.ttf
  4

1001
ACAD
1000
Arial
1071
        0
  0
ENDTAB
  0
TABLE
  2
VIEW
  5
6
330
0
100
AcDbSymbolTable
 70
     0
  0
ENDTAB
  0
TABLE
  2
UCS
  5
7
330
0
100
AcDbSymbolTable
 70
     0
  0
ENDTAB
  0
TABLE
  2
APPID
  5
9
330
0
100
AcDbSymbolTable
 70
     4
  0
APPID
  5
12
330
9
100
AcDbSymbolTableRecord
100
AcDbRegAppTableRecord
  2
ACAD
 70
     0
  0
APPID
  5
363
330
9
100
AcDbSymbolTableRecord
100
AcDbRegAppTableRecord
  2
ACAD_EXEMPT_FROM_CAD_STANDARDS
 70
     0
  0
APPID
  5
409
330
9
100
AcDbSymbolTableRecord
100
AcDbRegAppTableRecord
  2
ACAD_NAV_VCDISPLAY
 70
     0
  0
APPID
  5
412
330
9
100
AcDbSymbolTableRecord
100
AcDbRegAppTableRecord
  2
ACAD_MLEADERVER
 70
     0
  0
ENDTAB
  0
TABLE
  2
DIMSTYLE
  5
A
330
0
100
AcDbSymbolTable
 70
     2
100
AcDbDimStyleTable
  0
DIMSTYLE
105
27
330
A
100
AcDbSymbolTableRecord
100
AcDbDimStyleTableRecord
  2
Standard
 70
     0
178
     0
340
11
  0
DIMSTYLE
105
12D
102
{ACAD_REACTORS
330
253
330
25C
330
25D
330
260
330
278
330
279
330
27B
330
2B4
330
2B5
330
2BE
102
}
330
A
100
AcDbSymbolTableRecord
100
AcDbDimStyleTableRecord
  2
ISO-25
 70
     0
 41
2.5
 42
0.625
 43
3.75
 44
1.25
 73
     0
 74
     0
 77
     1
 78
     8
140
3.0
141
2.5
143
0.03937007874016
147
0.625
171
     3
172
     1
178
     0
271
     2
272
     2
274
     3
283
     0
284
     8
340
11
  0
ENDTAB
  0
TABLE
  2
BLOCK_RECORD
  5
1
330
0
100
AcDbSymbolTable
 70
    18
  0
BLOCK_RECORD
  5
1F
330
1
100
AcDbSymbolTableRecord
100
AcDbBlockTableRecord
  2
*Model_Space
340
22
 70
     0
280
     1
281
     0
  0
BLOCK_RECORD
  5
58
330
1
100
AcDbSymbolTableRecord
100
AcDbBlockTableRecord
  2
*Paper_Space
340
59
 70
     0
280
     1
281
     0
  0
BLOCK_RECORD
  5
5D
330
1
100
AcDbSymbolTableRecord
100
AcDbBlockTableRecord
  2
*Paper_Space0
340
5E
 70
     0
280
     1
281
     0
  0
BLOCK_RECORD
  5
189
330
1
100
AcDbSymbolTableRecord
100
AcDbBlockTableRecord
  2
_DotSmall
340
0
102
{BLKREFS
331
2F8
102
}
 70
     0
280
     1
281
     0
  0
BLOCK_RECORD
  5
2CD
330
1
100
AcDbSymbolTableRecord
100
AcDbBlockTableRecord
  2
*D2
340
0
 70
     0
280
     1
281
     0
  0
BLOCK_RECORD
  5
2D9
330
1
100
AcDbSymbolTableRecord
100
AcDbBlockTableRecord
  2
*D3
340
0
 70
     0
280
     1
281
     0
  0
BLOCK_RECORD
  5
2E5
330
1
100
AcDbSymbolTableRecord
100
AcDbBlockTableRecord
  2
*D4
340
0
 70
     0
280
     1
281
     0
  0
BLOCK_RECORD
  5
2F1
330
1
100
AcDbSymbolTableRecord
100
AcDbBlockTableRecord
  2
*D5
340
0
 70
     0
280
     1
281
     0
  0
BLOCK_RECORD
  5
2FE
330
1
100
AcDbSymbolTableRecord
100
AcDbBlockTableRecord
  2
*D6
340
0
 70
     0
280
     1
281
     0
  0
BLOCK_RECORD
  5
30A
330
1
100
AcDbSymbolTableRecord
100
AcDbBlockTableRecord
  2
*D7
340
0
 70
     0
280
     1
281
     0
  0
BLOCK_RECORD
  5
316
330
1
100
AcDbSymbolTableRecord
100
AcDbBlockTableRecord
  2
*D8
340
0
 70
     0
280
     1
281
     0
  0
BLOCK_RECORD
  5
322
330
1
100
AcDbSymbolTableRecord
100
AcDbBlockTableRecord
  2
*D9
340
0
 70
     0
280
     1
281
     0
  0
BLOCK_RECORD
  5
32E
330
1
100
AcDbSymbolTableRecord
100
AcDbBlockTableRecord
  2
*D10
340
0
 70
     0
280
     1
281
     0
  0
BLOCK_RECORD
  5
33A
330
1
100
AcDbSymbolTableRecord
100
AcDbBlockTableRecord
  2
*D11
340
0
 70
     0
280
     1
281
     0
  0
BLOCK_RECORD
  5
346
330
1
100
AcDbSymbolTableRecord
100
AcDbBlockTableRecord
  2
*D12
340
0
 70
     0
280
     1
281
     0
  0
BLOCK_RECORD
  5
36E
330
1
100
AcDbSymbolTableRecord
100
AcDbBlockTableRecord
  2
*D13
340
0
 70
     0
280
     1
281
     0
  0
BLOCK_RECORD
  5
388
330
1
100
AcDbSymbolTableRecord
100
AcDbBlockTableRecord
  2
*D14
340
0
 70
     0
280
     1
281
     0
  0
BLOCK_RECORD
  5
3A2
330
1
100
AcDbSymbolTableRecord
100
AcDbBlockTableRecord
  2
*D15
340
0
 70
     0
280
     1
281
     0
  0
BLOCK_RECORD
  5
3D6
330
1
100
AcDbSymbolTableRecord
100
AcDbBlockTableRecord
  2
*D16
340
0
 70
     0
280
     1
281
     0
  0
BLOCK_RECORD
  5
3F0
330
1
100
AcDbSymbolTableRecord
100
AcDbBlockTableRecord
  2
*D17
340
0
 70
     0
280
     1
281
     0
  0
ENDTAB
  0
ENDSEC
  0
SECTION
  2
BLOCKS
  0
BLOCK
  5
20
330
1F
100
AcDbEntity
  8
0
100
AcDbBlockBegin
  2
*Model_Space
 70
     0
 10
0.0
 20
0.0
 30
0.0
  3
*Model_Space
  1
*Model_Space
  0
ENDBLK
  5
21
330
1F
100
AcDbEntity
  8
0
100
AcDbBlockEnd
  0
BLOCK
  5
5A
330
58
100
AcDbEntity
 67
     1
  8
0
100
AcDbBlockBegin
  2
*Paper_Space
 70
     0
 10
0.0
 20
0.0
 30
0.0
  3
*Paper_Space
  1
*Paper_Space
  0
ENDBLK
  5
5B
330
58
100
AcDbEntity
 67
     1
  8
0
100
AcDbBlockEnd
  0
BLOCK
  5
5F
330
5D
100
AcDbEntity
  8
0
100
AcDbBlockBegin
  2
*Paper_Space0
 70
     0
 10
0.0
 20
0.0
 30
0.0
  3
*Paper_Space0
  1
*Paper_Space0
  0
ENDBLK
  5
60
330
5D
100
AcDbEntity
  8
0
100
AcDbBlockEnd
  0
BLOCK
  5
18A
330
189
100
AcDbEntity
  8
0
 62
     0
100
AcDbBlockBegin
  2
_DotSmall
 70
     0
 10
0.0
 20
0.0
 30
0.0
  3
_DotSmall
  1
_DotSmall
  0
LWPOLYLINE
  5
18B
330
189
100
AcDbEntity
  8
0
  6
ByBlock
 62
     0
100
AcDbPolyline
 90
        2
 70
     1
 43
0.5
 10
-0.0625
 20
0.0
 42
1.0
 10
0.0625
 20
0.0
 42
1.0
  0
ENDBLK
  5
18C
330
189
100
AcDbEntity
  8
0
 62
     0
100
AcDbBlockEnd
  0
BLOCK
  5
2CE
330
2CD
100
AcDbEntity
  8
0
100
AcDbBlockBegin
  2
*D2
 70
     1
 10
0.0
 20
0.0
 30
0.0
  3
*D2
  1
*D14
  0
LINE
  5
2D0
330
2CD
100
AcDbEntity
  8
文字・寸法線
 62
     0
370
    -2
100
AcDbLine
 10
54.26583923360796
 20
74.93922833534721
 30
0.0
 11
54.26583923360795
 21
37.06877044143795
 31
0.0
  0
LINE
  5
2D1
330
2CD
100
AcDbEntity
  8
文字・寸法線
 62
     0
370
    -2
100
AcDbLine
 10
194.2658392336079
 20
74.93922833534721
 30
0.0
 11
194.2658392336079
 21
37.06877044143795
 31
0.0
  0
LINE
  5
2D2
330
2CD
100
AcDbEntity
  8
文字・寸法線
 62
     0
370
    -2
100
AcDbLine
 10
56.76583923360795
 20
38.31877044143795
 30
0.0
 11
191.7658392336079
 21
38.31877044143795
 31
0.0
  0
SOLID
  5
2D3
330
2CD
100
AcDbEntity
  8
文字・寸法線
 62
     0
100
AcDbTrace
 10
56.76583923360795
 20
38.73543710810461
 30
0.0
 11
56.76583923360795
 21
37.90210377477128
 31
0.0
 12
54.26583923360795
 22
38.31877044143795
 32
0.0
 13
54.26583923360795
 23
38.31877044143795
 33
0.0
  0
SOLID
  5
2D4
330
2CD
100
AcDbEntity
  8
文字・寸法線
 62
     0
100
AcDbTrace
 10
191.7658392336079
 20
37.90210377477128
 30
0.0
 11
191.7658392336079
 21
38.73543710810461
 31
0.0
 12
194.2658392336079
 22
38.31877044143795
 32
0.0
 13
194.2658392336079
 23
38.31877044143795
 33
0.0
  0
MTEXT
  5
2D5
330
2CD
100
AcDbEntity
  8
文字・寸法線
 62
     0
100
AcDbMText
 10
125.747480660038
 20
40.52927044143795
 30
0.0
 40
3.0
 41
0.0
 46
0.0
 71
     5
 72
     1
  1
%%c140
 73
     1
 44
1.0
  0
POINT
  5
2D6
330
2CD
100
AcDbEntity
  8
Defpoints
 62
     0
100
AcDbPoint
 10
54.26583923360796
 20
75.56422833534721
 30
0.0
  0
POINT
  5
2D7
330
2CD
100
AcDbEntity
  8
Defpoints
 62
     0
100
AcDbPoint
 10
194.2658392336079
 20
75.56422833534721
 30
0.0
  0
POINT
  5
2D8
330
2CD
100
AcDbEntity
  8
Defpoints
 62
     0
100
AcDbPoint
 10
194.2658392336079
 20
38.31877044143795
 30
0.0
  0
ENDBLK
  5
2CF
330
2CD
100
AcDbEntity
  8
0
100
AcDbBlockEnd
  0
BLOCK
  5
2DA
330
2D9
100
AcDbEntity
  8
0
100
AcDbBlockBegin
  2
*D3
 70
     1
 10
0.0
 20
0.0
 30
0.0
  3
*D3
  1
*D15
  0
LINE
  5
2DC
330
2D9
100
AcDbEntity
  8
文字・寸法線
 62
     0
440
 16777216
370
    -2
100
AcDbLine
 10
133.8531674818124
 20
102.0642283353472
 30
0.0
 11
209.1099507449389
 21
102.0642283353472
 31
0.0
  0
LINE
  5
2DD
330
2D9
100
AcDbEntity
  8
文字・寸法線
 62
     0
440
 16777216
370
    -2
100
AcDbLine
 10
194.8908392336079
 20
75.56422833534721
 30
0.0
 11
209.1099507449389
 21
75.56422833534721
 31
0.0
  0
LINE
  5
2DE
330
2D9
100
AcDbEntity
  8
文字・寸法線
 62
     0
440
 16777216
370
    -2
100
AcDbLine
 10
207.8599507449389
 20
99.5642283353472
 30
0.0
 11
207.8599507449389
 21
78.06422833534721
 31
0.0
  0
SOLID
  5
2DF
330
2D9
100
AcDbEntity
  8
文字・寸法線
 62
     0
440
 16777216
100
AcDbTrace
 10
208.2766174116056
 20
99.5642283353472
 30
0.0
 11
207.4432840782723
 21
99.5642283353472
 31
0.0
 12
207.8599507449389
 22
102.0642283353472
 32
0.0
 13
207.8599507449389
 23
102.0642283353472
 33
0.0
  0
SOLID
  5
2E0
330
2D9
100
AcDbEntity
  8
文字・寸法線
 62
     0
440
 16777216
100
AcDbTrace
 10
207.4432840782723
 20
78.06422833534721
 30
0.0
 11
208.2766174116056
 21
78.06422833534721
 31
0.0
 12
207.8599507449389
 22
75.56422833534721
 32
0.0
 13
207.8599507449389
 23
75.56422833534721
 33
0.0
  0
MTEXT
  5
2E1
330
2D9
100
AcDbEntity
  8
文字・寸法線
 62
     0
440
 16777216
100
AcDbMText
 10
205.704254974134
 20
88.8142283353472
 30
0.0
 40
3.0
 41
0.0
 46
0.0
 71
     5
 72
     1
  1
26.5
 11
0.0
 21
1.0
 31
0.0
 73
     1
 44
1.0
  0
POINT
  5
2E2
330
2D9
100
AcDbEntity
  8
Defpoints
 62
     0
440
 16777216
100
AcDbPoint
 10
133.2281674818124
 20
102.0642283353472
 30
0.0
  0
POINT
  5
2E3
330
2D9
100
AcDbEntity
  8
Defpoints
 62
     0
440
 16777216
100
AcDbPoint
 10
194.2658392336079
 20
75.56422833534721
 30
0.0
  0
POINT
  5
2E4
330
2D9
100
AcDbEntity
  8
Defpoints
 62
     0
440
 16777216
100
AcDbPoint
 10
207.8599507449389
 20
75.56422833534721
 30
0.0
  0
ENDBLK
  5
2DB
330
2D9
100
AcDbEntity
  8
0
100
AcDbBlockEnd
  0
BLOCK
  5
2E6
330
2E5
100
AcDbEntity
  8
0
100
AcDbBlockBegin
  2
*D4
 70
     1
 10
0.0
 20
0.0
 30
0.0
  3
*D4
  1
*D16
  0
LINE
  5
2E8
330
2E5
100
AcDbEntity
  8
文字・寸法線
 62
     0
370
    -2
100
AcDbLine
 10
59.26583923360796
 20
73.43922833534721
 30
0.0
 11
59.26583923360795
 21
54.3290505636939
 31
0.0
  0
LINE
  5
2E9
330
2E5
100
AcDbEntity
  8
文字・寸法線
 62
     0
370
    -2
100
AcDbLine
 10
189.2658392336079
 20
73.43922833534721
 30
0.0
 11
189.2658392336079
 21
54.3290505636939
 31
0.0
  0
LINE
  5
2EA
330
2E5
100
AcDbEntity
  8
文字・寸法線
 62
     0
370
    -2
100
AcDbLine
 10
61.76583923360795
 20
55.5790505636939
 30
0.0
 11
186.7658392336079
 21
55.5790505636939
 31
0.0
  0
SOLID
  5
2EB
330
2E5
100
AcDbEntity
  8
文字・寸法線
 62
     0
100
AcDbTrace
 10
61.76583923360795
 20
55.99571723036056
 30
0.0
 11
61.76583923360795
 21
55.16238389702723
 31
0.0
 12
59.26583923360795
 22
55.5790505636939
 32
0.0
 13
59.26583923360795
 23
55.5790505636939
 33
0.0
  0
SOLID
  5
2EC
330
2E5
100
AcDbEntity
  8
文字・寸法線
 62
     0
100
AcDbTrace
 10
186.7658392336079
 20
55.16238389702723
 30
0.0
 11
186.7658392336079
 21
55.99571723036056
 31
0.0
 12
189.2658392336079
 22
55.5790505636939
 32
0.0
 13
189.2658392336079
 23
55.5790505636939
 33
0.0
  0
MTEXT
  5
2ED
330
2E5
100
AcDbEntity
  8
文字・寸法線
 62
     0
100
AcDbMText
 10
124.2658392336079
 20
57.7895505636939
 30
0.0
 40
3.0
 41
0.0
 46
0.0
 71
     5
 72
     1
  1
%%c130
 73
     1
 44
1.0
  0
POINT
  5
2EE
330
2E5
100
AcDbEntity
  8
Defpoints
 62
     0
100
AcDbPoint
 10
59.26583923360796
 20
74.06422833534721
 30
0.0
  0
POINT
  5
2EF
330
2E5
100
AcDbEntity
  8
Defpoints
 62
     0
100
AcDbPoint
 10
189.2658392336079
 20
74.06422833534721
 30
0.0
  0
POINT
  5
2F0
330
2E5
100
AcDbEntity
  8
Defpoints
 62
     0
100
AcDbPoint
 10
189.2658392336079
 20
55.5790505636939
 30
0.0
  0
ENDBLK
  5
2E7
330
2E5
100
AcDbEntity
  8
0
100
AcDbBlockEnd
  0
BLOCK
  5
2F2
330
2F1
100
AcDbEntity
  8
0
100
AcDbBlockBegin
  2
*D5
 70
     1
 10
0.0
 20
0.0
 30
0.0
  3
*D5
  1
*D17
  0
LINE
  5
2F4
330
2F1
100
AcDbEntity
  8
文字・寸法線
 62
     0
440
 16777216
370
    -2
100
AcDbLine
 10
194.8908392336079
 20
75.56422833534721
 30
0.0
 11
209.1099507449391
 21
75.56422833534721
 31
0.0
  0
LINE
  5
2F5
330
2F1
100
AcDbEntity
  8
文字・寸法線
 62
     0
440
 16777216
370
    -2
100
AcDbLine
 10
189.8908392336079
 20
74.06422833534721
 30
0.0
 11
209.1099507449391
 21
74.06422833534721
 31
0.0
  0
LINE
  5
2F6
330
2F1
100
AcDbEntity
  8
文字・寸法線
 62
     0
440
 16777216
370
    -2
100
AcDbLine
 10
207.8599507449391
 20
75.56422833534721
 30
0.0
 11
207.8599507449391
 21
74.06422833534721
 31
0.0
  0
LINE
  5
2F7
330
2F1
100
AcDbEntity
  8
文字・寸法線
 62
     0
440
 16777216
370
    -2
100
AcDbLine
 10
207.8599507449391
 20
71.56422833534721
 30
0.0
 11
207.8599507449391
 21
69.06422833534721
 31
0.0
  0
INSERT
  5
2F8
330
2F1
100
AcDbEntity
  8
文字・寸法線
 62
     0
440
 16777216
370
    -2
100
AcDbBlockReference
  2
_DotSmall
 10
207.8599507449391
 20
75.56422833534721
 30
0.0
 41
2.5
 42
2.5
 43
2.5
 50
270.0
  0
SOLID
  5
2F9
330
2F1
100
AcDbEntity
  8
文字・寸法線
 62
     0
440
 16777216
100
AcDbTrace
 10
208.2766174116057
 20
71.56422833534721
 30
0.0
 11
207.4432840782724
 21
71.56422833534721
 31
0.0
 12
207.8599507449391
 22
74.06422833534721
 32
0.0
 13
207.8599507449391
 23
74.06422833534721
 33
0.0
  0
MTEXT
  5
2FA
330
2F1
100
AcDbEntity
  8
文字・寸法線
 62
     0
440
 16777216
100
AcDbMText
 10
206.0582029916087
 20
69.3619885934732
 30
0.0
 40
3.0
 41
0.0
 46
0.0
 71
     5
 72
     1
  1
1.5
 11
0.0
 21
1.0
 31
0.0
 73
     1
 44
1.0
  0
POINT
  5
2FB
330
2F1
100
AcDbEntity
  8
Defpoints
 62
     0
440
 16777216
100
AcDbPoint
 10
194.2658392336079
 20
75.56422833534721
 30
0.0
  0
POINT
  5
2FC
330
2F1
100
AcDbEntity
  8
Defpoints
 62
     0
440
 16777216
100
AcDbPoint
 10
189.2658392336079
 20
74.06422833534721
 30
0.0
  0
POINT
  5
2FD
330
2F1
100
AcDbEntity
  8
Defpoints
 62
     0
440
 16777216
100
AcDbPoint
 10
207.8599507449391
 20
74.06422833534721
 30
0.0
  0
ENDBLK
  5
2F3
330
2F1
100
AcDbEntity
  8
0
100
AcDbBlockEnd
  0
BLOCK
  5
2FF
330
2FE
100
AcDbEntity
  8
0
100
AcDbBlockBegin
  2
*D6
 70
     1
 10
0.0
 20
0.0
 30
0.0
  3
*D6
  1
*D18
  0
LINE
  5
301
330
2FE
100
AcDbEntity
  8
文字・寸法線
 62
     0
440
 16777216
370
    -2
100
AcDbLine
 10
118.2630805393629
 20
184.689210787703
 30
0.0
 11
118.2630805393629
 21
197.6103470626867
 31
0.0
  0
LINE
  5
302
330
2FE
100
AcDbEntity
  8
文字・寸法線
 62
     0
440
 16777216
370
    -2
100
AcDbLine
 10
130.2630805393629
 20
184.689210787703
 30
0.0
 11
130.2630805393629
 21
197.6103470626867
 31
0.0
  0
LINE
  5
303
330
2FE
100
AcDbEntity
  8
文字・寸法線
 62
     0
440
 16777216
370
    -2
100
AcDbLine
 10
120.7630805393629
 20
196.3603470626867
 30
0.0
 11
127.7630805393629
 21
196.3603470626867
 31
0.0
  0
SOLID
  5
304
330
2FE
100
AcDbEntity
  8
文字・寸法線
 62
     0
440
 16777216
100
AcDbTrace
 10
120.7630805393629
 20
196.7770137293533
 30
0.0
 11
120.7630805393629
 21
195.94368039602
 31
0.0
 12
118.2630805393629
 22
196.3603470626867
 32
0.0
 13
118.2630805393629
 23
196.3603470626867
 33
0.0
  0
SOLID
  5
305
330
2FE
100
AcDbEntity
  8
文字・寸法線
 62
     0
440
 16777216
100
AcDbTrace
 10
127.7630805393629
 20
195.94368039602
 30
0.0
 11
127.7630805393629
 21
196.7770137293533
 31
0.0
 12
130.2630805393629
 22
196.3603470626867
 32
0.0
 13
130.2630805393629
 23
196.3603470626867
 33
0.0
  0
MTEXT
  5
306
330
2FE
100
AcDbEntity
  8
文字・寸法線
 62
     0
440
 16777216
100
AcDbMText
 10
124.2630805393629
 20
198.4914862168477
 30
0.0
 40
3.0
 41
0.0
 46
0.0
 71
     5
 72
     1
  1
M12
 73
     1
 44
1.0
  0
POINT
  5
307
330
2FE
100
AcDbEntity
  8
Defpoints
 62
     0
440
 16777216
100
AcDbPoint
 10
118.2630805393629
 20
184.064210787703
 30
0.0
  0
POINT
  5
308
330
2FE
100
AcDbEntity
  8
Defpoints
 62
     0
440
 16777216
100
AcDbPoint
 10
130.2630805393629
 20
184.064210787703
 30
0.0
  0
POINT
  5
309
330
2FE
100
AcDbEntity
  8
Defpoints
 62
     0
440
 16777216
100
AcDbPoint
 10
130.2630805393629
 20
196.3603470626867
 30
0.0
  0
ENDBLK
  5
300
330
2FE
100
AcDbEntity
  8
0
100
AcDbBlockEnd
  0
BLOCK
  5
30B
330
30A
100
AcDbEntity
  8
0
100
AcDbBlockBegin
  2
*D7
 70
     1
 10
0.0
 20
0.0
 30
0.0
  3
*D7
  1
*D19
  0
LINE
  5
30D
330
30A
100
AcDbEntity
  8
文字・寸法線
 62
     0
440
 16777216
370
    -2
100
AcDbLine
 10
135.8380805393631
 20
110.0642297812309
 30
0.0
 11
209.1099507449391
 21
110.0642297812309
 31
0.0
  0
LINE
  5
30E
330
30A
100
AcDbEntity
  8
文字・寸法線
 62
     0
440
 16777216
370
    -2
100
AcDbLine
 10
129.8880805393629
 20
185.064210787703
 30
0.0
 11
209.1099507449391
 21
185.064210787703
 31
0.0
  0
LINE
  5
30F
330
30A
100
AcDbEntity
  8
文字・寸法線
 62
     0
440
 16777216
370
    -2
100
AcDbLine
 10
207.8599507449391
 20
112.5642297812309
 30
0.0
 11
207.8599507449391
 21
182.564210787703
 31
0.0
  0
SOLID
  5
310
330
30A
100
AcDbEntity
  8
文字・寸法線
 62
     0
440
 16777216
100
AcDbTrace
 10
207.4432840782724
 20
112.5642297812309
 30
0.0
 11
208.2766174116057
 21
112.5642297812309
 31
0.0
 12
207.8599507449391
 22
110.0642297812309
 32
0.0
 13
207.8599507449391
 23
110.0642297812309
 33
0.0
  0
SOLID
  5
311
330
30A
100
AcDbEntity
  8
文字・寸法線
 62
     0
440
 16777216
100
AcDbTrace
 10
208.2766174116057
 20
182.564210787703
 30
0.0
 11
207.4432840782724
 21
182.564210787703
 31
0.0
 12
207.8599507449391
 22
185.064210787703
 32
0.0
 13
207.8599507449391
 23
185.064210787703
 33
0.0
  0
MTEXT
  5
312
330
30A
100
AcDbEntity
  8
文字・寸法線
 62
     0
440
 16777216
100
AcDbMText
 10
205.7103941282951
 20
147.564220284467
 30
0.0
 40
3.0
 41
0.0
 46
0.0
 71
     5
 72
     1
  1
75
 11
0.0
 21
1.0
 31
0.0
 73
     1
 44
1.0
  0
POINT
  5
313
330
30A
100
AcDbEntity
  8
Defpoints
 62
     0
440
 16777216
100
AcDbPoint
 10
135.2130805393631
 20
110.0642297812309
 30
0.0
  0
POINT
  5
314
330
30A
100
AcDbEntity
  8
Defpoints
 62
     0
440
 16777216
100
AcDbPoint
 10
129.2630805393629
 20
185.064210787703
 30
0.0
  0
POINT
  5
315
330
30A
100
AcDbEntity
  8
Defpoints
 62
     0
440
 16777216
100
AcDbPoint
 10
207.8599507449391
 20
185.064210787703
 30
0.0
  0
ENDBLK
  5
30C
330
30A
100
AcDbEntity
  8
0
100
AcDbBlockEnd
  0
BLOCK
  5
317
330
316
100
AcDbEntity
  8
0
100
AcDbBlockBegin
  2
*D8
 70
     1
 10
0.0
 20
0.0
 30
0.0
  3
*D8
  1
*D20
  0
LINE
  5
319
330
316
100
AcDbEntity
  8
文字・寸法線
 62
     0
440
 16777216
370
    -2
100
AcDbLine
 10
189.8908392336079
 20
74.06422833534721
 30
0.0
 11
214.8163268470827
 21
74.06422833534721
 31
0.0
  0
LINE
  5
31A
330
316
100
AcDbEntity
  8
文字・寸法線
 62
     0
440
 16777216
370
    -2
100
AcDbLine
 10
129.8880805393629
 20
185.064210787703
 30
0.0
 11
214.8163268470827
 21
185.064210787703
 31
0.0
  0
LINE
  5
31B
330
316
100
AcDbEntity
  8
文字・寸法線
 62
     0
440
 16777216
370
    -2
100
AcDbLine
 10
213.5663268470827
 20
76.56422833534721
 30
0.0
 11
213.5663268470827
 21
182.564210787703
 31
0.0
  0
SOLID
  5
31C
330
316
100
AcDbEntity
  8
文字・寸法線
 62
     0
440
 16777216
100
AcDbTrace
 10
213.149660180416
 20
76.56422833534721
 30
0.0
 11
213.9829935137493
 21
76.56422833534721
 31
0.0
 12
213.5663268470827
 22
74.06422833534721
 32
0.0
 13
213.5663268470827
 23
74.06422833534721
 33
0.0
  0
SOLID
  5
31D
330
316
100
AcDbEntity
  8
文字・寸法線
 62
     0
440
 16777216
100
AcDbTrace
 10
213.9829935137493
 20
182.564210787703
 30
0.0
 11
213.149660180416
 21
182.564210787703
 31
0.0
 12
213.5663268470827
 22
185.064210787703
 32
0.0
 13
213.5663268470827
 23
185.064210787703
 33
0.0
  0
MTEXT
  5
31E
330
316
100
AcDbEntity
  8
文字・寸法線
 62
     0
440
 16777216
100
AcDbMText
 10
211.4351876929217
 20
129.5642195615251
 30
0.0
 40
3.0
 41
0.0
 46
0.0
 71
     5
 72
     1
  1
111
 11
0.0
 21
1.0
 31
0.0
 73
     1
 44
1.0
  0
POINT
  5
31F
330
316
100
AcDbEntity
  8
Defpoints
 62
     0
440
 16777216
100
AcDbPoint
 10
189.2658392336079
 20
74.06422833534721
 30
0.0
  0
POINT
  5
320
330
316
100
AcDbEntity
  8
Defpoints
 62
     0
440
 16777216
100
AcDbPoint
 10
129.2630805393629
 20
185.064210787703
 30
0.0
  0
POINT
  5
321
330
316
100
AcDbEntity
  8
Defpoints
 62
     0
440
 16777216
100
AcDbPoint
 10
213.5663268470827
 20
185.064210787703
 30
0.0
  0
ENDBLK
  5
318
330
316
100
AcDbEntity
  8
0
100
AcDbBlockEnd
  0
BLOCK
  5
323
330
322
100
AcDbEntity
  8
0
100
AcDbBlockBegin
  2
*D9
 70
     1
 10
0.0
 20
0.0
 30
0.0
  3
*D9
  1
*D21
  0
LINE
  5
325
330
322
100
AcDbEntity
  8
文字・寸法線
 62
     0
440
 16777216
370
    -2
100
AcDbLine
 10
135.8380805393631
 20
110.0642297812309
 30
0.0
 11
209.1099507449391
 21
110.0642297812309
 31
0.0
  0
LINE
  5
326
330
322
100
AcDbEntity
  8
文字・寸法線
 62
     0
440
 16777216
370
    -2
100
AcDbLine
 10
132.6651244724764
 20
102.0642283353472
 30
0.0
 11
209.1099507449391
 21
102.0642283353472
 31
0.0
  0
LINE
  5
327
330
322
100
AcDbEntity
  8
文字・寸法線
 62
     0
440
 16777216
370
    -2
100
AcDbLine
 10
207.8599507449391
 20
107.5642297812309
 30
0.0
 11
207.8599507449391
 21
104.5642283353472
 31
0.0
  0
SOLID
  5
328
330
322
100
AcDbEntity
  8
文字・寸法線
 62
     0
440
 16777216
100
AcDbTrace
 10
208.2766174116057
 20
107.5642297812309
 30
0.0
 11
207.4432840782724
 21
107.5642297812309
 31
0.0
 12
207.8599507449391
 22
110.0642297812309
 32
0.0
 13
207.8599507449391
 23
110.0642297812309
 33
0.0
  0
SOLID
  5
329
330
322
100
AcDbEntity
  8
文字・寸法線
 62
     0
440
 16777216
100
AcDbTrace
 10
207.4432840782724
 20
104.5642283353472
 30
0.0
 11
208.2766174116057
 21
104.5642283353472
 31
0.0
 12
207.8599507449391
 22
102.0642283353472
 32
0.0
 13
207.8599507449391
 23
102.0642283353472
 33
0.0
  0
MTEXT
  5
32A
330
322
100
AcDbEntity
  8
文字・寸法線
 62
     0
440
 16777216
100
AcDbMText
 10
205.7042549741341
 20
106.0642290582891
 30
0.0
 40
3.0
 41
0.0
 46
0.0
 71
     5
 72
     1
  1
8
 11
0.0
 21
1.0
 31
0.0
 73
     1
 44
1.0
  0
POINT
  5
32B
330
322
100
AcDbEntity
  8
Defpoints
 62
     0
440
 16777216
100
AcDbPoint
 10
135.2130805393631
 20
110.0642297812309
 30
0.0
  0
POINT
  5
32C
330
322
100
AcDbEntity
  8
Defpoints
 62
     0
440
 16777216
100
AcDbPoint
 10
132.0401244724764
 20
102.0642283353472
 30
0.0
  0
POINT
  5
32D
330
322
100
AcDbEntity
  8
Defpoints
 62
     0
440
 16777216
100
AcDbPoint
 10
207.8599507449391
 20
102.0642283353472
 30
0.0
  0
ENDBLK
  5
324
330
322
100
AcDbEntity
  8
0
100
AcDbBlockEnd
  0
BLOCK
  5
32F
330
32E
100
AcDbEntity
  8
0
100
AcDbBlockBegin
  2
*D10
 70
     1
 10
0.0
 20
0.0
 30
0.0
  3
*D10
  1
*D22
  0
LINE
  5
331
330
32E
100
AcDbEntity
  8
文字・寸法線
 62
     0
440
 16777216
370
    -2
100
AcDbLine
 10
302.4017656595684
 20
135.7649324702069
 30
0.0
 11
302.4017656595684
 21
57.19250512008826
 31
0.0
  0
LINE
  5
332
330
32E
100
AcDbEntity
  8
文字・寸法線
 62
     0
440
 16777216
370
    -2
100
AcDbLine
 10
321.3677220024476
 20
135.7649324702069
 30
0.0
 11
321.3677220024476
 21
57.19250512008826
 31
0.0
  0
LINE
  5
333
330
32E
100
AcDbEntity
  8
文字・寸法線
 62
     0
440
 16777216
370
    -2
100
AcDbLine
 10
304.9017656595684
 20
58.44250512008826
 30
0.0
 11
318.8677220024476
 21
58.44250512008826
 31
0.0
  0
SOLID
  5
334
330
32E
100
AcDbEntity
  8
文字・寸法線
 62
     0
440
 16777216
100
AcDbTrace
 10
304.9017656595684
 20
58.85917178675491
 30
0.0
 11
304.9017656595684
 21
58.02583845342157
 31
0.0
 12
302.4017656595684
 22
58.44250512008826
 32
0.0
 13
302.4017656595684
 23
58.44250512008826
 33
0.0
  0
SOLID
  5
335
330
32E
100
AcDbEntity
  8
文字・寸法線
 62
     0
440
 16777216
100
AcDbTrace
 10
318.8677220024476
 20
58.02583845342157
 30
0.0
 11
318.8677220024476
 21
58.85917178675491
 31
0.0
 12
321.3677220024476
 22
58.44250512008826
 32
0.0
 13
321.3677220024476
 23
58.44250512008826
 33
0.0
  0
MTEXT
  5
336
330
32E
100
AcDbEntity
  8
文字・寸法線
 62
     0
440
 16777216
100
AcDbMText
 10
311.884743831008
 20
60.59820089089315
 30
0.0
 40
3.0
 41
0.0
 46
0.0
 71
     5
 72
     1
  1
19
 73
     1
 44
1.0
  0
POINT
  5
337
330
32E
100
AcDbEntity
  8
Defpoints
 62
     0
440
 16777216
100
AcDbPoint
 10
302.4017656595684
 20
136.3899324702069
 30
0.0
  0
POINT
  5
338
330
32E
100
AcDbEntity
  8
Defpoints
 62
     0
440
 16777216
100
AcDbPoint
 10
321.3677220024476
 20
136.3899324702069
 30
0.0
  0
POINT
  5
339
330
32E
100
AcDbEntity
  8
Defpoints
 62
     0
440
 16777216
100
AcDbPoint
 10
321.3677220024476
 20
58.44250512008826
 30
0.0
  0
ENDBLK
  5
330
330
32E
100
AcDbEntity
  8
0
100
AcDbBlockEnd
  0
BLOCK
  5
33B
330
33A
100
AcDbEntity
  8
0
100
AcDbBlockBegin
  2
*D11
 70
     1
 10
0.0
 20
0.0
 30
0.0
  3
*D11
  1
*D23
  0
LINE
  5
33D
330
33A
100
AcDbEntity
  8
文字・寸法線
 62
     0
370
    -2
100
AcDbLine
 10
274.384743831008
 20
141.2399324702069
 30
0.0
 11
274.384743831008
 21
36.14134189267429
 31
0.0
  0
LINE
  5
33E
330
33A
100
AcDbEntity
  8
文字・寸法線
 62
     0
370
    -2
100
AcDbLine
 10
349.384743831008
 20
141.2399324702069
 30
0.0
 11
349.384743831008
 21
36.14134189267429
 31
0.0
  0
LINE
  5
33F
330
33A
100
AcDbEntity
  8
文字・寸法線
 62
     0
370
    -2
100
AcDbLine
 10
276.884743831008
 20
37.39134189267429
 30
0.0
 11
346.884743831008
 21
37.39134189267429
 31
0.0
  0
SOLID
  5
340
330
33A
100
AcDbEntity
  8
文字・寸法線
 62
     0
100
AcDbTrace
 10
276.884743831008
 20
37.80800855934095
 30
0.0
 11
276.884743831008
 21
36.97467522600763
 31
0.0
 12
274.384743831008
 22
37.39134189267429
 32
0.0
 13
274.384743831008
 23
37.39134189267429
 33
0.0
  0
SOLID
  5
341
330
33A
100
AcDbEntity
  8
文字・寸法線
 62
     0
100
AcDbTrace
 10
346.884743831008
 20
36.97467522600763
 30
0.0
 11
346.884743831008
 21
37.80800855934095
 31
0.0
 12
349.384743831008
 22
37.39134189267429
 32
0.0
 13
349.384743831008
 23
37.39134189267429
 33
0.0
  0
MTEXT
  5
342
330
33A
100
AcDbEntity
  8
文字・寸法線
 62
     0
100
AcDbMText
 10
310.7694761383841
 20
39.59584189267429
 30
0.0
 40
3.0
 41
0.0
 46
0.0
 71
     5
 72
     1
  1
%%c75
 73
     1
 44
1.0
  0
POINT
  5
343
330
33A
100
AcDbEntity
  8
Defpoints
 62
     0
100
AcDbPoint
 10
274.384743831008
 20
141.8649324702069
 30
0.0
  0
POINT
  5
344
330
33A
100
AcDbEntity
  8
Defpoints
 62
     0
100
AcDbPoint
 10
349.384743831008
 20
141.8649324702069
 30
0.0
  0
POINT
  5
345
330
33A
100
AcDbEntity
  8
Defpoints
 62
     0
100
AcDbPoint
 10
349.384743831008
 20
37.39134189267429
 30
0.0
  0
ENDBLK
  5
33C
330
33A
100
AcDbEntity
  8
0
100
AcDbBlockEnd
  0
BLOCK
  5
347
330
346
100
AcDbEntity
  8
0
100
AcDbBlockBegin
  2
*D12
 70
     1
 10
0.0
 20
0.0
 30
0.0
  3
*D12
  1
*D24
  0
LINE
  5
349
330
346
100
AcDbEntity
  8
文字・寸法線
 62
     0
440
 16777216
370
    -2
100
AcDbLine
 10
58.64083923360796
 20
82.06422833534721
 30
0.0
 11
41.61606228704808
 21
82.06422833534721
 31
0.0
  0
LINE
  5
34A
330
346
100
AcDbEntity
  8
文字・寸法線
 62
     0
440
 16777216
370
    -2
100
AcDbLine
 10
53.64083923360796
 20
75.56422833534721
 30
0.0
 11
41.61606228704808
 21
75.56422833534721
 31
0.0
  0
LINE
  5
34B
330
346
100
AcDbEntity
  8
文字・寸法線
 62
     0
440
 16777216
370
    -2
100
AcDbLine
 10
42.86606228704808
 20
79.56422833534721
 30
0.0
 11
42.86606228704808
 21
78.06422833534721
 31
0.0
  0
SOLID
  5
34C
330
346
100
AcDbEntity
  8
文字・寸法線
 62
     0
440
 16777216
100
AcDbTrace
 10
43.28272895371475
 20
79.56422833534721
 30
0.0
 11
42.44939562038142
 21
79.56422833534721
 31
0.0
 12
42.86606228704808
 22
82.06422833534721
 32
0.0
 13
42.86606228704808
 23
82.06422833534721
 33
0.0
  0
SOLID
  5
34D
330
346
100
AcDbEntity
  8
文字・寸法線
 62
     0
440
 16777216
100
AcDbTrace
 10
42.44939562038142
 20
78.06422833534721
 30
0.0
 11
43.28272895371475
 21
78.06422833534721
 31
0.0
 12
42.86606228704808
 22
75.56422833534721
 32
0.0
 13
42.86606228704808
 23
75.56422833534721
 33
0.0
  0
MTEXT
  5
34E
330
346
100
AcDbEntity
  8
文字・寸法線
 62
     0
440
 16777216
100
AcDbMText
 10
38.62514679238632
 20
78.79102059489622
 30
0.0
 40
3.0
 41
0.0
 46
0.0
 71
     5
 72
     1
  1
6.5
 11
0.0
 21
1.0
 31
0.0
 73
     1
 44
1.0
  0
POINT
  5
34F
330
346
100
AcDbEntity
  8
Defpoints
 62
     0
440
 16777216
100
AcDbPoint
 10
59.26583923360796
 20
82.06422833534721
 30
0.0
  0
POINT
  5
350
330
346
100
AcDbEntity
  8
Defpoints
 62
     0
440
 16777216
100
AcDbPoint
 10
54.26583923360796
 20
75.56422833534721
 30
0.0
  0
POINT
  5
351
330
346
100
AcDbEntity
  8
Defpoints
 62
     0
440
 16777216
100
AcDbPoint
 10
42.86606228704808
 20
75.56422833534721
 30
0.0
  0
ENDBLK
  5
348
330
346
100
AcDbEntity
  8
0
100
AcDbBlockEnd
  0
BLOCK
  5
36F
330
36E
100
AcDbEntity
  8
0
100
AcDbBlockBegin
  2
*D13
 70
     1
 10
0.0
 20
0.0
 30
0.0
  3
*D13
  1
*D25
  0
LINE
  5
37C
330
36E
100
AcDbEntity
  8
0
 62
     0
440
 16777216
370
    -2
100
AcDbLine
 10
124.3283392336081
 20
185.064210787703
 30
0.0
 11
196.2692024804308
 21
185.064210787703
 31
0.0
  0
LINE
  5
37D
330
36E
100
AcDbEntity
  8
0
 62
     0
440
 16777216
370
    -2
100
AcDbLine
 10
135.2783392336079
 20
110.0642297812309
 30
0.0
 11
196.2692024804308
 21
110.0642297812309
 31
0.0
  0
LINE
  5
37E
330
36E
100
AcDbEntity
  8
0
 62
     0
440
 16777216
370
    -2
100
AcDbLine
 10
196.0892024804308
 20
184.884210787703
 30
0.0
 11
196.0892024804308
 21
147.7461234222568
 31
0.0
  0
LINE
  5
37F
330
36E
100
AcDbEntity
  8
0
 62
     0
440
 16777216
370
    -2
100
AcDbLine
 10
196.0892024804308
 20
110.2442297812309
 30
0.0
 11
196.0892024804308
 21
147.382317146677
 31
0.0
  0
SOLID
  5
380
330
36E
100
AcDbEntity
  8
0
 62
     0
440
 16777216
100
AcDbTrace
 10
196.0592024804308
 20
184.884210787703
 30
0.0
 11
196.1192024804308
 21
184.884210787703
 31
0.0
 12
196.0892024804308
 22
185.064210787703
 32
0.0
 13
196.0892024804308
 23
185.064210787703
 33
0.0
  0
SOLID
  5
381
330
36E
100
AcDbEntity
  8
0
 62
     0
440
 16777216
100
AcDbTrace
 10
196.0592024804308
 20
110.2442297812309
 30
0.0
 11
196.1192024804308
 21
110.2442297812309
 31
0.0
 12
196.0892024804308
 22
110.0642297812309
 32
0.0
 13
196.0892024804308
 23
110.0642297812309
 33
0.0
  0
MTEXT
  5
382
330
36E
100
AcDbEntity
  8
0
 62
     0
440
 16777216
100
AcDbMText
 10
196.0892024804307
 20
147.564220284467
 30
0.0
 40
0.18
 41
0.0
 46
0.0
 71
     5
 72
     1
  1
\A1;75.0000
 73
     1
 44
1.0
  0
POINT
  5
383
330
36E
100
AcDbEntity
  8
Defpoints
 62
     0
440
 16777216
100
AcDbPoint
 10
124.2658392336081
 20
185.064210787703
 30
0.0
  0
POINT
  5
384
330
36E
100
AcDbEntity
  8
Defpoints
 62
     0
440
 16777216
100
AcDbPoint
 10
135.2158392336079
 20
110.0642297812309
 30
0.0
  0
POINT
  5
385
330
36E
100
AcDbEntity
  8
Defpoints
 62
     0
440
 16777216
100
AcDbPoint
 10
196.0892024804308
 20
110.0642297812309
 30
0.0
  0
ENDBLK
  5
370
330
36E
100
AcDbEntity
  8
0
100
AcDbBlockEnd
  0
BLOCK
  5
389
330
388
100
AcDbEntity
  8
0
100
AcDbBlockBegin
  2
*D14
 70
     1
 10
0.0
 20
0.0
 30
0.0
  3
*D14
  1
*D26
  0
LINE
  5
396
330
388
100
AcDbEntity
  8
0
 62
     0
440
 16777216
370
    -2
100
AcDbLine
 10
59.26583923360796
 20
74.00172833534721
 30
0.0
 11
59.26583923360796
 21
61.95550536015875
 31
0.0
  0
LINE
  5
397
330
388
100
AcDbEntity
  8
0
 62
     0
440
 16777216
370
    -2
100
AcDbLine
 10
189.2658392336079
 20
74.00172833534721
 30
0.0
 11
189.2658392336079
 21
61.95550536015875
 31
0.0
  0
LINE
  5
398
330
388
100
AcDbEntity
  8
0
 62
     0
440
 16777216
370
    -2
100
AcDbLine
 10
59.44583923360796
 20
62.13550536015875
 30
0.0
 11
123.6711393700336
 21
62.13550536015875
 31
0.0
  0
LINE
  5
399
330
388
100
AcDbEntity
  8
0
 62
     0
440
 16777216
370
    -2
100
AcDbLine
 10
189.0858392336079
 20
62.13550536015875
 30
0.0
 11
124.8605390971823
 21
62.13550536015875
 31
0.0
  0
SOLID
  5
39A
330
388
100
AcDbEntity
  8
0
 62
     0
440
 16777216
100
AcDbTrace
 10
59.44583923360796
 20
62.16550536015875
 30
0.0
 11
59.44583923360796
 21
62.10550536015874
 31
0.0
 12
59.26583923360796
 22
62.13550536015875
 32
0.0
 13
59.26583923360796
 23
62.13550536015875
 33
0.0
  0
SOLID
  5
39B
330
388
100
AcDbEntity
  8
0
 62
     0
440
 16777216
100
AcDbTrace
 10
189.0858392336079
 20
62.16550536015875
 30
0.0
 11
189.0858392336079
 21
62.10550536015874
 31
0.0
 12
189.2658392336079
 22
62.13550536015875
 32
0.0
 13
189.2658392336079
 23
62.13550536015875
 33
0.0
  0
MTEXT
  5
39C
330
388
100
AcDbEntity
  8
0
 62
     0
440
 16777216
100
AcDbMText
 10
124.2658392336079
 20
62.13550536015875
 30
0.0
 40
0.18
 41
0.0
 46
0.0
 71
     5
 72
     1
  1
\A1;130.0000
 73
     1
 44
1.0
  0
POINT
  5
39D
330
388
100
AcDbEntity
  8
Defpoints
 62
     0
440
 16777216
100
AcDbPoint
 10
59.26583923360796
 20
74.06422833534721
 30
0.0
  0
POINT
  5
39E
330
388
100
AcDbEntity
  8
Defpoints
 62
     0
440
 16777216
100
AcDbPoint
 10
189.2658392336079
 20
74.06422833534721
 30
0.0
  0
POINT
  5
39F
330
388
100
AcDbEntity
  8
Defpoints
 62
     0
440
 16777216
100
AcDbPoint
 10
189.2658392336079
 20
62.13550536015875
 30
0.0
  0
ENDBLK
  5
38A
330
388
100
AcDbEntity
  8
0
100
AcDbBlockEnd
  0
BLOCK
  5
3A3
330
3A2
100
AcDbEntity
  8
0
100
AcDbBlockBegin
  2
*D15
 70
     1
 10
0.0
 20
0.0
 30
0.0
  3
*D15
  1
*D27
  0
LINE
  5
3B0
330
3A2
100
AcDbEntity
  8
0
 62
     0
440
 16777216
370
    -2
100
AcDbLine
 10
274.384743831008
 20
141.8024324702069
 30
0.0
 11
274.384743831008
 21
56.56311512794817
 31
0.0
  0
LINE
  5
3B1
330
3A2
100
AcDbEntity
  8
0
 62
     0
440
 16777216
370
    -2
100
AcDbLine
 10
349.384743831008
 20
141.8024324702069
 30
0.0
 11
349.384743831008
 21
56.56311512794817
 31
0.0
  0
LINE
  5
3B2
330
3A2
100
AcDbEntity
  8
0
 62
     0
440
 16777216
370
    -2
100
AcDbLine
 10
274.564743831008
 20
56.74311512794817
 30
0.0
 11
311.3522335990844
 21
56.74311512794817
 31
0.0
  0
LINE
  5
3B3
330
3A2
100
AcDbEntity
  8
0
 62
     0
440
 16777216
370
    -2
100
AcDbLine
 10
349.204743831008
 20
56.74311512794817
 30
0.0
 11
312.4172540629316
 21
56.74311512794817
 31
0.0
  0
SOLID
  5
3B4
330
3A2
100
AcDbEntity
  8
0
 62
     0
440
 16777216
100
AcDbTrace
 10
274.564743831008
 20
56.77311512794817
 30
0.0
 11
274.564743831008
 21
56.71311512794817
 31
0.0
 12
274.384743831008
 22
56.74311512794817
 32
0.0
 13
274.384743831008
 23
56.74311512794817
 33
0.0
  0
SOLID
  5
3B5
330
3A2
100
AcDbEntity
  8
0
 62
     0
440
 16777216
100
AcDbTrace
 10
349.204743831008
 20
56.77311512794817
 30
0.0
 11
349.204743831008
 21
56.71311512794817
 31
0.0
 12
349.384743831008
 22
56.74311512794817
 32
0.0
 13
349.384743831008
 23
56.74311512794817
 33
0.0
  0
MTEXT
  5
3B6
330
3A2
100
AcDbEntity
  8
0
 62
     0
440
 16777216
100
AcDbMText
 10
311.884743831008
 20
56.74311512794817
 30
0.0
 40
0.18
 41
0.0
 46
0.0
 71
     5
 72
     1
  1
\A1;75.0000
 73
     1
 44
1.0
  0
POINT
  5
3B7
330
3A2
100
AcDbEntity
  8
Defpoints
 62
     0
440
 16777216
100
AcDbPoint
 10
274.384743831008
 20
141.8649324702069
 30
0.0
  0
POINT
  5
3B8
330
3A2
100
AcDbEntity
  8
Defpoints
 62
     0
440
 16777216
100
AcDbPoint
 10
349.384743831008
 20
141.8649324702069
 30
0.0
  0
POINT
  5
3B9
330
3A2
100
AcDbEntity
  8
Defpoints
 62
     0
440
 16777216
100
AcDbPoint
 10
349.384743831008
 20
56.74311512794817
 30
0.0
  0
ENDBLK
  5
3A4
330
3A2
100
AcDbEntity
  8
0
100
AcDbBlockEnd
  0
BLOCK
  5
3D7
330
3D6
100
AcDbEntity
  8
0
100
AcDbBlockBegin
  2
*D16
 70
     1
 10
0.0
 20
0.0
 30
0.0
  3
*D16
  1
*D28
  0
LINE
  5
3E4
330
3D6
100
AcDbEntity
  8
0
 62
     0
440
 16777216
370
    -2
100
AcDbLine
 10
302.4017656595684
 20
136.3274324702069
 30
0.0
 11
302.4017656595684
 21
122.3781714869719
 31
0.0
  0
LINE
  5
3E5
330
3D6
100
AcDbEntity
  8
0
 62
     0
440
 16777216
370
    -2
100
AcDbLine
 10
321.3677220024476
 20
136.3274324702069
 30
0.0
 11
321.3677220024476
 21
122.3781714869719
 31
0.0
  0
LINE
  5
3E6
330
3D6
100
AcDbEntity
  8
0
 62
     0
440
 16777216
370
    -2
100
AcDbLine
 10
302.5817656595684
 20
122.5581714869719
 30
0.0
 11
311.3599689333273
 21
122.5581714869719
 31
0.0
  0
LINE
  5
3E7
330
3D6
100
AcDbEntity
  8
0
 62
     0
440
 16777216
370
    -2
100
AcDbLine
 10
321.1877220024476
 20
122.5581714869719
 30
0.0
 11
312.4095187286887
 21
122.5581714869719
 31
0.0
  0
SOLID
  5
3E8
330
3D6
100
AcDbEntity
  8
0
 62
     0
440
 16777216
100
AcDbTrace
 10
302.5817656595684
 20
122.5881714869719
 30
0.0
 11
302.5817656595684
 21
122.5281714869719
 31
0.0
 12
302.4017656595684
 22
122.5581714869719
 32
0.0
 13
302.4017656595684
 23
122.5581714869719
 33
0.0
  0
SOLID
  5
3E9
330
3D6
100
AcDbEntity
  8
0
 62
     0
440
 16777216
100
AcDbTrace
 10
321.1877220024476
 20
122.5881714869719
 30
0.0
 11
321.1877220024476
 21
122.5281714869719
 31
0.0
 12
321.3677220024476
 22
122.5581714869719
 32
0.0
 13
321.3677220024476
 23
122.5581714869719
 33
0.0
  0
MTEXT
  5
3EA
330
3D6
100
AcDbEntity
  8
0
 62
     0
440
 16777216
100
AcDbMText
 10
311.884743831008
 20
122.5581714869719
 30
0.0
 40
0.18
 41
0.0
 46
0.0
 71
     5
 72
     1
  1
\A1;18.9660
 73
     1
 44
1.0
  0
POINT
  5
3EB
330
3D6
100
AcDbEntity
  8
Defpoints
 62
     0
440
 16777216
100
AcDbPoint
 10
302.4017656595684
 20
136.3899324702069
 30
0.0
  0
POINT
  5
3EC
330
3D6
100
AcDbEntity
  8
Defpoints
 62
     0
440
 16777216
100
AcDbPoint
 10
321.3677220024476
 20
136.3899324702069
 30
0.0
  0
POINT
  5
3ED
330
3D6
100
AcDbEntity
  8
Defpoints
 62
     0
440
 16777216
100
AcDbPoint
 10
321.3677220024476
 20
122.5581714869719
 30
0.0
  0
ENDBLK
  5
3D8
330
3D6
100
AcDbEntity
  8
0
100
AcDbBlockEnd
  0
BLOCK
  5
3F1
330
3F0
100
AcDbEntity
  8
0
100
AcDbBlockBegin
  2
*D17
 70
     1
 10
0.0
 20
0.0
 30
0.0
  3
*D17
  1
*D29
  0
LINE
  5
3FE
330
3F0
100
AcDbEntity
  8
0
 62
     0
440
 16777216
370
    -2
100
AcDbLine
 10
129.8033392336079
 20
110.0642297812309
 30
0.0
 11
147.4331601210465
 21
110.0642297812309
 31
0.0
  0
LINE
  5
3FF
330
3F0
100
AcDbEntity
  8
0
 62
     0
440
 16777216
370
    -2
100
AcDbLine
 10
124.3283392336077
 20
102.0642283353472
 30
0.0
 11
147.4331601210465
 21
102.0642283353472
 31
0.0
  0
LINE
  5
400
330
3F0
100
AcDbEntity
  8
0
 62
     0
440
 16777216
370
    -2
100
AcDbLine
 10
147.2531601210465
 20
109.8842297812309
 30
0.0
 11
147.2531601210465
 21
106.2461321960789
 31
0.0
  0
LINE
  5
401
330
3F0
100
AcDbEntity
  8
0
 62
     0
440
 16777216
370
    -2
100
AcDbLine
 10
147.2531601210465
 20
102.2442283353472
 30
0.0
 11
147.2531601210465
 21
105.8823259204991
 31
0.0
  0
SOLID
  5
402
330
3F0
100
AcDbEntity
  8
0
 62
     0
440
 16777216
100
AcDbTrace
 10
147.2231601210465
 20
109.8842297812309
 30
0.0
 11
147.2831601210465
 21
109.8842297812309
 31
0.0
 12
147.2531601210465
 22
110.0642297812309
 32
0.0
 13
147.2531601210465
 23
110.0642297812309
 33
0.0
  0
SOLID
  5
403
330
3F0
100
AcDbEntity
  8
0
 62
     0
440
 16777216
100
AcDbTrace
 10
147.2231601210465
 20
102.2442283353472
 30
0.0
 11
147.2831601210465
 21
102.2442283353472
 31
0.0
 12
147.2531601210465
 22
102.0642283353472
 32
0.0
 13
147.2531601210465
 23
102.0642283353472
 33
0.0
  0
MTEXT
  5
404
330
3F0
100
AcDbEntity
  8
0
 62
     0
440
 16777216
100
AcDbMText
 10
147.2531601210465
 20
106.0642290582891
 30
0.0
 40
0.18
 41
0.0
 46
0.0
 71
     5
 72
     1
  1
\A1;8.0000
 73
     1
 44
1.0
  0
POINT
  5
405
330
3F0
100
AcDbEntity
  8
Defpoints
 62
     0
440
 16777216
100
AcDbPoint
 10
129.7408392336079
 20
110.0642297812309
 30
0.0
  0
POINT
  5
406
330
3F0
100
AcDbEntity
  8
Defpoints
 62
     0
440
 16777216
100
AcDbPoint
 10
124.2658392336077
 20
102.0642283353472
 30
0.0
  0
POINT
  5
407
330
3F0
100
AcDbEntity
  8
Defpoints
 62
     0
440
 16777216
100
AcDbPoint
 10
147.2531601210465
 20
102.0642283353472
 30
0.0
  0
ENDBLK
  5
3F2
330
3F0
100
AcDbEntity
  8
0
100
AcDbBlockEnd
  0
ENDSEC
  0
SECTION
  2
ENTITIES
  0
DIMENSION
  5
253
102
{ACAD_REACTORS
330
255
102
}
102
{ACAD_XDICTIONARY
360
254
102
}
330
1F
100
AcDbEntity
  8
文字・寸法線
 62
     0
100
AcDbDimension
280
     0
  2
*D2
 10
194.2658392336079
 20
38.31877044143795
 30
0.0
 11
125.747480660038
 21
38.31877044143795
 31
0.0
 70
   160
  1
%%c<>
 71
     5
 42
139.9999999999999
 73
     0
 74
     0
 75
     0
  3
ISO-25
100
AcDbAlignedDimension
 13
54.26583923360796
 23
75.56422833534721
 33
0.0
 14
194.2658392336079
 24
75.56422833534721
 34
0.0
100
AcDbRotatedDimension
  0
LINE
  5
256
330
1F
100
AcDbEntity
  8
中心線
100
AcDbLine
 10
156.2658392336079
 20
89.06422833534708
 30
0.0
 11
156.2658392336078
 21
76.67251182818978
 31
0.0
  0
ARC
  5
257
330
1F
100
AcDbEntity
  8
実線
100
AcDbCircle
 10
156.2658392336078
 20
84.06422833534697
 30
0.0
 40
5.0
100
AcDbArc
 50
134.0087699999927
 51
179.9999999999995
  0
LINE
  5
258
330
1F
100
AcDbEntity
  8
実線
100
AcDbLine
 10
152.791996233608
 20
87.66039533534712
 30
0.0
 11
159.7396812336079
 21
87.66039533534712
 31
0.0
  0
ARC
  5
259
330
1F
100
AcDbEntity
  8
実線
100
AcDbCircle
 10
156.2658392336078
 20
84.06422833534697
 30
0.0
 40
5.0
100
AcDbArc
 50
359.9999999999997
 51
45.99123000000588
  0
ARC
  5
25A
330
1F
100
AcDbEntity
  8
実線
100
AcDbCircle
 10
152.416794436269
 20
87.0642283353472
 30
0.0
 40
3.0
100
AcDbArc
 50
200.7588520922576
 51
247.5469150135038
  0
ARC
  5
25B
330
1F
100
AcDbEntity
  8
実線
100
AcDbCircle
 10
96.1148840309469
 20
87.0642283353472
 30
0.0
 40
3.0
100
AcDbArc
 50
292.4530849864937
 51
339.2411479077425
  0
DIMENSION
  5
25C
330
1F
100
AcDbEntity
  8
文字・寸法線
 62
     0
100
AcDbDimension
280
     0
  2
*D3
 10
207.8599507449389
 20
75.56422833534721
 30
0.0
 11
205.704254974134
 21
88.8142283353472
 31
0.0
 70
    32
 71
     5
 42
26.5
 73
     0
 74
     0
 75
     0
  3
ISO-25
100
AcDbAlignedDimension
 13
133.2281674818124
 23
102.0642283353472
 33
0.0
 14
194.2658392336079
 24
75.56422833534721
 34
0.0
 50
90.0
100
AcDbRotatedDimension
  0
DIMENSION
  5
25D
330
1F
100
AcDbEntity
  8
文字・寸法線
 62
     0
100
AcDbDimension
280
     0
  2
*D4
 10
189.2658392336079
 20
55.5790505636939
 30
0.0
 11
124.2658392336079
 21
57.7895505636939
 31
0.0
 70
    32
  1
%%c<>
 71
     5
 42
129.9999999999999
 73
     0
 74
     0
 75
     0
  3
ISO-25
100
AcDbAlignedDimension
 13
59.26583923360796
 23
74.06422833534721
 33
0.0
 14
189.2658392336079
 24
74.06422833534721
 34
0.0
100
AcDbRotatedDimension
  0
DIMENSION
  5
260
102
{ACAD_REACTORS
330
262
102
}
102
{ACAD_XDICTIONARY
360
261
102
}
330
1F
100
AcDbEntity
  8
文字・寸法線
 62
     0
100
AcDbDimension
280
     0
  2
*D5
 10
207.8599507449391
 20
74.06422833534721
 30
0.0
 11
206.0582029916087
 21
69.3619885934732
 31
0.0
 70
   160
 71
     5
 42
1.5
 73
     0
 74
     0
 75
     0
  3
ISO-25
100
AcDbAlignedDimension
 13
194.2658392336079
 23
75.56422833534721
 33
0.0
 14
189.2658392336079
 24
74.06422833534721
 34
0.0
 50
90.0
100
AcDbRotatedDimension
1001
ACAD
1000
DSTYLE
1002
{
1070
   343
1005
189
1070
   173
1070
     1
1070
   344
1005
0
1070
   279
1070
     2
1002
}
  0
ARC
  5
263
102
{ACAD_REACTORS
330
2CA
102
}
330
1F
100
AcDbEntity
  8
実線
100
AcDbCircle
 10
59.26583923360796
 20
77.06422833534721
 30
0.0
 40
5.000000000000006
100
AcDbArc
 50
90.0
 51
179.9999999999998
  0
LINE
  5
264
330
1F
100
AcDbEntity
  8
実線
100
AcDbLine
 10
189.2658392336079
 20
82.06422833534721
 30
0.0
 11
59.26583923360796
 21
82.06422833534721
 31
0.0
  0
ARC
  5
265
330
1F
100
AcDbEntity
  8
実線
100
AcDbCircle
 10
189.2658392336079
 20
77.06422833534721
 30
0.0
 40
5.0
100
AcDbArc
 50
0.0
 51
90.0
  0
LINE
  5
267
102
{ACAD_REACTORS
330
262
102
}
330
1F
100
AcDbEntity
  8
実線
100
AcDbLine
 10
189.2658392336079
 20
74.06422833534721
 30
0.0
 11
189.2658392336079
 21
75.56422833534721
 31
0.0
  0
LINE
  5
268
330
1F
100
AcDbEntity
  8
実線
100
AcDbLine
 10
59.26583923360796
 20
74.06422833534721
 30
0.0
 11
189.2658392336079
 21
74.06422833534721
 31
0.0
  0
LINE
  5
269
330
1F
100
AcDbEntity
  8
実線
100
AcDbLine
 10
59.26583923360796
 20
75.56422833534721
 30
0.0
 11
59.26583923360796
 21
74.06422833534721
 31
0.0
  0
LINE
  5
26A
102
{ACAD_REACTORS
330
255
330
2CA
102
}
330
1F
100
AcDbEntity
  8
実線
100
AcDbLine
 10
194.2658392336079
 20
75.56422833534721
 30
0.0
 11
54.26583923360796
 21
75.56422833534721
 31
0.0
  0
LINE
  5
26B
330
1F
100
AcDbEntity
  8
文字
100
AcDbLine
 10
87.51583923360785
 20
84.06422833534721
 30
0.0
 11
86.76583923360796
 21
84.06422833534721
 31
0.0
  0
LINE
  5
26C
330
1F
100
AcDbEntity
  8
実線
100
AcDbLine
 10
86.76583923360796
 20
82.06422833534721
 30
0.0
 11
86.76583923360796
 21
84.06422833534721
 31
0.0
  0
LINE
  5
26E
330
1F
100
AcDbEntity
  8
細線
100
AcDbLine
 10
129.2630805393628
 20
123.7286664397589
 30
0.0
 11
129.263080539363
 21
110.0642297812309
 31
0.0
  0
LINE
  5
26F
330
1F
100
AcDbEntity
  8
細線
100
AcDbLine
 10
119.2630805393628
 20
123.7286664397589
 30
0.0
 11
119.2630805393629
 21
110.0642297812309
 31
0.0
  0
DIMENSION
  5
278
330
1F
100
AcDbEntity
  8
文字・寸法線
100
AcDbDimension
280
     0
  2
*D6
 10
130.2630805393629
 20
196.3603470626867
 30
0.0
 11
124.2630805393629
 21
198.4914862168477
 31
0.0
 70
    32
  1
M12
 71
     5
 42
11.99999999999999
 73
     0
 74
     0
 75
     0
  3
ISO-25
100
AcDbAlignedDimension
 13
118.2630805393629
 23
184.064210787703
 33
0.0
 14
130.2630805393629
 24
184.064210787703
 34
0.0
100
AcDbRotatedDimension
  0
DIMENSION
  5
279
330
1F
100
AcDbEntity
  8
文字・寸法線
100
AcDbDimension
280
     0
  2
*D7
 10
207.8599507449391
 20
185.064210787703
 30
0.0
 11
205.7103941282951
 21
147.564220284467
 31
0.0
 70
    32
 71
     5
 42
74.99998100647201
 73
     0
 74
     0
 75
     0
  3
ISO-25
100
AcDbAlignedDimension
 13
135.2130805393631
 23
110.0642297812309
 33
0.0
 14
129.2630805393629
 24
185.064210787703
 34
0.0
 50
90.0
100
AcDbRotatedDimension
  0
DIMENSION
  5
27B
330
1F
100
AcDbEntity
  8
文字・寸法線
100
AcDbDimension
280
     0
  2
*D9
 10
207.8599507449391
 20
102.0642283353472
 30
0.0
 11
205.7042549741341
 21
106.0642290582891
 31
0.0
 70
    32
 71
     5
 42
8.000001445883754
 73
     0
 74
     0
 75
     0
  3
ISO-25
100
AcDbAlignedDimension
 13
135.2130805393631
 23
110.0642297812309
 33
0.0
 14
132.0401244724764
 24
102.0642283353472
 34
0.0
 50
90.0
100
AcDbRotatedDimension
  0
ARC
  5
27C
330
1F
100
AcDbEntity
  8
実線
100
AcDbCircle
 10
123.4293001386462
 20
76.07672751189698
 30
0.0
 40
28.00000000000052
100
AcDbArc
 50
20.75885209225877
 51
68.14440248197742
  0
ARC
  5
27D
330
1F
100
AcDbEntity
  8
実線
100
AcDbCircle
 10
92.26583923360796
 20
84.06422833534721
 30
0.0
 40
5.0
100
AcDbArc
 50
134.008769999993
 51
180.0
  0
LINE
  5
27E
330
1F
100
AcDbEntity
  8
実線
100
AcDbLine
 10
95.73968223360797
 20
87.66039533534735
 30
0.0
 11
88.79199723360796
 21
87.66039533534735
 31
0.0
  0
ARC
  5
27F
330
1F
100
AcDbEntity
  8
実線
100
AcDbCircle
 10
92.26583923360796
 20
84.06422833534721
 30
0.0
 40
5.0
100
AcDbArc
 50
0.0
 51
45.99123000000701
  0
LINE
  5
280
330
1F
100
AcDbEntity
  8
中心線
100
AcDbLine
 10
92.26583923360796
 20
89.0642283353472
 30
0.0
 11
92.26583923360796
 21
76.67251182818991
 31
0.0
  0
ARC
  5
281
330
1F
100
AcDbEntity
  8
実線
100
AcDbCircle
 10
124.265839233608
 20
84.06422833534721
 30
0.0
 40
5.0
100
AcDbArc
 50
0.0
 51
45.99123000000725
  0
LINE
  5
282
330
1F
100
AcDbEntity
  8
実線
100
AcDbLine
 10
127.739682233608
 20
87.66039533534735
 30
0.0
 11
120.791997233608
 21
87.66039533534735
 31
0.0
  0
ARC
  5
283
330
1F
100
AcDbEntity
  8
実線
100
AcDbCircle
 10
124.265839233608
 20
84.06422833534721
 30
0.0
 40
5.0
100
AcDbArc
 50
134.0087699999928
 51
180.0
  0
LINE
  5
284
102
{ACAD_REACTORS
102
}
330
1F
100
AcDbEntity
  8
中心線
100
AcDbLine
 10
124.2658392336081
 20
191.3468744010817
 30
0.0
 11
124.265839233608
 21
70.82677959802828
 31
0.0
  0
LINE
  5
285
330
1F
100
AcDbEntity
  8
実線
100
AcDbLine
 10
96.1148840309469
 20
84.06422833534721
 30
0.0
 11
89.26583923360785
 21
84.06422833534721
 31
0.0
  0
ARC
  5
286
330
1F
100
AcDbEntity
  8
実線
100
AcDbCircle
 10
125.1023783285692
 20
76.07672751189756
 30
0.0
 40
27.99999999999985
100
AcDbArc
 50
111.8555975180222
 51
159.241147907742
  0
LINE
  5
287
330
1F
100
AcDbEntity
  8
実線
100
AcDbLine
 10
87.51583923360785
 20
84.06422833534721
 30
0.0
 11
89.26583923360785
 21
84.06422833534721
 31
0.0
  0
LINE
  5
288
330
1F
100
AcDbEntity
  8
実線
100
AcDbLine
 10
86.76583923360796
 20
82.06422833534721
 30
0.0
 11
163.2658392336079
 21
82.06422833534721
 31
0.0
  0
LINE
  5
289
330
1F
100
AcDbEntity
  8
実線
100
AcDbLine
 10
163.2658392336079
 20
84.06422833534721
 30
0.0
 11
163.2658392336079
 21
84.06422833534721
 31
0.0
  0
LINE
  5
28A
330
1F
100
AcDbEntity
  8
実線
100
AcDbLine
 10
152.416794436269
 20
84.06422833534721
 30
0.0
 11
163.2658392336079
 21
84.06422833534721
 31
0.0
  0
LINE
  5
28B
330
1F
100
AcDbEntity
  8
実線
100
AcDbLine
 10
96.1148840309469
 20
84.06422833534721
 30
0.0
 11
152.416794436269
 21
84.06422833534721
 31
0.0
  0
LINE
  5
28C
330
1F
100
AcDbEntity
  8
実線
100
AcDbLine
 10
165.7658392336079
 20
82.06422833534721
 30
0.0
 11
165.7658392336079
 21
84.06422833534721
 31
0.0
  0
LINE
  5
28D
330
1F
100
AcDbEntity
  8
実線
100
AcDbLine
 10
163.2658392336079
 20
82.06422833534721
 30
0.0
 11
165.7658392336079
 21
82.06422833534721
 31
0.0
  0
LINE
  5
28E
330
1F
100
AcDbEntity
  8
実線
100
AcDbLine
 10
165.7658392336079
 20
84.06422833534721
 30
0.0
 11
163.2658392336079
 21
84.06422833534721
 31
0.0
  0
LINE
  5
28F
330
1F
100
AcDbEntity
  8
実線
370
    20
100
AcDbLine
 10
118.2630805393629
 20
184.064210787703
 30
0.0
 11
130.2630805393629
 21
184.064210787703
 31
0.0
  0
LINE
  5
290
102
{ACAD_REACTORS
102
}
330
1F
100
AcDbEntity
  8
実線
100
AcDbLine
 10
114.6788568050536
 20
102.0642283353472
 30
0.0
 11
133.2281674818138
 21
102.0642283353472
 31
0.0
  0
LINE
  5
291
330
1F
100
AcDbEntity
  8
細線
100
AcDbLine
 10
129.2630805393629
 20
185.064210787703
 30
0.0
 11
129.2630805393628
 21
123.7286664397589
 31
0.0
  0
LINE
  5
292
330
1F
100
AcDbEntity
  8
細線
100
AcDbLine
 10
119.2630805393629
 20
185.064210787703
 30
0.0
 11
119.2630805393628
 21
123.7286664397589
 31
0.0
  0
LWPOLYLINE
  5
293
330
1F
100
AcDbEntity
  8
実線
100
AcDbPolyline
 90
        4
 70
     0
 43
0.0
 10
118.2630805393614
 20
184.064210787703
 10
118.2630805393631
 20
110.0642297812309
 10
130.263080539363
 20
110.0642297812309
 10
130.2630805393626
 20
184.064210787703
  0
LINE
  5
294
330
1F
100
AcDbEntity
  8
実線
 62
     0
100
AcDbLine
 10
194.2658392336079
 20
77.06422833534721
 30
0.0
 11
194.2658392336079
 21
75.56422833534721
 31
0.0
  0
LINE
  5
295
330
1F
100
AcDbEntity
  8
実線
 62
     0
100
AcDbLine
 10
54.26583923360796
 20
77.06422833534721
 30
0.0
 11
54.26583923360796
 21
75.56422833534721
 31
0.0
  0
CIRCLE
  5
296
330
1F
100
AcDbEntity
  8
実線
 62
     0
100
AcDbCircle
 10
311.8847438310081
 20
141.8649324702069
 30
0.0
 40
70.0
  0
LINE
  5
297
330
1F
100
AcDbEntity
  8
実線
100
AcDbLine
 10
311.884743831008
 20
171.555531470207
 30
0.0
 11
309.884743831008
 21
172.7102324702069
 31
0.0
  0
LINE
  5
298
330
1F
100
AcDbEntity
  8
実線
100
AcDbLine
 10
313.884743831008
 20
172.7102324702069
 30
0.0
 11
311.884743831008
 21
171.555531470207
 31
0.0
  0
LINE
  5
299
330
1F
100
AcDbEntity
  8
実線
100
AcDbLine
 10
313.884743831008
 20
175.0196334702069
 30
0.0
 11
313.884743831008
 21
172.7102324702069
 31
0.0
  0
LINE
  5
29A
330
1F
100
AcDbEntity
  8
実線
100
AcDbLine
 10
311.884743831008
 20
176.1743334702068
 30
0.0
 11
313.884743831008
 21
175.0196334702069
 31
0.0
  0
LINE
  5
29B
330
1F
100
AcDbEntity
  8
実線
100
AcDbLine
 10
309.884743831008
 20
175.0196334702069
 30
0.0
 11
311.884743831008
 21
176.1743334702068
 31
0.0
  0
LINE
  5
29C
330
1F
100
AcDbEntity
  8
実線
100
AcDbLine
 10
309.884743831008
 20
172.7102324702069
 30
0.0
 11
309.884743831008
 21
175.0196334702069
 31
0.0
  0
CIRCLE
  5
29D
330
1F
100
AcDbEntity
  8
実線
100
AcDbCircle
 10
311.884743831008
 20
173.8649324702069
 30
0.0
 40
5.0
  0
LINE
  5
29E
330
1F
100
AcDbEntity
  8
実線
100
AcDbLine
 10
343.884743831008
 20
139.555531470207
 30
0.0
 11
341.884743831008
 21
140.7102324702069
 31
0.0
  0
LINE
  5
29F
330
1F
100
AcDbEntity
  8
実線
100
AcDbLine
 10
345.884743831008
 20
140.7102324702069
 30
0.0
 11
343.884743831008
 21
139.555531470207
 31
0.0
  0
LINE
  5
2A0
330
1F
100
AcDbEntity
  8
実線
100
AcDbLine
 10
345.884743831008
 20
143.0196334702069
 30
0.0
 11
345.884743831008
 21
140.7102324702069
 31
0.0
  0
LINE
  5
2A1
330
1F
100
AcDbEntity
  8
実線
100
AcDbLine
 10
343.884743831008
 20
144.1743334702068
 30
0.0
 11
345.884743831008
 21
143.0196334702069
 31
0.0
  0
LINE
  5
2A2
330
1F
100
AcDbEntity
  8
実線
100
AcDbLine
 10
341.884743831008
 20
143.0196334702069
 30
0.0
 11
343.884743831008
 21
144.1743334702068
 31
0.0
  0
LINE
  5
2A3
330
1F
100
AcDbEntity
  8
実線
100
AcDbLine
 10
341.884743831008
 20
140.7102324702069
 30
0.0
 11
341.884743831008
 21
143.0196334702069
 31
0.0
  0
CIRCLE
  5
2A4
330
1F
100
AcDbEntity
  8
実線
100
AcDbCircle
 10
343.884743831008
 20
141.8649324702069
 30
0.0
 40
5.0
  0
LINE
  5
2A5
330
1F
100
AcDbEntity
  8
実線
100
AcDbLine
 10
311.884743831008
 20
107.555531470207
 30
0.0
 11
309.884743831008
 21
108.7102324702069
 31
0.0
  0
LINE
  5
2A6
330
1F
100
AcDbEntity
  8
実線
100
AcDbLine
 10
313.884743831008
 20
108.7102324702069
 30
0.0
 11
311.884743831008
 21
107.555531470207
 31
0.0
  0
LINE
  5
2A7
330
1F
100
AcDbEntity
  8
実線
100
AcDbLine
 10
313.884743831008
 20
111.0196334702069
 30
0.0
 11
313.884743831008
 21
108.7102324702069
 31
0.0
  0
LINE
  5
2A8
330
1F
100
AcDbEntity
  8
実線
100
AcDbLine
 10
311.884743831008
 20
112.1743334702068
 30
0.0
 11
313.884743831008
 21
111.0196334702069
 31
0.0
  0
LINE
  5
2A9
330
1F
100
AcDbEntity
  8
実線
100
AcDbLine
 10
309.884743831008
 20
111.0196334702069
 30
0.0
 11
311.884743831008
 21
112.1743334702068
 31
0.0
  0
LINE
  5
2AA
330
1F
100
AcDbEntity
  8
実線
100
AcDbLine
 10
309.884743831008
 20
108.7102324702069
 30
0.0
 11
309.884743831008
 21
111.0196334702069
 31
0.0
  0
CIRCLE
  5
2AB
330
1F
100
AcDbEntity
  8
実線
100
AcDbCircle
 10
311.884743831008
 20
109.8649324702069
 30
0.0
 40
5.0
  0
LINE
  5
2AC
330
1F
100
AcDbEntity
  8
実線
100
AcDbLine
 10
279.884743831008
 20
139.555531470207
 30
0.0
 11
277.884743831008
 21
140.7102324702069
 31
0.0
  0
LINE
  5
2AD
330
1F
100
AcDbEntity
  8
実線
100
AcDbLine
 10
281.884743831008
 20
140.7102324702069
 30
0.0
 11
279.884743831008
 21
139.555531470207
 31
0.0
  0
LINE
  5
2AE
330
1F
100
AcDbEntity
  8
実線
100
AcDbLine
 10
281.884743831008
 20
143.0196334702069
 30
0.0
 11
281.884743831008
 21
140.7102324702069
 31
0.0
  0
LINE
  5
2AF
330
1F
100
AcDbEntity
  8
実線
100
AcDbLine
 10
279.884743831008
 20
144.1743334702068
 30
0.0
 11
281.884743831008
 21
143.0196334702069
 31
0.0
  0
LINE
  5
2B0
330
1F
100
AcDbEntity
  8
実線
100
AcDbLine
 10
277.884743831008
 20
143.0196334702069
 30
0.0
 11
279.884743831008
 21
144.1743334702068
 31
0.0
  0
LINE
  5
2B1
330
1F
100
AcDbEntity
  8
実線
100
AcDbLine
 10
277.884743831008
 20
140.7102324702069
 30
0.0
 11
277.884743831008
 21
143.0196334702069
 31
0.0
  0
CIRCLE
  5
2B2
330
1F
100
AcDbEntity
  8
実線
100
AcDbCircle
 10
279.884743831008
 20
141.8649324702069
 30
0.0
 40
5.0
  0
CIRCLE
  5
2B3
330
1F
100
AcDbEntity
  8
細線
 62
     0
100
AcDbCircle
 10
311.884743831008
 20
141.8649324702069
 30
0.0
 40
65.0
  0
DIMENSION
  5
2B4
330
1F
100
AcDbEntity
  8
文字・寸法線
100
AcDbDimension
280
     0
  2
*D10
 10
321.3677220024476
 20
58.44250512008826
 30
0.0
 11
311.884743831008
 21
60.59820089089315
 31
0.0
 70
    32
  1
19
 71
     5
 42
18.96595634287928
 73
     0
 74
     0
 75
     0
  3
ISO-25
100
AcDbAlignedDimension
 13
302.4017656595684
 23
136.3899324702069
 33
0.0
 14
321.3677220024476
 24
136.3899324702069
 34
0.0
100
AcDbRotatedDimension
1001
ACAD
1000
DSTYLE
1002
{
1070
   271
1070
     0
1002
}
  0
DIMENSION
  5
2B5
102
{ACAD_REACTORS
330
2B7
102
}
102
{ACAD_XDICTIONARY
360
2B6
102
}
330
1F
100
AcDbEntity
  8
文字・寸法線
100
AcDbDimension
280
     0
  2
*D11
 10
349.384743831008
 20
37.39134189267429
 30
0.0
 11
310.7694761383841
 21
37.39134189267429
 31
0.0
 70
   160
  1
%%c<>
 71
     5
 42
75.0
 73
     0
 74
     0
 75
     0
  3
ISO-25
100
AcDbAlignedDimension
 13
274.384743831008
 23
141.8649324702069
 33
0.0
 14
349.384743831008
 24
141.8649324702069
 34
0.0
100
AcDbRotatedDimension
  0
CIRCLE
  5
2B8
330
1F
100
AcDbEntity
  8
中心線
100
AcDbCircle
 10
311.884743831008
 20
141.8649324702069
 30
0.0
 40
32.0
  0
LINE
  5
2B9
102
{ACAD_REACTORS
330
2B7
102
}
330
1F
100
AcDbEntity
  8
中心線
100
AcDbLine
 10
233.3785688465267
 20
141.8649324702069
 30
0.0
 11
392.9250094237923
 21
141.8649324702069
 31
0.0
  0
LINE
  5
2BA
330
1F
100
AcDbEntity
  8
中心線
100
AcDbLine
 10
311.884743831008
 20
66.27267449501683
 30
0.0
 11
311.884743831008
 21
217.3674139311426
 31
0.0
  0
CIRCLE
  5
2BB
102
{ACAD_REACTORS
330
2B7
102
}
330
1F
100
AcDbEntity
  8
実線
100
AcDbCircle
 10
311.884743831008
 20
141.8649324702069
 30
0.0
 40
37.5
  0
CIRCLE
  5
2BC
330
1F
100
AcDbEntity
  8
実線
100
AcDbCircle
 10
311.884743831008
 20
141.8649324702069
 30
0.0
 40
26.0
  0
MTEXT
  5
2BD
330
1F
100
AcDbEntity
  8
文字
100
AcDbMText
 10
78.23921760357725
 20
103.6847094879514
 30
0.0
 40
3.0
 41
0.0
 46
8.258883248730964
 71
     9
 72
     1
  1
{\fMS Gothic|b0|i0|c0|p0;六角穴付きボタンボルト\P　Ｍ５x５　　　　　    }
 73
     1
 44
1.0
1001
ACAD
1000
ACAD_MTEXT_DEFINED_HEIGHT_BEGIN
1070
    46
1040
8.258883248730964
1000
ACAD_MTEXT_DEFINED_HEIGHT_END
  0
LEADER
  5
2BE
330
1F
100
AcDbEntity
  8
文字・寸法線
100
AcDbLeader
  3
ISO-25
 76
     3
 10
89.69318528585383
 20
87.61816739897873
 30
0.0
 10
76.63718829386849
 20
107.5596779753268
 30
0.0
 10
39.74191390622322
 20
107.5596779753268
 30
0.0
1001
ACAD
1000
DSTYLE
1002
{
1070
   147
1040
0.625
1070
    77
1070
     1
1002
}
  0
LWPOLYLINE
  5
2BF
102
{ACAD_REACTORS
102
}
330
1F
100
AcDbEntity
  8
実線
100
AcDbPolyline
 90
        6
 70
     1
 43
0.0
 10
311.884743831008
 20
152.8149324702069
 10
302.4017656595684
 20
147.3399324702069
 10
302.4017656595684
 20
136.3899324702069
 10
311.884743831008
 20
130.9149324702069
 10
321.3677220024476
 20
136.3899324702069
 10
321.3677220024476
 20
147.3399324702069
  0
LINE
  5
2C0
330
1F
100
AcDbEntity
  8
実線
100
AcDbLine
 10
116.2821111979148
 20
102.0642268894635
 30
0.0
 11
132.2495672693009
 21
102.0642268894635
 31
0.0
  0
LINE
  5
2C1
330
1F
100
AcDbEntity
  8
実線
100
AcDbLine
 10
116.0533392336076
 20
102.0642268894635
 30
0.0
 11
132.4965850957084
 21
102.0642268894635
 31
0.0
  0
ARC
  5
2C2
330
1F
100
AcDbEntity
  8
実線
100
AcDbCircle
 10
132.4783392336078
 20
105.6866534806685
 30
0.0
 40
3.622472542360042
100
AcDbArc
 50
220.9134885155076
 51
319.0865114844919
  0
ARC
  5
2C3
102
{ACAD_REACTORS
102
}
330
1F
100
AcDbEntity
  8
実線
100
AcDbCircle
 10
124.2658392336077
 20
114.6794783353476
 30
0.0
 40
12.61525000000041
100
AcDbArc
 50
244.2784138818111
 51
295.7215861181882
  0
ARC
  5
2C4
330
1F
100
AcDbEntity
  8
実線
100
AcDbCircle
 10
116.0533392336076
 20
105.6867866451079
 30
0.0
 40
3.622559755644303
100
AcDbArc
 50
220.9150801537506
 51
319.0849198462499
  0
LINE
  5
2C5
102
{ACAD_REACTORS
102
}
330
1F
100
AcDbEntity
  8
実線
100
AcDbLine
 10
129.7408392336079
 20
110.0642297812309
 30
0.0
 11
129.7408392336077
 21
103.3142283353473
 31
0.0
  0
LINE
  5
2C6
330
1F
100
AcDbEntity
  8
実線
100
AcDbLine
 10
118.7908392336078
 20
110.0642297812309
 30
0.0
 11
118.7908392336077
 21
103.3142283353473
 31
0.0
  0
LWPOLYLINE
  5
2C7
102
{ACAD_REACTORS
102
}
330
1F
100
AcDbEntity
  8
実線
100
AcDbPolyline
 90
        4
 70
     0
 43
0.0
 10
135.2158392336078
 20
103.3142283353473
 10
135.2158392336079
 20
110.0642297812309
 10
113.3158392336078
 20
110.0642297812309
 10
113.3158392336077
 20
103.3142283353473
  0
CIRCLE
  5
2CB
330
1F
100
AcDbEntity
  8
実線
100
AcDbCircle
 10
311.884743831008
 20
141.8649324702069
 30
0.0
 40
6.0
  0
CIRCLE
  5
2CC
330
1F
100
AcDbEntity
  8
実線
100
AcDbCircle
 10
311.884743831008
 20
141.8649324702069
 30
0.0
 40
5.174688502971762
  0
LINE
  5
36A
102
{ACAD_REACTORS
102
}
330
1F
100
AcDbEntity
  8
0
100
AcDbLine
 10
119.2630805393629
 20
185.064210787703
 30
0.0
 11
129.2630805393629
 21
185.064210787703
 31
0.0
  0
LINE
  5
36B
330
1F
100
AcDbEntity
  8
0
100
AcDbLine
 10
119.2630805393629
 20
185.064210787703
 30
0.0
 11
118.2630805393629
 21
184.064210787703
 31
0.0
  0
LINE
  5
36C
330
1F
100
AcDbEntity
  8
0
100
AcDbLine
 10
129.2630805393629
 20
185.064210787703
 30
0.0
 11
130.2630805393629
 21
184.064210787703
 31
0.0
  0
MTEXT
  5
440
330
1F
100
AcDbEntity
  8
文字・寸法線
 62
     0
100
AcDbMText
 10
104.1250497347318
 20
236.1872424965921
 30
0.0
 40
6.0
 41
0.0
 46
6.0
 71
     9
 72
     1
  1
{\fＭＳ ゴシック|b0|i0|c0|p0;SP-140 M12X75}
 73
     1
 44
1.0
1001
ACAD
1000
ACAD_MTEXT_DEFINED_HEIGHT_BEGIN
1070
    46
1040
6.0
1000
ACAD_MTEXT_DEFINED_HEIGHT_END
  0
ENDSEC
  0
SECTION
  2
OBJECTS
  0
DICTIONARY
  5
C
330
0
100
AcDbDictionary
281
     1
  3
ACAD_CIP_PREVIOUS_PRODUCT_INFO
350
35F
  3
ACAD_COLOR
350
73
  3
ACAD_DETAILVIEWSTYLE
350
122
  3
ACAD_GROUP
350
D
  3
ACAD_IMAGE_VARS
350
DC
  3
ACAD_LAYOUT
350
1A
  3
ACAD_MATERIAL
350
72
  3
ACAD_MLEADERSTYLE
350
B5
  3
ACAD_MLINESTYLE
350
17
  3
ACAD_PLOTSETTINGS
350
19
  3
ACAD_PLOTSTYLENAME
350
E
  3
ACAD_SCALELIST
350
B6
  3
ACAD_SECTIONVIEWSTYLE
350
123
  3
ACAD_TABLESTYLE
350
86
  3
ACAD_VISUALSTYLE
350
99
  3
ACDB_RECOMPOSE_DATA
350
44B
  3
AcDbVariableDictionary
350
66
  3
APPDATA
350
E1
  0
SUN
  5
ED
330
94
100
AcDbSun
 90
        1
290
     1
 63
     7
421
 16777215
 40
1.0
291
     1
 91
  2455826
 92
 54000000
292
     0
 70
     0
 71
   256
280
     1
  0
DICTIONARY
  5
254
330
253
100
AcDbDictionary
280
     1
281
     1
  3
ACAD_DIMASSOC
360
255
  0
DICTIONARY
  5
261
330
260
100
AcDbDictionary
280
     1
281
     1
  3
ACAD_DIMASSOC
360
262
  0
DICTIONARY
  5
2B6
330
2B5
100
AcDbDictionary
280
     1
281
     1
  3
ACAD_DIMASSOC
360
2B7
  0
XRECORD
  5
35F
102
{ACAD_REACTORS
330
C
102
}
330
C
100
AcDbXrecord
280
     1
300
ACDLT
300
2014
300
ACDLT_F_S
  0
DICTIONARY
  5
73
102
{ACAD_REACTORS
330
C
102
}
330
C
100
AcDbDictionary
281
     1
  0
DICTIONARY
  5
122
102
{ACAD_REACTORS
330
C
102
}
330
C
100
AcDbDictionary
281
     1
  3
Imperial24
350
35C
  0
DICTIONARY
  5
D
102
{ACAD_REACTORS
330
C
102
}
330
C
100
AcDbDictionary
281
     1
  0
RASTERVARIABLES
  5
DC
102
{ACAD_REACTORS
330
C
102
}
330
C
100
AcDbRasterVariables
 90
        0
 70
     1
 71
     1
 72
     5
  0
DICTIONARY
  5
1A
102
{ACAD_REACTORS
330
C
102
}
330
C
100
AcDbDictionary
281
     1
  3
Model
350
22
  3
Sheet1
350
59
  3
Sheet2
350
5E
  0
DICTIONARY
  5
72
102
{ACAD_REACTORS
330
C
102
}
330
C
100
AcDbDictionary
281
     1
  3
ByBlock
350
E2
  3
ByLayer
350
96
  3
Global
350
98
  0
DICTIONARY
  5
B5
102
{ACAD_REACTORS
330
C
102
}
330
C
100
AcDbDictionary
281
     1
  3
Standard
350
35A
  0
DICTIONARY
  5
17
102
{ACAD_REACTORS
330
C
102
}
330
C
100
AcDbDictionary
281
     1
  3
Standard
350
18
  0
DICTIONARY
  5
19
102
{ACAD_REACTORS
330
C
102
}
330
C
100
AcDbDictionary
281
     1
  0
ACDBDICTIONARYWDFLT
  5
E
102
{ACAD_REACTORS
330
C
102
}
330
C
100
AcDbDictionary
281
     1
  3
Normal
350
F
100
AcDbDictionaryWithDefault
340
F
  0
DICTIONARY
  5
B6
102
{ACAD_REACTORS
330
C
102
}
330
C
100
AcDbDictionary
281
     1
  3
A0
350
B7
  3
A1
350
B8
  3
A2
350
B9
  3
A3
350
BA
  3
A4
350
BB
  3
A5
350
BC
  3
A6
350
BD
  3
A7
350
BE
  3
A8
350
BF
  3
A9
350
C0
  3
B0
350
C1
  3
B1
350
C2
  3
B2
350
C3
  3
B3
350
C4
  3
B4
350
C5
  3
B5
350
C6
  3
B6
350
C7
  3
B7
350
C8
  3
B8
350
C9
  3
B9
350
CA
  3
C0
350
CB
  3
C1
350
CC
  3
C2
350
CD
  3
C3
350
CE
  3
C4
350
CF
  3
C5
350
D0
  3
C6
350
D1
  3
C7
350
D2
  3
C8
350
D3
  3
C9
350
D4
  3
D0
350
D5
  3
D1
350
D6
  3
D2
350
D7
  0
DICTIONARY
  5
123
102
{ACAD_REACTORS
330
C
102
}
330
C
100
AcDbDictionary
281
     1
  3
Imperial24
350
35B
  0
DICTIONARY
  5
86
102
{ACAD_REACTORS
330
C
102
}
330
C
100
AcDbDictionary
281
     1
  3
Standard
350
87
  0
DICTIONARY
  5
99
102
{ACAD_REACTORS
330
C
102
}
330
C
100
AcDbDictionary
281
     1
  3
2dWireframe
350
9F
  3
3D Hidden
350
A1
  3
3dWireframe
350
A0
  3
Basic
350
9E
  3
Brighten
350
A5
  3
ColorChange
350
A9
  3
Conceptual
350
A2
  3
Dim
350
A4
  3
EdgeColorOff
350
E7
  3
Facepattern
350
A8
  3
Flat
350
9A
  3
FlatWithEdges
350
9B
  3
Gouraud
350
9C
  3
GouraudWithEdges
350
9D
  3
Hidden
350
E4
  3
JitterOff
350
E5
  3
Linepattern
350
A7
  3
OverhangOff
350
E6
  3
Realistic
350
A3
  3
Shaded
350
EC
  3
Shaded with edges
350
EB
  3
Shades of Gray
350
E8
  3
Sketchy
350
E9
  3
Thicken
350
A6
  3
Wireframe
350
E3
  3
X-Ray
350
EA
  0
XRECORD
  5
44B
102
{ACAD_REACTORS
330
C
102
}
330
C
100
AcDbXrecord
280
     1
 90
        1
330
87
  0
DICTIONARY
  5
66
102
{ACAD_REACTORS
330
C
102
}
330
C
100
AcDbDictionary
281
     1
  3
CANNOSCALE
350
D8
  3
CMLEADERSTYLE
350
40F
  3
CTABLESTYLE
350
89
  3
CVIEWDETAILSTYLE
350
410
  3
CVIEWSECTIONSTYLE
350
411
  3
DIMASSOC
350
67
  3
HIDETEXT
350
6B
  3
LIGHTSINBLOCKS
350
DF
  3
XCLIPFRAME
350
E0
  0
DICTIONARY
  5
E1
102
{ACAD_REACTORS
330
C
102
}
330
C
100
AcDbDictionary
281
     1
  0
DIMASSOC
  5
255
102
{ACAD_REACTORS
330
254
102
}
330
254
100
AcDbDimAssoc
330
253
 90
        2
 70
     0
 71
     0
  1
AcDbOsnapPointRef
 72
    13
331
26A
 73
     2
 91
        0
 40
0.0
 10
0.0
 20
0.0
 30
2.000000000000000E+50
 75
     0
  0
DIMASSOC
  5
262
102
{ACAD_REACTORS
330
261
102
}
330
261
100
AcDbDimAssoc
330
260
 90
        2
 70
     0
 71
     0
  1
AcDbOsnapPointRef
 72
    13
331
267
 73
     2
 91
        0
 40
0.0
 10
0.0
 20
0.0
 30
2.000000000000000E+50
 75
     0
  0
DIMASSOC
  5
2B7
102
{ACAD_REACTORS
330
2B6
102
}
330
2B6
100
AcDbDimAssoc
330
2B5
 90
        2
 70
     0
 71
     0
  1
AcDbOsnapPointRef
 72
     6
331
2B9
 73
     2
 91
        0
 40
0.6249999999999998
 10
0.0
 20
0.0
 30
0.0
332
2BB
 74
     2
 92
        0
 75
     0
  0
ACAD_PROXY_OBJECT
  5
35C
102
{ACAD_REACTORS
330
122
102
}
102
{ACAD_XDICTIONARY
360
40C
102
}
330
122
100
AcDbProxyObject
 90
      499
 91
      514
 95
  3604511
 70
     0
162
              1622
311
4292401B401C0019401C801A4018401B000C800D0025689400F001700104018C0158018401C80080015801A4019401DC015001E401C0019400800170019800800088009401D0018C00C4008800F800940080009400F001700104018C0158018401C80080015801A4019401DC0110019401D0018401A401B00124019000F800
311
9401700140014C010C0104013001140080009400F001700104018C0158018401C80080015801A4019401DC014C018C018401B0019400800170019800800088009401CC01B8008800F8009400
161
               675
310
9207000000180005C0F42F5A8DC671F815AF46E07A15AE7E07000000180005C0F42F5A8DC671FA3300000018001000000180005C0F42F5A8DC671FA02000000000000741FA028CC000000600023300000018000000
340
11
340
0
340
16
340
11
340
16
340
16
 94
        0
  0
LAYOUT
  5
22
102
{ACAD_REACTORS
330
1A
102
}
330
1A
100
AcDbPlotSettings
  1

  2
none_device
  4
ANSI_A_(8.50_x_11.00_Inches)
  6

 40
6.35
 41
19.05
 42
6.35
 43
19.05
 44
215.9
 45
279.4
 46
11.11250000000003
 47
0.0000000000000142
 48
0.0
 49
0.0
140
0.0
141
0.0
142
1.0
143
1.263157894736842
 70
 11444
 72
     0
 73
     1
 74
     1
  7
monochrome.ctb
 75
     0
 76
     0
 77
     2
 78
   300
147
0.7916666666666665
148
-702.8076765758874
149
-496.2830551296954
100
AcDbLayout
  1
Model
 70
     1
 71
     0
 10
0.0
 20
0.0
 11
12.0
 21
9.0
 12
0.0
 22
0.0
 32
0.0
 14
36.10421760357725
 24
36.14134189267429
 34
0.0
 15
392.9250094237923
 25
242.1872424965921
 35
0.0
146
0.0
 13
0.0
 23
0.0
 33
0.0
 16
1.0
 26
0.0
 36
0.0
 17
0.0
 27
1.0
 37
0.0
 76
     0
330
1F
331
94
  0
LAYOUT
  5
59
102
{ACAD_REACTORS
330
1A
102
}
330
1A
100
AcDbPlotSettings
  1

  2
None
  4

  6

 40
0.0
 41
0.0
 42
0.0
 43
0.0
 44
0.0
 45
0.0
 46
0.0
 47
0.0
 48
0.0
 49
0.0
140
0.0
141
0.0
142
1.0
143
1.0
 70
   688
 72
     0
 73
     0
 74
     5
  7

 75
    16
 76
     0
 77
     2
 78
   300
147
1.0
148
0.0
149
0.0
100
AcDbLayout
  1
Sheet1
 70
     1
 71
     1
 10
0.0
 20
0.0
 11
0.0
 21
0.0
 12
0.0
 22
0.0
 32
0.0
 14
0.0
 24
0.0
 34
0.0
 15
0.0
 25
0.0
 35
0.0
146
0.0
 13
0.0
 23
0.0
 33
0.0
 16
1.0
 26
0.0
 36
0.0
 17
0.0
 27
1.0
 37
0.0
 76
     0
330
58
  0
LAYOUT
  5
5E
102
{ACAD_REACTORS
330
1A
102
}
330
1A
100
AcDbPlotSettings
  1

  2
None
  4

  6

 40
0.0
 41
0.0
 42
0.0
 43
0.0
 44
0.0
 45
0.0
 46
0.0
 47
0.0
 48
0.0
 49
0.0
140
0.0
141
0.0
142
1.0
143
1.0
 70
   688
 72
     0
 73
     0
 74
     5
  7

 75
    16
 76
     0
 77
     2
 78
   300
147
1.0
148
0.0
149
0.0
100
AcDbLayout
  1
Sheet2
 70
     1
 71
     2
 10
0.0
 20
0.0
 11
12.0
 21
9.0
 12
0.0
 22
0.0
 32
0.0
 14
0.0
 24
0.0
 34
0.0
 15
0.0
 25
0.0
 35
0.0
146
0.0
 13
0.0
 23
0.0
 33
0.0
 16
1.0
 26
0.0
 36
0.0
 17
0.0
 27
1.0
 37
0.0
 76
     0
330
5D
  0
MATERIAL
  5
E2
102
{ACAD_REACTORS
330
72
102
}
330
72
100
AcDbMaterial
  1
ByBlock
 72
     1
 73
     2
 78
     2
172
     2
176
     2
270
     2
274
     2
 94
      127
  0
MATERIAL
  5
96
102
{ACAD_REACTORS
330
72
102
}
330
72
100
AcDbMaterial
  1
ByLayer
 72
     1
 73
     2
 78
     2
172
     2
176
     2
270
     2
274
     2
 94
       63
  0
MATERIAL
  5
98
102
{ACAD_REACTORS
330
72
102
}
330
72
100
AcDbMaterial
  1
Global
 72
     1
 73
     2
 78
     2
172
     2
176
     2
270
     2
274
     2
 94
       63
  0
MLEADERSTYLE
  5
35A
102
{ACAD_REACTORS
330
B5
102
}
330
B5
100
AcDbMLeaderStyle
179
     2
170
     2
171
     1
172
     0
 90
        2
 40
0.0
 41
0.0
173
     1
 91
-1056964608
340
14
 92
       -2
290
     1
 42
0.09
291
     1
 43
0.36
  3
Standard
341
0
 44
0.18
300

342
11
174
     1
178
     6
175
     1
176
     0
 93
-1056964608
 45
0.18
292
     0
297
     0
 46
0.18
343
0
 94
-1056964608
 47
1.0
 49
1.0
140
1.0
293
     1
141
0.0
294
     1
177
     0
142
1.0
295
     0
296
     0
143
0.125
271
     0
272
     9
273
     9
298
     1
  0
MLINESTYLE
  5
18
102
{ACAD_REACTORS
330
17
102
}
330
17
100
AcDbMlineStyle
  2
STANDARD
 70
     0
  3

 62
   256
 51
90.0
 52
90.0
 71
     2
 49
0.5
 62
   256
  6
BYLAYER
 49
-0.5
 62
   256
  6
BYLAYER
  0
ACDBPLACEHOLDER
  5
F
102
{ACAD_REACTORS
330
E
102
}
330
E
  0
SCALE
  5
B7
102
{ACAD_REACTORS
330
B6
102
}
330
B6
100
AcDbScale
 70
     0
300
1:1
140
1.0
141
1.0
290
     1
  0
SCALE
  5
B8
102
{ACAD_REACTORS
330
B6
102
}
330
B6
100
AcDbScale
 70
     0
300
1:2
140
1.0
141
2.0
290
     0
  0
SCALE
  5
B9
102
{ACAD_REACTORS
330
B6
102
}
330
B6
100
AcDbScale
 70
     0
300
1:4
140
1.0
141
4.0
290
     0
  0
SCALE
  5
BA
102
{ACAD_REACTORS
330
B6
102
}
330
B6
100
AcDbScale
 70
     0
300
1:5
140
1.0
141
5.0
290
     0
  0
SCALE
  5
BB
102
{ACAD_REACTORS
330
B6
102
}
330
B6
100
AcDbScale
 70
     0
300
1:8
140
1.0
141
8.0
290
     0
  0
SCALE
  5
BC
102
{ACAD_REACTORS
330
B6
102
}
330
B6
100
AcDbScale
 70
     0
300
1:10
140
1.0
141
10.0
290
     0
  0
SCALE
  5
BD
102
{ACAD_REACTORS
330
B6
102
}
330
B6
100
AcDbScale
 70
     0
300
1:16
140
1.0
141
16.0
290
     0
  0
SCALE
  5
BE
102
{ACAD_REACTORS
330
B6
102
}
330
B6
100
AcDbScale
 70
     0
300
1:20
140
1.0
141
20.0
290
     0
  0
SCALE
  5
BF
102
{ACAD_REACTORS
330
B6
102
}
330
B6
100
AcDbScale
 70
     0
300
1:30
140
1.0
141
30.0
290
     0
  0
SCALE
  5
C0
102
{ACAD_REACTORS
330
B6
102
}
330
B6
100
AcDbScale
 70
     0
300
1:40
140
1.0
141
40.0
290
     0
  0
SCALE
  5
C1
102
{ACAD_REACTORS
330
B6
102
}
330
B6
100
AcDbScale
 70
     0
300
1:50
140
1.0
141
50.0
290
     0
  0
SCALE
  5
C2
102
{ACAD_REACTORS
330
B6
102
}
330
B6
100
AcDbScale
 70
     0
300
1:100
140
1.0
141
100.0
290
     0
  0
SCALE
  5
C3
102
{ACAD_REACTORS
330
B6
102
}
330
B6
100
AcDbScale
 70
     0
300
2:1
140
2.0
141
1.0
290
     0
  0
SCALE
  5
C4
102
{ACAD_REACTORS
330
B6
102
}
330
B6
100
AcDbScale
 70
     0
300
4:1
140
4.0
141
1.0
290
     0
  0
SCALE
  5
C5
102
{ACAD_REACTORS
330
B6
102
}
330
B6
100
AcDbScale
 70
     0
300
8:1
140
8.0
141
1.0
290
     0
  0
SCALE
  5
C6
102
{ACAD_REACTORS
330
B6
102
}
330
B6
100
AcDbScale
 70
     0
300
10:1
140
10.0
141
1.0
290
     0
  0
SCALE
  5
C7
102
{ACAD_REACTORS
330
B6
102
}
330
B6
100
AcDbScale
 70
     0
300
100:1
140
100.0
141
1.0
290
     0
  0
SCALE
  5
C8
102
{ACAD_REACTORS
330
B6
102
}
330
B6
100
AcDbScale
 70
     0
300
1/128" = 1'-0"
140
0.0078125
141
12.0
290
     0
  0
SCALE
  5
C9
102
{ACAD_REACTORS
330
B6
102
}
330
B6
100
AcDbScale
 70
     0
300
1/64" = 1'-0"
140
0.015625
141
12.0
290
     0
  0
SCALE
  5
CA
102
{ACAD_REACTORS
330
B6
102
}
330
B6
100
AcDbScale
 70
     0
300
1/32" = 1'-0"
140
0.03125
141
12.0
290
     0
  0
SCALE
  5
CB
102
{ACAD_REACTORS
330
B6
102
}
330
B6
100
AcDbScale
 70
     0
300
1/16" = 1'-0"
140
0.0625
141
12.0
290
     0
  0
SCALE
  5
CC
102
{ACAD_REACTORS
330
B6
102
}
330
B6
100
AcDbScale
 70
     0
300
3/32" = 1'-0"
140
0.09375
141
12.0
290
     0
  0
SCALE
  5
CD
102
{ACAD_REACTORS
330
B6
102
}
330
B6
100
AcDbScale
 70
     0
300
1/8" = 1'-0"
140
0.125
141
12.0
290
     0
  0
SCALE
  5
CE
102
{ACAD_REACTORS
330
B6
102
}
330
B6
100
AcDbScale
 70
     0
300
3/16" = 1'-0"
140
0.1875
141
12.0
290
     0
  0
SCALE
  5
CF
102
{ACAD_REACTORS
330
B6
102
}
330
B6
100
AcDbScale
 70
     0
300
1/4" = 1'-0"
140
0.25
141
12.0
290
     0
  0
SCALE
  5
D0
102
{ACAD_REACTORS
330
B6
102
}
330
B6
100
AcDbScale
 70
     0
300
3/8" = 1'-0"
140
0.375
141
12.0
290
     0
  0
SCALE
  5
D1
102
{ACAD_REACTORS
330
B6
102
}
330
B6
100
AcDbScale
 70
     0
300
1/2" = 1'-0"
140
0.5
141
12.0
290
     0
  0
SCALE
  5
D2
102
{ACAD_REACTORS
330
B6
102
}
330
B6
100
AcDbScale
 70
     0
300
3/4" = 1'-0"
140
0.75
141
12.0
290
     0
  0
SCALE
  5
D3
102
{ACAD_REACTORS
330
B6
102
}
330
B6
100
AcDbScale
 70
     0
300
1" = 1'-0"
140
1.0
141
12.0
290
     0
  0
SCALE
  5
D4
102
{ACAD_REACTORS
330
B6
102
}
330
B6
100
AcDbScale
 70
     0
300
1-1/2" = 1'-0"
140
1.5
141
12.0
290
     0
  0
SCALE
  5
D5
102
{ACAD_REACTORS
330
B6
102
}
330
B6
100
AcDbScale
 70
     0
300
3" = 1'-0"
140
3.0
141
12.0
290
     0
  0
SCALE
  5
D6
102
{ACAD_REACTORS
330
B6
102
}
330
B6
100
AcDbScale
 70
     0
300
6" = 1'-0"
140
6.0
141
12.0
290
     0
  0
SCALE
  5
D7
102
{ACAD_REACTORS
330
B6
102
}
330
B6
100
AcDbScale
 70
     0
300
1'-0" = 1'-0"
140
12.0
141
12.0
290
     0
  0
ACAD_PROXY_OBJECT
  5
35B
102
{ACAD_REACTORS
330
123
102
}
102
{ACAD_XDICTIONARY
360
40A
102
}
330
123
100
AcDbProxyObject
 90
      499
 91
      513
 95
  3604511
 70
     0
162
              2536
311
4292401B401C0019401C801A4018401B000C800D0011049002C0020004F002C00200051002C00200053002C00200058002C0020005A005F09400F001700104018C0158018401C80080015801A4019401DC015001E401C0019400800170019800800088009401D0018C00C4008800F800940080009400F001700104018C0158
311
018401C80080015801A4019401DC014C0194018C01D001A401BC01B8014C01D0018401C801D00124019000F8009400B4009400F001700104018C0158018401C80080015801A4019401DC014C0194018C01D001A401BC01B8011401B801900124019000F8009401700140014C010C0104013001140080009400F00170010401
311
8C0158018401C80080015801A4019401DC014C018C018401B0019400800170019800800088009401CC01B8008800F80094010641004E005300490033003100
161
              1261
310
929D000000180005C0F42F5A8DC671FC00000060001703D0BD6A3719C7E5C0F42F5A8DC6F1FA330000001800099400000060001703D0BD6A3719C7E5C0F42F5A8DC671FC00000060001703D0BD6A3719C7E808000000000001D07E80C0000006000400000064003081815AF46E07A158E7E80C8340C16A22A7D90FC9F8CAE6
310
5A70A583A07E1FE81C635378FA1F8CAE65A70A583A17E7944A7F127A97E9F8
340
11
340
0
340
0
340
16
340
16
340
11
 94
        0
  0
TABLESTYLE
  5
87
102
{ACAD_REACTORS
330
86
102
}
102
{ACAD_XDICTIONARY
360
449
102
}
330
86
100
AcDbTableStyle
  3
Standard
 70
     0
 71
     0
 40
0.06
 41
0.06
280
     0
281
     0
  7
Standard
140
0.18
170
     2
 62
     0
 63
   257
283
     0
 90
      512
 91
        0
  1

274
    -2
284
     1
 64
     0
275
    -2
285
     1
 65
     0
276
    -2
286
     1
 66
     0
277
    -2
287
     1
 67
     0
278
    -2
288
     1
 68
     0
279
    -2
289
     1
 69
     0
  7
Standard
140
0.25
170
     5
 62
     0
 63
   257
283
     0
 90
      512
 91
        0
  1

274
    -2
284
     1
 64
     0
275
    -2
285
     1
 65
     0
276
    -2
286
     1
 66
     0
277
    -2
287
     1
 67
     0
278
    -2
288
     1
 68
     0
279
    -2
289
     1
 69
     0
  7
Standard
140
0.18
170
     5
 62
     0
 63
   257
283
     0
 90
      512
 91
        0
  1

274
    -2
284
     1
 64
     0
275
    -2
285
     1
 65
     0
276
    -2
286
     1
 66
     0
277
    -2
287
     1
 67
     0
278
    -2
288
     1
 68
     0
279
    -2
289
     1
 69
     0
  0
VISUALSTYLE
  5
9F
102
{ACAD_REACTORS
330
99
102
}
330
99
100
AcDbVisualStyle
  2
2dWireframe
 70
     4
177
     3
291
     0
 70
    58
 90
        0
176
     1
 90
        2
176
     1
 90
        1
176
     1
 90
        0
176
     1
 40
0.6
176
     1
 40
30.0
176
     1
 62
     7
420
 16777215
176
     1
 90
        1
176
     1
 90
        4
176
     1
 62
     7
176
     1
 62
   257
176
     1
 90
        1
176
     1
 90
        1
176
     1
 40
1.0
176
     1
 90
        0
176
     1
 62
   257
176
     1
 40
1.0
176
     1
 90
        1
176
     1
 90
        6
176
     1
 90
        2
176
     1
 62
     7
176
     1
 90
        5
176
     1
 90
        0
176
     1
 90
        0
176
     1
290
     0
176
     1
 90
        1
176
     1
 40
0.0
176
     1
 90
        0
176
     1
290
     1
176
     1
290
     1
176
     1
290
     0
176
     1
290
     0
176
     1
290
     0
176
     1
290
     0
176
     1
290
     0
176
     1
290
     0
176
     1
290
     0
176
     1
 90
       50
176
     1
 40
0.0
176
     1
 40
1.0
176
     1
 90
        0
176
     1
 62
   178
176
     1
 90
       50
176
     1
 90
        3
176
     1
 62
     5
420
      255
176
     1
290
     0
176
     1
 90
       50
176
     1
 90
       50
176
     1
 90
       50
176
     1
290
     0
176
     1
 90
       50
176
     1
 62
   256
176
     0
 40
1.0
176
     0
 90
        2
176
     1
  1
strokes_ogs.tif
176
     1
290
     0
176
     1
 40
1.0
176
     1
 40
1.0
176
     1
  0
VISUALSTYLE
  5
A1
102
{ACAD_REACTORS
330
99
102
}
330
99
100
AcDbVisualStyle
  2
3D Hidden
 70
     6
177
     3
291
     0
 70
    58
 90
        1
176
     1
 90
        2
176
     1
 90
        2
176
     1
 90
        0
176
     1
 40
0.6
176
     1
 40
30.0
176
     1
 62
     7
420
 16777215
176
     1
 90
        2
176
     1
 90
        2
176
     1
 62
     7
176
     1
 62
   257
176
     1
 90
        2
176
     1
 90
        1
176
     1
 40
40.0
176
     1
 90
        0
176
     1
 62
   257
176
     1
 40
1.0
176
     1
 90
        1
176
     1
 90
        6
176
     1
 90
        2
176
     1
 62
     7
176
     1
 90
        3
176
     1
 90
        0
176
     1
 90
        0
176
     1
290
     0
176
     1
 90
        1
176
     1
 40
0.0
176
     1
 90
        0
176
     1
290
     0
176
     1
290
     1
176
     1
290
     1
176
     1
290
     0
176
     1
290
     0
176
     1
290
     0
176
     1
290
     0
176
     1
290
     0
176
     1
290
     0
176
     1
 90
       50
176
     1
 40
0.0
176
     1
 40
1.0
176
     1
 90
        0
176
     1
 62
   178
176
     1
 90
       50
176
     1
 90
        3
176
     1
 62
     5
420
      255
176
     1
290
     0
176
     1
 90
       50
176
     1
 90
       50
176
     1
 90
       50
176
     1
290
     0
176
     1
 90
       50
176
     1
 62
   256
176
     0
 40
1.0
176
     0
 90
        2
176
     1
  1
strokes_ogs.tif
176
     1
290
     0
176
     1
 40
1.0
176
     1
 40
1.0
176
     1
  0
VISUALSTYLE
  5
A0
102
{ACAD_REACTORS
330
99
102
}
330
99
100
AcDbVisualStyle
  2
3dWireframe
 70
     5
177
     3
291
     0
 70
    58
 90
        0
176
     1
 90
        2
176
     1
 90
        1
176
     1
 90
        0
176
     1
 40
0.6
176
     1
 40
30.0
176
     1
 62
     7
420
 16777215
176
     1
 90
        1
176
     1
 90
        4
176
     1
 62
     7
176
     1
 62
   257
176
     1
 90
        1
176
     1
 90
        1
176
     1
 40
1.0
176
     1
 90
        0
176
     1
 62
   257
176
     1
 40
1.0
176
     1
 90
        1
176
     1
 90
        6
176
     1
 90
        2
176
     1
 62
     7
176
     1
 90
        5
176
     1
 90
        0
176
     1
 90
        0
176
     1
290
     0
176
     1
 90
        1
176
     1
 40
0.0
176
     1
 90
        0
176
     1
290
     0
176
     1
290
     1
176
     1
290
     1
176
     1
290
     0
176
     1
290
     0
176
     1
290
     0
176
     1
290
     0
176
     1
290
     0
176
     1
290
     0
176
     1
 90
       50
176
     1
 40
0.0
176
     1
 40
1.0
176
     1
 90
        0
176
     1
 62
   178
176
     1
 90
       50
176
     1
 90
        3
176
     1
 62
     5
420
      255
176
     1
290
     0
176
     1
 90
       50
176
     1
 90
       50
176
     1
 90
       50
176
     1
290
     0
176
     1
 90
       50
176
     1
 62
   256
176
     0
 40
1.0
176
     0
 90
        2
176
     1
  1
strokes_ogs.tif
176
     1
290
     0
176
     1
 40
1.0
176
     1
 40
1.0
176
     1
  0
VISUALSTYLE
  5
9E
102
{ACAD_REACTORS
330
99
102
}
330
99
100
AcDbVisualStyle
  2
Basic
 70
     7
177
     3
291
     1
 70
    58
 90
        1
176
     1
 90
        0
176
     1
 90
        1
176
     1
 90
        0
176
     1
 40
0.6
176
     1
 40
30.0
176
     1
 62
     7
420
 16777215
176
     1
 90
        0
176
     1
 90
        4
176
     1
 62
     7
176
     1
 62
   257
176
     1
 90
        1
176
     1
 90
        1
176
     1
 40
1.0
176
     1
 90
        8
176
     1
 62
     7
176
     1
 40
1.0
176
     1
 90
        1
176
     1
 90
        6
176
     1
 90
        2
176
     1
 62
     7
176
     1
 90
        5
176
     1
 90
        0
176
     1
 90
        0
176
     1
290
     0
176
     1
 90
        1
176
     1
 40
0.0
176
     1
 90
        0
176
     1
290
     0
176
     1
290
     1
176
     1
290
     1
176
     1
290
     0
176
     1
290
     0
176
     1
290
     0
176
     1
290
     0
176
     1
290
     0
176
     1
290
     0
176
     1
 90
       50
176
     1
 40
0.0
176
     1
 40
1.0
176
     1
 90
        0
176
     1
 62
   178
176
     1
 90
       50
176
     1
 90
        3
176
     1
 62
     5
420
      255
176
     1
290
     0
176
     1
 90
       50
176
     1
 90
       50
176
     1
 90
       50
176
     1
290
     0
176
     1
 90
       50
176
     1
 62
   256
176
     0
 40
1.0
176
     0
 90
        2
176
     1
  1
strokes_ogs.tif
176
     1
290
     0
176
     1
 40
1.0
176
     1
 40
1.0
176
     1
  0
VISUALSTYLE
  5
A5
102
{ACAD_REACTORS
330
99
102
}
330
99
100
AcDbVisualStyle
  2
Brighten
 70
    12
177
     3
291
     1
 70
    58
 90
        2
176
     1
 90
        2
176
     1
 90
        1
176
     1
 90
        0
176
     1
 40
0.6
176
     1
 40
30.0
176
     1
 62
     7
420
 16777215
176
     1
 90
        1
176
     1
 90
        4
176
     1
 62
     7
176
     1
 62
   257
176
     1
 90
        1
176
     1
 90
        1
176
     1
 40
1.0
176
     1
 90
        8
176
     1
 62
     7
176
     1
 40
1.0
176
     1
 90
        1
176
     1
 90
        6
176
     1
 90
        2
176
     1
 62
     7
176
     1
 90
        5
176
     1
 90
        0
176
     1
 90
        0
176
     1
290
     0
176
     1
 90
        1
176
     1
 40
50.0
176
     1
 90
        0
176
     1
290
     0
176
     1
290
     1
176
     1
290
     1
176
     1
290
     0
176
     1
290
     0
176
     1
290
     0
176
     1
290
     0
176
     1
290
     0
176
     1
290
     0
176
     1
 90
       50
176
     1
 40
0.0
176
     1
 40
1.0
176
     1
 90
        0
176
     1
 62
   178
176
     1
 90
       50
176
     1
 90
        3
176
     1
 62
     5
420
      255
176
     1
290
     0
176
     1
 90
       50
176
     1
 90
       50
176
     1
 90
       50
176
     1
290
     0
176
     1
 90
       50
176
     1
 62
   256
176
     0
 40
1.0
176
     0
 90
        2
176
     1
  1
strokes_ogs.tif
176
     1
290
     0
176
     1
 40
1.0
176
     1
 40
1.0
176
     1
  0
VISUALSTYLE
  5
A9
102
{ACAD_REACTORS
330
99
102
}
330
99
100
AcDbVisualStyle
  2
ColorChange
 70
    16
177
     3
291
     1
 70
    58
 90
        2
176
     1
 90
        2
176
     1
 90
        3
176
     1
 90
        0
176
     1
 40
0.6
176
     1
 40
30.0
176
     1
 62
     8
420
  8421504
176
     1
 90
        1
176
     1
 90
        4
176
     1
 62
     7
176
     1
 62
   257
176
     1
 90
        1
176
     1
 90
        1
176
     1
 40
1.0
176
     1
 90
        8
176
     1
 62
     8
420
  8421504
176
     1
 40
1.0
176
     1
 90
        1
176
     1
 90
        6
176
     1
 90
        2
176
     1
 62
     7
176
     1
 90
        5
176
     1
 90
        0
176
     1
 90
        0
176
     1
290
     0
176
     1
 90
        1
176
     1
 40
0.0
176
     1
 90
        0
176
     1
290
     0
176
     1
290
     1
176
     1
290
     1
176
     1
290
     0
176
     1
290
     0
176
     1
290
     0
176
     1
290
     0
176
     1
290
     0
176
     1
290
     0
176
     1
 90
       50
176
     1
 40
0.0
176
     1
 40
1.0
176
     1
 90
        0
176
     1
 62
   178
176
     1
 90
       50
176
     1
 90
        3
176
     1
 62
     5
420
      255
176
     1
290
     0
176
     1
 90
       50
176
     1
 90
       50
176
     1
 90
       50
176
     1
290
     0
176
     1
 90
       50
176
     1
 62
   256
176
     0
 40
1.0
176
     0
 90
        2
176
     1
  1
strokes_ogs.tif
176
     1
290
     0
176
     1
 40
1.0
176
     1
 40
1.0
176
     1
  0
VISUALSTYLE
  5
A2
102
{ACAD_REACTORS
330
99
102
}
330
99
100
AcDbVisualStyle
  2
Conceptual
 70
     9
177
     3
291
     0
 70
    58
 90
        3
176
     1
 90
        2
176
     1
 90
        1
176
     1
 90
        0
176
     1
 40
0.6
176
     1
 40
30.0
176
     1
 62
     7
420
 16777215
176
     1
 90
        2
176
     1
 90
        2
176
     1
 62
     7
176
     1
 62
   257
176
     1
 90
        1
176
     1
 90
        1
176
     1
 40
40.0
176
     1
 90
        8
176
     1
 62
     7
176
     1
 40
1.0
176
     1
 90
        1
176
     1
 90
        6
176
     1
 90
        2
176
     1
 62
     7
176
     1
 90
        3
176
     1
 90
        0
176
     1
 90
        0
176
     1
290
     0
176
     1
 90
        1
176
     1
 40
0.0
176
     1
 90
        0
176
     1
290
     0
176
     1
290
     1
176
     1
290
     1
176
     1
290
     0
176
     1
290
     0
176
     1
290
     0
176
     1
290
     0
176
     1
290
     0
176
     1
290
     0
176
     1
 90
       50
176
     1
 40
0.0
176
     1
 40
1.0
176
     1
 90
        0
176
     1
 62
   178
176
     1
 90
       50
176
     1
 90
        3
176
     1
 62
     5
420
      255
176
     1
290
     0
176
     1
 90
       50
176
     1
 90
       50
176
     1
 90
       50
176
     1
290
     0
176
     1
 90
       50
176
     1
 62
   256
176
     0
 40
1.0
176
     0
 90
        2
176
     1
  1
strokes_ogs.tif
176
     1
290
     0
176
     1
 40
1.0
176
     1
 40
1.0
176
     1
  0
VISUALSTYLE
  5
A4
102
{ACAD_REACTORS
330
99
102
}
330
99
100
AcDbVisualStyle
  2
Dim
 70
    11
177
     3
291
     1
 70
    58
 90
        2
176
     1
 90
        2
176
     1
 90
        1
176
     1
 90
        0
176
     1
 40
0.6
176
     1
 40
30.0
176
     1
 62
     7
420
 16777215
176
     1
 90
        1
176
     1
 90
        4
176
     1
 62
     7
176
     1
 62
   257
176
     1
 90
        1
176
     1
 90
        1
176
     1
 40
1.0
176
     1
 90
        8
176
     1
 62
     7
176
     1
 40
1.0
176
     1
 90
        1
176
     1
 90
        6
176
     1
 90
        2
176
     1
 62
     7
176
     1
 90
        5
176
     1
 90
        0
176
     1
 90
        0
176
     1
290
     0
176
     1
 90
        1
176
     1
 40
-50.0
176
     1
 90
        0
176
     1
290
     0
176
     1
290
     1
176
     1
290
     1
176
     1
290
     0
176
     1
290
     0
176
     1
290
     0
176
     1
290
     0
176
     1
290
     0
176
     1
290
     0
176
     1
 90
       50
176
     1
 40
0.0
176
     1
 40
1.0
176
     1
 90
        0
176
     1
 62
   178
176
     1
 90
       50
176
     1
 90
        3
176
     1
 62
     5
420
      255
176
     1
290
     0
176
     1
 90
       50
176
     1
 90
       50
176
     1
 90
       50
176
     1
290
     0
176
     1
 90
       50
176
     1
 62
   256
176
     0
 40
1.0
176
     0
 90
        2
176
     1
  1
strokes_ogs.tif
176
     1
290
     0
176
     1
 40
1.0
176
     1
 40
1.0
176
     1
  0
VISUALSTYLE
  5
E7
102
{ACAD_REACTORS
330
99
102
}
330
99
100
AcDbVisualStyle
  2
EdgeColorOff
 70
    22
177
     3
291
     1
 70
    58
 90
        2
176
     0
 90
        2
176
     0
 90
        0
176
     0
 90
        0
176
     0
 40
0.6
176
     0
 40
30.0
176
     0
 62
     7
420
 16777215
176
     0
 90
        1
176
     0
 90
        4
176
     0
 62
     7
176
     0
 62
   257
176
     0
 90
        1
176
     0
 90
        1
176
     0
 40
1.0
176
     0
 90
        8
176
     2
 62
     7
176
     0
 40
1.0
176
     0
 90
        1
176
     0
 90
        6
176
     0
 90
        2
176
     0
 62
     7
176
     0
 90
        5
176
     0
 90
        0
176
     0
 90
        0
176
     0
290
     0
176
     0
 90
        1
176
     0
 40
0.0
176
     0
 90
        0
176
     0
290
     0
176
     0
290
     1
176
     0
290
     1
176
     0
290
     0
176
     0
290
     0
176
     0
290
     0
176
     0
290
     0
176
     0
290
     0
176
     0
290
     0
176
     0
 90
       50
176
     0
 40
0.0
176
     0
 40
1.0
176
     0
 90
        0
176
     0
 62
   178
176
     0
 90
       50
176
     0
 90
        3
176
     0
 62
     5
420
      255
176
     0
290
     0
176
     0
 90
       50
176
     0
 90
       50
176
     0
 90
       50
176
     0
290
     0
176
     0
 90
       50
176
     0
 62
   256
176
     0
 40
1.0
176
     0
 90
        2
176
     0
  1
strokes_ogs.tif
176
     0
290
     0
176
     0
 40
1.0
176
     0
 40
1.0
176
     0
  0
VISUALSTYLE
  5
A8
102
{ACAD_REACTORS
330
99
102
}
330
99
100
AcDbVisualStyle
  2
Facepattern
 70
    15
177
     3
291
     1
 70
    58
 90
        2
176
     1
 90
        2
176
     1
 90
        1
176
     1
 90
        0
176
     1
 40
0.6
176
     1
 40
30.0
176
     1
 62
     7
420
 16777215
176
     1
 90
        1
176
     1
 90
        4
176
     1
 62
     7
176
     1
 62
   257
176
     1
 90
        1
176
     1
 90
        1
176
     1
 40
1.0
176
     1
 90
        8
176
     1
 62
     7
176
     1
 40
1.0
176
     1
 90
        1
176
     1
 90
        6
176
     1
 90
        2
176
     1
 62
     7
176
     1
 90
        5
176
     1
 90
        0
176
     1
 90
        0
176
     1
290
     0
176
     1
 90
        1
176
     1
 40
0.0
176
     1
 90
        0
176
     1
290
     0
176
     1
290
     1
176
     1
290
     1
176
     1
290
     0
176
     1
290
     0
176
     1
290
     0
176
     1
290
     0
176
     1
290
     0
176
     1
290
     0
176
     1
 90
       50
176
     1
 40
0.0
176
     1
 40
1.0
176
     1
 90
        0
176
     1
 62
   178
176
     1
 90
       50
176
     1
 90
        3
176
     1
 62
     5
420
      255
176
     1
290
     0
176
     1
 90
       50
176
     1
 90
       50
176
     1
 90
       50
176
     1
290
     0
176
     1
 90
       50
176
     1
 62
   256
176
     0
 40
1.0
176
     0
 90
        2
176
     1
  1
strokes_ogs.tif
176
     1
290
     0
176
     1
 40
1.0
176
     1
 40
1.0
176
     1
  0
VISUALSTYLE
  5
9A
102
{ACAD_REACTORS
330
99
102
}
330
99
100
AcDbVisualStyle
  2
Flat
 70
     0
177
     3
291
     1
 70
    58
 90
        2
176
     1
 90
        1
176
     1
 90
        1
176
     1
 90
        2
176
     1
 40
0.6
176
     1
 40
30.0
176
     1
 62
     7
420
 16777215
176
     1
 90
        0
176
     1
 90
        4
176
     1
 62
     7
176
     1
 62
   257
176
     1
 90
        1
176
     1
 90
        1
176
     1
 40
1.0
176
     1
 90
        8
176
     1
 62
     7
176
     1
 40
1.0
176
     1
 90
        1
176
     1
 90
        6
176
     1
 90
        2
176
     1
 62
     7
176
     1
 90
        5
176
     1
 90
        0
176
     1
 90
        0
176
     1
290
     0
176
     1
 90
        1
176
     1
 40
0.0
176
     1
 90
        0
176
     1
290
     0
176
     1
290
     1
176
     1
290
     1
176
     1
290
     0
176
     1
290
     0
176
     1
290
     0
176
     1
290
     0
176
     1
290
     0
176
     1
290
     0
176
     1
 90
       50
176
     1
 40
0.0
176
     1
 40
1.0
176
     1
 90
        0
176
     1
 62
   178
176
     1
 90
       50
176
     1
 90
        3
176
     1
 62
     5
420
      255
176
     1
290
     0
176
     1
 90
       50
176
     1
 90
       50
176
     1
 90
       50
176
     1
290
     0
176
     1
 90
       50
176
     1
 62
   256
176
     0
 40
1.0
176
     0
 90
        2
176
     1
  1
strokes_ogs.tif
176
     1
290
     0
176
     1
 40
1.0
176
     1
 40
1.0
176
     1
  0
VISUALSTYLE
  5
9B
102
{ACAD_REACTORS
330
99
102
}
330
99
100
AcDbVisualStyle
  2
FlatWithEdges
 70
     1
177
     3
291
     1
 70
    58
 90
        2
176
     1
 90
        1
176
     1
 90
        1
176
     1
 90
        2
176
     1
 40
0.6
176
     1
 40
30.0
176
     1
 62
     7
420
 16777215
176
     1
 90
        1
176
     1
 90
        4
176
     1
 62
     7
176
     1
 62
   257
176
     1
 90
        1
176
     1
 90
        1
176
     1
 40
1.0
176
     1
 90
        0
176
     1
 62
   257
176
     1
 40
1.0
176
     1
 90
        1
176
     1
 90
        6
176
     1
 90
        2
176
     1
 62
     7
176
     1
 90
        5
176
     1
 90
        0
176
     1
 90
        0
176
     1
290
     0
176
     1
 90
        1
176
     1
 40
0.0
176
     1
 90
        0
176
     1
290
     0
176
     1
290
     1
176
     1
290
     1
176
     1
290
     0
176
     1
290
     0
176
     1
290
     0
176
     1
290
     0
176
     1
290
     0
176
     1
290
     0
176
     1
 90
       50
176
     1
 40
0.0
176
     1
 40
1.0
176
     1
 90
        0
176
     1
 62
   178
176
     1
 90
       50
176
     1
 90
        3
176
     1
 62
     5
420
      255
176
     1
290
     0
176
     1
 90
       50
176
     1
 90
       50
176
     1
 90
       50
176
     1
290
     0
176
     1
 90
       50
176
     1
 62
   256
176
     0
 40
1.0
176
     0
 90
        2
176
     1
  1
strokes_ogs.tif
176
     1
290
     0
176
     1
 40
1.0
176
     1
 40
1.0
176
     1
  0
VISUALSTYLE
  5
9C
102
{ACAD_REACTORS
330
99
102
}
330
99
100
AcDbVisualStyle
  2
Gouraud
 70
     2
177
     3
291
     1
 70
    58
 90
        2
176
     1
 90
        2
176
     1
 90
        1
176
     1
 90
        2
176
     1
 40
0.6
176
     1
 40
30.0
176
     1
 62
     7
420
 16777215
176
     1
 90
        0
176
     1
 90
        4
176
     1
 62
     7
176
     1
 62
   257
176
     1
 90
        1
176
     1
 90
        1
176
     1
 40
1.0
176
     1
 90
        0
176
     1
 62
     7
176
     1
 40
1.0
176
     1
 90
        1
176
     1
 90
        6
176
     1
 90
        2
176
     1
 62
     7
176
     1
 90
        5
176
     1
 90
        0
176
     1
 90
        0
176
     1
290
     0
176
     1
 90
        1
176
     1
 40
0.0
176
     1
 90
        0
176
     1
290
     0
176
     1
290
     1
176
     1
290
     1
176
     1
290
     0
176
     1
290
     0
176
     1
290
     0
176
     1
290
     0
176
     1
290
     0
176
     1
290
     0
176
     1
 90
       50
176
     1
 40
0.0
176
     1
 40
1.0
176
     1
 90
        0
176
     1
 62
   178
176
     1
 90
       50
176
     1
 90
        3
176
     1
 62
     5
420
      255
176
     1
290
     0
176
     1
 90
       50
176
     1
 90
       50
176
     1
 90
       50
176
     1
290
     0
176
     1
 90
       50
176
     1
 62
   256
176
     0
 40
1.0
176
     0
 90
        2
176
     1
  1
strokes_ogs.tif
176
     1
290
     0
176
     1
 40
1.0
176
     1
 40
1.0
176
     1
  0
VISUALSTYLE
  5
9D
102
{ACAD_REACTORS
330
99
102
}
330
99
100
AcDbVisualStyle
  2
GouraudWithEdges
 70
     3
177
     3
291
     1
 70
    58
 90
        2
176
     1
 90
        2
176
     1
 90
        1
176
     1
 90
        2
176
     1
 40
0.6
176
     1
 40
30.0
176
     1
 62
     7
420
 16777215
176
     1
 90
        1
176
     1
 90
        4
176
     1
 62
     7
176
     1
 62
   257
176
     1
 90
        1
176
     1
 90
        1
176
     1
 40
1.0
176
     1
 90
        0
176
     1
 62
   257
176
     1
 40
1.0
176
     1
 90
        1
176
     1
 90
        6
176
     1
 90
        2
176
     1
 62
     7
176
     1
 90
        5
176
     1
 90
        0
176
     1
 90
        0
176
     1
290
     0
176
     1
 90
        1
176
     1
 40
0.0
176
     1
 90
        0
176
     1
290
     0
176
     1
290
     1
176
     1
290
     1
176
     1
290
     0
176
     1
290
     0
176
     1
290
     0
176
     1
290
     0
176
     1
290
     0
176
     1
290
     0
176
     1
 90
       50
176
     1
 40
0.0
176
     1
 40
1.0
176
     1
 90
        0
176
     1
 62
   178
176
     1
 90
       50
176
     1
 90
        3
176
     1
 62
     5
420
      255
176
     1
290
     0
176
     1
 90
       50
176
     1
 90
       50
176
     1
 90
       50
176
     1
290
     0
176
     1
 90
       50
176
     1
 62
   256
176
     0
 40
1.0
176
     0
 90
        2
176
     1
  1
strokes_ogs.tif
176
     1
290
     0
176
     1
 40
1.0
176
     1
 40
1.0
176
     1
  0
VISUALSTYLE
  5
E4
102
{ACAD_REACTORS
330
99
102
}
330
99
100
AcDbVisualStyle
  2
Hidden
 70
     6
177
     3
291
     0
 70
    58
 90
        1
176
     1
 90
        2
176
     1
 90
        2
176
     1
 90
        0
176
     1
 40
0.6
176
     1
 40
30.0
176
     1
 62
     7
420
 16777215
176
     1
 90
        2
176
     1
 90
        2
176
     1
 62
     7
176
     1
 62
   257
176
     1
 90
        2
176
     1
 90
        1
176
     1
 40
40.0
176
     1
 90
        0
176
     1
 62
   257
176
     1
 40
1.0
176
     1
 90
        1
176
     1
 90
        6
176
     1
 90
        2
176
     1
 62
     7
176
     1
 90
        3
176
     1
 90
        0
176
     1
 90
        0
176
     1
290
     0
176
     1
 90
        1
176
     1
 40
0.0
176
     1
 90
        0
176
     1
290
     0
176
     1
290
     1
176
     1
290
     1
176
     1
290
     0
176
     1
290
     0
176
     1
290
     0
176
     1
290
     0
176
     1
290
     0
176
     1
290
     0
176
     1
 90
       50
176
     1
 40
0.0
176
     1
 40
1.0
176
     1
 90
        0
176
     1
 62
   178
176
     1
 90
       50
176
     1
 90
        3
176
     1
 62
     5
420
      255
176
     1
290
     0
176
     1
 90
       50
176
     1
 90
       50
176
     1
 90
       50
176
     1
290
     0
176
     1
 90
       50
176
     1
 62
   256
176
     0
 40
1.0
176
     0
 90
        2
176
     1
  1
strokes_ogs.tif
176
     1
290
     0
176
     1
 40
1.0
176
     1
 40
1.0
176
     1
  0
VISUALSTYLE
  5
E5
102
{ACAD_REACTORS
330
99
102
}
330
99
100
AcDbVisualStyle
  2
JitterOff
 70
    20
177
     3
291
     1
 70
    58
 90
        2
176
     0
 90
        2
176
     0
 90
        0
176
     0
 90
        0
176
     0
 40
0.6
176
     0
 40
30.0
176
     0
 62
     7
420
 16777215
176
     0
 90
        1
176
     0
 90
        4
176
     0
 62
     7
176
     0
 62
   257
176
     0
 90
        1
176
     0
 90
        1
176
     0
 40
1.0
176
     0
 90
       10
176
     2
 62
     7
176
     0
 40
1.0
176
     0
 90
        1
176
     0
 90
        6
176
     0
 90
        2
176
     0
 62
     7
176
     0
 90
        5
176
     0
 90
        0
176
     0
 90
        0
176
     0
290
     0
176
     0
 90
        1
176
     0
 40
0.0
176
     0
 90
        0
176
     0
290
     0
176
     0
290
     1
176
     0
290
     1
176
     0
290
     0
176
     0
290
     0
176
     0
290
     0
176
     0
290
     0
176
     0
290
     0
176
     0
290
     0
176
     0
 90
       50
176
     0
 40
0.0
176
     0
 40
1.0
176
     0
 90
        0
176
     0
 62
   178
176
     0
 90
       50
176
     0
 90
        3
176
     0
 62
     5
420
      255
176
     0
290
     0
176
     0
 90
       50
176
     0
 90
       50
176
     0
 90
       50
176
     0
290
     0
176
     0
 90
       50
176
     0
 62
   256
176
     0
 40
1.0
176
     0
 90
        2
176
     0
  1
strokes_ogs.tif
176
     0
290
     0
176
     0
 40
1.0
176
     0
 40
1.0
176
     0
  0
VISUALSTYLE
  5
A7
102
{ACAD_REACTORS
330
99
102
}
330
99
100
AcDbVisualStyle
  2
Linepattern
 70
    14
177
     3
291
     1
 70
    58
 90
        2
176
     1
 90
        2
176
     1
 90
        1
176
     1
 90
        0
176
     1
 40
0.6
176
     1
 40
30.0
176
     1
 62
     7
420
 16777215
176
     1
 90
        1
176
     1
 90
        4
176
     1
 62
     7
176
     1
 62
   257
176
     1
 90
        7
176
     1
 90
        7
176
     1
 40
1.0
176
     1
 90
        8
176
     1
 62
     7
176
     1
 40
1.0
176
     1
 90
        1
176
     1
 90
        6
176
     1
 90
        2
176
     1
 62
     7
176
     1
 90
        5
176
     1
 90
        0
176
     1
 90
        0
176
     1
290
     0
176
     1
 90
        1
176
     1
 40
0.0
176
     1
 90
        0
176
     1
290
     0
176
     1
290
     1
176
     1
290
     1
176
     1
290
     0
176
     1
290
     0
176
     1
290
     0
176
     1
290
     0
176
     1
290
     0
176
     1
290
     0
176
     1
 90
       50
176
     1
 40
0.0
176
     1
 40
1.0
176
     1
 90
        0
176
     1
 62
   178
176
     1
 90
       50
176
     1
 90
        3
176
     1
 62
     5
420
      255
176
     1
290
     0
176
     1
 90
       50
176
     1
 90
       50
176
     1
 90
       50
176
     1
290
     0
176
     1
 90
       50
176
     1
 62
   256
176
     0
 40
1.0
176
     0
 90
        2
176
     1
  1
strokes_ogs.tif
176
     1
290
     0
176
     1
 40
1.0
176
     1
 40
1.0
176
     1
  0
VISUALSTYLE
  5
E6
102
{ACAD_REACTORS
330
99
102
}
330
99
100
AcDbVisualStyle
  2
OverhangOff
 70
    21
177
     3
291
     1
 70
    58
 90
        2
176
     0
 90
        2
176
     0
 90
        0
176
     0
 90
        0
176
     0
 40
0.6
176
     0
 40
30.0
176
     0
 62
     7
420
 16777215
176
     0
 90
        1
176
     0
 90
        4
176
     0
 62
     7
176
     0
 62
   257
176
     0
 90
        1
176
     0
 90
        1
176
     0
 40
1.0
176
     0
 90
        9
176
     2
 62
     7
176
     0
 40
1.0
176
     0
 90
        1
176
     0
 90
        6
176
     0
 90
        2
176
     0
 62
     7
176
     0
 90
        5
176
     0
 90
        0
176
     0
 90
        0
176
     0
290
     0
176
     0
 90
        1
176
     0
 40
0.0
176
     0
 90
        0
176
     0
290
     0
176
     0
290
     1
176
     0
290
     1
176
     0
290
     0
176
     0
290
     0
176
     0
290
     0
176
     0
290
     0
176
     0
290
     0
176
     0
290
     0
176
     0
 90
       50
176
     0
 40
0.0
176
     0
 40
1.0
176
     0
 90
        0
176
     0
 62
   178
176
     0
 90
       50
176
     0
 90
        3
176
     0
 62
     5
420
      255
176
     0
290
     0
176
     0
 90
       50
176
     0
 90
       50
176
     0
 90
       50
176
     0
290
     0
176
     0
 90
       50
176
     0
 62
   256
176
     0
 40
1.0
176
     0
 90
        2
176
     0
  1
strokes_ogs.tif
176
     0
290
     0
176
     0
 40
1.0
176
     0
 40
1.0
176
     0
  0
VISUALSTYLE
  5
A3
102
{ACAD_REACTORS
330
99
102
}
330
99
100
AcDbVisualStyle
  2
Realistic
 70
     8
177
     3
291
     0
 70
    58
 90
        2
176
     1
 90
        2
176
     1
 90
        1
176
     1
 90
        0
176
     1
 40
0.6
176
     1
 40
30.0
176
     1
 62
     7
420
 16777215
176
     1
 90
        1
176
     1
 90
        0
176
     1
 62
     7
176
     1
 62
   257
176
     1
 90
        1
176
     1
 90
        1
176
     1
 40
1.0
176
     1
 90
        8
176
     1
 62
     8
420
  7895160
176
     1
 40
1.0
176
     1
 90
        1
176
     1
 90
        6
176
     1
 90
        2
176
     1
 62
     7
176
     1
 90
        5
176
     1
 90
        0
176
     1
 90
        0
176
     1
290
     0
176
     1
 90
       13
176
     1
 40
0.0
176
     1
 90
        0
176
     1
290
     0
176
     1
290
     1
176
     1
290
     1
176
     1
290
     0
176
     1
290
     0
176
     1
290
     0
176
     1
290
     0
176
     1
290
     0
176
     1
290
     0
176
     1
 90
       50
176
     1
 40
0.0
176
     1
 40
1.0
176
     1
 90
        0
176
     1
 62
   178
176
     1
 90
       50
176
     1
 90
        3
176
     1
 62
     5
420
      255
176
     1
290
     0
176
     1
 90
       50
176
     1
 90
       50
176
     1
 90
       50
176
     1
290
     0
176
     1
 90
       50
176
     1
 62
   256
176
     0
 40
1.0
176
     0
 90
        2
176
     1
  1
strokes_ogs.tif
176
     1
290
     0
176
     1
 40
1.0
176
     1
 40
1.0
176
     1
  0
VISUALSTYLE
  5
EC
102
{ACAD_REACTORS
330
99
102
}
330
99
100
AcDbVisualStyle
  2
Shaded
 70
    27
177
     3
291
     0
 70
    58
 90
        2
176
     1
 90
        2
176
     1
 90
        1
176
     1
 90
        2
176
     1
 40
0.6
176
     1
 40
30.0
176
     1
 62
     7
420
 16777215
176
     1
 90
        0
176
     1
 90
        4
176
     1
 62
     7
176
     1
 62
   257
176
     1
 90
        1
176
     1
 90
        1
176
     1
 40
1.0
176
     1
 90
        8
176
     1
 62
   257
176
     1
 40
1.0
176
     1
 90
        1
176
     1
 90
        6
176
     1
 90
        2
176
     1
 62
     8
420
  7895160
176
     1
 90
        3
176
     1
 90
        0
176
     1
 90
        0
176
     1
290
     0
176
     1
 90
        5
176
     1
 40
0.0
176
     1
 90
        0
176
     1
290
     0
176
     1
290
     1
176
     1
290
     1
176
     1
290
     0
176
     1
290
     0
176
     1
290
     0
176
     1
290
     0
176
     1
290
     0
176
     1
290
     0
176
     1
 90
       50
176
     1
 40
0.0
176
     1
 40
1.0
176
     1
 90
        0
176
     1
 62
   178
176
     1
 90
       50
176
     1
 90
        3
176
     1
 62
     5
420
      255
176
     1
290
     0
176
     1
 90
       50
176
     1
 90
       50
176
     1
 90
       50
176
     1
290
     0
176
     1
 90
       50
176
     1
 62
   256
176
     0
 40
1.0
176
     0
 90
        2
176
     1
  1
strokes_ogs.tif
176
     1
290
     0
176
     1
 40
1.0
176
     1
 40
1.0
176
     1
  0
VISUALSTYLE
  5
EB
102
{ACAD_REACTORS
330
99
102
}
330
99
100
AcDbVisualStyle
  2
Shaded with edges
 70
    26
177
     3
291
     0
 70
    58
 90
        2
176
     1
 90
        2
176
     1
 90
        1
176
     1
 90
        2
176
     1
 40
0.6
176
     1
 40
30.0
176
     1
 62
     7
420
 16777215
176
     1
 90
        1
176
     1
 90
       10
176
     1
 62
     7
176
     1
 62
   257
176
     1
 90
        2
176
     1
 90
        1
176
     1
 40
1.0
176
     1
 90
        8
176
     1
 62
   257
176
     1
 40
1.0
176
     1
 90
        1
176
     1
 90
        6
176
     1
 90
        2
176
     1
 62
     7
176
     1
 90
        3
176
     1
 90
        0
176
     1
 90
        0
176
     1
290
     0
176
     1
 90
        5
176
     1
 40
0.0
176
     1
 90
        0
176
     1
290
     0
176
     1
290
     1
176
     1
290
     1
176
     1
290
     0
176
     1
290
     0
176
     1
290
     0
176
     1
290
     0
176
     1
290
     0
176
     1
290
     0
176
     1
 90
       50
176
     1
 40
0.0
176
     1
 40
1.0
176
     1
 90
        0
176
     1
 62
   178
176
     1
 90
       50
176
     1
 90
        3
176
     1
 62
     5
420
      255
176
     1
290
     0
176
     1
 90
       50
176
     1
 90
       50
176
     1
 90
       50
176
     1
290
     0
176
     1
 90
       50
176
     1
 62
   256
176
     0
 40
1.0
176
     0
 90
        2
176
     1
  1
strokes_ogs.tif
176
     1
290
     0
176
     1
 40
1.0
176
     1
 40
1.0
176
     1
  0
VISUALSTYLE
  5
E8
102
{ACAD_REACTORS
330
99
102
}
330
99
100
AcDbVisualStyle
  2
Shades of Gray
 70
    23
177
     3
291
     0
 70
    58
 90
        2
176
     1
 90
        2
176
     1
 90
        3
176
     1
 90
        0
176
     1
 40
0.6
176
     1
 40
30.0
176
     1
 62
     7
420
 16777215
176
     1
 90
        2
176
     1
 90
        2
176
     1
 62
     7
176
     1
 62
     7
176
     1
 90
        1
176
     1
 90
        1
176
     1
 40
40.0
176
     1
 90
        8
176
     1
 62
     7
176
     1
 40
1.0
176
     1
 90
        1
176
     1
 90
        6
176
     1
 90
        2
176
     1
 62
     7
176
     1
 90
        3
176
     1
 90
        0
176
     1
 90
        0
176
     1
290
     0
176
     1
 90
        1
176
     1
 40
0.0
176
     1
 90
        0
176
     1
290
     0
176
     1
290
     1
176
     1
290
     1
176
     1
290
     0
176
     1
290
     0
176
     1
290
     0
176
     1
290
     0
176
     1
290
     0
176
     1
290
     0
176
     1
 90
       50
176
     1
 40
0.0
176
     1
 40
1.0
176
     1
 90
        0
176
     1
 62
   178
176
     1
 90
       50
176
     1
 90
        3
176
     1
 62
     5
420
      255
176
     1
290
     0
176
     1
 90
       50
176
     1
 90
       50
176
     1
 90
       50
176
     1
290
     0
176
     1
 90
       50
176
     1
 62
   256
176
     0
 40
1.0
176
     0
 90
        2
176
     1
  1
strokes_ogs.tif
176
     1
290
     0
176
     1
 40
1.0
176
     1
 40
1.0
176
     1
  0
VISUALSTYLE
  5
E9
102
{ACAD_REACTORS
330
99
102
}
330
99
100
AcDbVisualStyle
  2
Sketchy
 70
    24
177
     3
291
     0
 70
    58
 90
        1
176
     1
 90
        2
176
     1
 90
        2
176
     1
 90
        0
176
     1
 40
0.6
176
     1
 40
30.0
176
     1
 62
     7
420
 16777215
176
     1
 90
        2
176
     1
 90
        2
176
     1
 62
     7
176
     1
 62
     7
176
     1
 90
        1
176
     1
 90
        1
176
     1
 40
40.0
176
     1
 90
       11
176
     1
 62
     7
176
     1
 40
1.0
176
     1
 90
        1
176
     1
 90
        6
176
     1
 90
        2
176
     1
 62
     7
176
     1
 90
        6
176
     1
 90
        0
176
     1
 90
        0
176
     1
290
     0
176
     1
 90
        1
176
     1
 40
0.0
176
     1
 90
        0
176
     1
290
     0
176
     1
290
     1
176
     1
290
     1
176
     1
290
     0
176
     1
290
     0
176
     1
290
     0
176
     1
290
     0
176
     1
290
     0
176
     1
290
     0
176
     1
 90
       50
176
     1
 40
0.0
176
     1
 40
1.0
176
     1
 90
        0
176
     1
 62
   178
176
     1
 90
       50
176
     1
 90
        3
176
     1
 62
     5
420
      255
176
     1
290
     0
176
     1
 90
       50
176
     1
 90
       50
176
     1
 90
       50
176
     1
290
     0
176
     1
 90
       50
176
     1
 62
   256
176
     0
 40
1.0
176
     0
 90
        2
176
     1
  1
strokes_ogs.tif
176
     1
290
     0
176
     1
 40
1.0
176
     1
 40
1.0
176
     1
  0
VISUALSTYLE
  5
A6
102
{ACAD_REACTORS
330
99
102
}
330
99
100
AcDbVisualStyle
  2
Thicken
 70
    13
177
     3
291
     1
 70
    58
 90
        2
176
     1
 90
        2
176
     1
 90
        1
176
     1
 90
        0
176
     1
 40
0.6
176
     1
 40
30.0
176
     1
 62
     7
420
 16777215
176
     1
 90
        1
176
     1
 90
        4
176
     1
 62
     7
176
     1
 62
   257
176
     1
 90
        1
176
     1
 90
        1
176
     1
 40
1.0
176
     1
 90
       12
176
     1
 62
     7
176
     1
 40
1.0
176
     1
 90
        1
176
     1
 90
        6
176
     1
 90
        2
176
     1
 62
     7
176
     1
 90
        5
176
     1
 90
        0
176
     1
 90
        0
176
     1
290
     0
176
     1
 90
        1
176
     1
 40
0.0
176
     1
 90
        0
176
     1
290
     0
176
     1
290
     1
176
     1
290
     1
176
     1
290
     0
176
     1
290
     0
176
     1
290
     0
176
     1
290
     0
176
     1
290
     0
176
     1
290
     0
176
     1
 90
       50
176
     1
 40
0.0
176
     1
 40
1.0
176
     1
 90
        0
176
     1
 62
   178
176
     1
 90
       50
176
     1
 90
        3
176
     1
 62
     5
420
      255
176
     1
290
     0
176
     1
 90
       50
176
     1
 90
       50
176
     1
 90
       50
176
     1
290
     0
176
     1
 90
       50
176
     1
 62
   256
176
     0
 40
1.0
176
     0
 90
        2
176
     1
  1
strokes_ogs.tif
176
     1
290
     0
176
     1
 40
1.0
176
     1
 40
1.0
176
     1
  0
VISUALSTYLE
  5
E3
102
{ACAD_REACTORS
330
99
102
}
330
99
100
AcDbVisualStyle
  2
Wireframe
 70
     5
177
     3
291
     0
 70
    58
 90
        0
176
     1
 90
        2
176
     1
 90
        0
176
     1
 90
        0
176
     1
 40
0.6
176
     1
 40
30.0
176
     1
 62
     7
420
 16777215
176
     1
 90
        1
176
     1
 90
        4
176
     1
 62
     7
176
     1
 62
   257
176
     1
 90
        1
176
     1
 90
        1
176
     1
 40
1.0
176
     1
 90
        0
176
     1
 62
   257
176
     1
 40
1.0
176
     1
 90
        1
176
     1
 90
        6
176
     1
 90
        2
176
     1
 62
     7
176
     1
 90
        3
176
     1
 90
        0
176
     1
 90
        0
176
     1
290
     0
176
     1
 90
        1
176
     1
 40
0.0
176
     1
 90
        0
176
     1
290
     0
176
     1
290
     1
176
     1
290
     1
176
     1
290
     0
176
     1
290
     0
176
     1
290
     0
176
     1
290
     0
176
     1
290
     0
176
     1
290
     0
176
     1
 90
       50
176
     1
 40
0.0
176
     1
 40
1.0
176
     1
 90
        0
176
     1
 62
   178
176
     1
 90
       50
176
     1
 90
        3
176
     1
 62
     5
420
      255
176
     1
290
     0
176
     1
 90
       50
176
     1
 90
       50
176
     1
 90
       50
176
     1
290
     0
176
     1
 90
       50
176
     1
 62
   256
176
     0
 40
1.0
176
     0
 90
        2
176
     1
  1
strokes_ogs.tif
176
     1
290
     0
176
     1
 40
1.0
176
     1
 40
1.0
176
     1
  0
VISUALSTYLE
  5
EA
102
{ACAD_REACTORS
330
99
102
}
330
99
100
AcDbVisualStyle
  2
X-Ray
 70
    25
177
     3
291
     0
 70
    58
 90
        2
176
     1
 90
        2
176
     1
 90
        1
176
     1
 90
        1
176
     1
 40
0.5
176
     1
 40
30.0
176
     1
 62
     7
420
 16777215
176
     1
 90
        1
176
     1
 90
        0
176
     1
 62
     7
176
     1
 62
   257
176
     1
 90
        1
176
     1
 90
        1
176
     1
 40
1.0
176
     1
 90
        8
176
     1
 62
     7
176
     1
 40
1.0
176
     1
 90
        1
176
     1
 90
        6
176
     1
 90
        2
176
     1
 62
     7
176
     1
 90
        3
176
     1
 90
        0
176
     1
 90
        0
176
     1
290
     0
176
     1
 90
       13
176
     1
 40
0.0
176
     1
 90
        0
176
     1
290
     0
176
     1
290
     1
176
     1
290
     1
176
     1
290
     0
176
     1
290
     0
176
     1
290
     0
176
     1
290
     0
176
     1
290
     0
176
     1
290
     0
176
     1
 90
       50
176
     1
 40
0.0
176
     1
 40
1.0
176
     1
 90
        0
176
     1
 62
   178
176
     1
 90
       50
176
     1
 90
        3
176
     1
 62
     5
420
      255
176
     1
290
     0
176
     1
 90
       50
176
     1
 90
       50
176
     1
 90
       50
176
     1
290
     0
176
     1
 90
       50
176
     1
 62
   256
176
     0
 40
1.0
176
     0
 90
        2
176
     1
  1
strokes_ogs.tif
176
     1
290
     0
176
     1
 40
1.0
176
     1
 40
1.0
176
     1
  0
DICTIONARYVAR
  5
D8
102
{ACAD_REACTORS
330
66
102
}
330
66
100
DictionaryVariables
280
     0
  1
1:1
  0
DICTIONARYVAR
  5
40F
102
{ACAD_REACTORS
330
66
102
}
330
66
100
DictionaryVariables
280
     0
  1
Standard
  0
DICTIONARYVAR
  5
89
102
{ACAD_REACTORS
330
66
102
}
330
66
100
DictionaryVariables
280
     0
  1
Standard
  0
DICTIONARYVAR
  5
410
102
{ACAD_REACTORS
330
66
102
}
330
66
100
DictionaryVariables
280
     0
  1
Imperial24
  0
DICTIONARYVAR
  5
411
102
{ACAD_REACTORS
330
66
102
}
330
66
100
DictionaryVariables
280
     0
  1
Imperial24
  0
DICTIONARYVAR
  5
67
102
{ACAD_REACTORS
330
66
102
}
330
66
100
DictionaryVariables
280
     0
  1
2
  0
DICTIONARYVAR
  5
6B
102
{ACAD_REACTORS
330
66
102
}
330
66
100
DictionaryVariables
280
     0
  1
1
  0
DICTIONARYVAR
  5
DF
102
{ACAD_REACTORS
330
66
102
}
330
66
100
DictionaryVariables
280
     0
  1
0
  0
DICTIONARYVAR
  5
E0
102
{ACAD_REACTORS
330
66
102
}
330
66
100
DictionaryVariables
280
     0
  1
0
  0
DICTIONARY
  5
40C
330
35C
100
AcDbDictionary
280
     1
281
     1
  3
ACAD_XREC_ROUNDTRIP
360
40D
  0
DICTIONARY
  5
40A
330
35B
100
AcDbDictionary
280
     1
281
     1
  3
ACAD_XREC_ROUNDTRIP
360
40B
  0
DICTIONARY
  5
449
330
87
100
AcDbDictionary
280
     1
281
     1
  3
ACAD_ROUNDTRIP_2008_TABLESTYLE_CELLSTYLEMAP
360
44A
  0
XRECORD
  5
40D
102
{ACAD_REACTORS
330
40C
102
}
330
40C
100
AcDbXrecord
280
     1
102
DISPLAYNAME
  1
Imperial24
102
FLAGS
 90
        0
  0
XRECORD
  5
40B
102
{ACAD_REACTORS
330
40A
102
}
330
40A
100
AcDbXrecord
280
     1
102
DISPLAYNAME
  1
Imperial24
102
FLAGS
 90
        0
  0
CELLSTYLEMAP
  5
44A
102
{ACAD_REACTORS
330
449
102
}
330
449
100
AcDbCellStyleMap
 90
        3
300
CELLSTYLE
  1
TABLEFORMAT_BEGIN
 90
        5
170
     1
 91
        0
 92
    32768
 62
   257
 93
        1
300
CONTENTFORMAT
  1
CONTENTFORMAT_BEGIN
 90
        0
 91
        0
 92
      512
 93
        0
300

 40
0.0
140
1.0
 94
        5
 62
     0
340
11
144
0.25
309
CONTENTFORMAT_END
171
     1
301
MARGIN
  1
CELLMARGIN_BEGIN
 40
0.06
 40
0.06
 40
0.06
 40
0.06
 40
0.18
 40
0.18
309
CELLMARGIN_END
 94
        6
 95
        1
302
GRIDFORMAT
  1
GRIDFORMAT_BEGIN
 90
        0
 91
        1
 62
     0
 92
       -2
340
0
 93
        0
 40
0.045
309
GRIDFORMAT_END
 95
        2
302
GRIDFORMAT
  1
GRIDFORMAT_BEGIN
 90
        0
 91
        1
 62
     0
 92
       -2
340
0
 93
        0
 40
0.045
309
GRIDFORMAT_END
 95
        4
302
GRIDFORMAT
  1
GRIDFORMAT_BEGIN
 90
        0
 91
        1
 62
     0
 92
       -2
340
0
 93
        0
 40
0.045
309
GRIDFORMAT_END
 95
        8
302
GRIDFORMAT
  1
GRIDFORMAT_BEGIN
 90
        0
 91
        1
 62
     0
 92
       -2
340
0
 93
        0
 40
0.045
309
GRIDFORMAT_END
 95
       16
302
GRIDFORMAT
  1
GRIDFORMAT_BEGIN
 90
        0
 91
        1
 62
     0
 92
       -2
340
0
 93
        0
 40
0.045
309
GRIDFORMAT_END
 95
       32
302
GRIDFORMAT
  1
GRIDFORMAT_BEGIN
 90
        0
 91
        1
 62
     0
 92
       -2
340
0
 93
        0
 40
0.045
309
GRIDFORMAT_END
309
TABLEFORMAT_END
  1
CELLSTYLE_BEGIN
 90
        1
 91
        1
300
_TITLE
309
CELLSTYLE_END
300
CELLSTYLE
  1
TABLEFORMAT_BEGIN
 90
        5
170
     1
 91
        0
 92
        0
 62
   257
 93
        1
300
CONTENTFORMAT
  1
CONTENTFORMAT_BEGIN
 90
        0
 91
        0
 92
      512
 93
        0
300

 40
0.0
140
1.0
 94
        5
 62
     0
340
11
144
0.18
309
CONTENTFORMAT_END
171
     1
301
MARGIN
  1
CELLMARGIN_BEGIN
 40
0.06
 40
0.06
 40
0.06
 40
0.06
 40
0.18
 40
0.18
309
CELLMARGIN_END
 94
        6
 95
        1
302
GRIDFORMAT
  1
GRIDFORMAT_BEGIN
 90
        0
 91
        1
 62
     0
 92
       -2
340
0
 93
        0
 40
0.045
309
GRIDFORMAT_END
 95
        2
302
GRIDFORMAT
  1
GRIDFORMAT_BEGIN
 90
        0
 91
        1
 62
     0
 92
       -2
340
0
 93
        0
 40
0.045
309
GRIDFORMAT_END
 95
        4
302
GRIDFORMAT
  1
GRIDFORMAT_BEGIN
 90
        0
 91
        1
 62
     0
 92
       -2
340
0
 93
        0
 40
0.045
309
GRIDFORMAT_END
 95
        8
302
GRIDFORMAT
  1
GRIDFORMAT_BEGIN
 90
        0
 91
        1
 62
     0
 92
       -2
340
0
 93
        0
 40
0.045
309
GRIDFORMAT_END
 95
       16
302
GRIDFORMAT
  1
GRIDFORMAT_BEGIN
 90
        0
 91
        1
 62
     0
 92
       -2
340
0
 93
        0
 40
0.045
309
GRIDFORMAT_END
 95
       32
302
GRIDFORMAT
  1
GRIDFORMAT_BEGIN
 90
        0
 91
        1
 62
     0
 92
       -2
340
0
 93
        0
 40
0.045
309
GRIDFORMAT_END
309
TABLEFORMAT_END
  1
CELLSTYLE_BEGIN
 90
        2
 91
        1
300
_HEADER
309
CELLSTYLE_END
300
CELLSTYLE
  1
TABLEFORMAT_BEGIN
 90
        5
170
     1
 91
        0
 92
        0
 62
   257
 93
        1
300
CONTENTFORMAT
  1
CONTENTFORMAT_BEGIN
 90
        0
 91
        0
 92
      512
 93
        0
300

 40
0.0
140
1.0
 94
        2
 62
     0
340
11
144
0.18
309
CONTENTFORMAT_END
171
     1
301
MARGIN
  1
CELLMARGIN_BEGIN
 40
0.06
 40
0.06
 40
0.06
 40
0.06
 40
0.18
 40
0.18
309
CELLMARGIN_END
 94
        6
 95
        1
302
GRIDFORMAT
  1
GRIDFORMAT_BEGIN
 90
        0
 91
        1
 62
     0
 92
       -2
340
0
 93
        0
 40
0.045
309
GRIDFORMAT_END
 95
        2
302
GRIDFORMAT
  1
GRIDFORMAT_BEGIN
 90
        0
 91
        1
 62
     0
 92
       -2
340
0
 93
        0
 40
0.045
309
GRIDFORMAT_END
 95
        4
302
GRIDFORMAT
  1
GRIDFORMAT_BEGIN
 90
        0
 91
        1
 62
     0
 92
       -2
340
0
 93
        0
 40
0.045
309
GRIDFORMAT_END
 95
        8
302
GRIDFORMAT
  1
GRIDFORMAT_BEGIN
 90
        0
 91
        1
 62
     0
 92
       -2
340
0
 93
        0
 40
0.045
309
GRIDFORMAT_END
 95
       16
302
GRIDFORMAT
  1
GRIDFORMAT_BEGIN
 90
        0
 91
        1
 62
     0
 92
       -2
340
0
 93
        0
 40
0.045
309
GRIDFORMAT_END
 95
       32
302
GRIDFORMAT
  1
GRIDFORMAT_BEGIN
 90
        0
 91
        1
 62
     0
 92
       -2
340
0
 93
        0
 40
0.045
309
GRIDFORMAT_END
309
TABLEFORMAT_END
  1
CELLSTYLE_BEGIN
 90
        3
 91
        2
300
_DATA
309
CELLSTYLE_END
  0
ENDSEC
  0
EOF
