  0
SECTION
  2
HEADER
  9
$ACADVER
  1
AC1027
  9
$ACADMAINTVER
 70
     8
  9
$DWGCODEPAGE
  3
ANSI_932
  9
$REQUIREDVERSIONS
160
                 0
  9
$LASTSAVEDBY
  1
Yasu
  9
$INSBASE
 10
0.0
 20
0.0
 30
0.0
  9
$EXTMIN
 10
28.36213708140799
 20
27.80130976518603
 30
0.0
  9
$EXTMAX
 10
383.3410612471653
 20
244.6116450603454
 30
0.0
  9
$LIMMIN
 10
0.0
 20
0.0
  9
$LIMMAX
 10
12.0
 20
9.0
  9
$ORTHOMODE
 70
     0
  9
$REGENMODE
 70
     1
  9
$FILLMODE
 70
     1
  9
$QTEXTMODE
 70
     0
  9
$MIRRTEXT
 70
     0
  9
$LTSCALE
 40
1.0
  9
$ATTMODE
 70
     1
  9
$TEXTSIZE
 40
0.2
  9
$TRACEWID
 40
0.05
  9
$TEXTSTYLE
  7
Standard
  9
$CLAYER
  8
0
  9
$CELTYPE
  6
ByLayer
  9
$CECOLOR
 62
   256
  9
$CELTSCALE
 40
1.0
  9
$DISPSILH
 70
     0
  9
$DIMSCALE
 40
1.0
  9
$DIMASZ
 40
0.18
  9
$DIMEXO
 40
0.0625
  9
$DIMDLI
 40
0.38
  9
$DIMRND
 40
0.0
  9
$DIMDLE
 40
0.0
  9
$DIMEXE
 40
0.18
  9
$DIMTP
 40
0.0
  9
$DIMTM
 40
0.0
  9
$DIMTXT
 40
0.18
  9
$DIMCEN
 40
0.09
  9
$DIMTSZ
 40
0.0
  9
$DIMTOL
 70
     0
  9
$DIMLIM
 70
     0
  9
$DIMTIH
 70
     1
  9
$DIMTOH
 70
     1
  9
$DIMSE1
 70
     0
  9
$DIMSE2
 70
     0
  9
$DIMTAD
 70
     0
  9
$DIMZIN
 70
     0
  9
$DIMBLK
  1

  9
$DIMASO
 70
     1
  9
$DIMSHO
 70
     1
  9
$DIMPOST
  1

  9
$DIMAPOST
  1

  9
$DIMALT
 70
     0
  9
$DIMALTD
 70
     2
  9
$DIMALTF
 40
25.4
  9
$DIMLFAC
 40
1.0
  9
$DIMTOFL
 70
     0
  9
$DIMTVP
 40
0.0
  9
$DIMTIX
 70
     0
  9
$DIMSOXD
 70
     0
  9
$DIMSAH
 70
     0
  9
$DIMBLK1
  1

  9
$DIMBLK2
  1

  9
$DIMSTYLE
  2
Standard
  9
$DIMCLRD
 70
     0
  9
$DIMCLRE
 70
     0
  9
$DIMCLRT
 70
     0
  9
$DIMTFAC
 40
1.0
  9
$DIMGAP
 40
0.09
  9
$DIMJUST
 70
     0
  9
$DIMSD1
 70
     0
  9
$DIMSD2
 70
     0
  9
$DIMTOLJ
 70
     1
  9
$DIMTZIN
 70
     0
  9
$DIMALTZ
 70
     0
  9
$DIMALTTZ
 70
     0
  9
$DIMUPT
 70
     0
  9
$DIMDEC
 70
     4
  9
$DIMTDEC
 70
     4
  9
$DIMALTU
 70
     2
  9
$DIMALTTD
 70
     2
  9
$DIMTXSTY
  7
Standard
  9
$DIMAUNIT
 70
     0
  9
$DIMADEC
 70
     0
  9
$DIMALTRND
 40
0.0
  9
$DIMAZIN
 70
     0
  9
$DIMDSEP
 70
    46
  9
$DIMATFIT
 70
     3
  9
$DIMFRAC
 70
     0
  9
$DIMLDRBLK
  1

  9
$DIMLUNIT
 70
     2
  9
$DIMLWD
 70
    -2
  9
$DIMLWE
 70
    -2
  9
$DIMTMOVE
 70
     0
  9
$DIMFXL
 40
1.0
  9
$DIMFXLON
 70
     0
  9
$DIMJOGANG
 40
0.7853981633974483
  9
$DIMTFILL
 70
     0
  9
$DIMTFILLCLR
 70
     0
  9
$DIMARCSYM
 70
     0
  9
$DIMLTYPE
  6

  9
$DIMLTEX1
  6

  9
$DIMLTEX2
  6

  9
$DIMTXTDIRECTION
 70
     0
  9
$LUNITS
 70
     2
  9
$LUPREC
 70
     4
  9
$SKETCHINC
 40
0.1
  9
$FILLETRAD
 40
0.0
  9
$AUNITS
 70
     0
  9
$AUPREC
 70
     0
  9
$MENU
  1
.
  9
$ELEVATION
 40
0.0
  9
$PELEVATION
 40
0.0
  9
$THICKNESS
 40
0.0
  9
$LIMCHECK
 70
     0
  9
$CHAMFERA
 40
0.0
  9
$CHAMFERB
 40
0.0
  9
$CHAMFERC
 40
0.0
  9
$CHAMFERD
 40
0.0
  9
$SKPOLY
 70
     0
  9
$TDCREATE
 40
2452643.438384271
  9
$TDUCREATE
 40
2452643.063384271
  9
$TDUPDATE
 40
2456738.832420625
  9
$TDUUPDATE
 40
2456738.457420625
  9
$TDINDWG
 40
0.0145897222
  9
$TDUSRTIMER
 40
2456738.444252731
  9
$USRTIMER
 70
     1
  9
$ANGBASE
 50
0.0
  9
$ANGDIR
 70
     0
  9
$PDMODE
 70
     0
  9
$PDSIZE
 40
0.0
  9
$PLINEWID
 40
0.0
  9
$SPLFRAME
 70
     0
  9
$SPLINETYPE
 70
     6
  9
$SPLINESEGS
 70
     8
  9
$HANDSEED
  5
7EB
  9
$SURFTAB1
 70
     6
  9
$SURFTAB2
 70
     6
  9
$SURFTYPE
 70
     6
  9
$SURFU
 70
     6
  9
$SURFV
 70
     6
  9
$UCSBASE
  2

  9
$UCSNAME
  2

  9
$UCSORG
 10
0.0
 20
0.0
 30
0.0
  9
$UCSXDIR
 10
1.0
 20
0.0
 30
0.0
  9
$UCSYDIR
 10
0.0
 20
1.0
 30
0.0
  9
$UCSORTHOREF
  2

  9
$UCSORTHOVIEW
 70
     0
  9
$UCSORGTOP
 10
0.0
 20
0.0
 30
0.0
  9
$UCSORGBOTTOM
 10
0.0
 20
0.0
 30
0.0
  9
$UCSORGLEFT
 10
0.0
 20
0.0
 30
0.0
  9
$UCSORGRIGHT
 10
0.0
 20
0.0
 30
0.0
  9
$UCSORGFRONT
 10
0.0
 20
0.0
 30
0.0
  9
$UCSORGBACK
 10
0.0
 20
0.0
 30
0.0
  9
$PUCSBASE
  2

  9
$PUCSNAME
  2

  9
$PUCSORG
 10
0.0
 20
0.0
 30
0.0
  9
$PUCSXDIR
 10
1.0
 20
0.0
 30
0.0
  9
$PUCSYDIR
 10
0.0
 20
1.0
 30
0.0
  9
$PUCSORTHOREF
  2

  9
$PUCSORTHOVIEW
 70
     0
  9
$PUCSORGTOP
 10
0.0
 20
0.0
 30
0.0
  9
$PUCSORGBOTTOM
 10
0.0
 20
0.0
 30
0.0
  9
$PUCSORGLEFT
 10
0.0
 20
0.0
 30
0.0
  9
$PUCSORGRIGHT
 10
0.0
 20
0.0
 30
0.0
  9
$PUCSORGFRONT
 10
0.0
 20
0.0
 30
0.0
  9
$PUCSORGBACK
 10
0.0
 20
0.0
 30
0.0
  9
$USERI1
 70
     0
  9
$USERI2
 70
     0
  9
$USERI3
 70
     0
  9
$USERI4
 70
     0
  9
$USERI5
 70
     0
  9
$USERR1
 40
0.0
  9
$USERR2
 40
0.0
  9
$USERR3
 40
0.0
  9
$USERR4
 40
0.0
  9
$USERR5
 40
0.0
  9
$WORLDVIEW
 70
     1
  9
$SHADEDGE
 70
     3
  9
$SHADEDIF
 70
    70
  9
$TILEMODE
 70
     1
  9
$MAXACTVP
 70
    64
  9
$PINSBASE
 10
0.0
 20
0.0
 30
0.0
  9
$PLIMCHECK
 70
     0
  9
$PEXTMIN
 10
0.0
 20
0.0
 30
0.0
  9
$PEXTMAX
 10
0.0
 20
0.0
 30
0.0
  9
$PLIMMIN
 10
0.0
 20
0.0
  9
$PLIMMAX
 10
0.0
 20
0.0
  9
$UNITMODE
 70
     0
  9
$VISRETAIN
 70
     1
  9
$PLINEGEN
 70
     0
  9
$PSLTSCALE
 70
     1
  9
$TREEDEPTH
 70
  3020
  9
$CMLSTYLE
  2
Standard
  9
$CMLJUST
 70
     0
  9
$CMLSCALE
 40
1.0
  9
$PROXYGRAPHICS
 70
     1
  9
$MEASUREMENT
 70
     0
  9
$CELWEIGHT
370
    -1
  9
$ENDCAPS
280
     0
  9
$JOINSTYLE
280
     0
  9
$LWDISPLAY
290
     0
  9
$INSUNITS
 70
     1
  9
$HYPERLINKBASE
  1

  9
$STYLESHEET
  1

  9
$XEDIT
290
     1
  9
$CEPSNTYPE
380
     0
  9
$PSTYLEMODE
290
     1
  9
$FINGERPRINTGUID
  2
{FDEAD576-A652-11D2-9A35-0060089B3A3F}
  9
$VERSIONGUID
  2
{FBC2AE19-5C5C-49EC-81BC-71B1A3362A02}
  9
$EXTNAMES
290
     1
  9
$PSVPSCALE
 40
0.0
  9
$OLESTARTUP
290
     0
  9
$SORTENTS
280
   127
  9
$INDEXCTL
280
     0
  9
$HIDETEXT
280
     1
  9
$XCLIPFRAME
280
     0
  9
$HALOGAP
280
     0
  9
$OBSCOLOR
 70
   257
  9
$OBSLTYPE
280
     0
  9
$INTERSECTIONDISPLAY
280
     0
  9
$INTERSECTIONCOLOR
 70
   257
  9
$DIMASSOC
280
     2
  9
$PROJECTNAME
  1

  9
$CAMERADISPLAY
290
     0
  9
$LENSLENGTH
 40
50.0
  9
$CAMERAHEIGHT
 40
0.0
  9
$STEPSPERSEC
 40
2.0
  9
$STEPSIZE
 40
6.0
  9
$3DDWFPREC
 40
2.0
  9
$PSOLWIDTH
 40
0.25
  9
$PSOLHEIGHT
 40
4.0
  9
$LOFTANG1
 40
1.570796326794897
  9
$LOFTANG2
 40
1.570796326794897
  9
$LOFTMAG1
 40
0.0
  9
$LOFTMAG2
 40
0.0
  9
$LOFTPARAM
 70
     7
  9
$LOFTNORMALS
280
     1
  9
$LATITUDE
 40
37.795
  9
$LONGITUDE
 40
-122.394
  9
$NORTHDIRECTION
 40
0.0
  9
$TIMEZONE
 70
 -8000
  9
$LIGHTGLYPHDISPLAY
280
     1
  9
$TILEMODELIGHTSYNCH
280
     1
  9
$CMATERIAL
347
96
  9
$SOLIDHIST
280
     1
  9
$SHOWHIST
280
     1
  9
$DWFFRAME
280
     2
  9
$DGNFRAME
280
     0
  9
$REALWORLDSCALE
290
     1
  9
$INTERFERECOLOR
 62
     1
  9
$CSHADOW
280
     0
  9
$SHADOWPLANELOCATION
 40
0.0
  0
ENDSEC
  0
SECTION
  2
CLASSES
  0
CLASS
  1
ACDBDICTIONARYWDFLT
  2
AcDbDictionaryWithDefault
  3
ObjectDBX Classes
 90
        0
 91
        5
280
     0
281
     0
  0
CLASS
  1
ACDBPLACEHOLDER
  2
AcDbPlaceHolder
  3
ObjectDBX Classes
 90
        0
 91
        1
280
     0
281
     0
  0
CLASS
  1
LAYOUT
  2
AcDbLayout
  3
ObjectDBX Classes
 90
        0
 91
        1
280
     0
281
     0
  0
CLASS
  1
DICTIONARYVAR
  2
AcDbDictionaryVar
  3
ObjectDBX Classes
 90
        0
 91
        4
280
     0
281
     0
  0
CLASS
  1
TABLESTYLE
  2
AcDbTableStyle
  3
ObjectDBX Classes
 90
     4095
 91
        5
280
     0
281
     0
  0
CLASS
  1
MATERIAL
  2
AcDbMaterial
  3
ObjectDBX Classes
 90
     1153
 91
        5
280
     0
281
     0
  0
CLASS
  1
VISUALSTYLE
  2
AcDbVisualStyle
  3
ObjectDBX Classes
 90
     4095
 91
        5
280
     0
281
     0
  0
CLASS
  1
SCALE
  2
AcDbScale
  3
ObjectDBX Classes
 90
     1153
 91
        5
280
     0
281
     0
  0
CLASS
  1
CELLSTYLEMAP
  2
AcDbCellStyleMap
  3
ObjectDBX Classes
 90
     1152
 91
        4
280
     0
281
     0
  0
CLASS
  1
RASTERVARIABLES
  2
AcDbRasterVariables
  3
ISM
 90
        0
 91
        5
280
     0
281
     0
  0
CLASS
  1
SUN
  2
AcDbSun
  3
SCENEOE
 90
     1153
 91
        5
280
     0
281
     0
  0
CLASS
  1
DIMASSOC
  2
AcDbDimAssoc
  3
"AcDbDimAssoc|Product Desc:     AcDim ARX App For Dimension|Company:          Autodesk, Inc.|WEB Address:      www.autodesk.com"
 90
        0
 91
        4
280
     0
281
     0
  0
ENDSEC
  0
SECTION
  2
TABLES
  0
TABLE
  2
VPORT
  5
8
330
0
100
AcDbSymbolTable
 70
     1
  0
VPORT
  5
94
330
8
100
AcDbSymbolTableRecord
100
AcDbViewportTableRecord
  2
*Active
 70
     0
 10
0.0
 20
0.0
 11
1.0
 21
1.0
 12
233.5211927302664
 22
155.7451803706277
 13
0.0
 23
0.0
 14
0.5
 24
0.5
 15
0.5
 25
0.5
 16
0.0
 26
0.0
 36
1.0
 17
-27.66959356597977
 27
-19.53870295786197
 37
0.0
 40
221.1465420010626
 41
1.762376237623762
 42
50.0
 43
0.0
 44
0.0
 50
0.0
 51
0.0
 71
    16
 72
  1000
 73
     1
 74
     3
 75
     0
 76
     0
 77
     0
 78
     0
281
     0
 65
     1
110
0.0
120
0.0
130
0.0
111
1.0
121
0.0
131
0.0
112
0.0
122
1.0
132
0.0
 79
     0
146
0.0
348
9F
 60
     2
 61
     5
292
     1
282
     1
141
0.0
142
0.0
 63
   250
421
  3355443
361
ED
  0
ENDTAB
  0
TABLE
  2
LTYPE
  5
5
330
0
100
AcDbSymbolTable
 70
     2
  0
LTYPE
  5
14
330
5
100
AcDbSymbolTableRecord
100
AcDbLinetypeTableRecord
  2
ByBlock
 70
     0
  3

 72
    65
 73
     0
 40
0.0
  0
LTYPE
  5
15
330
5
100
AcDbSymbolTableRecord
100
AcDbLinetypeTableRecord
  2
ByLayer
 70
     0
  3

 72
    65
 73
     0
 40
0.0
  0
LTYPE
  5
16
330
5
100
AcDbSymbolTableRecord
100
AcDbLinetypeTableRecord
  2
Continuous
 70
     0
  3
Solid line
 72
    65
 73
     0
 40
0.0
  0
LTYPE
  5
12D
330
5
100
AcDbSymbolTableRecord
100
AcDbLinetypeTableRecord
  2
CENTER
 70
     0
  3
Center ____ _ ____ _ ____ _ ____ _ ____ _ ____
 72
    65
 73
     4
 40
50.8
 49
31.75
 74
     0
 49
-6.35
 74
     0
 49
6.35
 74
     0
 49
-6.35
 74
     0
  0
ENDTAB
  0
TABLE
  2
LAYER
  5
2
330
0
100
AcDbSymbolTable
 70
     7
  0
LAYER
  5
10
330
2
100
AcDbSymbolTableRecord
100
AcDbLayerTableRecord
  2
0
 70
     0
 62
     7
  6
Continuous
370
    -3
390
F
347
98
348
0
  0
LAYER
  5
125
330
2
100
AcDbSymbolTableRecord
100
AcDbLayerTableRecord
  2
Defpoints
 70
     0
 62
     7
  6
Continuous
290
     0
370
    -3
390
F
347
98
348
0
  0
LAYER
  5
126
102
{ACAD_XDICTIONARY
360
127
102
}
330
2
100
AcDbSymbolTableRecord
100
AcDbLayerTableRecord
  2
文字
 70
     0
 62
     7
  6
Continuous
370
    18
390
F
347
98
348
0
  0
LAYER
  5
12A
102
{ACAD_XDICTIONARY
360
12B
102
}
330
2
100
AcDbSymbolTableRecord
100
AcDbLayerTableRecord
  2
中心線
 70
     0
 62
     7
  6
CENTER
370
    15
390
F
347
98
348
0
  0
LAYER
  5
12E
102
{ACAD_XDICTIONARY
360
12F
102
}
330
2
100
AcDbSymbolTableRecord
100
AcDbLayerTableRecord
  2
実線
 70
     0
 62
     7
  6
Continuous
370
    25
390
F
347
98
348
0
  0
LAYER
  5
131
102
{ACAD_XDICTIONARY
360
132
102
}
330
2
100
AcDbSymbolTableRecord
100
AcDbLayerTableRecord
  2
細線
 70
     0
 62
     7
  6
Continuous
370
     9
390
F
347
98
348
0
  0
LAYER
  5
134
102
{ACAD_XDICTIONARY
360
135
102
}
330
2
100
AcDbSymbolTableRecord
100
AcDbLayerTableRecord
  2
文字・寸法線
 70
     0
 62
     7
  6
Continuous
370
    13
390
F
347
98
348
0
  0
ENDTAB
  0
TABLE
  2
STYLE
  5
3
330
0
100
AcDbSymbolTable
 70
     1
  0
STYLE
  5
11
330
3
100
AcDbSymbolTableRecord
100
AcDbTextStyleTableRecord
  2
Standard
 70
     0
 40
0.0
 41
1.0
 50
0.0
 71
     0
 42
0.2
  3
arial.ttf
  4

1001
ACAD
1000
Arial
1071
        0
  0
ENDTAB
  0
TABLE
  2
VIEW
  5
6
330
0
100
AcDbSymbolTable
 70
     0
  0
ENDTAB
  0
TABLE
  2
UCS
  5
7
330
0
100
AcDbSymbolTable
 70
     0
  0
ENDTAB
  0
TABLE
  2
APPID
  5
9
330
0
100
AcDbSymbolTable
 70
     2
  0
APPID
  5
12
330
9
100
AcDbSymbolTableRecord
100
AcDbRegAppTableRecord
  2
ACAD
 70
     0
  0
APPID
  5
139
330
9
100
AcDbSymbolTableRecord
100
AcDbRegAppTableRecord
  2
ACAD_NAV_VCDISPLAY
 70
     0
  0
ENDTAB
  0
TABLE
  2
DIMSTYLE
  5
A
330
0
100
AcDbSymbolTable
 70
     2
100
AcDbDimStyleTable
  0
DIMSTYLE
105
27
330
A
100
AcDbSymbolTableRecord
100
AcDbDimStyleTableRecord
  2
Standard
 70
     0
178
     0
340
11
  0
DIMSTYLE
105
137
102
{ACAD_REACTORS
330
257
330
25A
330
264
330
29C
330
29D
330
2A0
330
591
330
594
330
595
330
64D
102
}
330
A
100
AcDbSymbolTableRecord
100
AcDbDimStyleTableRecord
  2
ISO-25
 70
     0
 41
2.5
 42
0.625
 43
3.75
 44
1.25
 73
     0
 74
     0
 77
     1
 78
     8
140
3.0
141
2.5
143
0.03937007874016
147
0.625
171
     3
172
     1
178
     0
271
     2
272
     2
274
     3
283
     0
284
     8
340
11
  0
ENDTAB
  0
TABLE
  2
BLOCK_RECORD
  5
1
330
0
100
AcDbSymbolTable
 70
    47
  0
BLOCK_RECORD
  5
1F
330
1
100
AcDbSymbolTableRecord
100
AcDbBlockTableRecord
  2
*Model_Space
340
22
 70
     0
280
     1
281
     0
  0
BLOCK_RECORD
  5
58
330
1
100
AcDbSymbolTableRecord
100
AcDbBlockTableRecord
  2
*Paper_Space
340
59
 70
     0
280
     1
281
     0
  0
BLOCK_RECORD
  5
5D
330
1
100
AcDbSymbolTableRecord
100
AcDbBlockTableRecord
  2
*Paper_Space0
340
5E
 70
     0
280
     1
281
     0
  0
BLOCK_RECORD
  5
15D
330
1
100
AcDbSymbolTableRecord
100
AcDbBlockTableRecord
  2
*D1
340
0
 70
     0
280
     1
281
     0
  0
BLOCK_RECORD
  5
175
330
1
100
AcDbSymbolTableRecord
100
AcDbBlockTableRecord
  2
*D2
340
0
 70
     0
280
     1
281
     0
  0
BLOCK_RECORD
  5
1B7
330
1
100
AcDbSymbolTableRecord
100
AcDbBlockTableRecord
  2
*D3
340
0
 70
     0
280
     1
281
     0
  0
BLOCK_RECORD
  5
1C4
330
1
100
AcDbSymbolTableRecord
100
AcDbBlockTableRecord
  2
*D4
340
0
 70
     0
280
     1
281
     0
  0
BLOCK_RECORD
  5
1D5
330
1
100
AcDbSymbolTableRecord
100
AcDbBlockTableRecord
  2
*D5
340
0
 70
     0
280
     1
281
     0
  0
BLOCK_RECORD
  5
1DE
330
1
100
AcDbSymbolTableRecord
100
AcDbBlockTableRecord
  2
_DotSmall
340
0
102
{BLKREFS
331
1DB
331
309
102
}
 70
     0
280
     1
281
     0
  0
BLOCK_RECORD
  5
1FC
330
1
100
AcDbSymbolTableRecord
100
AcDbBlockTableRecord
  2
*D7
340
0
 70
     0
280
     1
281
     0
  0
BLOCK_RECORD
  5
209
330
1
100
AcDbSymbolTableRecord
100
AcDbBlockTableRecord
  2
*D8
340
0
 70
     0
280
     1
281
     0
  0
BLOCK_RECORD
  5
216
330
1
100
AcDbSymbolTableRecord
100
AcDbBlockTableRecord
  2
*D9
340
0
 70
     0
280
     1
281
     0
  0
BLOCK_RECORD
  5
223
330
1
100
AcDbSymbolTableRecord
100
AcDbBlockTableRecord
  2
*D10
340
0
 70
     0
280
     1
281
     0
  0
BLOCK_RECORD
  5
232
330
1
100
AcDbSymbolTableRecord
100
AcDbBlockTableRecord
  2
*D11
340
0
 70
     0
280
     1
281
     0
  0
BLOCK_RECORD
  5
2D2
330
1
100
AcDbSymbolTableRecord
100
AcDbBlockTableRecord
  2
*D12
340
0
 70
     0
280
     1
281
     0
  0
BLOCK_RECORD
  5
2DE
330
1
100
AcDbSymbolTableRecord
100
AcDbBlockTableRecord
  2
*D13
340
0
 70
     0
280
     1
281
     0
  0
BLOCK_RECORD
  5
2EA
330
1
100
AcDbSymbolTableRecord
100
AcDbBlockTableRecord
  2
*D14
340
0
 70
     0
280
     1
281
     0
  0
BLOCK_RECORD
  5
2F6
330
1
100
AcDbSymbolTableRecord
100
AcDbBlockTableRecord
  2
*D15
340
0
 70
     0
280
     1
281
     0
  0
BLOCK_RECORD
  5
302
330
1
100
AcDbSymbolTableRecord
100
AcDbBlockTableRecord
  2
*D16
340
0
 70
     0
280
     1
281
     0
  0
BLOCK_RECORD
  5
30F
330
1
100
AcDbSymbolTableRecord
100
AcDbBlockTableRecord
  2
*D17
340
0
 70
     0
280
     1
281
     0
  0
BLOCK_RECORD
  5
31B
330
1
100
AcDbSymbolTableRecord
100
AcDbBlockTableRecord
  2
*D18
340
0
 70
     0
280
     1
281
     0
  0
BLOCK_RECORD
  5
327
330
1
100
AcDbSymbolTableRecord
100
AcDbBlockTableRecord
  2
*D19
340
0
 70
     0
280
     1
281
     0
  0
BLOCK_RECORD
  5
333
330
1
100
AcDbSymbolTableRecord
100
AcDbBlockTableRecord
  2
*D20
340
0
 70
     0
280
     1
281
     0
  0
BLOCK_RECORD
  5
33F
330
1
100
AcDbSymbolTableRecord
100
AcDbBlockTableRecord
  2
*D21
340
0
 70
     0
280
     1
281
     0
  0
BLOCK_RECORD
  5
379
330
1
100
AcDbSymbolTableRecord
100
AcDbBlockTableRecord
  2
*D22
340
0
 70
     0
280
     1
281
     0
  0
BLOCK_RECORD
  5
386
330
1
100
AcDbSymbolTableRecord
100
AcDbBlockTableRecord
  2
*D23
340
0
 70
     0
280
     1
281
     0
  0
BLOCK_RECORD
  5
39C
330
1
100
AcDbSymbolTableRecord
100
AcDbBlockTableRecord
  2
*D24
340
0
 70
     0
280
     1
281
     0
  0
BLOCK_RECORD
  5
3CB
330
1
100
AcDbSymbolTableRecord
100
AcDbBlockTableRecord
  2
*D25
340
0
 70
     0
280
     1
281
     0
  0
BLOCK_RECORD
  5
3D7
330
1
100
AcDbSymbolTableRecord
100
AcDbBlockTableRecord
  2
*D26
340
0
 70
     0
280
     1
281
     0
  0
BLOCK_RECORD
  5
3E3
330
1
100
AcDbSymbolTableRecord
100
AcDbBlockTableRecord
  2
*D27
340
0
 70
     0
280
     1
281
     0
  0
BLOCK_RECORD
  5
4BE
330
1
100
AcDbSymbolTableRecord
100
AcDbBlockTableRecord
  2
*D28
340
0
 70
     0
280
     1
281
     0
  0
BLOCK_RECORD
  5
4CB
330
1
100
AcDbSymbolTableRecord
100
AcDbBlockTableRecord
  2
*D29
340
0
 70
     0
280
     1
281
     0
  0
BLOCK_RECORD
  5
4D8
330
1
100
AcDbSymbolTableRecord
100
AcDbBlockTableRecord
  2
*D30
340
0
 70
     0
280
     1
281
     0
  0
BLOCK_RECORD
  5
509
330
1
100
AcDbSymbolTableRecord
100
AcDbBlockTableRecord
  2
*D31
340
0
 70
     0
280
     1
281
     0
  0
BLOCK_RECORD
  5
515
330
1
100
AcDbSymbolTableRecord
100
AcDbBlockTableRecord
  2
*D32
340
0
 70
     0
280
     1
281
     0
  0
BLOCK_RECORD
  5
521
330
1
100
AcDbSymbolTableRecord
100
AcDbBlockTableRecord
  2
*D33
340
0
 70
     0
280
     1
281
     0
  0
BLOCK_RECORD
  5
558
330
1
100
AcDbSymbolTableRecord
100
AcDbBlockTableRecord
  2
*D34
340
0
 70
     0
280
     1
281
     0
  0
BLOCK_RECORD
  5
565
330
1
100
AcDbSymbolTableRecord
100
AcDbBlockTableRecord
  2
*D35
340
0
 70
     0
280
     1
281
     0
  0
BLOCK_RECORD
  5
572
330
1
100
AcDbSymbolTableRecord
100
AcDbBlockTableRecord
  2
*D36
340
0
 70
     0
280
     1
281
     0
  0
BLOCK_RECORD
  5
5A3
330
1
100
AcDbSymbolTableRecord
100
AcDbBlockTableRecord
  2
*D37
340
0
 70
     0
280
     1
281
     0
  0
BLOCK_RECORD
  5
5AF
330
1
100
AcDbSymbolTableRecord
100
AcDbBlockTableRecord
  2
*D38
340
0
 70
     0
280
     1
281
     0
  0
BLOCK_RECORD
  5
5BB
330
1
100
AcDbSymbolTableRecord
100
AcDbBlockTableRecord
  2
*D39
340
0
 70
     0
280
     1
281
     0
  0
BLOCK_RECORD
  5
63B
330
1
100
AcDbSymbolTableRecord
100
AcDbBlockTableRecord
  2
*D40
340
0
 70
     0
280
     1
281
     0
  0
BLOCK_RECORD
  5
64E
330
1
100
AcDbSymbolTableRecord
100
AcDbBlockTableRecord
  2
*D41
340
0
 70
     0
280
     1
281
     0
  0
ENDTAB
  0
ENDSEC
  0
SECTION
  2
BLOCKS
  0
BLOCK
  5
20
330
1F
100
AcDbEntity
  8
0
100
AcDbBlockBegin
  2
*Model_Space
 70
     0
 10
0.0
 20
0.0
 30
0.0
  3
*Model_Space
  1
*Model_Space
  0
ENDBLK
  5
21
330
1F
100
AcDbEntity
  8
0
100
AcDbBlockEnd
  0
BLOCK
  5
5A
330
58
100
AcDbEntity
 67
     1
  8
0
100
AcDbBlockBegin
  2
*Paper_Space
 70
     0
 10
0.0
 20
0.0
 30
0.0
  3
*Paper_Space
  1
*Paper_Space
  0
ENDBLK
  5
5B
330
58
100
AcDbEntity
 67
     1
  8
0
100
AcDbBlockEnd
  0
BLOCK
  5
5F
330
5D
100
AcDbEntity
  8
0
100
AcDbBlockBegin
  2
*Paper_Space0
 70
     0
 10
0.0
 20
0.0
 30
0.0
  3
*Paper_Space0
  1
*Paper_Space0
  0
ENDBLK
  5
60
330
5D
100
AcDbEntity
  8
0
100
AcDbBlockEnd
  0
BLOCK
  5
15E
330
15D
100
AcDbEntity
  8
0
 62
     0
100
AcDbBlockBegin
  2
*D1
 70
     1
 10
0.0
 20
0.0
 30
0.0
  3
*D1
  1
*D2
  0
LINE
  5
15F
330
15D
100
AcDbEntity
  8
文字・寸法線
 62
     0
370
    -2
100
AcDbLine
 10
22.65864443172654
 20
26.95538270801601
 30
0.0
 11
22.65864443172654
 21
0.0
 31
0.0
  0
LINE
  5
160
330
15D
100
AcDbEntity
  8
文字・寸法線
 62
     0
370
    -2
100
AcDbLine
 10
162.6586444317268
 20
26.955382708016
 30
0.0
 11
162.6586444317268
 21
0.0
 31
0.0
  0
LINE
  5
161
330
15D
100
AcDbEntity
  8
文字・寸法線
 62
     0
370
    -2
100
AcDbLine
 10
25.15864443172654
 20
1.25
 30
0.0
 11
160.1586444317268
 21
1.25
 31
0.0
  0
SOLID
  5
162
330
15D
100
AcDbEntity
  8
文字・寸法線
 62
     0
100
AcDbTrace
 10
25.15864443172654
 20
1.666666666666667
 30
0.0
 11
25.15864443172654
 21
0.8333333333333333
 31
0.0
 12
22.65864443172654
 22
1.25
 32
0.0
 13
22.65864443172654
 23
1.25
 33
0.0
  0
SOLID
  5
163
330
15D
100
AcDbEntity
  8
文字・寸法線
 62
     0
100
AcDbTrace
 10
160.1586444317268
 20
0.8333333333333333
 30
0.0
 11
160.1586444317268
 21
1.666666666666667
 31
0.0
 12
162.6586444317268
 22
1.25
 32
0.0
 13
162.6586444317268
 23
1.25
 33
0.0
  0
MTEXT
  5
164
330
15D
100
AcDbEntity
  8
文字・寸法線
 62
     0
100
AcDbMText
 10
92.65864443172666
 20
3.798601637107776
 30
0.0
 40
3.0
 41
0.0
 46
0.0
 71
     5
 72
     1
  1
φ140
 73
     1
 44
1.0
  0
POINT
  5
165
330
15D
100
AcDbEntity
  8
Defpoints
 62
     0
100
AcDbPoint
 10
22.65864443172654
 20
27.58038270801601
 30
0.0
  0
POINT
  5
166
330
15D
100
AcDbEntity
  8
Defpoints
 62
     0
100
AcDbPoint
 10
162.6586444317268
 20
27.580382708016
 30
0.0
  0
POINT
  5
167
330
15D
100
AcDbEntity
  8
Defpoints
 62
     0
100
AcDbPoint
 10
162.6586444317268
 20
1.25
 30
0.0
  0
ENDBLK
  5
168
330
15D
100
AcDbEntity
  8
0
 62
     0
100
AcDbBlockEnd
  0
BLOCK
  5
176
330
175
100
AcDbEntity
  8
0
 62
     0
100
AcDbBlockBegin
  2
*D2
 70
     1
 10
0.0
 20
0.0
 30
0.0
  3
*D2
  1
*D3
  0
LINE
  5
177
330
175
100
AcDbEntity
  8
文字・寸法線
 62
     0
370
    -2
100
AcDbLine
 10
245.2775490291269
 20
93.2560868428757
 30
0.0
 11
245.2775490291269
 21
6.536696596483807
 31
0.0
  0
LINE
  5
178
330
175
100
AcDbEntity
  8
文字・寸法線
 62
     0
370
    -2
100
AcDbLine
 10
315.2775490291269
 20
93.2560868428757
 30
0.0
 11
315.2775490291269
 21
6.536696596483807
 31
0.0
  0
LINE
  5
179
330
175
100
AcDbEntity
  8
文字・寸法線
 62
     0
370
    -2
100
AcDbLine
 10
247.7775490291269
 20
7.786696596483807
 30
0.0
 11
312.7775490291269
 21
7.786696596483807
 31
0.0
  0
SOLID
  5
17A
330
175
100
AcDbEntity
  8
文字・寸法線
 62
     0
100
AcDbTrace
 10
247.7775490291269
 20
8.203363263150473
 30
0.0
 11
247.7775490291269
 21
7.37002992981714
 31
0.0
 12
245.2775490291269
 22
7.786696596483807
 32
0.0
 13
245.2775490291269
 23
7.786696596483807
 33
0.0
  0
SOLID
  5
17B
330
175
100
AcDbEntity
  8
文字・寸法線
 62
     0
100
AcDbTrace
 10
312.7775490291269
 20
7.37002992981714
 30
0.0
 11
312.7775490291269
 21
8.203363263150473
 31
0.0
 12
315.2775490291269
 22
7.786696596483807
 32
0.0
 13
315.2775490291269
 23
7.786696596483807
 33
0.0
  0
MTEXT
  5
17C
330
175
100
AcDbEntity
  8
文字・寸法線
 62
     0
100
AcDbMText
 10
280.2775490291269
 20
10.33529823359158
 30
0.0
 40
3.0
 41
0.0
 46
0.0
 71
     5
 72
     1
  1
φ70
 73
     1
 44
1.0
  0
POINT
  5
17D
330
175
100
AcDbEntity
  8
Defpoints
 62
     0
100
AcDbPoint
 10
245.2775490291269
 20
93.8810868428757
 30
0.0
  0
POINT
  5
17E
330
175
100
AcDbEntity
  8
Defpoints
 62
     0
100
AcDbPoint
 10
315.2775490291269
 20
93.8810868428757
 30
0.0
  0
POINT
  5
17F
330
175
100
AcDbEntity
  8
Defpoints
 62
     0
100
AcDbPoint
 10
315.2775490291269
 20
7.786696596483807
 30
0.0
  0
ENDBLK
  5
180
330
175
100
AcDbEntity
  8
0
 62
     0
100
AcDbBlockEnd
  0
BLOCK
  5
1B8
330
1B7
100
AcDbEntity
  8
0
 62
     0
100
AcDbBlockBegin
  2
*D3
 70
     1
 10
0.0
 20
0.0
 30
0.0
  3
*D3
  1
*D4
  0
LINE
  5
1B9
330
1B7
100
AcDbEntity
  8
文字
 62
     0
370
    -2
100
AcDbLine
 10
106.2459726799311
 20
54.08038270801603
 30
0.0
 11
177.5027559430578
 21
54.08038270801603
 31
0.0
  0
LINE
  5
1BA
330
1B7
100
AcDbEntity
  8
文字
 62
     0
370
    -2
100
AcDbLine
 10
163.2836444317268
 20
27.580382708016
 30
0.0
 11
177.5027559430578
 21
27.580382708016
 31
0.0
  0
LINE
  5
1BB
330
1B7
100
AcDbEntity
  8
文字
 62
     0
370
    -2
100
AcDbLine
 10
176.2527559430578
 20
51.58038270801603
 30
0.0
 11
176.2527559430578
 21
30.080382708016
 31
0.0
  0
SOLID
  5
1BC
330
1B7
100
AcDbEntity
  8
文字
 62
     0
100
AcDbTrace
 10
176.6694226097244
 20
51.58038270801603
 30
0.0
 11
175.8360892763911
 21
51.58038270801603
 31
0.0
 12
176.2527559430578
 22
54.08038270801603
 32
0.0
 13
176.2527559430578
 23
54.08038270801603
 33
0.0
  0
SOLID
  5
1BD
330
1B7
100
AcDbEntity
  8
文字
 62
     0
100
AcDbTrace
 10
175.8360892763911
 20
30.080382708016
 30
0.0
 11
176.6694226097244
 21
30.080382708016
 31
0.0
 12
176.2527559430578
 22
27.580382708016
 32
0.0
 13
176.2527559430578
 23
27.580382708016
 33
0.0
  0
MTEXT
  5
1BE
330
1B7
100
AcDbEntity
  8
文字
 62
     0
100
AcDbMText
 10
174.0970601722528
 20
40.83038270801602
 30
0.0
 40
3.0
 41
0.0
 46
0.0
 71
     5
 72
     1
  1
26.5
 11
0.0
 21
1.0
 31
0.0
 73
     1
 44
1.0
  0
POINT
  5
1BF
330
1B7
100
AcDbEntity
  8
Defpoints
 62
     0
100
AcDbPoint
 10
105.6209726799311
 20
54.08038270801603
 30
0.0
  0
POINT
  5
1C0
330
1B7
100
AcDbEntity
  8
Defpoints
 62
     0
100
AcDbPoint
 10
162.6586444317268
 20
27.580382708016
 30
0.0
  0
POINT
  5
1C1
330
1B7
100
AcDbEntity
  8
Defpoints
 62
     0
100
AcDbPoint
 10
176.2527559430578
 20
27.580382708016
 30
0.0
  0
ENDBLK
  5
1C2
330
1B7
100
AcDbEntity
  8
0
 62
     0
100
AcDbBlockEnd
  0
BLOCK
  5
1C5
330
1C4
100
AcDbEntity
  8
0
 62
     0
100
AcDbBlockBegin
  2
*D4
 70
     1
 10
0.0
 20
0.0
 30
0.0
  3
*D4
  1
*D5
  0
LINE
  5
1C6
330
1C4
100
AcDbEntity
  8
文字・寸法線
 62
     0
370
    -2
100
AcDbLine
 10
27.65864443172654
 20
25.455382708016
 30
0.0
 11
27.65864443172654
 21
6.345204936362677
 31
0.0
  0
LINE
  5
1C7
330
1C4
100
AcDbEntity
  8
文字・寸法線
 62
     0
370
    -2
100
AcDbLine
 10
157.6586444317265
 20
25.455382708016
 30
0.0
 11
157.6586444317265
 21
6.345204936362677
 31
0.0
  0
LINE
  5
1C8
330
1C4
100
AcDbEntity
  8
文字・寸法線
 62
     0
370
    -2
100
AcDbLine
 10
30.15864443172654
 20
7.595204936362677
 30
0.0
 11
155.1586444317265
 21
7.595204936362677
 31
0.0
  0
SOLID
  5
1C9
330
1C4
100
AcDbEntity
  8
文字・寸法線
 62
     0
100
AcDbTrace
 10
30.15864443172654
 20
8.011871603029343
 30
0.0
 11
30.15864443172654
 21
7.17853826969601
 31
0.0
 12
27.65864443172654
 22
7.595204936362677
 32
0.0
 13
27.65864443172654
 23
7.595204936362677
 33
0.0
  0
SOLID
  5
1CA
330
1C4
100
AcDbEntity
  8
文字・寸法線
 62
     0
100
AcDbTrace
 10
155.1586444317265
 20
7.17853826969601
 30
0.0
 11
155.1586444317265
 21
8.011871603029343
 31
0.0
 12
157.6586444317265
 22
7.595204936362677
 32
0.0
 13
157.6586444317265
 23
7.595204936362677
 33
0.0
  0
MTEXT
  5
1CB
330
1C4
100
AcDbEntity
  8
文字・寸法線
 62
     0
100
AcDbMText
 10
92.65864443172654
 20
10.14380657347045
 30
0.0
 40
3.0
 41
0.0
 46
0.0
 71
     5
 72
     1
  1
φ130
 73
     1
 44
1.0
  0
POINT
  5
1CC
330
1C4
100
AcDbEntity
  8
Defpoints
 62
     0
100
AcDbPoint
 10
27.65864443172654
 20
26.080382708016
 30
0.0
  0
POINT
  5
1CD
330
1C4
100
AcDbEntity
  8
Defpoints
 62
     0
100
AcDbPoint
 10
157.6586444317265
 20
26.080382708016
 30
0.0
  0
POINT
  5
1CE
330
1C4
100
AcDbEntity
  8
Defpoints
 62
     0
100
AcDbPoint
 10
157.6586444317265
 20
7.595204936362677
 30
0.0
  0
ENDBLK
  5
1CF
330
1C4
100
AcDbEntity
  8
0
 62
     0
100
AcDbBlockEnd
  0
BLOCK
  5
1D6
330
1D5
100
AcDbEntity
  8
0
 62
     0
100
AcDbBlockBegin
  2
*D5
 70
     1
 10
0.0
 20
0.0
 30
0.0
  3
*D5
  1
*D6
  0
LINE
  5
1D7
330
1D5
100
AcDbEntity
  8
文字
 62
     0
370
    -2
100
AcDbLine
 10
163.2836444317268
 20
27.580382708016
 30
0.0
 11
177.5027559430578
 21
27.580382708016
 31
0.0
  0
LINE
  5
1D8
330
1D5
100
AcDbEntity
  8
文字
 62
     0
370
    -2
100
AcDbLine
 10
158.2836444317265
 20
26.080382708016
 30
0.0
 11
177.5027559430578
 21
26.080382708016
 31
0.0
  0
LINE
  5
1D9
330
1D5
100
AcDbEntity
  8
文字
 62
     0
370
    -2
100
AcDbLine
 10
176.2527559430578
 20
27.580382708016
 30
0.0
 11
176.2527559430578
 21
26.080382708016
 31
0.0
  0
LINE
  5
1DA
330
1D5
100
AcDbEntity
  8
文字
 62
     0
370
    -2
100
AcDbLine
 10
176.2527559430578
 20
23.580382708016
 30
0.0
 11
176.2527559430578
 21
21.080382708016
 31
0.0
  0
INSERT
  5
1DB
330
1D5
100
AcDbEntity
  8
文字
 62
     0
370
    -2
100
AcDbBlockReference
  2
_DotSmall
 10
176.2527559430578
 20
27.580382708016
 30
0.0
 41
2.5
 42
2.5
 43
2.5
 50
270.0
  0
SOLID
  5
1DC
330
1D5
100
AcDbEntity
  8
文字
 62
     0
100
AcDbTrace
 10
176.6694226097244
 20
23.580382708016
 30
0.0
 11
175.8360892763911
 21
23.580382708016
 31
0.0
 12
176.2527559430578
 22
26.080382708016
 32
0.0
 13
176.2527559430578
 23
26.080382708016
 33
0.0
  0
MTEXT
  5
1DD
330
1D5
100
AcDbEntity
  8
文字
 62
     0
100
AcDbMText
 10
174.3109134129131
 20
22.50867968004286
 30
0.0
 40
3.0
 41
0.0
 46
0.0
 71
     5
 72
     1
  1
1.5
 11
0.0
 21
1.0
 31
0.0
 73
     1
 44
1.0
  0
POINT
  5
1E2
330
1D5
100
AcDbEntity
  8
Defpoints
 62
     0
100
AcDbPoint
 10
162.6586444317268
 20
27.580382708016
 30
0.0
  0
POINT
  5
1E3
330
1D5
100
AcDbEntity
  8
Defpoints
 62
     0
100
AcDbPoint
 10
157.6586444317265
 20
26.080382708016
 30
0.0
  0
POINT
  5
1E4
330
1D5
100
AcDbEntity
  8
Defpoints
 62
     0
100
AcDbPoint
 10
176.2527559430578
 20
26.080382708016
 30
0.0
  0
ENDBLK
  5
1E6
330
1D5
100
AcDbEntity
  8
0
 62
     0
100
AcDbBlockEnd
  0
BLOCK
  5
1DF
330
1DE
100
AcDbEntity
  8
0
 62
     0
100
AcDbBlockBegin
  2
_DotSmall
 70
     0
 10
0.0
 20
0.0
 30
0.0
  3
_DotSmall
  1
_DotSmall
  0
LWPOLYLINE
  5
1E0
330
1DE
100
AcDbEntity
  8
0
  6
ByBlock
 62
     0
100
AcDbPolyline
 90
        2
 70
     1
 43
0.5
 10
-0.0625
 20
0.0
 42
1.0
 10
0.0625
 20
0.0
 42
1.0
  0
ENDBLK
  5
1E1
330
1DE
100
AcDbEntity
  8
0
 62
     0
100
AcDbBlockEnd
  0
BLOCK
  5
1FD
330
1FC
100
AcDbEntity
  8
0
 62
     0
100
AcDbBlockBegin
  2
*D7
 70
     1
 10
0.0
 20
0.0
 30
0.0
  3
*D7
  1
*D8
  0
LINE
  5
1FE
330
1FC
100
AcDbEntity
  8
文字
 62
     0
370
    -2
100
AcDbLine
 10
82.65588573748164
 20
165.2053651603718
 30
0.0
 11
82.65588573748164
 21
179.6265014353555
 31
0.0
  0
LINE
  5
1FF
330
1FC
100
AcDbEntity
  8
文字
 62
     0
370
    -2
100
AcDbLine
 10
102.6558857374816
 20
165.2053651603718
 30
0.0
 11
102.6558857374816
 21
179.6265014353555
 31
0.0
  0
LINE
  5
200
330
1FC
100
AcDbEntity
  8
文字
 62
     0
370
    -2
100
AcDbLine
 10
85.15588573748164
 20
178.3765014353555
 30
0.0
 11
100.1558857374816
 21
178.3765014353555
 31
0.0
  0
SOLID
  5
201
330
1FC
100
AcDbEntity
  8
文字
 62
     0
100
AcDbTrace
 10
85.15588573748164
 20
178.7931681020222
 30
0.0
 11
85.15588573748164
 21
177.9598347686889
 31
0.0
 12
82.65588573748164
 22
178.3765014353555
 32
0.0
 13
82.65588573748164
 23
178.3765014353555
 33
0.0
  0
SOLID
  5
202
330
1FC
100
AcDbEntity
  8
文字
 62
     0
100
AcDbTrace
 10
100.1558857374816
 20
177.9598347686889
 30
0.0
 11
100.1558857374816
 21
178.7931681020222
 31
0.0
 12
102.6558857374816
 22
178.3765014353555
 32
0.0
 13
102.6558857374816
 23
178.3765014353555
 33
0.0
  0
MTEXT
  5
203
330
1FC
100
AcDbEntity
  8
文字
 62
     0
100
AcDbMText
 10
92.65588573748164
 20
180.5076405895165
 30
0.0
 40
3.0
 41
0.0
 46
0.0
 71
     5
 72
     1
  1
M24
 73
     1
 44
1.0
  0
POINT
  5
204
330
1FC
100
AcDbEntity
  8
Defpoints
 62
     0
100
AcDbPoint
 10
82.65588573748164
 20
164.5803651603718
 30
0.0
  0
POINT
  5
205
330
1FC
100
AcDbEntity
  8
Defpoints
 62
     0
100
AcDbPoint
 10
102.6558857374816
 20
164.5803651603718
 30
0.0
  0
POINT
  5
206
330
1FC
100
AcDbEntity
  8
Defpoints
 62
     0
100
AcDbPoint
 10
102.6558857374816
 20
178.3765014353555
 30
0.0
  0
ENDBLK
  5
207
330
1FC
100
AcDbEntity
  8
0
 62
     0
100
AcDbBlockEnd
  0
BLOCK
  5
20A
330
209
100
AcDbEntity
  8
0
 62
     0
100
AcDbBlockBegin
  2
*D8
 70
     1
 10
0.0
 20
0.0
 30
0.0
  3
*D8
  1
*D9
  0
LINE
  5
20B
330
209
100
AcDbEntity
  8
文字
 62
     0
370
    -2
100
AcDbLine
 10
110.5933857374814
 20
67.0803841538998
 30
0.0
 11
177.5027559430578
 21
67.0803841538998
 31
0.0
  0
LINE
  5
20C
330
209
100
AcDbEntity
  8
文字
 62
     0
370
    -2
100
AcDbLine
 10
100.7808857374816
 20
167.0803651603718
 30
0.0
 11
177.5027559430578
 21
167.0803651603718
 31
0.0
  0
LINE
  5
20D
330
209
100
AcDbEntity
  8
文字
 62
     0
370
    -2
100
AcDbLine
 10
176.2527559430578
 20
69.5803841538998
 30
0.0
 11
176.2527559430578
 21
164.5803651603718
 31
0.0
  0
SOLID
  5
20E
330
209
100
AcDbEntity
  8
文字
 62
     0
100
AcDbTrace
 10
175.8360892763911
 20
69.5803841538998
 30
0.0
 11
176.6694226097244
 21
69.5803841538998
 31
0.0
 12
176.2527559430578
 22
67.0803841538998
 32
0.0
 13
176.2527559430578
 23
67.0803841538998
 33
0.0
  0
SOLID
  5
20F
330
209
100
AcDbEntity
  8
文字
 62
     0
100
AcDbTrace
 10
176.6694226097244
 20
164.5803651603718
 30
0.0
 11
175.8360892763911
 21
164.5803651603718
 31
0.0
 12
176.2527559430578
 22
167.0803651603718
 32
0.0
 13
176.2527559430578
 23
167.0803651603718
 33
0.0
  0
MTEXT
  5
210
330
209
100
AcDbEntity
  8
文字
 62
     0
100
AcDbMText
 10
174.0970601722528
 20
117.0803746571358
 30
0.0
 40
3.0
 41
0.0
 46
0.0
 71
     5
 72
     1
  1
130
 11
0.0
 21
1.0
 31
0.0
 73
     1
 44
1.0
  0
POINT
  5
211
330
209
100
AcDbEntity
  8
Defpoints
 62
     0
100
AcDbPoint
 10
109.9683857374814
 20
67.0803841538998
 30
0.0
  0
POINT
  5
212
330
209
100
AcDbEntity
  8
Defpoints
 62
     0
100
AcDbPoint
 10
100.1558857374816
 20
167.0803651603718
 30
0.0
  0
POINT
  5
213
330
209
100
AcDbEntity
  8
Defpoints
 62
     0
100
AcDbPoint
 10
176.2527559430578
 20
167.0803651603718
 30
0.0
  0
ENDBLK
  5
214
330
209
100
AcDbEntity
  8
0
 62
     0
100
AcDbBlockEnd
  0
BLOCK
  5
217
330
216
100
AcDbEntity
  8
0
 62
     0
100
AcDbBlockBegin
  2
*D9
 70
     1
 10
0.0
 20
0.0
 30
0.0
  3
*D9
  1
*D10
  0
LINE
  5
218
330
216
100
AcDbEntity
  8
文字
 62
     0
370
    -2
100
AcDbLine
 10
265.2844842261086
 20
84.59983684287576
 30
0.0
 11
265.2844842261086
 21
12.91709887229081
 31
0.0
  0
LINE
  5
219
330
216
100
AcDbEntity
  8
文字
 62
     0
370
    -2
100
AcDbLine
 10
295.2706138321448
 20
84.59983684287573
 30
0.0
 11
295.2706138321448
 21
12.91709887229081
 31
0.0
  0
LINE
  5
21A
330
216
100
AcDbEntity
  8
文字
 62
     0
370
    -2
100
AcDbLine
 10
267.7844842261086
 20
14.16709887229081
 30
0.0
 11
292.7706138321448
 21
14.16709887229081
 31
0.0
  0
SOLID
  5
21B
330
216
100
AcDbEntity
  8
文字
 62
     0
100
AcDbTrace
 10
267.7844842261086
 20
14.58376553895747
 30
0.0
 11
267.7844842261086
 21
13.75043220562414
 31
0.0
 12
265.2844842261086
 22
14.16709887229081
 32
0.0
 13
265.2844842261086
 23
14.16709887229081
 33
0.0
  0
SOLID
  5
21C
330
216
100
AcDbEntity
  8
文字
 62
     0
100
AcDbTrace
 10
292.7706138321448
 20
13.75043220562414
 30
0.0
 11
292.7706138321448
 21
14.58376553895747
 31
0.0
 12
295.2706138321448
 22
14.16709887229081
 32
0.0
 13
295.2706138321448
 23
14.16709887229081
 33
0.0
  0
MTEXT
  5
21D
330
216
100
AcDbEntity
  8
文字
 62
     0
100
AcDbMText
 10
280.2775490291267
 20
16.32279464309572
 30
0.0
 40
3.0
 41
0.0
 46
0.0
 71
     5
 72
     1
  1
36
 73
     1
 44
1.0
  0
POINT
  5
21E
330
216
100
AcDbEntity
  8
Defpoints
 62
     0
100
AcDbPoint
 10
265.2844842261086
 20
85.22483684287576
 30
0.0
  0
POINT
  5
21F
330
216
100
AcDbEntity
  8
Defpoints
 62
     0
100
AcDbPoint
 10
295.2706138321448
 20
85.22483684287573
 30
0.0
  0
POINT
  5
220
330
216
100
AcDbEntity
  8
Defpoints
 62
     0
100
AcDbPoint
 10
295.2706138321448
 20
14.16709887229081
 30
0.0
  0
ENDBLK
  5
221
330
216
100
AcDbEntity
  8
0
 62
     0
100
AcDbBlockEnd
  0
BLOCK
  5
224
330
223
100
AcDbEntity
  8
0
 62
     0
100
AcDbBlockBegin
  2
*D10
 70
     1
 10
0.0
 20
0.0
 30
0.0
  3
*D10
  1
*D11
  0
LINE
  5
225
330
223
100
AcDbEntity
  8
文字
 62
     0
370
    -2
100
AcDbLine
 10
158.2836444317265
 20
26.080382708016
 30
0.0
 11
183.2091320452014
 21
26.080382708016
 31
0.0
  0
LINE
  5
226
330
223
100
AcDbEntity
  8
文字
 62
     0
370
    -2
100
AcDbLine
 10
100.7808857374816
 20
167.0803651603718
 30
0.0
 11
183.2091320452014
 21
167.0803651603718
 31
0.0
  0
LINE
  5
227
330
223
100
AcDbEntity
  8
文字
 62
     0
370
    -2
100
AcDbLine
 10
181.9591320452014
 20
28.580382708016
 30
0.0
 11
181.9591320452014
 21
164.5803651603718
 31
0.0
  0
SOLID
  5
228
330
223
100
AcDbEntity
  8
文字
 62
     0
100
AcDbTrace
 10
181.5424653785347
 20
28.580382708016
 30
0.0
 11
182.375798711868
 21
28.580382708016
 31
0.0
 12
181.9591320452014
 22
26.080382708016
 32
0.0
 13
181.9591320452014
 23
26.080382708016
 33
0.0
  0
SOLID
  5
229
330
223
100
AcDbEntity
  8
文字
 62
     0
100
AcDbTrace
 10
182.375798711868
 20
164.5803651603718
 30
0.0
 11
181.5424653785347
 21
164.5803651603718
 31
0.0
 12
181.9591320452014
 22
167.0803651603718
 32
0.0
 13
181.9591320452014
 23
167.0803651603718
 33
0.0
  0
MTEXT
  5
22A
330
223
100
AcDbEntity
  8
文字
 62
     0
100
AcDbMText
 10
179.8279928910404
 20
96.58037393419389
 30
0.0
 40
3.0
 41
0.0
 46
0.0
 71
     5
 72
     1
  1
177
 11
0.0
 21
1.0
 31
0.0
 73
     1
 44
1.0
  0
POINT
  5
22B
330
223
100
AcDbEntity
  8
Defpoints
 62
     0
100
AcDbPoint
 10
157.6586444317265
 20
26.080382708016
 30
0.0
  0
POINT
  5
22C
330
223
100
AcDbEntity
  8
Defpoints
 62
     0
100
AcDbPoint
 10
100.1558857374816
 20
167.0803651603718
 30
0.0
  0
POINT
  5
22D
330
223
100
AcDbEntity
  8
Defpoints
 62
     0
100
AcDbPoint
 10
181.9591320452014
 20
167.0803651603718
 30
0.0
  0
ENDBLK
  5
22E
330
223
100
AcDbEntity
  8
0
 62
     0
100
AcDbBlockEnd
  0
BLOCK
  5
233
330
232
100
AcDbEntity
  8
0
 62
     0
100
AcDbBlockBegin
  2
*D11
 70
     1
 10
0.0
 20
0.0
 30
0.0
  3
*D11
  1
*D12
  0
LINE
  5
234
330
232
100
AcDbEntity
  8
文字
 62
     0
370
    -2
100
AcDbLine
 10
110.5933857374814
 20
67.0803841538998
 30
0.0
 11
177.5027559430578
 21
67.0803841538998
 31
0.0
  0
LINE
  5
235
330
232
100
AcDbEntity
  8
文字
 62
     0
370
    -2
100
AcDbLine
 10
106.2459726799311
 20
54.08038270801603
 30
0.0
 11
177.5027559430578
 21
54.08038270801602
 31
0.0
  0
LINE
  5
236
330
232
100
AcDbEntity
  8
文字
 62
     0
370
    -2
100
AcDbLine
 10
176.2527559430578
 20
64.5803841538998
 30
0.0
 11
176.2527559430578
 21
56.58038270801602
 31
0.0
  0
SOLID
  5
237
330
232
100
AcDbEntity
  8
文字
 62
     0
100
AcDbTrace
 10
176.6694226097244
 20
64.5803841538998
 30
0.0
 11
175.8360892763911
 21
64.5803841538998
 31
0.0
 12
176.2527559430578
 22
67.0803841538998
 32
0.0
 13
176.2527559430578
 23
67.0803841538998
 33
0.0
  0
SOLID
  5
238
330
232
100
AcDbEntity
  8
文字
 62
     0
100
AcDbTrace
 10
175.8360892763911
 20
56.58038270801602
 30
0.0
 11
176.6694226097244
 21
56.58038270801602
 31
0.0
 12
176.2527559430578
 22
54.08038270801602
 32
0.0
 13
176.2527559430578
 23
54.08038270801602
 33
0.0
  0
MTEXT
  5
239
330
232
100
AcDbEntity
  8
文字
 62
     0
100
AcDbMText
 10
174.0970601722528
 20
60.58038343095791
 30
0.0
 40
3.0
 41
0.0
 46
0.0
 71
     5
 72
     1
  1
19
 11
0.0
 21
1.0
 31
0.0
 73
     1
 44
1.0
  0
POINT
  5
23A
330
232
100
AcDbEntity
  8
Defpoints
 62
     0
100
AcDbPoint
 10
109.9683857374814
 20
67.0803841538998
 30
0.0
  0
POINT
  5
23B
330
232
100
AcDbEntity
  8
Defpoints
 62
     0
100
AcDbPoint
 10
105.6209726799311
 20
54.08038270801603
 30
0.0
  0
POINT
  5
23C
330
232
100
AcDbEntity
  8
Defpoints
 62
     0
100
AcDbPoint
 10
176.2527559430578
 20
54.08038270801602
 30
0.0
  0
ENDBLK
  5
23D
330
232
100
AcDbEntity
  8
0
 62
     0
100
AcDbBlockEnd
  0
BLOCK
  5
2D3
330
2D2
100
AcDbEntity
  8
0
100
AcDbBlockBegin
  2
*D12
 70
     1
 10
0.0
 20
0.0
 30
0.0
  3
*D12
  1
*D13
  0
LINE
  5
2D5
330
2D2
100
AcDbEntity
  8
文字・寸法線
 62
     0
370
    -2
100
AcDbLine
 10
51.02078151313454
 20
63.10782629368803
 30
0.0
 11
51.02078151313452
 21
27.80130976518603
 31
0.0
  0
LINE
  5
2D6
330
2D2
100
AcDbEntity
  8
文字・寸法線
 62
     0
370
    -2
100
AcDbLine
 10
191.0207815131348
 20
63.10782629368801
 30
0.0
 11
191.0207815131348
 21
27.80130976518603
 31
0.0
  0
LINE
  5
2D7
330
2D2
100
AcDbEntity
  8
文字・寸法線
 62
     0
370
    -2
100
AcDbLine
 10
53.52078151313452
 20
29.05130976518603
 30
0.0
 11
188.5207815131348
 21
29.05130976518603
 31
0.0
  0
SOLID
  5
2D8
330
2D2
100
AcDbEntity
  8
文字・寸法線
 62
     0
100
AcDbTrace
 10
53.52078151313452
 20
29.4679764318527
 30
0.0
 11
53.52078151313452
 21
28.63464309851937
 31
0.0
 12
51.02078151313452
 22
29.05130976518603
 32
0.0
 13
51.02078151313452
 23
29.05130976518603
 33
0.0
  0
SOLID
  5
2D9
330
2D2
100
AcDbEntity
  8
文字・寸法線
 62
     0
100
AcDbTrace
 10
188.5207815131348
 20
28.63464309851937
 30
0.0
 11
188.5207815131348
 21
29.4679764318527
 31
0.0
 12
191.0207815131348
 22
29.05130976518603
 32
0.0
 13
191.0207815131348
 23
29.05130976518603
 33
0.0
  0
MTEXT
  5
2DA
330
2D2
100
AcDbEntity
  8
文字・寸法線
 62
     0
100
AcDbMText
 10
121.2553946797051
 20
31.26180976518603
 30
0.0
 40
3.0
 41
0.0
 46
0.0
 71
     5
 72
     1
  1
%%c140
 73
     1
 44
1.0
  0
POINT
  5
2DB
330
2D2
100
AcDbEntity
  8
Defpoints
 62
     0
100
AcDbPoint
 10
51.02078151313454
 20
63.73282629368803
 30
0.0
  0
POINT
  5
2DC
330
2D2
100
AcDbEntity
  8
Defpoints
 62
     0
100
AcDbPoint
 10
191.0207815131348
 20
63.73282629368801
 30
0.0
  0
POINT
  5
2DD
330
2D2
100
AcDbEntity
  8
Defpoints
 62
     0
100
AcDbPoint
 10
191.0207815131348
 20
29.05130976518603
 30
0.0
  0
ENDBLK
  5
2D4
330
2D2
100
AcDbEntity
  8
0
100
AcDbBlockEnd
  0
BLOCK
  5
2DF
330
2DE
100
AcDbEntity
  8
0
100
AcDbBlockBegin
  2
*D13
 70
     1
 10
0.0
 20
0.0
 30
0.0
  3
*D13
  1
*D14
  0
LINE
  5
2E1
330
2DE
100
AcDbEntity
  8
文字・寸法線
 62
     0
370
    -2
100
AcDbLine
 10
278.424040388462
 20
128.0945085618428
 30
0.0
 11
278.424040388462
 21
30.36585853049272
 31
0.0
  0
LINE
  5
2E2
330
2DE
100
AcDbEntity
  8
文字・寸法線
 62
     0
370
    -2
100
AcDbLine
 10
338.4272013882008
 20
127.9255021784095
 30
0.0
 11
338.4272013882008
 21
30.36585853049272
 31
0.0
  0
LINE
  5
2E3
330
2DE
100
AcDbEntity
  8
文字・寸法線
 62
     0
370
    -2
100
AcDbLine
 10
280.924040388462
 20
31.61585853049272
 30
0.0
 11
335.9272013882008
 21
31.61585853049272
 31
0.0
  0
SOLID
  5
2E4
330
2DE
100
AcDbEntity
  8
文字・寸法線
 62
     0
100
AcDbTrace
 10
280.924040388462
 20
32.03252519715939
 30
0.0
 11
280.924040388462
 21
31.19919186382605
 31
0.0
 12
278.424040388462
 22
31.61585853049272
 32
0.0
 13
278.424040388462
 23
31.61585853049272
 33
0.0
  0
SOLID
  5
2E5
330
2DE
100
AcDbEntity
  8
文字・寸法線
 62
     0
100
AcDbTrace
 10
335.9272013882008
 20
31.19919186382605
 30
0.0
 11
335.9272013882008
 21
32.03252519715939
 31
0.0
 12
338.4272013882008
 22
31.61585853049272
 32
0.0
 13
338.4272013882008
 23
31.61585853049272
 33
0.0
  0
MTEXT
  5
2E6
330
2DE
100
AcDbEntity
  8
文字・寸法線
 62
     0
100
AcDbMText
 10
307.3213385616118
 20
33.82635853049272
 30
0.0
 40
3.0
 41
0.0
 46
0.0
 71
     5
 72
     1
  1
%%c60
 73
     1
 44
1.0
  0
POINT
  5
2E7
330
2DE
100
AcDbEntity
  8
Defpoints
 62
     0
100
AcDbPoint
 10
278.424040388462
 20
128.7195085618428
 30
0.0
  0
POINT
  5
2E8
330
2DE
100
AcDbEntity
  8
Defpoints
 62
     0
100
AcDbPoint
 10
338.4272013882008
 20
128.5505021784095
 30
0.0
  0
POINT
  5
2E9
330
2DE
100
AcDbEntity
  8
Defpoints
 62
     0
100
AcDbPoint
 10
338.4272013882008
 20
31.61585853049272
 30
0.0
  0
ENDBLK
  5
2E0
330
2DE
100
AcDbEntity
  8
0
100
AcDbBlockEnd
  0
BLOCK
  5
2EB
330
2EA
100
AcDbEntity
  8
0
100
AcDbBlockBegin
  2
*D14
 70
     1
 10
0.0
 20
0.0
 30
0.0
  3
*D14
  1
*D15
  0
LINE
  5
2ED
330
2EA
100
AcDbEntity
  8
文字
 62
     0
370
    -2
100
AcDbLine
 10
134.6081097613391
 20
90.23282629368805
 30
0.0
 11
204.7813597712286
 21
90.23282629368805
 31
0.0
  0
LINE
  5
2EE
330
2EA
100
AcDbEntity
  8
文字
 62
     0
370
    -2
100
AcDbLine
 10
191.4668104273985
 20
65.73412225125271
 30
0.0
 11
204.7813597712286
 21
65.73412225125271
 31
0.0
  0
LINE
  5
2EF
330
2EA
100
AcDbEntity
  8
文字
 62
     0
370
    -2
100
AcDbLine
 10
203.5313597712286
 20
87.73282629368805
 30
0.0
 11
203.5313597712286
 21
68.23412225125271
 31
0.0
  0
SOLID
  5
2F0
330
2EA
100
AcDbEntity
  8
文字
 62
     0
100
AcDbTrace
 10
203.9480264378953
 20
87.73282629368805
 30
0.0
 11
203.114693104562
 21
87.73282629368805
 31
0.0
 12
203.5313597712286
 22
90.23282629368805
 32
0.0
 13
203.5313597712286
 23
90.23282629368805
 33
0.0
  0
SOLID
  5
2F1
330
2EA
100
AcDbEntity
  8
文字
 62
     0
100
AcDbTrace
 10
203.114693104562
 20
68.23412225125271
 30
0.0
 11
203.9480264378953
 21
68.23412225125271
 31
0.0
 12
203.5313597712286
 22
65.73412225125271
 32
0.0
 13
203.5313597712286
 23
65.73412225125271
 33
0.0
  0
MTEXT
  5
2F2
330
2EA
100
AcDbEntity
  8
文字
 62
     0
100
AcDbMText
 10
201.3748597712286
 20
77.98347427247037
 30
0.0
 40
3.0
 41
0.0
 46
0.0
 71
     5
 72
     1
  1
24.5
 11
0.0
 21
1.0
 31
0.0
 73
     1
 44
1.0
  0
POINT
  5
2F3
330
2EA
100
AcDbEntity
  8
Defpoints
 62
     0
100
AcDbPoint
 10
133.9831097613391
 20
90.23282629368805
 30
0.0
  0
POINT
  5
2F4
330
2EA
100
AcDbEntity
  8
Defpoints
 62
     0
100
AcDbPoint
 10
190.8418104273985
 20
65.73412225125271
 30
0.0
  0
POINT
  5
2F5
330
2EA
100
AcDbEntity
  8
Defpoints
 62
     0
100
AcDbPoint
 10
203.5313597712286
 20
65.73412225125271
 30
0.0
  0
ENDBLK
  5
2EC
330
2EA
100
AcDbEntity
  8
0
100
AcDbBlockEnd
  0
BLOCK
  5
2F7
330
2F6
100
AcDbEntity
  8
0
100
AcDbBlockBegin
  2
*D15
 70
     1
 10
0.0
 20
0.0
 30
0.0
  3
*D15
  1
*D16
  0
LINE
  5
2F9
330
2F6
100
AcDbEntity
  8
文字・寸法線
 62
     0
370
    -2
100
AcDbLine
 10
56.02078151313454
 20
61.60782629368801
 30
0.0
 11
56.02078151313452
 21
42.49764852203469
 31
0.0
  0
LINE
  5
2FA
330
2F6
100
AcDbEntity
  8
文字・寸法線
 62
     0
370
    -2
100
AcDbLine
 10
186.0207815131345
 20
61.60782629368802
 30
0.0
 11
186.0207815131345
 21
42.49764852203469
 31
0.0
  0
LINE
  5
2FB
330
2F6
100
AcDbEntity
  8
文字・寸法線
 62
     0
370
    -2
100
AcDbLine
 10
58.52078151313452
 20
43.74764852203469
 30
0.0
 11
183.5207815131345
 21
43.74764852203469
 31
0.0
  0
SOLID
  5
2FC
330
2F6
100
AcDbEntity
  8
文字・寸法線
 62
     0
100
AcDbTrace
 10
58.52078151313452
 20
44.16431518870135
 30
0.0
 11
58.52078151313452
 21
43.33098185536802
 31
0.0
 12
56.02078151313452
 22
43.74764852203469
 32
0.0
 13
56.02078151313452
 23
43.74764852203469
 33
0.0
  0
SOLID
  5
2FD
330
2F6
100
AcDbEntity
  8
文字・寸法線
 62
     0
100
AcDbTrace
 10
183.5207815131345
 20
43.33098185536802
 30
0.0
 11
183.5207815131345
 21
44.16431518870135
 31
0.0
 12
186.0207815131345
 22
43.74764852203469
 32
0.0
 13
186.0207815131345
 23
43.74764852203469
 33
0.0
  0
MTEXT
  5
2FE
330
2F6
100
AcDbEntity
  8
文字・寸法線
 62
     0
100
AcDbMText
 10
121.0207815131345
 20
45.95814852203469
 30
0.0
 40
3.0
 41
0.0
 46
0.0
 71
     5
 72
     1
  1
%%c130
 73
     1
 44
1.0
  0
POINT
  5
2FF
330
2F6
100
AcDbEntity
  8
Defpoints
 62
     0
100
AcDbPoint
 10
56.02078151313454
 20
62.23282629368801
 30
0.0
  0
POINT
  5
300
330
2F6
100
AcDbEntity
  8
Defpoints
 62
     0
100
AcDbPoint
 10
186.0207815131345
 20
62.23282629368802
 30
0.0
  0
POINT
  5
301
330
2F6
100
AcDbEntity
  8
Defpoints
 62
     0
100
AcDbPoint
 10
186.0207815131345
 20
43.74764852203469
 30
0.0
  0
ENDBLK
  5
2F8
330
2F6
100
AcDbEntity
  8
0
100
AcDbBlockEnd
  0
BLOCK
  5
303
330
302
100
AcDbEntity
  8
0
100
AcDbBlockBegin
  2
*D16
 70
     1
 10
0.0
 20
0.0
 30
0.0
  3
*D16
  1
*D17
  0
LINE
  5
305
330
302
100
AcDbEntity
  8
文字
 62
     0
370
    -2
100
AcDbLine
 10
191.645781513135
 20
65.732826293688
 30
0.0
 11
205.864893024466
 21
65.732826293688
 31
0.0
  0
LINE
  5
306
330
302
100
AcDbEntity
  8
文字
 62
     0
370
    -2
100
AcDbLine
 10
186.6457815131347
 20
64.23282629368802
 30
0.0
 11
205.864893024466
 21
64.23282629368802
 31
0.0
  0
LINE
  5
307
330
302
100
AcDbEntity
  8
文字
 62
     0
370
    -2
100
AcDbLine
 10
204.614893024466
 20
65.732826293688
 30
0.0
 11
204.614893024466
 21
64.23282629368802
 31
0.0
  0
LINE
  5
308
330
302
100
AcDbEntity
  8
文字
 62
     0
370
    -2
100
AcDbLine
 10
204.614893024466
 20
61.73282629368802
 30
0.0
 11
204.614893024466
 21
59.23282629368802
 31
0.0
  0
INSERT
  5
309
330
302
100
AcDbEntity
  8
文字
 62
     0
370
    -2
100
AcDbBlockReference
  2
_DotSmall
 10
204.614893024466
 20
65.732826293688
 30
0.0
 41
2.5
 42
2.5
 43
2.5
 50
270.0
  0
SOLID
  5
30A
330
302
100
AcDbEntity
  8
文字
 62
     0
100
AcDbTrace
 10
205.0315596911327
 20
61.73282629368802
 30
0.0
 11
204.1982263577994
 21
61.73282629368802
 31
0.0
 12
204.614893024466
 22
64.23282629368802
 32
0.0
 13
204.614893024466
 23
64.23282629368802
 33
0.0
  0
MTEXT
  5
30B
330
302
100
AcDbEntity
  8
文字
 62
     0
100
AcDbMText
 10
202.6730504943213
 20
60.66112326571488
 30
0.0
 40
3.0
 41
0.0
 46
0.0
 71
     5
 72
     1
  1
1.5
 11
0.0
 21
1.0
 31
0.0
 73
     1
 44
1.0
  0
POINT
  5
30C
330
302
100
AcDbEntity
  8
Defpoints
 62
     0
100
AcDbPoint
 10
191.020781513135
 20
65.732826293688
 30
0.0
  0
POINT
  5
30D
330
302
100
AcDbEntity
  8
Defpoints
 62
     0
100
AcDbPoint
 10
186.0207815131347
 20
64.23282629368802
 30
0.0
  0
POINT
  5
30E
330
302
100
AcDbEntity
  8
Defpoints
 62
     0
100
AcDbPoint
 10
204.614893024466
 20
64.23282629368802
 30
0.0
  0
ENDBLK
  5
304
330
302
100
AcDbEntity
  8
0
100
AcDbBlockEnd
  0
BLOCK
  5
310
330
30F
100
AcDbEntity
  8
0
100
AcDbBlockBegin
  2
*D17
 70
     1
 10
0.0
 20
0.0
 30
0.0
  3
*D17
  1
*D18
  0
LINE
  5
312
330
30F
100
AcDbEntity
  8
文字
 62
     0
370
    -2
100
AcDbLine
 10
110.9092934183559
 20
201.2853224790213
 30
0.0
 11
110.9092934183559
 21
215.7064587540051
 31
0.0
  0
LINE
  5
313
330
30F
100
AcDbEntity
  8
文字
 62
     0
370
    -2
100
AcDbLine
 10
130.9092934183559
 20
201.2853224790213
 30
0.0
 11
130.9092934183559
 21
215.7064587540051
 31
0.0
  0
LINE
  5
314
330
30F
100
AcDbEntity
  8
文字
 62
     0
370
    -2
100
AcDbLine
 10
113.4092934183559
 20
214.4564587540051
 30
0.0
 11
128.4092934183559
 21
214.4564587540051
 31
0.0
  0
SOLID
  5
315
330
30F
100
AcDbEntity
  8
文字
 62
     0
100
AcDbTrace
 10
113.4092934183559
 20
214.8731254206717
 30
0.0
 11
113.4092934183559
 21
214.0397920873384
 31
0.0
 12
110.9092934183559
 22
214.4564587540051
 32
0.0
 13
110.9092934183559
 23
214.4564587540051
 33
0.0
  0
SOLID
  5
316
330
30F
100
AcDbEntity
  8
文字
 62
     0
100
AcDbTrace
 10
128.4092934183559
 20
214.0397920873384
 30
0.0
 11
128.4092934183559
 21
214.8731254206717
 31
0.0
 12
130.9092934183559
 22
214.4564587540051
 32
0.0
 13
130.9092934183559
 23
214.4564587540051
 33
0.0
  0
MTEXT
  5
317
330
30F
100
AcDbEntity
  8
文字
 62
     0
100
AcDbMText
 10
120.9092934183559
 20
216.5875979081661
 30
0.0
 40
3.0
 41
0.0
 46
0.0
 71
     5
 72
     1
  1
M24
 73
     1
 44
1.0
  0
POINT
  5
318
330
30F
100
AcDbEntity
  8
Defpoints
 62
     0
100
AcDbPoint
 10
110.9092934183559
 20
200.6603224790213
 30
0.0
  0
POINT
  5
319
330
30F
100
AcDbEntity
  8
Defpoints
 62
     0
100
AcDbPoint
 10
130.9092934183559
 20
200.6603224790213
 30
0.0
  0
POINT
  5
31A
330
30F
100
AcDbEntity
  8
Defpoints
 62
     0
100
AcDbPoint
 10
130.9092934183559
 20
214.4564587540051
 30
0.0
  0
ENDBLK
  5
311
330
30F
100
AcDbEntity
  8
0
100
AcDbBlockEnd
  0
BLOCK
  5
31C
330
31B
100
AcDbEntity
  8
0
100
AcDbBlockBegin
  2
*D18
 70
     1
 10
0.0
 20
0.0
 30
0.0
  3
*D18
  1
*D19
  0
LINE
  5
31E
330
31B
100
AcDbEntity
  8
文字
 62
     0
370
    -2
100
AcDbLine
 10
138.8467934183557
 20
103.1603414725493
 30
0.0
 11
205.7561636239321
 21
103.1603414725493
 31
0.0
  0
LINE
  5
31F
330
31B
100
AcDbEntity
  8
文字
 62
     0
370
    -2
100
AcDbLine
 10
129.0342934183559
 20
203.1603224790213
 30
0.0
 11
205.7561636239321
 21
203.1603224790213
 31
0.0
  0
LINE
  5
320
330
31B
100
AcDbEntity
  8
文字
 62
     0
370
    -2
100
AcDbLine
 10
204.5061636239321
 20
105.6603414725493
 30
0.0
 11
204.5061636239321
 21
200.6603224790213
 31
0.0
  0
SOLID
  5
321
330
31B
100
AcDbEntity
  8
文字
 62
     0
100
AcDbTrace
 10
204.0894969572654
 20
105.6603414725493
 30
0.0
 11
204.9228302905987
 21
105.6603414725493
 31
0.0
 12
204.5061636239321
 22
103.1603414725493
 32
0.0
 13
204.5061636239321
 23
103.1603414725493
 33
0.0
  0
SOLID
  5
322
330
31B
100
AcDbEntity
  8
文字
 62
     0
100
AcDbTrace
 10
204.9228302905987
 20
200.6603224790213
 30
0.0
 11
204.0894969572654
 21
200.6603224790213
 31
0.0
 12
204.5061636239321
 22
203.1603224790213
 32
0.0
 13
204.5061636239321
 23
203.1603224790213
 33
0.0
  0
MTEXT
  5
323
330
31B
100
AcDbEntity
  8
文字
 62
     0
100
AcDbMText
 10
202.3504678531272
 20
153.1603319757853
 30
0.0
 40
3.0
 41
0.0
 46
0.0
 71
     5
 72
     1
  1
130
 11
0.0
 21
1.0
 31
0.0
 73
     1
 44
1.0
  0
POINT
  5
324
330
31B
100
AcDbEntity
  8
Defpoints
 62
     0
100
AcDbPoint
 10
138.2217934183557
 20
103.1603414725493
 30
0.0
  0
POINT
  5
325
330
31B
100
AcDbEntity
  8
Defpoints
 62
     0
100
AcDbPoint
 10
128.4092934183559
 20
203.1603224790213
 30
0.0
  0
POINT
  5
326
330
31B
100
AcDbEntity
  8
Defpoints
 62
     0
100
AcDbPoint
 10
204.5061636239321
 20
203.1603224790213
 30
0.0
  0
ENDBLK
  5
31D
330
31B
100
AcDbEntity
  8
0
100
AcDbBlockEnd
  0
BLOCK
  5
328
330
327
100
AcDbEntity
  8
0
100
AcDbBlockBegin
  2
*D19
 70
     1
 10
0.0
 20
0.0
 30
0.0
  3
*D19
  1
*D20
  0
LINE
  5
32A
330
327
100
AcDbEntity
  8
文字
 62
     0
370
    -2
100
AcDbLine
 10
293.5378919069828
 20
120.6797941615253
 30
0.0
 11
293.5378919069828
 21
48.99705619094036
 31
0.0
  0
LINE
  5
32B
330
327
100
AcDbEntity
  8
文字
 62
     0
370
    -2
100
AcDbLine
 10
323.5240215130191
 20
120.6797941615253
 30
0.0
 11
323.5240215130191
 21
48.99705619094036
 31
0.0
  0
LINE
  5
32C
330
327
100
AcDbEntity
  8
文字
 62
     0
370
    -2
100
AcDbLine
 10
296.0378919069828
 20
50.24705619094036
 30
0.0
 11
321.0240215130191
 21
50.24705619094036
 31
0.0
  0
SOLID
  5
32D
330
327
100
AcDbEntity
  8
文字
 62
     0
100
AcDbTrace
 10
296.0378919069828
 20
50.66372285760702
 30
0.0
 11
296.0378919069828
 21
49.83038952427369
 31
0.0
 12
293.5378919069828
 22
50.24705619094036
 32
0.0
 13
293.5378919069828
 23
50.24705619094036
 33
0.0
  0
SOLID
  5
32E
330
327
100
AcDbEntity
  8
文字
 62
     0
100
AcDbTrace
 10
321.0240215130191
 20
49.83038952427369
 30
0.0
 11
321.0240215130191
 21
50.66372285760702
 31
0.0
 12
323.5240215130191
 22
50.24705619094036
 32
0.0
 13
323.5240215130191
 23
50.24705619094036
 33
0.0
  0
MTEXT
  5
32F
330
327
100
AcDbEntity
  8
文字
 62
     0
100
AcDbMText
 10
308.530956710001
 20
52.40275196174527
 30
0.0
 40
3.0
 41
0.0
 46
0.0
 71
     5
 72
     1
  1
36
 73
     1
 44
1.0
  0
POINT
  5
330
330
327
100
AcDbEntity
  8
Defpoints
 62
     0
100
AcDbPoint
 10
293.5378919069828
 20
121.3047941615253
 30
0.0
  0
POINT
  5
331
330
327
100
AcDbEntity
  8
Defpoints
 62
     0
100
AcDbPoint
 10
323.5240215130191
 20
121.3047941615253
 30
0.0
  0
POINT
  5
332
330
327
100
AcDbEntity
  8
Defpoints
 62
     0
100
AcDbPoint
 10
323.5240215130191
 20
50.24705619094036
 30
0.0
  0
ENDBLK
  5
329
330
327
100
AcDbEntity
  8
0
100
AcDbBlockEnd
  0
BLOCK
  5
334
330
333
100
AcDbEntity
  8
0
100
AcDbBlockBegin
  2
*D20
 70
     1
 10
0.0
 20
0.0
 30
0.0
  3
*D20
  1
*D21
  0
LINE
  5
336
330
333
100
AcDbEntity
  8
文字
 62
     0
370
    -2
100
AcDbLine
 10
186.5370521126008
 20
62.16034002666555
 30
0.0
 11
211.4625397260757
 21
62.16034002666555
 31
0.0
  0
LINE
  5
337
330
333
100
AcDbEntity
  8
文字
 62
     0
370
    -2
100
AcDbLine
 10
129.5342934183559
 20
175.2281097162277
 30
0.0
 11
211.4625397260757
 21
175.2281097162277
 31
0.0
  0
LINE
  5
338
330
333
100
AcDbEntity
  8
文字
 62
     0
370
    -2
100
AcDbLine
 10
210.2125397260757
 20
62.16034002666555
 30
0.0
 11
210.2125397260757
 21
175.2281097162277
 31
0.0
  0
LINE
  5
339
330
333
100
AcDbEntity
  8
文字
 62
     0
370
    -2
100
AcDbLine
 10
210.2125397260757
 20
59.66034002666555
 30
0.0
 11
210.2125397260757
 21
57.16034002666555
 31
0.0
  0
LINE
  5
33A
330
333
100
AcDbEntity
  8
文字
 62
     0
370
    -2
100
AcDbLine
 10
210.2125397260757
 20
177.7281097162277
 30
0.0
 11
210.2125397260757
 21
180.2281097162277
 31
0.0
  0
SOLID
  5
33B
330
333
100
AcDbEntity
  8
文字
 62
     0
100
AcDbTrace
 10
210.6292063927424
 20
59.66034002666555
 30
0.0
 11
209.795873059409
 21
59.66034002666555
 31
0.0
 12
210.2125397260757
 22
62.16034002666555
 32
0.0
 13
210.2125397260757
 23
62.16034002666555
 33
0.0
  0
SOLID
  5
33C
330
333
100
AcDbEntity
  8
文字
 62
     0
100
AcDbTrace
 10
209.795873059409
 20
177.7281097162277
 30
0.0
 11
210.6292063927424
 21
177.7281097162277
 31
0.0
 12
210.2125397260757
 22
175.2281097162277
 32
0.0
 13
210.2125397260757
 23
175.2281097162277
 33
0.0
  0
MTEXT
  5
33D
330
333
100
AcDbEntity
  8
文字
 62
     0
100
AcDbMText
 10
208.0568439552708
 20
118.6942248714466
 30
0.0
 40
3.0
 41
0.0
 46
0.0
 71
     5
 72
     1
  1
113
 11
0.0
 21
1.0
 31
0.0
 73
     1
 44
1.0
  0
POINT
  5
33E
330
333
100
AcDbEntity
  8
Defpoints
 62
     0
100
AcDbPoint
 10
185.9120521126008
 20
62.16034002666555
 30
0.0
  0
POINT
  5
5C7
330
333
100
AcDbEntity
  8
Defpoints
 62
     0
100
AcDbPoint
 10
128.9092934183559
 20
175.2281097162277
 30
0.0
  0
POINT
  5
5C8
330
333
100
AcDbEntity
  8
Defpoints
 62
     0
100
AcDbPoint
 10
210.2125397260757
 20
175.2281097162277
 30
0.0
  0
ENDBLK
  5
335
330
333
100
AcDbEntity
  8
0
100
AcDbBlockEnd
  0
BLOCK
  5
340
330
33F
100
AcDbEntity
  8
0
100
AcDbBlockBegin
  2
*D21
 70
     1
 10
0.0
 20
0.0
 30
0.0
  3
*D21
  1
*D22
  0
LINE
  5
342
330
33F
100
AcDbEntity
  8
文字
 62
     0
370
    -2
100
AcDbLine
 10
138.8467934183557
 20
103.1603414725493
 30
0.0
 11
205.7561636239321
 21
103.1603414725493
 31
0.0
  0
LINE
  5
343
330
33F
100
AcDbEntity
  8
文字
 62
     0
370
    -2
100
AcDbLine
 10
134.4993803608054
 20
90.16034002666558
 30
0.0
 11
205.7561636239321
 21
90.16034002666558
 31
0.0
  0
LINE
  5
344
330
33F
100
AcDbEntity
  8
文字
 62
     0
370
    -2
100
AcDbLine
 10
204.5061636239321
 20
100.6603414725493
 30
0.0
 11
204.5061636239321
 21
92.66034002666558
 31
0.0
  0
SOLID
  5
345
330
33F
100
AcDbEntity
  8
文字
 62
     0
100
AcDbTrace
 10
204.9228302905987
 20
100.6603414725493
 30
0.0
 11
204.0894969572654
 21
100.6603414725493
 31
0.0
 12
204.5061636239321
 22
103.1603414725493
 32
0.0
 13
204.5061636239321
 23
103.1603414725493
 33
0.0
  0
SOLID
  5
346
330
33F
100
AcDbEntity
  8
文字
 62
     0
100
AcDbTrace
 10
204.0894969572654
 20
92.66034002666558
 30
0.0
 11
204.9228302905987
 21
92.66034002666558
 31
0.0
 12
204.5061636239321
 22
90.16034002666558
 32
0.0
 13
204.5061636239321
 23
90.16034002666558
 33
0.0
  0
MTEXT
  5
347
330
33F
100
AcDbEntity
  8
文字
 62
     0
100
AcDbMText
 10
202.3504678531272
 20
96.66034074960746
 30
0.0
 40
3.0
 41
0.0
 46
0.0
 71
     5
 72
     1
  1
19
 11
0.0
 21
1.0
 31
0.0
 73
     1
 44
1.0
  0
POINT
  5
348
330
33F
100
AcDbEntity
  8
Defpoints
 62
     0
100
AcDbPoint
 10
138.2217934183557
 20
103.1603414725493
 30
0.0
  0
POINT
  5
349
330
33F
100
AcDbEntity
  8
Defpoints
 62
     0
100
AcDbPoint
 10
133.8743803608054
 20
90.16034002666558
 30
0.0
  0
POINT
  5
34A
330
33F
100
AcDbEntity
  8
Defpoints
 62
     0
100
AcDbPoint
 10
204.5061636239321
 20
90.16034002666558
 30
0.0
  0
ENDBLK
  5
341
330
33F
100
AcDbEntity
  8
0
100
AcDbBlockEnd
  0
BLOCK
  5
37A
330
379
100
AcDbEntity
  8
0
100
AcDbBlockBegin
  2
*D22
 70
     1
 10
0.0
 20
0.0
 30
0.0
  3
*D22
  1
*D19
  0
LINE
  5
37B
330
379
100
AcDbEntity
  8
文字・寸法線
 62
     0
370
    -2
100
AcDbLine
 10
35.22500000000045
 20
13.00004884292255
 30
0.0
 11
83.43528640562616
 21
13.00004884292255
 31
0.0
  0
LINE
  5
37C
330
379
100
AcDbEntity
  8
文字・寸法線
 62
     0
370
    -2
100
AcDbLine
 10
25.90961350549385
 20
113.000047107862
 30
0.0
 11
83.43528640562616
 21
113.000047107862
 31
0.0
  0
LINE
  5
37D
330
379
100
AcDbEntity
  8
文字・寸法線
 62
     0
370
    -2
100
AcDbLine
 10
82.18528640562616
 20
15.50004884292255
 30
0.0
 11
82.18528640562616
 21
110.500047107862
 31
0.0
  0
SOLID
  5
37E
330
379
100
AcDbEntity
  8
文字・寸法線
 62
     0
100
AcDbTrace
 10
81.76861973895949
 20
15.50004884292255
 30
0.0
 11
82.60195307229283
 21
15.50004884292255
 31
0.0
 12
82.18528640562616
 22
13.00004884292255
 32
0.0
 13
82.18528640562616
 23
13.00004884292255
 33
0.0
  0
SOLID
  5
37F
330
379
100
AcDbEntity
  8
文字・寸法線
 62
     0
100
AcDbTrace
 10
82.60195307229283
 20
110.500047107862
 30
0.0
 11
81.76861973895949
 21
110.500047107862
 31
0.0
 12
82.18528640562616
 22
113.000047107862
 32
0.0
 13
82.18528640562616
 23
113.000047107862
 33
0.0
  0
MTEXT
  5
380
330
379
100
AcDbEntity
  8
文字・寸法線
 62
     0
100
AcDbMText
 10
80.02959063482125
 20
63.00004797539226
 30
0.0
 40
3.0
 41
0.0
 46
0.0
 71
     5
 72
     1
  1
100
 11
0.0
 21
1.0
 31
0.0
 73
     1
 44
1.0
  0
POINT
  5
381
330
379
100
AcDbEntity
  8
Defpoints
 62
     0
100
AcDbPoint
 10
34.60000000000045
 20
13.00004884292255
 30
0.0
  0
POINT
  5
382
330
379
100
AcDbEntity
  8
Defpoints
 62
     0
100
AcDbPoint
 10
25.28461350549385
 20
113.000047107862
 30
0.0
  0
POINT
  5
383
330
379
100
AcDbEntity
  8
Defpoints
 62
     0
100
AcDbPoint
 10
82.18528640562616
 20
113.000047107862
 30
0.0
  0
ENDBLK
  5
384
330
379
100
AcDbEntity
  8
0
100
AcDbBlockEnd
  0
BLOCK
  5
387
330
386
100
AcDbEntity
  8
0
100
AcDbBlockBegin
  2
*D23
 70
     1
 10
0.0
 20
0.0
 30
0.0
  3
*D23
  1
*D20
  0
LINE
  5
388
330
386
100
AcDbEntity
  8
文字・寸法線
 62
     0
370
    -2
100
AcDbLine
 10
28.28168305945475
 20
0.0000459511550019
 30
0.0
 11
83.43528640562616
 21
0.0000459511549983
 31
0.0
  0
LINE
  5
389
330
386
100
AcDbEntity
  8
文字・寸法線
 62
     0
370
    -2
100
AcDbLine
 10
35.22500000000045
 20
13.00004884292255
 30
0.0
 11
83.43528640562616
 21
13.00004884292255
 31
0.0
  0
LINE
  5
38A
330
386
100
AcDbEntity
  8
文字・寸法線
 62
     0
370
    -2
100
AcDbLine
 10
82.18528640562616
 20
2.500045951154998
 30
0.0
 11
82.18528640562616
 21
10.50004884292255
 31
0.0
  0
SOLID
  5
38B
330
386
100
AcDbEntity
  8
文字・寸法線
 62
     0
100
AcDbTrace
 10
81.76861973895949
 20
2.500045951154998
 30
0.0
 11
82.60195307229283
 21
2.500045951154998
 31
0.0
 12
82.18528640562616
 22
0.0000459511549984
 32
0.0
 13
82.18528640562616
 23
0.0000459511549984
 33
0.0
  0
SOLID
  5
38C
330
386
100
AcDbEntity
  8
文字・寸法線
 62
     0
100
AcDbTrace
 10
82.60195307229283
 20
10.50004884292255
 30
0.0
 11
81.76861973895949
 21
10.50004884292255
 31
0.0
 12
82.18528640562616
 22
13.00004884292255
 32
0.0
 13
82.18528640562616
 23
13.00004884292255
 33
0.0
  0
MTEXT
  5
38D
330
386
100
AcDbEntity
  8
文字・寸法線
 62
     0
100
AcDbMText
 10
80.02959063482125
 20
6.500047397038774
 30
0.0
 40
3.0
 41
0.0
 46
0.0
 71
     5
 72
     1
  1
13
 11
0.0
 21
1.0
 31
0.0
 73
     1
 44
1.0
  0
POINT
  5
38E
330
386
100
AcDbEntity
  8
Defpoints
 62
     0
100
AcDbPoint
 10
27.65668305945475
 20
0.0000459511550019
 30
0.0
  0
POINT
  5
38F
330
386
100
AcDbEntity
  8
Defpoints
 62
     0
100
AcDbPoint
 10
34.60000000000045
 20
13.00004884292255
 30
0.0
  0
POINT
  5
390
330
386
100
AcDbEntity
  8
Defpoints
 62
     0
100
AcDbPoint
 10
82.18528640562616
 20
13.00004884292255
 30
0.0
  0
ENDBLK
  5
391
330
386
100
AcDbEntity
  8
0
100
AcDbBlockEnd
  0
BLOCK
  5
39D
330
39C
100
AcDbEntity
  8
0
100
AcDbBlockBegin
  2
*D24
 70
     1
 10
0.0
 20
0.0
 30
0.0
  3
*D24
  1
*D21
  0
LINE
  5
39E
330
39C
100
AcDbEntity
  8
文字・寸法線
 62
     0
370
    -2
100
AcDbLine
 10
7.284613505493894
 20
111.625047107862
 30
0.0
 11
7.284613505493894
 21
129.2362375076033
 31
0.0
  0
LINE
  5
39F
330
39C
100
AcDbEntity
  8
文字・寸法線
 62
     0
370
    -2
100
AcDbLine
 10
27.28461350549385
 20
111.625047107862
 30
0.0
 11
27.28461350549385
 21
129.2362375076033
 31
0.0
  0
LINE
  5
3A0
330
39C
100
AcDbEntity
  8
文字・寸法線
 62
     0
370
    -2
100
AcDbLine
 10
9.784613505493894
 20
127.9862375076033
 30
0.0
 11
24.78461350549385
 21
127.9862375076033
 31
0.0
  0
SOLID
  5
3A1
330
39C
100
AcDbEntity
  8
文字・寸法線
 62
     0
100
AcDbTrace
 10
9.784613505493894
 20
128.40290417427
 30
0.0
 11
9.784613505493894
 21
127.5695708409367
 31
0.0
 12
7.284613505493894
 22
127.9862375076033
 32
0.0
 13
7.284613505493894
 23
127.9862375076033
 33
0.0
  0
SOLID
  5
3A2
330
39C
100
AcDbEntity
  8
文字・寸法線
 62
     0
100
AcDbTrace
 10
24.78461350549385
 20
127.5695708409367
 30
0.0
 11
24.78461350549385
 21
128.40290417427
 31
0.0
 12
27.28461350549385
 22
127.9862375076033
 32
0.0
 13
27.28461350549385
 23
127.9862375076033
 33
0.0
  0
MTEXT
  5
3A3
330
39C
100
AcDbEntity
  8
文字・寸法線
 62
     0
100
AcDbMText
 10
17.28461350549387
 20
130.1419332784083
 30
0.0
 40
3.0
 41
0.0
 46
0.0
 71
     5
 72
     1
  1
M20
 73
     1
 44
1.0
  0
POINT
  5
3A4
330
39C
100
AcDbEntity
  8
Defpoints
 62
     0
100
AcDbPoint
 10
7.284613505493894
 20
111.000047107862
 30
0.0
  0
POINT
  5
3A5
330
39C
100
AcDbEntity
  8
Defpoints
 62
     0
100
AcDbPoint
 10
27.28461350549385
 20
111.000047107862
 30
0.0
  0
POINT
  5
3A6
330
39C
100
AcDbEntity
  8
Defpoints
 62
     0
100
AcDbPoint
 10
27.28461350549385
 20
127.9862375076033
 30
0.0
  0
ENDBLK
  5
3A7
330
39C
100
AcDbEntity
  8
0
100
AcDbBlockEnd
  0
BLOCK
  5
3CC
330
3CB
100
AcDbEntity
  8
0
100
AcDbBlockBegin
  2
*D25
 70
     1
 10
0.0
 20
0.0
 30
0.0
  3
*D25
  1
*D27
  0
LINE
  5
3CE
330
3CB
100
AcDbEntity
  8
文字・寸法線
 62
     0
370
    -2
100
AcDbLine
 10
138.7734280679601
 20
103.2281301556395
 30
0.0
 11
204.6312343519039
 21
103.2281301556395
 31
0.0
  0
LINE
  5
3CF
330
3CB
100
AcDbEntity
  8
文字・寸法線
 62
     0
370
    -2
100
AcDbLine
 10
129.4580415734536
 20
203.2281284205789
 30
0.0
 11
204.6312343519039
 21
203.2281284205789
 31
0.0
  0
LINE
  5
3D0
330
3CB
100
AcDbEntity
  8
文字・寸法線
 62
     0
370
    -2
100
AcDbLine
 10
203.3812343519039
 20
105.7281301556395
 30
0.0
 11
203.3812343519039
 21
200.7281284205789
 31
0.0
  0
SOLID
  5
3D1
330
3CB
100
AcDbEntity
  8
文字・寸法線
 62
     0
100
AcDbTrace
 10
202.9645676852373
 20
105.7281301556395
 30
0.0
 11
203.7979010185706
 21
105.7281301556395
 31
0.0
 12
203.3812343519039
 22
103.2281301556395
 32
0.0
 13
203.3812343519039
 23
103.2281301556395
 33
0.0
  0
SOLID
  5
3D2
330
3CB
100
AcDbEntity
  8
文字・寸法線
 62
     0
100
AcDbTrace
 10
203.7979010185706
 20
200.7281284205789
 30
0.0
 11
202.9645676852373
 21
200.7281284205789
 31
0.0
 12
203.3812343519039
 22
203.2281284205789
 32
0.0
 13
203.3812343519039
 23
203.2281284205789
 33
0.0
  0
MTEXT
  5
3D3
330
3CB
100
AcDbEntity
  8
文字・寸法線
 62
     0
100
AcDbMText
 10
201.225538581099
 20
153.2281292881092
 30
0.0
 40
3.0
 41
0.0
 46
0.0
 71
     5
 72
     1
  1
100
 11
0.0
 21
1.0
 31
0.0
 73
     1
 44
1.0
  0
POINT
  5
3D4
330
3CB
100
AcDbEntity
  8
Defpoints
 62
     0
100
AcDbPoint
 10
138.1484280679601
 20
103.2281301556395
 30
0.0
  0
POINT
  5
3D5
330
3CB
100
AcDbEntity
  8
Defpoints
 62
     0
100
AcDbPoint
 10
128.8330415734536
 20
203.2281284205789
 30
0.0
  0
POINT
  5
3D6
330
3CB
100
AcDbEntity
  8
Defpoints
 62
     0
100
AcDbPoint
 10
203.3812343519039
 20
203.2281284205789
 30
0.0
  0
ENDBLK
  5
3CD
330
3CB
100
AcDbEntity
  8
0
100
AcDbBlockEnd
  0
BLOCK
  5
3D8
330
3D7
100
AcDbEntity
  8
0
100
AcDbBlockBegin
  2
*D26
 70
     1
 10
0.0
 20
0.0
 30
0.0
  3
*D26
  1
*D28
  0
LINE
  5
3DA
330
3D7
100
AcDbEntity
  8
文字・寸法線
 62
     0
370
    -2
100
AcDbLine
 10
131.8301111274145
 20
90.22812726387193
 30
0.0
 11
204.6312343519039
 21
90.22812726387193
 31
0.0
  0
LINE
  5
3DB
330
3D7
100
AcDbEntity
  8
文字・寸法線
 62
     0
370
    -2
100
AcDbLine
 10
138.7734280679601
 20
103.2281301556395
 30
0.0
 11
204.6312343519039
 21
103.2281301556395
 31
0.0
  0
LINE
  5
3DC
330
3D7
100
AcDbEntity
  8
文字・寸法線
 62
     0
370
    -2
100
AcDbLine
 10
203.3812343519039
 20
92.72812726387193
 30
0.0
 11
203.3812343519039
 21
100.7281301556395
 31
0.0
  0
SOLID
  5
3DD
330
3D7
100
AcDbEntity
  8
文字・寸法線
 62
     0
100
AcDbTrace
 10
202.9645676852373
 20
92.72812726387193
 30
0.0
 11
203.7979010185706
 21
92.72812726387193
 31
0.0
 12
203.3812343519039
 22
90.22812726387193
 32
0.0
 13
203.3812343519039
 23
90.22812726387193
 33
0.0
  0
SOLID
  5
3DE
330
3D7
100
AcDbEntity
  8
文字・寸法線
 62
     0
100
AcDbTrace
 10
203.7979010185706
 20
100.7281301556395
 30
0.0
 11
202.9645676852373
 21
100.7281301556395
 31
0.0
 12
203.3812343519039
 22
103.2281301556395
 32
0.0
 13
203.3812343519039
 23
103.2281301556395
 33
0.0
  0
MTEXT
  5
3DF
330
3D7
100
AcDbEntity
  8
文字・寸法線
 62
     0
100
AcDbMText
 10
201.225538581099
 20
96.72812870975571
 30
0.0
 40
3.0
 41
0.0
 46
0.0
 71
     5
 72
     1
  1
13
 11
0.0
 21
1.0
 31
0.0
 73
     1
 44
1.0
  0
POINT
  5
3E0
330
3D7
100
AcDbEntity
  8
Defpoints
 62
     0
100
AcDbPoint
 10
131.2051111274145
 20
90.22812726387193
 30
0.0
  0
POINT
  5
3E1
330
3D7
100
AcDbEntity
  8
Defpoints
 62
     0
100
AcDbPoint
 10
138.1484280679601
 20
103.2281301556395
 30
0.0
  0
POINT
  5
3E2
330
3D7
100
AcDbEntity
  8
Defpoints
 62
     0
100
AcDbPoint
 10
203.3812343519039
 20
103.2281301556395
 30
0.0
  0
ENDBLK
  5
3D9
330
3D7
100
AcDbEntity
  8
0
100
AcDbBlockEnd
  0
BLOCK
  5
3E4
330
3E3
100
AcDbEntity
  8
0
100
AcDbBlockBegin
  2
*D27
 70
     1
 10
0.0
 20
0.0
 30
0.0
  3
*D27
  1
*D29
  0
LINE
  5
3E6
330
3E3
100
AcDbEntity
  8
文字・寸法線
 62
     0
370
    -2
100
AcDbLine
 10
110.8330415734536
 20
201.8531284205789
 30
0.0
 11
110.8330415734536
 21
219.4643188203203
 31
0.0
  0
LINE
  5
3E7
330
3E3
100
AcDbEntity
  8
文字・寸法線
 62
     0
370
    -2
100
AcDbLine
 10
130.8330415734536
 20
201.8531284205789
 30
0.0
 11
130.8330415734536
 21
219.4643188203203
 31
0.0
  0
LINE
  5
3E8
330
3E3
100
AcDbEntity
  8
文字・寸法線
 62
     0
370
    -2
100
AcDbLine
 10
113.3330415734536
 20
218.2143188203203
 30
0.0
 11
128.3330415734536
 21
218.2143188203203
 31
0.0
  0
SOLID
  5
3E9
330
3E3
100
AcDbEntity
  8
文字・寸法線
 62
     0
100
AcDbTrace
 10
113.3330415734536
 20
218.630985486987
 30
0.0
 11
113.3330415734536
 21
217.7976521536536
 31
0.0
 12
110.8330415734536
 22
218.2143188203203
 32
0.0
 13
110.8330415734536
 23
218.2143188203203
 33
0.0
  0
SOLID
  5
3EA
330
3E3
100
AcDbEntity
  8
文字・寸法線
 62
     0
100
AcDbTrace
 10
128.3330415734536
 20
217.7976521536536
 30
0.0
 11
128.3330415734536
 21
218.630985486987
 31
0.0
 12
130.8330415734536
 22
218.2143188203203
 32
0.0
 13
130.8330415734536
 23
218.2143188203203
 33
0.0
  0
MTEXT
  5
3EB
330
3E3
100
AcDbEntity
  8
文字・寸法線
 62
     0
100
AcDbMText
 10
120.8330415734536
 20
220.3700145911252
 30
0.0
 40
3.0
 41
0.0
 46
0.0
 71
     5
 72
     1
  1
M20
 73
     1
 44
1.0
  0
POINT
  5
3EC
330
3E3
100
AcDbEntity
  8
Defpoints
 62
     0
100
AcDbPoint
 10
110.8330415734536
 20
201.2281284205789
 30
0.0
  0
POINT
  5
3ED
330
3E3
100
AcDbEntity
  8
Defpoints
 62
     0
100
AcDbPoint
 10
130.8330415734536
 20
201.2281284205789
 30
0.0
  0
POINT
  5
3EE
330
3E3
100
AcDbEntity
  8
Defpoints
 62
     0
100
AcDbPoint
 10
130.8330415734536
 20
218.2143188203203
 30
0.0
  0
ENDBLK
  5
3E5
330
3E3
100
AcDbEntity
  8
0
100
AcDbBlockEnd
  0
BLOCK
  5
4BF
330
4BE
100
AcDbEntity
  8
0
100
AcDbBlockBegin
  2
*D28
 70
     1
 10
0.0
 20
0.0
 30
0.0
  3
*D28
  1
*D18
  0
LINE
  5
4C0
330
4BE
100
AcDbEntity
  8
文字・寸法線
 62
     0
370
    -2
100
AcDbLine
 10
5.847241305755119
 20
83.12502984939464
 30
0.0
 11
5.847241305755119
 21
97.54616612437836
 31
0.0
  0
LINE
  5
4C1
330
4BE
100
AcDbEntity
  8
文字・寸法線
 62
     0
370
    -2
100
AcDbLine
 10
21.84724130575511
 20
83.12502984939464
 30
0.0
 11
21.84724130575511
 21
97.54616612437836
 31
0.0
  0
LINE
  5
4C2
330
4BE
100
AcDbEntity
  8
文字・寸法線
 62
     0
370
    -2
100
AcDbLine
 10
8.34724130575512
 20
96.29616612437836
 30
0.0
 11
19.34724130575511
 21
96.29616612437836
 31
0.0
  0
SOLID
  5
4C3
330
4BE
100
AcDbEntity
  8
文字・寸法線
 62
     0
100
AcDbTrace
 10
8.34724130575512
 20
96.71283279104503
 30
0.0
 11
8.34724130575512
 21
95.87949945771169
 31
0.0
 12
5.847241305755119
 22
96.29616612437836
 32
0.0
 13
5.847241305755119
 23
96.29616612437836
 33
0.0
  0
SOLID
  5
4C4
330
4BE
100
AcDbEntity
  8
文字・寸法線
 62
     0
100
AcDbTrace
 10
19.34724130575511
 20
95.87949945771169
 30
0.0
 11
19.34724130575511
 21
96.71283279104503
 31
0.0
 12
21.84724130575511
 22
96.29616612437836
 32
0.0
 13
21.84724130575511
 23
96.29616612437836
 33
0.0
  0
MTEXT
  5
4C5
330
4BE
100
AcDbEntity
  8
文字・寸法線
 62
     0
100
AcDbMText
 10
13.84724130575511
 20
98.45186189518327
 30
0.0
 40
3.0
 41
0.0
 46
0.0
 71
     5
 72
     1
  1
M16
 73
     1
 44
1.0
  0
POINT
  5
4C6
330
4BE
100
AcDbEntity
  8
Defpoints
 62
     0
100
AcDbPoint
 10
5.847241305755119
 20
82.50002984939464
 30
0.0
  0
POINT
  5
4C7
330
4BE
100
AcDbEntity
  8
Defpoints
 62
     0
100
AcDbPoint
 10
21.84724130575511
 20
82.50002984939464
 30
0.0
  0
POINT
  5
4C8
330
4BE
100
AcDbEntity
  8
Defpoints
 62
     0
100
AcDbPoint
 10
21.84724130575511
 20
96.29616612437836
 30
0.0
  0
ENDBLK
  5
4C9
330
4BE
100
AcDbEntity
  8
0
100
AcDbBlockEnd
  0
BLOCK
  5
4CC
330
4CB
100
AcDbEntity
  8
0
100
AcDbBlockBegin
  2
*D29
 70
     1
 10
0.0
 20
0.0
 30
0.0
  3
*D29
  1
*D19
  0
LINE
  5
4CD
330
4CB
100
AcDbEntity
  8
文字・寸法線
 62
     0
370
    -2
100
AcDbLine
 10
28.32224130575541
 20
10.00004884292255
 30
0.0
 11
98.69411151133123
 21
10.00004884292255
 31
0.0
  0
LINE
  5
4CE
330
4CB
100
AcDbEntity
  8
文字・寸法線
 62
     0
370
    -2
100
AcDbLine
 10
19.97224130575511
 20
85.00002984939464
 30
0.0
 11
98.69411151133123
 21
85.00002984939464
 31
0.0
  0
LINE
  5
4CF
330
4CB
100
AcDbEntity
  8
文字・寸法線
 62
     0
370
    -2
100
AcDbLine
 10
97.44411151133123
 20
12.50004884292255
 30
0.0
 11
97.44411151133123
 21
82.50002984939464
 31
0.0
  0
SOLID
  5
4D0
330
4CB
100
AcDbEntity
  8
文字・寸法線
 62
     0
100
AcDbTrace
 10
97.02744484466456
 20
12.50004884292255
 30
0.0
 11
97.8607781779979
 21
12.50004884292255
 31
0.0
 12
97.44411151133123
 22
10.00004884292255
 32
0.0
 13
97.44411151133123
 23
10.00004884292255
 33
0.0
  0
SOLID
  5
4D1
330
4CB
100
AcDbEntity
  8
文字・寸法線
 62
     0
100
AcDbTrace
 10
97.8607781779979
 20
82.50002984939464
 30
0.0
 11
97.02744484466456
 21
82.50002984939464
 31
0.0
 12
97.44411151133123
 22
85.00002984939464
 32
0.0
 13
97.44411151133123
 23
85.00002984939464
 33
0.0
  0
MTEXT
  5
4D2
330
4CB
100
AcDbEntity
  8
文字・寸法線
 62
     0
100
AcDbMText
 10
95.29455489468731
 20
47.50003934615859
 30
0.0
 40
3.0
 41
0.0
 46
0.0
 71
     5
 72
     1
  1
75
 11
0.0
 21
1.0
 31
0.0
 73
     1
 44
1.0
  0
POINT
  5
4D3
330
4CB
100
AcDbEntity
  8
Defpoints
 62
     0
100
AcDbPoint
 10
27.69724130575541
 20
10.00004884292255
 30
0.0
  0
POINT
  5
4D4
330
4CB
100
AcDbEntity
  8
Defpoints
 62
     0
100
AcDbPoint
 10
19.34724130575511
 20
85.00002984939464
 30
0.0
  0
POINT
  5
4D5
330
4CB
100
AcDbEntity
  8
Defpoints
 62
     0
100
AcDbPoint
 10
97.44411151133123
 20
85.00002984939464
 30
0.0
  0
ENDBLK
  5
4D6
330
4CB
100
AcDbEntity
  8
0
100
AcDbBlockEnd
  0
BLOCK
  5
4D9
330
4D8
100
AcDbEntity
  8
0
100
AcDbBlockBegin
  2
*D30
 70
     1
 10
0.0
 20
0.0
 30
0.0
  3
*D30
  1
*D21
  0
LINE
  5
4DA
330
4D8
100
AcDbEntity
  8
文字・寸法線
 62
     0
370
    -2
100
AcDbLine
 10
25.42224130575532
 20
10.00004884292255
 30
0.0
 11
98.69411151133123
 21
10.00004884292255
 31
0.0
  0
LINE
  5
4DB
330
4D8
100
AcDbEntity
  8
文字・寸法線
 62
     0
370
    -2
100
AcDbLine
 10
21.67428523886882
 20
0.0000473970388554
 30
0.0
 11
98.69411151133123
 21
0.0000473970388507
 31
0.0
  0
LINE
  5
4DC
330
4D8
100
AcDbEntity
  8
文字・寸法線
 62
     0
370
    -2
100
AcDbLine
 10
97.44411151133123
 20
7.500048842922547
 30
0.0
 11
97.44411151133123
 21
2.500047397038851
 31
0.0
  0
SOLID
  5
4DD
330
4D8
100
AcDbEntity
  8
文字・寸法線
 62
     0
100
AcDbTrace
 10
97.8607781779979
 20
7.500048842922547
 30
0.0
 11
97.02744484466456
 21
7.500048842922547
 31
0.0
 12
97.44411151133123
 22
10.00004884292255
 32
0.0
 13
97.44411151133123
 23
10.00004884292255
 33
0.0
  0
SOLID
  5
4DE
330
4D8
100
AcDbEntity
  8
文字・寸法線
 62
     0
100
AcDbTrace
 10
97.02744484466456
 20
2.500047397038851
 30
0.0
 11
97.8607781779979
 21
2.500047397038851
 31
0.0
 12
97.44411151133123
 22
0.0000473970388508
 32
0.0
 13
97.44411151133123
 23
0.0000473970388508
 33
0.0
  0
MTEXT
  5
4DF
330
4D8
100
AcDbEntity
  8
文字・寸法線
 62
     0
100
AcDbMText
 10
95.28841574052632
 20
5.000048119980699
 30
0.0
 40
3.0
 41
0.0
 46
0.0
 71
     5
 72
     1
  1
10
 11
0.0
 21
1.0
 31
0.0
 73
     1
 44
1.0
  0
POINT
  5
4E0
330
4D8
100
AcDbEntity
  8
Defpoints
 62
     0
100
AcDbPoint
 10
24.79724130575532
 20
10.00004884292255
 30
0.0
  0
POINT
  5
4E1
330
4D8
100
AcDbEntity
  8
Defpoints
 62
     0
100
AcDbPoint
 10
21.04928523886882
 20
0.0000473970388555
 30
0.0
  0
POINT
  5
4E2
330
4D8
100
AcDbEntity
  8
Defpoints
 62
     0
100
AcDbPoint
 10
97.44411151133123
 20
0.0000473970388508
 30
0.0
  0
ENDBLK
  5
4E3
330
4D8
100
AcDbEntity
  8
0
100
AcDbBlockEnd
  0
BLOCK
  5
50A
330
509
100
AcDbEntity
  8
0
100
AcDbBlockBegin
  2
*D31
 70
     1
 10
0.0
 20
0.0
 30
0.0
  3
*D31
  1
*D32
  0
LINE
  5
50C
330
509
100
AcDbEntity
  8
文字・寸法線
 62
     0
370
    -2
100
AcDbLine
 10
113.2408906160645
 20
174.0608771944092
 30
0.0
 11
113.2408906160645
 21
188.4820134693929
 31
0.0
  0
LINE
  5
50D
330
509
100
AcDbEntity
  8
文字・寸法線
 62
     0
370
    -2
100
AcDbLine
 10
129.2408906160645
 20
174.0608771944092
 30
0.0
 11
129.2408906160645
 21
188.4820134693929
 31
0.0
  0
LINE
  5
50E
330
509
100
AcDbEntity
  8
文字・寸法線
 62
     0
370
    -2
100
AcDbLine
 10
115.7408906160645
 20
187.2320134693929
 30
0.0
 11
126.7408906160645
 21
187.2320134693929
 31
0.0
  0
SOLID
  5
50F
330
509
100
AcDbEntity
  8
文字・寸法線
 62
     0
100
AcDbTrace
 10
115.7408906160645
 20
187.6486801360596
 30
0.0
 11
115.7408906160645
 21
186.8153468027263
 31
0.0
 12
113.2408906160645
 22
187.2320134693929
 32
0.0
 13
113.2408906160645
 23
187.2320134693929
 33
0.0
  0
SOLID
  5
510
330
509
100
AcDbEntity
  8
文字・寸法線
 62
     0
100
AcDbTrace
 10
126.7408906160645
 20
186.8153468027263
 30
0.0
 11
126.7408906160645
 21
187.6486801360596
 31
0.0
 12
129.2408906160645
 22
187.2320134693929
 32
0.0
 13
129.2408906160645
 23
187.2320134693929
 33
0.0
  0
MTEXT
  5
511
330
509
100
AcDbEntity
  8
文字・寸法線
 62
     0
100
AcDbMText
 10
121.2408906160645
 20
189.3877092401979
 30
0.0
 40
3.0
 41
0.0
 46
0.0
 71
     5
 72
     1
  1
M16
 73
     1
 44
1.0
  0
POINT
  5
512
330
509
100
AcDbEntity
  8
Defpoints
 62
     0
100
AcDbPoint
 10
113.2408906160645
 20
173.4358771944092
 30
0.0
  0
POINT
  5
513
330
509
100
AcDbEntity
  8
Defpoints
 62
     0
100
AcDbPoint
 10
129.2408906160645
 20
173.4358771944092
 30
0.0
  0
POINT
  5
514
330
509
100
AcDbEntity
  8
Defpoints
 62
     0
100
AcDbPoint
 10
129.2408906160645
 20
187.2320134693929
 30
0.0
  0
ENDBLK
  5
50B
330
509
100
AcDbEntity
  8
0
100
AcDbBlockEnd
  0
BLOCK
  5
516
330
515
100
AcDbEntity
  8
0
100
AcDbBlockBegin
  2
*D32
 70
     1
 10
0.0
 20
0.0
 30
0.0
  3
*D32
  1
*D33
  0
LINE
  5
518
330
515
100
AcDbEntity
  8
文字・寸法線
 62
     0
370
    -2
100
AcDbLine
 10
135.7158906160648
 20
100.9358961879372
 30
0.0
 11
206.0877608216406
 21
100.9358961879372
 31
0.0
  0
LINE
  5
519
330
515
100
AcDbEntity
  8
文字・寸法線
 62
     0
370
    -2
100
AcDbLine
 10
127.3658906160645
 20
175.9358771944092
 30
0.0
 11
206.0877608216406
 21
175.9358771944092
 31
0.0
  0
LINE
  5
51A
330
515
100
AcDbEntity
  8
文字・寸法線
 62
     0
370
    -2
100
AcDbLine
 10
204.8377608216406
 20
103.4358961879372
 30
0.0
 11
204.8377608216406
 21
173.4358771944092
 31
0.0
  0
SOLID
  5
51B
330
515
100
AcDbEntity
  8
文字・寸法線
 62
     0
100
AcDbTrace
 10
204.421094154974
 20
103.4358961879372
 30
0.0
 11
205.2544274883073
 21
103.4358961879372
 31
0.0
 12
204.8377608216406
 22
100.9358961879372
 32
0.0
 13
204.8377608216406
 23
100.9358961879372
 33
0.0
  0
SOLID
  5
51C
330
515
100
AcDbEntity
  8
文字・寸法線
 62
     0
100
AcDbTrace
 10
205.2544274883073
 20
173.4358771944092
 30
0.0
 11
204.421094154974
 21
173.4358771944092
 31
0.0
 12
204.8377608216406
 22
175.9358771944092
 32
0.0
 13
204.8377608216406
 23
175.9358771944092
 33
0.0
  0
MTEXT
  5
51D
330
515
100
AcDbEntity
  8
文字・寸法線
 62
     0
100
AcDbMText
 10
202.6882042049967
 20
138.4358866911732
 30
0.0
 40
3.0
 41
0.0
 46
0.0
 71
     5
 72
     1
  1
75
 11
0.0
 21
1.0
 31
0.0
 73
     1
 44
1.0
  0
POINT
  5
51E
330
515
100
AcDbEntity
  8
Defpoints
 62
     0
100
AcDbPoint
 10
135.0908906160648
 20
100.9358961879372
 30
0.0
  0
POINT
  5
51F
330
515
100
AcDbEntity
  8
Defpoints
 62
     0
100
AcDbPoint
 10
126.7408906160645
 20
175.9358771944092
 30
0.0
  0
POINT
  5
520
330
515
100
AcDbEntity
  8
Defpoints
 62
     0
100
AcDbPoint
 10
204.8377608216406
 20
175.9358771944092
 30
0.0
  0
ENDBLK
  5
517
330
515
100
AcDbEntity
  8
0
100
AcDbBlockEnd
  0
BLOCK
  5
522
330
521
100
AcDbEntity
  8
0
100
AcDbBlockBegin
  2
*D33
 70
     1
 10
0.0
 20
0.0
 30
0.0
  3
*D33
  1
*D34
  0
LINE
  5
524
330
521
100
AcDbEntity
  8
文字・寸法線
 62
     0
370
    -2
100
AcDbLine
 10
132.8158906160647
 20
100.9358961879372
 30
0.0
 11
206.0877608216406
 21
100.9358961879372
 31
0.0
  0
LINE
  5
525
330
521
100
AcDbEntity
  8
文字・寸法線
 62
     0
370
    -2
100
AcDbLine
 10
129.0679345491782
 20
90.93589474205346
 30
0.0
 11
206.0877608216406
 21
90.93589474205346
 31
0.0
  0
LINE
  5
526
330
521
100
AcDbEntity
  8
文字・寸法線
 62
     0
370
    -2
100
AcDbLine
 10
204.8377608216406
 20
98.43589618793716
 30
0.0
 11
204.8377608216406
 21
93.43589474205346
 31
0.0
  0
SOLID
  5
527
330
521
100
AcDbEntity
  8
文字・寸法線
 62
     0
100
AcDbTrace
 10
205.2544274883073
 20
98.43589618793716
 30
0.0
 11
204.421094154974
 21
98.43589618793716
 31
0.0
 12
204.8377608216406
 22
100.9358961879372
 32
0.0
 13
204.8377608216406
 23
100.9358961879372
 33
0.0
  0
SOLID
  5
528
330
521
100
AcDbEntity
  8
文字・寸法線
 62
     0
100
AcDbTrace
 10
204.421094154974
 20
93.43589474205346
 30
0.0
 11
205.2544274883073
 21
93.43589474205346
 31
0.0
 12
204.8377608216406
 22
90.93589474205346
 32
0.0
 13
204.8377608216406
 23
90.93589474205346
 33
0.0
  0
MTEXT
  5
529
330
521
100
AcDbEntity
  8
文字・寸法線
 62
     0
100
AcDbMText
 10
202.6820650508357
 20
95.93589546499531
 30
0.0
 40
3.0
 41
0.0
 46
0.0
 71
     5
 72
     1
  1
10
 11
0.0
 21
1.0
 31
0.0
 73
     1
 44
1.0
  0
POINT
  5
52A
330
521
100
AcDbEntity
  8
Defpoints
 62
     0
100
AcDbPoint
 10
132.1908906160647
 20
100.9358961879372
 30
0.0
  0
POINT
  5
52B
330
521
100
AcDbEntity
  8
Defpoints
 62
     0
100
AcDbPoint
 10
128.4429345491782
 20
90.93589474205346
 30
0.0
  0
POINT
  5
52C
330
521
100
AcDbEntity
  8
Defpoints
 62
     0
100
AcDbPoint
 10
204.8377608216406
 20
90.93589474205346
 30
0.0
  0
ENDBLK
  5
523
330
521
100
AcDbEntity
  8
0
100
AcDbBlockEnd
  0
BLOCK
  5
559
330
558
100
AcDbEntity
  8
0
100
AcDbBlockBegin
  2
*D34
 70
     1
 10
0.0
 20
0.0
 30
0.0
  3
*D34
  1
*D18
  0
LINE
  5
55A
330
558
100
AcDbEntity
  8
文字・寸法線
 62
     0
370
    -2
100
AcDbLine
 10
5.847241305755119
 20
83.12502984939464
 30
0.0
 11
5.847241305755119
 21
97.54616612437836
 31
0.0
  0
LINE
  5
55B
330
558
100
AcDbEntity
  8
文字・寸法線
 62
     0
370
    -2
100
AcDbLine
 10
21.84724130575511
 20
83.12502984939464
 30
0.0
 11
21.84724130575511
 21
97.54616612437836
 31
0.0
  0
LINE
  5
55C
330
558
100
AcDbEntity
  8
文字・寸法線
 62
     0
370
    -2
100
AcDbLine
 10
8.34724130575512
 20
96.29616612437836
 30
0.0
 11
19.34724130575511
 21
96.29616612437836
 31
0.0
  0
SOLID
  5
55D
330
558
100
AcDbEntity
  8
文字・寸法線
 62
     0
100
AcDbTrace
 10
8.34724130575512
 20
96.71283279104503
 30
0.0
 11
8.34724130575512
 21
95.87949945771169
 31
0.0
 12
5.847241305755119
 22
96.29616612437836
 32
0.0
 13
5.847241305755119
 23
96.29616612437836
 33
0.0
  0
SOLID
  5
55E
330
558
100
AcDbEntity
  8
文字・寸法線
 62
     0
100
AcDbTrace
 10
19.34724130575511
 20
95.87949945771169
 30
0.0
 11
19.34724130575511
 21
96.71283279104503
 31
0.0
 12
21.84724130575511
 22
96.29616612437836
 32
0.0
 13
21.84724130575511
 23
96.29616612437836
 33
0.0
  0
MTEXT
  5
55F
330
558
100
AcDbEntity
  8
文字・寸法線
 62
     0
100
AcDbMText
 10
13.84724130575511
 20
98.45186189518327
 30
0.0
 40
3.0
 41
0.0
 46
0.0
 71
     5
 72
     1
  1
M16
 73
     1
 44
1.0
  0
POINT
  5
560
330
558
100
AcDbEntity
  8
Defpoints
 62
     0
100
AcDbPoint
 10
5.847241305755119
 20
82.50002984939464
 30
0.0
  0
POINT
  5
561
330
558
100
AcDbEntity
  8
Defpoints
 62
     0
100
AcDbPoint
 10
21.84724130575511
 20
82.50002984939464
 30
0.0
  0
POINT
  5
562
330
558
100
AcDbEntity
  8
Defpoints
 62
     0
100
AcDbPoint
 10
21.84724130575511
 20
96.29616612437836
 30
0.0
  0
ENDBLK
  5
563
330
558
100
AcDbEntity
  8
0
100
AcDbBlockEnd
  0
BLOCK
  5
566
330
565
100
AcDbEntity
  8
0
100
AcDbBlockBegin
  2
*D35
 70
     1
 10
0.0
 20
0.0
 30
0.0
  3
*D35
  1
*D19
  0
LINE
  5
567
330
565
100
AcDbEntity
  8
文字・寸法線
 62
     0
370
    -2
100
AcDbLine
 10
28.32224130575541
 20
10.00004884292255
 30
0.0
 11
98.69411151133123
 21
10.00004884292255
 31
0.0
  0
LINE
  5
568
330
565
100
AcDbEntity
  8
文字・寸法線
 62
     0
370
    -2
100
AcDbLine
 10
19.97224130575511
 20
85.00002984939464
 30
0.0
 11
98.69411151133123
 21
85.00002984939464
 31
0.0
  0
LINE
  5
569
330
565
100
AcDbEntity
  8
文字・寸法線
 62
     0
370
    -2
100
AcDbLine
 10
97.44411151133123
 20
12.50004884292255
 30
0.0
 11
97.44411151133123
 21
82.50002984939464
 31
0.0
  0
SOLID
  5
56A
330
565
100
AcDbEntity
  8
文字・寸法線
 62
     0
100
AcDbTrace
 10
97.02744484466456
 20
12.50004884292255
 30
0.0
 11
97.8607781779979
 21
12.50004884292255
 31
0.0
 12
97.44411151133123
 22
10.00004884292255
 32
0.0
 13
97.44411151133123
 23
10.00004884292255
 33
0.0
  0
SOLID
  5
56B
330
565
100
AcDbEntity
  8
文字・寸法線
 62
     0
100
AcDbTrace
 10
97.8607781779979
 20
82.50002984939464
 30
0.0
 11
97.02744484466456
 21
82.50002984939464
 31
0.0
 12
97.44411151133123
 22
85.00002984939464
 32
0.0
 13
97.44411151133123
 23
85.00002984939464
 33
0.0
  0
MTEXT
  5
56C
330
565
100
AcDbEntity
  8
文字・寸法線
 62
     0
100
AcDbMText
 10
95.29455489468731
 20
47.50003934615859
 30
0.0
 40
3.0
 41
0.0
 46
0.0
 71
     5
 72
     1
  1
75
 11
0.0
 21
1.0
 31
0.0
 73
     1
 44
1.0
  0
POINT
  5
56D
330
565
100
AcDbEntity
  8
Defpoints
 62
     0
100
AcDbPoint
 10
27.69724130575541
 20
10.00004884292255
 30
0.0
  0
POINT
  5
56E
330
565
100
AcDbEntity
  8
Defpoints
 62
     0
100
AcDbPoint
 10
19.34724130575511
 20
85.00002984939464
 30
0.0
  0
POINT
  5
56F
330
565
100
AcDbEntity
  8
Defpoints
 62
     0
100
AcDbPoint
 10
97.44411151133123
 20
85.00002984939464
 30
0.0
  0
ENDBLK
  5
570
330
565
100
AcDbEntity
  8
0
100
AcDbBlockEnd
  0
BLOCK
  5
573
330
572
100
AcDbEntity
  8
0
100
AcDbBlockBegin
  2
*D36
 70
     1
 10
0.0
 20
0.0
 30
0.0
  3
*D36
  1
*D21
  0
LINE
  5
574
330
572
100
AcDbEntity
  8
文字・寸法線
 62
     0
370
    -2
100
AcDbLine
 10
25.42224130575532
 20
10.00004884292255
 30
0.0
 11
98.69411151133123
 21
10.00004884292255
 31
0.0
  0
LINE
  5
575
330
572
100
AcDbEntity
  8
文字・寸法線
 62
     0
370
    -2
100
AcDbLine
 10
21.67428523886882
 20
0.0000473970388554
 30
0.0
 11
98.69411151133123
 21
0.0000473970388507
 31
0.0
  0
LINE
  5
576
330
572
100
AcDbEntity
  8
文字・寸法線
 62
     0
370
    -2
100
AcDbLine
 10
97.44411151133123
 20
7.500048842922547
 30
0.0
 11
97.44411151133123
 21
2.500047397038851
 31
0.0
  0
SOLID
  5
577
330
572
100
AcDbEntity
  8
文字・寸法線
 62
     0
100
AcDbTrace
 10
97.8607781779979
 20
7.500048842922547
 30
0.0
 11
97.02744484466456
 21
7.500048842922547
 31
0.0
 12
97.44411151133123
 22
10.00004884292255
 32
0.0
 13
97.44411151133123
 23
10.00004884292255
 33
0.0
  0
SOLID
  5
578
330
572
100
AcDbEntity
  8
文字・寸法線
 62
     0
100
AcDbTrace
 10
97.02744484466456
 20
2.500047397038851
 30
0.0
 11
97.8607781779979
 21
2.500047397038851
 31
0.0
 12
97.44411151133123
 22
0.0000473970388508
 32
0.0
 13
97.44411151133123
 23
0.0000473970388508
 33
0.0
  0
MTEXT
  5
579
330
572
100
AcDbEntity
  8
文字・寸法線
 62
     0
100
AcDbMText
 10
95.28841574052632
 20
5.000048119980699
 30
0.0
 40
3.0
 41
0.0
 46
0.0
 71
     5
 72
     1
  1
10
 11
0.0
 21
1.0
 31
0.0
 73
     1
 44
1.0
  0
POINT
  5
57A
330
572
100
AcDbEntity
  8
Defpoints
 62
     0
100
AcDbPoint
 10
24.79724130575532
 20
10.00004884292255
 30
0.0
  0
POINT
  5
57B
330
572
100
AcDbEntity
  8
Defpoints
 62
     0
100
AcDbPoint
 10
21.04928523886882
 20
0.0000473970388555
 30
0.0
  0
POINT
  5
57C
330
572
100
AcDbEntity
  8
Defpoints
 62
     0
100
AcDbPoint
 10
97.44411151133123
 20
0.0000473970388508
 30
0.0
  0
ENDBLK
  5
57D
330
572
100
AcDbEntity
  8
0
100
AcDbBlockEnd
  0
BLOCK
  5
5A4
330
5A3
100
AcDbEntity
  8
0
100
AcDbBlockBegin
  2
*D37
 70
     1
 10
0.0
 20
0.0
 30
0.0
  3
*D37
  1
*D39
  0
LINE
  5
5A6
330
5A3
100
AcDbEntity
  8
文字・寸法線
 62
     0
370
    -2
100
AcDbLine
 10
112.9092934183559
 20
173.3531097162277
 30
0.0
 11
112.9092934183559
 21
187.7742459912114
 31
0.0
  0
LINE
  5
5A7
330
5A3
100
AcDbEntity
  8
文字・寸法線
 62
     0
370
    -2
100
AcDbLine
 10
128.9092934183559
 20
173.3531097162277
 30
0.0
 11
128.9092934183559
 21
187.7742459912114
 31
0.0
  0
LINE
  5
5A8
330
5A3
100
AcDbEntity
  8
文字・寸法線
 62
     0
370
    -2
100
AcDbLine
 10
115.4092934183559
 20
186.5242459912114
 30
0.0
 11
126.4092934183559
 21
186.5242459912114
 31
0.0
  0
SOLID
  5
5A9
330
5A3
100
AcDbEntity
  8
文字・寸法線
 62
     0
100
AcDbTrace
 10
115.4092934183559
 20
186.9409126578781
 30
0.0
 11
115.4092934183559
 21
186.1075793245448
 31
0.0
 12
112.9092934183559
 22
186.5242459912114
 32
0.0
 13
112.9092934183559
 23
186.5242459912114
 33
0.0
  0
SOLID
  5
5AA
330
5A3
100
AcDbEntity
  8
文字・寸法線
 62
     0
100
AcDbTrace
 10
126.4092934183559
 20
186.1075793245448
 30
0.0
 11
126.4092934183559
 21
186.9409126578781
 31
0.0
 12
128.9092934183559
 22
186.5242459912114
 32
0.0
 13
128.9092934183559
 23
186.5242459912114
 33
0.0
  0
MTEXT
  5
5AB
330
5A3
100
AcDbEntity
  8
文字・寸法線
 62
     0
100
AcDbMText
 10
120.9092934183559
 20
188.6799417620164
 30
0.0
 40
3.0
 41
0.0
 46
0.0
 71
     5
 72
     1
  1
M16
 73
     1
 44
1.0
  0
POINT
  5
5AC
330
5A3
100
AcDbEntity
  8
Defpoints
 62
     0
100
AcDbPoint
 10
112.9092934183559
 20
172.7281097162277
 30
0.0
  0
POINT
  5
5AD
330
5A3
100
AcDbEntity
  8
Defpoints
 62
     0
100
AcDbPoint
 10
128.9092934183559
 20
172.7281097162277
 30
0.0
  0
POINT
  5
5AE
330
5A3
100
AcDbEntity
  8
Defpoints
 62
     0
100
AcDbPoint
 10
128.9092934183559
 20
186.5242459912114
 30
0.0
  0
ENDBLK
  5
5A5
330
5A3
100
AcDbEntity
  8
0
100
AcDbBlockEnd
  0
BLOCK
  5
5B0
330
5AF
100
AcDbEntity
  8
0
100
AcDbBlockBegin
  2
*D38
 70
     1
 10
0.0
 20
0.0
 30
0.0
  3
*D38
  1
*D40
  0
LINE
  5
5B2
330
5AF
100
AcDbEntity
  8
文字・寸法線
 62
     0
370
    -2
100
AcDbLine
 10
135.3842934183562
 20
100.2281287097557
 30
0.0
 11
204.7019150532148
 21
100.2281287097557
 31
0.0
  0
LINE
  5
5B3
330
5AF
100
AcDbEntity
  8
文字・寸法線
 62
     0
370
    -2
100
AcDbLine
 10
127.0342934183559
 20
175.2281097162277
 30
0.0
 11
204.7019150532148
 21
175.2281097162277
 31
0.0
  0
LINE
  5
5B4
330
5AF
100
AcDbEntity
  8
文字・寸法線
 62
     0
370
    -2
100
AcDbLine
 10
203.4519150532148
 20
102.7281287097557
 30
0.0
 11
203.4519150532148
 21
172.7281097162277
 31
0.0
  0
SOLID
  5
5B5
330
5AF
100
AcDbEntity
  8
文字・寸法線
 62
     0
100
AcDbTrace
 10
203.0352483865481
 20
102.7281287097557
 30
0.0
 11
203.8685817198815
 21
102.7281287097557
 31
0.0
 12
203.4519150532148
 22
100.2281287097557
 32
0.0
 13
203.4519150532148
 23
100.2281287097557
 33
0.0
  0
SOLID
  5
5B6
330
5AF
100
AcDbEntity
  8
文字・寸法線
 62
     0
100
AcDbTrace
 10
203.8685817198815
 20
172.7281097162277
 30
0.0
 11
203.0352483865481
 21
172.7281097162277
 31
0.0
 12
203.4519150532148
 22
175.2281097162277
 32
0.0
 13
203.4519150532148
 23
175.2281097162277
 33
0.0
  0
MTEXT
  5
5B7
330
5AF
100
AcDbEntity
  8
文字・寸法線
 62
     0
100
AcDbMText
 10
201.3023584365709
 20
137.7281192129917
 30
0.0
 40
3.0
 41
0.0
 46
0.0
 71
     5
 72
     1
  1
75
 11
0.0
 21
1.0
 31
0.0
 73
     1
 44
1.0
  0
POINT
  5
5B8
330
5AF
100
AcDbEntity
  8
Defpoints
 62
     0
100
AcDbPoint
 10
134.7592934183562
 20
100.2281287097557
 30
0.0
  0
POINT
  5
5B9
330
5AF
100
AcDbEntity
  8
Defpoints
 62
     0
100
AcDbPoint
 10
126.4092934183559
 20
175.2281097162277
 30
0.0
  0
POINT
  5
5BA
330
5AF
100
AcDbEntity
  8
Defpoints
 62
     0
100
AcDbPoint
 10
203.4519150532148
 20
175.2281097162277
 30
0.0
  0
ENDBLK
  5
5B1
330
5AF
100
AcDbEntity
  8
0
100
AcDbBlockEnd
  0
BLOCK
  5
5BC
330
5BB
100
AcDbEntity
  8
0
100
AcDbBlockBegin
  2
*D39
 70
     1
 10
0.0
 20
0.0
 30
0.0
  3
*D39
  1
*D41
  0
LINE
  5
5BE
330
5BB
100
AcDbEntity
  8
文字・寸法線
 62
     0
370
    -2
100
AcDbLine
 10
132.4842934183561
 20
100.2281287097557
 30
0.0
 11
204.6726303706949
 21
100.2281287097557
 31
0.0
  0
LINE
  5
5BF
330
5BB
100
AcDbEntity
  8
文字・寸法線
 62
     0
370
    -2
100
AcDbLine
 10
128.7363373514696
 20
90.22812726387197
 30
0.0
 11
204.6726303706949
 21
90.22812726387197
 31
0.0
  0
LINE
  5
5C0
330
5BB
100
AcDbEntity
  8
文字・寸法線
 62
     0
370
    -2
100
AcDbLine
 10
203.4226303706949
 20
97.72812870975567
 30
0.0
 11
203.4226303706949
 21
92.72812726387197
 31
0.0
  0
SOLID
  5
5C1
330
5BB
100
AcDbEntity
  8
文字・寸法線
 62
     0
100
AcDbTrace
 10
203.8392970373615
 20
97.72812870975567
 30
0.0
 11
203.0059637040282
 21
97.72812870975567
 31
0.0
 12
203.4226303706949
 22
100.2281287097557
 32
0.0
 13
203.4226303706949
 23
100.2281287097557
 33
0.0
  0
SOLID
  5
5C2
330
5BB
100
AcDbEntity
  8
文字・寸法線
 62
     0
100
AcDbTrace
 10
203.0059637040282
 20
92.72812726387197
 30
0.0
 11
203.8392970373615
 21
92.72812726387197
 31
0.0
 12
203.4226303706949
 22
90.22812726387197
 32
0.0
 13
203.4226303706949
 23
90.22812726387197
 33
0.0
  0
MTEXT
  5
5C3
330
5BB
100
AcDbEntity
  8
文字・寸法線
 62
     0
100
AcDbMText
 10
201.26693459989
 20
95.22812798681382
 30
0.0
 40
3.0
 41
0.0
 46
0.0
 71
     5
 72
     1
  1
10
 11
0.0
 21
1.0
 31
0.0
 73
     1
 44
1.0
  0
POINT
  5
5C4
330
5BB
100
AcDbEntity
  8
Defpoints
 62
     0
100
AcDbPoint
 10
131.8592934183561
 20
100.2281287097557
 30
0.0
  0
POINT
  5
5C5
330
5BB
100
AcDbEntity
  8
Defpoints
 62
     0
100
AcDbPoint
 10
128.1113373514696
 20
90.22812726387197
 30
0.0
  0
POINT
  5
5C6
330
5BB
100
AcDbEntity
  8
Defpoints
 62
     0
100
AcDbPoint
 10
203.4226303706949
 20
90.22812726387197
 30
0.0
  0
ENDBLK
  5
5BD
330
5BB
100
AcDbEntity
  8
0
100
AcDbBlockEnd
  0
BLOCK
  5
63C
330
63B
100
AcDbEntity
  8
0
100
AcDbBlockBegin
  2
*D40
 70
     1
 10
0.0
 20
0.0
 30
0.0
  3
*D40
  1
*D22
  0
LINE
  5
63D
330
63B
100
AcDbEntity
  8
文字・寸法線
 62
     0
370
    -2
100
AcDbLine
 10
0.0
 20
77.11922411984315
 30
0.0
 11
0.0
 21
0.0
 31
0.0
  0
LINE
  5
63E
330
63B
100
AcDbEntity
  8
文字・寸法線
 62
     0
370
    -2
100
AcDbLine
 10
24.0
 20
77.11922411984307
 30
0.0
 11
24.0
 21
0.0
 31
0.0
  0
LINE
  5
63F
330
63B
100
AcDbEntity
  8
文字・寸法線
 62
     0
370
    -2
100
AcDbLine
 10
2.5
 20
1.25
 30
0.0
 11
21.5
 21
1.25
 31
0.0
  0
SOLID
  5
640
330
63B
100
AcDbEntity
  8
文字・寸法線
 62
     0
100
AcDbTrace
 10
2.5
 20
1.666666666666667
 30
0.0
 11
2.5
 21
0.8333333333333333
 31
0.0
 12
0.0
 22
1.25
 32
0.0
 13
0.0
 23
1.25
 33
0.0
  0
SOLID
  5
641
330
63B
100
AcDbEntity
  8
文字・寸法線
 62
     0
100
AcDbTrace
 10
21.5
 20
0.8333333333333333
 30
0.0
 11
21.5
 21
1.666666666666667
 31
0.0
 12
24.0
 22
1.25
 32
0.0
 13
24.0
 23
1.25
 33
0.0
  0
MTEXT
  5
642
330
63B
100
AcDbEntity
  8
文字・寸法線
 62
     0
100
AcDbMText
 10
12.0
 20
3.381139154160982
 30
0.0
 40
3.0
 41
0.0
 46
0.0
 71
     5
 72
     1
  1
24
 73
     1
 44
1.0
  0
POINT
  5
643
330
63B
100
AcDbEntity
  8
Defpoints
 62
     0
100
AcDbPoint
 10
0.0
 20
77.74422411984315
 30
0.0
  0
POINT
  5
644
330
63B
100
AcDbEntity
  8
Defpoints
 62
     0
100
AcDbPoint
 10
24.0
 20
77.74422411984307
 30
0.0
  0
POINT
  5
645
330
63B
100
AcDbEntity
  8
Defpoints
 62
     0
100
AcDbPoint
 10
24.0
 20
1.25
 30
0.0
  0
ENDBLK
  5
646
330
63B
100
AcDbEntity
  8
0
100
AcDbBlockEnd
  0
BLOCK
  5
64F
330
64E
100
AcDbEntity
  8
0
100
AcDbBlockBegin
  2
*D41
 70
     1
 10
0.0
 20
0.0
 30
0.0
  3
*D41
  1
*D44
  0
LINE
  5
651
330
64E
100
AcDbEntity
  8
文字・寸法線
 62
     0
370
    -2
100
AcDbLine
 10
296.8780095242454
 20
122.40784093125
 30
0.0
 11
296.8780095242454
 21
44.08933391727963
 31
0.0
  0
LINE
  5
652
330
64E
100
AcDbEntity
  8
文字・寸法線
 62
     0
370
    -2
100
AcDbLine
 10
320.8780095242454
 20
122.4078409312498
 30
0.0
 11
320.8780095242454
 21
44.08933391727963
 31
0.0
  0
LINE
  5
653
330
64E
100
AcDbEntity
  8
文字・寸法線
 62
     0
370
    -2
100
AcDbLine
 10
299.3780095242454
 20
45.33933391727963
 30
0.0
 11
318.3780095242454
 21
45.33933391727963
 31
0.0
  0
SOLID
  5
654
330
64E
100
AcDbEntity
  8
文字・寸法線
 62
     0
100
AcDbTrace
 10
299.3780095242454
 20
45.7560005839463
 30
0.0
 11
299.3780095242454
 21
44.92266725061297
 31
0.0
 12
296.8780095242454
 22
45.33933391727963
 32
0.0
 13
296.8780095242454
 23
45.33933391727963
 33
0.0
  0
SOLID
  5
655
330
64E
100
AcDbEntity
  8
文字・寸法線
 62
     0
100
AcDbTrace
 10
318.3780095242454
 20
44.92266725061297
 30
0.0
 11
318.3780095242454
 21
45.7560005839463
 31
0.0
 12
320.8780095242454
 22
45.33933391727963
 32
0.0
 13
320.8780095242454
 23
45.33933391727963
 33
0.0
  0
MTEXT
  5
656
330
64E
100
AcDbEntity
  8
文字・寸法線
 62
     0
100
AcDbMText
 10
308.7613761350782
 20
47.47033391727963
 30
0.0
 40
3.0
 41
0.0
 46
0.0
 71
     5
 72
     1
  1
24
 73
     1
 44
1.0
  0
POINT
  5
657
330
64E
100
AcDbEntity
  8
Defpoints
 62
     0
100
AcDbPoint
 10
296.8780095242454
 20
123.03284093125
 30
0.0
  0
POINT
  5
658
330
64E
100
AcDbEntity
  8
Defpoints
 62
     0
100
AcDbPoint
 10
320.8780095242454
 20
123.0328409312498
 30
0.0
  0
POINT
  5
659
330
64E
100
AcDbEntity
  8
Defpoints
 62
     0
100
AcDbPoint
 10
320.8780095242454
 20
45.33933391727963
 30
0.0
  0
ENDBLK
  5
650
330
64E
100
AcDbEntity
  8
0
100
AcDbBlockEnd
  0
ENDSEC
  0
SECTION
  2
ENTITIES
  0
TEXT
  5
255
330
1F
100
AcDbEntity
  8
文字・寸法線
 62
     0
100
AcDbText
 10
29.08671165787067
 20
103.7986527836929
 30
0.0
 40
3.0
  1
M6×12
100
AcDbText
  0
LEADER
  5
257
330
1F
100
AcDbEntity
  8
文字・寸法線
100
AcDbLeader
  3
ISO-25
 76
     3
 10
90.81869163967026
 20
82.8289932936882
 30
0.0
 10
77.7626946476848
 20
102.7705038700363
 30
0.0
 10
28.36213708140799
 20
102.7705038700363
 30
0.0
1001
ACAD
1000
DSTYLE
1002
{
1070
   147
1040
0.625
1070
    77
1070
     1
1002
}
  0
LINE
  5
258
330
1F
100
AcDbEntity
  8
実線
 62
     0
100
AcDbLine
 10
51.02078151313454
 20
65.23282629368799
 30
0.0
 11
51.02078151313454
 21
63.73282629368802
 31
0.0
  0
DIMENSION
  5
25A
330
1F
100
AcDbEntity
  8
文字・寸法線
 62
     0
100
AcDbDimension
280
     0
  2
*D12
 10
191.0207815131348
 20
29.05130976518603
 30
0.0
 11
121.2553946797051
 21
29.05130976518603
 31
0.0
 70
   160
  1
%%c<>
 71
     5
 42
140.0000000000003
 73
     0
 74
     0
 75
     0
  3
ISO-25
100
AcDbAlignedDimension
 13
51.02078151313454
 23
63.73282629368803
 33
0.0
 14
191.0207815131348
 24
63.73282629368801
 34
0.0
100
AcDbRotatedDimension
  0
ARC
  5
25B
330
1F
100
AcDbEntity
  8
実線
100
AcDbCircle
 10
96.33735167332311
 20
83.23282629368805
 30
0.0
 40
3.0
100
AcDbArc
 50
290.2971184305285
 51
337.9789996041596
  0
LINE
  5
25C
330
1F
100
AcDbEntity
  8
実線
100
AcDbLine
 10
86.02078151313475
 20
72.23282629368805
 30
0.0
 11
86.02078151313454
 21
77.23282629368805
 31
0.0
  0
ARC
  5
25D
330
1F
100
AcDbEntity
  8
実線
100
AcDbCircle
 10
89.02078151313454
 20
77.23282629368805
 30
0.0
 40
3.0
100
AcDbArc
 50
90.0
 51
180.0
  0
ARC
  5
25E
330
1F
100
AcDbEntity
  8
実線
100
AcDbCircle
 10
92.52078151313476
 20
79.23282629368805
 30
0.0
 40
5.0
100
AcDbArc
 50
11.53695903281548
 51
45.99123000000634
  0
LINE
  5
25F
330
1F
100
AcDbEntity
  8
実線
100
AcDbLine
 10
95.99462451313453
 20
82.8289932936882
 30
0.0
 11
89.04693951313466
 21
82.8289932936882
 31
0.0
  0
LINE
  5
260
330
1F
100
AcDbEntity
  8
中心線
  6
CENTER
100
AcDbLine
 10
92.52078151313476
 20
83.9650449637652
 30
0.0
 11
92.52078151313476
 21
69.58828579853434
 31
0.0
  0
ARC
  5
261
330
1F
100
AcDbEntity
  8
実線
100
AcDbCircle
 10
92.52078151313476
 20
79.23282629368805
 30
0.0
 40
5.0
100
AcDbArc
 50
134.0087699999937
 51
172.8772791819119
  0
CIRCLE
  5
262
330
1F
100
AcDbEntity
  8
実線
 62
     0
100
AcDbCircle
 10
308.5309567100012
 20
129.9610441615253
 30
0.0
 40
70.0
  0
CIRCLE
  5
263
330
1F
100
AcDbEntity
  8
細線
 62
     0
100
AcDbCircle
 10
308.5309567100012
 20
129.9610441615253
 30
0.0
 40
65.0
  0
DIMENSION
  5
264
102
{ACAD_XDICTIONARY
360
265
102
}
330
1F
100
AcDbEntity
  8
文字・寸法線
 62
     0
100
AcDbDimension
280
     0
  2
*D13
 10
338.4272013882008
 20
31.61585853049272
 30
0.0
 11
307.3213385616118
 21
31.61585853049272
 31
0.0
 70
   160
  1
%%c<>
 71
     5
 42
60.00316099973884
 73
     0
 74
     0
 75
     0
  3
ISO-25
100
AcDbAlignedDimension
 13
278.424040388462
 23
128.7195085618428
 33
0.0
 14
338.4272013882008
 24
128.5505021784095
 34
0.0
100
AcDbRotatedDimension
  0
CIRCLE
  5
267
330
1F
100
AcDbEntity
  8
実線
 62
     0
100
AcDbCircle
 10
308.6414249255575
 20
130.1953880767228
 30
0.0
 40
19.61860637459441
  0
CIRCLE
  5
281
330
1F
100
AcDbEntity
  8
実線
 62
     0
100
AcDbCircle
 10
308.6414249255575
 20
130.1953880767228
 30
0.0
 40
29.85440100481759
  0
CIRCLE
  5
282
330
1F
100
AcDbEntity
  8
中心線
 62
     0
100
AcDbCircle
 10
308.6414249255575
 20
130.1953880767228
 30
0.0
 40
24.31001224678004
  0
ARC
  5
283
330
1F
100
AcDbEntity
  8
実線
100
AcDbCircle
 10
121.0207815131348
 20
79.23282629368805
 30
0.0
 40
5.0
100
AcDbArc
 50
134.0087699999937
 51
168.4630409671845
  0
LINE
  5
284
330
1F
100
AcDbEntity
  8
実線
100
AcDbLine
 10
117.5469385131345
 20
82.8289932936882
 30
0.0
 11
124.4946235131346
 21
82.8289932936882
 31
0.0
  0
ARC
  5
285
330
1F
100
AcDbEntity
  8
実線
100
AcDbCircle
 10
121.0207815131348
 20
79.23282629368805
 30
0.0
 40
5.0
100
AcDbArc
 50
11.53695903281548
 51
45.99123000000634
  0
ARC
  5
286
330
1F
100
AcDbEntity
  8
実線
100
AcDbCircle
 10
149.5207815131345
 20
79.23282629368805
 30
0.0
 40
5.0
100
AcDbArc
 50
7.122720818088205
 51
45.99123000000634
  0
LINE
  5
287
330
1F
100
AcDbEntity
  8
中心線
  6
CENTER
100
AcDbLine
 10
149.5207815131345
 20
83.9650449637652
 30
0.0
 11
149.5207815131345
 21
69.58828579853434
 31
0.0
  0
LINE
  5
288
330
1F
100
AcDbEntity
  8
実線
100
AcDbLine
 10
146.0469385131345
 20
82.8289932936882
 30
0.0
 11
152.9946235131346
 21
82.8289932936882
 31
0.0
  0
ARC
  5
289
330
1F
100
AcDbEntity
  8
実線
100
AcDbCircle
 10
149.5207815131345
 20
79.23282629368805
 30
0.0
 40
5.0
100
AcDbArc
 50
134.0087699999942
 51
168.4630409671846
  0
LINE
  5
28A
330
1F
100
AcDbEntity
  8
実線
100
AcDbLine
 10
153.0207815131345
 20
80.23282629368805
 30
0.0
 11
145.7042113529462
 21
80.23282629368805
 31
0.0
  0
ARC
  5
28B
330
1F
100
AcDbEntity
  8
実線
100
AcDbCircle
 10
153.0207815131345
 20
77.23282629368805
 30
0.0
 40
3.0
100
AcDbArc
 50
0.0
 51
90.0
  0
LINE
  5
28C
330
1F
100
AcDbEntity
  8
実線
100
AcDbLine
 10
156.0207815131347
 20
72.23282629368805
 30
0.0
 11
156.0207815131345
 21
77.23282629368805
 31
0.0
  0
LINE
  5
28D
330
1F
100
AcDbEntity
  8
実線
100
AcDbLine
 10
86.02078151313475
 20
72.23282629368805
 30
0.0
 11
156.0207815131347
 21
72.23282629368805
 31
0.0
  0
ARC
  5
291
330
1F
100
AcDbEntity
  8
実線
100
AcDbCircle
 10
145.7042113529462
 20
83.23282629368805
 30
0.0
 40
3.0
100
AcDbArc
 50
202.0210003958404
 51
249.7028815694713
  0
ARC
  5
292
330
1F
100
AcDbEntity
  8
実線
100
AcDbCircle
 10
130.8714675255109
 20
77.23368380915855
 30
0.0
 40
13.0
100
AcDbArc
 50
22.02100039584047
 51
89.34190389053076
  0
LINE
  5
293
330
1F
100
AcDbEntity
  8
実線
100
AcDbLine
 10
89.02078151313454
 20
80.23282629368805
 30
0.0
 11
145.7042113529462
 21
80.23282629368805
 31
0.0
  0
ARC
  5
294
330
1F
100
AcDbEntity
  8
実線
100
AcDbCircle
 10
111.1700955007588
 20
77.23368380915855
 30
0.0
 40
13.0
100
AcDbArc
 50
90.65809610947328
 51
157.9789996041595
  0
DIMENSION
  5
29C
330
1F
100
AcDbEntity
  8
文字
100
AcDbDimension
280
     0
  2
*D14
 10
203.5313597712286
 20
65.73412225125271
 30
0.0
 11
201.3748597712286
 21
77.98347427247037
 31
0.0
 70
    32
  1
<>
 71
     5
 42
24.49870404243533
 73
     0
 74
     0
 75
     0
  3
ISO-25
100
AcDbAlignedDimension
 13
133.9831097613391
 23
90.23282629368805
 33
0.0
 14
190.8418104273985
 24
65.73412225125271
 34
0.0
 50
90.0
100
AcDbRotatedDimension
  0
DIMENSION
  5
29D
330
1F
100
AcDbEntity
  8
文字・寸法線
 62
     0
100
AcDbDimension
280
     0
  2
*D15
 10
186.0207815131345
 20
43.74764852203469
 30
0.0
 11
121.0207815131345
 21
45.95814852203469
 31
0.0
 70
    32
  1
%%c<>
 71
     5
 42
130.0
 73
     0
 74
     0
 75
     0
  3
ISO-25
100
AcDbAlignedDimension
 13
56.02078151313454
 23
62.23282629368801
 33
0.0
 14
186.0207815131345
 24
62.23282629368802
 34
0.0
100
AcDbRotatedDimension
  0
DIMENSION
  5
2A0
102
{ACAD_XDICTIONARY
360
2A1
102
}
330
1F
100
AcDbEntity
  8
文字
 62
     0
100
AcDbDimension
280
     0
  2
*D16
 10
204.614893024466
 20
64.23282629368802
 30
0.0
 11
202.6730504943213
 21
60.66112326571488
 31
0.0
 70
   160
 71
     5
 42
1.499999999999986
 73
     0
 74
     0
 75
     0
  3
ISO-25
100
AcDbAlignedDimension
 13
191.020781513135
 23
65.732826293688
 33
0.0
 14
186.0207815131347
 24
64.23282629368802
 34
0.0
 50
90.0
100
AcDbRotatedDimension
1001
ACAD
1000
DSTYLE
1002
{
1070
   343
1005
1DE
1070
   173
1070
     1
1070
   344
1005
0
1070
   279
1070
     2
1002
}
  0
ARC
  5
2A3
330
1F
100
AcDbEntity
  8
実線
100
AcDbCircle
 10
56.02078151313475
 20
67.23282629368799
 30
0.0
 40
5.000000000000007
100
AcDbArc
 50
90.0
 51
180.0
  0
LINE
  5
2A4
330
1F
100
AcDbEntity
  8
実線
100
AcDbLine
 10
186.020781513135
 20
72.23282629368802
 30
0.0
 11
56.02078151313475
 21
72.23282629368799
 31
0.0
  0
ARC
  5
2A5
330
1F
100
AcDbEntity
  8
実線
100
AcDbCircle
 10
186.020781513135
 20
67.23282629368802
 30
0.0
 40
5.0
100
AcDbArc
 50
0.0
 51
90.0
  0
LINE
  5
2A7
330
1F
100
AcDbEntity
  8
実線
100
AcDbLine
 10
56.02078151313475
 20
64.23282629368802
 30
0.0
 11
186.0207815131347
 21
64.23282629368802
 31
0.0
  0
LINE
  5
2A9
330
1F
100
AcDbEntity
  8
実線
100
AcDbLine
 10
191.020781513135
 20
65.73282629368802
 30
0.0
 11
51.02078151313475
 21
65.73282629368802
 31
0.0
  0
LINE
  5
2BE
330
1F
100
AcDbEntity
  8
中心線
100
AcDbLine
 10
236.8914780927828
 20
129.9610441615253
 30
0.0
 11
383.3410612471653
 21
129.9610441615253
 31
0.0
  0
LINE
  5
2BF
330
1F
100
AcDbEntity
  8
中心線
100
AcDbLine
 10
121.0207815131348
 20
209.5154723594226
 30
0.0
 11
121.0207815131345
 21
58.99537755636914
 31
0.0
  0
LINE
  5
2C1
330
1F
100
AcDbEntity
  8
実線
100
AcDbLine
 10
83.52078151313475
 20
72.23282629368805
 30
0.0
 11
160.020781513135
 21
72.23282629368802
 31
0.0
  0
LINE
  5
2C2
330
1F
100
AcDbEntity
  8
実線
100
AcDbLine
 10
160.020781513135
 20
72.23282629368802
 30
0.0
 11
162.520781513135
 21
72.23282629368802
 31
0.0
  0
LINE
  5
2C3
330
1F
100
AcDbEntity
  8
中心線
100
AcDbLine
 10
308.530956710001
 20
55.99868254201371
 30
0.0
 11
308.530956710001
 21
201.3752598297146
 31
0.0
  0
LINE
  5
3C8
330
1F
100
AcDbEntity
  8
実線
100
AcDbLine
 10
112.6359280679596
 20
90.22812726387204
 30
0.0
 11
133.0791739300603
 21
90.22812726387204
 31
0.0
  0
LWPOLYLINE
  5
58E
330
1F
100
AcDbEntity
  8
実線
100
AcDbPolyline
 90
        6
 70
     0
 43
0.0
 10
128.9092934183558
 20
113.8925653682837
 10
128.9092934183559
 20
172.7281097162277
 10
126.4092934183559
 20
175.2281097162277
 10
115.4092934183559
 20
175.2281097162277
 10
112.9092934183559
 20
172.7281097162277
 10
112.9092934183558
 20
113.8925653682837
  0
LINE
  5
58F
330
1F
100
AcDbEntity
  8
細線
100
AcDbLine
 10
126.4092934183558
 20
113.8925653682837
 30
0.0
 11
126.409293418356
 21
100.2281287097557
 31
0.0
  0
LINE
  5
590
330
1F
100
AcDbEntity
  8
細線
100
AcDbLine
 10
115.4092934183558
 20
113.8925653682837
 30
0.0
 11
115.4092934183559
 21
100.2281287097557
 31
0.0
  0
DIMENSION
  5
591
102
{ACAD_REACTORS
330
593
102
}
102
{ACAD_XDICTIONARY
360
592
102
}
330
1F
100
AcDbEntity
  8
文字・寸法線
100
AcDbDimension
280
     0
  2
*D37
 10
128.9092934183559
 20
186.5242459912114
 30
0.0
 11
120.9092934183559
 21
188.6799417620164
 31
0.0
 70
    32
  1
M16
 71
     5
 42
15.99999999999997
 73
     0
 74
     0
 75
     0
  3
ISO-25
100
AcDbAlignedDimension
 13
112.9092934183559
 23
172.7281097162277
 33
0.0
 14
128.9092934183559
 24
172.7281097162277
 34
0.0
100
AcDbRotatedDimension
  0
DIMENSION
  5
594
330
1F
100
AcDbEntity
  8
文字・寸法線
100
AcDbDimension
280
     0
  2
*D38
 10
203.4519150532148
 20
175.2281097162277
 30
0.0
 11
201.3023584365709
 21
137.7281192129917
 31
0.0
 70
    32
 71
     5
 42
74.99998100647205
 73
     0
 74
     0
 75
     0
  3
ISO-25
100
AcDbAlignedDimension
 13
134.7592934183562
 23
100.2281287097557
 33
0.0
 14
126.4092934183559
 24
175.2281097162277
 34
0.0
 50
90.0
100
AcDbRotatedDimension
  0
DIMENSION
  5
595
330
1F
100
AcDbEntity
  8
文字・寸法線
100
AcDbDimension
280
     0
  2
*D39
 10
203.4226303706949
 20
90.22812726387197
 30
0.0
 11
201.26693459989
 21
95.22812798681382
 31
0.0
 70
    32
 71
     5
 42
10.0000014458837
 73
     0
 74
     0
 75
     0
  3
ISO-25
100
AcDbAlignedDimension
 13
131.8592934183561
 23
100.2281287097557
 33
0.0
 14
128.1113373514696
 24
90.22812726387197
 34
0.0
 50
90.0
100
AcDbRotatedDimension
  0
LINE
  5
596
102
{ACAD_REACTORS
330
593
102
}
330
1F
100
AcDbEntity
  8
実線
370
    20
100
AcDbLine
 10
112.9092934183559
 20
172.7281097162277
 30
0.0
 11
128.9092934183559
 21
172.7281097162277
 31
0.0
  0
LINE
  5
597
330
1F
100
AcDbEntity
  8
実線
100
AcDbLine
 10
111.3250696840465
 20
90.22812726387197
 30
0.0
 11
131.8743803608068
 21
90.22812726387197
 31
0.0
  0
LINE
  5
598
330
1F
100
AcDbEntity
  8
細線
100
AcDbLine
 10
126.4092934183559
 20
175.2281097162277
 30
0.0
 11
126.4092934183558
 21
113.8925653682837
 31
0.0
  0
LINE
  5
599
330
1F
100
AcDbEntity
  8
細線
100
AcDbLine
 10
115.4092934183559
 20
175.2281097162277
 30
0.0
 11
115.4092934183558
 21
113.8925653682837
 31
0.0
  0
LWPOLYLINE
  5
59A
330
1F
100
AcDbEntity
  8
実線
100
AcDbPolyline
 90
        4
 70
     0
 43
0.0
 10
112.9092934183558
 20
113.8925653682837
 10
112.909293418356
 20
100.2281287097557
 10
128.909293418356
 20
100.2281287097557
 10
128.9092934183558
 20
113.8925653682837
  0
LINE
  5
59B
330
1F
100
AcDbEntity
  8
実線
100
AcDbLine
 10
110.9283240769078
 20
90.22812581798827
 30
0.0
 11
130.8957801482939
 21
90.22812581798827
 31
0.0
  0
LINE
  5
59C
330
1F
100
AcDbEntity
  8
実線
100
AcDbLine
 10
112.6995521126006
 20
90.22812581798827
 30
0.0
 11
131.1427979747014
 21
90.22812581798827
 31
0.0
  0
ARC
  5
59D
330
1F
100
AcDbEntity
  8
実線
100
AcDbCircle
 10
131.287052112601
 20
95.68317042065927
 30
0.0
 40
5.455090553826145
100
AcDbArc
 50
230.4300587003145
 51
309.5699412996833
  0
ARC
  5
59E
330
1F
100
AcDbEntity
  8
実線
100
AcDbCircle
 10
120.9120521126008
 20
109.8971272638729
 30
0.0
 40
19.66900000000085
100
AcDbArc
 50
249.4633884039801
 51
290.5366115960201
  0
ARC
  5
59F
330
1F
100
AcDbEntity
  8
実線
100
AcDbCircle
 10
110.5370521126008
 20
95.68337095375266
 30
0.0
 40
5.455245135764357
100
AcDbArc
 50
230.4314003751051
 51
309.5685996248936
  0
LINE
  5
5A0
330
1F
100
AcDbEntity
  8
実線
100
AcDbLine
 10
127.8120521126011
 20
100.2281287097557
 30
0.0
 11
127.812052112601
 21
91.47812726387208
 31
0.0
  0
LINE
  5
5A1
330
1F
100
AcDbEntity
  8
実線
100
AcDbLine
 10
114.0120521126009
 20
100.2281287097557
 30
0.0
 11
114.0120521126008
 21
91.47812726387208
 31
0.0
  0
LWPOLYLINE
  5
5A2
330
1F
100
AcDbEntity
  8
実線
100
AcDbPolyline
 90
        4
 70
     0
 43
0.0
 10
134.7620521126008
 20
91.47812726387197
 10
134.7620521126011
 20
100.2281287097557
 10
107.0620521126009
 20
100.2281287097557
 10
107.0620521126008
 20
91.47812726387208
  0
CIRCLE
  5
64A
330
1F
100
AcDbEntity
  8
実線
100
AcDbCircle
 10
308.8780095242454
 20
129.9610441615253
 30
0.0
 40
6.5
  0
CIRCLE
  5
64B
330
1F
100
AcDbEntity
  8
実線
100
AcDbCircle
 10
308.8780095242454
 20
129.9610441615253
 30
0.0
 40
8.0
  0
LWPOLYLINE
  5
64C
330
1F
100
AcDbEntity
  8
実線
100
AcDbPolyline
 90
        6
 70
     1
 43
0.0
 10
320.8780095242454
 20
136.8892473918009
 10
308.8780095242454
 20
143.8174506220764
 10
296.8780095242454
 20
136.8892473918009
 10
296.8780095242454
 20
123.03284093125
 10
308.8780095242454
 20
116.1046377009744
 10
320.8780095242454
 20
123.0328409312498
  0
DIMENSION
  5
64D
330
1F
100
AcDbEntity
  8
文字・寸法線
100
AcDbDimension
280
     0
  2
*D41
 10
320.8780095242454
 20
45.33933391727963
 30
0.0
 11
308.7613761350782
 21
45.33933391727963
 31
0.0
 70
   160
 71
     5
 42
24.0
 73
     0
 74
     0
 75
     0
  3
ISO-25
100
AcDbAlignedDimension
 13
296.8780095242454
 23
123.03284093125
 33
0.0
 14
320.8780095242454
 24
123.0328409312498
 34
0.0
100
AcDbRotatedDimension
1001
ACAD
1000
DSTYLE
1002
{
1070
   271
1070
     0
1002
}
  0
MTEXT
  5
687
330
1F
100
AcDbEntity
  8
文字・寸法線
 62
     0
100
AcDbMText
 10
82.82083369925185
 20
238.6116450603454
 30
0.0
 40
6.0
 41
0.0
 46
6.0
 71
     9
 72
     1
  1
{\fＭＳ ゴシック|b0|i0|c0|p0;SP-141 M16X75}
 73
     1
 44
1.0
1001
ACAD
1000
ACAD_MTEXT_DEFINED_HEIGHT_BEGIN
1070
    46
1040
6.0
1000
ACAD_MTEXT_DEFINED_HEIGHT_END
  0
CIRCLE
  5
6FC
330
1F
100
AcDbEntity
  8
実線
 62
     0
100
AcDbCircle
 10
333.071240024645
 20
129.8719075489804
 30
0.0
 40
3.779326381963708
  0
CIRCLE
  5
6FD
330
1F
100
AcDbEntity
  8
実線
100
AcDbCircle
 10
333.071240024645
 20
129.8719075489804
 30
0.0
 40
3.435751256330643
  0
LINE
  5
6FE
330
1F
100
AcDbEntity
  8
実線
100
AcDbLine
 10
331.6969395221128
 20
129.0784551538434
 30
0.0
 11
331.6969395221128
 21
130.6653606312676
 31
0.0
  0
LINE
  5
6FF
330
1F
100
AcDbEntity
  8
実線
100
AcDbLine
 10
331.6969395221128
 20
130.6653606312676
 30
0.0
 11
333.071240024645
 21
131.4588130264046
 31
0.0
  0
LINE
  5
700
330
1F
100
AcDbEntity
  8
実線
100
AcDbLine
 10
333.071240024645
 20
131.4588130264046
 30
0.0
 11
334.4455405271773
 21
130.6653606312676
 31
0.0
  0
LINE
  5
701
330
1F
100
AcDbEntity
  8
実線
100
AcDbLine
 10
334.4455405271773
 20
130.6653606312676
 30
0.0
 11
334.4455405271773
 21
129.0784551538434
 31
0.0
  0
LINE
  5
702
330
1F
100
AcDbEntity
  8
実線
100
AcDbLine
 10
334.4455405271773
 20
129.0784551538434
 30
0.0
 11
333.071240024645
 21
128.2850020715562
 31
0.0
  0
LINE
  5
703
330
1F
100
AcDbEntity
  8
実線
100
AcDbLine
 10
333.071240024645
 20
128.2850020715562
 30
0.0
 11
331.6969395221128
 21
129.0784551538434
 31
0.0
  0
CIRCLE
  5
733
330
1F
100
AcDbEntity
  8
実線
 62
     0
100
AcDbCircle
 10
308.5905198512253
 20
154.8621966516747
 30
0.0
 40
3.779326381963708
  0
CIRCLE
  5
734
330
1F
100
AcDbEntity
  8
実線
100
AcDbCircle
 10
308.5905198512253
 20
154.8621966516747
 30
0.0
 40
3.435751256330643
  0
LINE
  5
735
330
1F
100
AcDbEntity
  8
実線
100
AcDbLine
 10
307.2162193486931
 20
154.0687442565377
 30
0.0
 11
307.2162193486931
 21
155.655649733962
 31
0.0
  0
LINE
  5
736
330
1F
100
AcDbEntity
  8
実線
100
AcDbLine
 10
307.2162193486931
 20
155.655649733962
 30
0.0
 11
308.5905198512253
 21
156.4491021290989
 31
0.0
  0
LINE
  5
737
330
1F
100
AcDbEntity
  8
実線
100
AcDbLine
 10
308.5905198512253
 20
156.4491021290989
 30
0.0
 11
309.9648203537576
 21
155.655649733962
 31
0.0
  0
LINE
  5
738
330
1F
100
AcDbEntity
  8
実線
100
AcDbLine
 10
309.9648203537576
 20
155.655649733962
 30
0.0
 11
309.9648203537576
 21
154.0687442565377
 31
0.0
  0
LINE
  5
739
330
1F
100
AcDbEntity
  8
実線
100
AcDbLine
 10
309.9648203537576
 20
154.0687442565377
 30
0.0
 11
308.5905198512253
 21
153.2752911742506
 31
0.0
  0
LINE
  5
73A
330
1F
100
AcDbEntity
  8
実線
100
AcDbLine
 10
308.5905198512253
 20
153.2752911742506
 30
0.0
 11
307.2162193486931
 21
154.0687442565377
 31
0.0
  0
CIRCLE
  5
76A
330
1F
100
AcDbEntity
  8
実線
 62
     0
100
AcDbCircle
 10
308.5905198512253
 20
105.8158348613401
 30
0.0
 40
3.779326381963708
  0
CIRCLE
  5
76B
330
1F
100
AcDbEntity
  8
実線
100
AcDbCircle
 10
308.5905198512253
 20
105.8158348613401
 30
0.0
 40
3.435751256330643
  0
LINE
  5
76C
330
1F
100
AcDbEntity
  8
実線
100
AcDbLine
 10
307.2162193486931
 20
105.022382466203
 30
0.0
 11
307.2162193486931
 21
106.6092879436273
 31
0.0
  0
LINE
  5
76D
330
1F
100
AcDbEntity
  8
実線
100
AcDbLine
 10
307.2162193486931
 20
106.6092879436273
 30
0.0
 11
308.5905198512253
 21
107.4027403387642
 31
0.0
  0
LINE
  5
76E
330
1F
100
AcDbEntity
  8
実線
100
AcDbLine
 10
308.5905198512253
 20
107.4027403387642
 30
0.0
 11
309.9648203537576
 21
106.6092879436273
 31
0.0
  0
LINE
  5
76F
330
1F
100
AcDbEntity
  8
実線
100
AcDbLine
 10
309.9648203537576
 20
106.6092879436273
 30
0.0
 11
309.9648203537576
 21
105.022382466203
 31
0.0
  0
LINE
  5
770
330
1F
100
AcDbEntity
  8
実線
100
AcDbLine
 10
309.9648203537576
 20
105.022382466203
 30
0.0
 11
308.5905198512253
 21
104.2289293839159
 31
0.0
  0
LINE
  5
771
330
1F
100
AcDbEntity
  8
実線
100
AcDbLine
 10
308.5905198512253
 20
104.2289293839159
 30
0.0
 11
307.2162193486931
 21
105.022382466203
 31
0.0
  0
CIRCLE
  5
7D8
330
1F
100
AcDbEntity
  8
実線
 62
     0
100
AcDbCircle
 10
284.3008930598216
 20
130.1054616527439
 30
0.0
 40
3.779326381963708
  0
CIRCLE
  5
7D9
330
1F
100
AcDbEntity
  8
実線
100
AcDbCircle
 10
284.3008930598216
 20
130.1054616527439
 30
0.0
 40
3.435751256330643
  0
LINE
  5
7DA
330
1F
100
AcDbEntity
  8
実線
100
AcDbLine
 10
282.9265925572893
 20
129.3120092576069
 30
0.0
 11
282.9265925572893
 21
130.8989147350311
 31
0.0
  0
LINE
  5
7DB
330
1F
100
AcDbEntity
  8
実線
100
AcDbLine
 10
282.9265925572893
 20
130.8989147350311
 30
0.0
 11
284.3008930598216
 21
131.6923671301681
 31
0.0
  0
LINE
  5
7DC
330
1F
100
AcDbEntity
  8
実線
100
AcDbLine
 10
284.3008930598216
 20
131.6923671301681
 30
0.0
 11
285.6751935623539
 21
130.8989147350311
 31
0.0
  0
LINE
  5
7DD
330
1F
100
AcDbEntity
  8
実線
100
AcDbLine
 10
285.6751935623539
 20
130.8989147350311
 30
0.0
 11
285.6751935623539
 21
129.3120092576069
 31
0.0
  0
LINE
  5
7DE
330
1F
100
AcDbEntity
  8
実線
100
AcDbLine
 10
285.6751935623539
 20
129.3120092576069
 30
0.0
 11
284.3008930598216
 21
128.5185561753197
 31
0.0
  0
LINE
  5
7DF
330
1F
100
AcDbEntity
  8
実線
100
AcDbLine
 10
284.3008930598216
 20
128.5185561753197
 30
0.0
 11
282.9265925572893
 21
129.3120092576069
 31
0.0
  0
LINE
  5
7E3
330
1F
100
AcDbEntity
  8
0
100
AcDbLine
 10
191.020781513135
 20
65.732826293688
 30
0.0
 11
191.020781513135
 21
64.23282629368802
 31
0.0
  0
LINE
  5
7E4
330
1F
100
AcDbEntity
  8
0
100
AcDbLine
 10
191.020781513135
 20
65.73282629368802
 30
0.0
 11
191.020781513135
 21
67.23282629368802
 31
0.0
  0
LINE
  5
7E5
330
1F
100
AcDbEntity
  8
0
100
AcDbLine
 10
186.0207815131347
 20
64.23282629368802
 30
0.0
 11
186.0207815131347
 21
65.73282629368802
 31
0.0
  0
LINE
  5
7E6
330
1F
100
AcDbEntity
  8
0
100
AcDbLine
 10
56.02078151313475
 20
64.23282629368802
 30
0.0
 11
56.02078151313478
 21
65.73282629368802
 31
0.0
  0
LINE
  5
7E7
330
1F
100
AcDbEntity
  8
0
100
AcDbLine
 10
51.02078151313475
 20
65.73282629368802
 30
0.0
 11
51.02078151313474
 21
67.23282629368799
 31
0.0
  0
ENDSEC
  0
SECTION
  2
OBJECTS
  0
DICTIONARY
  5
C
330
0
100
AcDbDictionary
281
     1
  3
ACAD_COLOR
350
73
  3
ACAD_DETAILVIEWSTYLE
350
122
  3
ACAD_GROUP
350
D
  3
ACAD_IMAGE_VARS
350
DC
  3
ACAD_LAYOUT
350
1A
  3
ACAD_MATERIAL
350
72
  3
ACAD_MLEADERSTYLE
350
B5
  3
ACAD_MLINESTYLE
350
17
  3
ACAD_PLOTSETTINGS
350
19
  3
ACAD_PLOTSTYLENAME
350
E
  3
ACAD_SCALELIST
350
B6
  3
ACAD_SECTIONVIEWSTYLE
350
123
  3
ACAD_TABLESTYLE
350
86
  3
ACAD_VISUALSTYLE
350
99
  3
ACDB_RECOMPOSE_DATA
350
7EA
  3
AcDbVariableDictionary
350
66
  3
APPDATA
350
E1
  0
SUN
  5
ED
330
94
100
AcDbSun
 90
        1
290
     0
 63
     7
421
 16777215
 40
1.0
291
     1
 91
  2455826
 92
 54000000
292
     0
 70
     2
 71
   256
280
     1
  0
DICTIONARY
  5
127
330
126
100
AcDbDictionary
280
     1
281
     1
  3
ADSK_XREC_LAYER_RECONCILED
360
128
  0
DICTIONARY
  5
12B
330
12A
100
AcDbDictionary
280
     1
281
     1
  3
ADSK_XREC_LAYER_RECONCILED
360
12C
  0
DICTIONARY
  5
12F
330
12E
100
AcDbDictionary
280
     1
281
     1
  3
ADSK_XREC_LAYER_RECONCILED
360
130
  0
DICTIONARY
  5
132
330
131
100
AcDbDictionary
280
     1
281
     1
  3
ADSK_XREC_LAYER_RECONCILED
360
133
  0
DICTIONARY
  5
135
330
134
100
AcDbDictionary
280
     1
281
     1
  3
ADSK_XREC_LAYER_RECONCILED
360
136
  0
DICTIONARY
  5
265
330
264
100
AcDbDictionary
280
     1
281
     1
  0
DICTIONARY
  5
2A1
330
2A0
100
AcDbDictionary
280
     1
281
     1
  0
DICTIONARY
  5
592
330
591
100
AcDbDictionary
280
     1
281
     1
  3
ACAD_DIMASSOC
360
593
  0
DICTIONARY
  5
73
102
{ACAD_REACTORS
330
C
102
}
330
C
100
AcDbDictionary
281
     1
  0
DICTIONARY
  5
122
102
{ACAD_REACTORS
330
C
102
}
330
C
100
AcDbDictionary
281
     1
  0
DICTIONARY
  5
D
102
{ACAD_REACTORS
330
C
102
}
330
C
100
AcDbDictionary
281
     1
  0
RASTERVARIABLES
  5
DC
102
{ACAD_REACTORS
330
C
102
}
330
C
100
AcDbRasterVariables
 90
        0
 70
     1
 71
     1
 72
     5
  0
DICTIONARY
  5
1A
102
{ACAD_REACTORS
330
C
102
}
330
C
100
AcDbDictionary
281
     1
  3
Model
350
22
  3
Sheet1
350
59
  3
Sheet2
350
5E
  0
DICTIONARY
  5
72
102
{ACAD_REACTORS
330
C
102
}
330
C
100
AcDbDictionary
281
     1
  3
ByBlock
350
E2
  3
ByLayer
350
96
  3
Global
350
98
  0
DICTIONARY
  5
B5
102
{ACAD_REACTORS
330
C
102
}
330
C
100
AcDbDictionary
281
     1
  0
DICTIONARY
  5
17
102
{ACAD_REACTORS
330
C
102
}
330
C
100
AcDbDictionary
281
     1
  3
Standard
350
18
  0
DICTIONARY
  5
19
102
{ACAD_REACTORS
330
C
102
}
330
C
100
AcDbDictionary
281
     1
  0
ACDBDICTIONARYWDFLT
  5
E
102
{ACAD_REACTORS
330
C
102
}
330
C
100
AcDbDictionary
281
     1
  3
Normal
350
F
100
AcDbDictionaryWithDefault
340
F
  0
DICTIONARY
  5
B6
102
{ACAD_REACTORS
330
C
102
}
330
C
100
AcDbDictionary
281
     1
  3
A0
350
B7
  3
A1
350
B8
  3
A2
350
B9
  3
A3
350
BA
  3
A4
350
BB
  3
A5
350
BC
  3
A6
350
BD
  3
A7
350
BE
  3
A8
350
BF
  3
A9
350
C0
  3
B0
350
C1
  3
B1
350
C2
  3
B2
350
C3
  3
B3
350
C4
  3
B4
350
C5
  3
B5
350
C6
  3
B6
350
C7
  3
B7
350
C8
  3
B8
350
C9
  3
B9
350
CA
  3
C0
350
CB
  3
C1
350
CC
  3
C2
350
CD
  3
C3
350
CE
  3
C4
350
CF
  3
C5
350
D0
  3
C6
350
D1
  3
C7
350
D2
  3
C8
350
D3
  3
C9
350
D4
  3
D0
350
D5
  3
D1
350
D6
  3
D2
350
D7
  0
DICTIONARY
  5
123
102
{ACAD_REACTORS
330
C
102
}
330
C
100
AcDbDictionary
281
     1
  0
DICTIONARY
  5
86
102
{ACAD_REACTORS
330
C
102
}
330
C
100
AcDbDictionary
281
     1
  3
Standard
350
87
  0
DICTIONARY
  5
99
102
{ACAD_REACTORS
330
C
102
}
330
C
100
AcDbDictionary
281
     1
  3
2dWireframe
350
9F
  3
3D Hidden
350
A1
  3
3dWireframe
350
A0
  3
Basic
350
9E
  3
Brighten
350
A5
  3
ColorChange
350
A9
  3
Conceptual
350
A2
  3
Dim
350
A4
  3
EdgeColorOff
350
E7
  3
Facepattern
350
A8
  3
Flat
350
9A
  3
FlatWithEdges
350
9B
  3
Gouraud
350
9C
  3
GouraudWithEdges
350
9D
  3
Hidden
350
E4
  3
JitterOff
350
E5
  3
Linepattern
350
A7
  3
OverhangOff
350
E6
  3
Realistic
350
A3
  3
Shaded
350
EC
  3
Shaded with edges
350
EB
  3
Shades of Gray
350
E8
  3
Sketchy
350
E9
  3
Thicken
350
A6
  3
Wireframe
350
E3
  3
X-Ray
350
EA
  0
XRECORD
  5
7EA
102
{ACAD_REACTORS
330
C
102
}
330
C
100
AcDbXrecord
280
     1
 90
        1
330
87
  0
DICTIONARY
  5
66
102
{ACAD_REACTORS
330
C
102
}
330
C
100
AcDbDictionary
281
     1
  3
CANNOSCALE
350
D8
  3
CTABLESTYLE
350
89
  3
DIMASSOC
350
67
  3
HIDETEXT
350
6B
  3
LIGHTSINBLOCKS
350
DF
  3
XCLIPFRAME
350
E0
  0
DICTIONARY
  5
E1
102
{ACAD_REACTORS
330
C
102
}
330
C
100
AcDbDictionary
281
     1
  0
XRECORD
  5
128
102
{ACAD_REACTORS
330
127
102
}
330
127
100
AcDbXrecord
280
     1
290
     1
  0
XRECORD
  5
12C
102
{ACAD_REACTORS
330
12B
102
}
330
12B
100
AcDbXrecord
280
     1
290
     1
  0
XRECORD
  5
130
102
{ACAD_REACTORS
330
12F
102
}
330
12F
100
AcDbXrecord
280
     1
290
     1
  0
XRECORD
  5
133
102
{ACAD_REACTORS
330
132
102
}
330
132
100
AcDbXrecord
280
     1
290
     1
  0
XRECORD
  5
136
102
{ACAD_REACTORS
330
135
102
}
330
135
100
AcDbXrecord
280
     1
290
     1
  0
DIMASSOC
  5
593
102
{ACAD_REACTORS
330
592
102
}
330
592
100
AcDbDimAssoc
330
591
 90
        3
 70
     0
 71
     0
  1
AcDbOsnapPointRef
 72
    13
331
596
 73
     2
 91
        0
 40
0.0
 10
0.0
 20
0.0
 30
2.000000000000000E+50
 75
     0
  1
AcDbOsnapPointRef
 72
     1
331
596
 73
     2
 91
        0
 40
1.0
 10
0.0
 20
0.0
 30
2.000000000000000E+50
 75
     0
  0
LAYOUT
  5
22
102
{ACAD_REACTORS
330
1A
102
}
330
1A
100
AcDbPlotSettings
  1

  2
none_device
  4
ANSI_A_(8.50_x_11.00_Inches)
  6

 40
6.35
 41
19.05
 42
6.35
 43
19.05
 44
215.9
 45
279.4
 46
11.11250000000003
 47
0.0000000000000142
 48
0.0
 49
0.0
140
0.0
141
0.0
142
1.0
143
1.263157894736842
 70
 11444
 72
     0
 73
     1
 74
     1
  7
monochrome.ctb
 75
     0
 76
     0
 77
     2
 78
   300
147
0.7916666666666665
148
-702.8076765758875
149
-496.2830551296954
100
AcDbLayout
  1
Model
 70
     1
 71
     0
 10
0.0
 20
0.0
 11
12.0
 21
9.0
 12
0.0
 22
0.0
 32
0.0
 14
28.36213708140799
 24
27.80130976518603
 34
0.0
 15
383.3410612471653
 25
244.6116450603454
 35
0.0
146
0.0
 13
0.0
 23
0.0
 33
0.0
 16
1.0
 26
0.0
 36
0.0
 17
0.0
 27
1.0
 37
0.0
 76
     0
330
1F
331
94
  0
LAYOUT
  5
59
102
{ACAD_REACTORS
330
1A
102
}
330
1A
100
AcDbPlotSettings
  1

  2
None
  4

  6

 40
0.0
 41
0.0
 42
0.0
 43
0.0
 44
0.0
 45
0.0
 46
0.0
 47
0.0
 48
0.0
 49
0.0
140
0.0
141
0.0
142
1.0
143
1.0
 70
   688
 72
     0
 73
     0
 74
     5
  7

 75
    16
 76
     0
 77
     2
 78
   300
147
1.0
148
0.0
149
0.0
100
AcDbLayout
  1
Sheet1
 70
     1
 71
     1
 10
0.0
 20
0.0
 11
12.0
 21
9.0
 12
0.0
 22
0.0
 32
0.0
 14
0.0
 24
0.0
 34
0.0
 15
0.0
 25
0.0
 35
0.0
146
0.0
 13
0.0
 23
0.0
 33
0.0
 16
1.0
 26
0.0
 36
0.0
 17
0.0
 27
1.0
 37
0.0
 76
     0
330
58
  0
LAYOUT
  5
5E
102
{ACAD_REACTORS
330
1A
102
}
330
1A
100
AcDbPlotSettings
  1

  2
None
  4

  6

 40
0.0
 41
0.0
 42
0.0
 43
0.0
 44
0.0
 45
0.0
 46
0.0
 47
0.0
 48
0.0
 49
0.0
140
0.0
141
0.0
142
1.0
143
1.0
 70
   688
 72
     0
 73
     0
 74
     5
  7

 75
    16
 76
     0
 77
     2
 78
   300
147
1.0
148
0.0
149
0.0
100
AcDbLayout
  1
Sheet2
 70
     1
 71
     2
 10
0.0
 20
0.0
 11
12.0
 21
9.0
 12
0.0
 22
0.0
 32
0.0
 14
0.0
 24
0.0
 34
0.0
 15
0.0
 25
0.0
 35
0.0
146
0.0
 13
0.0
 23
0.0
 33
0.0
 16
1.0
 26
0.0
 36
0.0
 17
0.0
 27
1.0
 37
0.0
 76
     0
330
5D
  0
MATERIAL
  5
E2
102
{ACAD_REACTORS
330
72
102
}
330
72
100
AcDbMaterial
  1
ByBlock
 72
     1
 94
      127
  0
MATERIAL
  5
96
102
{ACAD_REACTORS
330
72
102
}
330
72
100
AcDbMaterial
  1
ByLayer
 72
     1
 94
       63
  0
MATERIAL
  5
98
102
{ACAD_REACTORS
330
72
102
}
330
72
100
AcDbMaterial
  1
Global
 72
     1
 94
       63
  0
MLINESTYLE
  5
18
102
{ACAD_REACTORS
330
17
102
}
330
17
100
AcDbMlineStyle
  2
STANDARD
 70
     0
  3

 62
   256
 51
90.0
 52
90.0
 71
     2
 49
0.5
 62
   256
  6
BYLAYER
 49
-0.5
 62
   256
  6
BYLAYER
  0
ACDBPLACEHOLDER
  5
F
102
{ACAD_REACTORS
330
E
102
}
330
E
  0
SCALE
  5
B7
102
{ACAD_REACTORS
330
B6
102
}
330
B6
100
AcDbScale
 70
     0
300
1:1
140
1.0
141
1.0
290
     1
  0
SCALE
  5
B8
102
{ACAD_REACTORS
330
B6
102
}
330
B6
100
AcDbScale
 70
     0
300
1:2
140
1.0
141
2.0
290
     0
  0
SCALE
  5
B9
102
{ACAD_REACTORS
330
B6
102
}
330
B6
100
AcDbScale
 70
     0
300
1:4
140
1.0
141
4.0
290
     0
  0
SCALE
  5
BA
102
{ACAD_REACTORS
330
B6
102
}
330
B6
100
AcDbScale
 70
     0
300
1:5
140
1.0
141
5.0
290
     0
  0
SCALE
  5
BB
102
{ACAD_REACTORS
330
B6
102
}
330
B6
100
AcDbScale
 70
     0
300
1:8
140
1.0
141
8.0
290
     0
  0
SCALE
  5
BC
102
{ACAD_REACTORS
330
B6
102
}
330
B6
100
AcDbScale
 70
     0
300
1:10
140
1.0
141
10.0
290
     0
  0
SCALE
  5
BD
102
{ACAD_REACTORS
330
B6
102
}
330
B6
100
AcDbScale
 70
     0
300
1:16
140
1.0
141
16.0
290
     0
  0
SCALE
  5
BE
102
{ACAD_REACTORS
330
B6
102
}
330
B6
100
AcDbScale
 70
     0
300
1:20
140
1.0
141
20.0
290
     0
  0
SCALE
  5
BF
102
{ACAD_REACTORS
330
B6
102
}
330
B6
100
AcDbScale
 70
     0
300
1:30
140
1.0
141
30.0
290
     0
  0
SCALE
  5
C0
102
{ACAD_REACTORS
330
B6
102
}
330
B6
100
AcDbScale
 70
     0
300
1:40
140
1.0
141
40.0
290
     0
  0
SCALE
  5
C1
102
{ACAD_REACTORS
330
B6
102
}
330
B6
100
AcDbScale
 70
     0
300
1:50
140
1.0
141
50.0
290
     0
  0
SCALE
  5
C2
102
{ACAD_REACTORS
330
B6
102
}
330
B6
100
AcDbScale
 70
     0
300
1:100
140
1.0
141
100.0
290
     0
  0
SCALE
  5
C3
102
{ACAD_REACTORS
330
B6
102
}
330
B6
100
AcDbScale
 70
     0
300
2:1
140
2.0
141
1.0
290
     0
  0
SCALE
  5
C4
102
{ACAD_REACTORS
330
B6
102
}
330
B6
100
AcDbScale
 70
     0
300
4:1
140
4.0
141
1.0
290
     0
  0
SCALE
  5
C5
102
{ACAD_REACTORS
330
B6
102
}
330
B6
100
AcDbScale
 70
     0
300
8:1
140
8.0
141
1.0
290
     0
  0
SCALE
  5
C6
102
{ACAD_REACTORS
330
B6
102
}
330
B6
100
AcDbScale
 70
     0
300
10:1
140
10.0
141
1.0
290
     0
  0
SCALE
  5
C7
102
{ACAD_REACTORS
330
B6
102
}
330
B6
100
AcDbScale
 70
     0
300
100:1
140
100.0
141
1.0
290
     0
  0
SCALE
  5
C8
102
{ACAD_REACTORS
330
B6
102
}
330
B6
100
AcDbScale
 70
     0
300
1/128" = 1'-0"
140
0.0078125
141
12.0
290
     0
  0
SCALE
  5
C9
102
{ACAD_REACTORS
330
B6
102
}
330
B6
100
AcDbScale
 70
     0
300
1/64" = 1'-0"
140
0.015625
141
12.0
290
     0
  0
SCALE
  5
CA
102
{ACAD_REACTORS
330
B6
102
}
330
B6
100
AcDbScale
 70
     0
300
1/32" = 1'-0"
140
0.03125
141
12.0
290
     0
  0
SCALE
  5
CB
102
{ACAD_REACTORS
330
B6
102
}
330
B6
100
AcDbScale
 70
     0
300
1/16" = 1'-0"
140
0.0625
141
12.0
290
     0
  0
SCALE
  5
CC
102
{ACAD_REACTORS
330
B6
102
}
330
B6
100
AcDbScale
 70
     0
300
3/32" = 1'-0"
140
0.09375
141
12.0
290
     0
  0
SCALE
  5
CD
102
{ACAD_REACTORS
330
B6
102
}
330
B6
100
AcDbScale
 70
     0
300
1/8" = 1'-0"
140
0.125
141
12.0
290
     0
  0
SCALE
  5
CE
102
{ACAD_REACTORS
330
B6
102
}
330
B6
100
AcDbScale
 70
     0
300
3/16" = 1'-0"
140
0.1875
141
12.0
290
     0
  0
SCALE
  5
CF
102
{ACAD_REACTORS
330
B6
102
}
330
B6
100
AcDbScale
 70
     0
300
1/4" = 1'-0"
140
0.25
141
12.0
290
     0
  0
SCALE
  5
D0
102
{ACAD_REACTORS
330
B6
102
}
330
B6
100
AcDbScale
 70
     0
300
3/8" = 1'-0"
140
0.375
141
12.0
290
     0
  0
SCALE
  5
D1
102
{ACAD_REACTORS
330
B6
102
}
330
B6
100
AcDbScale
 70
     0
300
1/2" = 1'-0"
140
0.5
141
12.0
290
     0
  0
SCALE
  5
D2
102
{ACAD_REACTORS
330
B6
102
}
330
B6
100
AcDbScale
 70
     0
300
3/4" = 1'-0"
140
0.75
141
12.0
290
     0
  0
SCALE
  5
D3
102
{ACAD_REACTORS
330
B6
102
}
330
B6
100
AcDbScale
 70
     0
300
1" = 1'-0"
140
1.0
141
12.0
290
     0
  0
SCALE
  5
D4
102
{ACAD_REACTORS
330
B6
102
}
330
B6
100
AcDbScale
 70
     0
300
1-1/2" = 1'-0"
140
1.5
141
12.0
290
     0
  0
SCALE
  5
D5
102
{ACAD_REACTORS
330
B6
102
}
330
B6
100
AcDbScale
 70
     0
300
3" = 1'-0"
140
3.0
141
12.0
290
     0
  0
SCALE
  5
D6
102
{ACAD_REACTORS
330
B6
102
}
330
B6
100
AcDbScale
 70
     0
300
6" = 1'-0"
140
6.0
141
12.0
290
     0
  0
SCALE
  5
D7
102
{ACAD_REACTORS
330
B6
102
}
330
B6
100
AcDbScale
 70
     0
300
1'-0" = 1'-0"
140
12.0
141
12.0
290
     0
  0
TABLESTYLE
  5
87
102
{ACAD_REACTORS
330
86
102
}
102
{ACAD_XDICTIONARY
360
7E8
102
}
330
86
100
AcDbTableStyle
  3
Standard
 70
     0
 71
     0
 40
0.06
 41
0.06
280
     0
281
     0
  7
Standard
140
0.18
170
     2
 62
     0
 63
   257
283
     0
 90
      512
 91
        0
  1

274
    -2
284
     1
 64
     0
275
    -2
285
     1
 65
     0
276
    -2
286
     1
 66
     0
277
    -2
287
     1
 67
     0
278
    -2
288
     1
 68
     0
279
    -2
289
     1
 69
     0
  7
Standard
140
0.25
170
     5
 62
     0
 63
   257
283
     0
 90
      512
 91
        0
  1

274
    -2
284
     1
 64
     0
275
    -2
285
     1
 65
     0
276
    -2
286
     1
 66
     0
277
    -2
287
     1
 67
     0
278
    -2
288
     1
 68
     0
279
    -2
289
     1
 69
     0
  7
Standard
140
0.18
170
     5
 62
     0
 63
   257
283
     0
 90
      512
 91
        0
  1

274
    -2
284
     1
 64
     0
275
    -2
285
     1
 65
     0
276
    -2
286
     1
 66
     0
277
    -2
287
     1
 67
     0
278
    -2
288
     1
 68
     0
279
    -2
289
     1
 69
     0
  0
VISUALSTYLE
  5
9F
102
{ACAD_REACTORS
330
99
102
}
330
99
100
AcDbVisualStyle
  2
2dWireframe
 70
     4
177
     3
291
     0
 70
    58
 90
        0
176
     1
 90
        2
176
     1
 90
        1
176
     1
 90
        0
176
     1
 40
-0.6
176
     1
 40
-30.0
176
     1
 62
     7
420
 16777215
176
     1
 90
        1
176
     1
 90
        4
176
     1
 62
     7
176
     1
 62
   257
176
     1
 90
        1
176
     1
 90
        1
176
     1
 40
1.0
176
     1
 90
        0
176
     1
 62
   257
176
     1
 40
1.0
176
     1
 90
        1
176
     1
 90
        6
176
     1
 90
        2
176
     1
 62
     7
176
     1
 90
        5
176
     1
 90
        0
176
     1
 90
        0
176
     1
290
     0
176
     1
 90
        1
176
     1
 40
0.0
176
     1
 90
        0
176
     1
290
     1
176
     1
290
     1
176
     1
290
     0
176
     1
290
     0
176
     1
290
     0
176
     1
290
     0
176
     1
290
     0
176
     1
290
     0
176
     1
290
     0
176
     1
 90
       50
176
     1
 40
0.0
176
     1
 40
1.0
176
     1
 90
        0
176
     1
 62
    18
420
        0
176
     1
 90
       50
176
     1
 90
        3
176
     1
 62
     5
420
      255
176
     1
290
     0
176
     1
 90
       50
176
     1
 90
       50
176
     1
 90
       50
176
     1
290
     0
176
     1
 90
       50
176
     1
 62
   256
176
     0
 40
1.0
176
     0
 90
        2
176
     1
  1
strokes_ogs.tif
176
     1
290
     0
176
     1
 40
1.0
176
     1
 40
1.0
176
     1
  0
VISUALSTYLE
  5
A1
102
{ACAD_REACTORS
330
99
102
}
330
99
100
AcDbVisualStyle
  2
3D Hidden
 70
     6
177
     3
291
     0
 70
    58
 90
        1
176
     1
 90
        2
176
     1
 90
        2
176
     1
 90
        0
176
     1
 40
-0.6
176
     1
 40
-30.0
176
     1
 62
     7
420
 16777215
176
     1
 90
        2
176
     1
 90
        2
176
     1
 62
     7
176
     1
 62
   257
176
     1
 90
        2
176
     1
 90
        1
176
     1
 40
40.0
176
     1
 90
        0
176
     1
 62
   257
176
     1
 40
1.0
176
     1
 90
        1
176
     1
 90
        6
176
     1
 90
        2
176
     1
 62
     7
176
     1
 90
        3
176
     1
 90
        0
176
     1
 90
        0
176
     1
290
     0
176
     1
 90
        1
176
     1
 40
0.0
176
     1
 90
        0
176
     1
290
     0
176
     1
290
     1
176
     1
290
     1
176
     1
290
     0
176
     1
290
     0
176
     1
290
     0
176
     1
290
     0
176
     1
290
     0
176
     1
290
     0
176
     1
 90
       50
176
     1
 40
0.0
176
     1
 40
1.0
176
     1
 90
        0
176
     1
 62
    18
420
        0
176
     1
 90
       50
176
     1
 90
        3
176
     1
 62
     5
420
      255
176
     1
290
     0
176
     1
 90
       50
176
     1
 90
       50
176
     1
 90
       50
176
     1
290
     0
176
     1
 90
       50
176
     1
 62
   256
176
     0
 40
1.0
176
     0
 90
        2
176
     1
  1
strokes_ogs.tif
176
     1
290
     0
176
     1
 40
1.0
176
     1
 40
1.0
176
     1
  0
VISUALSTYLE
  5
A0
102
{ACAD_REACTORS
330
99
102
}
330
99
100
AcDbVisualStyle
  2
3dWireframe
 70
     5
177
     3
291
     0
 70
    58
 90
        0
176
     1
 90
        2
176
     1
 90
        1
176
     1
 90
        0
176
     1
 40
-0.6
176
     1
 40
-30.0
176
     1
 62
     7
420
 16777215
176
     1
 90
        1
176
     1
 90
        4
176
     1
 62
     7
176
     1
 62
   257
176
     1
 90
        1
176
     1
 90
        1
176
     1
 40
1.0
176
     1
 90
        0
176
     1
 62
   257
176
     1
 40
1.0
176
     1
 90
        1
176
     1
 90
        6
176
     1
 90
        2
176
     1
 62
     7
176
     1
 90
        5
176
     1
 90
        0
176
     1
 90
        0
176
     1
290
     0
176
     1
 90
        1
176
     1
 40
0.0
176
     1
 90
        0
176
     1
290
     0
176
     1
290
     1
176
     1
290
     1
176
     1
290
     0
176
     1
290
     0
176
     1
290
     0
176
     1
290
     0
176
     1
290
     0
176
     1
290
     0
176
     1
 90
       50
176
     1
 40
0.0
176
     1
 40
1.0
176
     1
 90
        0
176
     1
 62
    18
420
        0
176
     1
 90
       50
176
     1
 90
        3
176
     1
 62
     5
420
      255
176
     1
290
     0
176
     1
 90
       50
176
     1
 90
       50
176
     1
 90
       50
176
     1
290
     0
176
     1
 90
       50
176
     1
 62
   256
176
     0
 40
1.0
176
     0
 90
        2
176
     1
  1
strokes_ogs.tif
176
     1
290
     0
176
     1
 40
1.0
176
     1
 40
1.0
176
     1
  0
VISUALSTYLE
  5
9E
102
{ACAD_REACTORS
330
99
102
}
330
99
100
AcDbVisualStyle
  2
Basic
 70
     7
177
     3
291
     1
 70
    58
 90
        1
176
     1
 90
        0
176
     1
 90
        1
176
     1
 90
        0
176
     1
 40
-0.6
176
     1
 40
-30.0
176
     1
 62
     7
420
 16777215
176
     1
 90
        0
176
     1
 90
        4
176
     1
 62
     7
176
     1
 62
   257
176
     1
 90
        1
176
     1
 90
        1
176
     1
 40
1.0
176
     1
 90
        8
176
     1
 62
     7
176
     1
 40
1.0
176
     1
 90
        1
176
     1
 90
        6
176
     1
 90
        2
176
     1
 62
     7
176
     1
 90
        5
176
     1
 90
        0
176
     1
 90
        0
176
     1
290
     0
176
     1
 90
        1
176
     1
 40
0.0
176
     1
 90
        0
176
     1
290
     0
176
     1
290
     1
176
     1
290
     1
176
     1
290
     0
176
     1
290
     0
176
     1
290
     0
176
     1
290
     0
176
     1
290
     0
176
     1
290
     0
176
     1
 90
       50
176
     1
 40
0.0
176
     1
 40
1.0
176
     1
 90
        0
176
     1
 62
    18
420
        0
176
     1
 90
       50
176
     1
 90
        3
176
     1
 62
     5
420
      255
176
     1
290
     0
176
     1
 90
       50
176
     1
 90
       50
176
     1
 90
       50
176
     1
290
     0
176
     1
 90
       50
176
     1
 62
   256
176
     0
 40
1.0
176
     0
 90
        2
176
     1
  1
strokes_ogs.tif
176
     1
290
     0
176
     1
 40
1.0
176
     1
 40
1.0
176
     1
  0
VISUALSTYLE
  5
A5
102
{ACAD_REACTORS
330
99
102
}
330
99
100
AcDbVisualStyle
  2
Brighten
 70
    12
177
     3
291
     1
 70
    58
 90
        2
176
     1
 90
        2
176
     1
 90
        1
176
     1
 90
        0
176
     1
 40
-0.6
176
     1
 40
-30.0
176
     1
 62
     7
420
 16777215
176
     1
 90
        1
176
     1
 90
        4
176
     1
 62
     7
176
     1
 62
   257
176
     1
 90
        1
176
     1
 90
        1
176
     1
 40
1.0
176
     1
 90
        8
176
     1
 62
     7
176
     1
 40
1.0
176
     1
 90
        1
176
     1
 90
        6
176
     1
 90
        2
176
     1
 62
     7
176
     1
 90
        5
176
     1
 90
        0
176
     1
 90
        0
176
     1
290
     0
176
     1
 90
        1
176
     1
 40
50.0
176
     1
 90
        0
176
     1
290
     0
176
     1
290
     1
176
     1
290
     1
176
     1
290
     0
176
     1
290
     0
176
     1
290
     0
176
     1
290
     0
176
     1
290
     0
176
     1
290
     0
176
     1
 90
       50
176
     1
 40
0.0
176
     1
 40
1.0
176
     1
 90
        0
176
     1
 62
    18
420
        0
176
     1
 90
       50
176
     1
 90
        3
176
     1
 62
     5
420
      255
176
     1
290
     0
176
     1
 90
       50
176
     1
 90
       50
176
     1
 90
       50
176
     1
290
     0
176
     1
 90
       50
176
     1
 62
   256
176
     0
 40
1.0
176
     0
 90
        2
176
     1
  1
strokes_ogs.tif
176
     1
290
     0
176
     1
 40
1.0
176
     1
 40
1.0
176
     1
  0
VISUALSTYLE
  5
A9
102
{ACAD_REACTORS
330
99
102
}
330
99
100
AcDbVisualStyle
  2
ColorChange
 70
    16
177
     3
291
     1
 70
    58
 90
        2
176
     1
 90
        2
176
     1
 90
        3
176
     1
 90
        0
176
     1
 40
-0.6
176
     1
 40
-30.0
176
     1
 62
     8
420
  8421504
176
     1
 90
        1
176
     1
 90
        4
176
     1
 62
     7
176
     1
 62
   257
176
     1
 90
        1
176
     1
 90
        1
176
     1
 40
1.0
176
     1
 90
        8
176
     1
 62
     8
420
  8421504
176
     1
 40
1.0
176
     1
 90
        1
176
     1
 90
        6
176
     1
 90
        2
176
     1
 62
     7
176
     1
 90
        5
176
     1
 90
        0
176
     1
 90
        0
176
     1
290
     0
176
     1
 90
        1
176
     1
 40
0.0
176
     1
 90
        0
176
     1
290
     0
176
     1
290
     1
176
     1
290
     1
176
     1
290
     0
176
     1
290
     0
176
     1
290
     0
176
     1
290
     0
176
     1
290
     0
176
     1
290
     0
176
     1
 90
       50
176
     1
 40
0.0
176
     1
 40
1.0
176
     1
 90
        0
176
     1
 62
    18
420
        0
176
     1
 90
       50
176
     1
 90
        3
176
     1
 62
     5
420
      255
176
     1
290
     0
176
     1
 90
       50
176
     1
 90
       50
176
     1
 90
       50
176
     1
290
     0
176
     1
 90
       50
176
     1
 62
   256
176
     0
 40
1.0
176
     0
 90
        2
176
     1
  1
strokes_ogs.tif
176
     1
290
     0
176
     1
 40
1.0
176
     1
 40
1.0
176
     1
  0
VISUALSTYLE
  5
A2
102
{ACAD_REACTORS
330
99
102
}
330
99
100
AcDbVisualStyle
  2
Conceptual
 70
     9
177
     3
291
     0
 70
    58
 90
        3
176
     1
 90
        2
176
     1
 90
        1
176
     1
 90
        0
176
     1
 40
-0.6
176
     1
 40
-30.0
176
     1
 62
     7
420
 16777215
176
     1
 90
        2
176
     1
 90
        2
176
     1
 62
     7
176
     1
 62
   257
176
     1
 90
        1
176
     1
 90
        1
176
     1
 40
40.0
176
     1
 90
        8
176
     1
 62
     7
176
     1
 40
1.0
176
     1
 90
        1
176
     1
 90
        6
176
     1
 90
        2
176
     1
 62
     7
176
     1
 90
        3
176
     1
 90
        0
176
     1
 90
        0
176
     1
290
     0
176
     1
 90
        1
176
     1
 40
0.0
176
     1
 90
        0
176
     1
290
     0
176
     1
290
     1
176
     1
290
     1
176
     1
290
     0
176
     1
290
     0
176
     1
290
     0
176
     1
290
     0
176
     1
290
     0
176
     1
290
     0
176
     1
 90
       50
176
     1
 40
0.0
176
     1
 40
1.0
176
     1
 90
        0
176
     1
 62
    18
420
        0
176
     1
 90
       50
176
     1
 90
        3
176
     1
 62
     5
420
      255
176
     1
290
     0
176
     1
 90
       50
176
     1
 90
       50
176
     1
 90
       50
176
     1
290
     0
176
     1
 90
       50
176
     1
 62
   256
176
     0
 40
1.0
176
     0
 90
        2
176
     1
  1
strokes_ogs.tif
176
     1
290
     0
176
     1
 40
1.0
176
     1
 40
1.0
176
     1
  0
VISUALSTYLE
  5
A4
102
{ACAD_REACTORS
330
99
102
}
330
99
100
AcDbVisualStyle
  2
Dim
 70
    11
177
     3
291
     1
 70
    58
 90
        2
176
     1
 90
        2
176
     1
 90
        1
176
     1
 90
        0
176
     1
 40
-0.6
176
     1
 40
-30.0
176
     1
 62
     7
420
 16777215
176
     1
 90
        1
176
     1
 90
        4
176
     1
 62
     7
176
     1
 62
   257
176
     1
 90
        1
176
     1
 90
        1
176
     1
 40
1.0
176
     1
 90
        8
176
     1
 62
     7
176
     1
 40
1.0
176
     1
 90
        1
176
     1
 90
        6
176
     1
 90
        2
176
     1
 62
     7
176
     1
 90
        5
176
     1
 90
        0
176
     1
 90
        0
176
     1
290
     0
176
     1
 90
        1
176
     1
 40
-50.0
176
     1
 90
        0
176
     1
290
     0
176
     1
290
     1
176
     1
290
     1
176
     1
290
     0
176
     1
290
     0
176
     1
290
     0
176
     1
290
     0
176
     1
290
     0
176
     1
290
     0
176
     1
 90
       50
176
     1
 40
0.0
176
     1
 40
1.0
176
     1
 90
        0
176
     1
 62
    18
420
        0
176
     1
 90
       50
176
     1
 90
        3
176
     1
 62
     5
420
      255
176
     1
290
     0
176
     1
 90
       50
176
     1
 90
       50
176
     1
 90
       50
176
     1
290
     0
176
     1
 90
       50
176
     1
 62
   256
176
     0
 40
1.0
176
     0
 90
        2
176
     1
  1
strokes_ogs.tif
176
     1
290
     0
176
     1
 40
1.0
176
     1
 40
1.0
176
     1
  0
VISUALSTYLE
  5
E7
102
{ACAD_REACTORS
330
99
102
}
330
99
100
AcDbVisualStyle
  2
EdgeColorOff
 70
    22
177
     3
291
     1
 70
    58
 90
        2
176
     0
 90
        2
176
     0
 90
        0
176
     0
 90
        0
176
     0
 40
0.6
176
     0
 40
30.0
176
     0
 62
     7
420
 16777215
176
     0
 90
        1
176
     0
 90
        4
176
     0
 62
     7
176
     0
 62
   257
176
     0
 90
        1
176
     0
 90
        1
176
     0
 40
1.0
176
     0
 90
        8
176
     2
 62
     7
176
     0
 40
1.0
176
     0
 90
        1
176
     0
 90
        6
176
     0
 90
        2
176
     0
 62
     7
176
     0
 90
        5
176
     0
 90
        0
176
     0
 90
        0
176
     0
290
     0
176
     0
 90
        1
176
     0
 40
0.0
176
     0
 90
        0
176
     0
290
     0
176
     0
290
     1
176
     0
290
     1
176
     0
290
     0
176
     0
290
     0
176
     0
290
     0
176
     0
290
     0
176
     0
290
     0
176
     0
290
     0
176
     0
 90
       50
176
     0
 40
0.0
176
     0
 40
1.0
176
     0
 90
        0
176
     0
 62
    18
420
        0
176
     0
 90
       50
176
     0
 90
        3
176
     0
 62
     5
420
      255
176
     0
290
     0
176
     0
 90
       50
176
     0
 90
       50
176
     0
 90
       50
176
     0
290
     0
176
     0
 90
       50
176
     0
 62
   256
176
     0
 40
1.0
176
     0
 90
        2
176
     0
  1
strokes_ogs.tif
176
     0
290
     0
176
     0
 40
1.0
176
     0
 40
1.0
176
     0
  0
VISUALSTYLE
  5
A8
102
{ACAD_REACTORS
330
99
102
}
330
99
100
AcDbVisualStyle
  2
Facepattern
 70
    15
177
     3
291
     1
 70
    58
 90
        2
176
     1
 90
        2
176
     1
 90
        1
176
     1
 90
        0
176
     1
 40
-0.6
176
     1
 40
-30.0
176
     1
 62
     7
420
 16777215
176
     1
 90
        1
176
     1
 90
        4
176
     1
 62
     7
176
     1
 62
   257
176
     1
 90
        1
176
     1
 90
        1
176
     1
 40
1.0
176
     1
 90
        8
176
     1
 62
     7
176
     1
 40
1.0
176
     1
 90
        1
176
     1
 90
        6
176
     1
 90
        2
176
     1
 62
     7
176
     1
 90
        5
176
     1
 90
        0
176
     1
 90
        0
176
     1
290
     0
176
     1
 90
        1
176
     1
 40
0.0
176
     1
 90
        0
176
     1
290
     0
176
     1
290
     1
176
     1
290
     1
176
     1
290
     0
176
     1
290
     0
176
     1
290
     0
176
     1
290
     0
176
     1
290
     0
176
     1
290
     0
176
     1
 90
       50
176
     1
 40
0.0
176
     1
 40
1.0
176
     1
 90
        0
176
     1
 62
    18
420
        0
176
     1
 90
       50
176
     1
 90
        3
176
     1
 62
     5
420
      255
176
     1
290
     0
176
     1
 90
       50
176
     1
 90
       50
176
     1
 90
       50
176
     1
290
     0
176
     1
 90
       50
176
     1
 62
   256
176
     0
 40
1.0
176
     0
 90
        2
176
     1
  1
strokes_ogs.tif
176
     1
290
     0
176
     1
 40
1.0
176
     1
 40
1.0
176
     1
  0
VISUALSTYLE
  5
9A
102
{ACAD_REACTORS
330
99
102
}
330
99
100
AcDbVisualStyle
  2
Flat
 70
     0
177
     3
291
     1
 70
    58
 90
        2
176
     1
 90
        1
176
     1
 90
        1
176
     1
 90
        2
176
     1
 40
-0.6
176
     1
 40
30.0
176
     1
 62
     7
420
 16777215
176
     1
 90
        0
176
     1
 90
        4
176
     1
 62
     7
176
     1
 62
   257
176
     1
 90
        1
176
     1
 90
        1
176
     1
 40
1.0
176
     1
 90
        8
176
     1
 62
     7
176
     1
 40
1.0
176
     1
 90
        1
176
     1
 90
        6
176
     1
 90
        2
176
     1
 62
     7
176
     1
 90
        5
176
     1
 90
        0
176
     1
 90
        0
176
     1
290
     0
176
     1
 90
        1
176
     1
 40
0.0
176
     1
 90
        0
176
     1
290
     0
176
     1
290
     1
176
     1
290
     1
176
     1
290
     0
176
     1
290
     0
176
     1
290
     0
176
     1
290
     0
176
     1
290
     0
176
     1
290
     0
176
     1
 90
       50
176
     1
 40
0.0
176
     1
 40
1.0
176
     1
 90
        0
176
     1
 62
    18
420
        0
176
     1
 90
       50
176
     1
 90
        3
176
     1
 62
     5
420
      255
176
     1
290
     0
176
     1
 90
       50
176
     1
 90
       50
176
     1
 90
       50
176
     1
290
     0
176
     1
 90
       50
176
     1
 62
   256
176
     0
 40
1.0
176
     0
 90
        2
176
     1
  1
strokes_ogs.tif
176
     1
290
     0
176
     1
 40
1.0
176
     1
 40
1.0
176
     1
  0
VISUALSTYLE
  5
9B
102
{ACAD_REACTORS
330
99
102
}
330
99
100
AcDbVisualStyle
  2
FlatWithEdges
 70
     1
177
     3
291
     1
 70
    58
 90
        2
176
     1
 90
        1
176
     1
 90
        1
176
     1
 90
        2
176
     1
 40
-0.6
176
     1
 40
30.0
176
     1
 62
     7
420
 16777215
176
     1
 90
        1
176
     1
 90
        4
176
     1
 62
     7
176
     1
 62
   257
176
     1
 90
        1
176
     1
 90
        1
176
     1
 40
1.0
176
     1
 90
        0
176
     1
 62
   257
176
     1
 40
1.0
176
     1
 90
        1
176
     1
 90
        6
176
     1
 90
        2
176
     1
 62
     7
176
     1
 90
        5
176
     1
 90
        0
176
     1
 90
        0
176
     1
290
     0
176
     1
 90
        1
176
     1
 40
0.0
176
     1
 90
        0
176
     1
290
     0
176
     1
290
     1
176
     1
290
     1
176
     1
290
     0
176
     1
290
     0
176
     1
290
     0
176
     1
290
     0
176
     1
290
     0
176
     1
290
     0
176
     1
 90
       50
176
     1
 40
0.0
176
     1
 40
1.0
176
     1
 90
        0
176
     1
 62
    18
420
        0
176
     1
 90
       50
176
     1
 90
        3
176
     1
 62
     5
420
      255
176
     1
290
     0
176
     1
 90
       50
176
     1
 90
       50
176
     1
 90
       50
176
     1
290
     0
176
     1
 90
       50
176
     1
 62
   256
176
     0
 40
1.0
176
     0
 90
        2
176
     1
  1
strokes_ogs.tif
176
     1
290
     0
176
     1
 40
1.0
176
     1
 40
1.0
176
     1
  0
VISUALSTYLE
  5
9C
102
{ACAD_REACTORS
330
99
102
}
330
99
100
AcDbVisualStyle
  2
Gouraud
 70
     2
177
     3
291
     1
 70
    58
 90
        2
176
     1
 90
        2
176
     1
 90
        1
176
     1
 90
        2
176
     1
 40
-0.6
176
     1
 40
30.0
176
     1
 62
     7
420
 16777215
176
     1
 90
        0
176
     1
 90
        4
176
     1
 62
     7
176
     1
 62
   257
176
     1
 90
        1
176
     1
 90
        1
176
     1
 40
1.0
176
     1
 90
        0
176
     1
 62
     7
176
     1
 40
1.0
176
     1
 90
        1
176
     1
 90
        6
176
     1
 90
        2
176
     1
 62
     7
176
     1
 90
        5
176
     1
 90
        0
176
     1
 90
        0
176
     1
290
     0
176
     1
 90
        1
176
     1
 40
0.0
176
     1
 90
        0
176
     1
290
     0
176
     1
290
     1
176
     1
290
     1
176
     1
290
     0
176
     1
290
     0
176
     1
290
     0
176
     1
290
     0
176
     1
290
     0
176
     1
290
     0
176
     1
 90
       50
176
     1
 40
0.0
176
     1
 40
1.0
176
     1
 90
        0
176
     1
 62
    18
420
        0
176
     1
 90
       50
176
     1
 90
        3
176
     1
 62
     5
420
      255
176
     1
290
     0
176
     1
 90
       50
176
     1
 90
       50
176
     1
 90
       50
176
     1
290
     0
176
     1
 90
       50
176
     1
 62
   256
176
     0
 40
1.0
176
     0
 90
        2
176
     1
  1
strokes_ogs.tif
176
     1
290
     0
176
     1
 40
1.0
176
     1
 40
1.0
176
     1
  0
VISUALSTYLE
  5
9D
102
{ACAD_REACTORS
330
99
102
}
330
99
100
AcDbVisualStyle
  2
GouraudWithEdges
 70
     3
177
     3
291
     1
 70
    58
 90
        2
176
     1
 90
        2
176
     1
 90
        1
176
     1
 90
        2
176
     1
 40
-0.6
176
     1
 40
30.0
176
     1
 62
     7
420
 16777215
176
     1
 90
        1
176
     1
 90
        4
176
     1
 62
     7
176
     1
 62
   257
176
     1
 90
        1
176
     1
 90
        1
176
     1
 40
1.0
176
     1
 90
        0
176
     1
 62
   257
176
     1
 40
1.0
176
     1
 90
        1
176
     1
 90
        6
176
     1
 90
        2
176
     1
 62
     7
176
     1
 90
        5
176
     1
 90
        0
176
     1
 90
        0
176
     1
290
     0
176
     1
 90
        1
176
     1
 40
0.0
176
     1
 90
        0
176
     1
290
     0
176
     1
290
     1
176
     1
290
     1
176
     1
290
     0
176
     1
290
     0
176
     1
290
     0
176
     1
290
     0
176
     1
290
     0
176
     1
290
     0
176
     1
 90
       50
176
     1
 40
0.0
176
     1
 40
1.0
176
     1
 90
        0
176
     1
 62
    18
420
        0
176
     1
 90
       50
176
     1
 90
        3
176
     1
 62
     5
420
      255
176
     1
290
     0
176
     1
 90
       50
176
     1
 90
       50
176
     1
 90
       50
176
     1
290
     0
176
     1
 90
       50
176
     1
 62
   256
176
     0
 40
1.0
176
     0
 90
        2
176
     1
  1
strokes_ogs.tif
176
     1
290
     0
176
     1
 40
1.0
176
     1
 40
1.0
176
     1
  0
VISUALSTYLE
  5
E4
102
{ACAD_REACTORS
330
99
102
}
330
99
100
AcDbVisualStyle
  2
Hidden
 70
     6
177
     3
291
     0
 70
    58
 90
        1
176
     1
 90
        2
176
     1
 90
        2
176
     1
 90
        0
176
     1
 40
0.6
176
     1
 40
30.0
176
     1
 62
     7
420
 16777215
176
     1
 90
        2
176
     1
 90
        2
176
     1
 62
     7
176
     1
 62
   257
176
     1
 90
        2
176
     1
 90
        1
176
     1
 40
40.0
176
     1
 90
        0
176
     1
 62
   257
176
     1
 40
1.0
176
     1
 90
        1
176
     1
 90
        6
176
     1
 90
        2
176
     1
 62
     7
176
     1
 90
        3
176
     1
 90
        0
176
     1
 90
        0
176
     1
290
     0
176
     1
 90
        1
176
     1
 40
0.0
176
     1
 90
        0
176
     1
290
     0
176
     1
290
     1
176
     1
290
     1
176
     1
290
     0
176
     1
290
     0
176
     1
290
     0
176
     1
290
     0
176
     1
290
     0
176
     1
290
     0
176
     1
 90
       50
176
     1
 40
0.0
176
     1
 40
1.0
176
     1
 90
        0
176
     1
 62
    18
420
        0
176
     1
 90
       50
176
     1
 90
        3
176
     1
 62
     5
420
      255
176
     1
290
     0
176
     1
 90
       50
176
     1
 90
       50
176
     1
 90
       50
176
     1
290
     0
176
     1
 90
       50
176
     1
 62
   256
176
     0
 40
1.0
176
     0
 90
        2
176
     1
  1
strokes_ogs.tif
176
     1
290
     0
176
     1
 40
1.0
176
     1
 40
1.0
176
     1
  0
VISUALSTYLE
  5
E5
102
{ACAD_REACTORS
330
99
102
}
330
99
100
AcDbVisualStyle
  2
JitterOff
 70
    20
177
     3
291
     1
 70
    58
 90
        2
176
     0
 90
        2
176
     0
 90
        0
176
     0
 90
        0
176
     0
 40
0.6
176
     0
 40
30.0
176
     0
 62
     7
420
 16777215
176
     0
 90
        1
176
     0
 90
        4
176
     0
 62
     7
176
     0
 62
   257
176
     0
 90
        1
176
     0
 90
        1
176
     0
 40
1.0
176
     0
 90
       10
176
     2
 62
     7
176
     0
 40
1.0
176
     0
 90
        1
176
     0
 90
        6
176
     0
 90
        2
176
     0
 62
     7
176
     0
 90
        5
176
     0
 90
        0
176
     0
 90
        0
176
     0
290
     0
176
     0
 90
        1
176
     0
 40
0.0
176
     0
 90
        0
176
     0
290
     0
176
     0
290
     1
176
     0
290
     1
176
     0
290
     0
176
     0
290
     0
176
     0
290
     0
176
     0
290
     0
176
     0
290
     0
176
     0
290
     0
176
     0
 90
       50
176
     0
 40
0.0
176
     0
 40
1.0
176
     0
 90
        0
176
     0
 62
    18
420
        0
176
     0
 90
       50
176
     0
 90
        3
176
     0
 62
     5
420
      255
176
     0
290
     0
176
     0
 90
       50
176
     0
 90
       50
176
     0
 90
       50
176
     0
290
     0
176
     0
 90
       50
176
     0
 62
   256
176
     0
 40
1.0
176
     0
 90
        2
176
     0
  1
strokes_ogs.tif
176
     0
290
     0
176
     0
 40
1.0
176
     0
 40
1.0
176
     0
  0
VISUALSTYLE
  5
A7
102
{ACAD_REACTORS
330
99
102
}
330
99
100
AcDbVisualStyle
  2
Linepattern
 70
    14
177
     3
291
     1
 70
    58
 90
        2
176
     1
 90
        2
176
     1
 90
        1
176
     1
 90
        0
176
     1
 40
-0.6
176
     1
 40
-30.0
176
     1
 62
     7
420
 16777215
176
     1
 90
        1
176
     1
 90
        4
176
     1
 62
     7
176
     1
 62
   257
176
     1
 90
        7
176
     1
 90
        7
176
     1
 40
1.0
176
     1
 90
        8
176
     1
 62
     7
176
     1
 40
1.0
176
     1
 90
        1
176
     1
 90
        6
176
     1
 90
        2
176
     1
 62
     7
176
     1
 90
        5
176
     1
 90
        0
176
     1
 90
        0
176
     1
290
     0
176
     1
 90
        1
176
     1
 40
0.0
176
     1
 90
        0
176
     1
290
     0
176
     1
290
     1
176
     1
290
     1
176
     1
290
     0
176
     1
290
     0
176
     1
290
     0
176
     1
290
     0
176
     1
290
     0
176
     1
290
     0
176
     1
 90
       50
176
     1
 40
0.0
176
     1
 40
1.0
176
     1
 90
        0
176
     1
 62
    18
420
        0
176
     1
 90
       50
176
     1
 90
        3
176
     1
 62
     5
420
      255
176
     1
290
     0
176
     1
 90
       50
176
     1
 90
       50
176
     1
 90
       50
176
     1
290
     0
176
     1
 90
       50
176
     1
 62
   256
176
     0
 40
1.0
176
     0
 90
        2
176
     1
  1
strokes_ogs.tif
176
     1
290
     0
176
     1
 40
1.0
176
     1
 40
1.0
176
     1
  0
VISUALSTYLE
  5
E6
102
{ACAD_REACTORS
330
99
102
}
330
99
100
AcDbVisualStyle
  2
OverhangOff
 70
    21
177
     3
291
     1
 70
    58
 90
        2
176
     0
 90
        2
176
     0
 90
        0
176
     0
 90
        0
176
     0
 40
0.6
176
     0
 40
30.0
176
     0
 62
     7
420
 16777215
176
     0
 90
        1
176
     0
 90
        4
176
     0
 62
     7
176
     0
 62
   257
176
     0
 90
        1
176
     0
 90
        1
176
     0
 40
1.0
176
     0
 90
        9
176
     2
 62
     7
176
     0
 40
1.0
176
     0
 90
        1
176
     0
 90
        6
176
     0
 90
        2
176
     0
 62
     7
176
     0
 90
        5
176
     0
 90
        0
176
     0
 90
        0
176
     0
290
     0
176
     0
 90
        1
176
     0
 40
0.0
176
     0
 90
        0
176
     0
290
     0
176
     0
290
     1
176
     0
290
     1
176
     0
290
     0
176
     0
290
     0
176
     0
290
     0
176
     0
290
     0
176
     0
290
     0
176
     0
290
     0
176
     0
 90
       50
176
     0
 40
0.0
176
     0
 40
1.0
176
     0
 90
        0
176
     0
 62
    18
420
        0
176
     0
 90
       50
176
     0
 90
        3
176
     0
 62
     5
420
      255
176
     0
290
     0
176
     0
 90
       50
176
     0
 90
       50
176
     0
 90
       50
176
     0
290
     0
176
     0
 90
       50
176
     0
 62
   256
176
     0
 40
1.0
176
     0
 90
        2
176
     0
  1
strokes_ogs.tif
176
     0
290
     0
176
     0
 40
1.0
176
     0
 40
1.0
176
     0
  0
VISUALSTYLE
  5
A3
102
{ACAD_REACTORS
330
99
102
}
330
99
100
AcDbVisualStyle
  2
Realistic
 70
     8
177
     3
291
     0
 70
    58
 90
        2
176
     1
 90
        2
176
     1
 90
        1
176
     1
 90
        0
176
     1
 40
-0.6
176
     1
 40
-30.0
176
     1
 62
     7
420
 16777215
176
     1
 90
        1
176
     1
 90
        0
176
     1
 62
     7
176
     1
 62
   257
176
     1
 90
        1
176
     1
 90
        1
176
     1
 40
1.0
176
     1
 90
        8
176
     1
 62
     8
420
  7895160
176
     1
 40
1.0
176
     1
 90
        1
176
     1
 90
        6
176
     1
 90
        2
176
     1
 62
     7
176
     1
 90
        5
176
     1
 90
        0
176
     1
 90
        0
176
     1
290
     0
176
     1
 90
       13
176
     1
 40
0.0
176
     1
 90
        0
176
     1
290
     0
176
     1
290
     1
176
     1
290
     1
176
     1
290
     0
176
     1
290
     0
176
     1
290
     0
176
     1
290
     0
176
     1
290
     0
176
     1
290
     0
176
     1
 90
       50
176
     1
 40
0.0
176
     1
 40
1.0
176
     1
 90
        0
176
     1
 62
    18
420
        0
176
     1
 90
       50
176
     1
 90
        3
176
     1
 62
     5
420
      255
176
     1
290
     0
176
     1
 90
       50
176
     1
 90
       50
176
     1
 90
       50
176
     1
290
     0
176
     1
 90
       50
176
     1
 62
   256
176
     0
 40
1.0
176
     0
 90
        2
176
     1
  1
strokes_ogs.tif
176
     1
290
     0
176
     1
 40
1.0
176
     1
 40
1.0
176
     1
  0
VISUALSTYLE
  5
EC
102
{ACAD_REACTORS
330
99
102
}
330
99
100
AcDbVisualStyle
  2
Shaded
 70
    27
177
     3
291
     0
 70
    58
 90
        2
176
     1
 90
        2
176
     1
 90
        1
176
     1
 90
        2
176
     1
 40
0.6
176
     1
 40
30.0
176
     1
 62
     7
420
 16777215
176
     1
 90
        0
176
     1
 90
        4
176
     1
 62
     7
176
     1
 62
   257
176
     1
 90
        1
176
     1
 90
        1
176
     1
 40
1.0
176
     1
 90
        8
176
     1
 62
   257
176
     1
 40
1.0
176
     1
 90
        1
176
     1
 90
        6
176
     1
 90
        2
176
     1
 62
     8
420
  7895160
176
     1
 90
        3
176
     1
 90
        0
176
     1
 90
        0
176
     1
290
     0
176
     1
 90
        5
176
     1
 40
0.0
176
     1
 90
        0
176
     1
290
     0
176
     1
290
     1
176
     1
290
     1
176
     1
290
     0
176
     1
290
     0
176
     1
290
     0
176
     1
290
     0
176
     1
290
     0
176
     1
290
     0
176
     1
 90
       50
176
     1
 40
0.0
176
     1
 40
1.0
176
     1
 90
        0
176
     1
 62
    18
420
        0
176
     1
 90
       50
176
     1
 90
        3
176
     1
 62
     5
420
      255
176
     1
290
     0
176
     1
 90
       50
176
     1
 90
       50
176
     1
 90
       50
176
     1
290
     0
176
     1
 90
       50
176
     1
 62
   256
176
     0
 40
1.0
176
     0
 90
        2
176
     1
  1
strokes_ogs.tif
176
     1
290
     0
176
     1
 40
1.0
176
     1
 40
1.0
176
     1
  0
VISUALSTYLE
  5
EB
102
{ACAD_REACTORS
330
99
102
}
330
99
100
AcDbVisualStyle
  2
Shaded with edges
 70
    26
177
     3
291
     0
 70
    58
 90
        2
176
     1
 90
        2
176
     1
 90
        1
176
     1
 90
        2
176
     1
 40
0.6
176
     1
 40
30.0
176
     1
 62
     7
420
 16777215
176
     1
 90
        1
176
     1
 90
       10
176
     1
 62
     7
176
     1
 62
   257
176
     1
 90
        2
176
     1
 90
        1
176
     1
 40
1.0
176
     1
 90
        8
176
     1
 62
   257
176
     1
 40
1.0
176
     1
 90
        1
176
     1
 90
        6
176
     1
 90
        2
176
     1
 62
     7
176
     1
 90
        3
176
     1
 90
        0
176
     1
 90
        0
176
     1
290
     0
176
     1
 90
        5
176
     1
 40
0.0
176
     1
 90
        0
176
     1
290
     0
176
     1
290
     1
176
     1
290
     1
176
     1
290
     0
176
     1
290
     0
176
     1
290
     0
176
     1
290
     0
176
     1
290
     0
176
     1
290
     0
176
     1
 90
       50
176
     1
 40
0.0
176
     1
 40
1.0
176
     1
 90
        0
176
     1
 62
    18
420
        0
176
     1
 90
       50
176
     1
 90
        3
176
     1
 62
     5
420
      255
176
     1
290
     0
176
     1
 90
       50
176
     1
 90
       50
176
     1
 90
       50
176
     1
290
     0
176
     1
 90
       50
176
     1
 62
   256
176
     0
 40
1.0
176
     0
 90
        2
176
     1
  1
strokes_ogs.tif
176
     1
290
     0
176
     1
 40
1.0
176
     1
 40
1.0
176
     1
  0
VISUALSTYLE
  5
E8
102
{ACAD_REACTORS
330
99
102
}
330
99
100
AcDbVisualStyle
  2
Shades of Gray
 70
    23
177
     3
291
     0
 70
    58
 90
        2
176
     1
 90
        2
176
     1
 90
        3
176
     1
 90
        0
176
     1
 40
0.6
176
     1
 40
30.0
176
     1
 62
     7
420
 16777215
176
     1
 90
        2
176
     1
 90
        2
176
     1
 62
     7
176
     1
 62
     7
176
     1
 90
        1
176
     1
 90
        1
176
     1
 40
40.0
176
     1
 90
        8
176
     1
 62
     7
176
     1
 40
1.0
176
     1
 90
        1
176
     1
 90
        6
176
     1
 90
        2
176
     1
 62
     7
176
     1
 90
        3
176
     1
 90
        0
176
     1
 90
        0
176
     1
290
     0
176
     1
 90
        1
176
     1
 40
0.0
176
     1
 90
        0
176
     1
290
     0
176
     1
290
     1
176
     1
290
     1
176
     1
290
     0
176
     1
290
     0
176
     1
290
     0
176
     1
290
     0
176
     1
290
     0
176
     1
290
     0
176
     1
 90
       50
176
     1
 40
0.0
176
     1
 40
1.0
176
     1
 90
        0
176
     1
 62
    18
420
        0
176
     1
 90
       50
176
     1
 90
        3
176
     1
 62
     5
420
      255
176
     1
290
     0
176
     1
 90
       50
176
     1
 90
       50
176
     1
 90
       50
176
     1
290
     0
176
     1
 90
       50
176
     1
 62
   256
176
     0
 40
1.0
176
     0
 90
        2
176
     1
  1
strokes_ogs.tif
176
     1
290
     0
176
     1
 40
1.0
176
     1
 40
1.0
176
     1
  0
VISUALSTYLE
  5
E9
102
{ACAD_REACTORS
330
99
102
}
330
99
100
AcDbVisualStyle
  2
Sketchy
 70
    24
177
     3
291
     0
 70
    58
 90
        1
176
     1
 90
        2
176
     1
 90
        2
176
     1
 90
        0
176
     1
 40
0.6
176
     1
 40
30.0
176
     1
 62
     7
420
 16777215
176
     1
 90
        2
176
     1
 90
        2
176
     1
 62
     7
176
     1
 62
     7
176
     1
 90
        1
176
     1
 90
        1
176
     1
 40
40.0
176
     1
 90
       11
176
     1
 62
     7
176
     1
 40
1.0
176
     1
 90
        1
176
     1
 90
        6
176
     1
 90
        2
176
     1
 62
     7
176
     1
 90
        6
176
     1
 90
        0
176
     1
 90
        0
176
     1
290
     0
176
     1
 90
        1
176
     1
 40
0.0
176
     1
 90
        0
176
     1
290
     0
176
     1
290
     1
176
     1
290
     1
176
     1
290
     0
176
     1
290
     0
176
     1
290
     0
176
     1
290
     0
176
     1
290
     0
176
     1
290
     0
176
     1
 90
       50
176
     1
 40
0.0
176
     1
 40
1.0
176
     1
 90
        0
176
     1
 62
    18
420
        0
176
     1
 90
       50
176
     1
 90
        3
176
     1
 62
     5
420
      255
176
     1
290
     0
176
     1
 90
       50
176
     1
 90
       50
176
     1
 90
       50
176
     1
290
     0
176
     1
 90
       50
176
     1
 62
   256
176
     0
 40
1.0
176
     0
 90
        2
176
     1
  1
strokes_ogs.tif
176
     1
290
     0
176
     1
 40
1.0
176
     1
 40
1.0
176
     1
  0
VISUALSTYLE
  5
A6
102
{ACAD_REACTORS
330
99
102
}
330
99
100
AcDbVisualStyle
  2
Thicken
 70
    13
177
     3
291
     1
 70
    58
 90
        2
176
     1
 90
        2
176
     1
 90
        1
176
     1
 90
        0
176
     1
 40
-0.6
176
     1
 40
-30.0
176
     1
 62
     7
420
 16777215
176
     1
 90
        1
176
     1
 90
        4
176
     1
 62
     7
176
     1
 62
   257
176
     1
 90
        1
176
     1
 90
        1
176
     1
 40
1.0
176
     1
 90
       12
176
     1
 62
     7
176
     1
 40
1.0
176
     1
 90
        1
176
     1
 90
        6
176
     1
 90
        2
176
     1
 62
     7
176
     1
 90
        5
176
     1
 90
        0
176
     1
 90
        0
176
     1
290
     0
176
     1
 90
        1
176
     1
 40
0.0
176
     1
 90
        0
176
     1
290
     0
176
     1
290
     1
176
     1
290
     1
176
     1
290
     0
176
     1
290
     0
176
     1
290
     0
176
     1
290
     0
176
     1
290
     0
176
     1
290
     0
176
     1
 90
       50
176
     1
 40
0.0
176
     1
 40
1.0
176
     1
 90
        0
176
     1
 62
    18
420
        0
176
     1
 90
       50
176
     1
 90
        3
176
     1
 62
     5
420
      255
176
     1
290
     0
176
     1
 90
       50
176
     1
 90
       50
176
     1
 90
       50
176
     1
290
     0
176
     1
 90
       50
176
     1
 62
   256
176
     0
 40
1.0
176
     0
 90
        2
176
     1
  1
strokes_ogs.tif
176
     1
290
     0
176
     1
 40
1.0
176
     1
 40
1.0
176
     1
  0
VISUALSTYLE
  5
E3
102
{ACAD_REACTORS
330
99
102
}
330
99
100
AcDbVisualStyle
  2
Wireframe
 70
     5
177
     3
291
     0
 70
    58
 90
        0
176
     1
 90
        2
176
     1
 90
        0
176
     1
 90
        0
176
     1
 40
0.6
176
     1
 40
30.0
176
     1
 62
     7
420
 16777215
176
     1
 90
        1
176
     1
 90
        4
176
     1
 62
     7
176
     1
 62
   257
176
     1
 90
        1
176
     1
 90
        1
176
     1
 40
1.0
176
     1
 90
        0
176
     1
 62
   257
176
     1
 40
1.0
176
     1
 90
        1
176
     1
 90
        6
176
     1
 90
        2
176
     1
 62
     7
176
     1
 90
        3
176
     1
 90
        0
176
     1
 90
        0
176
     1
290
     0
176
     1
 90
        1
176
     1
 40
0.0
176
     1
 90
        0
176
     1
290
     0
176
     1
290
     1
176
     1
290
     1
176
     1
290
     0
176
     1
290
     0
176
     1
290
     0
176
     1
290
     0
176
     1
290
     0
176
     1
290
     0
176
     1
 90
       50
176
     1
 40
0.0
176
     1
 40
1.0
176
     1
 90
        0
176
     1
 62
    18
420
        0
176
     1
 90
       50
176
     1
 90
        3
176
     1
 62
     5
420
      255
176
     1
290
     0
176
     1
 90
       50
176
     1
 90
       50
176
     1
 90
       50
176
     1
290
     0
176
     1
 90
       50
176
     1
 62
   256
176
     0
 40
1.0
176
     0
 90
        2
176
     1
  1
strokes_ogs.tif
176
     1
290
     0
176
     1
 40
1.0
176
     1
 40
1.0
176
     1
  0
VISUALSTYLE
  5
EA
102
{ACAD_REACTORS
330
99
102
}
330
99
100
AcDbVisualStyle
  2
X-Ray
 70
    25
177
     3
291
     0
 70
    58
 90
        2
176
     1
 90
        2
176
     1
 90
        1
176
     1
 90
        1
176
     1
 40
0.5
176
     1
 40
30.0
176
     1
 62
     7
420
 16777215
176
     1
 90
        1
176
     1
 90
        0
176
     1
 62
     7
176
     1
 62
   257
176
     1
 90
        1
176
     1
 90
        1
176
     1
 40
1.0
176
     1
 90
        8
176
     1
 62
     7
176
     1
 40
1.0
176
     1
 90
        1
176
     1
 90
        6
176
     1
 90
        2
176
     1
 62
     7
176
     1
 90
        3
176
     1
 90
        0
176
     1
 90
        0
176
     1
290
     0
176
     1
 90
       13
176
     1
 40
0.0
176
     1
 90
        0
176
     1
290
     0
176
     1
290
     1
176
     1
290
     1
176
     1
290
     0
176
     1
290
     0
176
     1
290
     0
176
     1
290
     0
176
     1
290
     0
176
     1
290
     0
176
     1
 90
       50
176
     1
 40
0.0
176
     1
 40
1.0
176
     1
 90
        0
176
     1
 62
    18
420
        0
176
     1
 90
       50
176
     1
 90
        3
176
     1
 62
     5
420
      255
176
     1
290
     0
176
     1
 90
       50
176
     1
 90
       50
176
     1
 90
       50
176
     1
290
     0
176
     1
 90
       50
176
     1
 62
   256
176
     0
 40
1.0
176
     0
 90
        2
176
     1
  1
strokes_ogs.tif
176
     1
290
     0
176
     1
 40
1.0
176
     1
 40
1.0
176
     1
  0
DICTIONARYVAR
  5
D8
102
{ACAD_REACTORS
330
66
102
}
330
66
100
DictionaryVariables
280
     0
  1
1:1
  0
DICTIONARYVAR
  5
89
102
{ACAD_REACTORS
330
66
102
}
330
66
100
DictionaryVariables
280
     0
  1
Standard
  0
DICTIONARYVAR
  5
67
102
{ACAD_REACTORS
330
66
102
}
330
66
100
DictionaryVariables
280
     0
  1
2
  0
DICTIONARYVAR
  5
6B
102
{ACAD_REACTORS
330
66
102
}
330
66
100
DictionaryVariables
280
     0
  1
1
  0
DICTIONARYVAR
  5
DF
102
{ACAD_REACTORS
330
66
102
}
330
66
100
DictionaryVariables
280
     0
  1
0
  0
DICTIONARYVAR
  5
E0
102
{ACAD_REACTORS
330
66
102
}
330
66
100
DictionaryVariables
280
     0
  1
0
  0
DICTIONARY
  5
7E8
330
87
100
AcDbDictionary
280
     1
281
     1
  3
ACAD_ROUNDTRIP_2008_TABLESTYLE_CELLSTYLEMAP
360
7E9
  0
CELLSTYLEMAP
  5
7E9
102
{ACAD_REACTORS
330
7E8
102
}
330
7E8
100
AcDbCellStyleMap
 90
        3
300
CELLSTYLE
  1
TABLEFORMAT_BEGIN
 90
        5
170
     1
 91
        0
 92
    32768
 62
   257
 93
        1
300
CONTENTFORMAT
  1
CONTENTFORMAT_BEGIN
 90
        0
 91
        0
 92
      512
 93
        0
300

 40
0.0
140
1.0
 94
        5
 62
     0
340
11
144
0.25
309
CONTENTFORMAT_END
171
     0
 94
        6
 95
        1
302
GRIDFORMAT
  1
GRIDFORMAT_BEGIN
 90
        0
 91
        1
 62
     0
 92
       -2
340
0
 93
        0
 40
0.045
309
GRIDFORMAT_END
 95
        2
302
GRIDFORMAT
  1
GRIDFORMAT_BEGIN
 90
        0
 91
        1
 62
     0
 92
       -2
340
0
 93
        0
 40
0.045
309
GRIDFORMAT_END
 95
        4
302
GRIDFORMAT
  1
GRIDFORMAT_BEGIN
 90
        0
 91
        1
 62
     0
 92
       -2
340
0
 93
        0
 40
0.045
309
GRIDFORMAT_END
 95
        8
302
GRIDFORMAT
  1
GRIDFORMAT_BEGIN
 90
        0
 91
        1
 62
     0
 92
       -2
340
0
 93
        0
 40
0.045
309
GRIDFORMAT_END
 95
       16
302
GRIDFORMAT
  1
GRIDFORMAT_BEGIN
 90
        0
 91
        1
 62
     0
 92
       -2
340
0
 93
        0
 40
0.045
309
GRIDFORMAT_END
 95
       32
302
GRIDFORMAT
  1
GRIDFORMAT_BEGIN
 90
        0
 91
        1
 62
     0
 92
       -2
340
0
 93
        0
 40
0.045
309
GRIDFORMAT_END
309
TABLEFORMAT_END
  1
CELLSTYLE_BEGIN
 90
        1
 91
        1
300
_TITLE
309
CELLSTYLE_END
300
CELLSTYLE
  1
TABLEFORMAT_BEGIN
 90
        5
170
     1
 91
        0
 92
        0
 62
   257
 93
        1
300
CONTENTFORMAT
  1
CONTENTFORMAT_BEGIN
 90
        0
 91
        0
 92
      512
 93
        0
300

 40
0.0
140
1.0
 94
        5
 62
     0
340
11
144
0.18
309
CONTENTFORMAT_END
171
     0
 94
        6
 95
        1
302
GRIDFORMAT
  1
GRIDFORMAT_BEGIN
 90
        0
 91
        1
 62
     0
 92
       -2
340
0
 93
        0
 40
0.045
309
GRIDFORMAT_END
 95
        2
302
GRIDFORMAT
  1
GRIDFORMAT_BEGIN
 90
        0
 91
        1
 62
     0
 92
       -2
340
0
 93
        0
 40
0.045
309
GRIDFORMAT_END
 95
        4
302
GRIDFORMAT
  1
GRIDFORMAT_BEGIN
 90
        0
 91
        1
 62
     0
 92
       -2
340
0
 93
        0
 40
0.045
309
GRIDFORMAT_END
 95
        8
302
GRIDFORMAT
  1
GRIDFORMAT_BEGIN
 90
        0
 91
        1
 62
     0
 92
       -2
340
0
 93
        0
 40
0.045
309
GRIDFORMAT_END
 95
       16
302
GRIDFORMAT
  1
GRIDFORMAT_BEGIN
 90
        0
 91
        1
 62
     0
 92
       -2
340
0
 93
        0
 40
0.045
309
GRIDFORMAT_END
 95
       32
302
GRIDFORMAT
  1
GRIDFORMAT_BEGIN
 90
        0
 91
        1
 62
     0
 92
       -2
340
0
 93
        0
 40
0.045
309
GRIDFORMAT_END
309
TABLEFORMAT_END
  1
CELLSTYLE_BEGIN
 90
        2
 91
        1
300
_HEADER
309
CELLSTYLE_END
300
CELLSTYLE
  1
TABLEFORMAT_BEGIN
 90
        5
170
     1
 91
        0
 92
        0
 62
   257
 93
        1
300
CONTENTFORMAT
  1
CONTENTFORMAT_BEGIN
 90
        0
 91
        0
 92
      512
 93
        0
300

 40
0.0
140
1.0
 94
        2
 62
     0
340
11
144
0.18
309
CONTENTFORMAT_END
171
     0
 94
        6
 95
        1
302
GRIDFORMAT
  1
GRIDFORMAT_BEGIN
 90
        0
 91
        1
 62
     0
 92
       -2
340
0
 93
        0
 40
0.045
309
GRIDFORMAT_END
 95
        2
302
GRIDFORMAT
  1
GRIDFORMAT_BEGIN
 90
        0
 91
        1
 62
     0
 92
       -2
340
0
 93
        0
 40
0.045
309
GRIDFORMAT_END
 95
        4
302
GRIDFORMAT
  1
GRIDFORMAT_BEGIN
 90
        0
 91
        1
 62
     0
 92
       -2
340
0
 93
        0
 40
0.045
309
GRIDFORMAT_END
 95
        8
302
GRIDFORMAT
  1
GRIDFORMAT_BEGIN
 90
        0
 91
        1
 62
     0
 92
       -2
340
0
 93
        0
 40
0.045
309
GRIDFORMAT_END
 95
       16
302
GRIDFORMAT
  1
GRIDFORMAT_BEGIN
 90
        0
 91
        1
 62
     0
 92
       -2
340
0
 93
        0
 40
0.045
309
GRIDFORMAT_END
 95
       32
302
GRIDFORMAT
  1
GRIDFORMAT_BEGIN
 90
        0
 91
        1
 62
     0
 92
       -2
340
0
 93
        0
 40
0.045
309
GRIDFORMAT_END
309
TABLEFORMAT_END
  1
CELLSTYLE_BEGIN
 90
        3
 91
        2
300
_DATA
309
CELLSTYLE_END
  0
ENDSEC
  0
EOF
