  0
SECTION
  2
HEADER
  9
$ACADVER
  1
AC1027
  9
$ACADMAINTVER
 70
     8
  9
$DWGCODEPAGE
  3
ANSI_932
  9
$REQUIREDVERSIONS
160
                 0
  9
$LASTSAVEDBY
  1
Yasu
  9
$INSBASE
 10
0.0
 20
0.0
 30
0.0
  9
$EXTMIN
 10
67.36736815026826
 20
59.38045002622956
 30
0.0
  9
$EXTMAX
 10
177.5601136420771
 20
196.9279016005944
 30
0.0
  9
$LIMMIN
 10
0.0
 20
0.0
  9
$LIMMAX
 10
420.0
 20
297.0
  9
$ORTHOMODE
 70
     0
  9
$REGENMODE
 70
     1
  9
$FILLMODE
 70
     1
  9
$QTEXTMODE
 70
     0
  9
$MIRRTEXT
 70
     0
  9
$LTSCALE
 40
0.2
  9
$ATTMODE
 70
     1
  9
$TEXTSIZE
 40
3.0
  9
$TRACEWID
 40
1.0
  9
$TEXTSTYLE
  7
Standard
  9
$CLAYER
  8
実線
  9
$CELTYPE
  6
ByLayer
  9
$CECOLOR
 62
   256
  9
$CELTSCALE
 40
1.0
  9
$DISPSILH
 70
     0
  9
$DIMSCALE
 40
1.0
  9
$DIMASZ
 40
2.5
  9
$DIMEXO
 40
0.625
  9
$DIMDLI
 40
3.75
  9
$DIMRND
 40
0.0
  9
$DIMDLE
 40
0.0
  9
$DIMEXE
 40
1.25
  9
$DIMTP
 40
0.0
  9
$DIMTM
 40
0.0
  9
$DIMTXT
 40
2.5
  9
$DIMCEN
 40
2.5
  9
$DIMTSZ
 40
0.0
  9
$DIMTOL
 70
     0
  9
$DIMLIM
 70
     0
  9
$DIMTIH
 70
     0
  9
$DIMTOH
 70
     0
  9
$DIMSE1
 70
     0
  9
$DIMSE2
 70
     0
  9
$DIMTAD
 70
     1
  9
$DIMZIN
 70
     8
  9
$DIMBLK
  1

  9
$DIMASO
 70
     1
  9
$DIMSHO
 70
     1
  9
$DIMPOST
  1

  9
$DIMAPOST
  1

  9
$DIMALT
 70
     0
  9
$DIMALTD
 70
     3
  9
$DIMALTF
 40
0.03937007874016
  9
$DIMLFAC
 40
1.0
  9
$DIMTOFL
 70
     1
  9
$DIMTVP
 40
0.0
  9
$DIMTIX
 70
     0
  9
$DIMSOXD
 70
     0
  9
$DIMSAH
 70
     0
  9
$DIMBLK1
  1

  9
$DIMBLK2
  1

  9
$DIMSTYLE
  2
ISO-25
  9
$DIMCLRD
 70
     0
  9
$DIMCLRE
 70
     0
  9
$DIMCLRT
 70
     0
  9
$DIMTFAC
 40
1.0
  9
$DIMGAP
 40
0.625
  9
$DIMJUST
 70
     0
  9
$DIMSD1
 70
     0
  9
$DIMSD2
 70
     0
  9
$DIMTOLJ
 70
     0
  9
$DIMTZIN
 70
     8
  9
$DIMALTZ
 70
     0
  9
$DIMALTTZ
 70
     0
  9
$DIMUPT
 70
     0
  9
$DIMDEC
 70
     2
  9
$DIMTDEC
 70
     2
  9
$DIMALTU
 70
     2
  9
$DIMALTTD
 70
     3
  9
$DIMTXSTY
  7
Standard
  9
$DIMAUNIT
 70
     0
  9
$DIMADEC
 70
     0
  9
$DIMALTRND
 40
0.0
  9
$DIMAZIN
 70
     0
  9
$DIMDSEP
 70
    46
  9
$DIMATFIT
 70
     3
  9
$DIMFRAC
 70
     0
  9
$DIMLDRBLK
  1

  9
$DIMLUNIT
 70
     2
  9
$DIMLWD
 70
    -2
  9
$DIMLWE
 70
    -2
  9
$DIMTMOVE
 70
     0
  9
$DIMFXL
 40
1.0
  9
$DIMFXLON
 70
     0
  9
$DIMJOGANG
 40
0.7853981633974483
  9
$DIMTFILL
 70
     0
  9
$DIMTFILLCLR
 70
     0
  9
$DIMARCSYM
 70
     0
  9
$DIMLTYPE
  6

  9
$DIMLTEX1
  6

  9
$DIMLTEX2
  6

  9
$DIMTXTDIRECTION
 70
     0
  9
$LUNITS
 70
     2
  9
$LUPREC
 70
     4
  9
$SKETCHINC
 40
1.0
  9
$FILLETRAD
 40
3.0
  9
$AUNITS
 70
     0
  9
$AUPREC
 70
     0
  9
$MENU
  1
.
  9
$ELEVATION
 40
0.0
  9
$PELEVATION
 40
0.0
  9
$THICKNESS
 40
0.0
  9
$LIMCHECK
 70
     0
  9
$CHAMFERA
 40
1.0
  9
$CHAMFERB
 40
1.0
  9
$CHAMFERC
 40
0.0
  9
$CHAMFERD
 40
0.0
  9
$SKPOLY
 70
     0
  9
$TDCREATE
 40
2452936.788310359
  9
$TDUCREATE
 40
2452936.413310359
  9
$TDUPDATE
 40
2456739.717489711
  9
$TDUUPDATE
 40
2456739.342489711
  9
$TDINDWG
 40
0.5835581597
  9
$TDUSRTIMER
 40
2456739.34228125
  9
$USRTIMER
 70
     1
  9
$ANGBASE
 50
0.0
  9
$ANGDIR
 70
     0
  9
$PDMODE
 70
     0
  9
$PDSIZE
 40
0.0
  9
$PLINEWID
 40
0.0
  9
$SPLFRAME
 70
     0
  9
$SPLINETYPE
 70
     6
  9
$SPLINESEGS
 70
     8
  9
$HANDSEED
  5
EE5
  9
$SURFTAB1
 70
     6
  9
$SURFTAB2
 70
     6
  9
$SURFTYPE
 70
     6
  9
$SURFU
 70
     6
  9
$SURFV
 70
     6
  9
$UCSBASE
  2

  9
$UCSNAME
  2

  9
$UCSORG
 10
0.0
 20
0.0
 30
0.0
  9
$UCSXDIR
 10
1.0
 20
0.0
 30
0.0
  9
$UCSYDIR
 10
0.0
 20
1.0
 30
0.0
  9
$UCSORTHOREF
  2

  9
$UCSORTHOVIEW
 70
     0
  9
$UCSORGTOP
 10
0.0
 20
0.0
 30
0.0
  9
$UCSORGBOTTOM
 10
0.0
 20
0.0
 30
0.0
  9
$UCSORGLEFT
 10
0.0
 20
0.0
 30
0.0
  9
$UCSORGRIGHT
 10
0.0
 20
0.0
 30
0.0
  9
$UCSORGFRONT
 10
0.0
 20
0.0
 30
0.0
  9
$UCSORGBACK
 10
0.0
 20
0.0
 30
0.0
  9
$PUCSBASE
  2

  9
$PUCSNAME
  2

  9
$PUCSORG
 10
0.0
 20
0.0
 30
0.0
  9
$PUCSXDIR
 10
1.0
 20
0.0
 30
0.0
  9
$PUCSYDIR
 10
0.0
 20
1.0
 30
0.0
  9
$PUCSORTHOREF
  2

  9
$PUCSORTHOVIEW
 70
     0
  9
$PUCSORGTOP
 10
0.0
 20
0.0
 30
0.0
  9
$PUCSORGBOTTOM
 10
0.0
 20
0.0
 30
0.0
  9
$PUCSORGLEFT
 10
0.0
 20
0.0
 30
0.0
  9
$PUCSORGRIGHT
 10
0.0
 20
0.0
 30
0.0
  9
$PUCSORGFRONT
 10
0.0
 20
0.0
 30
0.0
  9
$PUCSORGBACK
 10
0.0
 20
0.0
 30
0.0
  9
$USERI1
 70
     0
  9
$USERI2
 70
     0
  9
$USERI3
 70
     0
  9
$USERI4
 70
     0
  9
$USERI5
 70
     0
  9
$USERR1
 40
0.0
  9
$USERR2
 40
0.0
  9
$USERR3
 40
0.0
  9
$USERR4
 40
0.0
  9
$USERR5
 40
0.0
  9
$WORLDVIEW
 70
     1
  9
$SHADEDGE
 70
     3
  9
$SHADEDIF
 70
    70
  9
$TILEMODE
 70
     1
  9
$MAXACTVP
 70
    64
  9
$PINSBASE
 10
0.0
 20
0.0
 30
0.0
  9
$PLIMCHECK
 70
     0
  9
$PEXTMIN
 10
1.000000000000000E+20
 20
1.000000000000000E+20
 30
1.000000000000000E+20
  9
$PEXTMAX
 10
-1.000000000000000E+20
 20
-1.000000000000000E+20
 30
-1.000000000000000E+20
  9
$PLIMMIN
 10
0.0
 20
0.0
  9
$PLIMMAX
 10
0.0
 20
0.0
  9
$UNITMODE
 70
     0
  9
$VISRETAIN
 70
     1
  9
$PLINEGEN
 70
     0
  9
$PSLTSCALE
 70
     0
  9
$TREEDEPTH
 70
  3020
  9
$CMLSTYLE
  2
Standard
  9
$CMLJUST
 70
     0
  9
$CMLSCALE
 40
20.0
  9
$PROXYGRAPHICS
 70
     1
  9
$MEASUREMENT
 70
     1
  9
$CELWEIGHT
370
    20
  9
$ENDCAPS
280
     0
  9
$JOINSTYLE
280
     0
  9
$LWDISPLAY
290
     0
  9
$INSUNITS
 70
     4
  9
$HYPERLINKBASE
  1

  9
$STYLESHEET
  1

  9
$XEDIT
290
     1
  9
$CEPSNTYPE
380
     0
  9
$PSTYLEMODE
290
     1
  9
$FINGERPRINTGUID
  2
{86E58535-AB5B-4AFE-AB1B-6758AAB7EA7D}
  9
$VERSIONGUID
  2
{9626F2D6-A9E7-41C2-93D3-3B4373617307}
  9
$EXTNAMES
290
     1
  9
$PSVPSCALE
 40
0.0
  9
$OLESTARTUP
290
     0
  9
$SORTENTS
280
   127
  9
$INDEXCTL
280
     0
  9
$HIDETEXT
280
     1
  9
$XCLIPFRAME
280
     0
  9
$HALOGAP
280
     0
  9
$OBSCOLOR
 70
   257
  9
$OBSLTYPE
280
     0
  9
$INTERSECTIONDISPLAY
280
     0
  9
$INTERSECTIONCOLOR
 70
   257
  9
$DIMASSOC
280
     2
  9
$PROJECTNAME
  1

  9
$CAMERADISPLAY
290
     0
  9
$LENSLENGTH
 40
50.0
  9
$CAMERAHEIGHT
 40
0.0
  9
$STEPSPERSEC
 40
2.0
  9
$STEPSIZE
 40
6.0
  9
$3DDWFPREC
 40
2.0
  9
$PSOLWIDTH
 40
0.25
  9
$PSOLHEIGHT
 40
4.0
  9
$LOFTANG1
 40
1.570796326794897
  9
$LOFTANG2
 40
1.570796326794897
  9
$LOFTMAG1
 40
0.0
  9
$LOFTMAG2
 40
0.0
  9
$LOFTPARAM
 70
     7
  9
$LOFTNORMALS
280
     1
  9
$LATITUDE
 40
37.795
  9
$LONGITUDE
 40
-122.394
  9
$NORTHDIRECTION
 40
0.0
  9
$TIMEZONE
 70
 -8000
  9
$LIGHTGLYPHDISPLAY
280
     1
  9
$TILEMODELIGHTSYNCH
280
     1
  9
$SOLIDHIST
280
     1
  9
$SHOWHIST
280
     1
  9
$DWFFRAME
280
     2
  9
$DGNFRAME
280
     2
  9
$REALWORLDSCALE
290
     1
  9
$INTERFERECOLOR
 62
   256
  9
$CSHADOW
280
     0
  9
$SHADOWPLANELOCATION
 40
0.0
  0
ENDSEC
  0
SECTION
  2
CLASSES
  0
CLASS
  1
ACDBDICTIONARYWDFLT
  2
AcDbDictionaryWithDefault
  3
ObjectDBX Classes
 90
        0
 91
        7
280
     0
281
     0
  0
CLASS
  1
DIMASSOC
  2
AcDbDimAssoc
  3
"AcDbDimAssoc|Product Desc:     AcDim ARX App For Dimension|Company:          Autodesk, Inc.|WEB Address:      www.autodesk.com"
 90
        0
 91
        5
280
     0
281
     0
  0
CLASS
  1
VISUALSTYLE
  2
AcDbVisualStyle
  3
ObjectDBX Classes
 90
     4095
 91
        7
280
     0
281
     0
  0
CLASS
  1
SCALE
  2
AcDbScale
  3
ObjectDBX Classes
 90
     1153
 91
        7
280
     0
281
     0
  0
CLASS
  1
MATERIAL
  2
AcDbMaterial
  3
ObjectDBX Classes
 90
     1153
 91
        7
280
     0
281
     0
  0
CLASS
  1
TABLESTYLE
  2
AcDbTableStyle
  3
ObjectDBX Classes
 90
     4095
 91
        7
280
     0
281
     0
  0
CLASS
  1
SUN
  2
AcDbSun
  3
SCENEOE
 90
     1153
 91
        7
280
     0
281
     0
  0
CLASS
  1
RASTERVARIABLES
  2
AcDbRasterVariables
  3
ISM
 90
        0
 91
        7
280
     0
281
     0
  0
CLASS
  1
DICTIONARYVAR
  2
AcDbDictionaryVar
  3
ObjectDBX Classes
 90
        0
 91
        5
280
     0
281
     0
  0
CLASS
  1
CELLSTYLEMAP
  2
AcDbCellStyleMap
  3
ObjectDBX Classes
 90
     1152
 91
        5
280
     0
281
     0
  0
ENDSEC
  0
SECTION
  2
TABLES
  0
TABLE
  2
VPORT
  5
8
330
0
100
AcDbSymbolTable
 70
     1
  0
VPORT
  5
E3A
330
8
100
AcDbSymbolTableRecord
100
AcDbViewportTableRecord
  2
*Active
 70
     0
 10
0.0
 20
0.0
 11
1.0
 21
1.0
 12
122.4637408961727
 22
128.154175813412
 13
0.0
 23
0.0
 14
10.0
 24
10.0
 15
10.0
 25
10.0
 16
0.0
 26
0.0
 36
1.0
 17
0.0
 27
0.0
 37
0.0
 40
140.2984006058521
 41
1.762376237623762
 42
50.0
 43
0.0
 44
0.0
 50
0.0
 51
0.0
 71
    16
 72
  1000
 73
     1
 74
     3
 75
     0
 76
     0
 77
     0
 78
     0
281
     0
 65
     1
110
0.0
120
0.0
130
0.0
111
1.0
121
0.0
131
0.0
112
0.0
122
1.0
132
0.0
 79
     0
146
0.0
348
E40
 60
     3
 61
     5
292
     1
282
     1
141
0.0
142
0.0
 63
   256
361
E7C
  0
ENDTAB
  0
TABLE
  2
LTYPE
  5
5
330
0
100
AcDbSymbolTable
 70
     6
  0
LTYPE
  5
14
330
5
100
AcDbSymbolTableRecord
100
AcDbLinetypeTableRecord
  2
ByBlock
 70
     0
  3

 72
    65
 73
     0
 40
0.0
  0
LTYPE
  5
15
330
5
100
AcDbSymbolTableRecord
100
AcDbLinetypeTableRecord
  2
ByLayer
 70
     0
  3

 72
    65
 73
     0
 40
0.0
  0
LTYPE
  5
16
330
5
100
AcDbSymbolTableRecord
100
AcDbLinetypeTableRecord
  2
Continuous
 70
     0
  3
Solid line
 72
    65
 73
     0
 40
0.0
  0
LTYPE
  5
35
330
5
100
AcDbSymbolTableRecord
100
AcDbLinetypeTableRecord
  2
ACAD_ISO08W100
 70
     0
  3
ISO long-dash short-dash ____ __ ____ __ ____ _
 72
    65
 73
     4
 40
36.0
 49
24.0
 74
     0
 49
-3.0
 74
     0
 49
6.0
 74
     0
 49
-3.0
 74
     0
  0
LTYPE
  5
127
330
5
100
AcDbSymbolTableRecord
100
AcDbLinetypeTableRecord
  2
HIDDENX2
 70
     0
  3
Hidden (2x) ____ ____ ____ ____ ____ ____ ____
 72
    65
 73
     2
 40
19.05
 49
12.7
 74
     0
 49
-6.35
 74
     0
  0
LTYPE
  5
5EC
330
5
100
AcDbSymbolTableRecord
100
AcDbLinetypeTableRecord
  2
CENTER
 70
     0
  3
Center ____ _ ____ _ ____ _ ____ _ ____ _ ____
 72
    65
 73
     4
 40
50.8
 49
31.75
 74
     0
 49
-6.35
 74
     0
 49
6.35
 74
     0
 49
-6.35
 74
     0
  0
LTYPE
  5
5ED
330
5
100
AcDbSymbolTableRecord
100
AcDbLinetypeTableRecord
  2
ACAD_ISO02W100
 70
     0
  3
ISO dash __ __ __ __ __ __ __ __ __ __ __ __ __
 72
    65
 73
     2
 40
15.0
 49
12.0
 74
     0
 49
-3.0
 74
     0
  0
LTYPE
  5
605
330
5
100
AcDbSymbolTableRecord
100
AcDbLinetypeTableRecord
  2
DASHED
 70
     0
  3
Dashed __ __ __ __ __ __ __ __ __ __ __ __ __ _
 72
    65
 73
     2
 40
19.05
 49
12.7
 74
     0
 49
-6.35
 74
     0
  0
ENDTAB
  0
TABLE
  2
LAYER
  5
2
330
0
100
AcDbSymbolTable
 70
     9
  0
LAYER
  5
10
330
2
100
AcDbSymbolTableRecord
100
AcDbLayerTableRecord
  2
0
 70
     0
 62
     7
  6
Continuous
370
    -3
390
F
347
E78
348
0
  0
LAYER
  5
2E
330
2
100
AcDbSymbolTableRecord
100
AcDbLayerTableRecord
  2
枠
 70
     0
 62
     1
  6
Continuous
370
    30
390
F
347
E78
348
0
  0
LAYER
  5
2F
330
2
100
AcDbSymbolTableRecord
100
AcDbLayerTableRecord
  2
文字
 70
     0
 62
     7
  6
Continuous
370
    30
390
F
347
E78
348
0
  0
LAYER
  5
36
330
2
100
AcDbSymbolTableRecord
100
AcDbLayerTableRecord
  2
中心線
 70
     0
 62
     7
  6
CENTER
370
    30
390
F
347
E78
348
0
  0
LAYER
  5
52
330
2
100
AcDbSymbolTableRecord
100
AcDbLayerTableRecord
  2
隠れ線
 70
     0
 62
     2
  6
Continuous
290
     0
370
    -3
390
F
347
E78
348
0
  0
LAYER
  5
128
330
2
100
AcDbSymbolTableRecord
100
AcDbLayerTableRecord
  2
実線
 70
     0
 62
     7
  6
Continuous
370
    50
390
F
347
E78
348
0
  0
LAYER
  5
129
330
2
100
AcDbSymbolTableRecord
100
AcDbLayerTableRecord
  2
破線
 70
     0
 62
     7
  6
DASHED
370
    20
390
F
347
E78
348
0
  0
LAYER
  5
693
330
2
100
AcDbSymbolTableRecord
100
AcDbLayerTableRecord
  2
Defpoints
 70
     0
 62
     7
  6
Continuous
290
     0
370
    -3
390
F
347
E78
348
0
  0
LAYER
  5
E8E
330
2
100
AcDbSymbolTableRecord
100
AcDbLayerTableRecord
  2
文字・寸法線
 70
     0
 62
     7
  6
Continuous
370
    13
390
F
347
E78
348
0
  0
ENDTAB
  0
TABLE
  2
STYLE
  5
3
330
0
100
AcDbSymbolTable
 70
     2
  0
STYLE
  5
11
330
3
100
AcDbSymbolTableRecord
100
AcDbTextStyleTableRecord
  2
Standard
 70
     0
 40
0.0
 41
1.0
 50
0.0
 71
     0
 42
3.0
  3
txt.shx
  4
bigfont.shx
  0
STYLE
  5
34
330
3
100
AcDbSymbolTableRecord
100
AcDbTextStyleTableRecord
  2

 70
     1
 40
0.0
 41
1.0
 50
0.0
 71
     0
 42
2.5
  3
ltypeshp.shx
  4

  0
ENDTAB
  0
TABLE
  2
VIEW
  5
6
330
0
100
AcDbSymbolTable
 70
     0
  0
ENDTAB
  0
TABLE
  2
UCS
  5
7
330
0
100
AcDbSymbolTable
 70
     0
  0
ENDTAB
  0
TABLE
  2
APPID
  5
9
330
0
100
AcDbSymbolTable
 70
     1
  0
APPID
  5
12
330
9
100
AcDbSymbolTableRecord
100
AcDbRegAppTableRecord
  2
ACAD
 70
     0
  0
ENDTAB
  0
TABLE
  2
DIMSTYLE
  5
A
330
0
100
AcDbSymbolTable
 70
     2
100
AcDbDimStyleTable
  0
DIMSTYLE
105
29
102
{ACAD_REACTORS
330
A3B
330
A45
330
A4A
330
A55
330
A58
330
CE6
330
D2F
330
E11
102
}
330
A
100
AcDbSymbolTableRecord
100
AcDbDimStyleTableRecord
  2
ISO-25
 70
     0
 41
2.5
 42
0.625
 43
3.75
 44
1.25
 73
     0
 74
     0
 77
     1
 78
     8
140
2.5
141
2.5
143
0.03937007874016
147
0.625
171
     3
172
     1
178
     0
271
     2
272
     2
274
     3
283
     0
284
     8
340
11
  0
DIMSTYLE
105
E90
330
A
100
AcDbSymbolTableRecord
100
AcDbDimStyleTableRecord
  2
Standard
 70
     0
178
     0
340
11
  0
ENDTAB
  0
TABLE
  2
BLOCK_RECORD
  5
1
330
0
100
AcDbSymbolTable
 70
     9
  0
BLOCK_RECORD
  5
21
330
1
100
AcDbSymbolTableRecord
100
AcDbBlockTableRecord
  2
*Model_Space
340
24
 70
     0
280
     1
281
     0
  0
BLOCK_RECORD
  5
E7E
330
1
100
AcDbSymbolTableRecord
100
AcDbBlockTableRecord
  2
*Paper_Space
340
E7F
 70
     0
280
     1
281
     0
  0
BLOCK_RECORD
  5
A7B
330
1
100
AcDbSymbolTableRecord
100
AcDbBlockTableRecord
  2
*D0
340
0
 70
     0
280
     1
281
     0
  0
BLOCK_RECORD
  5
A96
330
1
100
AcDbSymbolTableRecord
100
AcDbBlockTableRecord
  2
*D1
340
0
 70
     0
280
     1
281
     0
  0
BLOCK_RECORD
  5
AA4
330
1
100
AcDbSymbolTableRecord
100
AcDbBlockTableRecord
  2
*D2
340
0
 70
     0
280
     1
281
     0
  0
BLOCK_RECORD
  5
ABE
330
1
100
AcDbSymbolTableRecord
100
AcDbBlockTableRecord
  2
*D3
340
0
 70
     0
280
     1
281
     0
  0
BLOCK_RECORD
  5
ACB
330
1
100
AcDbSymbolTableRecord
100
AcDbBlockTableRecord
  2
*D4
340
0
 70
     0
280
     1
281
     0
  0
BLOCK_RECORD
  5
CE7
330
1
100
AcDbSymbolTableRecord
100
AcDbBlockTableRecord
  2
*D5
340
0
 70
     0
280
     1
281
     0
  0
BLOCK_RECORD
  5
D30
330
1
100
AcDbSymbolTableRecord
100
AcDbBlockTableRecord
  2
*D6
340
0
 70
     0
280
     1
281
     0
  0
BLOCK_RECORD
  5
E12
330
1
100
AcDbSymbolTableRecord
100
AcDbBlockTableRecord
  2
*D7
340
0
 70
     0
280
     1
281
     0
  0
ENDTAB
  0
ENDSEC
  0
SECTION
  2
BLOCKS
  0
BLOCK
  5
22
330
21
100
AcDbEntity
  8
0
100
AcDbBlockBegin
  2
*Model_Space
 70
     0
 10
0.0
 20
0.0
 30
0.0
  3
*Model_Space
  1
*Model_Space
  0
ENDBLK
  5
23
330
21
100
AcDbEntity
  8
0
100
AcDbBlockEnd
  0
BLOCK
  5
E80
330
E7E
100
AcDbEntity
 67
     1
  8
0
100
AcDbBlockBegin
  2
*Paper_Space
 70
     0
 10
0.0
 20
0.0
 30
0.0
  3
*Paper_Space
  1
*Paper_Space
  0
ENDBLK
  5
E81
330
E7E
100
AcDbEntity
 67
     1
  8
0
100
AcDbBlockEnd
  0
BLOCK
  5
A86
330
A7B
100
AcDbEntity
  8
0
100
AcDbBlockBegin
  2
*D0
 70
     1
 10
0.0
 20
0.0
 30
0.0
  3
*D0
  1
*D1
  0
LINE
  5
D9E
330
A7B
100
AcDbEntity
  8
文字
 62
     0
370
    -2
100
AcDbLine
 10
154.1586125041536
 20
106.6342559891186
 30
0.0
 11
154.1586125041536
 21
79.51933936464168
 31
0.0
  0
LINE
  5
D9F
330
A7B
100
AcDbEntity
  8
文字
 62
     0
370
    -2
100
AcDbLine
 10
162.1260462189705
 20
106.6342559891186
 30
0.0
 11
162.1260462189705
 21
79.51933936464168
 31
0.0
  0
LINE
  5
DA0
330
A7B
100
AcDbEntity
  8
文字
 62
     0
370
    -2
100
AcDbLine
 10
156.6586125041536
 20
80.76933936464168
 30
0.0
 11
159.6260462189705
 21
80.76933936464168
 31
0.0
  0
SOLID
  5
DA1
330
A7B
100
AcDbEntity
  8
文字
 62
     0
100
AcDbTrace
 10
156.6586125041536
 20
81.18600603130835
 30
0.0
 11
156.6586125041536
 21
80.35267269797501
 31
0.0
 12
154.1586125041536
 22
80.76933936464168
 32
0.0
 13
154.1586125041536
 23
80.76933936464168
 33
0.0
  0
SOLID
  5
DA2
330
A7B
100
AcDbEntity
  8
文字
 62
     0
100
AcDbTrace
 10
159.6260462189705
 20
80.35267269797501
 30
0.0
 11
159.6260462189705
 21
81.18600603130835
 31
0.0
 12
162.1260462189705
 22
80.76933936464168
 32
0.0
 13
162.1260462189705
 23
80.76933936464168
 33
0.0
  0
MTEXT
  5
DA3
330
A7B
100
AcDbEntity
  8
文字
 62
     0
100
AcDbMText
 10
158.142329361562
 20
82.64433936464168
 30
0.0
 40
2.5
 41
0.0
 46
0.0
 71
     5
 72
     1
  1
8
 73
     1
 44
1.0
  0
POINT
  5
DA4
330
A7B
100
AcDbEntity
  8
Defpoints
 62
     0
100
AcDbPoint
 10
154.1586125041536
 20
107.2592559891186
 30
0.0
  0
POINT
  5
DA5
330
A7B
100
AcDbEntity
  8
Defpoints
 62
     0
100
AcDbPoint
 10
162.1260462189705
 20
107.2592559891186
 30
0.0
  0
POINT
  5
DA6
330
A7B
100
AcDbEntity
  8
Defpoints
 62
     0
100
AcDbPoint
 10
162.1260462189705
 20
80.76933936464168
 30
0.0
  0
ENDBLK
  5
A87
330
A7B
100
AcDbEntity
  8
0
100
AcDbBlockEnd
  0
BLOCK
  5
AA2
330
A96
100
AcDbEntity
  8
0
100
AcDbBlockBegin
  2
*D1
 70
     1
 10
0.0
 20
0.0
 30
0.0
  3
*D1
  1
*D2
  0
LINE
  5
D93
330
A96
100
AcDbEntity
  8
文字
 62
     0
370
    -2
100
AcDbLine
 10
82.52034258030073
 20
93.70069283567776
 30
0.0
 11
69.24236815026825
 21
93.70069283567776
 31
0.0
  0
LINE
  5
D94
330
A96
100
AcDbEntity
  8
文字
 62
     0
370
    -2
100
AcDbLine
 10
82.52034258030073
 20
92.10069283567776
 30
0.0
 11
69.24236815026825
 21
92.10069283567776
 31
0.0
  0
LINE
  5
D95
330
A96
100
AcDbEntity
  8
文字
 62
     0
370
    -2
100
AcDbLine
 10
70.49236815026825
 20
89.60069283567776
 30
0.0
 11
70.49236815026825
 21
84.1840261690111
 31
0.0
  0
LINE
  5
D96
330
A96
100
AcDbEntity
  8
文字
 62
     0
370
    -2
100
AcDbLine
 10
70.49236815026825
 20
93.70069283567776
 30
0.0
 11
70.49236815026825
 21
92.10069283567776
 31
0.0
  0
LINE
  5
D97
330
A96
100
AcDbEntity
  8
文字
 62
     0
370
    -2
100
AcDbLine
 10
70.49236815026825
 20
96.20069283567776
 30
0.0
 11
70.49236815026825
 21
98.70069283567776
 31
0.0
  0
SOLID
  5
D98
330
A96
100
AcDbEntity
  8
文字
 62
     0
100
AcDbTrace
 10
70.07570148360158
 20
96.20069283567776
 30
0.0
 11
70.90903481693492
 21
96.20069283567776
 31
0.0
 12
70.49236815026825
 22
93.70069283567776
 32
0.0
 13
70.49236815026825
 23
93.70069283567776
 33
0.0
  0
SOLID
  5
D99
330
A96
100
AcDbEntity
  8
文字
 62
     0
100
AcDbTrace
 10
70.90903481693492
 20
89.60069283567776
 30
0.0
 11
70.07570148360158
 21
89.60069283567776
 31
0.0
 12
70.49236815026825
 22
92.10069283567776
 32
0.0
 13
70.49236815026825
 23
92.10069283567776
 33
0.0
  0
MTEXT
  5
D9A
330
A96
100
AcDbEntity
  8
文字
 62
     0
100
AcDbMText
 10
68.61736815026825
 20
85.64235950234443
 30
0.0
 40
2.5
 41
0.0
 46
0.0
 71
     5
 72
     1
  1
t
 11
0.0
 21
1.0
 31
0.0
 73
     1
 44
1.0
  0
POINT
  5
D9B
330
A96
100
AcDbEntity
  8
Defpoints
 62
     0
100
AcDbPoint
 10
83.14534258030073
 20
93.70069283567776
 30
0.0
  0
POINT
  5
D9C
330
A96
100
AcDbEntity
  8
Defpoints
 62
     0
100
AcDbPoint
 10
83.14534258030073
 20
92.10069283567776
 30
0.0
  0
POINT
  5
D9D
330
A96
100
AcDbEntity
  8
Defpoints
 62
     0
100
AcDbPoint
 10
70.49236815026825
 20
92.10069283567776
 30
0.0
  0
ENDBLK
  5
AA3
330
A96
100
AcDbEntity
  8
0
100
AcDbBlockEnd
  0
BLOCK
  5
AAE
330
AA4
100
AcDbEntity
  8
0
100
AcDbBlockBegin
  2
*D2
 70
     1
 10
0.0
 20
0.0
 30
0.0
  3
*D2
  1
*D3
  0
LINE
  5
DB0
330
AA4
100
AcDbEntity
  8
文字
 62
     0
370
    -2
100
AcDbLine
 10
147.142329361562
 20
106.6342559891186
 30
0.0
 11
147.142329361562
 21
71.31077352511814
 31
0.0
  0
LINE
  5
DB1
330
AA4
100
AcDbEntity
  8
文字
 62
     0
370
    -2
100
AcDbLine
 10
169.142329361562
 20
106.6342559891186
 30
0.0
 11
169.142329361562
 21
71.31077352511814
 31
0.0
  0
LINE
  5
DB2
330
AA4
100
AcDbEntity
  8
文字
 62
     0
370
    -2
100
AcDbLine
 10
149.642329361562
 20
72.56077352511814
 30
0.0
 11
166.642329361562
 21
72.56077352511814
 31
0.0
  0
SOLID
  5
DB3
330
AA4
100
AcDbEntity
  8
文字
 62
     0
100
AcDbTrace
 10
149.642329361562
 20
72.97744019178481
 30
0.0
 11
149.642329361562
 21
72.14410685845147
 31
0.0
 12
147.142329361562
 22
72.56077352511814
 32
0.0
 13
147.142329361562
 23
72.56077352511814
 33
0.0
  0
SOLID
  5
DB4
330
AA4
100
AcDbEntity
  8
文字
 62
     0
100
AcDbTrace
 10
166.642329361562
 20
72.14410685845147
 30
0.0
 11
166.642329361562
 21
72.97744019178481
 31
0.0
 12
169.142329361562
 22
72.56077352511814
 32
0.0
 13
169.142329361562
 23
72.56077352511814
 33
0.0
  0
MTEXT
  5
DB5
330
AA4
100
AcDbEntity
  8
文字
 62
     0
100
AcDbMText
 10
158.2956636101322
 20
74.43577352511814
 30
0.0
 40
2.5
 41
0.0
 46
0.0
 71
     5
 72
     1
  1
%%c22
 73
     1
 44
1.0
  0
POINT
  5
DB6
330
AA4
100
AcDbEntity
  8
Defpoints
 62
     0
100
AcDbPoint
 10
147.142329361562
 20
107.2592559891186
 30
0.0
  0
POINT
  5
DB7
330
AA4
100
AcDbEntity
  8
Defpoints
 62
     0
100
AcDbPoint
 10
169.142329361562
 20
107.2592559891186
 30
0.0
  0
POINT
  5
DB8
330
AA4
100
AcDbEntity
  8
Defpoints
 62
     0
100
AcDbPoint
 10
169.142329361562
 20
72.56077352511814
 30
0.0
  0
ENDBLK
  5
AAF
330
AA4
100
AcDbEntity
  8
0
100
AcDbBlockEnd
  0
BLOCK
  5
AC9
330
ABE
100
AcDbEntity
  8
0
100
AcDbBlockBegin
  2
*D3
 70
     1
 10
0.0
 20
0.0
 30
0.0
  3
*D3
  1
*D4
  0
LINE
  5
D81
330
ABE
100
AcDbEntity
  8
文字
 62
     0
370
    -2
100
AcDbLine
 10
102.1118983556101
 20
98.8666071043748
 30
0.0
 11
127.8972810771269
 21
98.8666071043748
 31
0.0
  0
LINE
  5
D82
330
ABE
100
AcDbEntity
  8
文字
 62
     0
370
    -2
100
AcDbLine
 10
113.7703425803007
 20
92.10069283567775
 30
0.0
 11
127.8972810771269
 21
92.10069283567775
 31
0.0
  0
LINE
  5
D83
330
ABE
100
AcDbEntity
  8
文字
 62
     0
370
    -2
100
AcDbLine
 10
126.6472810771269
 20
96.3666071043748
 30
0.0
 11
126.6472810771269
 21
94.60069283567775
 31
0.0
  0
SOLID
  5
D84
330
ABE
100
AcDbEntity
  8
文字
 62
     0
100
AcDbTrace
 10
126.2306144104602
 20
96.3666071043748
 30
0.0
 11
127.0639477437936
 21
96.3666071043748
 31
0.0
 12
126.6472810771269
 22
98.8666071043748
 32
0.0
 13
126.6472810771269
 23
98.8666071043748
 33
0.0
  0
SOLID
  5
D85
330
ABE
100
AcDbEntity
  8
文字
 62
     0
100
AcDbTrace
 10
126.2306144104602
 20
94.60069283567775
 30
0.0
 11
127.0639477437936
 21
94.60069283567775
 31
0.0
 12
126.6472810771269
 22
92.10069283567775
 32
0.0
 13
126.6472810771269
 23
92.10069283567775
 33
0.0
  0
MTEXT
  5
D86
330
ABE
100
AcDbEntity
  8
文字
 62
     0
100
AcDbMText
 10
124.7722810771269
 20
95.48364997002629
 30
0.0
 40
2.5
 41
0.0
 46
0.0
 71
     5
 72
     1
  1
7
 11
6.123031769111886E-17
 21
1.0
 31
0.0
 73
     1
 44
1.0
  0
POINT
  5
D87
330
ABE
100
AcDbEntity
  8
Defpoints
 62
     0
100
AcDbPoint
 10
101.4868983556101
 20
98.8666071043748
 30
0.0
  0
POINT
  5
D88
330
ABE
100
AcDbEntity
  8
Defpoints
 62
     0
100
AcDbPoint
 10
113.1453425803007
 20
92.10069283567775
 30
0.0
  0
POINT
  5
D89
330
ABE
100
AcDbEntity
  8
Defpoints
 62
     0
100
AcDbPoint
 10
126.6472810771269
 20
92.10069283567775
 30
0.0
  0
ENDBLK
  5
ACA
330
ABE
100
AcDbEntity
  8
0
100
AcDbBlockEnd
  0
BLOCK
  5
AD5
330
ACB
100
AcDbEntity
  8
0
100
AcDbBlockBegin
  2
*D4
 70
     1
 10
0.0
 20
0.0
 30
0.0
  3
*D4
  1
*D5
  0
LINE
  5
D78
330
ACB
100
AcDbEntity
  8
文字
 62
     0
370
    -2
100
AcDbLine
 10
83.14534258030073
 20
91.47569283567776
 30
0.0
 11
83.14534258030073
 21
73.23591994534206
 31
0.0
  0
LINE
  5
D79
330
ACB
100
AcDbEntity
  8
文字
 62
     0
370
    -2
100
AcDbLine
 10
113.1453425803007
 20
91.47569283567775
 30
0.0
 11
113.1453425803007
 21
73.23591994534206
 31
0.0
  0
LINE
  5
D7A
330
ACB
100
AcDbEntity
  8
文字
 62
     0
370
    -2
100
AcDbLine
 10
85.64534258030073
 20
74.48591994534206
 30
0.0
 11
110.6453425803007
 21
74.48591994534206
 31
0.0
  0
SOLID
  5
D7B
330
ACB
100
AcDbEntity
  8
文字
 62
     0
100
AcDbTrace
 10
85.64534258030073
 20
74.90258661200873
 30
0.0
 11
85.64534258030073
 21
74.06925327867539
 31
0.0
 12
83.14534258030073
 22
74.48591994534206
 32
0.0
 13
83.14534258030073
 23
74.48591994534206
 33
0.0
  0
SOLID
  5
D7C
330
ACB
100
AcDbEntity
  8
文字
 62
     0
100
AcDbTrace
 10
110.6453425803007
 20
74.90258661200873
 30
0.0
 11
110.6453425803007
 21
74.06925327867539
 31
0.0
 12
113.1453425803007
 22
74.48591994534206
 32
0.0
 13
113.1453425803007
 23
74.48591994534206
 33
0.0
  0
MTEXT
  5
D7D
330
ACB
100
AcDbEntity
  8
文字
 62
     0
100
AcDbMText
 10
98.14534258030073
 20
76.36091994534206
 30
0.0
 40
2.5
 41
0.0
 46
0.0
 71
     5
 72
     1
  1
%%c30
 73
     1
 44
1.0
  0
POINT
  5
D7E
330
ACB
100
AcDbEntity
  8
Defpoints
 62
     0
100
AcDbPoint
 10
83.14534258030073
 20
92.10069283567776
 30
0.0
  0
POINT
  5
D7F
330
ACB
100
AcDbEntity
  8
Defpoints
 62
     0
100
AcDbPoint
 10
113.1453425803007
 20
92.10069283567775
 30
0.0
  0
POINT
  5
D80
330
ACB
100
AcDbEntity
  8
Defpoints
 62
     0
100
AcDbPoint
 10
113.1453425803007
 20
74.48591994534206
 30
0.0
  0
ENDBLK
  5
AD6
330
ACB
100
AcDbEntity
  8
0
100
AcDbBlockEnd
  0
BLOCK
  5
CF6
330
CE7
100
AcDbEntity
  8
0
100
AcDbBlockBegin
  2
*D5
 70
     1
 10
0.0
 20
0.0
 30
0.0
  3
*D5
  1
*D6
  0
LINE
  5
D61
330
CE7
100
AcDbEntity
  8
文字
 62
     0
370
    -2
100
AcDbLine
 10
126.0222810771269
 20
98.8666071043748
 30
0.0
 11
125.3972810771269
 21
98.8666071043748
 31
0.0
  0
LINE
  5
D62
330
CE7
100
AcDbEntity
  8
文字
 62
     0
370
    -2
100
AcDbLine
 10
127.2594742275608
 20
102.3679679890479
 30
0.0
 11
127.8972810771269
 21
102.3679679890479
 31
0.0
  0
LINE
  5
D63
330
CE7
100
AcDbEntity
  8
文字
 62
     0
370
    -2
100
AcDbLine
 10
126.6472810771269
 20
96.3666071043748
 30
0.0
 11
126.6472810771269
 21
93.8666071043748
 31
0.0
  0
LINE
  5
D64
330
CE7
100
AcDbEntity
  8
文字
 62
     0
370
    -2
100
AcDbLine
 10
126.6472810771269
 20
104.8679679890479
 30
0.0
 11
126.6472810771269
 21
107.3679679890479
 31
0.0
  0
LINE
  5
D65
330
CE7
100
AcDbEntity
  8
文字
 62
     0
370
    -2
100
AcDbLine
 10
126.6472810771269
 20
100.6172875467114
 30
0.0
 11
132.5847810771269
 21
102.3985375467114
 31
0.0
  0
LINE
  5
D66
330
CE7
100
AcDbEntity
  8
文字
 62
     0
370
    -2
100
AcDbLine
 10
132.5847810771269
 20
102.3985375467114
 30
0.0
 11
132.5847810771269
 21
108.6485375467114
 31
0.0
  0
MTEXT
  5
D67
330
CE7
100
AcDbEntity
  8
文字
 62
     0
100
AcDbMText
 10
130.7097810771269
 20
105.5235375467114
 30
0.0
 40
2.5
 41
0.0
 46
0.0
 71
     5
 72
     1
  1
3.5
 11
6.123031769111886E-17
 21
1.0
 31
0.0
 73
     1
 44
1.0
  0
LINE
  5
D68
330
CE7
100
AcDbEntity
  8
文字
 62
     0
370
    -2
100
AcDbLine
 10
126.6472810771269
 20
98.8666071043748
 30
0.0
 11
126.6472810771269
 21
102.3679679890479
 31
0.0
  0
LINE
  5
D69
330
CE7
100
AcDbEntity
  8
文字
 62
     0
370
    -2
100
AcDbLine
 10
126.6472810771269
 20
98.8666071043748
 30
0.0
 11
126.6472810771269
 21
102.3679679890479
 31
0.0
  0
SOLID
  5
D6A
330
CE7
100
AcDbEntity
  8
文字
 62
     0
100
AcDbTrace
 10
126.2306144104602
 20
96.3666071043748
 30
0.0
 11
127.0639477437936
 21
96.3666071043748
 31
0.0
 12
126.6472810771269
 22
98.8666071043748
 32
0.0
 13
126.6472810771269
 23
98.8666071043748
 33
0.0
  0
SOLID
  5
D6B
330
CE7
100
AcDbEntity
  8
文字
 62
     0
100
AcDbTrace
 10
126.2306144104602
 20
104.8679679890479
 30
0.0
 11
127.0639477437936
 21
104.8679679890479
 31
0.0
 12
126.6472810771269
 22
102.3679679890479
 32
0.0
 13
126.6472810771269
 23
102.3679679890479
 33
0.0
  0
POINT
  5
D6C
330
CE7
100
AcDbEntity
  8
Defpoints
 62
     0
100
AcDbPoint
 10
126.6472810771269
 20
98.8666071043748
 30
0.0
  0
POINT
  5
D6D
330
CE7
100
AcDbEntity
  8
Defpoints
 62
     0
100
AcDbPoint
 10
126.6344742275608
 20
102.3679679890479
 30
0.0
  0
POINT
  5
D6E
330
CE7
100
AcDbEntity
  8
Defpoints
 62
     0
100
AcDbPoint
 10
126.6472810771269
 20
102.3679679890479
 30
0.0
  0
ENDBLK
  5
CF7
330
CE7
100
AcDbEntity
  8
0
100
AcDbBlockEnd
  0
BLOCK
  5
D3C
330
D30
100
AcDbEntity
  8
0
100
AcDbBlockBegin
  2
*D6
 70
     1
 10
0.0
 20
0.0
 30
0.0
  3
*D6
  1
*D7
  0
LINE
  5
E03
330
D30
100
AcDbEntity
  8
文字
 62
     0
370
    -2
100
AcDbLine
 10
95.64534258030073
 20
161.3679679890479
 30
0.0
 11
95.64534258030073
 21
172.2235623779558
 31
0.0
  0
LINE
  5
E04
330
D30
100
AcDbEntity
  8
文字
 62
     0
370
    -2
100
AcDbLine
 10
100.6453425803007
 20
161.3679679890479
 30
0.0
 11
100.6453425803007
 21
172.2235623779558
 31
0.0
  0
LINE
  5
E05
330
D30
100
AcDbEntity
  8
文字
 62
     0
370
    -2
100
AcDbLine
 10
93.14534258030073
 20
170.9735623779558
 30
0.0
 11
90.64534258030073
 21
170.9735623779558
 31
0.0
  0
LINE
  5
E06
330
D30
100
AcDbEntity
  8
文字
 62
     0
370
    -2
100
AcDbLine
 10
103.1453425803007
 20
170.9735623779558
 30
0.0
 11
111.2120774597914
 21
170.9735623779558
 31
0.0
  0
LINE
  5
E07
330
D30
100
AcDbEntity
  8
文字
 62
     0
370
    -2
100
AcDbLine
 10
95.64534258030073
 20
170.9735623779558
 30
0.0
 11
100.6453425803007
 21
170.9735623779558
 31
0.0
  0
SOLID
  5
E08
330
D30
100
AcDbEntity
  8
文字
 62
     0
100
AcDbTrace
 10
93.14534258030073
 20
171.3902290446224
 30
0.0
 11
93.14534258030073
 21
170.5568957112891
 31
0.0
 12
95.64534258030073
 22
170.9735623779558
 32
0.0
 13
95.64534258030073
 23
170.9735623779558
 33
0.0
  0
SOLID
  5
E09
330
D30
100
AcDbEntity
  8
文字
 62
     0
100
AcDbTrace
 10
103.1453425803007
 20
171.3902290446224
 30
0.0
 11
103.1453425803007
 21
170.5568957112891
 31
0.0
 12
100.6453425803007
 22
170.9735623779558
 32
0.0
 13
100.6453425803007
 23
170.9735623779558
 33
0.0
  0
MTEXT
  5
E0A
330
D30
100
AcDbEntity
  8
文字
 62
     0
100
AcDbMText
 10
108.4287100200461
 20
172.8485623779558
 30
0.0
 40
2.5
 41
0.0
 46
0.0
 71
     5
 72
     1
  1
{\fArial|b0|i0|c0|p32;M}5
 73
     1
 44
1.0
  0
POINT
  5
E0B
330
D30
100
AcDbEntity
  8
Defpoints
 62
     0
100
AcDbPoint
 10
95.64534258030073
 20
160.7429679890479
 30
0.0
  0
POINT
  5
E0C
330
D30
100
AcDbEntity
  8
Defpoints
 62
     0
100
AcDbPoint
 10
100.6453425803007
 20
160.7429679890479
 30
0.0
  0
POINT
  5
E0D
330
D30
100
AcDbEntity
  8
Defpoints
 62
     0
100
AcDbPoint
 10
100.6453425803007
 20
170.9735623779558
 30
0.0
  0
ENDBLK
  5
D3D
330
D30
100
AcDbEntity
  8
0
100
AcDbBlockEnd
  0
BLOCK
  5
E1C
330
E12
100
AcDbEntity
  8
0
100
AcDbBlockBegin
  2
*D7
 70
     1
 10
0.0
 20
0.0
 30
0.0
  3
*D7
  1
*D8
  0
LINE
  5
E1F
330
E12
100
AcDbEntity
  8
文字
 62
     0
370
    -2
100
AcDbLine
 10
101.2703425803007
 20
162.3679679890479
 30
0.0
 11
127.8972810771269
 21
162.3679679890479
 31
0.0
  0
LINE
  5
E20
330
E12
100
AcDbEntity
  8
文字
 62
     0
370
    -2
100
AcDbLine
 10
103.3703425803008
 20
102.3679679890479
 30
0.0
 11
127.8972810771269
 21
102.3679679890479
 31
0.0
  0
LINE
  5
E21
330
E12
100
AcDbEntity
  8
文字
 62
     0
370
    -2
100
AcDbLine
 10
126.6472810771269
 20
159.8679679890479
 30
0.0
 11
126.6472810771269
 21
104.8679679890479
 31
0.0
  0
SOLID
  5
E22
330
E12
100
AcDbEntity
  8
文字
 62
     0
100
AcDbTrace
 10
126.2306144104602
 20
159.8679679890479
 30
0.0
 11
127.0639477437936
 21
159.8679679890479
 31
0.0
 12
126.6472810771269
 22
162.3679679890479
 32
0.0
 13
126.6472810771269
 23
162.3679679890479
 33
0.0
  0
SOLID
  5
E23
330
E12
100
AcDbEntity
  8
文字
 62
     0
100
AcDbTrace
 10
126.2306144104602
 20
104.8679679890479
 30
0.0
 11
127.0639477437936
 21
104.8679679890479
 31
0.0
 12
126.6472810771269
 22
102.3679679890479
 32
0.0
 13
126.6472810771269
 23
102.3679679890479
 33
0.0
  0
MTEXT
  5
E24
330
E12
100
AcDbEntity
  8
文字
 62
     0
100
AcDbMText
 10
124.7722810771269
 20
132.367967989048
 30
0.0
 40
2.5
 41
0.0
 46
0.0
 71
     5
 72
     1
  1
60
 11
6.123031769111886E-17
 21
1.0
 31
0.0
 73
     1
 44
1.0
  0
POINT
  5
E25
330
E12
100
AcDbEntity
  8
Defpoints
 62
     0
100
AcDbPoint
 10
100.6453425803007
 20
162.3679679890479
 30
0.0
  0
POINT
  5
E26
330
E12
100
AcDbEntity
  8
Defpoints
 62
     0
100
AcDbPoint
 10
102.7453425803008
 20
102.3679679890479
 30
0.0
  0
POINT
  5
E27
330
E12
100
AcDbEntity
  8
Defpoints
 62
     0
100
AcDbPoint
 10
126.6472810771269
 20
102.3679679890479
 30
0.0
  0
ENDBLK
  5
E1D
330
E12
100
AcDbEntity
  8
0
100
AcDbBlockEnd
  0
ENDSEC
  0
SECTION
  2
ENTITIES
  0
DIMENSION
  5
A3B
102
{ACAD_REACTORS
330
A3D
102
}
102
{ACAD_XDICTIONARY
360
A3C
102
}
330
21
100
AcDbEntity
  8
文字
100
AcDbDimension
280
     0
  2
*D0
 10
162.1260462189705
 20
80.76933936464168
 30
0.0
 11
158.142329361562
 21
80.76933936464168
 31
0.0
 70
   160
  1
8
 71
     5
 42
7.967433714816821
 73
     0
 74
     0
 75
     0
  3
ISO-25
100
AcDbAlignedDimension
 13
154.1586125041536
 23
107.2592559891186
 33
0.0
 14
162.1260462189705
 24
107.2592559891186
 34
0.0
100
AcDbRotatedDimension
  0
DIMENSION
  5
A45
102
{ACAD_REACTORS
330
A47
102
}
102
{ACAD_XDICTIONARY
360
A46
102
}
330
21
100
AcDbEntity
  8
文字
100
AcDbDimension
280
     0
  2
*D1
 10
70.49236815026825
 20
92.10069283567776
 30
0.0
 11
68.61736815026825
 21
85.64235950234443
 31
0.0
 70
    32
  1
t
 71
     5
 42
1.599999999999994
 73
     0
 74
     0
 75
     0
  3
ISO-25
100
AcDbAlignedDimension
 13
83.14534258030073
 23
93.70069283567776
 33
0.0
 14
83.14534258030073
 24
92.10069283567776
 34
0.0
 50
90.0
100
AcDbRotatedDimension
  0
DIMENSION
  5
A4A
102
{ACAD_REACTORS
330
A4C
102
}
102
{ACAD_XDICTIONARY
360
A4B
102
}
330
21
100
AcDbEntity
  8
文字
100
AcDbDimension
280
     0
  2
*D2
 10
169.142329361562
 20
72.56077352511814
 30
0.0
 11
158.2956636101322
 21
72.56077352511814
 31
0.0
 70
   160
  1
%%c<>
 71
     5
 42
22.0
 73
     0
 74
     0
 75
     0
  3
ISO-25
100
AcDbAlignedDimension
 13
147.142329361562
 23
107.2592559891186
 33
0.0
 14
169.142329361562
 24
107.2592559891186
 34
0.0
100
AcDbRotatedDimension
  0
DIMENSION
  5
A55
102
{ACAD_REACTORS
330
A57
102
}
102
{ACAD_XDICTIONARY
360
A56
102
}
330
21
100
AcDbEntity
  8
文字
100
AcDbDimension
280
     0
  2
*D3
 10
126.6472810771269
 20
92.10069283567775
 30
0.0
 11
124.7722810771269
 21
95.48364997002629
 31
0.0
 70
    32
  1
7
 71
     5
 42
6.765914268697045
 73
     0
 74
     0
 75
     0
  3
ISO-25
100
AcDbAlignedDimension
 13
101.4868983556101
 23
98.8666071043748
 33
0.0
 14
113.1453425803007
 24
92.10069283567775
 34
0.0
 50
90.0
100
AcDbRotatedDimension
  0
DIMENSION
  5
A58
102
{ACAD_REACTORS
330
A5A
102
}
102
{ACAD_XDICTIONARY
360
A59
102
}
330
21
100
AcDbEntity
  8
文字
100
AcDbDimension
280
     0
  2
*D4
 10
113.1453425803007
 20
74.48591994534206
 30
0.0
 11
98.14534258030073
 21
76.36091994534206
 31
0.0
 70
    32
  1
%%c<>
 71
     5
 42
30.0
 73
     0
 74
     0
 75
     0
  3
ISO-25
100
AcDbAlignedDimension
 13
83.14534258030073
 23
92.10069283567776
 33
0.0
 14
113.1453425803007
 24
92.10069283567775
 34
0.0
100
AcDbRotatedDimension
  0
LINE
  5
A5B
330
21
100
AcDbEntity
  8
実線
100
AcDbLine
 10
94.99013110761685
 20
98.87647670195108
 30
0.0
 11
101.2970915932834
 21
98.87647670195108
 31
0.0
  0
CIRCLE
  5
A5D
330
21
100
AcDbEntity
  8
実線
100
AcDbCircle
 10
158.142329361562
 20
107.2592559891186
 30
0.0
 40
2.5
  0
LWPOLYLINE
  5
A5E
102
{ACAD_REACTORS
330
A3D
102
}
330
21
100
AcDbEntity
  8
実線
100
AcDbPolyline
 90
        6
 70
     1
 43
0.0
 10
162.1260462189705
 20
109.5592559891186
 10
158.142329361562
 20
111.8592559891186
 10
154.1586125041536
 20
109.5592559891186
 10
154.1586125041536
 20
104.9592559891186
 10
158.142329361562
 20
102.6592559891186
 10
162.1260462189705
 20
104.9592559891186
  0
LWPOLYLINE
  5
A65
102
{ACAD_REACTORS
330
E28
102
}
330
21
100
AcDbEntity
  8
実線
100
AcDbPolyline
 90
        4
 70
     0
 43
0.0
 10
102.7453425803008
 20
99.36796798904795
 10
102.7453425803008
 20
102.3679679890479
 10
93.54534258030078
 20
102.3679679890479
 10
93.54534258030078
 20
99.36796798904793
  0
ARC
  5
A66
102
{ACAD_REACTORS
330
A57
102
}
330
21
100
AcDbEntity
  8
実線
100
AcDbCircle
 10
101.4868982773404
 20
100.6966708931864
 30
0.0
 40
1.830063788811591
100
AcDbArc
 50
226.5555917471023
 51
313.4444131538477
  0
ARC
  5
A67
330
21
100
AcDbEntity
  8
実線
100
AcDbCircle
 10
98.14309534316385
 20
103.4666849161882
 30
0.0
 40
4.598717476214582
100
AcDbArc
 50
243.0337654809086
 51
296.966234519092
  0
ARC
  5
A68
330
21
100
AcDbEntity
  8
実線
100
AcDbCircle
 10
94.80153948351106
 20
100.6913893881782
 30
0.0
 40
1.824684865753845
100
AcDbArc
 50
226.4927822208217
 51
313.5072177791774
  0
LINE
  5
A69
330
21
100
AcDbEntity
  8
実線
100
AcDbLine
 10
100.2284542996064
 20
99.86796798904793
 30
0.0
 11
100.2284542996064
 21
99.36796798904793
 31
0.0
  0
LINE
  5
A6A
330
21
100
AcDbEntity
  8
実線
100
AcDbLine
 10
96.05773638672133
 20
99.86796798904793
 30
0.0
 11
96.05773638672133
 21
99.36796798904793
 31
0.0
  0
LINE
  5
A6B
330
21
100
AcDbEntity
  8
実線
100
AcDbLine
 10
100.2284542996064
 20
102.3679679890479
 30
0.0
 11
100.2284542996064
 21
99.86796798904793
 31
0.0
  0
LINE
  5
A6C
330
21
100
AcDbEntity
  8
実線
100
AcDbLine
 10
96.05773638672133
 20
102.3679679890479
 30
0.0
 11
96.05773638672133
 21
99.86796798904793
 31
0.0
  0
LINE
  5
A6D
102
{ACAD_REACTORS
330
A3D
102
}
330
21
100
AcDbEntity
  8
中心線
100
AcDbLine
 10
137.2104161147244
 20
107.2592559891186
 30
0.0
 11
177.5601136420771
 21
107.2592559891186
 31
0.0
  0
CIRCLE
  5
A6E
330
21
100
AcDbEntity
  8
実線
100
AcDbCircle
 10
158.142329361562
 20
107.2592559891186
 30
0.0
 40
15.0
  0
CIRCLE
  5
A6F
102
{ACAD_REACTORS
330
A4C
102
}
330
21
100
AcDbEntity
  8
実線
100
AcDbCircle
 10
158.142329361562
 20
107.2592559891186
 30
0.0
 40
11.0
  0
LINE
  5
A70
330
21
100
AcDbEntity
  8
実線
100
AcDbLine
 10
86.14200121649861
 20
93.70069283567776
 30
0.0
 11
110.1486839441028
 21
93.70069283567776
 31
0.0
  0
LINE
  5
A71
330
21
100
AcDbEntity
  8
実線
100
AcDbLine
 10
110.1486839441028
 20
93.70069283567776
 30
0.0
 11
113.1453425803007
 21
93.70069283567776
 31
0.0
  0
ARC
  5
A72
330
21
100
AcDbEntity
  8
実線
100
AcDbCircle
 10
98.8440266645152
 20
86.62023448870727
 30
0.0
 40
12.5
100
AcDbArc
 50
38.77314839601816
 51
80.08336653003892
  0
ARC
  5
A73
330
21
100
AcDbEntity
  8
実線
100
AcDbCircle
 10
110.1486839441028
 20
95.70069283567776
 30
0.0
 40
2.0
100
AcDbArc
 50
218.7731483960188
 51
270.0
  0
ARC
  5
A74
330
21
100
AcDbEntity
  8
実線
100
AcDbCircle
 10
86.14200121649863
 20
95.70069283567776
 30
0.0
 40
2.0
100
AcDbArc
 50
270.0
 51
321.2268516039812
  0
ARC
  5
A75
330
21
100
AcDbEntity
  8
実線
100
AcDbCircle
 10
97.44665849608627
 20
86.62023448870727
 30
0.0
 40
12.5
100
AcDbArc
 50
99.95896571345173
 51
141.2268516039818
  0
LINE
  5
A76
330
21
100
AcDbEntity
  8
中心線
100
AcDbLine
 10
98.14534258030075
 20
86.63054108905875
 30
0.0
 11
98.1453425803007
 21
166.9034751290931
 31
0.0
  0
LINE
  5
A77
102
{ACAD_REACTORS
330
A5A
330
A47
102
}
330
21
100
AcDbEntity
  8
実線
100
AcDbLine
 10
83.14534258030073
 20
93.70069283567776
 30
0.0
 11
83.14534258030073
 21
92.10069283567776
 31
0.0
  0
LINE
  5
A78
330
21
100
AcDbEntity
  8
実線
100
AcDbLine
 10
86.14200121649861
 20
93.70069283567776
 30
0.0
 11
83.14534258030073
 21
93.70069283567776
 31
0.0
  0
LINE
  5
A79
102
{ACAD_REACTORS
330
A5A
330
A57
102
}
330
21
100
AcDbEntity
  8
実線
100
AcDbLine
 10
113.1453425803007
 20
92.10069283567775
 30
0.0
 11
113.1453425803007
 21
93.70069283567776
 31
0.0
  0
LINE
  5
A7A
330
21
100
AcDbEntity
  8
実線
100
AcDbLine
 10
83.14534258030073
 20
92.10069283567776
 30
0.0
 11
113.1453425803007
 21
92.10069283567775
 31
0.0
  0
LINE
  5
B2C
330
21
100
AcDbEntity
  8
中心線
100
AcDbLine
 10
158.142329361562
 20
107.2592559891186
 30
0.0
 11
158.142329361562
 21
128.5146345370075
 31
0.0
  0
LINE
  5
B2D
330
21
100
AcDbEntity
  8
中心線
100
AcDbLine
 10
158.142329361562
 20
107.2592559891186
 30
0.0
 11
158.142329361562
 21
88.30899630418749
 31
0.0
  0
DIMENSION
  5
CE6
330
21
100
AcDbEntity
  8
文字
100
AcDbDimension
280
     0
  2
*D5
 10
126.6472810771269
 20
102.3679679890479
 30
0.0
 11
130.7097810771269
 21
103.0235375467114
 31
0.0
 70
    32
 71
     5
 42
3.501360884673133
 73
     0
 74
     0
 75
     0
  3
ISO-25
100
AcDbAlignedDimension
 13
126.6472810771269
 23
98.8666071043748
 33
0.0
 14
126.6344742275608
 24
102.3679679890479
 34
0.0
 50
90.0
100
AcDbRotatedDimension
1001
ACAD
1000
DSTYLE
1002
{
1070
   279
1070
     1
1002
}
  0
DIMENSION
  5
D2F
330
21
100
AcDbEntity
  8
文字
100
AcDbDimension
280
     0
  2
*D6
 10
100.6453425803007
 20
170.9735623779558
 30
0.0
 11
108.4287100200461
 21
172.8485623779558
 31
0.0
 70
    32
  1
{\fArial|b0|i0|c0|p32;M}<>
 71
     5
 42
4.999999999999986
 73
     0
 74
     0
 75
     0
  3
ISO-25
100
AcDbAlignedDimension
 13
95.64534258030073
 23
160.7429679890479
 33
0.0
 14
100.6453425803007
 24
160.7429679890479
 34
0.0
100
AcDbRotatedDimension
  0
LWPOLYLINE
  5
E01
330
21
100
AcDbEntity
  8
実線
100
AcDbPolyline
 90
        6
 70
     1
 43
0.0
 10
100.6453425803007
 20
102.3679679890479
 10
95.64534258030073
 20
102.3679679890479
 10
95.64534258030073
 20
161.3679679890479
 10
96.64534258030073
 20
162.3679679890479
 10
99.64534258030073
 20
162.3679679890479
 10
100.6453425803007
 20
161.3679679890479
  0
LINE
  5
E0E
330
21
100
AcDbEntity
  8
実線
370
    20
100
AcDbLine
 10
95.64534258030073
 20
161.3679679890479
 30
0.0
 11
100.6453425803007
 21
161.3679679890479
 31
0.0
  0
LINE
  5
E0F
330
21
100
AcDbEntity
  8
実線
370
    20
100
AcDbLine
 10
96.64534258030073
 20
162.3679679890479
 30
0.0
 11
96.6453425803007
 21
102.3679679890479
 31
0.0
  0
LINE
  5
E10
330
21
100
AcDbEntity
  8
実線
370
    20
100
AcDbLine
 10
99.64534258030073
 20
162.3679679890479
 30
0.0
 11
99.6453425803007
 21
102.3679679890479
 31
0.0
  0
DIMENSION
  5
E11
102
{ACAD_REACTORS
330
E28
102
}
102
{ACAD_XDICTIONARY
360
E1E
102
}
330
21
100
AcDbEntity
  8
文字
100
AcDbDimension
280
     0
  2
*D7
 10
126.6472810771269
 20
102.3679679890479
 30
0.0
 11
124.7722810771269
 21
132.367967989048
 31
0.0
 70
    32
 71
     5
 42
60.00000000000001
 73
     0
 74
     0
 75
     0
  3
ISO-25
100
AcDbAlignedDimension
 13
100.6453425803007
 23
162.3679679890479
 33
0.0
 14
102.7453425803008
 24
102.3679679890479
 34
0.0
 50
90.0
100
AcDbRotatedDimension
  0
CIRCLE
  5
E31
330
21
100
AcDbEntity
  8
実線
370
    20
100
AcDbCircle
 10
158.142329361562
 20
107.2592559891186
 30
0.0
 40
1.5
  0
MTEXT
  5
EB3
330
21
100
AcDbEntity
  8
文字・寸法線
 62
     0
100
AcDbMText
 10
119.9176046182772
 20
190.9279016005944
 30
0.0
 40
6.0
 41
0.0
 46
6.0
 71
     9
 72
     1
  1
{\fＭＳ ゴシック|b0|i0|c0|p0;S-S M5X60}
 73
     1
 44
1.0
1001
ACAD
1000
ACAD_MTEXT_DEFINED_HEIGHT_BEGIN
1070
    46
1040
6.0
1000
ACAD_MTEXT_DEFINED_HEIGHT_END
  0
MTEXT
  5
EE1
330
21
100
AcDbEntity
  8
文字・寸法線
 62
     0
100
AcDbMText
 10
92.26179160944717
 20
59.38045002622955
 30
0.0
 40
4.0
 41
0.0
 46
10.66666666666667
 71
     9
 72
     1
  1
{\fＭＳ ゴシック|b0|i0|c0|p0;SUS t=1.5\PSS t=1.6}
 73
     1
 44
1.0
1001
ACAD
1000
ACAD_MTEXT_DEFINED_HEIGHT_BEGIN
1070
    46
1040
10.66666666666667
1000
ACAD_MTEXT_DEFINED_HEIGHT_END
  0
ENDSEC
  0
SECTION
  2
OBJECTS
  0
DICTIONARY
  5
C
330
0
100
AcDbDictionary
281
     1
  3
ACAD_COLOR
350
1C
  3
ACAD_DETAILVIEWSTYLE
350
E8B
  3
ACAD_GROUP
350
D
  3
ACAD_IMAGE_VARS
350
E7D
  3
ACAD_LAYOUT
350
1A
  3
ACAD_MATERIAL
350
1B
  3
ACAD_MLEADERSTYLE
350
E88
  3
ACAD_MLINESTYLE
350
17
  3
ACAD_PLOTSETTINGS
350
19
  3
ACAD_PLOTSTYLENAME
350
E
  3
ACAD_SCALELIST
350
E54
  3
ACAD_SECTIONVIEWSTYLE
350
E8C
  3
ACAD_TABLESTYLE
350
E79
  3
ACAD_VISUALSTYLE
350
E3B
  3
AcadDim
350
6E9
  3
ACDB_RECOMPOSE_DATA
350
EE4
  3
AcDbVariableDictionary
350
E82
  3
APPDATA
350
E7B
  0
SUN
  5
E7C
330
E3A
100
AcDbSun
 90
        1
290
     0
 63
     7
421
 16777215
 40
1.0
291
     1
 91
  2455826
 92
 54000000
292
     0
 70
     2
 71
   256
280
     1
  0
DICTIONARY
  5
A3C
330
A3B
100
AcDbDictionary
280
     1
281
     1
  3
ACAD_DIMASSOC
360
A3D
  0
DICTIONARY
  5
A46
330
A45
100
AcDbDictionary
280
     1
281
     1
  3
ACAD_DIMASSOC
360
A47
  0
DICTIONARY
  5
A4B
330
A4A
100
AcDbDictionary
280
     1
281
     1
  3
ACAD_DIMASSOC
360
A4C
  0
DICTIONARY
  5
A56
330
A55
100
AcDbDictionary
280
     1
281
     1
  3
ACAD_DIMASSOC
360
A57
  0
DICTIONARY
  5
A59
330
A58
100
AcDbDictionary
280
     1
281
     1
  3
ACAD_DIMASSOC
360
A5A
  0
DICTIONARY
  5
E1E
330
E11
100
AcDbDictionary
280
     1
281
     1
  3
ACAD_DIMASSOC
360
E28
  0
DICTIONARY
  5
1C
102
{ACAD_REACTORS
330
C
102
}
330
C
100
AcDbDictionary
281
     1
  0
DICTIONARY
  5
E8B
102
{ACAD_REACTORS
330
C
102
}
330
C
100
AcDbDictionary
281
     1
  0
DICTIONARY
  5
D
102
{ACAD_REACTORS
330
C
102
}
330
C
100
AcDbDictionary
281
     1
  0
RASTERVARIABLES
  5
E7D
102
{ACAD_REACTORS
330
C
102
}
330
C
100
AcDbRasterVariables
 90
        0
 70
     1
 71
     1
 72
     1
  0
DICTIONARY
  5
1A
102
{ACAD_REACTORS
330
C
102
}
330
C
100
AcDbDictionary
281
     1
  3
Model
350
24
  3
Sheet1
350
E7F
  0
DICTIONARY
  5
1B
102
{ACAD_REACTORS
330
C
102
}
330
C
100
AcDbDictionary
281
     1
  3
ByBlock
350
E77
  3
ByLayer
350
E76
  3
Global
350
E78
  0
DICTIONARY
  5
E88
102
{ACAD_REACTORS
330
C
102
}
330
C
100
AcDbDictionary
281
     1
  0
DICTIONARY
  5
17
102
{ACAD_REACTORS
330
C
102
}
330
C
100
AcDbDictionary
281
     1
  3
Standard
350
18
  0
DICTIONARY
  5
19
102
{ACAD_REACTORS
330
C
102
}
330
C
100
AcDbDictionary
281
     1
  0
ACDBDICTIONARYWDFLT
  5
E
102
{ACAD_REACTORS
330
C
102
}
330
C
100
AcDbDictionary
281
     1
  3
Normal
350
F
100
AcDbDictionaryWithDefault
340
F
  0
DICTIONARY
  5
E54
102
{ACAD_REACTORS
330
C
102
}
330
C
100
AcDbDictionary
281
     1
  3
A0
350
E55
  3
A1
350
E56
  3
A2
350
E57
  3
A3
350
E58
  3
A4
350
E59
  3
A5
350
E5A
  3
A6
350
E5B
  3
A7
350
E5C
  3
A8
350
E5D
  3
A9
350
E5E
  3
B0
350
E5F
  3
B1
350
E60
  3
B2
350
E61
  3
B3
350
E62
  3
B4
350
E63
  3
B5
350
E64
  3
B6
350
E65
  3
B7
350
E66
  3
B8
350
E67
  3
B9
350
E68
  3
C0
350
E69
  3
C1
350
E6A
  3
C2
350
E6B
  3
C3
350
E6C
  3
C4
350
E6D
  3
C5
350
E6E
  3
C6
350
E6F
  3
C7
350
E70
  3
C8
350
E71
  3
C9
350
E72
  3
D0
350
E73
  3
D1
350
E74
  3
D2
350
E75
  0
DICTIONARY
  5
E8C
102
{ACAD_REACTORS
330
C
102
}
330
C
100
AcDbDictionary
281
     1
  0
DICTIONARY
  5
E79
102
{ACAD_REACTORS
330
C
102
}
330
C
100
AcDbDictionary
281
     1
  3
Standard
350
E7A
  0
DICTIONARY
  5
E3B
102
{ACAD_REACTORS
330
C
102
}
330
C
100
AcDbDictionary
281
     1
  3
2dWireframe
350
E40
  3
Basic
350
E43
  3
Brighten
350
E47
  3
ColorChange
350
E4B
  3
Conceptual
350
E45
  3
Dim
350
E46
  3
EdgeColorOff
350
E4E
  3
Facepattern
350
E4A
  3
Flat
350
E3C
  3
FlatWithEdges
350
E3D
  3
Gouraud
350
E3E
  3
GouraudWithEdges
350
E3F
  3
Hidden
350
E42
  3
JitterOff
350
E4C
  3
Linepattern
350
E49
  3
OverhangOff
350
E4D
  3
Realistic
350
E44
  3
Shaded
350
E53
  3
Shaded with edges
350
E52
  3
Shades of Gray
350
E4F
  3
Sketchy
350
E50
  3
Thicken
350
E48
  3
Wireframe
350
E41
  3
X-Ray
350
E51
  0
XRECORD
  5
6E9
102
{ACAD_REACTORS
330
C
102
}
330
C
100
AcDbXrecord
280
     1
 90
   990106
  3

 60
     0
 61
     0
 62
     1
 63
     3
 64
     1
 65
     0
 66
     0
 67
     3
 68
     1
 69
     0
 70
     0
 71
     0
 72
     0
 40
0.0
170
     2
  0
XRECORD
  5
EE4
102
{ACAD_REACTORS
330
C
102
}
330
C
100
AcDbXrecord
280
     1
 90
        1
330
E7A
  0
DICTIONARY
  5
E82
102
{ACAD_REACTORS
330
C
102
}
330
C
100
AcDbDictionary
281
     1
  3
CANNOSCALE
350
E83
  3
CTABLESTYLE
350
E87
  3
MSLTSCALE
350
E89
  3
XCLIPFRAME
350
E8A
  0
DICTIONARY
  5
E7B
102
{ACAD_REACTORS
330
C
102
}
330
C
100
AcDbDictionary
281
     1
  0
DIMASSOC
  5
A3D
102
{ACAD_REACTORS
330
A3C
102
}
330
A3C
100
AcDbDimAssoc
330
A3B
 90
        3
 70
     0
 71
     0
  1
AcDbOsnapPointRef
 72
     6
331
A5E
 73
     2
 91
        3
 40
0.5000000000000031
 10
0.0
 20
0.0
 30
0.0
332
A6D
 74
     2
 92
        0
 75
     0
  1
AcDbOsnapPointRef
 72
     6
331
A5E
 73
     2
 91
        6
 40
0.5000000000000032
 10
0.0
 20
0.0
 30
0.0
332
A6D
 74
     2
 92
        0
 75
     0
  0
DIMASSOC
  5
A47
102
{ACAD_REACTORS
330
A46
102
}
330
A46
100
AcDbDimAssoc
330
A45
 90
        3
 70
     0
 71
     0
  1
AcDbOsnapPointRef
 72
    13
331
A77
 73
     2
 91
        0
 40
0.0
 10
0.0
 20
0.0
 30
2.000000000000000E+50
 75
     0
  1
AcDbOsnapPointRef
 72
     1
331
A77
 73
     2
 91
        0
 40
1.0
 10
0.0
 20
0.0
 30
2.000000000000000E+50
 75
     0
  0
DIMASSOC
  5
A4C
102
{ACAD_REACTORS
330
A4B
102
}
330
A4B
100
AcDbDimAssoc
330
A4A
 90
        3
 70
     0
 71
     0
  1
AcDbOsnapPointRef
 72
     5
331
A6F
 73
     2
 91
        0
 40
3.141592653589793
 10
0.0
 20
0.0
 30
0.0
 75
     0
  1
AcDbOsnapPointRef
 72
     5
331
A6F
 73
     2
 91
        0
 40
0.0
 10
0.0
 20
0.0
 30
0.0
 75
     0
  0
DIMASSOC
  5
A57
102
{ACAD_REACTORS
330
A56
102
}
330
A56
100
AcDbDimAssoc
330
A55
 90
        3
 70
     0
 71
     0
  1
AcDbOsnapPointRef
 72
     2
331
A66
 73
     2
 91
        0
 40
4.712389023153539
 10
0.0
 20
0.0
 30
0.0
 75
     0
  1
AcDbOsnapPointRef
 72
    13
331
A79
 73
     2
 91
        0
 40
0.0
 10
0.0
 20
0.0
 30
2.000000000000000E+50
 75
     0
  0
DIMASSOC
  5
A5A
102
{ACAD_REACTORS
330
A59
102
}
330
A59
100
AcDbDimAssoc
330
A58
 90
        3
 70
     0
 71
     0
  1
AcDbOsnapPointRef
 72
     1
331
A77
 73
     2
 91
        0
 40
1.0
 10
0.0
 20
0.0
 30
2.000000000000000E+50
 75
     0
  1
AcDbOsnapPointRef
 72
    13
331
A79
 73
     2
 91
        0
 40
0.0
 10
0.0
 20
0.0
 30
2.000000000000000E+50
 75
     0
  0
DIMASSOC
  5
E28
102
{ACAD_REACTORS
330
E1E
102
}
330
E1E
100
AcDbDimAssoc
330
E11
 90
        2
 70
     0
 71
     0
  1
AcDbOsnapPointRef
 72
     1
331
A65
 73
     2
 91
        1
 40
1.0
 10
0.0
 20
0.0
 30
2.000000000000000E+50
 75
     0
  0
LAYOUT
  5
24
102
{ACAD_REACTORS
330
1A
102
}
330
1A
100
AcDbPlotSettings
  1

  2
\\SF05\Brother HL-1440 series
  4
A4
  6

 40
6.72041654586792
 41
5.027085304260254
 42
6.889755249023438
 43
5.027069091796875
 44
209.9733276367188
 45
296.9259948730469
 46
-6.82
 47
-5.06
 48
0.0
 49
0.0
140
297.0000000000001
141
210.0
142
1.0
143
1.0
 70
 11956
 72
     1
 73
     1
 74
     4
  7

 75
    16
 76
     1
 77
     2
 78
   300
147
1.0
148
0.0
149
0.0
100
AcDbLayout
  1
Model
 70
     1
 71
     0
 10
0.0
 20
0.0
 11
12.0
 21
9.0
 12
0.0
 22
0.0
 32
0.0
 14
67.36736815026826
 24
59.38045002622956
 34
0.0
 15
177.5601136420771
 25
196.9279016005944
 35
0.0
146
0.0
 13
0.0
 23
0.0
 33
0.0
 16
1.0
 26
0.0
 36
0.0
 17
0.0
 27
1.0
 37
0.0
 76
     0
330
21
331
E3A
  0
LAYOUT
  5
E7F
102
{ACAD_REACTORS
330
1A
102
}
330
1A
100
AcDbPlotSettings
  1

  2
none_device
  4

  6

 40
0.0
 41
0.0
 42
0.0
 43
0.0
 44
0.0
 45
0.0
 46
0.0
 47
0.0
 48
0.0
 49
0.0
140
0.0
141
0.0
142
1.0
143
1.0
 70
   688
 72
     1
 73
     0
 74
     5
  7

 75
    16
 76
     0
 77
     2
 78
   300
147
1.0
148
0.0
149
0.0
100
AcDbLayout
  1
Sheet1
 70
     1
 71
     1
 10
0.0
 20
0.0
 11
0.0
 21
0.0
 12
0.0
 22
0.0
 32
0.0
 14
0.0
 24
0.0
 34
0.0
 15
0.0
 25
0.0
 35
0.0
146
0.0
 13
0.0
 23
0.0
 33
0.0
 16
1.0
 26
0.0
 36
0.0
 17
0.0
 27
1.0
 37
0.0
 76
     0
330
E7E
  0
MATERIAL
  5
E77
102
{ACAD_REACTORS
330
1B
102
}
330
1B
100
AcDbMaterial
  1
ByBlock
 72
     1
 94
      127
  0
MATERIAL
  5
E76
102
{ACAD_REACTORS
330
1B
102
}
330
1B
100
AcDbMaterial
  1
ByLayer
 72
     1
 94
      127
  0
MATERIAL
  5
E78
102
{ACAD_REACTORS
330
1B
102
}
330
1B
100
AcDbMaterial
  1
Global
 72
     1
 94
      127
  0
MLINESTYLE
  5
18
102
{ACAD_REACTORS
330
17
102
}
330
17
100
AcDbMlineStyle
  2
STANDARD
 70
     0
  3

 62
   256
 51
90.0
 52
90.0
 71
     2
 49
0.5
 62
   256
  6
BYLAYER
 49
-0.5
 62
   256
  6
BYLAYER
  0
ACDBPLACEHOLDER
  5
F
102
{ACAD_REACTORS
330
E
102
}
330
E
  0
SCALE
  5
E55
102
{ACAD_REACTORS
330
E54
102
}
330
E54
100
AcDbScale
 70
     0
300
1:1
140
1.0
141
1.0
290
     1
  0
SCALE
  5
E56
102
{ACAD_REACTORS
330
E54
102
}
330
E54
100
AcDbScale
 70
     0
300
1:2
140
1.0
141
2.0
290
     0
  0
SCALE
  5
E57
102
{ACAD_REACTORS
330
E54
102
}
330
E54
100
AcDbScale
 70
     0
300
1:4
140
1.0
141
4.0
290
     0
  0
SCALE
  5
E58
102
{ACAD_REACTORS
330
E54
102
}
330
E54
100
AcDbScale
 70
     0
300
1:5
140
1.0
141
5.0
290
     0
  0
SCALE
  5
E59
102
{ACAD_REACTORS
330
E54
102
}
330
E54
100
AcDbScale
 70
     0
300
1:8
140
1.0
141
8.0
290
     0
  0
SCALE
  5
E5A
102
{ACAD_REACTORS
330
E54
102
}
330
E54
100
AcDbScale
 70
     0
300
1:10
140
1.0
141
10.0
290
     0
  0
SCALE
  5
E5B
102
{ACAD_REACTORS
330
E54
102
}
330
E54
100
AcDbScale
 70
     0
300
1:16
140
1.0
141
16.0
290
     0
  0
SCALE
  5
E5C
102
{ACAD_REACTORS
330
E54
102
}
330
E54
100
AcDbScale
 70
     0
300
1:20
140
1.0
141
20.0
290
     0
  0
SCALE
  5
E5D
102
{ACAD_REACTORS
330
E54
102
}
330
E54
100
AcDbScale
 70
     0
300
1:30
140
1.0
141
30.0
290
     0
  0
SCALE
  5
E5E
102
{ACAD_REACTORS
330
E54
102
}
330
E54
100
AcDbScale
 70
     0
300
1:40
140
1.0
141
40.0
290
     0
  0
SCALE
  5
E5F
102
{ACAD_REACTORS
330
E54
102
}
330
E54
100
AcDbScale
 70
     0
300
1:50
140
1.0
141
50.0
290
     0
  0
SCALE
  5
E60
102
{ACAD_REACTORS
330
E54
102
}
330
E54
100
AcDbScale
 70
     0
300
1:100
140
1.0
141
100.0
290
     0
  0
SCALE
  5
E61
102
{ACAD_REACTORS
330
E54
102
}
330
E54
100
AcDbScale
 70
     0
300
2:1
140
2.0
141
1.0
290
     0
  0
SCALE
  5
E62
102
{ACAD_REACTORS
330
E54
102
}
330
E54
100
AcDbScale
 70
     0
300
4:1
140
4.0
141
1.0
290
     0
  0
SCALE
  5
E63
102
{ACAD_REACTORS
330
E54
102
}
330
E54
100
AcDbScale
 70
     0
300
8:1
140
8.0
141
1.0
290
     0
  0
SCALE
  5
E64
102
{ACAD_REACTORS
330
E54
102
}
330
E54
100
AcDbScale
 70
     0
300
10:1
140
10.0
141
1.0
290
     0
  0
SCALE
  5
E65
102
{ACAD_REACTORS
330
E54
102
}
330
E54
100
AcDbScale
 70
     0
300
100:1
140
100.0
141
1.0
290
     0
  0
SCALE
  5
E66
102
{ACAD_REACTORS
330
E54
102
}
330
E54
100
AcDbScale
 70
     0
300
1/128" = 1'-0"
140
0.0078125
141
12.0
290
     0
  0
SCALE
  5
E67
102
{ACAD_REACTORS
330
E54
102
}
330
E54
100
AcDbScale
 70
     0
300
1/64" = 1'-0"
140
0.015625
141
12.0
290
     0
  0
SCALE
  5
E68
102
{ACAD_REACTORS
330
E54
102
}
330
E54
100
AcDbScale
 70
     0
300
1/32" = 1'-0"
140
0.03125
141
12.0
290
     0
  0
SCALE
  5
E69
102
{ACAD_REACTORS
330
E54
102
}
330
E54
100
AcDbScale
 70
     0
300
1/16" = 1'-0"
140
0.0625
141
12.0
290
     0
  0
SCALE
  5
E6A
102
{ACAD_REACTORS
330
E54
102
}
330
E54
100
AcDbScale
 70
     0
300
3/32" = 1'-0"
140
0.09375
141
12.0
290
     0
  0
SCALE
  5
E6B
102
{ACAD_REACTORS
330
E54
102
}
330
E54
100
AcDbScale
 70
     0
300
1/8" = 1'-0"
140
0.125
141
12.0
290
     0
  0
SCALE
  5
E6C
102
{ACAD_REACTORS
330
E54
102
}
330
E54
100
AcDbScale
 70
     0
300
3/16" = 1'-0"
140
0.1875
141
12.0
290
     0
  0
SCALE
  5
E6D
102
{ACAD_REACTORS
330
E54
102
}
330
E54
100
AcDbScale
 70
     0
300
1/4" = 1'-0"
140
0.25
141
12.0
290
     0
  0
SCALE
  5
E6E
102
{ACAD_REACTORS
330
E54
102
}
330
E54
100
AcDbScale
 70
     0
300
3/8" = 1'-0"
140
0.375
141
12.0
290
     0
  0
SCALE
  5
E6F
102
{ACAD_REACTORS
330
E54
102
}
330
E54
100
AcDbScale
 70
     0
300
1/2" = 1'-0"
140
0.5
141
12.0
290
     0
  0
SCALE
  5
E70
102
{ACAD_REACTORS
330
E54
102
}
330
E54
100
AcDbScale
 70
     0
300
3/4" = 1'-0"
140
0.75
141
12.0
290
     0
  0
SCALE
  5
E71
102
{ACAD_REACTORS
330
E54
102
}
330
E54
100
AcDbScale
 70
     0
300
1" = 1'-0"
140
1.0
141
12.0
290
     0
  0
SCALE
  5
E72
102
{ACAD_REACTORS
330
E54
102
}
330
E54
100
AcDbScale
 70
     0
300
1-1/2" = 1'-0"
140
1.5
141
12.0
290
     0
  0
SCALE
  5
E73
102
{ACAD_REACTORS
330
E54
102
}
330
E54
100
AcDbScale
 70
     0
300
3" = 1'-0"
140
3.0
141
12.0
290
     0
  0
SCALE
  5
E74
102
{ACAD_REACTORS
330
E54
102
}
330
E54
100
AcDbScale
 70
     0
300
6" = 1'-0"
140
6.0
141
12.0
290
     0
  0
SCALE
  5
E75
102
{ACAD_REACTORS
330
E54
102
}
330
E54
100
AcDbScale
 70
     0
300
1'-0" = 1'-0"
140
12.0
141
12.0
290
     0
  0
TABLESTYLE
  5
E7A
102
{ACAD_REACTORS
330
E79
102
}
102
{ACAD_XDICTIONARY
360
EE2
102
}
330
E79
100
AcDbTableStyle
  3
Standard
 70
     0
 71
     0
 40
0.06
 41
0.06
280
     0
281
     0
  7
Standard
140
4.5
170
     2
 62
     0
 63
   257
283
     0
 90
        4
 91
        0
  1

274
    -2
284
     1
 64
     0
275
    -2
285
     1
 65
     0
276
    -2
286
     1
 66
     0
277
    -2
287
     1
 67
     0
278
    -2
288
     1
 68
     0
279
    -2
289
     1
 69
     0
  7
Standard
140
6.0
170
     5
 62
     0
 63
   257
283
     0
 90
        4
 91
        0
  1

274
    -2
284
     1
 64
     0
275
    -2
285
     1
 65
     0
276
    -2
286
     1
 66
     0
277
    -2
287
     1
 67
     0
278
    -2
288
     1
 68
     0
279
    -2
289
     1
 69
     0
  7
Standard
140
4.5
170
     5
 62
     0
 63
   257
283
     0
 90
        4
 91
        0
  1

274
    -2
284
     1
 64
     0
275
    -2
285
     1
 65
     0
276
    -2
286
     1
 66
     0
277
    -2
287
     1
 67
     0
278
    -2
288
     1
 68
     0
279
    -2
289
     1
 69
     0
  0
VISUALSTYLE
  5
E40
102
{ACAD_REACTORS
330
E3B
102
}
330
E3B
100
AcDbVisualStyle
  2
2dWireframe
 70
     4
177
     3
291
     0
 70
    58
 90
        0
176
     1
 90
        2
176
     1
 90
        0
176
     1
 90
        0
176
     1
 40
0.6
176
     1
 40
30.0
176
     1
 62
     7
420
 16777215
176
     1
 90
        1
176
     1
 90
        4
176
     1
 62
     7
176
     1
 62
   257
176
     1
 90
        1
176
     1
 90
        1
176
     1
 40
1.0
176
     1
 90
        0
176
     1
 62
   257
176
     1
 40
1.0
176
     1
 90
        1
176
     1
 90
        6
176
     1
 90
        2
176
     1
 62
     7
176
     1
 90
        5
176
     1
 90
        0
176
     1
 90
        0
176
     1
290
     0
176
     1
 90
        1
176
     1
 40
0.0
176
     1
 90
        0
176
     1
290
     1
176
     1
290
     1
176
     1
290
     0
176
     1
290
     0
176
     1
290
     0
176
     1
290
     0
176
     1
290
     0
176
     1
290
     0
176
     1
290
     0
176
     1
 90
       50
176
     1
 40
0.0
176
     1
 40
1.0
176
     1
 90
        0
176
     1
 62
    18
420
        0
176
     1
 90
       50
176
     1
 90
        3
176
     1
 62
     5
420
      255
176
     1
290
     0
176
     1
 90
       50
176
     1
 90
       50
176
     1
 90
       50
176
     1
290
     0
176
     1
 90
       50
176
     1
 62
   256
176
     0
 40
1.0
176
     0
 90
        2
176
     1
  1
strokes_ogs.tif
176
     1
290
     0
176
     1
 40
1.0
176
     1
 40
1.0
176
     1
  0
VISUALSTYLE
  5
E43
102
{ACAD_REACTORS
330
E3B
102
}
330
E3B
100
AcDbVisualStyle
  2
Basic
 70
     7
177
     3
291
     1
 70
    58
 90
        1
176
     1
 90
        0
176
     1
 90
        1
176
     1
 90
        0
176
     1
 40
0.6
176
     1
 40
30.0
176
     1
 62
     7
420
 16777215
176
     1
 90
        0
176
     1
 90
        4
176
     1
 62
     7
176
     1
 62
   257
176
     1
 90
        1
176
     1
 90
        1
176
     1
 40
1.0
176
     1
 90
        8
176
     1
 62
     7
176
     1
 40
1.0
176
     1
 90
        1
176
     1
 90
        6
176
     1
 90
        2
176
     1
 62
     7
176
     1
 90
        5
176
     1
 90
        0
176
     1
 90
        0
176
     1
290
     0
176
     1
 90
        1
176
     1
 40
0.0
176
     1
 90
        0
176
     1
290
     0
176
     1
290
     1
176
     1
290
     1
176
     1
290
     0
176
     1
290
     0
176
     1
290
     0
176
     1
290
     0
176
     1
290
     0
176
     1
290
     0
176
     1
 90
       50
176
     1
 40
0.0
176
     1
 40
1.0
176
     1
 90
        0
176
     1
 62
    18
420
        0
176
     1
 90
       50
176
     1
 90
        3
176
     1
 62
     5
420
      255
176
     1
290
     0
176
     1
 90
       50
176
     1
 90
       50
176
     1
 90
       50
176
     1
290
     0
176
     1
 90
       50
176
     1
 62
   256
176
     0
 40
1.0
176
     0
 90
        2
176
     1
  1
strokes_ogs.tif
176
     1
290
     0
176
     1
 40
1.0
176
     1
 40
1.0
176
     1
  0
VISUALSTYLE
  5
E47
102
{ACAD_REACTORS
330
E3B
102
}
330
E3B
100
AcDbVisualStyle
  2
Brighten
 70
    12
177
     3
291
     1
 70
    58
 90
        2
176
     1
 90
        2
176
     1
 90
        0
176
     1
 90
        0
176
     1
 40
0.6
176
     1
 40
30.0
176
     1
 62
     7
420
 16777215
176
     1
 90
        1
176
     1
 90
        4
176
     1
 62
     7
176
     1
 62
   257
176
     1
 90
        1
176
     1
 90
        1
176
     1
 40
1.0
176
     1
 90
        8
176
     1
 62
     7
176
     1
 40
1.0
176
     1
 90
        1
176
     1
 90
        6
176
     1
 90
        2
176
     1
 62
     7
176
     1
 90
        5
176
     1
 90
        0
176
     1
 90
        0
176
     1
290
     0
176
     1
 90
        1
176
     1
 40
50.0
176
     1
 90
        0
176
     1
290
     0
176
     1
290
     1
176
     1
290
     1
176
     1
290
     0
176
     1
290
     0
176
     1
290
     0
176
     1
290
     0
176
     1
290
     0
176
     1
290
     0
176
     1
 90
       50
176
     1
 40
0.0
176
     1
 40
1.0
176
     1
 90
        0
176
     1
 62
    18
420
        0
176
     1
 90
       50
176
     1
 90
        3
176
     1
 62
     5
420
      255
176
     1
290
     0
176
     1
 90
       50
176
     1
 90
       50
176
     1
 90
       50
176
     1
290
     0
176
     1
 90
       50
176
     1
 62
   256
176
     0
 40
1.0
176
     0
 90
        2
176
     1
  1
strokes_ogs.tif
176
     1
290
     0
176
     1
 40
1.0
176
     1
 40
1.0
176
     1
  0
VISUALSTYLE
  5
E4B
102
{ACAD_REACTORS
330
E3B
102
}
330
E3B
100
AcDbVisualStyle
  2
ColorChange
 70
    16
177
     3
291
     1
 70
    58
 90
        2
176
     1
 90
        2
176
     1
 90
        3
176
     1
 90
        0
176
     1
 40
0.6
176
     1
 40
30.0
176
     1
 62
     8
420
  8421504
176
     1
 90
        1
176
     1
 90
        4
176
     1
 62
     7
176
     1
 62
   257
176
     1
 90
        1
176
     1
 90
        1
176
     1
 40
1.0
176
     1
 90
        8
176
     1
 62
     8
420
  8421504
176
     1
 40
1.0
176
     1
 90
        1
176
     1
 90
        6
176
     1
 90
        2
176
     1
 62
     7
176
     1
 90
        5
176
     1
 90
        0
176
     1
 90
        0
176
     1
290
     0
176
     1
 90
        1
176
     1
 40
0.0
176
     1
 90
        0
176
     1
290
     0
176
     1
290
     1
176
     1
290
     1
176
     1
290
     0
176
     1
290
     0
176
     1
290
     0
176
     1
290
     0
176
     1
290
     0
176
     1
290
     0
176
     1
 90
       50
176
     1
 40
0.0
176
     1
 40
1.0
176
     1
 90
        0
176
     1
 62
    18
420
        0
176
     1
 90
       50
176
     1
 90
        3
176
     1
 62
     5
420
      255
176
     1
290
     0
176
     1
 90
       50
176
     1
 90
       50
176
     1
 90
       50
176
     1
290
     0
176
     1
 90
       50
176
     1
 62
   256
176
     0
 40
1.0
176
     0
 90
        2
176
     1
  1
strokes_ogs.tif
176
     1
290
     0
176
     1
 40
1.0
176
     1
 40
1.0
176
     1
  0
VISUALSTYLE
  5
E45
102
{ACAD_REACTORS
330
E3B
102
}
330
E3B
100
AcDbVisualStyle
  2
Conceptual
 70
     9
177
     3
291
     0
 70
    58
 90
        3
176
     1
 90
        2
176
     1
 90
        0
176
     1
 90
        0
176
     1
 40
0.6
176
     1
 40
30.0
176
     1
 62
     7
420
 16777215
176
     1
 90
        2
176
     1
 90
        2
176
     1
 62
     7
176
     1
 62
   257
176
     1
 90
        1
176
     1
 90
        1
176
     1
 40
179.0
176
     1
 90
        8
176
     1
 62
     7
176
     1
 40
1.0
176
     1
 90
        1
176
     1
 90
        6
176
     1
 90
        2
176
     1
 62
     7
176
     1
 90
        3
176
     1
 90
        0
176
     1
 90
        0
176
     1
290
     0
176
     1
 90
        1
176
     1
 40
0.0
176
     1
 90
        0
176
     1
290
     0
176
     1
290
     1
176
     1
290
     1
176
     1
290
     0
176
     1
290
     0
176
     1
290
     0
176
     1
290
     0
176
     1
290
     0
176
     1
290
     0
176
     1
 90
       50
176
     1
 40
0.0
176
     1
 40
1.0
176
     1
 90
        0
176
     1
 62
    18
420
        0
176
     1
 90
       50
176
     1
 90
        3
176
     1
 62
     5
420
      255
176
     1
290
     0
176
     1
 90
       50
176
     1
 90
       50
176
     1
 90
       50
176
     1
290
     0
176
     1
 90
       50
176
     1
 62
   256
176
     0
 40
1.0
176
     0
 90
        2
176
     1
  1
strokes_ogs.tif
176
     1
290
     0
176
     1
 40
1.0
176
     1
 40
1.0
176
     1
  0
VISUALSTYLE
  5
E46
102
{ACAD_REACTORS
330
E3B
102
}
330
E3B
100
AcDbVisualStyle
  2
Dim
 70
    11
177
     3
291
     1
 70
    58
 90
        2
176
     1
 90
        2
176
     1
 90
        0
176
     1
 90
        0
176
     1
 40
0.6
176
     1
 40
30.0
176
     1
 62
     7
420
 16777215
176
     1
 90
        1
176
     1
 90
        4
176
     1
 62
     7
176
     1
 62
   257
176
     1
 90
        1
176
     1
 90
        1
176
     1
 40
1.0
176
     1
 90
        8
176
     1
 62
     7
176
     1
 40
1.0
176
     1
 90
        1
176
     1
 90
        6
176
     1
 90
        2
176
     1
 62
     7
176
     1
 90
        5
176
     1
 90
        0
176
     1
 90
        0
176
     1
290
     0
176
     1
 90
        1
176
     1
 40
-50.0
176
     1
 90
        0
176
     1
290
     0
176
     1
290
     1
176
     1
290
     1
176
     1
290
     0
176
     1
290
     0
176
     1
290
     0
176
     1
290
     0
176
     1
290
     0
176
     1
290
     0
176
     1
 90
       50
176
     1
 40
0.0
176
     1
 40
1.0
176
     1
 90
        0
176
     1
 62
    18
420
        0
176
     1
 90
       50
176
     1
 90
        3
176
     1
 62
     5
420
      255
176
     1
290
     0
176
     1
 90
       50
176
     1
 90
       50
176
     1
 90
       50
176
     1
290
     0
176
     1
 90
       50
176
     1
 62
   256
176
     0
 40
1.0
176
     0
 90
        2
176
     1
  1
strokes_ogs.tif
176
     1
290
     0
176
     1
 40
1.0
176
     1
 40
1.0
176
     1
  0
VISUALSTYLE
  5
E4E
102
{ACAD_REACTORS
330
E3B
102
}
330
E3B
100
AcDbVisualStyle
  2
EdgeColorOff
 70
    22
177
     3
291
     1
 70
    58
 90
        2
176
     0
 90
        2
176
     0
 90
        0
176
     0
 90
        0
176
     0
 40
0.6
176
     0
 40
30.0
176
     0
 62
     7
420
 16777215
176
     0
 90
        1
176
     0
 90
        4
176
     0
 62
     7
176
     0
 62
   257
176
     0
 90
        1
176
     0
 90
        1
176
     0
 40
1.0
176
     0
 90
        8
176
     2
 62
     7
176
     0
 40
1.0
176
     0
 90
        1
176
     0
 90
        6
176
     0
 90
        2
176
     0
 62
     7
176
     0
 90
        5
176
     0
 90
        0
176
     0
 90
        0
176
     0
290
     0
176
     0
 90
        1
176
     0
 40
0.0
176
     0
 90
        0
176
     0
290
     0
176
     0
290
     1
176
     0
290
     1
176
     0
290
     0
176
     0
290
     0
176
     0
290
     0
176
     0
290
     0
176
     0
290
     0
176
     0
290
     0
176
     0
 90
       50
176
     0
 40
0.0
176
     0
 40
1.0
176
     0
 90
        0
176
     0
 62
    18
420
        0
176
     0
 90
       50
176
     0
 90
        3
176
     0
 62
     5
420
      255
176
     0
290
     0
176
     0
 90
       50
176
     0
 90
       50
176
     0
 90
       50
176
     0
290
     0
176
     0
 90
       50
176
     0
 62
   256
176
     0
 40
1.0
176
     0
 90
        2
176
     0
  1
strokes_ogs.tif
176
     0
290
     0
176
     0
 40
1.0
176
     0
 40
1.0
176
     0
  0
VISUALSTYLE
  5
E4A
102
{ACAD_REACTORS
330
E3B
102
}
330
E3B
100
AcDbVisualStyle
  2
Facepattern
 70
    15
177
     3
291
     1
 70
    58
 90
        2
176
     1
 90
        2
176
     1
 90
        0
176
     1
 90
        0
176
     1
 40
0.6
176
     1
 40
30.0
176
     1
 62
     7
420
 16777215
176
     1
 90
        1
176
     1
 90
        4
176
     1
 62
     7
176
     1
 62
   257
176
     1
 90
        1
176
     1
 90
        1
176
     1
 40
1.0
176
     1
 90
        8
176
     1
 62
     7
176
     1
 40
1.0
176
     1
 90
        1
176
     1
 90
        6
176
     1
 90
        2
176
     1
 62
     7
176
     1
 90
        5
176
     1
 90
        0
176
     1
 90
        0
176
     1
290
     0
176
     1
 90
        1
176
     1
 40
0.0
176
     1
 90
        0
176
     1
290
     0
176
     1
290
     1
176
     1
290
     1
176
     1
290
     0
176
     1
290
     0
176
     1
290
     0
176
     1
290
     0
176
     1
290
     0
176
     1
290
     0
176
     1
 90
       50
176
     1
 40
0.0
176
     1
 40
1.0
176
     1
 90
        0
176
     1
 62
    18
420
        0
176
     1
 90
       50
176
     1
 90
        3
176
     1
 62
     5
420
      255
176
     1
290
     0
176
     1
 90
       50
176
     1
 90
       50
176
     1
 90
       50
176
     1
290
     0
176
     1
 90
       50
176
     1
 62
   256
176
     0
 40
1.0
176
     0
 90
        2
176
     1
  1
strokes_ogs.tif
176
     1
290
     0
176
     1
 40
1.0
176
     1
 40
1.0
176
     1
  0
VISUALSTYLE
  5
E3C
102
{ACAD_REACTORS
330
E3B
102
}
330
E3B
100
AcDbVisualStyle
  2
Flat
 70
     0
177
     3
291
     1
 70
    58
 90
        2
176
     1
 90
        1
176
     1
 90
        1
176
     1
 90
        2
176
     1
 40
0.6
176
     1
 40
30.0
176
     1
 62
     7
420
 16777215
176
     1
 90
        0
176
     1
 90
        0
176
     1
 62
     7
176
     1
 62
   257
176
     1
 90
        1
176
     1
 90
        1
176
     1
 40
1.0
176
     1
 90
        8
176
     1
 62
     7
176
     1
 40
1.0
176
     1
 90
        1
176
     1
 90
        6
176
     1
 90
        2
176
     1
 62
     7
176
     1
 90
        5
176
     1
 90
        0
176
     1
 90
        0
176
     1
290
     0
176
     1
 90
       13
176
     1
 40
0.0
176
     1
 90
        0
176
     1
290
     0
176
     1
290
     1
176
     1
290
     1
176
     1
290
     0
176
     1
290
     0
176
     1
290
     0
176
     1
290
     0
176
     1
290
     0
176
     1
290
     0
176
     1
 90
       50
176
     1
 40
0.0
176
     1
 40
1.0
176
     1
 90
        0
176
     1
 62
    18
420
        0
176
     1
 90
       50
176
     1
 90
        3
176
     1
 62
     5
420
      255
176
     1
290
     0
176
     1
 90
       50
176
     1
 90
       50
176
     1
 90
       50
176
     1
290
     0
176
     1
 90
       50
176
     1
 62
   256
176
     0
 40
1.0
176
     0
 90
        2
176
     1
  1
strokes_ogs.tif
176
     1
290
     0
176
     1
 40
1.0
176
     1
 40
1.0
176
     1
  0
VISUALSTYLE
  5
E3D
102
{ACAD_REACTORS
330
E3B
102
}
330
E3B
100
AcDbVisualStyle
  2
FlatWithEdges
 70
     1
177
     3
291
     1
 70
    58
 90
        2
176
     1
 90
        1
176
     1
 90
        1
176
     1
 90
        2
176
     1
 40
0.6
176
     1
 40
30.0
176
     1
 62
     7
420
 16777215
176
     1
 90
        1
176
     1
 90
        0
176
     1
 62
     7
176
     1
 62
   257
176
     1
 90
        1
176
     1
 90
        1
176
     1
 40
1.0
176
     1
 90
        0
176
     1
 62
   257
176
     1
 40
1.0
176
     1
 90
        1
176
     1
 90
        6
176
     1
 90
        2
176
     1
 62
     7
176
     1
 90
        5
176
     1
 90
        0
176
     1
 90
        0
176
     1
290
     0
176
     1
 90
       13
176
     1
 40
0.0
176
     1
 90
        0
176
     1
290
     0
176
     1
290
     1
176
     1
290
     1
176
     1
290
     0
176
     1
290
     0
176
     1
290
     0
176
     1
290
     0
176
     1
290
     0
176
     1
290
     0
176
     1
 90
       50
176
     1
 40
0.0
176
     1
 40
1.0
176
     1
 90
        0
176
     1
 62
    18
420
        0
176
     1
 90
       50
176
     1
 90
        3
176
     1
 62
     5
420
      255
176
     1
290
     0
176
     1
 90
       50
176
     1
 90
       50
176
     1
 90
       50
176
     1
290
     0
176
     1
 90
       50
176
     1
 62
   256
176
     0
 40
1.0
176
     0
 90
        2
176
     1
  1
strokes_ogs.tif
176
     1
290
     0
176
     1
 40
1.0
176
     1
 40
1.0
176
     1
  0
VISUALSTYLE
  5
E3E
102
{ACAD_REACTORS
330
E3B
102
}
330
E3B
100
AcDbVisualStyle
  2
Gouraud
 70
     2
177
     3
291
     1
 70
    58
 90
        2
176
     1
 90
        2
176
     1
 90
        1
176
     1
 90
        2
176
     1
 40
0.6
176
     1
 40
30.0
176
     1
 62
     7
420
 16777215
176
     1
 90
        0
176
     1
 90
        0
176
     1
 62
     7
176
     1
 62
   257
176
     1
 90
        1
176
     1
 90
        1
176
     1
 40
1.0
176
     1
 90
        0
176
     1
 62
     7
176
     1
 40
1.0
176
     1
 90
        1
176
     1
 90
        6
176
     1
 90
        2
176
     1
 62
     7
176
     1
 90
        5
176
     1
 90
        0
176
     1
 90
        0
176
     1
290
     0
176
     1
 90
       13
176
     1
 40
0.0
176
     1
 90
        0
176
     1
290
     0
176
     1
290
     1
176
     1
290
     1
176
     1
290
     0
176
     1
290
     0
176
     1
290
     0
176
     1
290
     0
176
     1
290
     0
176
     1
290
     0
176
     1
 90
       50
176
     1
 40
0.0
176
     1
 40
1.0
176
     1
 90
        0
176
     1
 62
    18
420
        0
176
     1
 90
       50
176
     1
 90
        3
176
     1
 62
     5
420
      255
176
     1
290
     0
176
     1
 90
       50
176
     1
 90
       50
176
     1
 90
       50
176
     1
290
     0
176
     1
 90
       50
176
     1
 62
   256
176
     0
 40
1.0
176
     0
 90
        2
176
     1
  1
strokes_ogs.tif
176
     1
290
     0
176
     1
 40
1.0
176
     1
 40
1.0
176
     1
  0
VISUALSTYLE
  5
E3F
102
{ACAD_REACTORS
330
E3B
102
}
330
E3B
100
AcDbVisualStyle
  2
GouraudWithEdges
 70
     3
177
     3
291
     1
 70
    58
 90
        2
176
     1
 90
        2
176
     1
 90
        1
176
     1
 90
        2
176
     1
 40
0.6
176
     1
 40
30.0
176
     1
 62
     7
420
 16777215
176
     1
 90
        1
176
     1
 90
        0
176
     1
 62
     7
176
     1
 62
   257
176
     1
 90
        1
176
     1
 90
        1
176
     1
 40
1.0
176
     1
 90
        0
176
     1
 62
   257
176
     1
 40
1.0
176
     1
 90
        1
176
     1
 90
        6
176
     1
 90
        2
176
     1
 62
     7
176
     1
 90
        5
176
     1
 90
        0
176
     1
 90
        0
176
     1
290
     0
176
     1
 90
       13
176
     1
 40
0.0
176
     1
 90
        0
176
     1
290
     0
176
     1
290
     1
176
     1
290
     1
176
     1
290
     0
176
     1
290
     0
176
     1
290
     0
176
     1
290
     0
176
     1
290
     0
176
     1
290
     0
176
     1
 90
       50
176
     1
 40
0.0
176
     1
 40
1.0
176
     1
 90
        0
176
     1
 62
    18
420
        0
176
     1
 90
       50
176
     1
 90
        3
176
     1
 62
     5
420
      255
176
     1
290
     0
176
     1
 90
       50
176
     1
 90
       50
176
     1
 90
       50
176
     1
290
     0
176
     1
 90
       50
176
     1
 62
   256
176
     0
 40
1.0
176
     0
 90
        2
176
     1
  1
strokes_ogs.tif
176
     1
290
     0
176
     1
 40
1.0
176
     1
 40
1.0
176
     1
  0
VISUALSTYLE
  5
E42
102
{ACAD_REACTORS
330
E3B
102
}
330
E3B
100
AcDbVisualStyle
  2
Hidden
 70
     6
177
     3
291
     0
 70
    58
 90
        1
176
     1
 90
        2
176
     1
 90
        2
176
     1
 90
        0
176
     1
 40
0.6
176
     1
 40
30.0
176
     1
 62
     7
420
 16777215
176
     1
 90
        2
176
     1
 90
        2
176
     1
 62
     7
176
     1
 62
   257
176
     1
 90
        2
176
     1
 90
        1
176
     1
 40
40.0
176
     1
 90
        0
176
     1
 62
   257
176
     1
 40
1.0
176
     1
 90
        1
176
     1
 90
        6
176
     1
 90
        2
176
     1
 62
     7
176
     1
 90
        3
176
     1
 90
        0
176
     1
 90
        0
176
     1
290
     0
176
     1
 90
        1
176
     1
 40
0.0
176
     1
 90
        0
176
     1
290
     0
176
     1
290
     1
176
     1
290
     1
176
     1
290
     0
176
     1
290
     0
176
     1
290
     0
176
     1
290
     0
176
     1
290
     0
176
     1
290
     0
176
     1
 90
       50
176
     1
 40
0.0
176
     1
 40
1.0
176
     1
 90
        0
176
     1
 62
    18
420
        0
176
     1
 90
       50
176
     1
 90
        3
176
     1
 62
     5
420
      255
176
     1
290
     0
176
     1
 90
       50
176
     1
 90
       50
176
     1
 90
       50
176
     1
290
     0
176
     1
 90
       50
176
     1
 62
   256
176
     0
 40
1.0
176
     0
 90
        2
176
     1
  1
strokes_ogs.tif
176
     1
290
     0
176
     1
 40
1.0
176
     1
 40
1.0
176
     1
  0
VISUALSTYLE
  5
E4C
102
{ACAD_REACTORS
330
E3B
102
}
330
E3B
100
AcDbVisualStyle
  2
JitterOff
 70
    20
177
     3
291
     1
 70
    58
 90
        2
176
     0
 90
        2
176
     0
 90
        0
176
     0
 90
        0
176
     0
 40
0.6
176
     0
 40
30.0
176
     0
 62
     7
420
 16777215
176
     0
 90
        1
176
     0
 90
        4
176
     0
 62
     7
176
     0
 62
   257
176
     0
 90
        1
176
     0
 90
        1
176
     0
 40
1.0
176
     0
 90
       10
176
     2
 62
     7
176
     0
 40
1.0
176
     0
 90
        1
176
     0
 90
        6
176
     0
 90
        2
176
     0
 62
     7
176
     0
 90
        5
176
     0
 90
        0
176
     0
 90
        0
176
     0
290
     0
176
     0
 90
        1
176
     0
 40
0.0
176
     0
 90
        0
176
     0
290
     0
176
     0
290
     1
176
     0
290
     1
176
     0
290
     0
176
     0
290
     0
176
     0
290
     0
176
     0
290
     0
176
     0
290
     0
176
     0
290
     0
176
     0
 90
       50
176
     0
 40
0.0
176
     0
 40
1.0
176
     0
 90
        0
176
     0
 62
    18
420
        0
176
     0
 90
       50
176
     0
 90
        3
176
     0
 62
     5
420
      255
176
     0
290
     0
176
     0
 90
       50
176
     0
 90
       50
176
     0
 90
       50
176
     0
290
     0
176
     0
 90
       50
176
     0
 62
   256
176
     0
 40
1.0
176
     0
 90
        2
176
     0
  1
strokes_ogs.tif
176
     0
290
     0
176
     0
 40
1.0
176
     0
 40
1.0
176
     0
  0
VISUALSTYLE
  5
E49
102
{ACAD_REACTORS
330
E3B
102
}
330
E3B
100
AcDbVisualStyle
  2
Linepattern
 70
    14
177
     3
291
     1
 70
    58
 90
        2
176
     1
 90
        2
176
     1
 90
        0
176
     1
 90
        0
176
     1
 40
0.6
176
     1
 40
30.0
176
     1
 62
     7
420
 16777215
176
     1
 90
        1
176
     1
 90
        4
176
     1
 62
     7
176
     1
 62
   257
176
     1
 90
        7
176
     1
 90
        7
176
     1
 40
1.0
176
     1
 90
        8
176
     1
 62
     7
176
     1
 40
1.0
176
     1
 90
        1
176
     1
 90
        6
176
     1
 90
        2
176
     1
 62
     7
176
     1
 90
        5
176
     1
 90
        0
176
     1
 90
        0
176
     1
290
     0
176
     1
 90
        1
176
     1
 40
0.0
176
     1
 90
        0
176
     1
290
     0
176
     1
290
     1
176
     1
290
     1
176
     1
290
     0
176
     1
290
     0
176
     1
290
     0
176
     1
290
     0
176
     1
290
     0
176
     1
290
     0
176
     1
 90
       50
176
     1
 40
0.0
176
     1
 40
1.0
176
     1
 90
        0
176
     1
 62
    18
420
        0
176
     1
 90
       50
176
     1
 90
        3
176
     1
 62
     5
420
      255
176
     1
290
     0
176
     1
 90
       50
176
     1
 90
       50
176
     1
 90
       50
176
     1
290
     0
176
     1
 90
       50
176
     1
 62
   256
176
     0
 40
1.0
176
     0
 90
        2
176
     1
  1
strokes_ogs.tif
176
     1
290
     0
176
     1
 40
1.0
176
     1
 40
1.0
176
     1
  0
VISUALSTYLE
  5
E4D
102
{ACAD_REACTORS
330
E3B
102
}
330
E3B
100
AcDbVisualStyle
  2
OverhangOff
 70
    21
177
     3
291
     1
 70
    58
 90
        2
176
     0
 90
        2
176
     0
 90
        0
176
     0
 90
        0
176
     0
 40
0.6
176
     0
 40
30.0
176
     0
 62
     7
420
 16777215
176
     0
 90
        1
176
     0
 90
        4
176
     0
 62
     7
176
     0
 62
   257
176
     0
 90
        1
176
     0
 90
        1
176
     0
 40
1.0
176
     0
 90
        9
176
     2
 62
     7
176
     0
 40
1.0
176
     0
 90
        1
176
     0
 90
        6
176
     0
 90
        2
176
     0
 62
     7
176
     0
 90
        5
176
     0
 90
        0
176
     0
 90
        0
176
     0
290
     0
176
     0
 90
        1
176
     0
 40
0.0
176
     0
 90
        0
176
     0
290
     0
176
     0
290
     1
176
     0
290
     1
176
     0
290
     0
176
     0
290
     0
176
     0
290
     0
176
     0
290
     0
176
     0
290
     0
176
     0
290
     0
176
     0
 90
       50
176
     0
 40
0.0
176
     0
 40
1.0
176
     0
 90
        0
176
     0
 62
    18
420
        0
176
     0
 90
       50
176
     0
 90
        3
176
     0
 62
     5
420
      255
176
     0
290
     0
176
     0
 90
       50
176
     0
 90
       50
176
     0
 90
       50
176
     0
290
     0
176
     0
 90
       50
176
     0
 62
   256
176
     0
 40
1.0
176
     0
 90
        2
176
     0
  1
strokes_ogs.tif
176
     0
290
     0
176
     0
 40
1.0
176
     0
 40
1.0
176
     0
  0
VISUALSTYLE
  5
E44
102
{ACAD_REACTORS
330
E3B
102
}
330
E3B
100
AcDbVisualStyle
  2
Realistic
 70
     8
177
     3
291
     0
 70
    58
 90
        2
176
     1
 90
        3
176
     1
 90
        0
176
     1
 90
        2
176
     1
 40
0.6
176
     1
 40
30.0
176
     1
 62
     7
420
 16777215
176
     1
 90
        0
176
     1
 90
        0
176
     1
 62
     7
176
     1
 62
   257
176
     1
 90
        1
176
     1
 90
        1
176
     1
 40
1.0
176
     1
 90
        8
176
     1
 62
   257
176
     1
 40
1.0
176
     1
 90
        1
176
     1
 90
        6
176
     1
 90
        2
176
     1
 62
     7
176
     1
 90
        3
176
     1
 90
        0
176
     1
 90
        0
176
     1
290
     0
176
     1
 90
       13
176
     1
 40
0.0
176
     1
 90
        0
176
     1
290
     0
176
     1
290
     1
176
     1
290
     1
176
     1
290
     0
176
     1
290
     0
176
     1
290
     0
176
     1
290
     0
176
     1
290
     0
176
     1
290
     0
176
     1
 90
       50
176
     1
 40
0.0
176
     1
 40
1.0
176
     1
 90
        0
176
     1
 62
    18
420
        0
176
     1
 90
       50
176
     1
 90
        3
176
     1
 62
     5
420
      255
176
     1
290
     0
176
     1
 90
       50
176
     1
 90
       50
176
     1
 90
       50
176
     1
290
     0
176
     1
 90
       50
176
     1
 62
   256
176
     0
 40
1.0
176
     0
 90
        2
176
     1
  1
strokes_ogs.tif
176
     1
290
     0
176
     1
 40
1.0
176
     1
 40
1.0
176
     1
  0
VISUALSTYLE
  5
E53
102
{ACAD_REACTORS
330
E3B
102
}
330
E3B
100
AcDbVisualStyle
  2
Shaded
 70
    27
177
     3
291
     0
 70
    58
 90
        2
176
     1
 90
        2
176
     1
 90
        1
176
     1
 90
        2
176
     1
 40
0.6
176
     1
 40
30.0
176
     1
 62
     7
420
 16777215
176
     1
 90
        0
176
     1
 90
        4
176
     1
 62
     7
176
     1
 62
   257
176
     1
 90
        1
176
     1
 90
        1
176
     1
 40
1.0
176
     1
 90
        8
176
     1
 62
   257
176
     1
 40
1.0
176
     1
 90
        1
176
     1
 90
        6
176
     1
 90
        2
176
     1
 62
     8
420
  7895160
176
     1
 90
        3
176
     1
 90
        0
176
     1
 90
        0
176
     1
290
     0
176
     1
 90
        5
176
     1
 40
0.0
176
     1
 90
        0
176
     1
290
     0
176
     1
290
     1
176
     1
290
     1
176
     1
290
     0
176
     1
290
     0
176
     1
290
     0
176
     1
290
     0
176
     1
290
     0
176
     1
290
     0
176
     1
 90
       50
176
     1
 40
0.0
176
     1
 40
1.0
176
     1
 90
        0
176
     1
 62
    18
420
        0
176
     1
 90
       50
176
     1
 90
        3
176
     1
 62
     5
420
      255
176
     1
290
     0
176
     1
 90
       50
176
     1
 90
       50
176
     1
 90
       50
176
     1
290
     0
176
     1
 90
       50
176
     1
 62
   256
176
     0
 40
1.0
176
     0
 90
        2
176
     1
  1
strokes_ogs.tif
176
     1
290
     0
176
     1
 40
1.0
176
     1
 40
1.0
176
     1
  0
VISUALSTYLE
  5
E52
102
{ACAD_REACTORS
330
E3B
102
}
330
E3B
100
AcDbVisualStyle
  2
Shaded with edges
 70
    26
177
     3
291
     0
 70
    58
 90
        2
176
     1
 90
        2
176
     1
 90
        1
176
     1
 90
        2
176
     1
 40
0.6
176
     1
 40
30.0
176
     1
 62
     7
420
 16777215
176
     1
 90
        1
176
     1
 90
       10
176
     1
 62
     7
176
     1
 62
   257
176
     1
 90
        2
176
     1
 90
        1
176
     1
 40
1.0
176
     1
 90
        8
176
     1
 62
   257
176
     1
 40
1.0
176
     1
 90
        1
176
     1
 90
        6
176
     1
 90
        2
176
     1
 62
     7
176
     1
 90
        3
176
     1
 90
        0
176
     1
 90
        0
176
     1
290
     0
176
     1
 90
        5
176
     1
 40
0.0
176
     1
 90
        0
176
     1
290
     0
176
     1
290
     1
176
     1
290
     1
176
     1
290
     0
176
     1
290
     0
176
     1
290
     0
176
     1
290
     0
176
     1
290
     0
176
     1
290
     0
176
     1
 90
       50
176
     1
 40
0.0
176
     1
 40
1.0
176
     1
 90
        0
176
     1
 62
    18
420
        0
176
     1
 90
       50
176
     1
 90
        3
176
     1
 62
     5
420
      255
176
     1
290
     0
176
     1
 90
       50
176
     1
 90
       50
176
     1
 90
       50
176
     1
290
     0
176
     1
 90
       50
176
     1
 62
   256
176
     0
 40
1.0
176
     0
 90
        2
176
     1
  1
strokes_ogs.tif
176
     1
290
     0
176
     1
 40
1.0
176
     1
 40
1.0
176
     1
  0
VISUALSTYLE
  5
E4F
102
{ACAD_REACTORS
330
E3B
102
}
330
E3B
100
AcDbVisualStyle
  2
Shades of Gray
 70
    23
177
     3
291
     0
 70
    58
 90
        2
176
     1
 90
        2
176
     1
 90
        3
176
     1
 90
        0
176
     1
 40
0.6
176
     1
 40
30.0
176
     1
 62
     7
420
 16777215
176
     1
 90
        2
176
     1
 90
        2
176
     1
 62
     7
176
     1
 62
     7
176
     1
 90
        1
176
     1
 90
        1
176
     1
 40
40.0
176
     1
 90
        8
176
     1
 62
     7
176
     1
 40
1.0
176
     1
 90
        1
176
     1
 90
        6
176
     1
 90
        2
176
     1
 62
     7
176
     1
 90
        3
176
     1
 90
        0
176
     1
 90
        0
176
     1
290
     0
176
     1
 90
        1
176
     1
 40
0.0
176
     1
 90
        0
176
     1
290
     0
176
     1
290
     1
176
     1
290
     1
176
     1
290
     0
176
     1
290
     0
176
     1
290
     0
176
     1
290
     0
176
     1
290
     0
176
     1
290
     0
176
     1
 90
       50
176
     1
 40
0.0
176
     1
 40
1.0
176
     1
 90
        0
176
     1
 62
    18
420
        0
176
     1
 90
       50
176
     1
 90
        3
176
     1
 62
     5
420
      255
176
     1
290
     0
176
     1
 90
       50
176
     1
 90
       50
176
     1
 90
       50
176
     1
290
     0
176
     1
 90
       50
176
     1
 62
   256
176
     0
 40
1.0
176
     0
 90
        2
176
     1
  1
strokes_ogs.tif
176
     1
290
     0
176
     1
 40
1.0
176
     1
 40
1.0
176
     1
  0
VISUALSTYLE
  5
E50
102
{ACAD_REACTORS
330
E3B
102
}
330
E3B
100
AcDbVisualStyle
  2
Sketchy
 70
    24
177
     3
291
     0
 70
    58
 90
        1
176
     1
 90
        2
176
     1
 90
        2
176
     1
 90
        0
176
     1
 40
0.6
176
     1
 40
30.0
176
     1
 62
     7
420
 16777215
176
     1
 90
        2
176
     1
 90
        2
176
     1
 62
     7
176
     1
 62
     7
176
     1
 90
        1
176
     1
 90
        1
176
     1
 40
40.0
176
     1
 90
       11
176
     1
 62
     7
176
     1
 40
1.0
176
     1
 90
        1
176
     1
 90
        6
176
     1
 90
        2
176
     1
 62
     7
176
     1
 90
        6
176
     1
 90
        0
176
     1
 90
        0
176
     1
290
     0
176
     1
 90
        1
176
     1
 40
0.0
176
     1
 90
        0
176
     1
290
     0
176
     1
290
     1
176
     1
290
     1
176
     1
290
     0
176
     1
290
     0
176
     1
290
     0
176
     1
290
     0
176
     1
290
     0
176
     1
290
     0
176
     1
 90
       50
176
     1
 40
0.0
176
     1
 40
1.0
176
     1
 90
        0
176
     1
 62
    18
420
        0
176
     1
 90
       50
176
     1
 90
        3
176
     1
 62
     5
420
      255
176
     1
290
     0
176
     1
 90
       50
176
     1
 90
       50
176
     1
 90
       50
176
     1
290
     0
176
     1
 90
       50
176
     1
 62
   256
176
     0
 40
1.0
176
     0
 90
        2
176
     1
  1
strokes_ogs.tif
176
     1
290
     0
176
     1
 40
1.0
176
     1
 40
1.0
176
     1
  0
VISUALSTYLE
  5
E48
102
{ACAD_REACTORS
330
E3B
102
}
330
E3B
100
AcDbVisualStyle
  2
Thicken
 70
    13
177
     3
291
     1
 70
    58
 90
        2
176
     1
 90
        2
176
     1
 90
        0
176
     1
 90
        0
176
     1
 40
0.6
176
     1
 40
30.0
176
     1
 62
     7
420
 16777215
176
     1
 90
        1
176
     1
 90
        4
176
     1
 62
     7
176
     1
 62
   257
176
     1
 90
        1
176
     1
 90
        1
176
     1
 40
1.0
176
     1
 90
       12
176
     1
 62
     7
176
     1
 40
1.0
176
     1
 90
        1
176
     1
 90
        6
176
     1
 90
        2
176
     1
 62
     7
176
     1
 90
        5
176
     1
 90
        0
176
     1
 90
        0
176
     1
290
     0
176
     1
 90
        1
176
     1
 40
0.0
176
     1
 90
        0
176
     1
290
     0
176
     1
290
     1
176
     1
290
     1
176
     1
290
     0
176
     1
290
     0
176
     1
290
     0
176
     1
290
     0
176
     1
290
     0
176
     1
290
     0
176
     1
 90
       50
176
     1
 40
0.0
176
     1
 40
1.0
176
     1
 90
        0
176
     1
 62
    18
420
        0
176
     1
 90
       50
176
     1
 90
        3
176
     1
 62
     5
420
      255
176
     1
290
     0
176
     1
 90
       50
176
     1
 90
       50
176
     1
 90
       50
176
     1
290
     0
176
     1
 90
       50
176
     1
 62
   256
176
     0
 40
1.0
176
     0
 90
        2
176
     1
  1
strokes_ogs.tif
176
     1
290
     0
176
     1
 40
1.0
176
     1
 40
1.0
176
     1
  0
VISUALSTYLE
  5
E41
102
{ACAD_REACTORS
330
E3B
102
}
330
E3B
100
AcDbVisualStyle
  2
Wireframe
 70
     5
177
     3
291
     0
 70
    58
 90
        0
176
     1
 90
        2
176
     1
 90
        0
176
     1
 90
        0
176
     1
 40
0.6
176
     1
 40
30.0
176
     1
 62
     7
420
 16777215
176
     1
 90
        1
176
     1
 90
        4
176
     1
 62
     7
176
     1
 62
   257
176
     1
 90
        1
176
     1
 90
        1
176
     1
 40
1.0
176
     1
 90
        0
176
     1
 62
   257
176
     1
 40
1.0
176
     1
 90
        1
176
     1
 90
        6
176
     1
 90
        2
176
     1
 62
     7
176
     1
 90
        3
176
     1
 90
        0
176
     1
 90
        0
176
     1
290
     0
176
     1
 90
        1
176
     1
 40
0.0
176
     1
 90
        0
176
     1
290
     0
176
     1
290
     1
176
     1
290
     1
176
     1
290
     0
176
     1
290
     0
176
     1
290
     0
176
     1
290
     0
176
     1
290
     0
176
     1
290
     0
176
     1
 90
       50
176
     1
 40
0.0
176
     1
 40
1.0
176
     1
 90
        0
176
     1
 62
    18
420
        0
176
     1
 90
       50
176
     1
 90
        3
176
     1
 62
     5
420
      255
176
     1
290
     0
176
     1
 90
       50
176
     1
 90
       50
176
     1
 90
       50
176
     1
290
     0
176
     1
 90
       50
176
     1
 62
   256
176
     0
 40
1.0
176
     0
 90
        2
176
     1
  1
strokes_ogs.tif
176
     1
290
     0
176
     1
 40
1.0
176
     1
 40
1.0
176
     1
  0
VISUALSTYLE
  5
E51
102
{ACAD_REACTORS
330
E3B
102
}
330
E3B
100
AcDbVisualStyle
  2
X-Ray
 70
    25
177
     3
291
     0
 70
    58
 90
        2
176
     1
 90
        2
176
     1
 90
        1
176
     1
 90
        1
176
     1
 40
0.5
176
     1
 40
30.0
176
     1
 62
     7
420
 16777215
176
     1
 90
        1
176
     1
 90
        0
176
     1
 62
     7
176
     1
 62
   257
176
     1
 90
        1
176
     1
 90
        1
176
     1
 40
1.0
176
     1
 90
        8
176
     1
 62
     7
176
     1
 40
1.0
176
     1
 90
        1
176
     1
 90
        6
176
     1
 90
        2
176
     1
 62
     7
176
     1
 90
        3
176
     1
 90
        0
176
     1
 90
        0
176
     1
290
     0
176
     1
 90
       13
176
     1
 40
0.0
176
     1
 90
        0
176
     1
290
     0
176
     1
290
     1
176
     1
290
     1
176
     1
290
     0
176
     1
290
     0
176
     1
290
     0
176
     1
290
     0
176
     1
290
     0
176
     1
290
     0
176
     1
 90
       50
176
     1
 40
0.0
176
     1
 40
1.0
176
     1
 90
        0
176
     1
 62
    18
420
        0
176
     1
 90
       50
176
     1
 90
        3
176
     1
 62
     5
420
      255
176
     1
290
     0
176
     1
 90
       50
176
     1
 90
       50
176
     1
 90
       50
176
     1
290
     0
176
     1
 90
       50
176
     1
 62
   256
176
     0
 40
1.0
176
     0
 90
        2
176
     1
  1
strokes_ogs.tif
176
     1
290
     0
176
     1
 40
1.0
176
     1
 40
1.0
176
     1
  0
DICTIONARYVAR
  5
E83
102
{ACAD_REACTORS
330
E82
102
}
330
E82
100
DictionaryVariables
280
     0
  1
1:1
  0
DICTIONARYVAR
  5
E87
102
{ACAD_REACTORS
330
E82
102
}
330
E82
100
DictionaryVariables
280
     0
  1
Standard
  0
DICTIONARYVAR
  5
E89
102
{ACAD_REACTORS
330
E82
102
}
330
E82
100
DictionaryVariables
280
     0
  1
0
  0
DICTIONARYVAR
  5
E8A
102
{ACAD_REACTORS
330
E82
102
}
330
E82
100
DictionaryVariables
280
     0
  1
0
  0
DICTIONARY
  5
EE2
330
E7A
100
AcDbDictionary
280
     1
281
     1
  3
ACAD_ROUNDTRIP_2008_TABLESTYLE_CELLSTYLEMAP
360
EE3
  0
CELLSTYLEMAP
  5
EE3
102
{ACAD_REACTORS
330
EE2
102
}
330
EE2
100
AcDbCellStyleMap
 90
        3
300
CELLSTYLE
  1
TABLEFORMAT_BEGIN
 90
        5
170
     1
 91
        0
 92
        0
 62
   257
 93
        1
300
CONTENTFORMAT
  1
CONTENTFORMAT_BEGIN
 90
        0
 91
        0
 92
        4
 93
        0
300

 40
0.0
140
1.0
 94
        5
 62
     0
340
11
144
6.0
309
CONTENTFORMAT_END
171
     1
301
MARGIN
  1
CELLMARGIN_BEGIN
 40
1.5
 40
1.5
 40
1.5
 40
1.5
 40
1.5
 40
1.5
309
CELLMARGIN_END
 94
        6
 95
        1
302
GRIDFORMAT
  1
GRIDFORMAT_BEGIN
 90
        0
 91
        1
 62
     0
 92
       -2
340
14
 93
        0
 40
0.045
309
GRIDFORMAT_END
 95
        2
302
GRIDFORMAT
  1
GRIDFORMAT_BEGIN
 90
        0
 91
        1
 62
     0
 92
       -2
340
14
 93
        0
 40
0.045
309
GRIDFORMAT_END
 95
        4
302
GRIDFORMAT
  1
GRIDFORMAT_BEGIN
 90
        0
 91
        1
 62
     0
 92
       -2
340
14
 93
        0
 40
0.045
309
GRIDFORMAT_END
 95
        8
302
GRIDFORMAT
  1
GRIDFORMAT_BEGIN
 90
        0
 91
        1
 62
     0
 92
       -2
340
14
 93
        0
 40
0.045
309
GRIDFORMAT_END
 95
       16
302
GRIDFORMAT
  1
GRIDFORMAT_BEGIN
 90
        0
 91
        1
 62
     0
 92
       -2
340
14
 93
        0
 40
0.045
309
GRIDFORMAT_END
 95
       32
302
GRIDFORMAT
  1
GRIDFORMAT_BEGIN
 90
        0
 91
        1
 62
     0
 92
       -2
340
14
 93
        0
 40
0.045
309
GRIDFORMAT_END
309
TABLEFORMAT_END
  1
CELLSTYLE_BEGIN
 90
        1
 91
        1
300
_TITLE
309
CELLSTYLE_END
300
CELLSTYLE
  1
TABLEFORMAT_BEGIN
 90
        5
170
     1
 91
        0
 92
        0
 62
   257
 93
        1
300
CONTENTFORMAT
  1
CONTENTFORMAT_BEGIN
 90
        0
 91
        0
 92
        4
 93
        0
300

 40
0.0
140
1.0
 94
        5
 62
     0
340
11
144
4.5
309
CONTENTFORMAT_END
171
     1
301
MARGIN
  1
CELLMARGIN_BEGIN
 40
1.5
 40
1.5
 40
1.5
 40
1.5
 40
1.5
 40
1.5
309
CELLMARGIN_END
 94
        6
 95
        1
302
GRIDFORMAT
  1
GRIDFORMAT_BEGIN
 90
        0
 91
        1
 62
     0
 92
       -2
340
14
 93
        0
 40
0.045
309
GRIDFORMAT_END
 95
        2
302
GRIDFORMAT
  1
GRIDFORMAT_BEGIN
 90
        0
 91
        1
 62
     0
 92
       -2
340
14
 93
        0
 40
0.045
309
GRIDFORMAT_END
 95
        4
302
GRIDFORMAT
  1
GRIDFORMAT_BEGIN
 90
        0
 91
        1
 62
     0
 92
       -2
340
14
 93
        0
 40
0.045
309
GRIDFORMAT_END
 95
        8
302
GRIDFORMAT
  1
GRIDFORMAT_BEGIN
 90
        0
 91
        1
 62
     0
 92
       -2
340
14
 93
        0
 40
0.045
309
GRIDFORMAT_END
 95
       16
302
GRIDFORMAT
  1
GRIDFORMAT_BEGIN
 90
        0
 91
        1
 62
     0
 92
       -2
340
14
 93
        0
 40
0.045
309
GRIDFORMAT_END
 95
       32
302
GRIDFORMAT
  1
GRIDFORMAT_BEGIN
 90
        0
 91
        1
 62
     0
 92
       -2
340
14
 93
        0
 40
0.045
309
GRIDFORMAT_END
309
TABLEFORMAT_END
  1
CELLSTYLE_BEGIN
 90
        2
 91
        1
300
_HEADER
309
CELLSTYLE_END
300
CELLSTYLE
  1
TABLEFORMAT_BEGIN
 90
        5
170
     1
 91
        0
 92
        0
 62
   257
 93
        1
300
CONTENTFORMAT
  1
CONTENTFORMAT_BEGIN
 90
        0
 91
        0
 92
        4
 93
        0
300

 40
0.0
140
1.0
 94
        2
 62
     0
340
11
144
4.5
309
CONTENTFORMAT_END
171
     1
301
MARGIN
  1
CELLMARGIN_BEGIN
 40
1.5
 40
1.5
 40
1.5
 40
1.5
 40
1.5
 40
1.5
309
CELLMARGIN_END
 94
        6
 95
        1
302
GRIDFORMAT
  1
GRIDFORMAT_BEGIN
 90
        0
 91
        1
 62
     0
 92
       -2
340
14
 93
        0
 40
0.045
309
GRIDFORMAT_END
 95
        2
302
GRIDFORMAT
  1
GRIDFORMAT_BEGIN
 90
        0
 91
        1
 62
     0
 92
       -2
340
14
 93
        0
 40
0.045
309
GRIDFORMAT_END
 95
        4
302
GRIDFORMAT
  1
GRIDFORMAT_BEGIN
 90
        0
 91
        1
 62
     0
 92
       -2
340
14
 93
        0
 40
0.045
309
GRIDFORMAT_END
 95
        8
302
GRIDFORMAT
  1
GRIDFORMAT_BEGIN
 90
        0
 91
        1
 62
     0
 92
       -2
340
14
 93
        0
 40
0.045
309
GRIDFORMAT_END
 95
       16
302
GRIDFORMAT
  1
GRIDFORMAT_BEGIN
 90
        0
 91
        1
 62
     0
 92
       -2
340
14
 93
        0
 40
0.045
309
GRIDFORMAT_END
 95
       32
302
GRIDFORMAT
  1
GRIDFORMAT_BEGIN
 90
        0
 91
        1
 62
     0
 92
       -2
340
14
 93
        0
 40
0.045
309
GRIDFORMAT_END
309
TABLEFORMAT_END
  1
CELLSTYLE_BEGIN
 90
        3
 91
        2
300
_DATA
309
CELLSTYLE_END
  0
ENDSEC
  0
EOF
