  0
SECTION
  2
HEADER
  9
$ACADVER
  1
AC1027
  9
$ACADMAINTVER
 70
     8
  9
$DWGCODEPAGE
  3
ANSI_932
  9
$REQUIREDVERSIONS
160
                 0
  9
$LASTSAVEDBY
  1
Yasu
  9
$INSBASE
 10
0.0
 20
0.0
 30
0.0
  9
$EXTMIN
 10
17.15630709329678
 20
15.28805371418846
 30
0.0
  9
$EXTMAX
 10
125.0654498087821
 20
171.7420787887141
 30
0.0
  9
$LIMMIN
 10
0.0
 20
0.0
  9
$LIMMAX
 10
12.0
 20
9.0
  9
$ORTHOMODE
 70
     0
  9
$REGENMODE
 70
     1
  9
$FILLMODE
 70
     1
  9
$QTEXTMODE
 70
     0
  9
$MIRRTEXT
 70
     0
  9
$LTSCALE
 40
1.0
  9
$ATTMODE
 70
     1
  9
$TEXTSIZE
 40
0.2
  9
$TRACEWID
 40
0.05
  9
$TEXTSTYLE
  7
Standard
  9
$CLAYER
  8
0
  9
$CELTYPE
  6
ByLayer
  9
$CECOLOR
 62
   256
  9
$CELTSCALE
 40
1.0
  9
$DISPSILH
 70
     0
  9
$DIMSCALE
 40
1.0
  9
$DIMASZ
 40
0.18
  9
$DIMEXO
 40
0.0625
  9
$DIMDLI
 40
0.38
  9
$DIMRND
 40
0.0
  9
$DIMDLE
 40
0.0
  9
$DIMEXE
 40
0.18
  9
$DIMTP
 40
0.0
  9
$DIMTM
 40
0.0
  9
$DIMTXT
 40
0.18
  9
$DIMCEN
 40
0.09
  9
$DIMTSZ
 40
0.0
  9
$DIMTOL
 70
     0
  9
$DIMLIM
 70
     0
  9
$DIMTIH
 70
     1
  9
$DIMTOH
 70
     1
  9
$DIMSE1
 70
     0
  9
$DIMSE2
 70
     0
  9
$DIMTAD
 70
     0
  9
$DIMZIN
 70
     0
  9
$DIMBLK
  1

  9
$DIMASO
 70
     1
  9
$DIMSHO
 70
     1
  9
$DIMPOST
  1

  9
$DIMAPOST
  1

  9
$DIMALT
 70
     0
  9
$DIMALTD
 70
     2
  9
$DIMALTF
 40
25.4
  9
$DIMLFAC
 40
1.0
  9
$DIMTOFL
 70
     0
  9
$DIMTVP
 40
0.0
  9
$DIMTIX
 70
     0
  9
$DIMSOXD
 70
     0
  9
$DIMSAH
 70
     0
  9
$DIMBLK1
  1

  9
$DIMBLK2
  1

  9
$DIMSTYLE
  2
Standard
  9
$DIMCLRD
 70
     0
  9
$DIMCLRE
 70
     0
  9
$DIMCLRT
 70
     0
  9
$DIMTFAC
 40
1.0
  9
$DIMGAP
 40
0.09
  9
$DIMJUST
 70
     0
  9
$DIMSD1
 70
     0
  9
$DIMSD2
 70
     0
  9
$DIMTOLJ
 70
     1
  9
$DIMTZIN
 70
     0
  9
$DIMALTZ
 70
     0
  9
$DIMALTTZ
 70
     0
  9
$DIMUPT
 70
     0
  9
$DIMDEC
 70
     4
  9
$DIMTDEC
 70
     4
  9
$DIMALTU
 70
     2
  9
$DIMALTTD
 70
     2
  9
$DIMTXSTY
  7
Standard
  9
$DIMAUNIT
 70
     0
  9
$DIMADEC
 70
     0
  9
$DIMALTRND
 40
0.0
  9
$DIMAZIN
 70
     0
  9
$DIMDSEP
 70
    46
  9
$DIMATFIT
 70
     3
  9
$DIMFRAC
 70
     0
  9
$DIMLDRBLK
  1

  9
$DIMLUNIT
 70
     2
  9
$DIMLWD
 70
    -2
  9
$DIMLWE
 70
    -2
  9
$DIMTMOVE
 70
     0
  9
$DIMFXL
 40
1.0
  9
$DIMFXLON
 70
     0
  9
$DIMJOGANG
 40
0.7853981633974483
  9
$DIMTFILL
 70
     0
  9
$DIMTFILLCLR
 70
     0
  9
$DIMARCSYM
 70
     0
  9
$DIMLTYPE
  6

  9
$DIMLTEX1
  6

  9
$DIMLTEX2
  6

  9
$DIMTXTDIRECTION
 70
     0
  9
$LUNITS
 70
     2
  9
$LUPREC
 70
     4
  9
$SKETCHINC
 40
0.1
  9
$FILLETRAD
 40
0.0
  9
$AUNITS
 70
     0
  9
$AUPREC
 70
     0
  9
$MENU
  1
.
  9
$ELEVATION
 40
0.0
  9
$PELEVATION
 40
0.0
  9
$THICKNESS
 40
0.0
  9
$LIMCHECK
 70
     0
  9
$CHAMFERA
 40
0.0
  9
$CHAMFERB
 40
0.0
  9
$CHAMFERC
 40
0.0
  9
$CHAMFERD
 40
0.0
  9
$SKPOLY
 70
     0
  9
$TDCREATE
 40
2452643.438384271
  9
$TDUCREATE
 40
2452643.063384271
  9
$TDUPDATE
 40
2456739.872606319
  9
$TDUUPDATE
 40
2456739.497606319
  9
$TDINDWG
 40
0.0046221296
  9
$TDUSRTIMER
 40
2456739.49710265
  9
$USRTIMER
 70
     1
  9
$ANGBASE
 50
0.0
  9
$ANGDIR
 70
     0
  9
$PDMODE
 70
     0
  9
$PDSIZE
 40
0.0
  9
$PLINEWID
 40
0.0
  9
$SPLFRAME
 70
     0
  9
$SPLINETYPE
 70
     6
  9
$SPLINESEGS
 70
     8
  9
$HANDSEED
  5
995
  9
$SURFTAB1
 70
     6
  9
$SURFTAB2
 70
     6
  9
$SURFTYPE
 70
     6
  9
$SURFU
 70
     6
  9
$SURFV
 70
     6
  9
$UCSBASE
  2

  9
$UCSNAME
  2

  9
$UCSORG
 10
0.0
 20
0.0
 30
0.0
  9
$UCSXDIR
 10
1.0
 20
0.0
 30
0.0
  9
$UCSYDIR
 10
0.0
 20
1.0
 30
0.0
  9
$UCSORTHOREF
  2

  9
$UCSORTHOVIEW
 70
     0
  9
$UCSORGTOP
 10
0.0
 20
0.0
 30
0.0
  9
$UCSORGBOTTOM
 10
0.0
 20
0.0
 30
0.0
  9
$UCSORGLEFT
 10
0.0
 20
0.0
 30
0.0
  9
$UCSORGRIGHT
 10
0.0
 20
0.0
 30
0.0
  9
$UCSORGFRONT
 10
0.0
 20
0.0
 30
0.0
  9
$UCSORGBACK
 10
0.0
 20
0.0
 30
0.0
  9
$PUCSBASE
  2

  9
$PUCSNAME
  2

  9
$PUCSORG
 10
0.0
 20
0.0
 30
0.0
  9
$PUCSXDIR
 10
1.0
 20
0.0
 30
0.0
  9
$PUCSYDIR
 10
0.0
 20
1.0
 30
0.0
  9
$PUCSORTHOREF
  2

  9
$PUCSORTHOVIEW
 70
     0
  9
$PUCSORGTOP
 10
0.0
 20
0.0
 30
0.0
  9
$PUCSORGBOTTOM
 10
0.0
 20
0.0
 30
0.0
  9
$PUCSORGLEFT
 10
0.0
 20
0.0
 30
0.0
  9
$PUCSORGRIGHT
 10
0.0
 20
0.0
 30
0.0
  9
$PUCSORGFRONT
 10
0.0
 20
0.0
 30
0.0
  9
$PUCSORGBACK
 10
0.0
 20
0.0
 30
0.0
  9
$USERI1
 70
     0
  9
$USERI2
 70
     0
  9
$USERI3
 70
     0
  9
$USERI4
 70
     0
  9
$USERI5
 70
     0
  9
$USERR1
 40
0.0
  9
$USERR2
 40
0.0
  9
$USERR3
 40
0.0
  9
$USERR4
 40
0.0
  9
$USERR5
 40
0.0
  9
$WORLDVIEW
 70
     1
  9
$SHADEDGE
 70
     3
  9
$SHADEDIF
 70
    70
  9
$TILEMODE
 70
     1
  9
$MAXACTVP
 70
    64
  9
$PINSBASE
 10
0.0
 20
0.0
 30
0.0
  9
$PLIMCHECK
 70
     0
  9
$PEXTMIN
 10
0.0
 20
0.0
 30
0.0
  9
$PEXTMAX
 10
0.0
 20
0.0
 30
0.0
  9
$PLIMMIN
 10
0.0
 20
0.0
  9
$PLIMMAX
 10
0.0
 20
0.0
  9
$UNITMODE
 70
     0
  9
$VISRETAIN
 70
     1
  9
$PLINEGEN
 70
     0
  9
$PSLTSCALE
 70
     1
  9
$TREEDEPTH
 70
  3020
  9
$CMLSTYLE
  2
Standard
  9
$CMLJUST
 70
     0
  9
$CMLSCALE
 40
1.0
  9
$PROXYGRAPHICS
 70
     1
  9
$MEASUREMENT
 70
     0
  9
$CELWEIGHT
370
    -1
  9
$ENDCAPS
280
     0
  9
$JOINSTYLE
280
     0
  9
$LWDISPLAY
290
     0
  9
$INSUNITS
 70
     1
  9
$HYPERLINKBASE
  1

  9
$STYLESHEET
  1

  9
$XEDIT
290
     1
  9
$CEPSNTYPE
380
     0
  9
$PSTYLEMODE
290
     1
  9
$FINGERPRINTGUID
  2
{FDEAD576-A652-11D2-9A35-0060089B3A3F}
  9
$VERSIONGUID
  2
{FBC2AE19-5C5C-49EC-81BC-71B1A3362A02}
  9
$EXTNAMES
290
     1
  9
$PSVPSCALE
 40
0.0
  9
$OLESTARTUP
290
     0
  9
$SORTENTS
280
   127
  9
$INDEXCTL
280
     0
  9
$HIDETEXT
280
     1
  9
$XCLIPFRAME
280
     0
  9
$HALOGAP
280
     0
  9
$OBSCOLOR
 70
   257
  9
$OBSLTYPE
280
     0
  9
$INTERSECTIONDISPLAY
280
     0
  9
$INTERSECTIONCOLOR
 70
   257
  9
$DIMASSOC
280
     2
  9
$PROJECTNAME
  1

  9
$CAMERADISPLAY
290
     0
  9
$LENSLENGTH
 40
50.0
  9
$CAMERAHEIGHT
 40
0.0
  9
$STEPSPERSEC
 40
2.0
  9
$STEPSIZE
 40
6.0
  9
$3DDWFPREC
 40
2.0
  9
$PSOLWIDTH
 40
0.25
  9
$PSOLHEIGHT
 40
4.0
  9
$LOFTANG1
 40
1.570796326794897
  9
$LOFTANG2
 40
1.570796326794897
  9
$LOFTMAG1
 40
0.0
  9
$LOFTMAG2
 40
0.0
  9
$LOFTPARAM
 70
     7
  9
$LOFTNORMALS
280
     1
  9
$LATITUDE
 40
37.795
  9
$LONGITUDE
 40
-122.394
  9
$NORTHDIRECTION
 40
0.0
  9
$TIMEZONE
 70
 -8000
  9
$LIGHTGLYPHDISPLAY
280
     1
  9
$TILEMODELIGHTSYNCH
280
     1
  9
$CMATERIAL
347
96
  9
$SOLIDHIST
280
     1
  9
$SHOWHIST
280
     1
  9
$DWFFRAME
280
     2
  9
$DGNFRAME
280
     0
  9
$REALWORLDSCALE
290
     1
  9
$INTERFERECOLOR
 62
     1
  9
$CSHADOW
280
     0
  9
$SHADOWPLANELOCATION
 40
0.0
  0
ENDSEC
  0
SECTION
  2
CLASSES
  0
CLASS
  1
ACDBDICTIONARYWDFLT
  2
AcDbDictionaryWithDefault
  3
ObjectDBX Classes
 90
        0
 91
        7
280
     0
281
     0
  0
CLASS
  1
ACDBPLACEHOLDER
  2
AcDbPlaceHolder
  3
ObjectDBX Classes
 90
        0
 91
        1
280
     0
281
     0
  0
CLASS
  1
LAYOUT
  2
AcDbLayout
  3
ObjectDBX Classes
 90
        0
 91
        1
280
     0
281
     0
  0
CLASS
  1
DICTIONARYVAR
  2
AcDbDictionaryVar
  3
ObjectDBX Classes
 90
        0
 91
        5
280
     0
281
     0
  0
CLASS
  1
TABLESTYLE
  2
AcDbTableStyle
  3
ObjectDBX Classes
 90
     4095
 91
        7
280
     0
281
     0
  0
CLASS
  1
MATERIAL
  2
AcDbMaterial
  3
ObjectDBX Classes
 90
     1153
 91
        7
280
     0
281
     0
  0
CLASS
  1
VISUALSTYLE
  2
AcDbVisualStyle
  3
ObjectDBX Classes
 90
     4095
 91
        7
280
     0
281
     0
  0
CLASS
  1
SCALE
  2
AcDbScale
  3
ObjectDBX Classes
 90
     1153
 91
        7
280
     0
281
     0
  0
CLASS
  1
CELLSTYLEMAP
  2
AcDbCellStyleMap
  3
ObjectDBX Classes
 90
     1152
 91
        5
280
     0
281
     0
  0
CLASS
  1
RASTERVARIABLES
  2
AcDbRasterVariables
  3
ISM
 90
        0
 91
        7
280
     0
281
     0
  0
CLASS
  1
SUN
  2
AcDbSun
  3
SCENEOE
 90
     1153
 91
        7
280
     0
281
     0
  0
CLASS
  1
DIMASSOC
  2
AcDbDimAssoc
  3
"AcDbDimAssoc|Product Desc:     AcDim ARX App For Dimension|Company:          Autodesk, Inc.|WEB Address:      www.autodesk.com"
 90
        0
 91
        5
280
     0
281
     0
  0
ENDSEC
  0
SECTION
  2
TABLES
  0
TABLE
  2
VPORT
  5
8
330
0
100
AcDbSymbolTable
 70
     1
  0
VPORT
  5
94
330
8
100
AcDbSymbolTableRecord
100
AcDbViewportTableRecord
  2
*Active
 70
     0
 10
0.0
 20
0.0
 11
1.0
 21
1.0
 12
98.78047201701924
 22
113.0537692093132
 13
0.0
 23
0.0
 14
0.5
 24
0.5
 15
0.5
 25
0.5
 16
0.0
 26
0.0
 36
1.0
 17
-27.6695935659798
 27
-19.53870295786191
 37
0.0
 40
159.5831055760162
 41
1.762376237623762
 42
50.0
 43
0.0
 44
0.0
 50
0.0
 51
0.0
 71
    16
 72
  1000
 73
     1
 74
     3
 75
     0
 76
     0
 77
     0
 78
     0
281
     0
 65
     1
110
0.0
120
0.0
130
0.0
111
1.0
121
0.0
131
0.0
112
0.0
122
1.0
132
0.0
 79
     0
146
0.0
348
9F
 60
     2
 61
     5
292
     1
282
     1
141
0.0
142
0.0
 63
   250
421
  3355443
361
ED
  0
ENDTAB
  0
TABLE
  2
LTYPE
  5
5
330
0
100
AcDbSymbolTable
 70
     2
  0
LTYPE
  5
14
330
5
100
AcDbSymbolTableRecord
100
AcDbLinetypeTableRecord
  2
ByBlock
 70
     0
  3

 72
    65
 73
     0
 40
0.0
  0
LTYPE
  5
15
330
5
100
AcDbSymbolTableRecord
100
AcDbLinetypeTableRecord
  2
ByLayer
 70
     0
  3

 72
    65
 73
     0
 40
0.0
  0
LTYPE
  5
16
330
5
100
AcDbSymbolTableRecord
100
AcDbLinetypeTableRecord
  2
Continuous
 70
     0
  3
Solid line
 72
    65
 73
     0
 40
0.0
  0
LTYPE
  5
20F
330
5
100
AcDbSymbolTableRecord
100
AcDbLinetypeTableRecord
  2
CENTER
 70
     0
  3
Center ____ _ ____ _ ____ _ ____ _ ____ _ ____
 72
    65
 73
     4
 40
50.8
 49
31.75
 74
     0
 49
-6.35
 74
     0
 49
6.35
 74
     0
 49
-6.35
 74
     0
  0
ENDTAB
  0
TABLE
  2
LAYER
  5
2
330
0
100
AcDbSymbolTable
 70
     6
  0
LAYER
  5
10
330
2
100
AcDbSymbolTableRecord
100
AcDbLayerTableRecord
  2
0
 70
     0
 62
     7
  6
Continuous
370
    -3
390
F
347
98
348
0
  0
LAYER
  5
125
330
2
100
AcDbSymbolTableRecord
100
AcDbLayerTableRecord
  2
Defpoints
 70
     0
 62
     7
  6
Continuous
290
     0
370
    -3
390
F
347
98
348
0
  0
LAYER
  5
126
330
2
100
AcDbSymbolTableRecord
100
AcDbLayerTableRecord
  2
文字
 70
     0
 62
     7
  6
Continuous
370
    25
390
F
347
98
348
0
  0
LAYER
  5
128
330
2
100
AcDbSymbolTableRecord
100
AcDbLayerTableRecord
  2
実線
 70
     0
 62
   140
  6
Continuous
370
    50
390
F
347
98
348
0
  0
LAYER
  5
20E
330
2
100
AcDbSymbolTableRecord
100
AcDbLayerTableRecord
  2
中心線
 70
     0
 62
     7
  6
CENTER
370
    30
390
F
347
98
348
0
  0
LAYER
  5
814
330
2
100
AcDbSymbolTableRecord
100
AcDbLayerTableRecord
  2
文字・寸法線
 70
     0
 62
     7
  6
Continuous
370
    13
390
F
347
98
348
0
  0
ENDTAB
  0
TABLE
  2
STYLE
  5
3
330
0
100
AcDbSymbolTable
 70
     1
  0
STYLE
  5
11
330
3
100
AcDbSymbolTableRecord
100
AcDbTextStyleTableRecord
  2
Standard
 70
     0
 40
0.0
 41
1.0
 50
0.0
 71
     0
 42
0.2
  3
arial.ttf
  4

1001
ACAD
1000
Arial
1071
        0
  0
ENDTAB
  0
TABLE
  2
VIEW
  5
6
330
0
100
AcDbSymbolTable
 70
     0
  0
ENDTAB
  0
TABLE
  2
UCS
  5
7
330
0
100
AcDbSymbolTable
 70
     0
  0
ENDTAB
  0
TABLE
  2
APPID
  5
9
330
0
100
AcDbSymbolTable
 70
     1
  0
APPID
  5
12
330
9
100
AcDbSymbolTableRecord
100
AcDbRegAppTableRecord
  2
ACAD
 70
     0
  0
ENDTAB
  0
TABLE
  2
DIMSTYLE
  5
A
330
0
100
AcDbSymbolTable
 70
     2
100
AcDbDimStyleTable
  0
DIMSTYLE
105
27
330
A
100
AcDbSymbolTableRecord
100
AcDbDimStyleTableRecord
  2
Standard
 70
     0
178
     0
340
11
  0
DIMSTYLE
105
129
102
{ACAD_REACTORS
330
719
330
7EE
330
7F3
330
8AB
330
8B2
330
8B3
330
968
330
972
102
}
330
A
100
AcDbSymbolTableRecord
100
AcDbDimStyleTableRecord
  2
ISO-25
 70
     0
 41
2.5
 42
0.625
 43
3.75
 44
1.25
 73
     0
 74
     0
 77
     1
 78
     8
140
2.5
141
2.5
143
0.03937007874016
147
0.625
171
     3
172
     1
178
     0
271
     2
272
     2
274
     3
283
     0
284
     8
340
11
  0
ENDTAB
  0
TABLE
  2
BLOCK_RECORD
  5
1
330
0
100
AcDbSymbolTable
 70
    85
  0
BLOCK_RECORD
  5
1F
330
1
100
AcDbSymbolTableRecord
100
AcDbBlockTableRecord
  2
*Model_Space
340
22
 70
     0
280
     1
281
     0
  0
BLOCK_RECORD
  5
58
330
1
100
AcDbSymbolTableRecord
100
AcDbBlockTableRecord
  2
*Paper_Space
340
59
 70
     0
280
     1
281
     0
  0
BLOCK_RECORD
  5
5D
330
1
100
AcDbSymbolTableRecord
100
AcDbBlockTableRecord
  2
*Paper_Space0
340
5E
 70
     0
280
     1
281
     0
  0
BLOCK_RECORD
  5
159
330
1
100
AcDbSymbolTableRecord
100
AcDbBlockTableRecord
  2
*D1
340
0
 70
     0
280
     1
281
     0
  0
BLOCK_RECORD
  5
16A
330
1
100
AcDbSymbolTableRecord
100
AcDbBlockTableRecord
  2
*D2
340
0
 70
     0
280
     1
281
     0
  0
BLOCK_RECORD
  5
17B
330
1
100
AcDbSymbolTableRecord
100
AcDbBlockTableRecord
  2
*D3
340
0
 70
     0
280
     1
281
     0
  0
BLOCK_RECORD
  5
18A
330
1
100
AcDbSymbolTableRecord
100
AcDbBlockTableRecord
  2
*D4
340
0
 70
     0
280
     1
281
     0
  0
BLOCK_RECORD
  5
19B
330
1
100
AcDbSymbolTableRecord
100
AcDbBlockTableRecord
  2
*D5
340
0
 70
     0
280
     1
281
     0
  0
BLOCK_RECORD
  5
1C8
330
1
100
AcDbSymbolTableRecord
100
AcDbBlockTableRecord
  2
*D6
340
0
 70
     0
280
     1
281
     0
  0
BLOCK_RECORD
  5
1D6
330
1
100
AcDbSymbolTableRecord
100
AcDbBlockTableRecord
  2
*D7
340
0
 70
     0
280
     1
281
     0
  0
BLOCK_RECORD
  5
1E4
330
1
100
AcDbSymbolTableRecord
100
AcDbBlockTableRecord
  2
*D8
340
0
 70
     0
280
     1
281
     0
  0
BLOCK_RECORD
  5
1F0
330
1
100
AcDbSymbolTableRecord
100
AcDbBlockTableRecord
  2
*D9
340
0
 70
     0
280
     1
281
     0
  0
BLOCK_RECORD
  5
1FF
330
1
100
AcDbSymbolTableRecord
100
AcDbBlockTableRecord
  2
*D10
340
0
 70
     0
280
     1
281
     0
  0
BLOCK_RECORD
  5
233
330
1
100
AcDbSymbolTableRecord
100
AcDbBlockTableRecord
  2
*D11
340
0
 70
     0
280
     1
281
     0
  0
BLOCK_RECORD
  5
242
330
1
100
AcDbSymbolTableRecord
100
AcDbBlockTableRecord
  2
*D12
340
0
 70
     0
280
     1
281
     0
  0
BLOCK_RECORD
  5
253
330
1
100
AcDbSymbolTableRecord
100
AcDbBlockTableRecord
  2
*D13
340
0
 70
     0
280
     1
281
     0
  0
BLOCK_RECORD
  5
262
330
1
100
AcDbSymbolTableRecord
100
AcDbBlockTableRecord
  2
*D14
340
0
 70
     0
280
     1
281
     0
  0
BLOCK_RECORD
  5
271
330
1
100
AcDbSymbolTableRecord
100
AcDbBlockTableRecord
  2
*D15
340
0
 70
     0
280
     1
281
     0
  0
BLOCK_RECORD
  5
299
330
1
100
AcDbSymbolTableRecord
100
AcDbBlockTableRecord
  2
*D16
340
0
 70
     0
280
     1
281
     0
  0
BLOCK_RECORD
  5
2AB
330
1
100
AcDbSymbolTableRecord
100
AcDbBlockTableRecord
  2
*D17
340
0
 70
     0
280
     1
281
     0
  0
BLOCK_RECORD
  5
2C0
330
1
100
AcDbSymbolTableRecord
100
AcDbBlockTableRecord
  2
*D18
340
0
 70
     0
280
     1
281
     0
  0
BLOCK_RECORD
  5
304
330
1
100
AcDbSymbolTableRecord
100
AcDbBlockTableRecord
  2
*D19
340
0
 70
     0
280
     1
281
     0
  0
BLOCK_RECORD
  5
310
330
1
100
AcDbSymbolTableRecord
100
AcDbBlockTableRecord
  2
*D20
340
0
 70
     0
280
     1
281
     0
  0
BLOCK_RECORD
  5
31E
330
1
100
AcDbSymbolTableRecord
100
AcDbBlockTableRecord
  2
*D21
340
0
 70
     0
280
     1
281
     0
  0
BLOCK_RECORD
  5
32A
330
1
100
AcDbSymbolTableRecord
100
AcDbBlockTableRecord
  2
*D22
340
0
 70
     0
280
     1
281
     0
  0
BLOCK_RECORD
  5
336
330
1
100
AcDbSymbolTableRecord
100
AcDbBlockTableRecord
  2
*D23
340
0
 70
     0
280
     1
281
     0
  0
BLOCK_RECORD
  5
342
330
1
100
AcDbSymbolTableRecord
100
AcDbBlockTableRecord
  2
*D24
340
0
 70
     0
280
     1
281
     0
  0
BLOCK_RECORD
  5
352
330
1
100
AcDbSymbolTableRecord
100
AcDbBlockTableRecord
  2
*D25
340
0
 70
     0
280
     1
281
     0
  0
BLOCK_RECORD
  5
360
330
1
100
AcDbSymbolTableRecord
100
AcDbBlockTableRecord
  2
*D26
340
0
 70
     0
280
     1
281
     0
  0
BLOCK_RECORD
  5
39B
330
1
100
AcDbSymbolTableRecord
100
AcDbBlockTableRecord
  2
*D27
340
0
 70
     0
280
     1
281
     0
  0
BLOCK_RECORD
  5
3BC
330
1
100
AcDbSymbolTableRecord
100
AcDbBlockTableRecord
  2
*D28
340
0
 70
     0
280
     1
281
     0
  0
BLOCK_RECORD
  5
3CD
330
1
100
AcDbSymbolTableRecord
100
AcDbBlockTableRecord
  2
*D29
340
0
 70
     0
280
     1
281
     0
  0
BLOCK_RECORD
  5
3DE
330
1
100
AcDbSymbolTableRecord
100
AcDbBlockTableRecord
  2
*D30
340
0
 70
     0
280
     1
281
     0
  0
BLOCK_RECORD
  5
3ED
330
1
100
AcDbSymbolTableRecord
100
AcDbBlockTableRecord
  2
*D31
340
0
 70
     0
280
     1
281
     0
  0
BLOCK_RECORD
  5
3FE
330
1
100
AcDbSymbolTableRecord
100
AcDbBlockTableRecord
  2
*D32
340
0
 70
     0
280
     1
281
     0
  0
BLOCK_RECORD
  5
439
330
1
100
AcDbSymbolTableRecord
100
AcDbBlockTableRecord
  2
*D33
340
0
 70
     0
280
     1
281
     0
  0
BLOCK_RECORD
  5
445
330
1
100
AcDbSymbolTableRecord
100
AcDbBlockTableRecord
  2
*D34
340
0
 70
     0
280
     1
281
     0
  0
BLOCK_RECORD
  5
453
330
1
100
AcDbSymbolTableRecord
100
AcDbBlockTableRecord
  2
*D35
340
0
 70
     0
280
     1
281
     0
  0
BLOCK_RECORD
  5
461
330
1
100
AcDbSymbolTableRecord
100
AcDbBlockTableRecord
  2
*D36
340
0
 70
     0
280
     1
281
     0
  0
BLOCK_RECORD
  5
46D
330
1
100
AcDbSymbolTableRecord
100
AcDbBlockTableRecord
  2
*D37
340
0
 70
     0
280
     1
281
     0
  0
BLOCK_RECORD
  5
47C
330
1
100
AcDbSymbolTableRecord
100
AcDbBlockTableRecord
  2
*D38
340
0
 70
     0
280
     1
281
     0
  0
BLOCK_RECORD
  5
4B7
330
1
100
AcDbSymbolTableRecord
100
AcDbBlockTableRecord
  2
*D39
340
0
 70
     0
280
     1
281
     0
  0
BLOCK_RECORD
  5
4D8
330
1
100
AcDbSymbolTableRecord
100
AcDbBlockTableRecord
  2
*D40
340
0
 70
     0
280
     1
281
     0
  0
BLOCK_RECORD
  5
4E9
330
1
100
AcDbSymbolTableRecord
100
AcDbBlockTableRecord
  2
*D41
340
0
 70
     0
280
     1
281
     0
  0
BLOCK_RECORD
  5
4FA
330
1
100
AcDbSymbolTableRecord
100
AcDbBlockTableRecord
  2
*D42
340
0
 70
     0
280
     1
281
     0
  0
BLOCK_RECORD
  5
509
330
1
100
AcDbSymbolTableRecord
100
AcDbBlockTableRecord
  2
*D43
340
0
 70
     0
280
     1
281
     0
  0
BLOCK_RECORD
  5
51A
330
1
100
AcDbSymbolTableRecord
100
AcDbBlockTableRecord
  2
*D44
340
0
 70
     0
280
     1
281
     0
  0
BLOCK_RECORD
  5
555
330
1
100
AcDbSymbolTableRecord
100
AcDbBlockTableRecord
  2
*D45
340
0
 70
     0
280
     1
281
     0
  0
BLOCK_RECORD
  5
561
330
1
100
AcDbSymbolTableRecord
100
AcDbBlockTableRecord
  2
*D46
340
0
 70
     0
280
     1
281
     0
  0
BLOCK_RECORD
  5
56F
330
1
100
AcDbSymbolTableRecord
100
AcDbBlockTableRecord
  2
*D47
340
0
 70
     0
280
     1
281
     0
  0
BLOCK_RECORD
  5
57D
330
1
100
AcDbSymbolTableRecord
100
AcDbBlockTableRecord
  2
*D48
340
0
 70
     0
280
     1
281
     0
  0
BLOCK_RECORD
  5
589
330
1
100
AcDbSymbolTableRecord
100
AcDbBlockTableRecord
  2
*D49
340
0
 70
     0
280
     1
281
     0
  0
BLOCK_RECORD
  5
598
330
1
100
AcDbSymbolTableRecord
100
AcDbBlockTableRecord
  2
*D50
340
0
 70
     0
280
     1
281
     0
  0
BLOCK_RECORD
  5
5CE
330
1
100
AcDbSymbolTableRecord
100
AcDbBlockTableRecord
  2
*D51
340
0
 70
     0
280
     1
281
     0
  0
BLOCK_RECORD
  5
5DF
330
1
100
AcDbSymbolTableRecord
100
AcDbBlockTableRecord
  2
*D52
340
0
 70
     0
280
     1
281
     0
  0
BLOCK_RECORD
  5
620
330
1
100
AcDbSymbolTableRecord
100
AcDbBlockTableRecord
  2
*D53
340
0
 70
     0
280
     1
281
     0
  0
BLOCK_RECORD
  5
62F
330
1
100
AcDbSymbolTableRecord
100
AcDbBlockTableRecord
  2
*D54
340
0
 70
     0
280
     1
281
     0
  0
BLOCK_RECORD
  5
640
330
1
100
AcDbSymbolTableRecord
100
AcDbBlockTableRecord
  2
*D55
340
0
 70
     0
280
     1
281
     0
  0
BLOCK_RECORD
  5
664
330
1
100
AcDbSymbolTableRecord
100
AcDbBlockTableRecord
  2
*D56
340
0
 70
     0
280
     1
281
     0
  0
BLOCK_RECORD
  5
670
330
1
100
AcDbSymbolTableRecord
100
AcDbBlockTableRecord
  2
*D57
340
0
 70
     0
280
     1
281
     0
  0
BLOCK_RECORD
  5
67E
330
1
100
AcDbSymbolTableRecord
100
AcDbBlockTableRecord
  2
*D58
340
0
 70
     0
280
     1
281
     0
  0
BLOCK_RECORD
  5
6B0
330
1
100
AcDbSymbolTableRecord
100
AcDbBlockTableRecord
  2
*D59
340
0
 70
     0
280
     1
281
     0
  0
BLOCK_RECORD
  5
6D2
330
1
100
AcDbSymbolTableRecord
100
AcDbBlockTableRecord
  2
*D60
340
0
 70
     0
280
     1
281
     0
  0
BLOCK_RECORD
  5
6E3
330
1
100
AcDbSymbolTableRecord
100
AcDbBlockTableRecord
  2
*D61
340
0
 70
     0
280
     1
281
     0
  0
BLOCK_RECORD
  5
6F2
330
1
100
AcDbSymbolTableRecord
100
AcDbBlockTableRecord
  2
*D62
340
0
 70
     0
280
     1
281
     0
  0
BLOCK_RECORD
  5
722
330
1
100
AcDbSymbolTableRecord
100
AcDbBlockTableRecord
  2
*D63
340
0
 70
     0
280
     1
281
     0
  0
BLOCK_RECORD
  5
72E
330
1
100
AcDbSymbolTableRecord
100
AcDbBlockTableRecord
  2
*D64
340
0
 70
     0
280
     1
281
     0
  0
BLOCK_RECORD
  5
73C
330
1
100
AcDbSymbolTableRecord
100
AcDbBlockTableRecord
  2
*D65
340
0
 70
     0
280
     1
281
     0
  0
BLOCK_RECORD
  5
748
330
1
100
AcDbSymbolTableRecord
100
AcDbBlockTableRecord
  2
*D66
340
0
 70
     0
280
     1
281
     0
  0
BLOCK_RECORD
  5
782
330
1
100
AcDbSymbolTableRecord
100
AcDbBlockTableRecord
  2
*D67
340
0
 70
     0
280
     1
281
     0
  0
BLOCK_RECORD
  5
797
330
1
100
AcDbSymbolTableRecord
100
AcDbBlockTableRecord
  2
*D68
340
0
 70
     0
280
     1
281
     0
  0
BLOCK_RECORD
  5
7CA
330
1
100
AcDbSymbolTableRecord
100
AcDbBlockTableRecord
  2
*D69
340
0
 70
     0
280
     1
281
     0
  0
BLOCK_RECORD
  5
7DF
330
1
100
AcDbSymbolTableRecord
100
AcDbBlockTableRecord
  2
*D70
340
0
 70
     0
280
     1
281
     0
  0
BLOCK_RECORD
  5
7F6
330
1
100
AcDbSymbolTableRecord
100
AcDbBlockTableRecord
  2
*D71
340
0
 70
     0
280
     1
281
     0
  0
BLOCK_RECORD
  5
804
330
1
100
AcDbSymbolTableRecord
100
AcDbBlockTableRecord
  2
*D72
340
0
 70
     0
280
     1
281
     0
  0
BLOCK_RECORD
  5
865
330
1
100
AcDbSymbolTableRecord
100
AcDbBlockTableRecord
  2
*D73
340
0
 70
     0
280
     1
281
     0
  0
BLOCK_RECORD
  5
875
330
1
100
AcDbSymbolTableRecord
100
AcDbBlockTableRecord
  2
*D74
340
0
 70
     0
280
     1
281
     0
  0
BLOCK_RECORD
  5
887
330
1
100
AcDbSymbolTableRecord
100
AcDbBlockTableRecord
  2
*D75
340
0
 70
     0
280
     1
281
     0
  0
BLOCK_RECORD
  5
896
330
1
100
AcDbSymbolTableRecord
100
AcDbBlockTableRecord
  2
*D76
340
0
 70
     0
280
     1
281
     0
  0
BLOCK_RECORD
  5
8B8
330
1
100
AcDbSymbolTableRecord
100
AcDbBlockTableRecord
  2
*D77
340
0
 70
     0
280
     1
281
     0
  0
BLOCK_RECORD
  5
8C6
330
1
100
AcDbSymbolTableRecord
100
AcDbBlockTableRecord
  2
*D78
340
0
 70
     0
280
     1
281
     0
  0
BLOCK_RECORD
  5
8D2
330
1
100
AcDbSymbolTableRecord
100
AcDbBlockTableRecord
  2
*D79
340
0
 70
     0
280
     1
281
     0
  0
BLOCK_RECORD
  5
8DE
330
1
100
AcDbSymbolTableRecord
100
AcDbBlockTableRecord
  2
*D80
340
0
 70
     0
280
     1
281
     0
  0
BLOCK_RECORD
  5
944
330
1
100
AcDbSymbolTableRecord
100
AcDbBlockTableRecord
  2
*D81
340
0
 70
     0
280
     1
281
     0
  0
BLOCK_RECORD
  5
959
330
1
100
AcDbSymbolTableRecord
100
AcDbBlockTableRecord
  2
*D82
340
0
 70
     0
280
     1
281
     0
  0
BLOCK_RECORD
  5
974
330
1
100
AcDbSymbolTableRecord
100
AcDbBlockTableRecord
  2
*D83
340
0
 70
     0
280
     1
281
     0
  0
BLOCK_RECORD
  5
980
330
1
100
AcDbSymbolTableRecord
100
AcDbBlockTableRecord
  2
*D84
340
0
 70
     0
280
     1
281
     0
  0
ENDTAB
  0
ENDSEC
  0
SECTION
  2
BLOCKS
  0
BLOCK
  5
20
330
1F
100
AcDbEntity
  8
0
100
AcDbBlockBegin
  2
*Model_Space
 70
     0
 10
0.0
 20
0.0
 30
0.0
  3
*Model_Space
  1
*Model_Space
  0
ENDBLK
  5
21
330
1F
100
AcDbEntity
  8
0
100
AcDbBlockEnd
  0
BLOCK
  5
5A
330
58
100
AcDbEntity
 67
     1
  8
0
100
AcDbBlockBegin
  2
*Paper_Space
 70
     0
 10
0.0
 20
0.0
 30
0.0
  3
*Paper_Space
  1
*Paper_Space
  0
ENDBLK
  5
5B
330
58
100
AcDbEntity
 67
     1
  8
0
100
AcDbBlockEnd
  0
BLOCK
  5
5F
330
5D
100
AcDbEntity
  8
0
100
AcDbBlockBegin
  2
*Paper_Space0
 70
     0
 10
0.0
 20
0.0
 30
0.0
  3
*Paper_Space0
  1
*Paper_Space0
  0
ENDBLK
  5
60
330
5D
100
AcDbEntity
  8
0
100
AcDbBlockEnd
  0
BLOCK
  5
15A
330
159
100
AcDbEntity
  8
0
100
AcDbBlockBegin
  2
*D1
 70
     1
 10
0.0
 20
0.0
 30
0.0
  3
*D1
  1
*D2
  0
LINE
  5
15B
330
159
100
AcDbEntity
  8
文字
 62
     0
370
    -2
100
AcDbLine
 10
25.79932610174598
 20
19.7284910673454
 30
0.0
 11
25.79932610174598
 21
0.0
 31
0.0
  0
LINE
  5
15C
330
159
100
AcDbEntity
  8
文字
 62
     0
370
    -2
100
AcDbLine
 10
30.99932610174596
 20
19.72423680366683
 30
0.0
 11
30.99932610174596
 21
0.0
 31
0.0
  0
LINE
  5
15D
330
159
100
AcDbEntity
  8
文字
 62
     0
370
    -2
100
AcDbLine
 10
33.49932610174596
 20
1.25
 30
0.0
 11
41.77865761607066
 21
1.25
 31
0.0
  0
LINE
  5
15E
330
159
100
AcDbEntity
  8
文字
 62
     0
370
    -2
100
AcDbLine
 10
25.79932610174598
 20
1.25
 30
0.0
 11
30.99932610174596
 21
1.25
 31
0.0
  0
LINE
  5
15F
330
159
100
AcDbEntity
  8
文字
 62
     0
370
    -2
100
AcDbLine
 10
23.29932610174598
 20
1.25
 30
0.0
 11
20.79932610174598
 21
1.25
 31
0.0
  0
SOLID
  5
160
330
159
100
AcDbEntity
  8
文字
 62
     0
100
AcDbTrace
 10
23.29932610174598
 20
0.8333333333333333
 30
0.0
 11
23.29932610174598
 21
1.666666666666667
 31
0.0
 12
25.79932610174598
 22
1.25
 32
0.0
 13
25.79932610174598
 23
1.25
 33
0.0
  0
SOLID
  5
161
330
159
100
AcDbEntity
  8
文字
 62
     0
100
AcDbTrace
 10
33.49932610174596
 20
1.666666666666667
 30
0.0
 11
33.49932610174596
 21
0.8333333333333333
 31
0.0
 12
30.99932610174596
 22
1.25
 32
0.0
 13
30.99932610174596
 23
1.25
 33
0.0
  0
MTEXT
  5
162
330
159
100
AcDbEntity
  8
文字
 62
     0
100
AcDbMText
 10
38.88899185890831
 20
3.150579809004093
 30
0.0
 40
2.5
 41
0.0
 46
0.0
 71
     5
 72
     1
  1
5.2
 73
     1
 44
1.0
  0
POINT
  5
163
330
159
100
AcDbEntity
  8
Defpoints
 62
     0
100
AcDbPoint
 10
25.79932610174598
 20
20.3534910673454
 30
0.0
  0
POINT
  5
164
330
159
100
AcDbEntity
  8
Defpoints
 62
     0
100
AcDbPoint
 10
30.99932610174596
 20
20.34923680366683
 30
0.0
  0
POINT
  5
165
330
159
100
AcDbEntity
  8
Defpoints
 62
     0
100
AcDbPoint
 10
30.99932610174596
 20
1.25
 30
0.0
  0
ENDBLK
  5
166
330
159
100
AcDbEntity
  8
0
100
AcDbBlockEnd
  0
BLOCK
  5
16B
330
16A
100
AcDbEntity
  8
0
100
AcDbBlockBegin
  2
*D2
 70
     1
 10
0.0
 20
0.0
 30
0.0
  3
*D2
  1
*D3
  0
LINE
  5
16C
330
16A
100
AcDbEntity
  8
文字
 62
     0
370
    -2
100
AcDbLine
 10
28.99932610174596
 20
23.0894421588024
 30
0.0
 11
28.99932610174596
 21
25.75368257160358
 31
0.0
  0
LINE
  5
16D
330
16A
100
AcDbEntity
  8
文字
 62
     0
370
    -2
100
AcDbLine
 10
30.99932610174596
 20
23.0894421588024
 30
0.0
 11
30.99932610174596
 21
25.75368257160358
 31
0.0
  0
LINE
  5
16E
330
16A
100
AcDbEntity
  8
文字
 62
     0
370
    -2
100
AcDbLine
 10
33.49932610174596
 20
24.50368257160358
 30
0.0
 11
38.91030836641172
 21
24.50368257160358
 31
0.0
  0
LINE
  5
16F
330
16A
100
AcDbEntity
  8
文字
 62
     0
370
    -2
100
AcDbLine
 10
28.99932610174596
 20
24.50368257160358
 30
0.0
 11
30.99932610174596
 21
24.50368257160358
 31
0.0
  0
LINE
  5
170
330
16A
100
AcDbEntity
  8
文字
 62
     0
370
    -2
100
AcDbLine
 10
26.49932610174596
 20
24.50368257160358
 30
0.0
 11
23.99932610174596
 21
24.50368257160358
 31
0.0
  0
SOLID
  5
171
330
16A
100
AcDbEntity
  8
文字
 62
     0
100
AcDbTrace
 10
26.49932610174596
 20
24.08701590493691
 30
0.0
 11
26.49932610174596
 21
24.92034923827024
 31
0.0
 12
28.99932610174596
 22
24.50368257160358
 32
0.0
 13
28.99932610174596
 23
24.50368257160358
 33
0.0
  0
SOLID
  5
172
330
16A
100
AcDbEntity
  8
文字
 62
     0
100
AcDbTrace
 10
33.49932610174596
 20
24.92034923827024
 30
0.0
 11
33.49932610174596
 21
24.08701590493691
 31
0.0
 12
30.99932610174596
 22
24.50368257160358
 32
0.0
 13
30.99932610174596
 23
24.50368257160358
 33
0.0
  0
MTEXT
  5
173
330
16A
100
AcDbEntity
  8
文字
 62
     0
100
AcDbMText
 10
37.45481723407885
 20
26.38379853340439
 30
0.0
 40
2.5
 41
0.0
 46
0.0
 71
     5
 72
     1
  1
2
 73
     1
 44
1.0
  0
POINT
  5
174
330
16A
100
AcDbEntity
  8
Defpoints
 62
     0
100
AcDbPoint
 10
28.99932610174596
 20
22.4644421588024
 30
0.0
  0
POINT
  5
175
330
16A
100
AcDbEntity
  8
Defpoints
 62
     0
100
AcDbPoint
 10
30.99932610174596
 20
22.4644421588024
 30
0.0
  0
POINT
  5
176
330
16A
100
AcDbEntity
  8
Defpoints
 62
     0
100
AcDbPoint
 10
30.99932610174596
 20
24.50368257160358
 30
0.0
  0
ENDBLK
  5
177
330
16A
100
AcDbEntity
  8
0
100
AcDbBlockEnd
  0
BLOCK
  5
17C
330
17B
100
AcDbEntity
  8
0
100
AcDbBlockBegin
  2
*D3
 70
     1
 10
0.0
 20
0.0
 30
0.0
  3
*D3
  1
*D4
  0
LINE
  5
17D
330
17B
100
AcDbEntity
  8
文字
 62
     0
370
    -2
100
AcDbLine
 10
25.17432610174598
 20
44.3534910673454
 30
0.0
 11
13.24111545652343
 21
44.3534910673454
 31
0.0
  0
LINE
  5
17E
330
17B
100
AcDbEntity
  8
文字
 62
     0
370
    -2
100
AcDbLine
 10
25.17432610174598
 20
20.3534910673454
 30
0.0
 11
13.24111545652343
 21
20.3534910673454
 31
0.0
  0
LINE
  5
17F
330
17B
100
AcDbEntity
  8
文字
 62
     0
370
    -2
100
AcDbLine
 10
14.49111545652343
 20
41.8534910673454
 30
0.0
 11
14.49111545652343
 21
22.8534910673454
 31
0.0
  0
SOLID
  5
180
330
17B
100
AcDbEntity
  8
文字
 62
     0
100
AcDbTrace
 10
14.9077821231901
 20
41.8534910673454
 30
0.0
 11
14.07444878985677
 21
41.8534910673454
 31
0.0
 12
14.49111545652343
 22
44.3534910673454
 32
0.0
 13
14.49111545652343
 23
44.3534910673454
 33
0.0
  0
SOLID
  5
181
330
17B
100
AcDbEntity
  8
文字
 62
     0
100
AcDbTrace
 10
14.07444878985676
 20
22.8534910673454
 30
0.0
 11
14.9077821231901
 21
22.8534910673454
 31
0.0
 12
14.49111545652343
 22
20.3534910673454
 32
0.0
 13
14.49111545652343
 23
20.3534910673454
 33
0.0
  0
MTEXT
  5
182
330
17B
100
AcDbEntity
  8
文字
 62
     0
100
AcDbMText
 10
12.5427866707117
 20
38.04038198918295
 30
0.0
 40
2.5
 41
0.0
 46
0.0
 71
     5
 72
     1
  1
%%c24
 11
7.401486830834377E-17
 21
1.0
 31
0.0
 73
     1
 44
1.0
  0
POINT
  5
183
330
17B
100
AcDbEntity
  8
Defpoints
 62
     0
100
AcDbPoint
 10
25.79932610174598
 20
44.3534910673454
 30
0.0
  0
POINT
  5
184
330
17B
100
AcDbEntity
  8
Defpoints
 62
     0
100
AcDbPoint
 10
25.79932610174598
 20
20.3534910673454
 30
0.0
  0
POINT
  5
185
330
17B
100
AcDbEntity
  8
Defpoints
 62
     0
100
AcDbPoint
 10
14.49111545652346
 20
20.3534910673454
 30
0.0
  0
ENDBLK
  5
186
330
17B
100
AcDbEntity
  8
0
100
AcDbBlockEnd
  0
BLOCK
  5
18B
330
18A
100
AcDbEntity
  8
0
100
AcDbBlockBegin
  2
*D4
 70
     1
 10
0.0
 20
0.0
 30
0.0
  3
*D4
  1
*D5
  0
LINE
  5
18C
330
18A
100
AcDbEntity
  8
文字
 62
     0
370
    -2
100
AcDbLine
 10
31.62432610174596
 20
35.3534910673454
 30
0.0
 11
43.82901821708859
 21
35.3534910673454
 31
0.0
  0
LINE
  5
18D
330
18A
100
AcDbEntity
  8
文字
 62
     0
370
    -2
100
AcDbLine
 10
31.62432610174596
 20
29.3534910673454
 30
0.0
 11
43.82901821708859
 21
29.3534910673454
 31
0.0
  0
LINE
  5
18E
330
18A
100
AcDbEntity
  8
文字
 62
     0
370
    -2
100
AcDbLine
 10
42.57901821708859
 20
35.3534910673454
 30
0.0
 11
42.57901821708859
 21
43.26219957121082
 31
0.0
  0
LINE
  5
18F
330
18A
100
AcDbEntity
  8
文字
 62
     0
370
    -2
100
AcDbLine
 10
42.57901821708859
 20
35.3534910673454
 30
0.0
 11
42.57901821708859
 21
29.3534910673454
 31
0.0
  0
LINE
  5
190
330
18A
100
AcDbEntity
  8
文字
 62
     0
370
    -2
100
AcDbLine
 10
42.57901821708859
 20
37.8534910673454
 30
0.0
 11
42.57901821708859
 21
40.3534910673454
 31
0.0
  0
LINE
  5
191
330
18A
100
AcDbEntity
  8
文字
 62
     0
370
    -2
100
AcDbLine
 10
42.57901821708859
 20
26.8534910673454
 30
0.0
 11
42.57901821708859
 21
24.3534910673454
 31
0.0
  0
SOLID
  5
192
330
18A
100
AcDbEntity
  8
文字
 62
     0
100
AcDbTrace
 10
42.16235155042192
 20
37.8534910673454
 30
0.0
 11
42.99568488375525
 21
37.8534910673454
 31
0.0
 12
42.57901821708859
 22
35.3534910673454
 32
0.0
 13
42.57901821708859
 23
35.3534910673454
 33
0.0
  0
SOLID
  5
193
330
18A
100
AcDbEntity
  8
文字
 62
     0
100
AcDbTrace
 10
42.99568488375525
 20
26.8534910673454
 30
0.0
 11
42.16235155042192
 21
26.8534910673454
 31
0.0
 12
42.57901821708859
 22
29.3534910673454
 32
0.0
 13
42.57901821708859
 23
29.3534910673454
 33
0.0
  0
MTEXT
  5
194
330
18A
100
AcDbEntity
  8
文字
 62
     0
100
AcDbMText
 10
40.6784384080845
 20
41.81182440067876
 30
0.0
 40
2.5
 41
0.0
 46
0.0
 71
     5
 72
     1
  1
6
 11
0.0
 21
1.0
 31
0.0
 73
     1
 44
1.0
  0
POINT
  5
195
330
18A
100
AcDbEntity
  8
Defpoints
 62
     0
100
AcDbPoint
 10
30.99932610174596
 20
35.3534910673454
 30
0.0
  0
POINT
  5
196
330
18A
100
AcDbEntity
  8
Defpoints
 62
     0
100
AcDbPoint
 10
30.99932610174596
 20
29.3534910673454
 30
0.0
  0
POINT
  5
1A9
330
18A
100
AcDbEntity
  8
Defpoints
 62
     0
100
AcDbPoint
 10
42.57901821708862
 20
29.3534910673454
 30
0.0
  0
ENDBLK
  5
197
330
18A
100
AcDbEntity
  8
0
100
AcDbBlockEnd
  0
BLOCK
  5
19C
330
19B
100
AcDbEntity
  8
0
100
AcDbBlockBegin
  2
*D5
 70
     1
 10
0.0
 20
0.0
 30
0.0
  3
*D5
  1
*D6
  0
LINE
  5
19D
330
19B
100
AcDbEntity
  8
文字
 62
     0
370
    -2
100
AcDbLine
 10
27.52432610174597
 20
47.1034910673454
 30
0.0
 11
1.875000000000029
 21
47.1034910673454
 31
0.0
  0
LINE
  5
19E
330
19B
100
AcDbEntity
  8
文字
 62
     0
370
    -2
100
AcDbLine
 10
27.52432610174597
 20
17.6034910673454
 30
0.0
 11
1.875000000000027
 21
17.6034910673454
 31
0.0
  0
LINE
  5
19F
330
19B
100
AcDbEntity
  8
文字
 62
     0
370
    -2
100
AcDbLine
 10
3.125000000000029
 20
44.6034910673454
 30
0.0
 11
3.125000000000027
 21
20.1034910673454
 31
0.0
  0
SOLID
  5
1A0
330
19B
100
AcDbEntity
  8
文字
 62
     0
100
AcDbTrace
 10
3.541666666666695
 20
44.6034910673454
 30
0.0
 11
2.708333333333362
 21
44.6034910673454
 31
0.0
 12
3.125000000000029
 22
47.1034910673454
 32
0.0
 13
3.125000000000029
 23
47.1034910673454
 33
0.0
  0
SOLID
  5
1A1
330
19B
100
AcDbEntity
  8
文字
 62
     0
100
AcDbTrace
 10
2.708333333333361
 20
20.1034910673454
 30
0.0
 11
3.541666666666694
 21
20.1034910673454
 31
0.0
 12
3.125000000000027
 22
17.6034910673454
 32
0.0
 13
3.125000000000027
 23
17.6034910673454
 33
0.0
  0
MTEXT
  5
1A2
330
19B
100
AcDbEntity
  8
文字
 62
     0
100
AcDbMText
 10
1.176671214188296
 20
39.23553115944856
 30
0.0
 40
2.5
 41
0.0
 46
0.0
 71
     5
 72
     1
  1
%%c30
 11
6.021548608136442E-17
 21
1.0
 31
0.0
 73
     1
 44
1.0
  0
POINT
  5
1A3
330
19B
100
AcDbEntity
  8
Defpoints
 62
     0
100
AcDbPoint
 10
28.14932610174597
 20
47.1034910673454
 30
0.0
  0
POINT
  5
1A4
330
19B
100
AcDbEntity
  8
Defpoints
 62
     0
100
AcDbPoint
 10
28.14932610174597
 20
17.6034910673454
 30
0.0
  0
POINT
  5
1A5
330
19B
100
AcDbEntity
  8
Defpoints
 62
     0
100
AcDbPoint
 10
3.125000000000057
 20
17.6034910673454
 30
0.0
  0
ENDBLK
  5
1A6
330
19B
100
AcDbEntity
  8
0
100
AcDbBlockEnd
  0
BLOCK
  5
1C9
330
1C8
100
AcDbEntity
  8
0
100
AcDbBlockBegin
  2
*D6
 70
     1
 10
0.0
 20
0.0
 30
0.0
  3
*D6
  1
*D7
  0
LINE
  5
1CB
330
1C8
100
AcDbEntity
  8
文字
 62
     0
370
    -2
100
AcDbLine
 10
35.48475202293243
 20
36.52975008186949
 30
0.0
 11
15.75626095558703
 21
36.52975008186949
 31
0.0
  0
LINE
  5
1CC
330
1C8
100
AcDbEntity
  8
文字
 62
     0
370
    -2
100
AcDbLine
 10
35.48049775925386
 20
31.3297500818695
 30
0.0
 11
15.75626095558703
 21
31.3297500818695
 31
0.0
  0
LINE
  5
1CD
330
1C8
100
AcDbEntity
  8
文字
 62
     0
370
    -2
100
AcDbLine
 10
17.00626095558703
 20
28.8297500818695
 30
0.0
 11
17.00626095558703
 21
20.55041856754481
 31
0.0
  0
LINE
  5
1CE
330
1C8
100
AcDbEntity
  8
文字
 62
     0
370
    -2
100
AcDbLine
 10
17.00626095558703
 20
36.52975008186949
 30
0.0
 11
17.00626095558703
 21
31.3297500818695
 31
0.0
  0
LINE
  5
1CF
330
1C8
100
AcDbEntity
  8
文字
 62
     0
370
    -2
100
AcDbLine
 10
17.00626095558703
 20
39.02975008186949
 30
0.0
 11
17.00626095558703
 21
41.52975008186949
 31
0.0
  0
SOLID
  5
1D0
330
1C8
100
AcDbEntity
  8
文字
 62
     0
100
AcDbTrace
 10
16.58959428892036
 20
39.02975008186949
 30
0.0
 11
17.4229276222537
 21
39.02975008186949
 31
0.0
 12
17.00626095558703
 22
36.52975008186949
 32
0.0
 13
17.00626095558703
 23
36.52975008186949
 33
0.0
  0
SOLID
  5
1D1
330
1C8
100
AcDbEntity
  8
文字
 62
     0
100
AcDbTrace
 10
17.4229276222537
 20
28.8297500818695
 30
0.0
 11
16.58959428892036
 21
28.8297500818695
 31
0.0
 12
17.00626095558703
 22
31.3297500818695
 32
0.0
 13
17.00626095558703
 23
31.3297500818695
 33
0.0
  0
MTEXT
  5
1D2
330
1C8
100
AcDbEntity
  8
文字
 62
     0
100
AcDbMText
 10
15.10568114658294
 20
23.44008432470715
 30
0.0
 40
2.5
 41
0.0
 46
0.0
 71
     5
 72
     1
  1
5.2
 11
0.0
 21
1.0
 31
0.0
 73
     1
 44
1.0
  0
POINT
  5
1D3
330
1C8
100
AcDbEntity
  8
Defpoints
 62
     0
100
AcDbPoint
 10
36.10975202293243
 20
36.52975008186949
 30
0.0
  0
POINT
  5
1D4
330
1C8
100
AcDbEntity
  8
Defpoints
 62
     0
100
AcDbPoint
 10
36.10549775925386
 20
31.3297500818695
 30
0.0
  0
POINT
  5
1D5
330
1C8
100
AcDbEntity
  8
Defpoints
 62
     0
100
AcDbPoint
 10
17.00626095558703
 20
31.3297500818695
 30
0.0
  0
ENDBLK
  5
1CA
330
1C8
100
AcDbEntity
  8
0
100
AcDbBlockEnd
  0
BLOCK
  5
1D7
330
1D6
100
AcDbEntity
  8
0
100
AcDbBlockBegin
  2
*D7
 70
     1
 10
0.0
 20
0.0
 30
0.0
  3
*D7
  1
*D8
  0
LINE
  5
1D9
330
1D6
100
AcDbEntity
  8
文字
 62
     0
370
    -2
100
AcDbLine
 10
38.84570311438943
 20
33.3297500818695
 30
0.0
 11
41.50994352719061
 21
33.3297500818695
 31
0.0
  0
LINE
  5
1DA
330
1D6
100
AcDbEntity
  8
文字
 62
     0
370
    -2
100
AcDbLine
 10
38.84570311438943
 20
31.3297500818695
 30
0.0
 11
41.50994352719061
 21
31.3297500818695
 31
0.0
  0
LINE
  5
1DB
330
1D6
100
AcDbEntity
  8
文字
 62
     0
370
    -2
100
AcDbLine
 10
40.25994352719061
 20
28.8297500818695
 30
0.0
 11
40.25994352719061
 21
23.41876781720374
 31
0.0
  0
LINE
  5
1DC
330
1D6
100
AcDbEntity
  8
文字
 62
     0
370
    -2
100
AcDbLine
 10
40.25994352719061
 20
33.3297500818695
 30
0.0
 11
40.25994352719061
 21
31.3297500818695
 31
0.0
  0
LINE
  5
1DD
330
1D6
100
AcDbEntity
  8
文字
 62
     0
370
    -2
100
AcDbLine
 10
40.25994352719061
 20
35.8297500818695
 30
0.0
 11
40.25994352719061
 21
38.3297500818695
 31
0.0
  0
SOLID
  5
1DE
330
1D6
100
AcDbEntity
  8
文字
 62
     0
100
AcDbTrace
 10
39.84327686052394
 20
35.8297500818695
 30
0.0
 11
40.67661019385727
 21
35.8297500818695
 31
0.0
 12
40.25994352719061
 22
33.3297500818695
 32
0.0
 13
40.25994352719061
 23
33.3297500818695
 33
0.0
  0
SOLID
  5
1DF
330
1D6
100
AcDbEntity
  8
文字
 62
     0
100
AcDbTrace
 10
40.67661019385727
 20
28.8297500818695
 30
0.0
 11
39.84327686052394
 21
28.8297500818695
 31
0.0
 12
40.25994352719061
 22
31.3297500818695
 32
0.0
 13
40.25994352719061
 23
31.3297500818695
 33
0.0
  0
MTEXT
  5
1E0
330
1D6
100
AcDbEntity
  8
文字
 62
     0
100
AcDbMText
 10
38.37982756538979
 20
24.87425894953662
 30
0.0
 40
2.5
 41
0.0
 46
0.0
 71
     5
 72
     1
  1
2
 11
0.0
 21
1.0
 31
0.0
 73
     1
 44
1.0
  0
POINT
  5
1E1
330
1D6
100
AcDbEntity
  8
Defpoints
 62
     0
100
AcDbPoint
 10
38.22070311438943
 20
33.3297500818695
 30
0.0
  0
POINT
  5
1E2
330
1D6
100
AcDbEntity
  8
Defpoints
 62
     0
100
AcDbPoint
 10
38.22070311438943
 20
31.3297500818695
 30
0.0
  0
POINT
  5
1E3
330
1D6
100
AcDbEntity
  8
Defpoints
 62
     0
100
AcDbPoint
 10
40.25994352719061
 20
31.3297500818695
 30
0.0
  0
ENDBLK
  5
1D8
330
1D6
100
AcDbEntity
  8
0
100
AcDbBlockEnd
  0
BLOCK
  5
1E5
330
1E4
100
AcDbEntity
  8
0
100
AcDbBlockBegin
  2
*D8
 70
     1
 10
0.0
 20
0.0
 30
0.0
  3
*D8
  1
*D9
  0
LINE
  5
1E7
330
1E4
100
AcDbEntity
  8
文字
 62
     0
370
    -2
100
AcDbLine
 10
60.10975202293243
 20
35.90475008186949
 30
0.0
 11
60.10975202293243
 21
7.879975467418973
 31
0.0
  0
LINE
  5
1E8
330
1E4
100
AcDbEntity
  8
文字
 62
     0
370
    -2
100
AcDbLine
 10
36.10975202293243
 20
35.90475008186949
 30
0.0
 11
36.10975202293243
 21
7.879975467418973
 31
0.0
  0
LINE
  5
1E9
330
1E4
100
AcDbEntity
  8
文字
 62
     0
370
    -2
100
AcDbLine
 10
57.60975202293243
 20
9.129975467418973
 30
0.0
 11
38.60975202293243
 21
9.129975467418973
 31
0.0
  0
SOLID
  5
1EA
330
1E4
100
AcDbEntity
  8
文字
 62
     0
100
AcDbTrace
 10
57.60975202293243
 20
8.713308800752307
 30
0.0
 11
57.60975202293243
 21
9.546642134085639
 31
0.0
 12
60.10975202293243
 22
9.129975467418973
 32
0.0
 13
60.10975202293243
 23
9.129975467418973
 33
0.0
  0
SOLID
  5
1EB
330
1E4
100
AcDbEntity
  8
文字
 62
     0
100
AcDbTrace
 10
38.60975202293243
 20
9.546642134085639
 30
0.0
 11
38.60975202293243
 21
8.713308800752307
 31
0.0
 12
36.10975202293243
 22
9.129975467418973
 32
0.0
 13
36.10975202293243
 23
9.129975467418973
 33
0.0
  0
MTEXT
  5
1EC
330
1E4
100
AcDbEntity
  8
文字
 62
     0
100
AcDbMText
 10
53.79664294476998
 20
11.07830425323071
 30
0.0
 40
2.5
 41
0.0
 46
0.0
 71
     5
 72
     1
  1
%%c24
 73
     1
 44
1.0
  0
POINT
  5
1ED
330
1E4
100
AcDbEntity
  8
Defpoints
 62
     0
100
AcDbPoint
 10
60.10975202293243
 20
36.52975008186949
 30
0.0
  0
POINT
  5
1EE
330
1E4
100
AcDbEntity
  8
Defpoints
 62
     0
100
AcDbPoint
 10
36.10975202293243
 20
36.52975008186949
 30
0.0
  0
POINT
  5
1EF
330
1E4
100
AcDbEntity
  8
Defpoints
 62
     0
100
AcDbPoint
 10
36.10975202293243
 20
9.129975467418973
 30
0.0
  0
ENDBLK
  5
1E6
330
1E4
100
AcDbEntity
  8
0
100
AcDbBlockEnd
  0
BLOCK
  5
1F1
330
1F0
100
AcDbEntity
  8
0
100
AcDbBlockBegin
  2
*D9
 70
     1
 10
0.0
 20
0.0
 30
0.0
  3
*D9
  1
*D10
  0
LINE
  5
1F3
330
1F0
100
AcDbEntity
  8
文字
 62
     0
370
    -2
100
AcDbLine
 10
51.10975202293243
 20
30.7047500818695
 30
0.0
 11
51.10975202293243
 21
18.50005796652687
 31
0.0
  0
LINE
  5
1F4
330
1F0
100
AcDbEntity
  8
文字
 62
     0
370
    -2
100
AcDbLine
 10
45.10975202293243
 20
30.7047500818695
 30
0.0
 11
45.10975202293243
 21
18.50005796652687
 31
0.0
  0
LINE
  5
1F5
330
1F0
100
AcDbEntity
  8
文字
 62
     0
370
    -2
100
AcDbLine
 10
51.10975202293243
 20
19.75005796652687
 30
0.0
 11
59.01846052679785
 21
19.75005796652687
 31
0.0
  0
LINE
  5
1F6
330
1F0
100
AcDbEntity
  8
文字
 62
     0
370
    -2
100
AcDbLine
 10
51.10975202293243
 20
19.75005796652687
 30
0.0
 11
45.10975202293243
 21
19.75005796652687
 31
0.0
  0
LINE
  5
1F7
330
1F0
100
AcDbEntity
  8
文字
 62
     0
370
    -2
100
AcDbLine
 10
53.60975202293243
 20
19.75005796652687
 30
0.0
 11
56.10975202293243
 21
19.75005796652687
 31
0.0
  0
LINE
  5
1F8
330
1F0
100
AcDbEntity
  8
文字
 62
     0
370
    -2
100
AcDbLine
 10
42.60975202293243
 20
19.75005796652687
 30
0.0
 11
40.10975202293243
 21
19.75005796652687
 31
0.0
  0
SOLID
  5
1F9
330
1F0
100
AcDbEntity
  8
文字
 62
     0
100
AcDbTrace
 10
53.60975202293243
 20
20.16672463319354
 30
0.0
 11
53.60975202293243
 21
19.33339129986021
 31
0.0
 12
51.10975202293243
 22
19.75005796652687
 32
0.0
 13
51.10975202293243
 23
19.75005796652687
 33
0.0
  0
SOLID
  5
1FA
330
1F0
100
AcDbEntity
  8
文字
 62
     0
100
AcDbTrace
 10
42.60975202293243
 20
19.33339129986021
 30
0.0
 11
42.60975202293243
 21
20.16672463319354
 31
0.0
 12
45.10975202293243
 22
19.75005796652687
 32
0.0
 13
45.10975202293243
 23
19.75005796652687
 33
0.0
  0
MTEXT
  5
1FB
330
1F0
100
AcDbEntity
  8
文字
 62
     0
100
AcDbMText
 10
57.56808535626579
 20
21.65063777553097
 30
0.0
 40
2.5
 41
0.0
 46
0.0
 71
     5
 72
     1
  1
6
 73
     1
 44
1.0
  0
POINT
  5
1FC
330
1F0
100
AcDbEntity
  8
Defpoints
 62
     0
100
AcDbPoint
 10
51.10975202293243
 20
31.3297500818695
 30
0.0
  0
POINT
  5
1FD
330
1F0
100
AcDbEntity
  8
Defpoints
 62
     0
100
AcDbPoint
 10
45.10975202293243
 20
31.3297500818695
 30
0.0
  0
POINT
  5
1FE
330
1F0
100
AcDbEntity
  8
Defpoints
 62
     0
100
AcDbPoint
 10
45.10975202293243
 20
19.75005796652687
 30
0.0
  0
ENDBLK
  5
1F2
330
1F0
100
AcDbEntity
  8
0
100
AcDbBlockEnd
  0
BLOCK
  5
200
330
1FF
100
AcDbEntity
  8
0
100
AcDbBlockBegin
  2
*D10
 70
     1
 10
0.0
 20
0.0
 30
0.0
  3
*D10
  1
*D11
  0
LINE
  5
202
330
1FF
100
AcDbEntity
  8
文字
 62
     0
370
    -2
100
AcDbLine
 10
64.60975202293238
 20
33.30475008186952
 30
0.0
 11
64.60975202293238
 21
1.140930396673113
 31
0.0
  0
LINE
  5
203
330
1FF
100
AcDbEntity
  8
文字
 62
     0
370
    -2
100
AcDbLine
 10
31.60975202293238
 20
33.30475008186952
 30
0.0
 11
31.60975202293238
 21
1.140930396673113
 31
0.0
  0
LINE
  5
204
330
1FF
100
AcDbEntity
  8
文字
 62
     0
370
    -2
100
AcDbLine
 10
62.10975202293238
 20
2.390930396673113
 30
0.0
 11
34.10975202293238
 21
2.390930396673113
 31
0.0
  0
SOLID
  5
205
330
1FF
100
AcDbEntity
  8
文字
 62
     0
100
AcDbTrace
 10
62.10975202293238
 20
1.974263730006446
 30
0.0
 11
62.10975202293238
 21
2.80759706333978
 31
0.0
 12
64.60975202293238
 22
2.390930396673113
 32
0.0
 13
64.60975202293238
 23
2.390930396673113
 33
0.0
  0
SOLID
  5
206
330
1FF
100
AcDbEntity
  8
文字
 62
     0
100
AcDbTrace
 10
34.10975202293238
 20
2.80759706333978
 30
0.0
 11
34.10975202293238
 21
1.974263730006446
 31
0.0
 12
31.60975202293238
 22
2.390930396673113
 32
0.0
 13
31.60975202293238
 23
2.390930396673113
 33
0.0
  0
MTEXT
  5
207
330
1FF
100
AcDbEntity
  8
文字
 62
     0
100
AcDbMText
 10
52.4917921150356
 20
4.339259182484845
 30
0.0
 40
2.5
 41
0.0
 46
0.0
 71
     5
 72
     1
  1
%%c33
 73
     1
 44
1.0
  0
POINT
  5
208
330
1FF
100
AcDbEntity
  8
Defpoints
 62
     0
100
AcDbPoint
 10
64.60975202293238
 20
33.92975008186952
 30
0.0
  0
POINT
  5
209
330
1FF
100
AcDbEntity
  8
Defpoints
 62
     0
100
AcDbPoint
 10
31.60975202293238
 20
33.92975008186952
 30
0.0
  0
POINT
  5
20A
330
1FF
100
AcDbEntity
  8
Defpoints
 62
     0
100
AcDbPoint
 10
31.60975202293238
 20
2.390930396673113
 30
0.0
  0
ENDBLK
  5
201
330
1FF
100
AcDbEntity
  8
0
100
AcDbBlockEnd
  0
BLOCK
  5
234
330
233
100
AcDbEntity
  8
0
100
AcDbBlockBegin
  2
*D11
 70
     1
 10
0.0
 20
0.0
 30
0.0
  3
*D11
  1
*D13
  0
LINE
  5
235
330
233
100
AcDbEntity
  8
文字
 62
     0
370
    -2
100
AcDbLine
 10
121.5487801444953
 20
47.42648349716777
 30
0.0
 11
121.5487801444953
 21
20.31156687269083
 31
0.0
  0
LINE
  5
236
330
233
100
AcDbEntity
  8
文字
 62
     0
370
    -2
100
AcDbLine
 10
129.5162138593121
 20
47.42648349716778
 30
0.0
 11
129.5162138593121
 21
20.31156687269083
 31
0.0
  0
LINE
  5
237
330
233
100
AcDbEntity
  8
文字
 62
     0
370
    -2
100
AcDbLine
 10
124.0487801444953
 20
21.56156687269083
 30
0.0
 11
127.0162138593121
 21
21.56156687269083
 31
0.0
  0
SOLID
  5
238
330
233
100
AcDbEntity
  8
文字
 62
     0
100
AcDbTrace
 10
124.0487801444953
 20
21.9782335393575
 30
0.0
 11
124.0487801444953
 21
21.14490020602416
 31
0.0
 12
121.5487801444953
 22
21.56156687269083
 32
0.0
 13
121.5487801444953
 23
21.56156687269083
 33
0.0
  0
SOLID
  5
239
330
233
100
AcDbEntity
  8
文字
 62
     0
100
AcDbTrace
 10
127.0162138593121
 20
21.14490020602416
 30
0.0
 11
127.0162138593121
 21
21.9782335393575
 31
0.0
 12
129.5162138593121
 22
21.56156687269083
 32
0.0
 13
129.5162138593121
 23
21.56156687269083
 33
0.0
  0
MTEXT
  5
23A
330
233
100
AcDbEntity
  8
文字
 62
     0
100
AcDbMText
 10
125.5324970019037
 20
23.46214668169493
 30
0.0
 40
2.5
 41
0.0
 46
0.0
 71
     5
 72
     1
  1
8
 73
     1
 44
1.0
  0
POINT
  5
23B
330
233
100
AcDbEntity
  8
Defpoints
 62
     0
100
AcDbPoint
 10
121.5487801444953
 20
48.05148349716777
 30
0.0
  0
POINT
  5
23C
330
233
100
AcDbEntity
  8
Defpoints
 62
     0
100
AcDbPoint
 10
129.5162138593121
 20
48.05148349716778
 30
0.0
  0
POINT
  5
23D
330
233
100
AcDbEntity
  8
Defpoints
 62
     0
100
AcDbPoint
 10
129.5162138593121
 20
21.56156687269083
 30
0.0
  0
ENDBLK
  5
23E
330
233
100
AcDbEntity
  8
0
100
AcDbBlockEnd
  0
BLOCK
  5
243
330
242
100
AcDbEntity
  8
0
100
AcDbBlockBegin
  2
*D12
 70
     1
 10
0.0
 20
0.0
 30
0.0
  3
*D12
  1
*D14
  0
LINE
  5
244
330
242
100
AcDbEntity
  8
文字
 62
     0
370
    -2
100
AcDbLine
 10
15.15297443003249
 20
20.46477289033569
 30
0.0
 11
1.875
 21
20.46477289033569
 31
0.0
  0
LINE
  5
245
330
242
100
AcDbEntity
  8
文字
 62
     0
370
    -2
100
AcDbLine
 10
15.15297443003249
 20
18.8647728903357
 30
0.0
 11
1.875
 21
18.8647728903357
 31
0.0
  0
LINE
  5
246
330
242
100
AcDbEntity
  8
文字
 62
     0
370
    -2
100
AcDbLine
 10
3.125
 20
16.3647728903357
 30
0.0
 11
3.125
 21
8.29690113044484
 31
0.0
  0
LINE
  5
247
330
242
100
AcDbEntity
  8
文字
 62
     0
370
    -2
100
AcDbLine
 10
3.125
 20
20.46477289033569
 30
0.0
 11
3.125
 21
18.8647728903357
 31
0.0
  0
LINE
  5
248
330
242
100
AcDbEntity
  8
文字
 62
     0
370
    -2
100
AcDbLine
 10
3.125
 20
22.96477289033569
 30
0.0
 11
3.125
 21
25.46477289033569
 31
0.0
  0
SOLID
  5
249
330
242
100
AcDbEntity
  8
文字
 62
     0
100
AcDbTrace
 10
2.708333333333333
 20
22.96477289033569
 30
0.0
 11
3.541666666666667
 21
22.96477289033569
 31
0.0
 12
3.125
 22
20.46477289033569
 32
0.0
 13
3.125
 23
20.46477289033569
 33
0.0
  0
SOLID
  5
24A
330
242
100
AcDbEntity
  8
文字
 62
     0
100
AcDbTrace
 10
3.541666666666667
 20
16.3647728903357
 30
0.0
 11
2.708333333333333
 21
16.3647728903357
 31
0.0
 12
3.125
 22
18.8647728903357
 32
0.0
 13
3.125
 23
18.8647728903357
 33
0.0
  0
MTEXT
  5
24B
330
242
100
AcDbEntity
  8
文字
 62
     0
100
AcDbMText
 10
1.224420190995907
 20
11.08083701039027
 30
0.0
 40
2.5
 41
0.0
 46
0.0
 71
     5
 72
     1
  1
1.6
 11
0.0
 21
1.0
 31
0.0
 73
     1
 44
1.0
  0
POINT
  5
24C
330
242
100
AcDbEntity
  8
Defpoints
 62
     0
100
AcDbPoint
 10
15.77797443003249
 20
20.46477289033569
 30
0.0
  0
POINT
  5
24D
330
242
100
AcDbEntity
  8
Defpoints
 62
     0
100
AcDbPoint
 10
15.77797443003249
 20
18.8647728903357
 30
0.0
  0
POINT
  5
24E
330
242
100
AcDbEntity
  8
Defpoints
 62
     0
100
AcDbPoint
 10
3.125
 20
18.8647728903357
 30
0.0
  0
ENDBLK
  5
24F
330
242
100
AcDbEntity
  8
0
100
AcDbBlockEnd
  0
BLOCK
  5
254
330
253
100
AcDbEntity
  8
0
100
AcDbBlockBegin
  2
*D13
 70
     1
 10
0.0
 20
0.0
 30
0.0
  3
*D13
  1
*D15
  0
LINE
  5
255
330
253
100
AcDbEntity
  8
文字
 62
     0
370
    -2
100
AcDbLine
 10
114.5324970019037
 20
47.42648349716777
 30
0.0
 11
114.5324970019037
 21
12.10300103316729
 31
0.0
  0
LINE
  5
256
330
253
100
AcDbEntity
  8
文字
 62
     0
370
    -2
100
AcDbLine
 10
136.5324970019037
 20
47.42648349716777
 30
0.0
 11
136.5324970019037
 21
12.10300103316729
 31
0.0
  0
LINE
  5
257
330
253
100
AcDbEntity
  8
文字
 62
     0
370
    -2
100
AcDbLine
 10
117.0324970019037
 20
13.35300103316729
 30
0.0
 11
134.0324970019037
 21
13.35300103316729
 31
0.0
  0
SOLID
  5
258
330
253
100
AcDbEntity
  8
文字
 62
     0
100
AcDbTrace
 10
117.0324970019037
 20
13.76966769983395
 30
0.0
 11
117.0324970019037
 21
12.93633436650062
 31
0.0
 12
114.5324970019037
 22
13.35300103316729
 32
0.0
 13
114.5324970019037
 23
13.35300103316729
 33
0.0
  0
SOLID
  5
259
330
253
100
AcDbEntity
  8
文字
 62
     0
100
AcDbTrace
 10
134.0324970019037
 20
12.93633436650062
 30
0.0
 11
134.0324970019037
 21
13.76966769983395
 31
0.0
 12
136.5324970019037
 22
13.35300103316729
 32
0.0
 13
136.5324970019037
 23
13.35300103316729
 33
0.0
  0
MTEXT
  5
25A
330
253
100
AcDbEntity
  8
文字
 62
     0
100
AcDbMText
 10
125.6858312504738
 20
15.30132981897902
 30
0.0
 40
2.5
 41
0.0
 46
0.0
 71
     5
 72
     1
  1
%%c22
 73
     1
 44
1.0
  0
POINT
  5
25B
330
253
100
AcDbEntity
  8
Defpoints
 62
     0
100
AcDbPoint
 10
114.5324970019037
 20
48.05148349716777
 30
0.0
  0
POINT
  5
25C
330
253
100
AcDbEntity
  8
Defpoints
 62
     0
100
AcDbPoint
 10
136.5324970019037
 20
48.05148349716777
 30
0.0
  0
POINT
  5
25D
330
253
100
AcDbEntity
  8
Defpoints
 62
     0
100
AcDbPoint
 10
136.5324970019037
 20
13.35300103316729
 30
0.0
  0
ENDBLK
  5
25E
330
253
100
AcDbEntity
  8
0
100
AcDbBlockEnd
  0
BLOCK
  5
263
330
262
100
AcDbEntity
  8
0
100
AcDbBlockBegin
  2
*D14
 70
     1
 10
0.0
 20
0.0
 30
0.0
  3
*D14
  1
*D16
  0
LINE
  5
264
330
262
100
AcDbEntity
  8
文字
 62
     0
370
    -2
100
AcDbLine
 10
34.74453020534185
 20
25.63068715903273
 30
0.0
 11
60.52991292685864
 21
25.63068715903273
 31
0.0
  0
LINE
  5
265
330
262
100
AcDbEntity
  8
文字
 62
     0
370
    -2
100
AcDbLine
 10
46.4029744300325
 20
18.86477289033569
 30
0.0
 11
60.52991292685864
 21
18.86477289033569
 31
0.0
  0
LINE
  5
266
330
262
100
AcDbEntity
  8
文字
 62
     0
370
    -2
100
AcDbLine
 10
59.27991292685864
 20
23.13068715903273
 30
0.0
 11
59.27991292685864
 21
21.36477289033569
 31
0.0
  0
SOLID
  5
267
330
262
100
AcDbEntity
  8
文字
 62
     0
100
AcDbTrace
 10
59.69657959352531
 20
23.13068715903273
 30
0.0
 11
58.86324626019198
 21
23.13068715903273
 31
0.0
 12
59.27991292685864
 22
25.63068715903273
 32
0.0
 13
59.27991292685864
 23
25.63068715903273
 33
0.0
  0
SOLID
  5
268
330
262
100
AcDbEntity
  8
文字
 62
     0
100
AcDbTrace
 10
58.86324626019198
 20
21.36477289033569
 30
0.0
 11
59.69657959352531
 21
21.36477289033569
 31
0.0
 12
59.27991292685864
 22
18.86477289033569
 32
0.0
 13
59.27991292685864
 23
18.86477289033569
 33
0.0
  0
MTEXT
  5
269
330
262
100
AcDbEntity
  8
文字
 62
     0
100
AcDbMText
 10
57.40491292685864
 20
22.24773002468421
 30
0.0
 40
2.5
 41
0.0
 46
0.0
 71
     5
 72
     1
  1
7
 11
0.0
 21
1.0
 31
0.0
 73
     1
 44
1.0
  0
POINT
  5
26A
330
262
100
AcDbEntity
  8
Defpoints
 62
     0
100
AcDbPoint
 10
34.11953020534185
 20
25.63068715903273
 30
0.0
  0
POINT
  5
26B
330
262
100
AcDbEntity
  8
Defpoints
 62
     0
100
AcDbPoint
 10
45.7779744300325
 20
18.86477289033569
 30
0.0
  0
POINT
  5
26C
330
262
100
AcDbEntity
  8
Defpoints
 62
     0
100
AcDbPoint
 10
59.27991292685864
 20
18.86477289033569
 30
0.0
  0
ENDBLK
  5
26D
330
262
100
AcDbEntity
  8
0
100
AcDbBlockEnd
  0
BLOCK
  5
272
330
271
100
AcDbEntity
  8
0
100
AcDbBlockBegin
  2
*D15
 70
     1
 10
0.0
 20
0.0
 30
0.0
  3
*D15
  1
*D17
  0
LINE
  5
273
330
271
100
AcDbEntity
  8
文字
 62
     0
370
    -2
100
AcDbLine
 10
15.77797443003249
 20
18.2397728903357
 30
0.0
 11
15.77797443003249
 21
0.0
 31
0.0
  0
LINE
  5
274
330
271
100
AcDbEntity
  8
文字
 62
     0
370
    -2
100
AcDbLine
 10
45.77797443003249
 20
18.23977289033569
 30
0.0
 11
45.77797443003249
 21
0.0
 31
0.0
  0
LINE
  5
275
330
271
100
AcDbEntity
  8
文字
 62
     0
370
    -2
100
AcDbLine
 10
18.27797443003249
 20
1.25
 30
0.0
 11
43.27797443003249
 21
1.25
 31
0.0
  0
SOLID
  5
276
330
271
100
AcDbEntity
  8
文字
 62
     0
100
AcDbTrace
 10
18.27797443003249
 20
1.666666666666667
 30
0.0
 11
18.27797443003249
 21
0.8333333333333333
 31
0.0
 12
15.77797443003249
 22
1.25
 32
0.0
 13
15.77797443003249
 23
1.25
 33
0.0
  0
SOLID
  5
277
330
271
100
AcDbEntity
  8
文字
 62
     0
100
AcDbTrace
 10
43.27797443003249
 20
0.8333333333333333
 30
0.0
 11
43.27797443003249
 21
1.666666666666667
 31
0.0
 12
45.77797443003249
 22
1.25
 32
0.0
 13
45.77797443003249
 23
1.25
 33
0.0
  0
MTEXT
  5
278
330
271
100
AcDbEntity
  8
文字
 62
     0
100
AcDbMText
 10
30.77797443003249
 20
3.198328785811733
 30
0.0
 40
2.5
 41
0.0
 46
0.0
 71
     5
 72
     1
  1
%%c30
 73
     1
 44
1.0
  0
POINT
  5
279
330
271
100
AcDbEntity
  8
Defpoints
 62
     0
100
AcDbPoint
 10
15.77797443003249
 20
18.8647728903357
 30
0.0
  0
POINT
  5
27A
330
271
100
AcDbEntity
  8
Defpoints
 62
     0
100
AcDbPoint
 10
45.77797443003249
 20
18.86477289033569
 30
0.0
  0
POINT
  5
27B
330
271
100
AcDbEntity
  8
Defpoints
 62
     0
100
AcDbPoint
 10
45.77797443003249
 20
1.25
 30
0.0
  0
ENDBLK
  5
27C
330
271
100
AcDbEntity
  8
0
100
AcDbBlockEnd
  0
BLOCK
  5
29A
330
299
100
AcDbEntity
  8
0
100
AcDbBlockBegin
  2
*D16
 70
     1
 10
0.0
 20
0.0
 30
0.0
  3
*D16
  1
*D18
  0
LINE
  5
29B
330
299
100
AcDbEntity
  8
文字
 62
     0
370
    -2
100
AcDbLine
 10
55.81683311785455
 20
20.51877303294012
 30
0.0
 11
55.81683311785455
 21
26.34244288287191
 31
0.0
  0
LINE
  5
29C
330
299
100
AcDbEntity
  8
文字
 62
     0
370
    -2
100
AcDbLine
 10
55.81683311785455
 20
26.34244288287191
 30
0.0
 11
59.27991292685864
 21
27.3813676013693
 31
0.0
  0
LINE
  5
29D
330
299
100
AcDbEntity
  8
文字
 62
     0
370
    -2
100
AcDbLine
 10
58.65491292685864
 20
25.63068715903273
 30
0.0
 11
58.02991292685864
 21
25.63068715903273
 31
0.0
  0
LINE
  5
29E
330
299
100
AcDbEntity
  8
文字
 62
     0
370
    -2
100
AcDbLine
 10
59.89210607729251
 20
29.13204804370586
 30
0.0
 11
60.52991292685864
 21
29.13204804370586
 31
0.0
  0
LINE
  5
29F
330
299
100
AcDbEntity
  8
文字
 62
     0
370
    -2
100
AcDbLine
 10
59.27991292685864
 20
25.63068715903273
 30
0.0
 11
59.27991292685864
 21
29.13204804370586
 31
0.0
  0
LINE
  5
2A0
330
299
100
AcDbEntity
  8
文字
 62
     0
370
    -2
100
AcDbLine
 10
59.27991292685864
 20
23.13068715903273
 30
0.0
 11
59.27991292685864
 21
20.63068715903273
 31
0.0
  0
LINE
  5
2A1
330
299
100
AcDbEntity
  8
文字
 62
     0
370
    -2
100
AcDbLine
 10
59.27991292685864
 20
31.63204804370586
 30
0.0
 11
59.27991292685864
 21
34.13204804370586
 31
0.0
  0
SOLID
  5
2A2
330
299
100
AcDbEntity
  8
文字
 62
     0
100
AcDbTrace
 10
59.69657959352531
 20
23.13068715903273
 30
0.0
 11
58.86324626019198
 21
23.13068715903273
 31
0.0
 12
59.27991292685864
 22
25.63068715903273
 32
0.0
 13
59.27991292685864
 23
25.63068715903273
 33
0.0
  0
SOLID
  5
2A3
330
299
100
AcDbEntity
  8
文字
 62
     0
100
AcDbTrace
 10
58.86324626019198
 20
31.63204804370586
 30
0.0
 11
59.69657959352531
 21
31.63204804370586
 31
0.0
 12
59.27991292685864
 22
29.13204804370586
 32
0.0
 13
59.27991292685864
 23
29.13204804370586
 33
0.0
  0
MTEXT
  5
2A4
330
299
100
AcDbEntity
  8
文字
 62
     0
100
AcDbMText
 10
53.91625330885046
 20
23.43060795790602
 30
0.0
 40
2.5
 41
0.0
 46
0.0
 71
     5
 72
     1
  1
3.5
 11
0.0
 21
1.0
 31
0.0
 73
     1
 44
1.0
  0
POINT
  5
2A5
330
299
100
AcDbEntity
  8
Defpoints
 62
     0
100
AcDbPoint
 10
59.27991292685864
 20
25.63068715903273
 30
0.0
  0
POINT
  5
2A6
330
299
100
AcDbEntity
  8
Defpoints
 62
     0
100
AcDbPoint
 10
59.26710607729251
 20
29.13204804370586
 30
0.0
  0
POINT
  5
2A7
330
299
100
AcDbEntity
  8
Defpoints
 62
     0
100
AcDbPoint
 10
59.27991292685864
 20
29.13204804370586
 30
0.0
  0
ENDBLK
  5
2A9
330
299
100
AcDbEntity
  8
0
100
AcDbBlockEnd
  0
BLOCK
  5
2AC
330
2AB
100
AcDbEntity
  8
0
100
AcDbBlockBegin
  2
*D17
 70
     1
 10
0.0
 20
0.0
 30
0.0
  3
*D17
  1
*D19
  0
LINE
  5
2AD
330
2AB
100
AcDbEntity
  8
文字
 62
     0
370
    -2
100
AcDbLine
 10
28.27797443003249
 20
88.13204804370588
 30
0.0
 11
28.27797443003249
 21
98.98764243261371
 31
0.0
  0
LINE
  5
2AE
330
2AB
100
AcDbEntity
  8
文字
 62
     0
370
    -2
100
AcDbLine
 10
33.27797443003247
 20
88.13204804370585
 30
0.0
 11
33.27797443003247
 21
98.98764243261371
 31
0.0
  0
LINE
  5
2AF
330
2AB
100
AcDbEntity
  8
文字
 62
     0
370
    -2
100
AcDbLine
 10
35.77797443003247
 20
97.73764243261371
 30
0.0
 11
43.98568247914571
 21
97.73764243261371
 31
0.0
  0
LINE
  5
2B0
330
2AB
100
AcDbEntity
  8
文字
 62
     0
370
    -2
100
AcDbLine
 10
28.27797443003249
 20
97.73764243261371
 30
0.0
 11
33.27797443003247
 21
97.73764243261371
 31
0.0
  0
LINE
  5
2B1
330
2AB
100
AcDbEntity
  8
文字
 62
     0
370
    -2
100
AcDbLine
 10
25.77797443003249
 20
97.73764243261371
 30
0.0
 11
23.27797443003249
 21
97.73764243261371
 31
0.0
  0
SOLID
  5
2B2
330
2AB
100
AcDbEntity
  8
文字
 62
     0
100
AcDbTrace
 10
25.77797443003249
 20
97.32097576594704
 30
0.0
 11
25.77797443003249
 21
98.15430909928038
 31
0.0
 12
28.27797443003249
 22
97.73764243261371
 32
0.0
 13
28.27797443003249
 23
97.73764243261371
 33
0.0
  0
SOLID
  5
2B3
330
2AB
100
AcDbEntity
  8
文字
 62
     0
100
AcDbTrace
 10
35.77797443003247
 20
98.15430909928038
 30
0.0
 11
35.77797443003247
 21
97.32097576594704
 31
0.0
 12
33.27797443003247
 22
97.73764243261371
 32
0.0
 13
33.27797443003247
 23
97.73764243261371
 33
0.0
  0
MTEXT
  5
2B4
330
2AB
100
AcDbEntity
  8
文字
 62
     0
100
AcDbMText
 10
41.13182845458909
 20
99.63310627981699
 30
0.0
 40
2.5
 41
0.0
 46
0.0
 71
     5
 72
     1
  1
{\fArial|b0|i0|c0|p32;M}5
 73
     1
 44
1.0
  0
POINT
  5
2B5
330
2AB
100
AcDbEntity
  8
Defpoints
 62
     0
100
AcDbPoint
 10
28.27797443003249
 20
87.50704804370588
 30
0.0
  0
POINT
  5
2B6
330
2AB
100
AcDbEntity
  8
Defpoints
 62
     0
100
AcDbPoint
 10
33.27797443003247
 20
87.50704804370585
 30
0.0
  0
POINT
  5
2B7
330
2AB
100
AcDbEntity
  8
Defpoints
 62
     0
100
AcDbPoint
 10
33.27797443003247
 20
97.73764243261371
 30
0.0
  0
ENDBLK
  5
2B8
330
2AB
100
AcDbEntity
  8
0
100
AcDbBlockEnd
  0
BLOCK
  5
2C1
330
2C0
100
AcDbEntity
  8
0
100
AcDbBlockBegin
  2
*D18
 70
     1
 10
0.0
 20
0.0
 30
0.0
  3
*D18
  1
*D20
  0
LINE
  5
2C2
330
2C0
100
AcDbEntity
  8
文字
 62
     0
370
    -2
100
AcDbLine
 10
33.90297443003247
 20
89.13204804370588
 30
0.0
 11
60.52991292685865
 21
89.13204804370588
 31
0.0
  0
LINE
  5
2C3
330
2C0
100
AcDbEntity
  8
文字
 62
     0
370
    -2
100
AcDbLine
 10
36.00297443003254
 20
29.13204804370586
 30
0.0
 11
60.52991292685864
 21
29.13204804370586
 31
0.0
  0
LINE
  5
2C4
330
2C0
100
AcDbEntity
  8
文字
 62
     0
370
    -2
100
AcDbLine
 10
59.27991292685865
 20
86.63204804370588
 30
0.0
 11
59.27991292685864
 21
31.63204804370586
 31
0.0
  0
SOLID
  5
2C5
330
2C0
100
AcDbEntity
  8
文字
 62
     0
100
AcDbTrace
 10
59.69657959352531
 20
86.63204804370588
 30
0.0
 11
58.86324626019199
 21
86.63204804370588
 31
0.0
 12
59.27991292685865
 22
89.13204804370588
 32
0.0
 13
59.27991292685865
 23
89.13204804370588
 33
0.0
  0
SOLID
  5
2C6
330
2C0
100
AcDbEntity
  8
文字
 62
     0
100
AcDbTrace
 10
58.86324626019198
 20
31.63204804370586
 30
0.0
 11
59.69657959352531
 21
31.63204804370586
 31
0.0
 12
59.27991292685864
 22
29.13204804370586
 32
0.0
 13
59.27991292685864
 23
29.13204804370586
 33
0.0
  0
MTEXT
  5
2C7
330
2C0
100
AcDbEntity
  8
文字
 62
     0
100
AcDbMText
 10
57.37933311785455
 20
59.13204804370587
 30
0.0
 40
2.5
 41
0.0
 46
0.0
 71
     5
 72
     1
  1
60
 11
1.184237892933500E-16
 21
1.0
 31
0.0
 73
     1
 44
1.0
  0
POINT
  5
2C8
330
2C0
100
AcDbEntity
  8
Defpoints
 62
     0
100
AcDbPoint
 10
33.27797443003247
 20
89.13204804370588
 30
0.0
  0
POINT
  5
2C9
330
2C0
100
AcDbEntity
  8
Defpoints
 62
     0
100
AcDbPoint
 10
35.37797443003254
 20
29.13204804370586
 30
0.0
  0
POINT
  5
2CA
330
2C0
100
AcDbEntity
  8
Defpoints
 62
     0
100
AcDbPoint
 10
59.27991292685864
 20
29.13204804370586
 30
0.0
  0
ENDBLK
  5
2CB
330
2C0
100
AcDbEntity
  8
0
100
AcDbBlockEnd
  0
BLOCK
  5
305
330
304
100
AcDbEntity
  8
0
100
AcDbBlockBegin
  2
*D19
 70
     1
 10
0.0
 20
0.0
 30
0.0
  3
*D19
  1
*D21
  0
LINE
  5
307
330
304
100
AcDbEntity
  8
文字
 62
     0
370
    -2
100
AcDbLine
 10
138.8805577373953
 20
61.89146068870156
 30
0.0
 11
138.8805577373953
 21
34.77654406422463
 31
0.0
  0
LINE
  5
308
330
304
100
AcDbEntity
  8
文字
 62
     0
370
    -2
100
AcDbLine
 10
146.8479914522121
 20
61.89146068870158
 30
0.0
 11
146.8479914522121
 21
34.77654406422463
 31
0.0
  0
LINE
  5
309
330
304
100
AcDbEntity
  8
文字
 62
     0
370
    -2
100
AcDbLine
 10
141.3805577373953
 20
36.02654406422463
 30
0.0
 11
144.3479914522121
 21
36.02654406422463
 31
0.0
  0
SOLID
  5
30A
330
304
100
AcDbEntity
  8
文字
 62
     0
100
AcDbTrace
 10
141.3805577373953
 20
36.44321073089129
 30
0.0
 11
141.3805577373953
 21
35.60987739755797
 31
0.0
 12
138.8805577373953
 22
36.02654406422463
 32
0.0
 13
138.8805577373953
 23
36.02654406422463
 33
0.0
  0
SOLID
  5
30B
330
304
100
AcDbEntity
  8
文字
 62
     0
100
AcDbTrace
 10
144.3479914522121
 20
35.60987739755797
 30
0.0
 11
144.3479914522121
 21
36.44321073089129
 31
0.0
 12
146.8479914522121
 22
36.02654406422463
 32
0.0
 13
146.8479914522121
 23
36.02654406422463
 33
0.0
  0
MTEXT
  5
30C
330
304
100
AcDbEntity
  8
文字
 62
     0
100
AcDbMText
 10
142.8642745948037
 20
37.92712387322872
 30
0.0
 40
2.5
 41
0.0
 46
0.0
 71
     5
 72
     1
  1
8
 73
     1
 44
1.0
  0
POINT
  5
30D
330
304
100
AcDbEntity
  8
Defpoints
 62
     0
100
AcDbPoint
 10
138.8805577373953
 20
62.51646068870156
 30
0.0
  0
POINT
  5
30E
330
304
100
AcDbEntity
  8
Defpoints
 62
     0
100
AcDbPoint
 10
146.8479914522121
 20
62.51646068870158
 30
0.0
  0
POINT
  5
30F
330
304
100
AcDbEntity
  8
Defpoints
 62
     0
100
AcDbPoint
 10
146.8479914522121
 20
36.02654406422463
 30
0.0
  0
ENDBLK
  5
306
330
304
100
AcDbEntity
  8
0
100
AcDbBlockEnd
  0
BLOCK
  5
311
330
310
100
AcDbEntity
  8
0
100
AcDbBlockBegin
  2
*D20
 70
     1
 10
0.0
 20
0.0
 30
0.0
  3
*D20
  1
*D22
  0
LINE
  5
313
330
310
100
AcDbEntity
  8
文字
 62
     0
370
    -2
100
AcDbLine
 10
33.18475202293244
 20
34.92975008186949
 30
0.0
 11
0.0860348763596832
 21
34.92975008186949
 31
0.0
  0
LINE
  5
314
330
310
100
AcDbEntity
  8
文字
 62
     0
370
    -2
100
AcDbLine
 10
32.73475202293243
 20
33.3297500818695
 30
0.0
 11
0.0860348763596832
 21
33.3297500818695
 31
0.0
  0
LINE
  5
315
330
310
100
AcDbEntity
  8
文字
 62
     0
370
    -2
100
AcDbLine
 10
1.336034876359683
 20
30.8297500818695
 30
0.0
 11
1.336034876359683
 21
22.76187832197864
 31
0.0
  0
LINE
  5
316
330
310
100
AcDbEntity
  8
文字
 62
     0
370
    -2
100
AcDbLine
 10
1.336034876359683
 20
34.92975008186949
 30
0.0
 11
1.336034876359683
 21
33.3297500818695
 31
0.0
  0
LINE
  5
317
330
310
100
AcDbEntity
  8
文字
 62
     0
370
    -2
100
AcDbLine
 10
1.336034876359683
 20
37.42975008186949
 30
0.0
 11
1.336034876359683
 21
39.92975008186949
 31
0.0
  0
SOLID
  5
318
330
310
100
AcDbEntity
  8
文字
 62
     0
100
AcDbTrace
 10
0.9193682096930165
 20
37.42975008186949
 30
0.0
 11
1.75270154302635
 21
37.42975008186949
 31
0.0
 12
1.336034876359683
 22
34.92975008186949
 32
0.0
 13
1.336034876359683
 23
34.92975008186949
 33
0.0
  0
SOLID
  5
319
330
310
100
AcDbEntity
  8
文字
 62
     0
100
AcDbTrace
 10
1.75270154302635
 20
30.8297500818695
 30
0.0
 11
0.9193682096930165
 21
30.8297500818695
 31
0.0
 12
1.336034876359683
 22
33.3297500818695
 32
0.0
 13
1.336034876359683
 23
33.3297500818695
 33
0.0
  0
MTEXT
  5
31A
330
310
100
AcDbEntity
  8
文字
 62
     0
100
AcDbMText
 10
-0.5645449326444094
 20
25.54581420192407
 30
0.0
 40
2.5
 41
0.0
 46
0.0
 71
     5
 72
     1
  1
1.6
 11
0.0
 21
1.0
 31
0.0
 73
     1
 44
1.0
  0
POINT
  5
31B
330
310
100
AcDbEntity
  8
Defpoints
 62
     0
100
AcDbPoint
 10
33.80975202293244
 20
34.92975008186949
 30
0.0
  0
POINT
  5
31C
330
310
100
AcDbEntity
  8
Defpoints
 62
     0
100
AcDbPoint
 10
33.35975202293243
 20
33.3297500818695
 30
0.0
  0
POINT
  5
31D
330
310
100
AcDbEntity
  8
Defpoints
 62
     0
100
AcDbPoint
 10
1.336034876359683
 20
33.3297500818695
 30
0.0
  0
ENDBLK
  5
312
330
310
100
AcDbEntity
  8
0
100
AcDbBlockEnd
  0
BLOCK
  5
31F
330
31E
100
AcDbEntity
  8
0
100
AcDbBlockBegin
  2
*D21
 70
     1
 10
0.0
 20
0.0
 30
0.0
  3
*D21
  1
*D23
  0
LINE
  5
321
330
31E
100
AcDbEntity
  8
文字
 62
     0
370
    -2
100
AcDbLine
 10
131.8642745948037
 20
61.89146068870156
 30
0.0
 11
131.8642745948037
 21
26.56797822470109
 31
0.0
  0
LINE
  5
322
330
31E
100
AcDbEntity
  8
文字
 62
     0
370
    -2
100
AcDbLine
 10
153.8642745948037
 20
61.89146068870156
 30
0.0
 11
153.8642745948037
 21
26.56797822470109
 31
0.0
  0
LINE
  5
323
330
31E
100
AcDbEntity
  8
文字
 62
     0
370
    -2
100
AcDbLine
 10
134.3642745948037
 20
27.81797822470109
 30
0.0
 11
151.3642745948037
 21
27.81797822470109
 31
0.0
  0
SOLID
  5
324
330
31E
100
AcDbEntity
  8
文字
 62
     0
100
AcDbTrace
 10
134.3642745948037
 20
28.23464489136775
 30
0.0
 11
134.3642745948037
 21
27.40131155803442
 31
0.0
 12
131.8642745948037
 22
27.81797822470109
 32
0.0
 13
131.8642745948037
 23
27.81797822470109
 33
0.0
  0
SOLID
  5
325
330
31E
100
AcDbEntity
  8
文字
 62
     0
100
AcDbTrace
 10
151.3642745948037
 20
27.40131155803442
 30
0.0
 11
151.3642745948037
 21
28.23464489136775
 31
0.0
 12
153.8642745948037
 22
27.81797822470109
 32
0.0
 13
153.8642745948037
 23
27.81797822470109
 33
0.0
  0
MTEXT
  5
326
330
31E
100
AcDbEntity
  8
文字
 62
     0
100
AcDbMText
 10
143.0176088433738
 20
29.76630701051282
 30
0.0
 40
2.5
 41
0.0
 46
0.0
 71
     5
 72
     1
  1
%%c22
 73
     1
 44
1.0
  0
POINT
  5
327
330
31E
100
AcDbEntity
  8
Defpoints
 62
     0
100
AcDbPoint
 10
131.8642745948037
 20
62.51646068870156
 30
0.0
  0
POINT
  5
328
330
31E
100
AcDbEntity
  8
Defpoints
 62
     0
100
AcDbPoint
 10
153.8642745948037
 20
62.51646068870156
 30
0.0
  0
POINT
  5
329
330
31E
100
AcDbEntity
  8
Defpoints
 62
     0
100
AcDbPoint
 10
153.8642745948037
 20
27.81797822470109
 30
0.0
  0
ENDBLK
  5
320
330
31E
100
AcDbEntity
  8
0
100
AcDbBlockEnd
  0
BLOCK
  5
32B
330
32A
100
AcDbEntity
  8
0
100
AcDbBlockBegin
  2
*D22
 70
     1
 10
0.0
 20
0.0
 30
0.0
  3
*D22
  1
*D24
  0
LINE
  5
32D
330
32A
100
AcDbEntity
  8
文字
 62
     0
370
    -2
100
AcDbLine
 10
52.07630779824179
 20
40.09566435056653
 30
0.0
 11
77.92842468880279
 21
40.09566435056653
 31
0.0
  0
LINE
  5
32E
330
32A
100
AcDbEntity
  8
文字
 62
     0
370
    -2
100
AcDbLine
 10
60.73475202293243
 20
31.3297500818695
 30
0.0
 11
77.92842468880279
 21
31.3297500818695
 31
0.0
  0
LINE
  5
32F
330
32A
100
AcDbEntity
  8
文字
 62
     0
370
    -2
100
AcDbLine
 10
76.67842468880279
 20
37.59566435056653
 30
0.0
 11
76.67842468880279
 21
33.8297500818695
 31
0.0
  0
SOLID
  5
330
330
32A
100
AcDbEntity
  8
文字
 62
     0
100
AcDbTrace
 10
77.09509135546946
 20
37.59566435056653
 30
0.0
 11
76.26175802213612
 21
37.59566435056653
 31
0.0
 12
76.67842468880279
 22
40.09566435056653
 32
0.0
 13
76.67842468880279
 23
40.09566435056653
 33
0.0
  0
SOLID
  5
331
330
32A
100
AcDbEntity
  8
文字
 62
     0
100
AcDbTrace
 10
76.26175802213612
 20
33.8297500818695
 30
0.0
 11
77.09509135546946
 21
33.8297500818695
 31
0.0
 12
76.67842468880279
 22
31.3297500818695
 32
0.0
 13
76.67842468880279
 23
31.3297500818695
 33
0.0
  0
MTEXT
  5
332
330
32A
100
AcDbEntity
  8
文字
 62
     0
100
AcDbMText
 10
74.77784487979869
 20
36.57391332832046
 30
0.0
 40
2.5
 41
0.0
 46
0.0
 71
     5
 72
     1
  1
9
 11
0.0
 21
1.0
 31
0.0
 73
     1
 44
1.0
  0
POINT
  5
333
330
32A
100
AcDbEntity
  8
Defpoints
 62
     0
100
AcDbPoint
 10
51.45130779824179
 20
40.09566435056653
 30
0.0
  0
POINT
  5
334
330
32A
100
AcDbEntity
  8
Defpoints
 62
     0
100
AcDbPoint
 10
60.10975202293243
 20
31.3297500818695
 30
0.0
  0
POINT
  5
335
330
32A
100
AcDbEntity
  8
Defpoints
 62
     0
100
AcDbPoint
 10
76.67842468880279
 20
31.3297500818695
 30
0.0
  0
ENDBLK
  5
32C
330
32A
100
AcDbEntity
  8
0
100
AcDbBlockEnd
  0
BLOCK
  5
337
330
336
100
AcDbEntity
  8
0
100
AcDbBlockBegin
  2
*D23
 70
     1
 10
0.0
 20
0.0
 30
0.0
  3
*D23
  1
*D25
  0
LINE
  5
339
330
336
100
AcDbEntity
  8
文字
 62
     0
370
    -2
100
AcDbLine
 10
33.10975202293243
 20
8.0960052738265
 30
0.0
 11
33.10975202293243
 21
0.5417452212450726
 31
0.0
  0
LINE
  5
33A
330
336
100
AcDbEntity
  8
文字
 62
     0
370
    -2
100
AcDbLine
 10
63.10975202293243
 20
1.166745221245073
 30
0.0
 11
63.10975202293243
 21
0.5417452212450726
 31
0.0
  0
LINE
  5
33B
330
336
100
AcDbEntity
  8
文字
 62
     0
370
    -2
100
AcDbLine
 10
35.60975202293243
 20
1.791745221245073
 30
0.0
 11
60.60975202293243
 21
1.791745221245073
 31
0.0
  0
SOLID
  5
33C
330
336
100
AcDbEntity
  8
文字
 62
     0
100
AcDbTrace
 10
35.60975202293243
 20
2.208411887911739
 30
0.0
 11
35.60975202293243
 21
1.375078554578406
 31
0.0
 12
33.10975202293243
 22
1.791745221245073
 32
0.0
 13
33.10975202293243
 23
1.791745221245073
 33
0.0
  0
SOLID
  5
33D
330
336
100
AcDbEntity
  8
文字
 62
     0
100
AcDbTrace
 10
60.60975202293243
 20
1.375078554578406
 30
0.0
 11
60.60975202293243
 21
2.208411887911739
 31
0.0
 12
63.10975202293243
 22
1.791745221245073
 32
0.0
 13
63.10975202293243
 23
1.791745221245073
 33
0.0
  0
MTEXT
  5
33E
330
336
100
AcDbEntity
  8
文字
 62
     0
100
AcDbMText
 10
48.10975202293243
 20
3.740074007056805
 30
0.0
 40
2.5
 41
0.0
 46
0.0
 71
     5
 72
     1
  1
%%c30
 73
     1
 44
1.0
  0
POINT
  5
33F
330
336
100
AcDbEntity
  8
Defpoints
 62
     0
100
AcDbPoint
 10
33.10975202293243
 20
8.7210052738265
 30
0.0
  0
POINT
  5
340
330
336
100
AcDbEntity
  8
Defpoints
 62
     0
100
AcDbPoint
 10
63.10975202293243
 20
1.791745221245073
 30
0.0
  0
POINT
  5
341
330
336
100
AcDbEntity
  8
Defpoints
 62
     0
100
AcDbPoint
 10
63.10975202293243
 20
1.791745221245073
 30
0.0
  0
ENDBLK
  5
338
330
336
100
AcDbEntity
  8
0
100
AcDbBlockEnd
  0
BLOCK
  5
343
330
342
100
AcDbEntity
  8
0
100
AcDbBlockBegin
  2
*D24
 70
     1
 10
0.0
 20
0.0
 30
0.0
  3
*D24
  1
*D26
  0
LINE
  5
345
330
342
100
AcDbEntity
  8
文字
 62
     0
370
    -2
100
AcDbLine
 10
83.47181689721594
 20
34.3643360500904
 30
0.0
 11
83.47181689721594
 21
40.18800590002218
 31
0.0
  0
LINE
  5
346
330
342
100
AcDbEntity
  8
文字
 62
     0
370
    -2
100
AcDbLine
 10
83.47181689721594
 20
40.18800590002218
 30
0.0
 11
76.61169051975858
 21
41.8463447929031
 31
0.0
  0
LINE
  5
347
330
342
100
AcDbEntity
  8
文字
 62
     0
370
    -2
100
AcDbLine
 10
75.98669051975858
 20
40.09566435056653
 30
0.0
 11
75.36169051975858
 21
40.09566435056653
 31
0.0
  0
LINE
  5
348
330
342
100
AcDbEntity
  8
文字
 62
     0
370
    -2
100
AcDbLine
 10
77.22388367019246
 20
43.59702523523966
 30
0.0
 11
77.86169051975858
 21
43.59702523523966
 31
0.0
  0
LINE
  5
349
330
342
100
AcDbEntity
  8
文字
 62
     0
370
    -2
100
AcDbLine
 10
76.61169051975858
 20
40.09566435056653
 30
0.0
 11
76.61169051975858
 21
43.59702523523966
 31
0.0
  0
LINE
  5
34A
330
342
100
AcDbEntity
  8
文字
 62
     0
370
    -2
100
AcDbLine
 10
76.61169051975858
 20
46.09702523523966
 30
0.0
 11
76.61169051975858
 21
48.59702523523966
 31
0.0
  0
SOLID
  5
34B
330
342
100
AcDbEntity
  8
文字
 62
     0
100
AcDbTrace
 10
77.02835718642525
 20
37.59566435056653
 30
0.0
 11
76.19502385309191
 21
37.59566435056653
 31
0.0
 12
76.61169051975858
 22
40.09566435056653
 32
0.0
 13
76.61169051975858
 23
40.09566435056653
 33
0.0
  0
SOLID
  5
34C
330
342
100
AcDbEntity
  8
文字
 62
     0
100
AcDbTrace
 10
76.19502385309191
 20
46.09702523523966
 30
0.0
 11
77.02835718642525
 21
46.09702523523966
 31
0.0
 12
76.61169051975858
 22
43.59702523523966
 32
0.0
 13
76.61169051975858
 23
43.59702523523966
 33
0.0
  0
MTEXT
  5
34D
330
342
100
AcDbEntity
  8
文字
 62
     0
100
AcDbMText
 10
81.57123708821186
 20
37.27617097505629
 30
0.0
 40
2.5
 41
0.0
 46
0.0
 71
     5
 72
     1
  1
3.5
 11
0.0
 21
1.0
 31
0.0
 73
     1
 44
1.0
  0
POINT
  5
34E
330
342
100
AcDbEntity
  8
Defpoints
 62
     0
100
AcDbPoint
 10
76.61169051975858
 20
40.09566435056653
 30
0.0
  0
POINT
  5
34F
330
342
100
AcDbEntity
  8
Defpoints
 62
     0
100
AcDbPoint
 10
76.59888367019246
 20
43.59702523523966
 30
0.0
  0
POINT
  5
350
330
342
100
AcDbEntity
  8
Defpoints
 62
     0
100
AcDbPoint
 10
76.61169051975858
 20
43.59702523523966
 30
0.0
  0
ENDBLK
  5
344
330
342
100
AcDbEntity
  8
0
100
AcDbBlockEnd
  0
BLOCK
  5
353
330
352
100
AcDbEntity
  8
0
100
AcDbBlockBegin
  2
*D25
 70
     1
 10
0.0
 20
0.0
 30
0.0
  3
*D25
  1
*D27
  0
LINE
  5
355
330
352
100
AcDbEntity
  8
文字
 62
     0
370
    -2
100
AcDbLine
 10
45.60975202293243
 20
102.5970252352397
 30
0.0
 11
45.60975202293243
 21
113.4526196241475
 31
0.0
  0
LINE
  5
356
330
352
100
AcDbEntity
  8
文字
 62
     0
370
    -2
100
AcDbLine
 10
50.60975202293242
 20
102.5970252352396
 30
0.0
 11
50.60975202293242
 21
113.4526196241475
 31
0.0
  0
LINE
  5
357
330
352
100
AcDbEntity
  8
文字
 62
     0
370
    -2
100
AcDbLine
 10
53.10975202293242
 20
112.2026196241475
 30
0.0
 11
61.31746007204566
 21
112.2026196241475
 31
0.0
  0
LINE
  5
358
330
352
100
AcDbEntity
  8
文字
 62
     0
370
    -2
100
AcDbLine
 10
45.60975202293243
 20
112.2026196241475
 30
0.0
 11
50.60975202293242
 21
112.2026196241475
 31
0.0
  0
LINE
  5
359
330
352
100
AcDbEntity
  8
文字
 62
     0
370
    -2
100
AcDbLine
 10
43.10975202293243
 20
112.2026196241475
 30
0.0
 11
40.60975202293243
 21
112.2026196241475
 31
0.0
  0
SOLID
  5
35A
330
352
100
AcDbEntity
  8
文字
 62
     0
100
AcDbTrace
 10
43.10975202293243
 20
111.7859529574808
 30
0.0
 11
43.10975202293243
 21
112.6192862908142
 31
0.0
 12
45.60975202293243
 22
112.2026196241475
 32
0.0
 13
45.60975202293243
 23
112.2026196241475
 33
0.0
  0
SOLID
  5
35B
330
352
100
AcDbEntity
  8
文字
 62
     0
100
AcDbTrace
 10
53.10975202293242
 20
112.6192862908142
 30
0.0
 11
53.10975202293242
 21
111.7859529574808
 31
0.0
 12
50.60975202293242
 22
112.2026196241475
 32
0.0
 13
50.60975202293242
 23
112.2026196241475
 33
0.0
  0
MTEXT
  5
35C
330
352
100
AcDbEntity
  8
文字
 62
     0
100
AcDbMText
 10
58.46360604748904
 20
114.0980834713508
 30
0.0
 40
2.5
 41
0.0
 46
0.0
 71
     5
 72
     1
  1
{\fArial|b0|i0|c0|p32;M}5
 73
     1
 44
1.0
  0
POINT
  5
35D
330
352
100
AcDbEntity
  8
Defpoints
 62
     0
100
AcDbPoint
 10
45.60975202293243
 20
101.9720252352397
 30
0.0
  0
POINT
  5
35E
330
352
100
AcDbEntity
  8
Defpoints
 62
     0
100
AcDbPoint
 10
50.60975202293242
 20
101.9720252352396
 30
0.0
  0
POINT
  5
35F
330
352
100
AcDbEntity
  8
Defpoints
 62
     0
100
AcDbPoint
 10
50.60975202293242
 20
112.2026196241475
 30
0.0
  0
ENDBLK
  5
354
330
352
100
AcDbEntity
  8
0
100
AcDbBlockEnd
  0
BLOCK
  5
361
330
360
100
AcDbEntity
  8
0
100
AcDbBlockBegin
  2
*D26
 70
     1
 10
0.0
 20
0.0
 30
0.0
  3
*D26
  1
*D28
  0
LINE
  5
363
330
360
100
AcDbEntity
  8
文字
 62
     0
370
    -2
100
AcDbLine
 10
51.23475202293242
 20
103.5970252352397
 30
0.0
 11
77.86169051975858
 21
103.5970252352397
 31
0.0
  0
LINE
  5
364
330
360
100
AcDbEntity
  8
文字
 62
     0
370
    -2
100
AcDbLine
 10
53.33475202293248
 20
43.59702523523966
 30
0.0
 11
77.86169051975858
 21
43.59702523523966
 31
0.0
  0
LINE
  5
365
330
360
100
AcDbEntity
  8
文字
 62
     0
370
    -2
100
AcDbLine
 10
76.61169051975858
 20
101.0970252352397
 30
0.0
 11
76.61169051975858
 21
46.09702523523966
 31
0.0
  0
SOLID
  5
366
330
360
100
AcDbEntity
  8
文字
 62
     0
100
AcDbTrace
 10
77.02835718642525
 20
101.0970252352397
 30
0.0
 11
76.19502385309191
 21
101.0970252352397
 31
0.0
 12
76.61169051975858
 22
103.5970252352397
 32
0.0
 13
76.61169051975858
 23
103.5970252352397
 33
0.0
  0
SOLID
  5
367
330
360
100
AcDbEntity
  8
文字
 62
     0
100
AcDbTrace
 10
76.19502385309191
 20
46.09702523523966
 30
0.0
 11
77.02835718642525
 21
46.09702523523966
 31
0.0
 12
76.61169051975858
 22
43.59702523523966
 32
0.0
 13
76.61169051975858
 23
43.59702523523966
 33
0.0
  0
MTEXT
  5
368
330
360
100
AcDbEntity
  8
文字
 62
     0
100
AcDbMText
 10
74.71111071075448
 20
73.59702523523967
 30
0.0
 40
2.5
 41
0.0
 46
0.0
 71
     5
 72
     1
  1
60
 11
0.0
 21
1.0
 31
0.0
 73
     1
 44
1.0
  0
POINT
  5
369
330
360
100
AcDbEntity
  8
Defpoints
 62
     0
100
AcDbPoint
 10
50.60975202293242
 20
103.5970252352397
 30
0.0
  0
POINT
  5
36A
330
360
100
AcDbEntity
  8
Defpoints
 62
     0
100
AcDbPoint
 10
52.70975202293248
 20
43.59702523523966
 30
0.0
  0
POINT
  5
36B
330
360
100
AcDbEntity
  8
Defpoints
 62
     0
100
AcDbPoint
 10
76.61169051975858
 20
43.59702523523966
 30
0.0
  0
ENDBLK
  5
362
330
360
100
AcDbEntity
  8
0
100
AcDbBlockEnd
  0
BLOCK
  5
39C
330
39B
100
AcDbEntity
  8
0
100
AcDbBlockBegin
  2
*D27
 70
     1
 10
0.0
 20
0.0
 30
0.0
  3
*D27
  1
*D30
  0
LINE
  5
39D
330
39B
100
AcDbEntity
  8
文字
 62
     0
370
    -2
100
AcDbLine
 10
18.00000000000001
 20
32.14373264984019
 30
0.0
 11
18.00000000000001
 21
0.0
 31
0.0
  0
LINE
  5
39E
330
39B
100
AcDbEntity
  8
文字
 62
     0
370
    -2
100
AcDbLine
 10
42.00000000000001
 20
32.14373264984019
 30
0.0
 11
42.00000000000001
 21
0.0
 31
0.0
  0
LINE
  5
39F
330
39B
100
AcDbEntity
  8
文字
 62
     0
370
    -2
100
AcDbLine
 10
20.50000000000001
 20
1.25
 30
0.0
 11
39.50000000000001
 21
1.25
 31
0.0
  0
SOLID
  5
3A0
330
39B
100
AcDbEntity
  8
文字
 62
     0
100
AcDbTrace
 10
20.50000000000001
 20
1.666666666666667
 30
0.0
 11
20.50000000000001
 21
0.8333333333333333
 31
0.0
 12
18.00000000000001
 22
1.25
 32
0.0
 13
18.00000000000001
 23
1.25
 33
0.0
  0
SOLID
  5
3A1
330
39B
100
AcDbEntity
  8
文字
 62
     0
100
AcDbTrace
 10
39.50000000000001
 20
0.8333333333333333
 30
0.0
 11
39.50000000000001
 21
1.666666666666667
 31
0.0
 12
42.00000000000001
 22
1.25
 32
0.0
 13
42.00000000000001
 23
1.25
 33
0.0
  0
MTEXT
  5
3A2
330
39B
100
AcDbEntity
  8
文字
 62
     0
100
AcDbMText
 10
30.00000000000001
 20
3.198328785811733
 30
0.0
 40
2.5
 41
0.0
 46
0.0
 71
     5
 72
     1
  1
%%c24
 73
     1
 44
1.0
  0
POINT
  5
3A3
330
39B
100
AcDbEntity
  8
Defpoints
 62
     0
100
AcDbPoint
 10
18.00000000000001
 20
32.76873264984019
 30
0.0
  0
POINT
  5
3A4
330
39B
100
AcDbEntity
  8
Defpoints
 62
     0
100
AcDbPoint
 10
42.00000000000001
 20
32.76873264984019
 30
0.0
  0
POINT
  5
3A5
330
39B
100
AcDbEntity
  8
Defpoints
 62
     0
100
AcDbPoint
 10
42.00000000000001
 20
1.25
 30
0.0
  0
ENDBLK
  5
3A6
330
39B
100
AcDbEntity
  8
0
100
AcDbBlockEnd
  0
BLOCK
  5
3BD
330
3BC
100
AcDbEntity
  8
0
100
AcDbBlockBegin
  2
*D28
 70
     1
 10
0.0
 20
0.0
 30
0.0
  3
*D28
  1
*D31
  0
LINE
  5
3BE
330
3BC
100
AcDbEntity
  8
文字
 62
     0
370
    -2
100
AcDbLine
 10
101.4025391917446
 20
20.14373264984019
 30
0.0
 11
101.4025391917446
 21
0.4152415824947866
 31
0.0
  0
LINE
  5
3BF
330
3BC
100
AcDbEntity
  8
文字
 62
     0
370
    -2
100
AcDbLine
 10
106.6025391917446
 20
20.13947838616161
 30
0.0
 11
106.6025391917446
 21
0.4152415824947866
 31
0.0
  0
LINE
  5
3C0
330
3BC
100
AcDbEntity
  8
文字
 62
     0
370
    -2
100
AcDbLine
 10
109.1025391917446
 20
1.665241582494787
 30
0.0
 11
117.3818707060693
 21
1.665241582494787
 31
0.0
  0
LINE
  5
3C1
330
3BC
100
AcDbEntity
  8
文字
 62
     0
370
    -2
100
AcDbLine
 10
101.4025391917446
 20
1.665241582494787
 30
0.0
 11
106.6025391917446
 21
1.665241582494787
 31
0.0
  0
LINE
  5
3C2
330
3BC
100
AcDbEntity
  8
文字
 62
     0
370
    -2
100
AcDbLine
 10
98.90253919174461
 20
1.665241582494787
 30
0.0
 11
96.40253919174461
 21
1.665241582494787
 31
0.0
  0
SOLID
  5
3C3
330
3BC
100
AcDbEntity
  8
文字
 62
     0
100
AcDbTrace
 10
98.90253919174461
 20
1.24857491582812
 30
0.0
 11
98.90253919174461
 21
2.081908249161453
 31
0.0
 12
101.4025391917446
 22
1.665241582494787
 32
0.0
 13
101.4025391917446
 23
1.665241582494787
 33
0.0
  0
SOLID
  5
3C4
330
3BC
100
AcDbEntity
  8
文字
 62
     0
100
AcDbTrace
 10
109.1025391917446
 20
2.081908249161453
 30
0.0
 11
109.1025391917446
 21
1.24857491582812
 31
0.0
 12
106.6025391917446
 22
1.665241582494787
 32
0.0
 13
106.6025391917446
 23
1.665241582494787
 33
0.0
  0
MTEXT
  5
3C5
330
3BC
100
AcDbEntity
  8
文字
 62
     0
100
AcDbMText
 10
114.4922049489069
 20
3.565821391498879
 30
0.0
 40
2.5
 41
0.0
 46
0.0
 71
     5
 72
     1
  1
5.2
 73
     1
 44
1.0
  0
POINT
  5
3C6
330
3BC
100
AcDbEntity
  8
Defpoints
 62
     0
100
AcDbPoint
 10
101.4025391917446
 20
20.76873264984019
 30
0.0
  0
POINT
  5
3C7
330
3BC
100
AcDbEntity
  8
Defpoints
 62
     0
100
AcDbPoint
 10
106.6025391917446
 20
20.76447838616161
 30
0.0
  0
POINT
  5
3C8
330
3BC
100
AcDbEntity
  8
Defpoints
 62
     0
100
AcDbPoint
 10
106.6025391917446
 20
1.665241582494787
 30
0.0
  0
ENDBLK
  5
3C9
330
3BC
100
AcDbEntity
  8
0
100
AcDbBlockEnd
  0
BLOCK
  5
3CE
330
3CD
100
AcDbEntity
  8
0
100
AcDbBlockBegin
  2
*D29
 70
     1
 10
0.0
 20
0.0
 30
0.0
  3
*D29
  1
*D32
  0
LINE
  5
3CF
330
3CD
100
AcDbEntity
  8
文字
 62
     0
370
    -2
100
AcDbLine
 10
104.6025391917446
 20
23.50468374129719
 30
0.0
 11
104.6025391917446
 21
26.16892415409836
 31
0.0
  0
LINE
  5
3D0
330
3CD
100
AcDbEntity
  8
文字
 62
     0
370
    -2
100
AcDbLine
 10
106.6025391917446
 20
23.50468374129719
 30
0.0
 11
106.6025391917446
 21
26.16892415409836
 31
0.0
  0
LINE
  5
3D1
330
3CD
100
AcDbEntity
  8
文字
 62
     0
370
    -2
100
AcDbLine
 10
109.1025391917446
 20
24.91892415409836
 30
0.0
 11
114.5135214564104
 21
24.91892415409836
 31
0.0
  0
LINE
  5
3D2
330
3CD
100
AcDbEntity
  8
文字
 62
     0
370
    -2
100
AcDbLine
 10
104.6025391917446
 20
24.91892415409836
 30
0.0
 11
106.6025391917446
 21
24.91892415409836
 31
0.0
  0
LINE
  5
3D3
330
3CD
100
AcDbEntity
  8
文字
 62
     0
370
    -2
100
AcDbLine
 10
102.1025391917446
 20
24.91892415409836
 30
0.0
 11
99.6025391917446
 21
24.91892415409836
 31
0.0
  0
SOLID
  5
3D4
330
3CD
100
AcDbEntity
  8
文字
 62
     0
100
AcDbTrace
 10
102.1025391917446
 20
24.5022574874317
 30
0.0
 11
102.1025391917446
 21
25.33559082076503
 31
0.0
 12
104.6025391917446
 22
24.91892415409836
 32
0.0
 13
104.6025391917446
 23
24.91892415409836
 33
0.0
  0
SOLID
  5
3D5
330
3CD
100
AcDbEntity
  8
文字
 62
     0
100
AcDbTrace
 10
109.1025391917446
 20
25.33559082076503
 30
0.0
 11
109.1025391917446
 21
24.5022574874317
 31
0.0
 12
106.6025391917446
 22
24.91892415409836
 32
0.0
 13
106.6025391917446
 23
24.91892415409836
 33
0.0
  0
MTEXT
  5
3D6
330
3CD
100
AcDbEntity
  8
文字
 62
     0
100
AcDbMText
 10
113.0580303240775
 20
26.79904011589918
 30
0.0
 40
2.5
 41
0.0
 46
0.0
 71
     5
 72
     1
  1
2
 73
     1
 44
1.0
  0
POINT
  5
3D7
330
3CD
100
AcDbEntity
  8
Defpoints
 62
     0
100
AcDbPoint
 10
104.6025391917446
 20
22.87968374129719
 30
0.0
  0
POINT
  5
3D8
330
3CD
100
AcDbEntity
  8
Defpoints
 62
     0
100
AcDbPoint
 10
106.6025391917446
 20
22.87968374129719
 30
0.0
  0
POINT
  5
3D9
330
3CD
100
AcDbEntity
  8
Defpoints
 62
     0
100
AcDbPoint
 10
106.6025391917446
 20
24.91892415409836
 30
0.0
  0
ENDBLK
  5
3DA
330
3CD
100
AcDbEntity
  8
0
100
AcDbBlockEnd
  0
BLOCK
  5
3DF
330
3DE
100
AcDbEntity
  8
0
100
AcDbBlockBegin
  2
*D30
 70
     1
 10
0.0
 20
0.0
 30
0.0
  3
*D30
  1
*D33
  0
LINE
  5
3E0
330
3DE
100
AcDbEntity
  8
文字
 62
     0
370
    -2
100
AcDbLine
 10
100.7775391917446
 20
44.76873264984019
 30
0.0
 11
88.84432854652206
 21
44.76873264984019
 31
0.0
  0
LINE
  5
3E1
330
3DE
100
AcDbEntity
  8
文字
 62
     0
370
    -2
100
AcDbLine
 10
100.7775391917446
 20
20.76873264984019
 30
0.0
 11
88.84432854652206
 21
20.76873264984019
 31
0.0
  0
LINE
  5
3E2
330
3DE
100
AcDbEntity
  8
文字
 62
     0
370
    -2
100
AcDbLine
 10
90.09432854652206
 20
42.26873264984019
 30
0.0
 11
90.09432854652206
 21
23.26873264984019
 31
0.0
  0
SOLID
  5
3E3
330
3DE
100
AcDbEntity
  8
文字
 62
     0
100
AcDbTrace
 10
90.51099521318874
 20
42.26873264984019
 30
0.0
 11
89.67766187985539
 21
42.26873264984019
 31
0.0
 12
90.09432854652206
 22
44.76873264984019
 32
0.0
 13
90.09432854652206
 23
44.76873264984019
 33
0.0
  0
SOLID
  5
3E4
330
3DE
100
AcDbEntity
  8
文字
 62
     0
100
AcDbTrace
 10
89.67766187985539
 20
23.26873264984019
 30
0.0
 11
90.51099521318874
 21
23.26873264984019
 31
0.0
 12
90.09432854652206
 22
20.76873264984019
 32
0.0
 13
90.09432854652206
 23
20.76873264984019
 33
0.0
  0
MTEXT
  5
3E5
330
3DE
100
AcDbEntity
  8
文字
 62
     0
100
AcDbMText
 10
88.14599976071034
 20
38.45562357167773
 30
0.0
 40
2.5
 41
0.0
 46
0.0
 71
     5
 72
     1
  1
%%c24
 11
0.0
 21
1.0
 31
0.0
 73
     1
 44
1.0
  0
POINT
  5
3E6
330
3DE
100
AcDbEntity
  8
Defpoints
 62
     0
100
AcDbPoint
 10
101.4025391917446
 20
44.76873264984019
 30
0.0
  0
POINT
  5
3E7
330
3DE
100
AcDbEntity
  8
Defpoints
 62
     0
100
AcDbPoint
 10
101.4025391917446
 20
20.76873264984019
 30
0.0
  0
POINT
  5
3E8
330
3DE
100
AcDbEntity
  8
Defpoints
 62
     0
100
AcDbPoint
 10
90.09432854652209
 20
20.76873264984019
 30
0.0
  0
ENDBLK
  5
3E9
330
3DE
100
AcDbEntity
  8
0
100
AcDbBlockEnd
  0
BLOCK
  5
3EE
330
3ED
100
AcDbEntity
  8
0
100
AcDbBlockBegin
  2
*D31
 70
     1
 10
0.0
 20
0.0
 30
0.0
  3
*D31
  1
*D34
  0
LINE
  5
3EF
330
3ED
100
AcDbEntity
  8
文字
 62
     0
370
    -2
100
AcDbLine
 10
107.2275391917446
 20
35.76873264984019
 30
0.0
 11
119.4322313070872
 21
35.76873264984019
 31
0.0
  0
LINE
  5
3F0
330
3ED
100
AcDbEntity
  8
文字
 62
     0
370
    -2
100
AcDbLine
 10
107.2275391917446
 20
29.76873264984019
 30
0.0
 11
119.4322313070872
 21
29.76873264984019
 31
0.0
  0
LINE
  5
3F1
330
3ED
100
AcDbEntity
  8
文字
 62
     0
370
    -2
100
AcDbLine
 10
118.1822313070872
 20
35.76873264984019
 30
0.0
 11
118.1822313070872
 21
43.6774411537056
 31
0.0
  0
LINE
  5
3F2
330
3ED
100
AcDbEntity
  8
文字
 62
     0
370
    -2
100
AcDbLine
 10
118.1822313070872
 20
35.76873264984019
 30
0.0
 11
118.1822313070872
 21
29.76873264984019
 31
0.0
  0
LINE
  5
3F3
330
3ED
100
AcDbEntity
  8
文字
 62
     0
370
    -2
100
AcDbLine
 10
118.1822313070872
 20
38.26873264984019
 30
0.0
 11
118.1822313070872
 21
40.76873264984019
 31
0.0
  0
LINE
  5
3F4
330
3ED
100
AcDbEntity
  8
文字
 62
     0
370
    -2
100
AcDbLine
 10
118.1822313070872
 20
27.26873264984019
 30
0.0
 11
118.1822313070872
 21
24.76873264984019
 31
0.0
  0
SOLID
  5
3F5
330
3ED
100
AcDbEntity
  8
文字
 62
     0
100
AcDbTrace
 10
117.7655646404205
 20
38.26873264984019
 30
0.0
 11
118.5988979737539
 21
38.26873264984019
 31
0.0
 12
118.1822313070872
 22
35.76873264984019
 32
0.0
 13
118.1822313070872
 23
35.76873264984019
 33
0.0
  0
SOLID
  5
3F6
330
3ED
100
AcDbEntity
  8
文字
 62
     0
100
AcDbTrace
 10
118.5988979737539
 20
27.26873264984019
 30
0.0
 11
117.7655646404205
 21
27.26873264984019
 31
0.0
 12
118.1822313070872
 22
29.76873264984019
 32
0.0
 13
118.1822313070872
 23
29.76873264984019
 33
0.0
  0
MTEXT
  5
3F7
330
3ED
100
AcDbEntity
  8
文字
 62
     0
100
AcDbMText
 10
116.2816514980831
 20
42.22706598317355
 30
0.0
 40
2.5
 41
0.0
 46
0.0
 71
     5
 72
     1
  1
6
 11
0.0
 21
1.0
 31
0.0
 73
     1
 44
1.0
  0
POINT
  5
3F8
330
3ED
100
AcDbEntity
  8
Defpoints
 62
     0
100
AcDbPoint
 10
106.6025391917446
 20
35.76873264984019
 30
0.0
  0
POINT
  5
3F9
330
3ED
100
AcDbEntity
  8
Defpoints
 62
     0
100
AcDbPoint
 10
106.6025391917446
 20
29.76873264984019
 30
0.0
  0
POINT
  5
40C
330
3ED
100
AcDbEntity
  8
Defpoints
 62
     0
100
AcDbPoint
 10
118.1822313070872
 20
29.76873264984019
 30
0.0
  0
ENDBLK
  5
3FA
330
3ED
100
AcDbEntity
  8
0
100
AcDbBlockEnd
  0
BLOCK
  5
3FF
330
3FE
100
AcDbEntity
  8
0
100
AcDbBlockBegin
  2
*D32
 70
     1
 10
0.0
 20
0.0
 30
0.0
  3
*D32
  1
*D35
  0
LINE
  5
400
330
3FE
100
AcDbEntity
  8
文字
 62
     0
370
    -2
100
AcDbLine
 10
103.1275391917446
 20
47.51873264984019
 30
0.0
 11
77.47821308999866
 21
47.51873264984019
 31
0.0
  0
LINE
  5
401
330
3FE
100
AcDbEntity
  8
文字
 62
     0
370
    -2
100
AcDbLine
 10
103.1275391917446
 20
18.01873264984019
 30
0.0
 11
77.47821308999866
 21
18.01873264984019
 31
0.0
  0
LINE
  5
402
330
3FE
100
AcDbEntity
  8
文字
 62
     0
370
    -2
100
AcDbLine
 10
78.72821308999866
 20
45.01873264984019
 30
0.0
 11
78.72821308999866
 21
20.51873264984019
 31
0.0
  0
SOLID
  5
403
330
3FE
100
AcDbEntity
  8
文字
 62
     0
100
AcDbTrace
 10
79.14487975666533
 20
45.01873264984019
 30
0.0
 11
78.31154642333199
 21
45.01873264984019
 31
0.0
 12
78.72821308999866
 22
47.51873264984019
 32
0.0
 13
78.72821308999866
 23
47.51873264984019
 33
0.0
  0
SOLID
  5
404
330
3FE
100
AcDbEntity
  8
文字
 62
     0
100
AcDbTrace
 10
78.31154642333199
 20
20.51873264984019
 30
0.0
 11
79.14487975666533
 21
20.51873264984019
 31
0.0
 12
78.72821308999866
 22
18.01873264984019
 32
0.0
 13
78.72821308999866
 23
18.01873264984019
 33
0.0
  0
MTEXT
  5
405
330
3FE
100
AcDbEntity
  8
文字
 62
     0
100
AcDbMText
 10
76.77988430418694
 20
39.65077274194334
 30
0.0
 40
2.5
 41
0.0
 46
0.0
 71
     5
 72
     1
  1
%%c30
 11
0.0
 21
1.0
 31
0.0
 73
     1
 44
1.0
  0
POINT
  5
406
330
3FE
100
AcDbEntity
  8
Defpoints
 62
     0
100
AcDbPoint
 10
103.7525391917446
 20
47.51873264984019
 30
0.0
  0
POINT
  5
407
330
3FE
100
AcDbEntity
  8
Defpoints
 62
     0
100
AcDbPoint
 10
103.7525391917446
 20
18.01873264984019
 30
0.0
  0
POINT
  5
408
330
3FE
100
AcDbEntity
  8
Defpoints
 62
     0
100
AcDbPoint
 10
78.72821308999869
 20
18.01873264984019
 30
0.0
  0
ENDBLK
  5
409
330
3FE
100
AcDbEntity
  8
0
100
AcDbBlockEnd
  0
BLOCK
  5
43A
330
439
100
AcDbEntity
  8
0
100
AcDbBlockBegin
  2
*D33
 70
     1
 10
0.0
 20
0.0
 30
0.0
  3
*D33
  1
*D36
  0
LINE
  5
43C
330
439
100
AcDbEntity
  8
文字
 62
     0
370
    -2
100
AcDbLine
 10
130.8642745948037
 20
61.86306525416248
 30
0.0
 11
130.8642745948037
 21
26.68298772689778
 31
0.0
  0
LINE
  5
43D
330
439
100
AcDbEntity
  8
文字
 62
     0
370
    -2
100
AcDbLine
 10
154.8642745948037
 20
61.86306525416248
 30
0.0
 11
154.8642745948037
 21
26.68298772689778
 31
0.0
  0
LINE
  5
43E
330
439
100
AcDbEntity
  8
文字
 62
     0
370
    -2
100
AcDbLine
 10
133.3642745948037
 20
27.93298772689778
 30
0.0
 11
152.3642745948037
 21
27.93298772689778
 31
0.0
  0
SOLID
  5
43F
330
439
100
AcDbEntity
  8
文字
 62
     0
100
AcDbTrace
 10
133.3642745948037
 20
28.34965439356445
 30
0.0
 11
133.3642745948037
 21
27.51632106023111
 31
0.0
 12
130.8642745948037
 22
27.93298772689778
 32
0.0
 13
130.8642745948037
 23
27.93298772689778
 33
0.0
  0
SOLID
  5
440
330
439
100
AcDbEntity
  8
文字
 62
     0
100
AcDbTrace
 10
152.3642745948037
 20
27.51632106023111
 30
0.0
 11
152.3642745948037
 21
28.34965439356445
 31
0.0
 12
154.8642745948037
 22
27.93298772689778
 32
0.0
 13
154.8642745948037
 23
27.93298772689778
 33
0.0
  0
MTEXT
  5
441
330
439
100
AcDbEntity
  8
文字
 62
     0
100
AcDbMText
 10
142.8642745948037
 20
29.88131651270951
 30
0.0
 40
2.5
 41
0.0
 46
0.0
 71
     5
 72
     1
  1
%%c24
 73
     1
 44
1.0
  0
POINT
  5
442
330
439
100
AcDbEntity
  8
Defpoints
 62
     0
100
AcDbPoint
 10
130.8642745948037
 20
62.48806525416248
 30
0.0
  0
POINT
  5
443
330
439
100
AcDbEntity
  8
Defpoints
 62
     0
100
AcDbPoint
 10
154.8642745948037
 20
62.48806525416248
 30
0.0
  0
POINT
  5
444
330
439
100
AcDbEntity
  8
Defpoints
 62
     0
100
AcDbPoint
 10
154.8642745948037
 20
27.93298772689778
 30
0.0
  0
ENDBLK
  5
43B
330
439
100
AcDbEntity
  8
0
100
AcDbBlockEnd
  0
BLOCK
  5
446
330
445
100
AcDbEntity
  8
0
100
AcDbBlockBegin
  2
*D34
 70
     1
 10
0.0
 20
0.0
 30
0.0
  3
*D34
  1
*D37
  0
LINE
  5
448
330
445
100
AcDbEntity
  8
文字
 62
     0
370
    -2
100
AcDbLine
 10
218.4333318680009
 20
175.0280570786377
 30
0.0
 11
218.4333318680009
 21
155.2995660112923
 31
0.0
  0
LINE
  5
449
330
445
100
AcDbEntity
  8
文字
 62
     0
370
    -2
100
AcDbLine
 10
223.6333318680009
 20
175.0238028149591
 30
0.0
 11
223.6333318680009
 21
155.2995660112923
 31
0.0
  0
LINE
  5
44A
330
445
100
AcDbEntity
  8
文字
 62
     0
370
    -2
100
AcDbLine
 10
226.1333318680009
 20
156.5495660112923
 30
0.0
 11
234.4126633823255
 21
156.5495660112923
 31
0.0
  0
LINE
  5
44B
330
445
100
AcDbEntity
  8
文字
 62
     0
370
    -2
100
AcDbLine
 10
218.4333318680009
 20
156.5495660112923
 30
0.0
 11
223.6333318680009
 21
156.5495660112923
 31
0.0
  0
LINE
  5
44C
330
445
100
AcDbEntity
  8
文字
 62
     0
370
    -2
100
AcDbLine
 10
215.9333318680009
 20
156.5495660112923
 30
0.0
 11
213.4333318680009
 21
156.5495660112923
 31
0.0
  0
SOLID
  5
44D
330
445
100
AcDbEntity
  8
文字
 62
     0
100
AcDbTrace
 10
215.9333318680009
 20
156.1328993446257
 30
0.0
 11
215.9333318680009
 21
156.966232677959
 31
0.0
 12
218.4333318680009
 22
156.5495660112923
 32
0.0
 13
218.4333318680009
 23
156.5495660112923
 33
0.0
  0
SOLID
  5
44E
330
445
100
AcDbEntity
  8
文字
 62
     0
100
AcDbTrace
 10
226.1333318680009
 20
156.966232677959
 30
0.0
 11
226.1333318680009
 21
156.1328993446257
 31
0.0
 12
223.6333318680009
 22
156.5495660112923
 32
0.0
 13
223.6333318680009
 23
156.5495660112923
 33
0.0
  0
MTEXT
  5
44F
330
445
100
AcDbEntity
  8
文字
 62
     0
100
AcDbMText
 10
231.5229976251632
 20
158.4501458202964
 30
0.0
 40
2.5
 41
0.0
 46
0.0
 71
     5
 72
     1
  1
5.2
 73
     1
 44
1.0
  0
POINT
  5
450
330
445
100
AcDbEntity
  8
Defpoints
 62
     0
100
AcDbPoint
 10
218.4333318680009
 20
175.6530570786377
 30
0.0
  0
POINT
  5
451
330
445
100
AcDbEntity
  8
Defpoints
 62
     0
100
AcDbPoint
 10
223.6333318680009
 20
175.6488028149591
 30
0.0
  0
POINT
  5
452
330
445
100
AcDbEntity
  8
Defpoints
 62
     0
100
AcDbPoint
 10
223.6333318680009
 20
156.5495660112923
 30
0.0
  0
ENDBLK
  5
447
330
445
100
AcDbEntity
  8
0
100
AcDbBlockEnd
  0
BLOCK
  5
454
330
453
100
AcDbEntity
  8
0
100
AcDbBlockBegin
  2
*D35
 70
     1
 10
0.0
 20
0.0
 30
0.0
  3
*D35
  1
*D38
  0
LINE
  5
456
330
453
100
AcDbEntity
  8
文字
 62
     0
370
    -2
100
AcDbLine
 10
221.6333318680009
 20
178.3890081700947
 30
0.0
 11
221.6333318680009
 21
181.0532485828959
 31
0.0
  0
LINE
  5
457
330
453
100
AcDbEntity
  8
文字
 62
     0
370
    -2
100
AcDbLine
 10
223.6333318680009
 20
178.3890081700947
 30
0.0
 11
223.6333318680009
 21
181.0532485828959
 31
0.0
  0
LINE
  5
458
330
453
100
AcDbEntity
  8
文字
 62
     0
370
    -2
100
AcDbLine
 10
226.1333318680009
 20
179.8032485828959
 30
0.0
 11
231.5443141326666
 21
179.8032485828959
 31
0.0
  0
LINE
  5
459
330
453
100
AcDbEntity
  8
文字
 62
     0
370
    -2
100
AcDbLine
 10
221.6333318680009
 20
179.8032485828959
 30
0.0
 11
223.6333318680009
 21
179.8032485828959
 31
0.0
  0
LINE
  5
45A
330
453
100
AcDbEntity
  8
文字
 62
     0
370
    -2
100
AcDbLine
 10
219.1333318680009
 20
179.8032485828959
 30
0.0
 11
216.6333318680009
 21
179.8032485828959
 31
0.0
  0
SOLID
  5
45B
330
453
100
AcDbEntity
  8
文字
 62
     0
100
AcDbTrace
 10
219.1333318680009
 20
179.3865819162292
 30
0.0
 11
219.1333318680009
 21
180.2199152495625
 31
0.0
 12
221.6333318680009
 22
179.8032485828959
 32
0.0
 13
221.6333318680009
 23
179.8032485828959
 33
0.0
  0
SOLID
  5
45C
330
453
100
AcDbEntity
  8
文字
 62
     0
100
AcDbTrace
 10
226.1333318680009
 20
180.2199152495625
 30
0.0
 11
226.1333318680009
 21
179.3865819162292
 31
0.0
 12
223.6333318680009
 22
179.8032485828959
 32
0.0
 13
223.6333318680009
 23
179.8032485828959
 33
0.0
  0
MTEXT
  5
45D
330
453
100
AcDbEntity
  8
文字
 62
     0
100
AcDbMText
 10
230.0888230003337
 20
181.6833645446967
 30
0.0
 40
2.5
 41
0.0
 46
0.0
 71
     5
 72
     1
  1
2
 73
     1
 44
1.0
  0
POINT
  5
45E
330
453
100
AcDbEntity
  8
Defpoints
 62
     0
100
AcDbPoint
 10
221.6333318680009
 20
177.7640081700947
 30
0.0
  0
POINT
  5
45F
330
453
100
AcDbEntity
  8
Defpoints
 62
     0
100
AcDbPoint
 10
223.6333318680009
 20
177.7640081700947
 30
0.0
  0
POINT
  5
460
330
453
100
AcDbEntity
  8
Defpoints
 62
     0
100
AcDbPoint
 10
223.6333318680009
 20
179.8032485828959
 30
0.0
  0
ENDBLK
  5
455
330
453
100
AcDbEntity
  8
0
100
AcDbBlockEnd
  0
BLOCK
  5
462
330
461
100
AcDbEntity
  8
0
100
AcDbBlockBegin
  2
*D36
 70
     1
 10
0.0
 20
0.0
 30
0.0
  3
*D36
  1
*D39
  0
LINE
  5
464
330
461
100
AcDbEntity
  8
文字
 62
     0
370
    -2
100
AcDbLine
 10
217.8083318680009
 20
199.6530570786377
 30
0.0
 11
205.8751212227783
 21
199.6530570786377
 31
0.0
  0
LINE
  5
465
330
461
100
AcDbEntity
  8
文字
 62
     0
370
    -2
100
AcDbLine
 10
217.8083318680009
 20
175.6530570786377
 30
0.0
 11
205.8751212227783
 21
175.6530570786377
 31
0.0
  0
LINE
  5
466
330
461
100
AcDbEntity
  8
文字
 62
     0
370
    -2
100
AcDbLine
 10
207.1251212227783
 20
197.1530570786377
 30
0.0
 11
207.1251212227783
 21
178.1530570786377
 31
0.0
  0
SOLID
  5
467
330
461
100
AcDbEntity
  8
文字
 62
     0
100
AcDbTrace
 10
207.541787889445
 20
197.1530570786377
 30
0.0
 11
206.7084545561117
 21
197.1530570786377
 31
0.0
 12
207.1251212227783
 22
199.6530570786377
 32
0.0
 13
207.1251212227783
 23
199.6530570786377
 33
0.0
  0
SOLID
  5
468
330
461
100
AcDbEntity
  8
文字
 62
     0
100
AcDbTrace
 10
206.7084545561117
 20
178.1530570786377
 30
0.0
 11
207.541787889445
 21
178.1530570786377
 31
0.0
 12
207.1251212227783
 22
175.6530570786377
 32
0.0
 13
207.1251212227783
 23
175.6530570786377
 33
0.0
  0
MTEXT
  5
469
330
461
100
AcDbEntity
  8
文字
 62
     0
100
AcDbMText
 10
205.1767924369666
 20
193.3399480004753
 30
0.0
 40
2.5
 41
0.0
 46
0.0
 71
     5
 72
     1
  1
%%c24
 11
0.0
 21
1.0
 31
0.0
 73
     1
 44
1.0
  0
POINT
  5
46A
330
461
100
AcDbEntity
  8
Defpoints
 62
     0
100
AcDbPoint
 10
218.4333318680009
 20
199.6530570786377
 30
0.0
  0
POINT
  5
46B
330
461
100
AcDbEntity
  8
Defpoints
 62
     0
100
AcDbPoint
 10
218.4333318680009
 20
175.6530570786377
 30
0.0
  0
POINT
  5
46C
330
461
100
AcDbEntity
  8
Defpoints
 62
     0
100
AcDbPoint
 10
207.1251212227783
 20
175.6530570786377
 30
0.0
  0
ENDBLK
  5
463
330
461
100
AcDbEntity
  8
0
100
AcDbBlockEnd
  0
BLOCK
  5
46E
330
46D
100
AcDbEntity
  8
0
100
AcDbBlockBegin
  2
*D37
 70
     1
 10
0.0
 20
0.0
 30
0.0
  3
*D37
  1
*D40
  0
LINE
  5
470
330
46D
100
AcDbEntity
  8
文字
 62
     0
370
    -2
100
AcDbLine
 10
224.2583318680009
 20
190.6530570786377
 30
0.0
 11
236.4630239833435
 21
190.6530570786377
 31
0.0
  0
LINE
  5
471
330
46D
100
AcDbEntity
  8
文字
 62
     0
370
    -2
100
AcDbLine
 10
224.2583318680009
 20
184.6530570786377
 30
0.0
 11
236.4630239833435
 21
184.6530570786377
 31
0.0
  0
LINE
  5
472
330
46D
100
AcDbEntity
  8
文字
 62
     0
370
    -2
100
AcDbLine
 10
235.2130239833435
 20
190.6530570786377
 30
0.0
 11
235.2130239833435
 21
198.5617655825031
 31
0.0
  0
LINE
  5
473
330
46D
100
AcDbEntity
  8
文字
 62
     0
370
    -2
100
AcDbLine
 10
235.2130239833435
 20
190.6530570786377
 30
0.0
 11
235.2130239833435
 21
184.6530570786377
 31
0.0
  0
LINE
  5
474
330
46D
100
AcDbEntity
  8
文字
 62
     0
370
    -2
100
AcDbLine
 10
235.2130239833435
 20
193.1530570786377
 30
0.0
 11
235.2130239833435
 21
195.6530570786377
 31
0.0
  0
LINE
  5
475
330
46D
100
AcDbEntity
  8
文字
 62
     0
370
    -2
100
AcDbLine
 10
235.2130239833435
 20
182.1530570786377
 30
0.0
 11
235.2130239833435
 21
179.6530570786377
 31
0.0
  0
SOLID
  5
476
330
46D
100
AcDbEntity
  8
文字
 62
     0
100
AcDbTrace
 10
234.7963573166768
 20
193.1530570786377
 30
0.0
 11
235.6296906500102
 21
193.1530570786377
 31
0.0
 12
235.2130239833435
 22
190.6530570786377
 32
0.0
 13
235.2130239833435
 23
190.6530570786377
 33
0.0
  0
SOLID
  5
477
330
46D
100
AcDbEntity
  8
文字
 62
     0
100
AcDbTrace
 10
235.6296906500102
 20
182.1530570786377
 30
0.0
 11
234.7963573166768
 21
182.1530570786377
 31
0.0
 12
235.2130239833435
 22
184.6530570786377
 32
0.0
 13
235.2130239833435
 23
184.6530570786377
 33
0.0
  0
MTEXT
  5
478
330
46D
100
AcDbEntity
  8
文字
 62
     0
100
AcDbMText
 10
233.3124441743394
 20
197.1113904119711
 30
0.0
 40
2.5
 41
0.0
 46
0.0
 71
     5
 72
     1
  1
6
 11
0.0
 21
1.0
 31
0.0
 73
     1
 44
1.0
  0
POINT
  5
479
330
46D
100
AcDbEntity
  8
Defpoints
 62
     0
100
AcDbPoint
 10
223.6333318680009
 20
190.6530570786377
 30
0.0
  0
POINT
  5
47A
330
46D
100
AcDbEntity
  8
Defpoints
 62
     0
100
AcDbPoint
 10
223.6333318680009
 20
184.6530570786377
 30
0.0
  0
POINT
  5
47B
330
46D
100
AcDbEntity
  8
Defpoints
 62
     0
100
AcDbPoint
 10
235.2130239833435
 20
184.6530570786377
 30
0.0
  0
ENDBLK
  5
46F
330
46D
100
AcDbEntity
  8
0
100
AcDbBlockEnd
  0
BLOCK
  5
47D
330
47C
100
AcDbEntity
  8
0
100
AcDbBlockBegin
  2
*D38
 70
     1
 10
0.0
 20
0.0
 30
0.0
  3
*D38
  1
*D41
  0
LINE
  5
47F
330
47C
100
AcDbEntity
  8
文字
 62
     0
370
    -2
100
AcDbLine
 10
220.1583318680009
 20
202.4030570786377
 30
0.0
 11
194.5090057662549
 21
202.4030570786377
 31
0.0
  0
LINE
  5
480
330
47C
100
AcDbEntity
  8
文字
 62
     0
370
    -2
100
AcDbLine
 10
220.1583318680009
 20
172.9030570786377
 30
0.0
 11
194.5090057662549
 21
172.9030570786377
 31
0.0
  0
LINE
  5
481
330
47C
100
AcDbEntity
  8
文字
 62
     0
370
    -2
100
AcDbLine
 10
195.7590057662549
 20
199.9030570786377
 30
0.0
 11
195.7590057662549
 21
175.4030570786377
 31
0.0
  0
SOLID
  5
482
330
47C
100
AcDbEntity
  8
文字
 62
     0
100
AcDbTrace
 10
196.1756724329216
 20
199.9030570786377
 30
0.0
 11
195.3423390995883
 21
199.9030570786377
 31
0.0
 12
195.7590057662549
 22
202.4030570786377
 32
0.0
 13
195.7590057662549
 23
202.4030570786377
 33
0.0
  0
SOLID
  5
483
330
47C
100
AcDbEntity
  8
文字
 62
     0
100
AcDbTrace
 10
195.3423390995883
 20
175.4030570786377
 30
0.0
 11
196.1756724329216
 21
175.4030570786377
 31
0.0
 12
195.7590057662549
 22
172.9030570786377
 32
0.0
 13
195.7590057662549
 23
172.9030570786377
 33
0.0
  0
MTEXT
  5
484
330
47C
100
AcDbEntity
  8
文字
 62
     0
100
AcDbMText
 10
193.8106769804432
 20
194.5350971707409
 30
0.0
 40
2.5
 41
0.0
 46
0.0
 71
     5
 72
     1
  1
%%c30
 11
0.0
 21
1.0
 31
0.0
 73
     1
 44
1.0
  0
POINT
  5
485
330
47C
100
AcDbEntity
  8
Defpoints
 62
     0
100
AcDbPoint
 10
220.7833318680009
 20
202.4030570786377
 30
0.0
  0
POINT
  5
486
330
47C
100
AcDbEntity
  8
Defpoints
 62
     0
100
AcDbPoint
 10
220.7833318680009
 20
172.9030570786377
 30
0.0
  0
POINT
  5
487
330
47C
100
AcDbEntity
  8
Defpoints
 62
     0
100
AcDbPoint
 10
195.7590057662549
 20
172.9030570786377
 30
0.0
  0
ENDBLK
  5
47E
330
47C
100
AcDbEntity
  8
0
100
AcDbBlockEnd
  0
BLOCK
  5
4B8
330
4B7
100
AcDbEntity
  8
0
100
AcDbBlockBegin
  2
*D39
 70
     1
 10
0.0
 20
0.0
 30
0.0
  3
*D39
  1
*D43
  0
LINE
  5
4B9
330
4B7
100
AcDbEntity
  8
文字
 62
     0
370
    -2
100
AcDbLine
 10
18.00000000000001
 20
32.14373264984019
 30
0.0
 11
18.00000000000001
 21
0.0
 31
0.0
  0
LINE
  5
4BA
330
4B7
100
AcDbEntity
  8
文字
 62
     0
370
    -2
100
AcDbLine
 10
42.00000000000001
 20
32.14373264984019
 30
0.0
 11
42.00000000000001
 21
0.0
 31
0.0
  0
LINE
  5
4BB
330
4B7
100
AcDbEntity
  8
文字
 62
     0
370
    -2
100
AcDbLine
 10
20.50000000000001
 20
1.25
 30
0.0
 11
39.50000000000001
 21
1.25
 31
0.0
  0
SOLID
  5
4BC
330
4B7
100
AcDbEntity
  8
文字
 62
     0
100
AcDbTrace
 10
20.50000000000001
 20
1.666666666666667
 30
0.0
 11
20.50000000000001
 21
0.8333333333333333
 31
0.0
 12
18.00000000000001
 22
1.25
 32
0.0
 13
18.00000000000001
 23
1.25
 33
0.0
  0
SOLID
  5
4BD
330
4B7
100
AcDbEntity
  8
文字
 62
     0
100
AcDbTrace
 10
39.50000000000001
 20
0.8333333333333333
 30
0.0
 11
39.50000000000001
 21
1.666666666666667
 31
0.0
 12
42.00000000000001
 22
1.25
 32
0.0
 13
42.00000000000001
 23
1.25
 33
0.0
  0
MTEXT
  5
4BE
330
4B7
100
AcDbEntity
  8
文字
 62
     0
100
AcDbMText
 10
30.00000000000001
 20
3.198328785811733
 30
0.0
 40
2.5
 41
0.0
 46
0.0
 71
     5
 72
     1
  1
%%c24
 73
     1
 44
1.0
  0
POINT
  5
4BF
330
4B7
100
AcDbEntity
  8
Defpoints
 62
     0
100
AcDbPoint
 10
18.00000000000001
 20
32.76873264984019
 30
0.0
  0
POINT
  5
4C0
330
4B7
100
AcDbEntity
  8
Defpoints
 62
     0
100
AcDbPoint
 10
42.00000000000001
 20
32.76873264984019
 30
0.0
  0
POINT
  5
4C1
330
4B7
100
AcDbEntity
  8
Defpoints
 62
     0
100
AcDbPoint
 10
42.00000000000001
 20
1.25
 30
0.0
  0
ENDBLK
  5
4C2
330
4B7
100
AcDbEntity
  8
0
100
AcDbBlockEnd
  0
BLOCK
  5
4D9
330
4D8
100
AcDbEntity
  8
0
100
AcDbBlockBegin
  2
*D40
 70
     1
 10
0.0
 20
0.0
 30
0.0
  3
*D40
  1
*D44
  0
LINE
  5
4DA
330
4D8
100
AcDbEntity
  8
文字
 62
     0
370
    -2
100
AcDbLine
 10
101.4025391917446
 20
20.14373264984019
 30
0.0
 11
101.4025391917446
 21
0.4152415824947866
 31
0.0
  0
LINE
  5
4DB
330
4D8
100
AcDbEntity
  8
文字
 62
     0
370
    -2
100
AcDbLine
 10
106.6025391917446
 20
20.13947838616161
 30
0.0
 11
106.6025391917446
 21
0.4152415824947866
 31
0.0
  0
LINE
  5
4DC
330
4D8
100
AcDbEntity
  8
文字
 62
     0
370
    -2
100
AcDbLine
 10
109.1025391917446
 20
1.665241582494787
 30
0.0
 11
117.3818707060693
 21
1.665241582494787
 31
0.0
  0
LINE
  5
4DD
330
4D8
100
AcDbEntity
  8
文字
 62
     0
370
    -2
100
AcDbLine
 10
101.4025391917446
 20
1.665241582494787
 30
0.0
 11
106.6025391917446
 21
1.665241582494787
 31
0.0
  0
LINE
  5
4DE
330
4D8
100
AcDbEntity
  8
文字
 62
     0
370
    -2
100
AcDbLine
 10
98.90253919174461
 20
1.665241582494787
 30
0.0
 11
96.40253919174461
 21
1.665241582494787
 31
0.0
  0
SOLID
  5
4DF
330
4D8
100
AcDbEntity
  8
文字
 62
     0
100
AcDbTrace
 10
98.90253919174461
 20
1.24857491582812
 30
0.0
 11
98.90253919174461
 21
2.081908249161453
 31
0.0
 12
101.4025391917446
 22
1.665241582494787
 32
0.0
 13
101.4025391917446
 23
1.665241582494787
 33
0.0
  0
SOLID
  5
4E0
330
4D8
100
AcDbEntity
  8
文字
 62
     0
100
AcDbTrace
 10
109.1025391917446
 20
2.081908249161453
 30
0.0
 11
109.1025391917446
 21
1.24857491582812
 31
0.0
 12
106.6025391917446
 22
1.665241582494787
 32
0.0
 13
106.6025391917446
 23
1.665241582494787
 33
0.0
  0
MTEXT
  5
4E1
330
4D8
100
AcDbEntity
  8
文字
 62
     0
100
AcDbMText
 10
114.4922049489069
 20
3.565821391498879
 30
0.0
 40
2.5
 41
0.0
 46
0.0
 71
     5
 72
     1
  1
5.2
 73
     1
 44
1.0
  0
POINT
  5
4E2
330
4D8
100
AcDbEntity
  8
Defpoints
 62
     0
100
AcDbPoint
 10
101.4025391917446
 20
20.76873264984019
 30
0.0
  0
POINT
  5
4E3
330
4D8
100
AcDbEntity
  8
Defpoints
 62
     0
100
AcDbPoint
 10
106.6025391917446
 20
20.76447838616161
 30
0.0
  0
POINT
  5
4E4
330
4D8
100
AcDbEntity
  8
Defpoints
 62
     0
100
AcDbPoint
 10
106.6025391917446
 20
1.665241582494787
 30
0.0
  0
ENDBLK
  5
4E5
330
4D8
100
AcDbEntity
  8
0
100
AcDbBlockEnd
  0
BLOCK
  5
4EA
330
4E9
100
AcDbEntity
  8
0
100
AcDbBlockBegin
  2
*D41
 70
     1
 10
0.0
 20
0.0
 30
0.0
  3
*D41
  1
*D45
  0
LINE
  5
4EB
330
4E9
100
AcDbEntity
  8
文字
 62
     0
370
    -2
100
AcDbLine
 10
104.6025391917446
 20
23.50468374129719
 30
0.0
 11
104.6025391917446
 21
26.16892415409836
 31
0.0
  0
LINE
  5
4EC
330
4E9
100
AcDbEntity
  8
文字
 62
     0
370
    -2
100
AcDbLine
 10
106.6025391917446
 20
23.50468374129719
 30
0.0
 11
106.6025391917446
 21
26.16892415409836
 31
0.0
  0
LINE
  5
4ED
330
4E9
100
AcDbEntity
  8
文字
 62
     0
370
    -2
100
AcDbLine
 10
109.1025391917446
 20
24.91892415409836
 30
0.0
 11
114.5135214564104
 21
24.91892415409836
 31
0.0
  0
LINE
  5
4EE
330
4E9
100
AcDbEntity
  8
文字
 62
     0
370
    -2
100
AcDbLine
 10
104.6025391917446
 20
24.91892415409836
 30
0.0
 11
106.6025391917446
 21
24.91892415409836
 31
0.0
  0
LINE
  5
4EF
330
4E9
100
AcDbEntity
  8
文字
 62
     0
370
    -2
100
AcDbLine
 10
102.1025391917446
 20
24.91892415409836
 30
0.0
 11
99.6025391917446
 21
24.91892415409836
 31
0.0
  0
SOLID
  5
4F0
330
4E9
100
AcDbEntity
  8
文字
 62
     0
100
AcDbTrace
 10
102.1025391917446
 20
24.5022574874317
 30
0.0
 11
102.1025391917446
 21
25.33559082076503
 31
0.0
 12
104.6025391917446
 22
24.91892415409836
 32
0.0
 13
104.6025391917446
 23
24.91892415409836
 33
0.0
  0
SOLID
  5
4F1
330
4E9
100
AcDbEntity
  8
文字
 62
     0
100
AcDbTrace
 10
109.1025391917446
 20
25.33559082076503
 30
0.0
 11
109.1025391917446
 21
24.5022574874317
 31
0.0
 12
106.6025391917446
 22
24.91892415409836
 32
0.0
 13
106.6025391917446
 23
24.91892415409836
 33
0.0
  0
MTEXT
  5
4F2
330
4E9
100
AcDbEntity
  8
文字
 62
     0
100
AcDbMText
 10
113.0580303240775
 20
26.79904011589918
 30
0.0
 40
2.5
 41
0.0
 46
0.0
 71
     5
 72
     1
  1
2
 73
     1
 44
1.0
  0
POINT
  5
4F3
330
4E9
100
AcDbEntity
  8
Defpoints
 62
     0
100
AcDbPoint
 10
104.6025391917446
 20
22.87968374129719
 30
0.0
  0
POINT
  5
4F4
330
4E9
100
AcDbEntity
  8
Defpoints
 62
     0
100
AcDbPoint
 10
106.6025391917446
 20
22.87968374129719
 30
0.0
  0
POINT
  5
4F5
330
4E9
100
AcDbEntity
  8
Defpoints
 62
     0
100
AcDbPoint
 10
106.6025391917446
 20
24.91892415409836
 30
0.0
  0
ENDBLK
  5
4F6
330
4E9
100
AcDbEntity
  8
0
100
AcDbBlockEnd
  0
BLOCK
  5
4FB
330
4FA
100
AcDbEntity
  8
0
100
AcDbBlockBegin
  2
*D42
 70
     1
 10
0.0
 20
0.0
 30
0.0
  3
*D42
  1
*D46
  0
LINE
  5
4FC
330
4FA
100
AcDbEntity
  8
文字
 62
     0
370
    -2
100
AcDbLine
 10
100.7775391917446
 20
44.76873264984019
 30
0.0
 11
88.84432854652206
 21
44.76873264984019
 31
0.0
  0
LINE
  5
4FD
330
4FA
100
AcDbEntity
  8
文字
 62
     0
370
    -2
100
AcDbLine
 10
100.7775391917446
 20
20.76873264984019
 30
0.0
 11
88.84432854652206
 21
20.76873264984019
 31
0.0
  0
LINE
  5
4FE
330
4FA
100
AcDbEntity
  8
文字
 62
     0
370
    -2
100
AcDbLine
 10
90.09432854652206
 20
42.26873264984019
 30
0.0
 11
90.09432854652206
 21
23.26873264984019
 31
0.0
  0
SOLID
  5
4FF
330
4FA
100
AcDbEntity
  8
文字
 62
     0
100
AcDbTrace
 10
90.51099521318874
 20
42.26873264984019
 30
0.0
 11
89.67766187985539
 21
42.26873264984019
 31
0.0
 12
90.09432854652206
 22
44.76873264984019
 32
0.0
 13
90.09432854652206
 23
44.76873264984019
 33
0.0
  0
SOLID
  5
500
330
4FA
100
AcDbEntity
  8
文字
 62
     0
100
AcDbTrace
 10
89.67766187985539
 20
23.26873264984019
 30
0.0
 11
90.51099521318874
 21
23.26873264984019
 31
0.0
 12
90.09432854652206
 22
20.76873264984019
 32
0.0
 13
90.09432854652206
 23
20.76873264984019
 33
0.0
  0
MTEXT
  5
501
330
4FA
100
AcDbEntity
  8
文字
 62
     0
100
AcDbMText
 10
88.14599976071034
 20
38.45562357167773
 30
0.0
 40
2.5
 41
0.0
 46
0.0
 71
     5
 72
     1
  1
%%c24
 11
0.0
 21
1.0
 31
0.0
 73
     1
 44
1.0
  0
POINT
  5
502
330
4FA
100
AcDbEntity
  8
Defpoints
 62
     0
100
AcDbPoint
 10
101.4025391917446
 20
44.76873264984019
 30
0.0
  0
POINT
  5
503
330
4FA
100
AcDbEntity
  8
Defpoints
 62
     0
100
AcDbPoint
 10
101.4025391917446
 20
20.76873264984019
 30
0.0
  0
POINT
  5
504
330
4FA
100
AcDbEntity
  8
Defpoints
 62
     0
100
AcDbPoint
 10
90.09432854652209
 20
20.76873264984019
 30
0.0
  0
ENDBLK
  5
505
330
4FA
100
AcDbEntity
  8
0
100
AcDbBlockEnd
  0
BLOCK
  5
50A
330
509
100
AcDbEntity
  8
0
100
AcDbBlockBegin
  2
*D43
 70
     1
 10
0.0
 20
0.0
 30
0.0
  3
*D43
  1
*D47
  0
LINE
  5
50B
330
509
100
AcDbEntity
  8
文字
 62
     0
370
    -2
100
AcDbLine
 10
107.2275391917446
 20
35.76873264984019
 30
0.0
 11
119.4322313070872
 21
35.76873264984019
 31
0.0
  0
LINE
  5
50C
330
509
100
AcDbEntity
  8
文字
 62
     0
370
    -2
100
AcDbLine
 10
107.2275391917446
 20
29.76873264984019
 30
0.0
 11
119.4322313070872
 21
29.76873264984019
 31
0.0
  0
LINE
  5
50D
330
509
100
AcDbEntity
  8
文字
 62
     0
370
    -2
100
AcDbLine
 10
118.1822313070872
 20
35.76873264984019
 30
0.0
 11
118.1822313070872
 21
43.6774411537056
 31
0.0
  0
LINE
  5
50E
330
509
100
AcDbEntity
  8
文字
 62
     0
370
    -2
100
AcDbLine
 10
118.1822313070872
 20
35.76873264984019
 30
0.0
 11
118.1822313070872
 21
29.76873264984019
 31
0.0
  0
LINE
  5
50F
330
509
100
AcDbEntity
  8
文字
 62
     0
370
    -2
100
AcDbLine
 10
118.1822313070872
 20
38.26873264984019
 30
0.0
 11
118.1822313070872
 21
40.76873264984019
 31
0.0
  0
LINE
  5
510
330
509
100
AcDbEntity
  8
文字
 62
     0
370
    -2
100
AcDbLine
 10
118.1822313070872
 20
27.26873264984019
 30
0.0
 11
118.1822313070872
 21
24.76873264984019
 31
0.0
  0
SOLID
  5
511
330
509
100
AcDbEntity
  8
文字
 62
     0
100
AcDbTrace
 10
117.7655646404205
 20
38.26873264984019
 30
0.0
 11
118.5988979737539
 21
38.26873264984019
 31
0.0
 12
118.1822313070872
 22
35.76873264984019
 32
0.0
 13
118.1822313070872
 23
35.76873264984019
 33
0.0
  0
SOLID
  5
512
330
509
100
AcDbEntity
  8
文字
 62
     0
100
AcDbTrace
 10
118.5988979737539
 20
27.26873264984019
 30
0.0
 11
117.7655646404205
 21
27.26873264984019
 31
0.0
 12
118.1822313070872
 22
29.76873264984019
 32
0.0
 13
118.1822313070872
 23
29.76873264984019
 33
0.0
  0
MTEXT
  5
513
330
509
100
AcDbEntity
  8
文字
 62
     0
100
AcDbMText
 10
116.2816514980831
 20
42.22706598317355
 30
0.0
 40
2.5
 41
0.0
 46
0.0
 71
     5
 72
     1
  1
6
 11
0.0
 21
1.0
 31
0.0
 73
     1
 44
1.0
  0
POINT
  5
514
330
509
100
AcDbEntity
  8
Defpoints
 62
     0
100
AcDbPoint
 10
106.6025391917446
 20
35.76873264984019
 30
0.0
  0
POINT
  5
515
330
509
100
AcDbEntity
  8
Defpoints
 62
     0
100
AcDbPoint
 10
106.6025391917446
 20
29.76873264984019
 30
0.0
  0
POINT
  5
528
330
509
100
AcDbEntity
  8
Defpoints
 62
     0
100
AcDbPoint
 10
118.1822313070872
 20
29.76873264984019
 30
0.0
  0
ENDBLK
  5
516
330
509
100
AcDbEntity
  8
0
100
AcDbBlockEnd
  0
BLOCK
  5
51B
330
51A
100
AcDbEntity
  8
0
100
AcDbBlockBegin
  2
*D44
 70
     1
 10
0.0
 20
0.0
 30
0.0
  3
*D44
  1
*D48
  0
LINE
  5
51C
330
51A
100
AcDbEntity
  8
文字
 62
     0
370
    -2
100
AcDbLine
 10
103.1275391917446
 20
47.51873264984019
 30
0.0
 11
77.47821308999866
 21
47.51873264984019
 31
0.0
  0
LINE
  5
51D
330
51A
100
AcDbEntity
  8
文字
 62
     0
370
    -2
100
AcDbLine
 10
103.1275391917446
 20
18.01873264984019
 30
0.0
 11
77.47821308999866
 21
18.01873264984019
 31
0.0
  0
LINE
  5
51E
330
51A
100
AcDbEntity
  8
文字
 62
     0
370
    -2
100
AcDbLine
 10
78.72821308999866
 20
45.01873264984019
 30
0.0
 11
78.72821308999866
 21
20.51873264984019
 31
0.0
  0
SOLID
  5
51F
330
51A
100
AcDbEntity
  8
文字
 62
     0
100
AcDbTrace
 10
79.14487975666533
 20
45.01873264984019
 30
0.0
 11
78.31154642333199
 21
45.01873264984019
 31
0.0
 12
78.72821308999866
 22
47.51873264984019
 32
0.0
 13
78.72821308999866
 23
47.51873264984019
 33
0.0
  0
SOLID
  5
520
330
51A
100
AcDbEntity
  8
文字
 62
     0
100
AcDbTrace
 10
78.31154642333199
 20
20.51873264984019
 30
0.0
 11
79.14487975666533
 21
20.51873264984019
 31
0.0
 12
78.72821308999866
 22
18.01873264984019
 32
0.0
 13
78.72821308999866
 23
18.01873264984019
 33
0.0
  0
MTEXT
  5
521
330
51A
100
AcDbEntity
  8
文字
 62
     0
100
AcDbMText
 10
76.77988430418694
 20
39.65077274194334
 30
0.0
 40
2.5
 41
0.0
 46
0.0
 71
     5
 72
     1
  1
%%c30
 11
0.0
 21
1.0
 31
0.0
 73
     1
 44
1.0
  0
POINT
  5
522
330
51A
100
AcDbEntity
  8
Defpoints
 62
     0
100
AcDbPoint
 10
103.7525391917446
 20
47.51873264984019
 30
0.0
  0
POINT
  5
523
330
51A
100
AcDbEntity
  8
Defpoints
 62
     0
100
AcDbPoint
 10
103.7525391917446
 20
18.01873264984019
 30
0.0
  0
POINT
  5
524
330
51A
100
AcDbEntity
  8
Defpoints
 62
     0
100
AcDbPoint
 10
78.72821308999869
 20
18.01873264984019
 30
0.0
  0
ENDBLK
  5
525
330
51A
100
AcDbEntity
  8
0
100
AcDbBlockEnd
  0
BLOCK
  5
556
330
555
100
AcDbEntity
  8
0
100
AcDbBlockBegin
  2
*D45
 70
     1
 10
0.0
 20
0.0
 30
0.0
  3
*D45
  1
*D49
  0
LINE
  5
558
330
555
100
AcDbEntity
  8
文字
 62
     0
370
    -2
100
AcDbLine
 10
314.4677561839738
 20
123.5377669438046
 30
0.0
 11
314.4677561839738
 21
91.39403429396438
 31
0.0
  0
LINE
  5
559
330
555
100
AcDbEntity
  8
文字
 62
     0
370
    -2
100
AcDbLine
 10
338.4677561839738
 20
123.5377669438046
 30
0.0
 11
338.4677561839738
 21
91.39403429396438
 31
0.0
  0
LINE
  5
55A
330
555
100
AcDbEntity
  8
文字
 62
     0
370
    -2
100
AcDbLine
 10
316.9677561839738
 20
92.64403429396438
 30
0.0
 11
335.9677561839738
 21
92.64403429396438
 31
0.0
  0
SOLID
  5
55B
330
555
100
AcDbEntity
  8
文字
 62
     0
100
AcDbTrace
 10
316.9677561839738
 20
93.06070096063105
 30
0.0
 11
316.9677561839738
 21
92.22736762729771
 31
0.0
 12
314.4677561839738
 22
92.64403429396438
 32
0.0
 13
314.4677561839738
 23
92.64403429396438
 33
0.0
  0
SOLID
  5
55C
330
555
100
AcDbEntity
  8
文字
 62
     0
100
AcDbTrace
 10
335.9677561839738
 20
92.22736762729771
 30
0.0
 11
335.9677561839738
 21
93.06070096063105
 31
0.0
 12
338.4677561839738
 22
92.64403429396438
 32
0.0
 13
338.4677561839738
 23
92.64403429396438
 33
0.0
  0
MTEXT
  5
55D
330
555
100
AcDbEntity
  8
文字
 62
     0
100
AcDbMText
 10
326.4677561839738
 20
94.59236307977612
 30
0.0
 40
2.5
 41
0.0
 46
0.0
 71
     5
 72
     1
  1
%%c24
 73
     1
 44
1.0
  0
POINT
  5
55E
330
555
100
AcDbEntity
  8
Defpoints
 62
     0
100
AcDbPoint
 10
314.4677561839738
 20
124.1627669438046
 30
0.0
  0
POINT
  5
55F
330
555
100
AcDbEntity
  8
Defpoints
 62
     0
100
AcDbPoint
 10
338.4677561839738
 20
124.1627669438046
 30
0.0
  0
POINT
  5
560
330
555
100
AcDbEntity
  8
Defpoints
 62
     0
100
AcDbPoint
 10
338.4677561839738
 20
92.64403429396438
 30
0.0
  0
ENDBLK
  5
557
330
555
100
AcDbEntity
  8
0
100
AcDbBlockEnd
  0
BLOCK
  5
562
330
561
100
AcDbEntity
  8
0
100
AcDbBlockBegin
  2
*D46
 70
     1
 10
0.0
 20
0.0
 30
0.0
  3
*D46
  1
*D50
  0
LINE
  5
564
330
561
100
AcDbEntity
  8
文字
 62
     0
370
    -2
100
AcDbLine
 10
397.8702953757184
 20
111.5377669438046
 30
0.0
 11
397.8702953757184
 21
91.80927587645917
 31
0.0
  0
LINE
  5
565
330
561
100
AcDbEntity
  8
文字
 62
     0
370
    -2
100
AcDbLine
 10
403.0702953757184
 20
111.533512680126
 30
0.0
 11
403.0702953757184
 21
91.80927587645917
 31
0.0
  0
LINE
  5
566
330
561
100
AcDbEntity
  8
文字
 62
     0
370
    -2
100
AcDbLine
 10
405.5702953757184
 20
93.05927587645917
 30
0.0
 11
413.8496268900431
 21
93.05927587645917
 31
0.0
  0
LINE
  5
567
330
561
100
AcDbEntity
  8
文字
 62
     0
370
    -2
100
AcDbLine
 10
397.8702953757184
 20
93.05927587645917
 30
0.0
 11
403.0702953757184
 21
93.05927587645917
 31
0.0
  0
LINE
  5
568
330
561
100
AcDbEntity
  8
文字
 62
     0
370
    -2
100
AcDbLine
 10
395.3702953757184
 20
93.05927587645917
 30
0.0
 11
392.8702953757184
 21
93.05927587645917
 31
0.0
  0
SOLID
  5
569
330
561
100
AcDbEntity
  8
文字
 62
     0
100
AcDbTrace
 10
395.3702953757184
 20
92.6426092097925
 30
0.0
 11
395.3702953757184
 21
93.47594254312584
 31
0.0
 12
397.8702953757184
 22
93.05927587645917
 32
0.0
 13
397.8702953757184
 23
93.05927587645917
 33
0.0
  0
SOLID
  5
56A
330
561
100
AcDbEntity
  8
文字
 62
     0
100
AcDbTrace
 10
405.5702953757184
 20
93.47594254312584
 30
0.0
 11
405.5702953757184
 21
92.6426092097925
 31
0.0
 12
403.0702953757184
 22
93.05927587645917
 32
0.0
 13
403.0702953757184
 23
93.05927587645917
 33
0.0
  0
MTEXT
  5
56B
330
561
100
AcDbEntity
  8
文字
 62
     0
100
AcDbMText
 10
410.9599611328807
 20
94.95985568546327
 30
0.0
 40
2.5
 41
0.0
 46
0.0
 71
     5
 72
     1
  1
5.2
 73
     1
 44
1.0
  0
POINT
  5
56C
330
561
100
AcDbEntity
  8
Defpoints
 62
     0
100
AcDbPoint
 10
397.8702953757184
 20
112.1627669438046
 30
0.0
  0
POINT
  5
56D
330
561
100
AcDbEntity
  8
Defpoints
 62
     0
100
AcDbPoint
 10
403.0702953757184
 20
112.158512680126
 30
0.0
  0
POINT
  5
56E
330
561
100
AcDbEntity
  8
Defpoints
 62
     0
100
AcDbPoint
 10
403.0702953757184
 20
93.05927587645917
 30
0.0
  0
ENDBLK
  5
563
330
561
100
AcDbEntity
  8
0
100
AcDbBlockEnd
  0
BLOCK
  5
570
330
56F
100
AcDbEntity
  8
0
100
AcDbBlockBegin
  2
*D47
 70
     1
 10
0.0
 20
0.0
 30
0.0
  3
*D47
  1
*D51
  0
LINE
  5
572
330
56F
100
AcDbEntity
  8
文字
 62
     0
370
    -2
100
AcDbLine
 10
401.0702953757184
 20
114.8987180352616
 30
0.0
 11
401.0702953757184
 21
117.5629584480627
 31
0.0
  0
LINE
  5
573
330
56F
100
AcDbEntity
  8
文字
 62
     0
370
    -2
100
AcDbLine
 10
403.0702953757184
 20
114.8987180352616
 30
0.0
 11
403.0702953757184
 21
117.5629584480627
 31
0.0
  0
LINE
  5
574
330
56F
100
AcDbEntity
  8
文字
 62
     0
370
    -2
100
AcDbLine
 10
405.5702953757184
 20
116.3129584480627
 30
0.0
 11
410.9812776403842
 21
116.3129584480627
 31
0.0
  0
LINE
  5
575
330
56F
100
AcDbEntity
  8
文字
 62
     0
370
    -2
100
AcDbLine
 10
401.0702953757184
 20
116.3129584480627
 30
0.0
 11
403.0702953757184
 21
116.3129584480627
 31
0.0
  0
LINE
  5
576
330
56F
100
AcDbEntity
  8
文字
 62
     0
370
    -2
100
AcDbLine
 10
398.5702953757184
 20
116.3129584480627
 30
0.0
 11
396.0702953757184
 21
116.3129584480627
 31
0.0
  0
SOLID
  5
577
330
56F
100
AcDbEntity
  8
文字
 62
     0
100
AcDbTrace
 10
398.5702953757184
 20
115.8962917813961
 30
0.0
 11
398.5702953757184
 21
116.7296251147294
 31
0.0
 12
401.0702953757184
 22
116.3129584480627
 32
0.0
 13
401.0702953757184
 23
116.3129584480627
 33
0.0
  0
SOLID
  5
578
330
56F
100
AcDbEntity
  8
文字
 62
     0
100
AcDbTrace
 10
405.5702953757184
 20
116.7296251147294
 30
0.0
 11
405.5702953757184
 21
115.8962917813961
 31
0.0
 12
403.0702953757184
 22
116.3129584480627
 32
0.0
 13
403.0702953757184
 23
116.3129584480627
 33
0.0
  0
MTEXT
  5
579
330
56F
100
AcDbEntity
  8
文字
 62
     0
100
AcDbMText
 10
409.5257865080513
 20
118.1930744098636
 30
0.0
 40
2.5
 41
0.0
 46
0.0
 71
     5
 72
     1
  1
2
 73
     1
 44
1.0
  0
POINT
  5
57A
330
56F
100
AcDbEntity
  8
Defpoints
 62
     0
100
AcDbPoint
 10
401.0702953757184
 20
114.2737180352616
 30
0.0
  0
POINT
  5
57B
330
56F
100
AcDbEntity
  8
Defpoints
 62
     0
100
AcDbPoint
 10
403.0702953757184
 20
114.2737180352616
 30
0.0
  0
POINT
  5
57C
330
56F
100
AcDbEntity
  8
Defpoints
 62
     0
100
AcDbPoint
 10
403.0702953757184
 20
116.3129584480627
 30
0.0
  0
ENDBLK
  5
571
330
56F
100
AcDbEntity
  8
0
100
AcDbBlockEnd
  0
BLOCK
  5
57E
330
57D
100
AcDbEntity
  8
0
100
AcDbBlockBegin
  2
*D48
 70
     1
 10
0.0
 20
0.0
 30
0.0
  3
*D48
  1
*D52
  0
LINE
  5
580
330
57D
100
AcDbEntity
  8
文字
 62
     0
370
    -2
100
AcDbLine
 10
397.2452953757184
 20
136.1627669438046
 30
0.0
 11
385.3120847304958
 21
136.1627669438046
 31
0.0
  0
LINE
  5
581
330
57D
100
AcDbEntity
  8
文字
 62
     0
370
    -2
100
AcDbLine
 10
397.2452953757184
 20
112.1627669438046
 30
0.0
 11
385.3120847304958
 21
112.1627669438046
 31
0.0
  0
LINE
  5
582
330
57D
100
AcDbEntity
  8
文字
 62
     0
370
    -2
100
AcDbLine
 10
386.5620847304958
 20
133.6627669438046
 30
0.0
 11
386.5620847304958
 21
114.6627669438046
 31
0.0
  0
SOLID
  5
583
330
57D
100
AcDbEntity
  8
文字
 62
     0
100
AcDbTrace
 10
386.9787513971625
 20
133.6627669438046
 30
0.0
 11
386.1454180638291
 21
133.6627669438046
 31
0.0
 12
386.5620847304958
 22
136.1627669438046
 32
0.0
 13
386.5620847304958
 23
136.1627669438046
 33
0.0
  0
SOLID
  5
584
330
57D
100
AcDbEntity
  8
文字
 62
     0
100
AcDbTrace
 10
386.1454180638291
 20
114.6627669438046
 30
0.0
 11
386.9787513971625
 21
114.6627669438046
 31
0.0
 12
386.5620847304958
 22
112.1627669438046
 32
0.0
 13
386.5620847304958
 23
112.1627669438046
 33
0.0
  0
MTEXT
  5
585
330
57D
100
AcDbEntity
  8
文字
 62
     0
100
AcDbMText
 10
384.6137559446841
 20
129.8496578656421
 30
0.0
 40
2.5
 41
0.0
 46
0.0
 71
     5
 72
     1
  1
%%c24
 11
0.0
 21
1.0
 31
0.0
 73
     1
 44
1.0
  0
POINT
  5
586
330
57D
100
AcDbEntity
  8
Defpoints
 62
     0
100
AcDbPoint
 10
397.8702953757184
 20
136.1627669438046
 30
0.0
  0
POINT
  5
587
330
57D
100
AcDbEntity
  8
Defpoints
 62
     0
100
AcDbPoint
 10
397.8702953757184
 20
112.1627669438046
 30
0.0
  0
POINT
  5
588
330
57D
100
AcDbEntity
  8
Defpoints
 62
     0
100
AcDbPoint
 10
386.5620847304958
 20
112.1627669438046
 30
0.0
  0
ENDBLK
  5
57F
330
57D
100
AcDbEntity
  8
0
100
AcDbBlockEnd
  0
BLOCK
  5
58A
330
589
100
AcDbEntity
  8
0
100
AcDbBlockBegin
  2
*D49
 70
     1
 10
0.0
 20
0.0
 30
0.0
  3
*D49
  1
*D53
  0
LINE
  5
58C
330
589
100
AcDbEntity
  8
文字
 62
     0
370
    -2
100
AcDbLine
 10
403.6952953757184
 20
127.1627669438046
 30
0.0
 11
415.899987491061
 21
127.1627669438046
 31
0.0
  0
LINE
  5
58D
330
589
100
AcDbEntity
  8
文字
 62
     0
370
    -2
100
AcDbLine
 10
403.6952953757184
 20
121.1627669438046
 30
0.0
 11
415.899987491061
 21
121.1627669438046
 31
0.0
  0
LINE
  5
58E
330
589
100
AcDbEntity
  8
文字
 62
     0
370
    -2
100
AcDbLine
 10
414.649987491061
 20
127.1627669438046
 30
0.0
 11
414.649987491061
 21
135.07147544767
 31
0.0
  0
LINE
  5
58F
330
589
100
AcDbEntity
  8
文字
 62
     0
370
    -2
100
AcDbLine
 10
414.649987491061
 20
127.1627669438046
 30
0.0
 11
414.649987491061
 21
121.1627669438046
 31
0.0
  0
LINE
  5
590
330
589
100
AcDbEntity
  8
文字
 62
     0
370
    -2
100
AcDbLine
 10
414.649987491061
 20
129.6627669438046
 30
0.0
 11
414.649987491061
 21
132.1627669438046
 31
0.0
  0
LINE
  5
591
330
589
100
AcDbEntity
  8
文字
 62
     0
370
    -2
100
AcDbLine
 10
414.649987491061
 20
118.6627669438046
 30
0.0
 11
414.649987491061
 21
116.1627669438046
 31
0.0
  0
SOLID
  5
592
330
589
100
AcDbEntity
  8
文字
 62
     0
100
AcDbTrace
 10
414.2333208243943
 20
129.6627669438046
 30
0.0
 11
415.0666541577277
 21
129.6627669438046
 31
0.0
 12
414.649987491061
 22
127.1627669438046
 32
0.0
 13
414.649987491061
 23
127.1627669438046
 33
0.0
  0
SOLID
  5
593
330
589
100
AcDbEntity
  8
文字
 62
     0
100
AcDbTrace
 10
415.0666541577277
 20
118.6627669438046
 30
0.0
 11
414.2333208243943
 21
118.6627669438046
 31
0.0
 12
414.649987491061
 22
121.1627669438046
 32
0.0
 13
414.649987491061
 23
121.1627669438046
 33
0.0
  0
MTEXT
  5
594
330
589
100
AcDbEntity
  8
文字
 62
     0
100
AcDbMText
 10
412.7494076820569
 20
133.6211002771379
 30
0.0
 40
2.5
 41
0.0
 46
0.0
 71
     5
 72
     1
  1
6
 11
0.0
 21
1.0
 31
0.0
 73
     1
 44
1.0
  0
POINT
  5
595
330
589
100
AcDbEntity
  8
Defpoints
 62
     0
100
AcDbPoint
 10
403.0702953757184
 20
127.1627669438046
 30
0.0
  0
POINT
  5
596
330
589
100
AcDbEntity
  8
Defpoints
 62
     0
100
AcDbPoint
 10
403.0702953757184
 20
121.1627669438046
 30
0.0
  0
POINT
  5
597
330
589
100
AcDbEntity
  8
Defpoints
 62
     0
100
AcDbPoint
 10
414.649987491061
 20
121.1627669438046
 30
0.0
  0
ENDBLK
  5
58B
330
589
100
AcDbEntity
  8
0
100
AcDbBlockEnd
  0
BLOCK
  5
599
330
598
100
AcDbEntity
  8
0
100
AcDbBlockBegin
  2
*D50
 70
     1
 10
0.0
 20
0.0
 30
0.0
  3
*D50
  1
*D54
  0
LINE
  5
59B
330
598
100
AcDbEntity
  8
文字
 62
     0
370
    -2
100
AcDbLine
 10
399.5952953757184
 20
138.9127669438046
 30
0.0
 11
373.9459692739724
 21
138.9127669438046
 31
0.0
  0
LINE
  5
59C
330
598
100
AcDbEntity
  8
文字
 62
     0
370
    -2
100
AcDbLine
 10
399.5952953757184
 20
109.4127669438046
 30
0.0
 11
373.9459692739724
 21
109.4127669438046
 31
0.0
  0
LINE
  5
59D
330
598
100
AcDbEntity
  8
文字
 62
     0
370
    -2
100
AcDbLine
 10
375.1959692739724
 20
136.4127669438046
 30
0.0
 11
375.1959692739724
 21
111.9127669438046
 31
0.0
  0
SOLID
  5
59E
330
598
100
AcDbEntity
  8
文字
 62
     0
100
AcDbTrace
 10
375.6126359406391
 20
136.4127669438046
 30
0.0
 11
374.7793026073057
 21
136.4127669438046
 31
0.0
 12
375.1959692739724
 22
138.9127669438046
 32
0.0
 13
375.1959692739724
 23
138.9127669438046
 33
0.0
  0
SOLID
  5
59F
330
598
100
AcDbEntity
  8
文字
 62
     0
100
AcDbTrace
 10
374.7793026073057
 20
111.9127669438046
 30
0.0
 11
375.6126359406391
 21
111.9127669438046
 31
0.0
 12
375.1959692739724
 22
109.4127669438046
 32
0.0
 13
375.1959692739724
 23
109.4127669438046
 33
0.0
  0
MTEXT
  5
5A0
330
598
100
AcDbEntity
  8
文字
 62
     0
100
AcDbMText
 10
373.2476404881607
 20
131.0448070359077
 30
0.0
 40
2.5
 41
0.0
 46
0.0
 71
     5
 72
     1
  1
%%c30
 11
0.0
 21
1.0
 31
0.0
 73
     1
 44
1.0
  0
POINT
  5
5A1
330
598
100
AcDbEntity
  8
Defpoints
 62
     0
100
AcDbPoint
 10
400.2202953757184
 20
138.9127669438046
 30
0.0
  0
POINT
  5
5A2
330
598
100
AcDbEntity
  8
Defpoints
 62
     0
100
AcDbPoint
 10
400.2202953757184
 20
109.4127669438046
 30
0.0
  0
POINT
  5
5A3
330
598
100
AcDbEntity
  8
Defpoints
 62
     0
100
AcDbPoint
 10
375.1959692739724
 20
109.4127669438046
 30
0.0
  0
ENDBLK
  5
59A
330
598
100
AcDbEntity
  8
0
100
AcDbBlockEnd
  0
BLOCK
  5
5CF
330
5CE
100
AcDbEntity
  8
0
100
AcDbBlockBegin
  2
*D51
 70
     1
 10
0.0
 20
0.0
 30
0.0
  3
*D51
  1
*D56
  0
LINE
  5
5D0
330
5CE
100
AcDbEntity
  8
文字
 62
     0
370
    -2
100
AcDbLine
 10
33.0
 20
32.16381968519641
 30
0.0
 11
33.0
 21
0.0
 31
0.0
  0
LINE
  5
5D1
330
5CE
100
AcDbEntity
  8
文字
 62
     0
370
    -2
100
AcDbLine
 10
0.0
 20
32.16381968519641
 30
0.0
 11
0.0
 21
0.0
 31
0.0
  0
LINE
  5
5D2
330
5CE
100
AcDbEntity
  8
文字
 62
     0
370
    -2
100
AcDbLine
 10
30.5
 20
1.25
 30
0.0
 11
2.5
 21
1.25
 31
0.0
  0
SOLID
  5
5D3
330
5CE
100
AcDbEntity
  8
文字
 62
     0
100
AcDbTrace
 10
30.5
 20
0.8333333333333333
 30
0.0
 11
30.5
 21
1.666666666666667
 31
0.0
 12
33.0
 22
1.25
 32
0.0
 13
33.0
 23
1.25
 33
0.0
  0
SOLID
  5
5D4
330
5CE
100
AcDbEntity
  8
文字
 62
     0
100
AcDbTrace
 10
2.5
 20
1.666666666666667
 30
0.0
 11
2.5
 21
0.8333333333333333
 31
0.0
 12
0.0
 22
1.25
 32
0.0
 13
0.0
 23
1.25
 33
0.0
  0
MTEXT
  5
5D5
330
5CE
100
AcDbEntity
  8
文字
 62
     0
100
AcDbMText
 10
20.88204009210322
 20
3.198328785811733
 30
0.0
 40
2.5
 41
0.0
 46
0.0
 71
     5
 72
     1
  1
%%c33
 73
     1
 44
1.0
  0
POINT
  5
5D6
330
5CE
100
AcDbEntity
  8
Defpoints
 62
     0
100
AcDbPoint
 10
33.0
 20
32.78881968519641
 30
0.0
  0
POINT
  5
5D7
330
5CE
100
AcDbEntity
  8
Defpoints
 62
     0
100
AcDbPoint
 10
0.0
 20
32.78881968519641
 30
0.0
  0
POINT
  5
5D8
330
5CE
100
AcDbEntity
  8
Defpoints
 62
     0
100
AcDbPoint
 10
0.0
 20
1.25
 30
0.0
  0
ENDBLK
  5
5D9
330
5CE
100
AcDbEntity
  8
0
100
AcDbBlockEnd
  0
BLOCK
  5
5E0
330
5DF
100
AcDbEntity
  8
0
100
AcDbBlockBegin
  2
*D52
 70
     1
 10
0.0
 20
0.0
 30
0.0
  3
*D52
  1
*D57
  0
LINE
  5
5E2
330
5DF
100
AcDbEntity
  8
文字
 62
     0
370
    -2
100
AcDbLine
 10
159.3254249917292
 20
62.21974247722328
 30
0.0
 11
159.3254249917292
 21
20.31418253151043
 31
0.0
  0
LINE
  5
5E3
330
5DF
100
AcDbEntity
  8
文字
 62
     0
370
    -2
100
AcDbLine
 10
126.3254249917292
 20
62.21974247722328
 30
0.0
 11
126.3254249917292
 21
20.31418253151043
 31
0.0
  0
LINE
  5
5E4
330
5DF
100
AcDbEntity
  8
文字
 62
     0
370
    -2
100
AcDbLine
 10
156.8254249917292
 20
21.56418253151043
 30
0.0
 11
128.8254249917292
 21
21.56418253151043
 31
0.0
  0
SOLID
  5
5E5
330
5DF
100
AcDbEntity
  8
文字
 62
     0
100
AcDbTrace
 10
156.8254249917292
 20
21.14751586484376
 30
0.0
 11
156.8254249917292
 21
21.98084919817709
 31
0.0
 12
159.3254249917292
 22
21.56418253151043
 32
0.0
 13
159.3254249917292
 23
21.56418253151043
 33
0.0
  0
SOLID
  5
5E6
330
5DF
100
AcDbEntity
  8
文字
 62
     0
100
AcDbTrace
 10
128.8254249917292
 20
21.98084919817709
 30
0.0
 11
128.8254249917292
 21
21.14751586484376
 31
0.0
 12
126.3254249917292
 22
21.56418253151043
 32
0.0
 13
126.3254249917292
 23
21.56418253151043
 33
0.0
  0
MTEXT
  5
5E7
330
5DF
100
AcDbEntity
  8
文字
 62
     0
100
AcDbMText
 10
147.3252520998466
 20
23.51251131732216
 30
0.0
 40
2.5
 41
0.0
 46
0.0
 71
     5
 72
     1
  1
%%c33
 73
     1
 44
1.0
  0
POINT
  5
5E8
330
5DF
100
AcDbEntity
  8
Defpoints
 62
     0
100
AcDbPoint
 10
159.3254249917292
 20
62.84474247722328
 30
0.0
  0
POINT
  5
5E9
330
5DF
100
AcDbEntity
  8
Defpoints
 62
     0
100
AcDbPoint
 10
126.3254249917292
 20
62.84474247722328
 30
0.0
  0
POINT
  5
5EA
330
5DF
100
AcDbEntity
  8
Defpoints
 62
     0
100
AcDbPoint
 10
126.3254249917292
 20
21.56418253151043
 30
0.0
  0
ENDBLK
  5
5E1
330
5DF
100
AcDbEntity
  8
0
100
AcDbBlockEnd
  0
BLOCK
  5
621
330
620
100
AcDbEntity
  8
0
370
    20
100
AcDbBlockBegin
  2
*D53
 70
     1
 10
0.0
 20
0.0
 30
0.0
  3
*D53
  1
*D59
  0
LINE
  5
622
330
620
100
AcDbEntity
  8
文字
 62
     0
370
    -2
100
AcDbLine
 10
14.37500000000001
 20
10.77578386627333
 30
0.0
 11
37.75193849682617
 21
10.77578386627333
 31
0.0
  0
LINE
  5
623
330
620
100
AcDbEntity
  8
文字
 62
     0
370
    -2
100
AcDbLine
 10
10.625
 20
50.77578386627333
 30
0.0
 11
37.75193849682617
 21
50.77578386627333
 31
0.0
  0
LINE
  5
624
330
620
100
AcDbEntity
  8
文字
 62
     0
370
    -2
100
AcDbLine
 10
36.50193849682617
 20
13.27578386627333
 30
0.0
 11
36.50193849682617
 21
48.27578386627333
 31
0.0
  0
SOLID
  5
625
330
620
100
AcDbEntity
  8
文字
 62
     0
100
AcDbTrace
 10
36.08527183015951
 20
13.27578386627333
 30
0.0
 11
36.91860516349283
 21
13.27578386627333
 31
0.0
 12
36.50193849682617
 22
10.77578386627333
 32
0.0
 13
36.50193849682617
 23
10.77578386627333
 33
0.0
  0
SOLID
  5
626
330
620
100
AcDbEntity
  8
文字
 62
     0
100
AcDbTrace
 10
36.91860516349283
 20
48.27578386627333
 30
0.0
 11
36.08527183015951
 21
48.27578386627333
 31
0.0
 12
36.50193849682617
 22
50.77578386627333
 32
0.0
 13
36.50193849682617
 23
50.77578386627333
 33
0.0
  0
MTEXT
  5
627
330
620
100
AcDbEntity
  8
文字
 62
     0
100
AcDbMText
 10
34.60135868782208
 20
30.77578386627333
 30
0.0
 40
2.5
 41
0.0
 46
0.0
 71
     5
 72
     1
  1
40
 11
0.0
 21
1.0
 31
0.0
 73
     1
 44
1.0
  0
POINT
  5
628
330
620
100
AcDbEntity
  8
Defpoints
 62
     0
100
AcDbPoint
 10
13.75000000000001
 20
10.77578386627333
 30
0.0
  0
POINT
  5
629
330
620
100
AcDbEntity
  8
Defpoints
 62
     0
100
AcDbPoint
 10
10.0
 20
50.77578386627333
 30
0.0
  0
POINT
  5
62A
330
620
100
AcDbEntity
  8
Defpoints
 62
     0
100
AcDbPoint
 10
36.50193849682617
 20
50.77578386627333
 30
0.0
  0
ENDBLK
  5
62B
330
620
100
AcDbEntity
  8
0
370
    20
100
AcDbBlockEnd
  0
BLOCK
  5
630
330
62F
100
AcDbEntity
  8
0
100
AcDbBlockBegin
  2
*D54
 70
     1
 10
0.0
 20
0.0
 30
0.0
  3
*D54
  1
*D60
  0
LINE
  5
631
330
62F
100
AcDbEntity
  8
文字
 62
     0
370
    -2
100
AcDbLine
 10
5.0
 20
50.40078386627333
 30
0.0
 11
5.0
 21
62.36371898053422
 31
0.0
  0
LINE
  5
632
330
62F
100
AcDbEntity
  8
文字
 62
     0
370
    -2
100
AcDbLine
 10
11.0
 20
50.40078386627333
 30
0.0
 11
11.0
 21
62.36371898053422
 31
0.0
  0
LINE
  5
633
330
62F
100
AcDbEntity
  8
文字
 62
     0
370
    -2
100
AcDbLine
 10
5.0
 20
61.11371898053422
 30
0.0
 11
11.0
 21
61.11371898053422
 31
0.0
  0
LINE
  5
634
330
62F
100
AcDbEntity
  8
文字
 62
     0
370
    -2
100
AcDbLine
 10
2.5
 20
61.11371898053422
 30
0.0
 11
0.0
 21
61.11371898053422
 31
0.0
  0
LINE
  5
635
330
62F
100
AcDbEntity
  8
文字
 62
     0
370
    -2
100
AcDbLine
 10
13.5
 20
61.11371898053422
 30
0.0
 11
16.0
 21
61.11371898053422
 31
0.0
  0
SOLID
  5
636
330
62F
100
AcDbEntity
  8
文字
 62
     0
100
AcDbTrace
 10
2.5
 20
60.69705231386755
 30
0.0
 11
2.5
 21
61.53038564720088
 31
0.0
 12
5.0
 22
61.11371898053422
 32
0.0
 13
5.0
 23
61.11371898053422
 33
0.0
  0
SOLID
  5
637
330
62F
100
AcDbEntity
  8
文字
 62
     0
100
AcDbTrace
 10
13.5
 20
61.53038564720088
 30
0.0
 11
13.5
 21
60.69705231386755
 31
0.0
 12
11.0
 22
61.11371898053422
 32
0.0
 13
11.0
 23
61.11371898053422
 33
0.0
  0
MTEXT
  5
638
330
62F
100
AcDbEntity
  8
文字
 62
     0
100
AcDbMText
 10
8.0
 20
63.01429878953831
 30
0.0
 40
2.5
 41
0.0
 46
0.0
 71
     5
 72
     1
  1
{\fArial|b0|i0|c0|p32;M}6
 73
     1
 44
1.0
  0
POINT
  5
639
330
62F
100
AcDbEntity
  8
Defpoints
 62
     0
100
AcDbPoint
 10
5.0
 20
49.77578386627333
 30
0.0
  0
POINT
  5
63A
330
62F
100
AcDbEntity
  8
Defpoints
 62
     0
100
AcDbPoint
 10
11.0
 20
49.77578386627333
 30
0.0
  0
POINT
  5
63B
330
62F
100
AcDbEntity
  8
Defpoints
 62
     0
100
AcDbPoint
 10
11.0
 20
61.11371898053422
 30
0.0
  0
ENDBLK
  5
63C
330
62F
100
AcDbEntity
  8
0
100
AcDbBlockEnd
  0
BLOCK
  5
641
330
640
100
AcDbEntity
  8
0
100
AcDbBlockBegin
  2
*D55
 70
     1
 10
0.0
 20
0.0
 30
0.0
  3
*D55
  1
*D61
  0
LINE
  5
642
330
640
100
AcDbEntity
  8
文字
 62
     0
370
    -2
100
AcDbLine
 10
11.96655577530936
 20
6.765914268697045
 30
0.0
 11
37.75193849682616
 21
6.765914268697044
 31
0.0
  0
LINE
  5
643
330
640
100
AcDbEntity
  8
文字
 62
     0
370
    -2
100
AcDbLine
 10
23.62500000000001
 20
0.0
 30
0.0
 11
37.75193849682616
 21
-0.0000000000000009
 31
0.0
  0
LINE
  5
644
330
640
100
AcDbEntity
  8
文字
 62
     0
370
    -2
100
AcDbLine
 10
36.50193849682616
 20
4.265914268697044
 30
0.0
 11
36.50193849682616
 21
2.499999999999999
 31
0.0
  0
SOLID
  5
645
330
640
100
AcDbEntity
  8
文字
 62
     0
100
AcDbTrace
 10
36.91860516349282
 20
4.265914268697044
 30
0.0
 11
36.08527183015949
 21
4.265914268697044
 31
0.0
 12
36.50193849682616
 22
6.765914268697044
 32
0.0
 13
36.50193849682616
 23
6.765914268697044
 33
0.0
  0
SOLID
  5
646
330
640
100
AcDbEntity
  8
文字
 62
     0
100
AcDbTrace
 10
36.08527183015949
 20
2.499999999999999
 30
0.0
 11
36.91860516349282
 21
2.499999999999999
 31
0.0
 12
36.50193849682616
 22
-0.0000000000000008
 32
0.0
 13
36.50193849682616
 23
-0.0000000000000008
 33
0.0
  0
MTEXT
  5
647
330
640
100
AcDbEntity
  8
文字
 62
     0
100
AcDbMText
 10
34.62693849682616
 20
3.382957134348521
 30
0.0
 40
2.5
 41
0.0
 46
0.0
 71
     5
 72
     1
  1
7
 11
0.0
 21
1.0
 31
0.0
 73
     1
 44
1.0
  0
POINT
  5
648
330
640
100
AcDbEntity
  8
Defpoints
 62
     0
100
AcDbPoint
 10
11.34155577530936
 20
6.765914268697045
 30
0.0
  0
POINT
  5
649
330
640
100
AcDbEntity
  8
Defpoints
 62
     0
100
AcDbPoint
 10
23.00000000000001
 20
0.0
 30
0.0
  0
POINT
  5
64A
330
640
100
AcDbEntity
  8
Defpoints
 62
     0
100
AcDbPoint
 10
36.50193849682616
 20
-0.0000000000000008
 30
0.0
  0
ENDBLK
  5
64B
330
640
100
AcDbEntity
  8
0
100
AcDbBlockEnd
  0
BLOCK
  5
665
330
664
100
AcDbEntity
  8
0
100
AcDbBlockBegin
  2
*D56
 70
     1
 10
0.0
 20
0.0
 30
0.0
  3
*D56
  1
*D62
  0
LINE
  5
667
330
664
100
AcDbEntity
  8
文字
 62
     0
370
    -2
100
AcDbLine
 10
-29.34667372511265
 20
67.36839497241411
 30
0.0
 11
-5.969735228286498
 21
67.36839497241411
 31
0.0
  0
LINE
  5
668
330
664
100
AcDbEntity
  8
文字
 62
     0
370
    -2
100
AcDbLine
 10
-33.09667372511267
 20
107.3683949724141
 30
0.0
 11
-5.969735228286495
 21
107.3683949724141
 31
0.0
  0
LINE
  5
669
330
664
100
AcDbEntity
  8
文字
 62
     0
370
    -2
100
AcDbLine
 10
-7.219735228286498
 20
69.86839497241411
 30
0.0
 11
-7.219735228286495
 21
104.8683949724141
 31
0.0
  0
SOLID
  5
66A
330
664
100
AcDbEntity
  8
文字
 62
     0
100
AcDbTrace
 10
-7.636401894953165
 20
69.86839497241411
 30
0.0
 11
-6.803068561619831
 21
69.86839497241411
 31
0.0
 12
-7.219735228286498
 22
67.36839497241411
 32
0.0
 13
-7.219735228286498
 23
67.36839497241411
 33
0.0
  0
SOLID
  5
66B
330
664
100
AcDbEntity
  8
文字
 62
     0
100
AcDbTrace
 10
-6.803068561619829
 20
104.8683949724141
 30
0.0
 11
-7.636401894953162
 21
104.8683949724141
 31
0.0
 12
-7.219735228286495
 22
107.3683949724141
 32
0.0
 13
-7.219735228286495
 23
107.3683949724141
 33
0.0
  0
MTEXT
  5
66C
330
664
100
AcDbEntity
  8
文字
 62
     0
100
AcDbMText
 10
-9.120315037290597
 20
87.36839497241411
 30
0.0
 40
2.5
 41
0.0
 46
0.0
 71
     5
 72
     1
  1
40
 11
6.661338147750939E-17
 21
1.0
 31
0.0
 73
     1
 44
1.0
  0
POINT
  5
66D
330
664
100
AcDbEntity
  8
Defpoints
 62
     0
100
AcDbPoint
 10
-29.97167372511265
 20
67.36839497241411
 30
0.0
  0
POINT
  5
66E
330
664
100
AcDbEntity
  8
Defpoints
 62
     0
100
AcDbPoint
 10
-33.72167372511267
 20
107.3683949724141
 30
0.0
  0
POINT
  5
66F
330
664
100
AcDbEntity
  8
Defpoints
 62
     0
100
AcDbPoint
 10
-7.219735228286495
 20
107.3683949724141
 30
0.0
  0
ENDBLK
  5
666
330
664
100
AcDbEntity
  8
0
100
AcDbBlockEnd
  0
BLOCK
  5
671
330
670
100
AcDbEntity
  8
0
100
AcDbBlockBegin
  2
*D57
 70
     1
 10
0.0
 20
0.0
 30
0.0
  3
*D57
  1
*D63
  0
LINE
  5
673
330
670
100
AcDbEntity
  8
文字
 62
     0
370
    -2
100
AcDbLine
 10
-38.72167372511267
 20
106.9933949724141
 30
0.0
 11
-38.72167372511267
 21
118.956330086675
 31
0.0
  0
LINE
  5
674
330
670
100
AcDbEntity
  8
文字
 62
     0
370
    -2
100
AcDbLine
 10
-32.72167372511267
 20
106.9933949724141
 30
0.0
 11
-32.72167372511267
 21
118.956330086675
 31
0.0
  0
LINE
  5
675
330
670
100
AcDbEntity
  8
文字
 62
     0
370
    -2
100
AcDbLine
 10
-38.72167372511267
 20
117.706330086675
 30
0.0
 11
-32.72167372511267
 21
117.706330086675
 31
0.0
  0
LINE
  5
676
330
670
100
AcDbEntity
  8
文字
 62
     0
370
    -2
100
AcDbLine
 10
-41.22167372511267
 20
117.706330086675
 30
0.0
 11
-43.72167372511267
 21
117.706330086675
 31
0.0
  0
LINE
  5
677
330
670
100
AcDbEntity
  8
文字
 62
     0
370
    -2
100
AcDbLine
 10
-30.22167372511267
 20
117.706330086675
 30
0.0
 11
-27.72167372511267
 21
117.706330086675
 31
0.0
  0
SOLID
  5
678
330
670
100
AcDbEntity
  8
文字
 62
     0
100
AcDbTrace
 10
-41.22167372511267
 20
117.2896634200083
 30
0.0
 11
-41.22167372511267
 21
118.1229967533417
 31
0.0
 12
-38.72167372511267
 22
117.706330086675
 32
0.0
 13
-38.72167372511267
 23
117.706330086675
 33
0.0
  0
SOLID
  5
679
330
670
100
AcDbEntity
  8
文字
 62
     0
100
AcDbTrace
 10
-30.22167372511267
 20
118.1229967533417
 30
0.0
 11
-30.22167372511267
 21
117.2896634200083
 31
0.0
 12
-32.72167372511267
 22
117.706330086675
 32
0.0
 13
-32.72167372511267
 23
117.706330086675
 33
0.0
  0
MTEXT
  5
67A
330
670
100
AcDbEntity
  8
文字
 62
     0
100
AcDbMText
 10
-35.72167372511267
 20
119.6069098956791
 30
0.0
 40
2.5
 41
0.0
 46
0.0
 71
     5
 72
     1
  1
{\fArial|b0|i0|c0|p32;M}6
 73
     1
 44
1.0
  0
POINT
  5
67B
330
670
100
AcDbEntity
  8
Defpoints
 62
     0
100
AcDbPoint
 10
-38.72167372511267
 20
106.3683949724141
 30
0.0
  0
POINT
  5
67C
330
670
100
AcDbEntity
  8
Defpoints
 62
     0
100
AcDbPoint
 10
-32.72167372511267
 20
106.3683949724141
 30
0.0
  0
POINT
  5
67D
330
670
100
AcDbEntity
  8
Defpoints
 62
     0
100
AcDbPoint
 10
-32.72167372511267
 20
117.706330086675
 30
0.0
  0
ENDBLK
  5
672
330
670
100
AcDbEntity
  8
0
100
AcDbBlockEnd
  0
BLOCK
  5
67F
330
67E
100
AcDbEntity
  8
0
100
AcDbBlockBegin
  2
*D58
 70
     1
 10
0.0
 20
0.0
 30
0.0
  3
*D58
  1
*D64
  0
LINE
  5
681
330
67E
100
AcDbEntity
  8
文字
 62
     0
370
    -2
100
AcDbLine
 10
-31.75511794980331
 20
63.35852537483782
 30
0.0
 11
-5.96973522828651
 21
63.35852537483782
 31
0.0
  0
LINE
  5
682
330
67E
100
AcDbEntity
  8
文字
 62
     0
370
    -2
100
AcDbLine
 10
-20.09667372511265
 20
56.59261110614078
 30
0.0
 11
-5.96973522828651
 21
56.59261110614078
 31
0.0
  0
LINE
  5
683
330
67E
100
AcDbEntity
  8
文字
 62
     0
370
    -2
100
AcDbLine
 10
-7.21973522828651
 20
60.85852537483782
 30
0.0
 11
-7.21973522828651
 21
59.09261110614078
 31
0.0
  0
SOLID
  5
684
330
67E
100
AcDbEntity
  8
文字
 62
     0
100
AcDbTrace
 10
-6.803068561619843
 20
60.85852537483782
 30
0.0
 11
-7.636401894953177
 21
60.85852537483782
 31
0.0
 12
-7.21973522828651
 22
63.35852537483782
 32
0.0
 13
-7.21973522828651
 23
63.35852537483782
 33
0.0
  0
SOLID
  5
685
330
67E
100
AcDbEntity
  8
文字
 62
     0
100
AcDbTrace
 10
-7.636401894953177
 20
59.09261110614078
 30
0.0
 11
-6.803068561619843
 21
59.09261110614078
 31
0.0
 12
-7.21973522828651
 22
56.59261110614078
 32
0.0
 13
-7.21973522828651
 23
56.59261110614078
 33
0.0
  0
MTEXT
  5
686
330
67E
100
AcDbEntity
  8
文字
 62
     0
100
AcDbMText
 10
-9.09473522828651
 20
59.9755682404893
 30
0.0
 40
2.5
 41
0.0
 46
0.0
 71
     5
 72
     1
  1
7
 11
0.0
 21
1.0
 31
0.0
 73
     1
 44
1.0
  0
POINT
  5
687
330
67E
100
AcDbEntity
  8
Defpoints
 62
     0
100
AcDbPoint
 10
-32.38011794980331
 20
63.35852537483782
 30
0.0
  0
POINT
  5
688
330
67E
100
AcDbEntity
  8
Defpoints
 62
     0
100
AcDbPoint
 10
-20.72167372511265
 20
56.59261110614078
 30
0.0
  0
POINT
  5
689
330
67E
100
AcDbEntity
  8
Defpoints
 62
     0
100
AcDbPoint
 10
-7.21973522828651
 20
56.59261110614078
 30
0.0
  0
ENDBLK
  5
680
330
67E
100
AcDbEntity
  8
0
100
AcDbBlockEnd
  0
BLOCK
  5
6B1
330
6B0
100
AcDbEntity
  8
0
100
AcDbBlockBegin
  2
*D59
 70
     1
 10
0.0
 20
0.0
 30
0.0
  3
*D59
  1
*D66
  0
LINE
  5
6B2
330
6B0
100
AcDbEntity
  8
文字
 62
     0
370
    -2
100
AcDbLine
 10
15.96989713911148
 20
6.765914268697045
 30
0.0
 11
41.75527986062828
 21
6.765914268697044
 31
0.0
  0
LINE
  5
6B3
330
6B0
100
AcDbEntity
  8
文字
 62
     0
370
    -2
100
AcDbLine
 10
27.62834136380214
 20
0.0
 30
0.0
 11
41.75527986062828
 21
-0.0000000000000009
 31
0.0
  0
LINE
  5
6B4
330
6B0
100
AcDbEntity
  8
文字
 62
     0
370
    -2
100
AcDbLine
 10
40.50527986062828
 20
4.265914268697044
 30
0.0
 11
40.50527986062828
 21
2.499999999999999
 31
0.0
  0
SOLID
  5
6B5
330
6B0
100
AcDbEntity
  8
文字
 62
     0
100
AcDbTrace
 10
40.92194652729494
 20
4.265914268697044
 30
0.0
 11
40.08861319396161
 21
4.265914268697044
 31
0.0
 12
40.50527986062828
 22
6.765914268697044
 32
0.0
 13
40.50527986062828
 23
6.765914268697044
 33
0.0
  0
SOLID
  5
6B6
330
6B0
100
AcDbEntity
  8
文字
 62
     0
100
AcDbTrace
 10
40.08861319396161
 20
2.499999999999999
 30
0.0
 11
40.92194652729494
 21
2.499999999999999
 31
0.0
 12
40.50527986062828
 22
-0.0000000000000008
 32
0.0
 13
40.50527986062828
 23
-0.0000000000000008
 33
0.0
  0
MTEXT
  5
6B7
330
6B0
100
AcDbEntity
  8
文字
 62
     0
100
AcDbMText
 10
38.63027986062828
 20
3.382957134348521
 30
0.0
 40
2.5
 41
0.0
 46
0.0
 71
     5
 72
     1
  1
7
 11
0.0
 21
1.0
 31
0.0
 73
     1
 44
1.0
  0
POINT
  5
6B8
330
6B0
100
AcDbEntity
  8
Defpoints
 62
     0
100
AcDbPoint
 10
15.34489713911148
 20
6.765914268697045
 30
0.0
  0
POINT
  5
6B9
330
6B0
100
AcDbEntity
  8
Defpoints
 62
     0
100
AcDbPoint
 10
27.00334136380214
 20
0.0
 30
0.0
  0
POINT
  5
6BA
330
6B0
100
AcDbEntity
  8
Defpoints
 62
     0
100
AcDbPoint
 10
40.50527986062828
 20
-0.0000000000000008
 30
0.0
  0
ENDBLK
  5
6BB
330
6B0
100
AcDbEntity
  8
0
100
AcDbBlockEnd
  0
BLOCK
  5
6D3
330
6D2
100
AcDbEntity
  8
0
370
    20
100
AcDbBlockBegin
  2
*D60
 70
     1
 10
0.0
 20
0.0
 30
0.0
  3
*D60
  1
*D67
  0
LINE
  5
6D4
330
6D2
100
AcDbEntity
  8
文字
 62
     0
370
    -2
100
AcDbLine
 10
39.88027986062829
 20
6.765914268697045
 30
0.0
 11
39.25527986062829
 21
6.765914268697045
 31
0.0
  0
LINE
  5
6D5
330
6D2
100
AcDbEntity
  8
文字
 62
     0
370
    -2
100
AcDbLine
 10
18.37834136380214
 20
10.77578386627333
 30
0.0
 11
41.75527986062829
 21
10.77578386627333
 31
0.0
  0
LINE
  5
6D6
330
6D2
100
AcDbEntity
  8
文字
 62
     0
370
    -2
100
AcDbLine
 10
40.50527986062829
 20
6.765914268697045
 30
0.0
 11
40.50527986062829
 21
10.77578386627333
 31
0.0
  0
LINE
  5
6D7
330
6D2
100
AcDbEntity
  8
文字
 62
     0
370
    -2
100
AcDbLine
 10
40.50527986062829
 20
4.265914268697045
 30
0.0
 11
40.50527986062829
 21
1.765914268697045
 31
0.0
  0
LINE
  5
6D8
330
6D2
100
AcDbEntity
  8
文字
 62
     0
370
    -2
100
AcDbLine
 10
40.50527986062829
 20
13.27578386627333
 30
0.0
 11
40.50527986062829
 21
15.77578386627333
 31
0.0
  0
SOLID
  5
6D9
330
6D2
100
AcDbEntity
  8
文字
 62
     0
100
AcDbTrace
 10
40.92194652729496
 20
4.265914268697045
 30
0.0
 11
40.08861319396163
 21
4.265914268697045
 31
0.0
 12
40.50527986062829
 22
6.765914268697045
 32
0.0
 13
40.50527986062829
 23
6.765914268697045
 33
0.0
  0
SOLID
  5
6DA
330
6D2
100
AcDbEntity
  8
文字
 62
     0
100
AcDbTrace
 10
40.08861319396163
 20
13.27578386627333
 30
0.0
 11
40.92194652729496
 21
13.27578386627333
 31
0.0
 12
40.50527986062829
 22
10.77578386627333
 32
0.0
 13
40.50527986062829
 23
10.77578386627333
 33
0.0
  0
MTEXT
  5
6DB
330
6D2
100
AcDbEntity
  8
文字
 62
     0
100
AcDbMText
 10
38.63027986062829
 20
8.770849067485187
 30
0.0
 40
2.5
 41
0.0
 46
0.0
 71
     5
 72
     1
  1
4
 11
0.0
 21
1.0
 31
0.0
 73
     1
 44
1.0
  0
POINT
  5
6DC
330
6D2
100
AcDbEntity
  8
Defpoints
 62
     0
100
AcDbPoint
 10
40.50527986062829
 20
6.765914268697045
 30
0.0
  0
POINT
  5
6DD
330
6D2
100
AcDbEntity
  8
Defpoints
 62
     0
100
AcDbPoint
 10
17.75334136380214
 20
10.77578386627333
 30
0.0
  0
POINT
  5
6DE
330
6D2
100
AcDbEntity
  8
Defpoints
 62
     0
100
AcDbPoint
 10
40.50527986062829
 20
10.77578386627333
 30
0.0
  0
ENDBLK
  5
6DF
330
6D2
100
AcDbEntity
  8
0
370
    20
100
AcDbBlockEnd
  0
BLOCK
  5
6E4
330
6E3
100
AcDbEntity
  8
0
370
    20
100
AcDbBlockBegin
  2
*D61
 70
     1
 10
0.0
 20
0.0
 30
0.0
  3
*D61
  1
*D68
  0
LINE
  5
6E5
330
6E3
100
AcDbEntity
  8
文字
 62
     0
370
    -2
100
AcDbLine
 10
18.37834136380214
 20
10.77578386627333
 30
0.0
 11
41.75527986062829
 21
10.77578386627333
 31
0.0
  0
LINE
  5
6E6
330
6E3
100
AcDbEntity
  8
文字
 62
     0
370
    -2
100
AcDbLine
 10
14.62834136380212
 20
50.77578386627333
 30
0.0
 11
41.75527986062829
 21
50.77578386627333
 31
0.0
  0
LINE
  5
6E7
330
6E3
100
AcDbEntity
  8
文字
 62
     0
370
    -2
100
AcDbLine
 10
40.50527986062829
 20
13.27578386627333
 30
0.0
 11
40.50527986062829
 21
48.27578386627333
 31
0.0
  0
SOLID
  5
6E8
330
6E3
100
AcDbEntity
  8
文字
 62
     0
100
AcDbTrace
 10
40.08861319396163
 20
13.27578386627333
 30
0.0
 11
40.92194652729496
 21
13.27578386627333
 31
0.0
 12
40.50527986062829
 22
10.77578386627333
 32
0.0
 13
40.50527986062829
 23
10.77578386627333
 33
0.0
  0
SOLID
  5
6E9
330
6E3
100
AcDbEntity
  8
文字
 62
     0
100
AcDbTrace
 10
40.92194652729496
 20
48.27578386627333
 30
0.0
 11
40.08861319396163
 21
48.27578386627333
 31
0.0
 12
40.50527986062829
 22
50.77578386627333
 32
0.0
 13
40.50527986062829
 23
50.77578386627333
 33
0.0
  0
MTEXT
  5
6EA
330
6E3
100
AcDbEntity
  8
文字
 62
     0
100
AcDbMText
 10
38.6047000516242
 20
30.77578386627333
 30
0.0
 40
2.5
 41
0.0
 46
0.0
 71
     5
 72
     1
  1
40
 11
0.0
 21
1.0
 31
0.0
 73
     1
 44
1.0
  0
POINT
  5
6EB
330
6E3
100
AcDbEntity
  8
Defpoints
 62
     0
100
AcDbPoint
 10
17.75334136380214
 20
10.77578386627333
 30
0.0
  0
POINT
  5
6EC
330
6E3
100
AcDbEntity
  8
Defpoints
 62
     0
100
AcDbPoint
 10
14.00334136380212
 20
50.77578386627333
 30
0.0
  0
POINT
  5
6ED
330
6E3
100
AcDbEntity
  8
Defpoints
 62
     0
100
AcDbPoint
 10
40.50527986062829
 20
50.77578386627333
 30
0.0
  0
ENDBLK
  5
6EE
330
6E3
100
AcDbEntity
  8
0
370
    20
100
AcDbBlockEnd
  0
BLOCK
  5
6F3
330
6F2
100
AcDbEntity
  8
0
100
AcDbBlockBegin
  2
*D62
 70
     1
 10
0.0
 20
0.0
 30
0.0
  3
*D62
  1
*D69
  0
LINE
  5
6F4
330
6F2
100
AcDbEntity
  8
文字
 62
     0
370
    -2
100
AcDbLine
 10
9.003341363802122
 20
50.40078386627333
 30
0.0
 11
9.003341363802122
 21
62.36371898053422
 31
0.0
  0
LINE
  5
6F5
330
6F2
100
AcDbEntity
  8
文字
 62
     0
370
    -2
100
AcDbLine
 10
15.00334136380212
 20
50.40078386627333
 30
0.0
 11
15.00334136380212
 21
62.36371898053422
 31
0.0
  0
LINE
  5
6F6
330
6F2
100
AcDbEntity
  8
文字
 62
     0
370
    -2
100
AcDbLine
 10
9.003341363802122
 20
61.11371898053422
 30
0.0
 11
15.00334136380212
 21
61.11371898053422
 31
0.0
  0
LINE
  5
6F7
330
6F2
100
AcDbEntity
  8
文字
 62
     0
370
    -2
100
AcDbLine
 10
6.503341363802122
 20
61.11371898053422
 30
0.0
 11
4.003341363802122
 21
61.11371898053422
 31
0.0
  0
LINE
  5
6F8
330
6F2
100
AcDbEntity
  8
文字
 62
     0
370
    -2
100
AcDbLine
 10
17.50334136380212
 20
61.11371898053422
 30
0.0
 11
20.00334136380212
 21
61.11371898053422
 31
0.0
  0
SOLID
  5
6F9
330
6F2
100
AcDbEntity
  8
文字
 62
     0
100
AcDbTrace
 10
6.503341363802122
 20
60.69705231386755
 30
0.0
 11
6.503341363802122
 21
61.53038564720088
 31
0.0
 12
9.003341363802122
 22
61.11371898053422
 32
0.0
 13
9.003341363802122
 23
61.11371898053422
 33
0.0
  0
SOLID
  5
6FA
330
6F2
100
AcDbEntity
  8
文字
 62
     0
100
AcDbTrace
 10
17.50334136380212
 20
61.53038564720088
 30
0.0
 11
17.50334136380212
 21
60.69705231386755
 31
0.0
 12
15.00334136380212
 22
61.11371898053422
 32
0.0
 13
15.00334136380212
 23
61.11371898053422
 33
0.0
  0
MTEXT
  5
6FB
330
6F2
100
AcDbEntity
  8
文字
 62
     0
100
AcDbMText
 10
12.00334136380212
 20
63.01429878953831
 30
0.0
 40
2.5
 41
0.0
 46
0.0
 71
     5
 72
     1
  1
{\fArial|b0|i0|c0|p32;M}6
 73
     1
 44
1.0
  0
POINT
  5
6FC
330
6F2
100
AcDbEntity
  8
Defpoints
 62
     0
100
AcDbPoint
 10
9.003341363802122
 20
49.77578386627333
 30
0.0
  0
POINT
  5
6FD
330
6F2
100
AcDbEntity
  8
Defpoints
 62
     0
100
AcDbPoint
 10
15.00334136380212
 20
49.77578386627333
 30
0.0
  0
POINT
  5
6FE
330
6F2
100
AcDbEntity
  8
Defpoints
 62
     0
100
AcDbPoint
 10
15.00334136380212
 20
61.11371898053422
 30
0.0
  0
ENDBLK
  5
6FF
330
6F2
100
AcDbEntity
  8
0
100
AcDbBlockEnd
  0
BLOCK
  5
723
330
722
100
AcDbEntity
  8
0
100
AcDbBlockBegin
  2
*D63
 70
     1
 10
0.0
 20
0.0
 30
0.0
  3
*D63
  1
*D70
  0
LINE
  5
725
330
722
100
AcDbEntity
  8
文字
 62
     0
370
    -2
100
AcDbLine
 10
-28.81324411856572
 20
64.6322864139153
 30
0.0
 11
-3.027861397048923
 21
64.6322864139153
 31
0.0
  0
LINE
  5
726
330
722
100
AcDbEntity
  8
文字
 62
     0
370
    -2
100
AcDbLine
 10
-17.15479989387507
 20
57.86637214521825
 30
0.0
 11
-3.027861397048923
 21
57.86637214521825
 31
0.0
  0
LINE
  5
727
330
722
100
AcDbEntity
  8
文字
 62
     0
370
    -2
100
AcDbLine
 10
-4.277861397048923
 20
62.1322864139153
 30
0.0
 11
-4.277861397048923
 21
60.36637214521825
 31
0.0
  0
SOLID
  5
728
330
722
100
AcDbEntity
  8
文字
 62
     0
100
AcDbTrace
 10
-3.861194730382257
 20
62.1322864139153
 30
0.0
 11
-4.69452806371559
 21
62.1322864139153
 31
0.0
 12
-4.277861397048923
 22
64.6322864139153
 32
0.0
 13
-4.277861397048923
 23
64.6322864139153
 33
0.0
  0
SOLID
  5
729
330
722
100
AcDbEntity
  8
文字
 62
     0
100
AcDbTrace
 10
-4.69452806371559
 20
60.36637214521825
 30
0.0
 11
-3.861194730382257
 21
60.36637214521825
 31
0.0
 12
-4.277861397048923
 22
57.86637214521825
 32
0.0
 13
-4.277861397048923
 23
57.86637214521825
 33
0.0
  0
MTEXT
  5
72A
330
722
100
AcDbEntity
  8
文字
 62
     0
100
AcDbMText
 10
-6.152861397048923
 20
61.24932927956677
 30
0.0
 40
2.5
 41
0.0
 46
0.0
 71
     5
 72
     1
  1
7
 11
0.0
 21
1.0
 31
0.0
 73
     1
 44
1.0
  0
POINT
  5
72B
330
722
100
AcDbEntity
  8
Defpoints
 62
     0
100
AcDbPoint
 10
-29.43824411856572
 20
64.6322864139153
 30
0.0
  0
POINT
  5
72C
330
722
100
AcDbEntity
  8
Defpoints
 62
     0
100
AcDbPoint
 10
-17.77979989387507
 20
57.86637214521825
 30
0.0
  0
POINT
  5
72D
330
722
100
AcDbEntity
  8
Defpoints
 62
     0
100
AcDbPoint
 10
-4.277861397048923
 20
57.86637214521825
 30
0.0
  0
ENDBLK
  5
724
330
722
100
AcDbEntity
  8
0
100
AcDbBlockEnd
  0
BLOCK
  5
72F
330
72E
100
AcDbEntity
  8
0
100
AcDbBlockBegin
  2
*D64
 70
     1
 10
0.0
 20
0.0
 30
0.0
  3
*D64
  1
*D71
  0
LINE
  5
731
330
72E
100
AcDbEntity
  8
文字
 62
     0
370
    -2
100
AcDbLine
 10
75.98495928990799
 20
40.09566435056652
 30
0.0
 11
75.35995928990799
 21
40.09566435056652
 31
0.0
  0
LINE
  5
732
330
72E
100
AcDbEntity
  8
文字
 62
     0
370
    -2
100
AcDbLine
 10
54.48302079308183
 20
44.1055339481428
 30
0.0
 11
77.85995928990799
 21
44.1055339481428
 31
0.0
  0
LINE
  5
733
330
72E
100
AcDbEntity
  8
文字
 62
     0
370
    -2
100
AcDbLine
 10
76.60995928990799
 20
40.09566435056652
 30
0.0
 11
76.60995928990799
 21
44.1055339481428
 31
0.0
  0
LINE
  5
734
330
72E
100
AcDbEntity
  8
文字
 62
     0
370
    -2
100
AcDbLine
 10
76.60995928990799
 20
37.59566435056652
 30
0.0
 11
76.60995928990799
 21
35.09566435056652
 31
0.0
  0
LINE
  5
735
330
72E
100
AcDbEntity
  8
文字
 62
     0
370
    -2
100
AcDbLine
 10
76.60995928990799
 20
46.6055339481428
 30
0.0
 11
76.60995928990799
 21
49.1055339481428
 31
0.0
  0
SOLID
  5
736
330
72E
100
AcDbEntity
  8
文字
 62
     0
100
AcDbTrace
 10
77.02662595657466
 20
37.59566435056652
 30
0.0
 11
76.19329262324132
 21
37.59566435056652
 31
0.0
 12
76.60995928990799
 22
40.09566435056652
 32
0.0
 13
76.60995928990799
 23
40.09566435056652
 33
0.0
  0
SOLID
  5
737
330
72E
100
AcDbEntity
  8
文字
 62
     0
100
AcDbTrace
 10
76.19329262324132
 20
46.6055339481428
 30
0.0
 11
77.02662595657466
 21
46.6055339481428
 31
0.0
 12
76.60995928990799
 22
44.1055339481428
 32
0.0
 13
76.60995928990799
 23
44.1055339481428
 33
0.0
  0
MTEXT
  5
738
330
72E
100
AcDbEntity
  8
文字
 62
     0
370
    -3
100
AcDbMText
 10
74.73495928990799
 20
42.10059914935466
 30
0.0
 40
2.5
 41
0.0
 46
0.0
 71
     5
 72
     1
  1
4
 11
0.0
 21
1.0
 31
0.0
 73
     1
 44
1.0
  0
POINT
  5
739
330
72E
100
AcDbEntity
  8
Defpoints
 62
     0
100
AcDbPoint
 10
76.60995928990799
 20
40.09566435056652
 30
0.0
  0
POINT
  5
73A
330
72E
100
AcDbEntity
  8
Defpoints
 62
     0
100
AcDbPoint
 10
53.85802079308183
 20
44.1055339481428
 30
0.0
  0
POINT
  5
73B
330
72E
100
AcDbEntity
  8
Defpoints
 62
     0
100
AcDbPoint
 10
76.60995928990799
 20
44.1055339481428
 30
0.0
  0
ENDBLK
  5
730
330
72E
100
AcDbEntity
  8
0
100
AcDbBlockEnd
  0
BLOCK
  5
73D
330
73C
100
AcDbEntity
  8
0
100
AcDbBlockBegin
  2
*D65
 70
     1
 10
0.0
 20
0.0
 30
0.0
  3
*D65
  1
*D72
  0
LINE
  5
73F
330
73C
100
AcDbEntity
  8
文字
 62
     0
370
    -2
100
AcDbLine
 10
54.48302079308183
 20
44.1055339481428
 30
0.0
 11
77.85995928990799
 21
44.1055339481428
 31
0.0
  0
LINE
  5
740
330
73C
100
AcDbEntity
  8
文字
 62
     0
370
    -2
100
AcDbLine
 10
50.73302079308182
 20
84.1055339481428
 30
0.0
 11
77.85995928990799
 21
84.1055339481428
 31
0.0
  0
LINE
  5
741
330
73C
100
AcDbEntity
  8
文字
 62
     0
370
    -2
100
AcDbLine
 10
76.60995928990799
 20
46.6055339481428
 30
0.0
 11
76.60995928990799
 21
81.6055339481428
 31
0.0
  0
SOLID
  5
742
330
73C
100
AcDbEntity
  8
文字
 62
     0
100
AcDbTrace
 10
76.19329262324132
 20
46.6055339481428
 30
0.0
 11
77.02662595657466
 21
46.6055339481428
 31
0.0
 12
76.60995928990799
 22
44.1055339481428
 32
0.0
 13
76.60995928990799
 23
44.1055339481428
 33
0.0
  0
SOLID
  5
743
330
73C
100
AcDbEntity
  8
文字
 62
     0
100
AcDbTrace
 10
77.02662595657466
 20
81.6055339481428
 30
0.0
 11
76.19329262324132
 21
81.6055339481428
 31
0.0
 12
76.60995928990799
 22
84.1055339481428
 32
0.0
 13
76.60995928990799
 23
84.1055339481428
 33
0.0
  0
MTEXT
  5
744
330
73C
100
AcDbEntity
  8
文字
 62
     0
100
AcDbMText
 10
74.70937948090389
 20
64.1055339481428
 30
0.0
 40
2.5
 41
0.0
 46
0.0
 71
     5
 72
     1
  1
40
 11
0.0
 21
1.0
 31
0.0
 73
     1
 44
1.0
  0
POINT
  5
745
330
73C
100
AcDbEntity
  8
Defpoints
 62
     0
100
AcDbPoint
 10
53.85802079308183
 20
44.1055339481428
 30
0.0
  0
POINT
  5
746
330
73C
100
AcDbEntity
  8
Defpoints
 62
     0
100
AcDbPoint
 10
50.10802079308182
 20
84.1055339481428
 30
0.0
  0
POINT
  5
747
330
73C
100
AcDbEntity
  8
Defpoints
 62
     0
100
AcDbPoint
 10
76.60995928990799
 20
84.1055339481428
 30
0.0
  0
ENDBLK
  5
73E
330
73C
100
AcDbEntity
  8
0
100
AcDbBlockEnd
  0
BLOCK
  5
749
330
748
100
AcDbEntity
  8
0
100
AcDbBlockBegin
  2
*D66
 70
     1
 10
0.0
 20
0.0
 30
0.0
  3
*D66
  1
*D73
  0
LINE
  5
74B
330
748
100
AcDbEntity
  8
文字
 62
     0
370
    -2
100
AcDbLine
 10
45.10802079308182
 20
83.7305339481428
 30
0.0
 11
45.10802079308182
 21
95.6934690624037
 31
0.0
  0
LINE
  5
74C
330
748
100
AcDbEntity
  8
文字
 62
     0
370
    -2
100
AcDbLine
 10
51.10802079308182
 20
83.7305339481428
 30
0.0
 11
51.10802079308182
 21
95.6934690624037
 31
0.0
  0
LINE
  5
74D
330
748
100
AcDbEntity
  8
文字
 62
     0
370
    -2
100
AcDbLine
 10
45.10802079308182
 20
94.4434690624037
 30
0.0
 11
51.10802079308182
 21
94.4434690624037
 31
0.0
  0
LINE
  5
74E
330
748
100
AcDbEntity
  8
文字
 62
     0
370
    -2
100
AcDbLine
 10
42.60802079308182
 20
94.4434690624037
 30
0.0
 11
40.10802079308182
 21
94.4434690624037
 31
0.0
  0
LINE
  5
74F
330
748
100
AcDbEntity
  8
文字
 62
     0
370
    -2
100
AcDbLine
 10
53.60802079308182
 20
94.4434690624037
 30
0.0
 11
56.10802079308182
 21
94.4434690624037
 31
0.0
  0
SOLID
  5
750
330
748
100
AcDbEntity
  8
文字
 62
     0
100
AcDbTrace
 10
42.60802079308182
 20
94.02680239573702
 30
0.0
 11
42.60802079308182
 21
94.86013572907036
 31
0.0
 12
45.10802079308182
 22
94.4434690624037
 32
0.0
 13
45.10802079308182
 23
94.4434690624037
 33
0.0
  0
SOLID
  5
751
330
748
100
AcDbEntity
  8
文字
 62
     0
100
AcDbTrace
 10
53.60802079308182
 20
94.86013572907036
 30
0.0
 11
53.60802079308182
 21
94.02680239573702
 31
0.0
 12
51.10802079308182
 22
94.4434690624037
 32
0.0
 13
51.10802079308182
 23
94.4434690624037
 33
0.0
  0
MTEXT
  5
752
330
748
100
AcDbEntity
  8
文字
 62
     0
100
AcDbMText
 10
48.10802079308182
 20
96.3440488714078
 30
0.0
 40
2.5
 41
0.0
 46
0.0
 71
     5
 72
     1
  1
{\fArial|b0|i0|c0|p32;M}6
 73
     1
 44
1.0
  0
POINT
  5
753
330
748
100
AcDbEntity
  8
Defpoints
 62
     0
100
AcDbPoint
 10
45.10802079308182
 20
83.1055339481428
 30
0.0
  0
POINT
  5
754
330
748
100
AcDbEntity
  8
Defpoints
 62
     0
100
AcDbPoint
 10
51.10802079308182
 20
83.1055339481428
 30
0.0
  0
POINT
  5
755
330
748
100
AcDbEntity
  8
Defpoints
 62
     0
100
AcDbPoint
 10
51.10802079308182
 20
94.4434690624037
 30
0.0
  0
ENDBLK
  5
74A
330
748
100
AcDbEntity
  8
0
100
AcDbBlockEnd
  0
BLOCK
  5
783
330
782
100
AcDbEntity
  8
0
100
AcDbBlockBegin
  2
*D67
 70
     1
 10
0.0
 20
0.0
 30
0.0
  3
*D67
  1
*D75
  0
LINE
  5
784
330
782
100
AcDbEntity
  8
文字
 62
     0
370
    -2
100
AcDbLine
 10
0.0
 20
23.76924986833652
 30
0.0
 11
0.0
 21
0.0
 31
0.0
  0
LINE
  5
785
330
782
100
AcDbEntity
  8
文字
 62
     0
370
    -2
100
AcDbLine
 10
9.959292143521054
 20
23.76924986833652
 30
0.0
 11
9.959292143521054
 21
0.0
 31
0.0
  0
LINE
  5
786
330
782
100
AcDbEntity
  8
文字
 62
     0
370
    -2
100
AcDbLine
 10
2.5
 20
1.25
 30
0.0
 11
7.459292143521054
 21
1.25
 31
0.0
  0
SOLID
  5
787
330
782
100
AcDbEntity
  8
文字
 62
     0
100
AcDbTrace
 10
2.5
 20
1.666666666666667
 30
0.0
 11
2.5
 21
0.8333333333333333
 31
0.0
 12
0.0
 22
1.25
 32
0.0
 13
0.0
 23
1.25
 33
0.0
  0
SOLID
  5
788
330
782
100
AcDbEntity
  8
文字
 62
     0
100
AcDbTrace
 10
7.459292143521054
 20
0.8333333333333333
 30
0.0
 11
7.459292143521054
 21
1.666666666666667
 31
0.0
 12
9.959292143521054
 22
1.25
 32
0.0
 13
9.959292143521054
 23
1.25
 33
0.0
  0
MTEXT
  5
789
330
782
100
AcDbEntity
  8
文字
 62
     0
100
AcDbMText
 10
4.979646071760527
 20
3.150579809004093
 30
0.0
 40
2.5
 41
0.0
 46
0.0
 71
     5
 72
     1
  1
10
 73
     1
 44
1.0
  0
POINT
  5
78A
330
782
100
AcDbEntity
  8
Defpoints
 62
     0
100
AcDbPoint
 10
0.0
 20
24.39424986833652
 30
0.0
  0
POINT
  5
78B
330
782
100
AcDbEntity
  8
Defpoints
 62
     0
100
AcDbPoint
 10
9.959292143521054
 20
24.39424986833652
 30
0.0
  0
POINT
  5
78C
330
782
100
AcDbEntity
  8
Defpoints
 62
     0
100
AcDbPoint
 10
9.959292143521054
 20
1.25
 30
0.0
  0
ENDBLK
  5
78D
330
782
100
AcDbEntity
  8
0
100
AcDbBlockEnd
  0
BLOCK
  5
798
330
797
100
AcDbEntity
  8
0
100
AcDbBlockBegin
  2
*D68
 70
     1
 10
0.0
 20
0.0
 30
0.0
  3
*D68
  1
*D76
  0
LINE
  5
79A
330
797
100
AcDbEntity
  8
文字
 62
     0
370
    -2
100
AcDbLine
 10
137.9610158418758
 20
59.22893614523062
 30
0.0
 11
137.9610158418758
 21
35.4596862768941
 31
0.0
  0
LINE
  5
79B
330
797
100
AcDbEntity
  8
文字
 62
     0
370
    -2
100
AcDbLine
 10
147.9203079853968
 20
59.22893614523062
 30
0.0
 11
147.9203079853968
 21
35.4596862768941
 31
0.0
  0
LINE
  5
79C
330
797
100
AcDbEntity
  8
文字
 62
     0
370
    -2
100
AcDbLine
 10
140.4610158418758
 20
36.7096862768941
 30
0.0
 11
145.4203079853968
 21
36.7096862768941
 31
0.0
  0
SOLID
  5
79D
330
797
100
AcDbEntity
  8
文字
 62
     0
100
AcDbTrace
 10
140.4610158418758
 20
37.12635294356077
 30
0.0
 11
140.4610158418758
 21
36.29301961022744
 31
0.0
 12
137.9610158418758
 22
36.7096862768941
 32
0.0
 13
137.9610158418758
 23
36.7096862768941
 33
0.0
  0
SOLID
  5
79E
330
797
100
AcDbEntity
  8
文字
 62
     0
100
AcDbTrace
 10
145.4203079853968
 20
36.29301961022744
 30
0.0
 11
145.4203079853968
 21
37.12635294356077
 31
0.0
 12
147.9203079853968
 22
36.7096862768941
 32
0.0
 13
147.9203079853968
 23
36.7096862768941
 33
0.0
  0
MTEXT
  5
79F
330
797
100
AcDbEntity
  8
文字
 62
     0
100
AcDbMText
 10
142.9406619136363
 20
38.6102660858982
 30
0.0
 40
2.5
 41
0.0
 46
0.0
 71
     5
 72
     1
  1
10
 73
     1
 44
1.0
  0
POINT
  5
7A0
330
797
100
AcDbEntity
  8
Defpoints
 62
     0
100
AcDbPoint
 10
137.9610158418758
 20
59.85393614523062
 30
0.0
  0
POINT
  5
7A1
330
797
100
AcDbEntity
  8
Defpoints
 62
     0
100
AcDbPoint
 10
147.9203079853968
 20
59.85393614523062
 30
0.0
  0
POINT
  5
7A2
330
797
100
AcDbEntity
  8
Defpoints
 62
     0
100
AcDbPoint
 10
147.9203079853968
 20
36.7096862768941
 30
0.0
  0
ENDBLK
  5
799
330
797
100
AcDbEntity
  8
0
100
AcDbBlockEnd
  0
BLOCK
  5
7CB
330
7CA
100
AcDbEntity
  8
0
100
AcDbBlockBegin
  2
*D69
 70
     1
 10
0.0
 20
0.0
 30
0.0
  3
*D69
  1
*D70
  0
LINE
  5
7CC
330
7CA
100
AcDbEntity
  8
文字
 62
     0
370
    -2
100
AcDbLine
 10
5.0
 20
79.0
 30
0.0
 11
5.0
 21
90.96293511426089
 31
0.0
  0
LINE
  5
7CD
330
7CA
100
AcDbEntity
  8
文字
 62
     0
370
    -2
100
AcDbLine
 10
11.0
 20
79.0
 30
0.0
 11
11.0
 21
90.96293511426089
 31
0.0
  0
LINE
  5
7CE
330
7CA
100
AcDbEntity
  8
文字
 62
     0
370
    -2
100
AcDbLine
 10
5.0
 20
89.71293511426089
 30
0.0
 11
11.0
 21
89.71293511426089
 31
0.0
  0
LINE
  5
7CF
330
7CA
100
AcDbEntity
  8
文字
 62
     0
370
    -2
100
AcDbLine
 10
2.5
 20
89.71293511426089
 30
0.0
 11
0.0
 21
89.71293511426089
 31
0.0
  0
LINE
  5
7D0
330
7CA
100
AcDbEntity
  8
文字
 62
     0
370
    -2
100
AcDbLine
 10
13.5
 20
89.71293511426089
 30
0.0
 11
16.0
 21
89.71293511426089
 31
0.0
  0
SOLID
  5
7D1
330
7CA
100
AcDbEntity
  8
文字
 62
     0
100
AcDbTrace
 10
2.5
 20
89.29626844759422
 30
0.0
 11
2.5
 21
90.12960178092756
 31
0.0
 12
5.0
 22
89.71293511426089
 32
0.0
 13
5.0
 23
89.71293511426089
 33
0.0
  0
SOLID
  5
7D2
330
7CA
100
AcDbEntity
  8
文字
 62
     0
100
AcDbTrace
 10
13.5
 20
90.12960178092756
 30
0.0
 11
13.5
 21
89.29626844759422
 31
0.0
 12
11.0
 22
89.71293511426089
 32
0.0
 13
11.0
 23
89.71293511426089
 33
0.0
  0
MTEXT
  5
7D3
330
7CA
100
AcDbEntity
  8
文字
 62
     0
100
AcDbMText
 10
8.0
 20
91.61351492326499
 30
0.0
 40
2.5
 41
0.0
 46
0.0
 71
     5
 72
     1
  1
{\fArial|b0|i0|c0|p32;M}6
 73
     1
 44
1.0
  0
POINT
  5
7D4
330
7CA
100
AcDbEntity
  8
Defpoints
 62
     0
100
AcDbPoint
 10
5.0
 20
78.375
 30
0.0
  0
POINT
  5
7D5
330
7CA
100
AcDbEntity
  8
Defpoints
 62
     0
100
AcDbPoint
 10
11.0
 20
78.375
 30
0.0
  0
POINT
  5
7D6
330
7CA
100
AcDbEntity
  8
Defpoints
 62
     0
100
AcDbPoint
 10
11.0
 20
89.71293511426089
 30
0.0
  0
ENDBLK
  5
7D7
330
7CA
100
AcDbEntity
  8
0
100
AcDbBlockEnd
  0
BLOCK
  5
7E0
330
7DF
100
AcDbEntity
  8
0
100
AcDbBlockBegin
  2
*D70
 70
     1
 10
0.0
 20
0.0
 30
0.0
  3
*D70
  1
*D71
  0
LINE
  5
7E1
330
7DF
100
AcDbEntity
  8
文字
 62
     0
370
    -2
100
AcDbLine
 10
10.625
 20
80.0
 30
0.0
 11
37.75193849682618
 21
80.0
 31
0.0
  0
LINE
  5
7E2
330
7DF
100
AcDbEntity
  8
文字
 62
     0
370
    -2
100
AcDbLine
 10
14.37500000000001
 20
0.0
 30
0.0
 11
37.75193849682617
 21
-0.0000000000000015
 31
0.0
  0
LINE
  5
7E3
330
7DF
100
AcDbEntity
  8
文字
 62
     0
370
    -2
100
AcDbLine
 10
36.50193849682618
 20
77.5
 30
0.0
 11
36.50193849682617
 21
2.499999999999999
 31
0.0
  0
SOLID
  5
7E4
330
7DF
100
AcDbEntity
  8
文字
 62
     0
100
AcDbTrace
 10
36.91860516349284
 20
77.5
 30
0.0
 11
36.08527183015951
 21
77.5
 31
0.0
 12
36.50193849682618
 22
80.0
 32
0.0
 13
36.50193849682618
 23
80.0
 33
0.0
  0
SOLID
  5
7E5
330
7DF
100
AcDbEntity
  8
文字
 62
     0
100
AcDbTrace
 10
36.08527183015951
 20
2.499999999999999
 30
0.0
 11
36.91860516349283
 21
2.499999999999999
 31
0.0
 12
36.50193849682617
 22
-0.0000000000000014
 32
0.0
 13
36.50193849682617
 23
-0.0000000000000014
 33
0.0
  0
MTEXT
  5
7E6
330
7DF
100
AcDbEntity
  8
文字
 62
     0
100
AcDbMText
 10
34.60135868782208
 20
40.0
 30
0.0
 40
2.5
 41
0.0
 46
0.0
 71
     5
 72
     1
  1
80
 11
8.881784197001253E-17
 21
1.0
 31
0.0
 73
     1
 44
1.0
  0
POINT
  5
7E7
330
7DF
100
AcDbEntity
  8
Defpoints
 62
     0
100
AcDbPoint
 10
10.0
 20
80.0
 30
0.0
  0
POINT
  5
7E8
330
7DF
100
AcDbEntity
  8
Defpoints
 62
     0
100
AcDbPoint
 10
13.75000000000001
 20
0.0
 30
0.0
  0
POINT
  5
7E9
330
7DF
100
AcDbEntity
  8
Defpoints
 62
     0
100
AcDbPoint
 10
36.50193849682617
 20
-0.0000000000000014
 30
0.0
  0
ENDBLK
  5
7EA
330
7DF
100
AcDbEntity
  8
0
100
AcDbBlockEnd
  0
BLOCK
  5
7F7
330
7F6
100
AcDbEntity
  8
0
100
AcDbBlockBegin
  2
*D71
 70
     1
 10
0.0
 20
0.0
 30
0.0
  3
*D71
  1
*D72
  0
LINE
  5
7F9
330
7F6
100
AcDbEntity
  8
文字
 62
     0
370
    -2
100
AcDbLine
 10
45.10802079308183
 20
123.1055339481428
 30
0.0
 11
45.10802079308183
 21
135.0684690624037
 31
0.0
  0
LINE
  5
7FA
330
7F6
100
AcDbEntity
  8
文字
 62
     0
370
    -2
100
AcDbLine
 10
51.10802079308183
 20
123.1055339481428
 30
0.0
 11
51.10802079308183
 21
135.0684690624037
 31
0.0
  0
LINE
  5
7FB
330
7F6
100
AcDbEntity
  8
文字
 62
     0
370
    -2
100
AcDbLine
 10
45.10802079308183
 20
133.8184690624037
 30
0.0
 11
51.10802079308183
 21
133.8184690624037
 31
0.0
  0
LINE
  5
7FC
330
7F6
100
AcDbEntity
  8
文字
 62
     0
370
    -2
100
AcDbLine
 10
42.60802079308183
 20
133.8184690624037
 30
0.0
 11
40.10802079308183
 21
133.8184690624037
 31
0.0
  0
LINE
  5
7FD
330
7F6
100
AcDbEntity
  8
文字
 62
     0
370
    -2
100
AcDbLine
 10
53.60802079308183
 20
133.8184690624037
 30
0.0
 11
56.10802079308183
 21
133.8184690624037
 31
0.0
  0
SOLID
  5
7FE
330
7F6
100
AcDbEntity
  8
文字
 62
     0
100
AcDbTrace
 10
42.60802079308183
 20
133.401802395737
 30
0.0
 11
42.60802079308183
 21
134.2351357290704
 31
0.0
 12
45.10802079308183
 22
133.8184690624037
 32
0.0
 13
45.10802079308183
 23
133.8184690624037
 33
0.0
  0
SOLID
  5
7FF
330
7F6
100
AcDbEntity
  8
文字
 62
     0
100
AcDbTrace
 10
53.60802079308183
 20
134.2351357290704
 30
0.0
 11
53.60802079308183
 21
133.401802395737
 31
0.0
 12
51.10802079308183
 22
133.8184690624037
 32
0.0
 13
51.10802079308183
 23
133.8184690624037
 33
0.0
  0
MTEXT
  5
800
330
7F6
100
AcDbEntity
  8
文字
 62
     0
370
    -3
100
AcDbMText
 10
48.10802079308183
 20
135.7197190624037
 30
0.0
 40
2.5
 41
0.0
 46
0.0
 71
     5
 72
     1
  1
{\fArial|b0|i0|c0|p32;M}6
 73
     1
 44
1.0
  0
POINT
  5
801
330
7F6
100
AcDbEntity
  8
Defpoints
 62
     0
100
AcDbPoint
 10
45.10802079308183
 20
122.4805339481428
 30
0.0
  0
POINT
  5
802
330
7F6
100
AcDbEntity
  8
Defpoints
 62
     0
100
AcDbPoint
 10
51.10802079308183
 20
122.4805339481428
 30
0.0
  0
POINT
  5
803
330
7F6
100
AcDbEntity
  8
Defpoints
 62
     0
100
AcDbPoint
 10
51.10802079308183
 20
133.8184690624037
 30
0.0
  0
ENDBLK
  5
7F8
330
7F6
100
AcDbEntity
  8
0
100
AcDbBlockEnd
  0
BLOCK
  5
805
330
804
100
AcDbEntity
  8
0
100
AcDbBlockBegin
  2
*D72
 70
     1
 10
0.0
 20
0.0
 30
0.0
  3
*D72
  1
*D73
  0
LINE
  5
807
330
804
100
AcDbEntity
  8
文字
 62
     0
370
    -2
100
AcDbLine
 10
50.73302079308183
 20
124.1055339481428
 30
0.0
 11
77.859959289908
 21
124.1055339481428
 31
0.0
  0
LINE
  5
808
330
804
100
AcDbEntity
  8
文字
 62
     0
370
    -2
100
AcDbLine
 10
54.48302079308184
 20
44.1055339481428
 30
0.0
 11
77.859959289908
 21
44.1055339481428
 31
0.0
  0
LINE
  5
809
330
804
100
AcDbEntity
  8
文字
 62
     0
370
    -2
100
AcDbLine
 10
76.609959289908
 20
121.6055339481428
 30
0.0
 11
76.609959289908
 21
46.6055339481428
 31
0.0
  0
SOLID
  5
80A
330
804
100
AcDbEntity
  8
文字
 62
     0
100
AcDbTrace
 10
77.02662595657468
 20
121.6055339481428
 30
0.0
 11
76.19329262324133
 21
121.6055339481428
 31
0.0
 12
76.609959289908
 22
124.1055339481428
 32
0.0
 13
76.609959289908
 23
124.1055339481428
 33
0.0
  0
SOLID
  5
80B
330
804
100
AcDbEntity
  8
文字
 62
     0
100
AcDbTrace
 10
76.19329262324133
 20
46.6055339481428
 30
0.0
 11
77.02662595657468
 21
46.6055339481428
 31
0.0
 12
76.609959289908
 22
44.1055339481428
 32
0.0
 13
76.609959289908
 23
44.1055339481428
 33
0.0
  0
MTEXT
  5
80C
330
804
100
AcDbEntity
  8
文字
 62
     0
370
    -3
100
AcDbMText
 10
74.708709289908
 20
84.1055339481428
 30
0.0
 40
2.5
 41
0.0
 46
0.0
 71
     5
 72
     1
  1
80
 11
0.0
 21
1.0
 31
0.0
 73
     1
 44
1.0
  0
POINT
  5
80D
330
804
100
AcDbEntity
  8
Defpoints
 62
     0
100
AcDbPoint
 10
50.10802079308183
 20
124.1055339481428
 30
0.0
  0
POINT
  5
80E
330
804
100
AcDbEntity
  8
Defpoints
 62
     0
100
AcDbPoint
 10
53.85802079308184
 20
44.1055339481428
 30
0.0
  0
POINT
  5
80F
330
804
100
AcDbEntity
  8
Defpoints
 62
     0
100
AcDbPoint
 10
76.609959289908
 20
44.1055339481428
 30
0.0
  0
ENDBLK
  5
806
330
804
100
AcDbEntity
  8
0
100
AcDbBlockEnd
  0
BLOCK
  5
866
330
865
100
AcDbEntity
  8
0
100
AcDbBlockBegin
  2
*D73
 70
     1
 10
0.0
 20
0.0
 30
0.0
  3
*D73
  1
*D10
  0
LINE
  5
867
330
865
100
AcDbEntity
  8
文字
 62
     0
370
    -2
100
AcDbLine
 10
27.31798802964213
 20
15.41669636768104
 30
0.0
 11
27.31798802964213
 21
5.976724044629449
 31
0.0
  0
LINE
  5
868
330
865
100
AcDbEntity
  8
文字
 62
     0
370
    -2
100
AcDbLine
 10
21.31798802964213
 20
15.41669636768104
 30
0.0
 11
21.31798802964213
 21
5.976724044629449
 31
0.0
  0
LINE
  5
869
330
865
100
AcDbEntity
  8
文字
 62
     0
370
    -2
100
AcDbLine
 10
27.31798802964213
 20
7.226724044629449
 30
0.0
 11
21.31798802964213
 21
7.226724044629449
 31
0.0
  0
LINE
  5
86A
330
865
100
AcDbEntity
  8
文字
 62
     0
370
    -2
100
AcDbLine
 10
29.81798802964213
 20
7.226724044629449
 30
0.0
 11
32.31798802964212
 21
7.226724044629449
 31
0.0
  0
LINE
  5
86B
330
865
100
AcDbEntity
  8
文字
 62
     0
370
    -2
100
AcDbLine
 10
18.81798802964213
 20
7.226724044629449
 30
0.0
 11
16.31798802964213
 21
7.226724044629449
 31
0.0
  0
SOLID
  5
86C
330
865
100
AcDbEntity
  8
文字
 62
     0
100
AcDbTrace
 10
29.81798802964213
 20
7.643390711296116
 30
0.0
 11
29.81798802964213
 21
6.810057377962782
 31
0.0
 12
27.31798802964213
 22
7.226724044629449
 32
0.0
 13
27.31798802964213
 23
7.226724044629449
 33
0.0
  0
SOLID
  5
86D
330
865
100
AcDbEntity
  8
文字
 62
     0
100
AcDbTrace
 10
18.81798802964213
 20
6.810057377962782
 30
0.0
 11
18.81798802964213
 21
7.643390711296116
 31
0.0
 12
21.31798802964213
 22
7.226724044629449
 32
0.0
 13
21.31798802964213
 23
7.226724044629449
 33
0.0
  0
MTEXT
  5
86E
330
865
100
AcDbEntity
  8
文字
 62
     0
100
AcDbMText
 10
24.21721355381145
 20
9.12797404462945
 30
0.0
 40
2.5
 41
0.0
 46
0.0
 71
     5
 72
     1
  1
6
 73
     1
 44
1.0
  0
POINT
  5
86F
330
865
100
AcDbEntity
  8
Defpoints
 62
     0
100
AcDbPoint
 10
27.31798802964213
 20
16.04169636768104
 30
0.0
  0
POINT
  5
870
330
865
100
AcDbEntity
  8
Defpoints
 62
     0
100
AcDbPoint
 10
21.31798802964213
 20
16.04169636768104
 30
0.0
  0
POINT
  5
871
330
865
100
AcDbEntity
  8
Defpoints
 62
     0
100
AcDbPoint
 10
21.31798802964213
 20
7.226724044629449
 30
0.0
  0
ENDBLK
  5
872
330
865
100
AcDbEntity
  8
0
100
AcDbBlockEnd
  0
BLOCK
  5
876
330
875
100
AcDbEntity
  8
0
100
AcDbBlockBegin
  2
*D74
 70
     1
 10
0.0
 20
0.0
 30
0.0
  3
*D74
  1
*D24
  0
LINE
  5
877
330
875
100
AcDbEntity
  8
文字
 62
     0
370
    -2
100
AcDbLine
 10
28.28454380495149
 20
24.80761063637807
 30
0.0
 11
54.13666069551249
 21
24.80761063637807
 31
0.0
  0
LINE
  5
878
330
875
100
AcDbEntity
  8
文字
 62
     0
370
    -2
100
AcDbLine
 10
36.94298802964212
 20
16.04169636768104
 30
0.0
 11
54.13666069551249
 21
16.04169636768103
 31
0.0
  0
LINE
  5
879
330
875
100
AcDbEntity
  8
文字
 62
     0
370
    -2
100
AcDbLine
 10
52.88666069551249
 20
22.30761063637807
 30
0.0
 11
52.88666069551249
 21
18.54169636768103
 31
0.0
  0
SOLID
  5
87A
330
875
100
AcDbEntity
  8
文字
 62
     0
100
AcDbTrace
 10
53.30332736217915
 20
22.30761063637807
 30
0.0
 11
52.46999402884583
 21
22.30761063637807
 31
0.0
 12
52.88666069551249
 22
24.80761063637807
 32
0.0
 13
52.88666069551249
 23
24.80761063637807
 33
0.0
  0
SOLID
  5
87B
330
875
100
AcDbEntity
  8
文字
 62
     0
100
AcDbTrace
 10
52.46999402884583
 20
18.54169636768103
 30
0.0
 11
53.30332736217915
 21
18.54169636768103
 31
0.0
 12
52.88666069551249
 22
16.04169636768103
 32
0.0
 13
52.88666069551249
 23
16.04169636768103
 33
0.0
  0
MTEXT
  5
87C
330
875
100
AcDbEntity
  8
文字
 62
     0
100
AcDbMText
 10
50.98541069551248
 20
21.285859614132
 30
0.0
 40
2.5
 41
0.0
 46
0.0
 71
     5
 72
     1
  1
9
 11
0.0
 21
1.0
 31
0.0
 73
     1
 44
1.0
  0
POINT
  5
87D
330
875
100
AcDbEntity
  8
Defpoints
 62
     0
100
AcDbPoint
 10
27.65954380495149
 20
24.80761063637807
 30
0.0
  0
POINT
  5
87E
330
875
100
AcDbEntity
  8
Defpoints
 62
     0
100
AcDbPoint
 10
36.31798802964212
 20
16.04169636768104
 30
0.0
  0
POINT
  5
87F
330
875
100
AcDbEntity
  8
Defpoints
 62
     0
100
AcDbPoint
 10
52.88666069551249
 20
16.04169636768104
 30
0.0
  0
ENDBLK
  5
880
330
875
100
AcDbEntity
  8
0
100
AcDbBlockEnd
  0
BLOCK
  5
888
330
887
100
AcDbEntity
  8
0
100
AcDbBlockBegin
  2
*D75
 70
     1
 10
0.0
 20
0.0
 30
0.0
  3
*D75
  1
*D76
  0
LINE
  5
889
330
887
100
AcDbEntity
  8
文字
 62
     0
370
    -2
100
AcDbLine
 10
7.631155039653958
 20
17.9789301392336
 30
0.0
 11
7.631155039653962
 21
0.0
 31
0.0
  0
LINE
  5
88A
330
887
100
AcDbEntity
  8
文字
 62
     0
370
    -2
100
AcDbLine
 10
40.63115503965396
 20
17.97893013923354
 30
0.0
 11
40.63115503965396
 21
0.0
 31
0.0
  0
LINE
  5
88B
330
887
100
AcDbEntity
  8
文字
 62
     0
370
    -2
100
AcDbLine
 10
10.13115503965396
 20
1.25
 30
0.0
 11
38.13115503965396
 21
1.25
 31
0.0
  0
SOLID
  5
88C
330
887
100
AcDbEntity
  8
文字
 62
     0
100
AcDbTrace
 10
10.13115503965396
 20
1.666666666666667
 30
0.0
 11
10.13115503965396
 21
0.8333333333333333
 31
0.0
 12
7.631155039653962
 22
1.25
 32
0.0
 13
7.631155039653962
 23
1.25
 33
0.0
  0
SOLID
  5
88D
330
887
100
AcDbEntity
  8
文字
 62
     0
100
AcDbTrace
 10
38.13115503965396
 20
0.8333333333333333
 30
0.0
 11
38.13115503965396
 21
1.666666666666667
 31
0.0
 12
40.63115503965396
 22
1.25
 32
0.0
 13
40.63115503965396
 23
1.25
 33
0.0
  0
MTEXT
  5
88E
330
887
100
AcDbEntity
  8
文字
 62
     0
100
AcDbMText
 10
24.13115503965396
 20
3.19625
 30
0.0
 40
2.5
 41
0.0
 46
0.0
 71
     5
 72
     1
  1
%%c33
 73
     1
 44
1.0
  0
POINT
  5
88F
330
887
100
AcDbEntity
  8
Defpoints
 62
     0
100
AcDbPoint
 10
7.631155039653958
 20
18.6039301392336
 30
0.0
  0
POINT
  5
890
330
887
100
AcDbEntity
  8
Defpoints
 62
     0
100
AcDbPoint
 10
40.63115503965396
 20
18.60393013923354
 30
0.0
  0
POINT
  5
891
330
887
100
AcDbEntity
  8
Defpoints
 62
     0
100
AcDbPoint
 10
40.63115503965396
 20
1.25
 30
0.0
  0
ENDBLK
  5
892
330
887
100
AcDbEntity
  8
0
100
AcDbBlockEnd
  0
BLOCK
  5
897
330
896
100
AcDbEntity
  8
0
100
AcDbBlockBegin
  2
*D76
 70
     1
 10
0.0
 20
0.0
 30
0.0
  3
*D76
  1
*D77
  0
LINE
  5
898
330
896
100
AcDbEntity
  8
文字
 62
     0
370
    -2
100
AcDbLine
 10
9.506155039653958
 20
21.1039301392336
 30
0.0
 11
1.882500000000004
 21
21.1039301392336
 31
0.0
  0
LINE
  5
899
330
896
100
AcDbEntity
  8
文字
 62
     0
370
    -2
100
AcDbLine
 10
9.506155039653958
 20
16.1039301392336
 30
0.0
 11
1.882500000000004
 21
16.1039301392336
 31
0.0
  0
LINE
  5
89A
330
896
100
AcDbEntity
  8
文字
 62
     0
370
    -2
100
AcDbLine
 10
3.132500000000004
 20
21.1039301392336
 30
0.0
 11
3.132500000000004
 21
16.1039301392336
 31
0.0
  0
LINE
  5
89B
330
896
100
AcDbEntity
  8
文字
 62
     0
370
    -2
100
AcDbLine
 10
3.132500000000004
 20
23.6039301392336
 30
0.0
 11
3.132500000000004
 21
26.1039301392336
 31
0.0
  0
LINE
  5
89C
330
896
100
AcDbEntity
  8
文字
 62
     0
370
    -2
100
AcDbLine
 10
3.132500000000004
 20
13.6039301392336
 30
0.0
 11
3.132500000000004
 21
11.1039301392336
 31
0.0
  0
SOLID
  5
89D
330
896
100
AcDbEntity
  8
文字
 62
     0
100
AcDbTrace
 10
2.715833333333338
 20
23.6039301392336
 30
0.0
 11
3.549166666666671
 21
23.6039301392336
 31
0.0
 12
3.132500000000004
 22
21.1039301392336
 32
0.0
 13
3.132500000000004
 23
21.1039301392336
 33
0.0
  0
SOLID
  5
89E
330
896
100
AcDbEntity
  8
文字
 62
     0
100
AcDbTrace
 10
3.54916666666667
 20
13.6039301392336
 30
0.0
 11
2.715833333333337
 21
13.6039301392336
 31
0.0
 12
3.132500000000004
 22
16.1039301392336
 32
0.0
 13
3.132500000000004
 23
16.1039301392336
 33
0.0
  0
MTEXT
  5
89F
330
896
100
AcDbEntity
  8
文字
 62
     0
100
AcDbMText
 10
1.236250000000005
 20
18.6039301392336
 30
0.0
 40
2.5
 41
0.0
 46
0.0
 71
     5
 72
     1
  1
5
 11
8.881784197001245E-17
 21
1.0
 31
0.0
 73
     1
 44
1.0
  0
POINT
  5
8A0
330
896
100
AcDbEntity
  8
Defpoints
 62
     0
100
AcDbPoint
 10
10.13115503965396
 20
21.1039301392336
 30
0.0
  0
POINT
  5
8A1
330
896
100
AcDbEntity
  8
Defpoints
 62
     0
100
AcDbPoint
 10
10.13115503965396
 20
16.1039301392336
 30
0.0
  0
POINT
  5
8A2
330
896
100
AcDbEntity
  8
Defpoints
 62
     0
100
AcDbPoint
 10
3.132500000000004
 20
16.1039301392336
 30
0.0
  0
ENDBLK
  5
8A3
330
896
100
AcDbEntity
  8
0
100
AcDbBlockEnd
  0
BLOCK
  5
8B9
330
8B8
100
AcDbEntity
  8
0
100
AcDbBlockBegin
  2
*D77
 70
     1
 10
0.0
 20
0.0
 30
0.0
  3
*D77
  1
*D78
  0
LINE
  5
8BB
330
8B8
100
AcDbEntity
  8
文字
 62
     0
370
    -2
100
AcDbLine
 10
51.10975202293243
 20
30.7047500818695
 30
0.0
 11
51.10975202293243
 21
21.26477775881791
 31
0.0
  0
LINE
  5
8BC
330
8B8
100
AcDbEntity
  8
文字
 62
     0
370
    -2
100
AcDbLine
 10
45.10975202293243
 20
30.7047500818695
 30
0.0
 11
45.10975202293243
 21
21.26477775881791
 31
0.0
  0
LINE
  5
8BD
330
8B8
100
AcDbEntity
  8
文字
 62
     0
370
    -2
100
AcDbLine
 10
51.10975202293243
 20
22.51477775881791
 30
0.0
 11
45.10975202293243
 21
22.51477775881791
 31
0.0
  0
LINE
  5
8BE
330
8B8
100
AcDbEntity
  8
文字
 62
     0
370
    -2
100
AcDbLine
 10
53.60975202293243
 20
22.51477775881791
 30
0.0
 11
56.10975202293243
 21
22.51477775881791
 31
0.0
  0
LINE
  5
8BF
330
8B8
100
AcDbEntity
  8
文字
 62
     0
370
    -2
100
AcDbLine
 10
42.60975202293243
 20
22.51477775881791
 30
0.0
 11
40.10975202293243
 21
22.51477775881791
 31
0.0
  0
SOLID
  5
8C0
330
8B8
100
AcDbEntity
  8
文字
 62
     0
100
AcDbTrace
 10
53.60975202293243
 20
22.93144442548458
 30
0.0
 11
53.60975202293243
 21
22.09811109215124
 31
0.0
 12
51.10975202293243
 22
22.51477775881791
 32
0.0
 13
51.10975202293243
 23
22.51477775881791
 33
0.0
  0
SOLID
  5
8C1
330
8B8
100
AcDbEntity
  8
文字
 62
     0
100
AcDbTrace
 10
42.60975202293243
 20
22.09811109215124
 30
0.0
 11
42.60975202293243
 21
22.93144442548458
 31
0.0
 12
45.10975202293243
 22
22.51477775881791
 32
0.0
 13
45.10975202293243
 23
22.51477775881791
 33
0.0
  0
MTEXT
  5
8C2
330
8B8
100
AcDbEntity
  8
文字
 62
     0
370
    -3
100
AcDbMText
 10
48.00897754710176
 20
24.41602775881791
 30
0.0
 40
2.5
 41
0.0
 46
0.0
 71
     5
 72
     1
  1
6
 73
     1
 44
1.0
  0
POINT
  5
8C3
330
8B8
100
AcDbEntity
  8
Defpoints
 62
     0
100
AcDbPoint
 10
51.10975202293243
 20
31.3297500818695
 30
0.0
  0
POINT
  5
8C4
330
8B8
100
AcDbEntity
  8
Defpoints
 62
     0
100
AcDbPoint
 10
45.10975202293243
 20
31.3297500818695
 30
0.0
  0
POINT
  5
8C5
330
8B8
100
AcDbEntity
  8
Defpoints
 62
     0
100
AcDbPoint
 10
45.10975202293243
 20
22.51477775881791
 30
0.0
  0
ENDBLK
  5
8BA
330
8B8
100
AcDbEntity
  8
0
100
AcDbBlockEnd
  0
BLOCK
  5
8C7
330
8C6
100
AcDbEntity
  8
0
100
AcDbBlockBegin
  2
*D78
 70
     1
 10
0.0
 20
0.0
 30
0.0
  3
*D78
  1
*D79
  0
LINE
  5
8C9
330
8C6
100
AcDbEntity
  8
文字
 62
     0
370
    -2
100
AcDbLine
 10
52.07630779824179
 20
40.09566435056653
 30
0.0
 11
77.92842468880279
 21
40.09566435056653
 31
0.0
  0
LINE
  5
8CA
330
8C6
100
AcDbEntity
  8
文字
 62
     0
370
    -2
100
AcDbLine
 10
60.73475202293243
 20
31.3297500818695
 30
0.0
 11
77.92842468880279
 21
31.3297500818695
 31
0.0
  0
LINE
  5
8CB
330
8C6
100
AcDbEntity
  8
文字
 62
     0
370
    -2
100
AcDbLine
 10
76.67842468880279
 20
37.59566435056653
 30
0.0
 11
76.67842468880279
 21
33.8297500818695
 31
0.0
  0
SOLID
  5
8CC
330
8C6
100
AcDbEntity
  8
文字
 62
     0
100
AcDbTrace
 10
77.09509135546946
 20
37.59566435056653
 30
0.0
 11
76.26175802213612
 21
37.59566435056653
 31
0.0
 12
76.67842468880279
 22
40.09566435056653
 32
0.0
 13
76.67842468880279
 23
40.09566435056653
 33
0.0
  0
SOLID
  5
8CD
330
8C6
100
AcDbEntity
  8
文字
 62
     0
100
AcDbTrace
 10
76.26175802213612
 20
33.8297500818695
 30
0.0
 11
77.09509135546946
 21
33.8297500818695
 31
0.0
 12
76.67842468880279
 22
31.3297500818695
 32
0.0
 13
76.67842468880279
 23
31.3297500818695
 33
0.0
  0
MTEXT
  5
8CE
330
8C6
100
AcDbEntity
  8
文字
 62
     0
370
    -3
100
AcDbMText
 10
74.7771746888028
 20
36.57391332832046
 30
0.0
 40
2.5
 41
0.0
 46
0.0
 71
     5
 72
     1
  1
9
 11
0.0
 21
1.0
 31
0.0
 73
     1
 44
1.0
  0
POINT
  5
8CF
330
8C6
100
AcDbEntity
  8
Defpoints
 62
     0
100
AcDbPoint
 10
51.45130779824179
 20
40.09566435056653
 30
0.0
  0
POINT
  5
8D0
330
8C6
100
AcDbEntity
  8
Defpoints
 62
     0
100
AcDbPoint
 10
60.10975202293243
 20
31.3297500818695
 30
0.0
  0
POINT
  5
8D1
330
8C6
100
AcDbEntity
  8
Defpoints
 62
     0
100
AcDbPoint
 10
76.67842468880279
 20
31.3297500818695
 30
0.0
  0
ENDBLK
  5
8C8
330
8C6
100
AcDbEntity
  8
0
100
AcDbBlockEnd
  0
BLOCK
  5
8D3
330
8D2
100
AcDbEntity
  8
0
100
AcDbBlockBegin
  2
*D79
 70
     1
 10
0.0
 20
0.0
 30
0.0
  3
*D79
  1
*D80
  0
LINE
  5
8D5
330
8D2
100
AcDbEntity
  8
文字
 62
     0
370
    -2
100
AcDbLine
 10
31.42291903294427
 20
33.26698385342206
 30
0.0
 11
31.42291903294427
 21
15.28805371418846
 31
0.0
  0
LINE
  5
8D6
330
8D2
100
AcDbEntity
  8
文字
 62
     0
370
    -2
100
AcDbLine
 10
64.42291903294428
 20
33.266983853422
 30
0.0
 11
64.42291903294428
 21
15.28805371418846
 31
0.0
  0
LINE
  5
8D7
330
8D2
100
AcDbEntity
  8
文字
 62
     0
370
    -2
100
AcDbLine
 10
33.92291903294427
 20
16.53805371418846
 30
0.0
 11
61.92291903294428
 21
16.53805371418846
 31
0.0
  0
SOLID
  5
8D8
330
8D2
100
AcDbEntity
  8
文字
 62
     0
100
AcDbTrace
 10
33.92291903294427
 20
16.95472038085513
 30
0.0
 11
33.92291903294427
 21
16.12138704752179
 31
0.0
 12
31.42291903294427
 22
16.53805371418846
 32
0.0
 13
31.42291903294427
 23
16.53805371418846
 33
0.0
  0
SOLID
  5
8D9
330
8D2
100
AcDbEntity
  8
文字
 62
     0
100
AcDbTrace
 10
61.92291903294428
 20
16.12138704752179
 30
0.0
 11
61.92291903294428
 21
16.95472038085513
 31
0.0
 12
64.42291903294428
 22
16.53805371418846
 32
0.0
 13
64.42291903294428
 23
16.53805371418846
 33
0.0
  0
MTEXT
  5
8DA
330
8D2
100
AcDbEntity
  8
文字
 62
     0
370
    -3
100
AcDbMText
 10
47.92291903294428
 20
18.48430371418846
 30
0.0
 40
2.5
 41
0.0
 46
0.0
 71
     5
 72
     1
  1
%%c33
 73
     1
 44
1.0
  0
POINT
  5
8DB
330
8D2
100
AcDbEntity
  8
Defpoints
 62
     0
100
AcDbPoint
 10
31.42291903294427
 20
33.89198385342206
 30
0.0
  0
POINT
  5
8DC
330
8D2
100
AcDbEntity
  8
Defpoints
 62
     0
100
AcDbPoint
 10
64.42291903294428
 20
33.891983853422
 30
0.0
  0
POINT
  5
8DD
330
8D2
100
AcDbEntity
  8
Defpoints
 62
     0
100
AcDbPoint
 10
64.42291903294428
 20
16.53805371418846
 30
0.0
  0
ENDBLK
  5
8D4
330
8D2
100
AcDbEntity
  8
0
100
AcDbBlockEnd
  0
BLOCK
  5
8DF
330
8DE
100
AcDbEntity
  8
0
100
AcDbBlockBegin
  2
*D80
 70
     1
 10
0.0
 20
0.0
 30
0.0
  3
*D80
  1
*D81
  0
LINE
  5
8E1
330
8DE
100
AcDbEntity
  8
文字
 62
     0
370
    -2
100
AcDbLine
 10
33.29791903294427
 20
36.39198385342206
 30
0.0
 11
25.67426399329031
 21
36.39198385342206
 31
0.0
  0
LINE
  5
8E2
330
8DE
100
AcDbEntity
  8
文字
 62
     0
370
    -2
100
AcDbLine
 10
33.29791903294427
 20
31.39198385342206
 30
0.0
 11
25.67426399329031
 21
31.39198385342206
 31
0.0
  0
LINE
  5
8E3
330
8DE
100
AcDbEntity
  8
文字
 62
     0
370
    -2
100
AcDbLine
 10
26.92426399329031
 20
36.39198385342206
 30
0.0
 11
26.92426399329031
 21
31.39198385342206
 31
0.0
  0
LINE
  5
8E4
330
8DE
100
AcDbEntity
  8
文字
 62
     0
370
    -2
100
AcDbLine
 10
26.92426399329031
 20
38.89198385342206
 30
0.0
 11
26.92426399329031
 21
41.39198385342206
 31
0.0
  0
LINE
  5
8E5
330
8DE
100
AcDbEntity
  8
文字
 62
     0
370
    -2
100
AcDbLine
 10
26.92426399329031
 20
28.89198385342206
 30
0.0
 11
26.92426399329031
 21
26.39198385342206
 31
0.0
  0
SOLID
  5
8E6
330
8DE
100
AcDbEntity
  8
文字
 62
     0
100
AcDbTrace
 10
26.50759732662364
 20
38.89198385342206
 30
0.0
 11
27.34093065995698
 21
38.89198385342206
 31
0.0
 12
26.92426399329031
 22
36.39198385342206
 32
0.0
 13
26.92426399329031
 23
36.39198385342206
 33
0.0
  0
SOLID
  5
8E7
330
8DE
100
AcDbEntity
  8
文字
 62
     0
100
AcDbTrace
 10
27.34093065995698
 20
28.89198385342206
 30
0.0
 11
26.50759732662364
 21
28.89198385342206
 31
0.0
 12
26.92426399329031
 22
31.39198385342206
 32
0.0
 13
26.92426399329031
 23
31.39198385342206
 33
0.0
  0
MTEXT
  5
8E8
330
8DE
100
AcDbEntity
  8
文字
 62
     0
370
    -3
100
AcDbMText
 10
25.02801399329031
 20
33.89198385342206
 30
0.0
 40
2.5
 41
0.0
 46
0.0
 71
     5
 72
     1
  1
5
 11
0.0
 21
1.0
 31
0.0
 73
     1
 44
1.0
  0
POINT
  5
8E9
330
8DE
100
AcDbEntity
  8
Defpoints
 62
     0
100
AcDbPoint
 10
33.92291903294427
 20
36.39198385342206
 30
0.0
  0
POINT
  5
8EA
330
8DE
100
AcDbEntity
  8
Defpoints
 62
     0
100
AcDbPoint
 10
33.92291903294427
 20
31.39198385342206
 30
0.0
  0
POINT
  5
8EB
330
8DE
100
AcDbEntity
  8
Defpoints
 62
     0
100
AcDbPoint
 10
26.92426399329031
 20
31.39198385342206
 30
0.0
  0
ENDBLK
  5
8E0
330
8DE
100
AcDbEntity
  8
0
100
AcDbBlockEnd
  0
BLOCK
  5
945
330
944
100
AcDbEntity
  8
0
100
AcDbBlockBegin
  2
*D81
 70
     1
 10
0.0
 20
0.0
 30
0.0
  3
*D81
  1
*D21
  0
LINE
  5
946
330
944
100
AcDbEntity
  8
文字
 62
     0
370
    -2
100
AcDbLine
 10
16.94819638942933
 20
36.37513378684255
 30
0.0
 11
16.94819638942933
 21
9.260217162365613
 31
0.0
  0
LINE
  5
947
330
944
100
AcDbEntity
  8
文字
 62
     0
370
    -2
100
AcDbLine
 10
24.91563010424613
 20
36.37513378684256
 30
0.0
 11
24.91563010424613
 21
9.260217162365613
 31
0.0
  0
LINE
  5
948
330
944
100
AcDbEntity
  8
文字
 62
     0
370
    -2
100
AcDbLine
 10
19.44819638942933
 20
10.51021716236561
 30
0.0
 11
22.41563010424613
 21
10.51021716236561
 31
0.0
  0
SOLID
  5
949
330
944
100
AcDbEntity
  8
文字
 62
     0
100
AcDbTrace
 10
19.44819638942933
 20
10.92688382903228
 30
0.0
 11
19.44819638942933
 21
10.09355049569895
 31
0.0
 12
16.94819638942933
 22
10.51021716236561
 32
0.0
 13
16.94819638942933
 23
10.51021716236561
 33
0.0
  0
SOLID
  5
94A
330
944
100
AcDbEntity
  8
文字
 62
     0
100
AcDbTrace
 10
22.41563010424613
 20
10.09355049569895
 30
0.0
 11
22.41563010424613
 21
10.92688382903228
 31
0.0
 12
24.91563010424613
 22
10.51021716236561
 32
0.0
 13
24.91563010424613
 23
10.51021716236561
 33
0.0
  0
MTEXT
  5
94B
330
944
100
AcDbEntity
  8
文字
 62
     0
100
AcDbMText
 10
20.93191324683774
 20
12.41146716236561
 30
0.0
 40
2.5
 41
0.0
 46
0.0
 71
     5
 72
     1
  1
8
 73
     1
 44
1.0
  0
POINT
  5
94C
330
944
100
AcDbEntity
  8
Defpoints
 62
     0
100
AcDbPoint
 10
16.94819638942933
 20
37.00013378684255
 30
0.0
  0
POINT
  5
94D
330
944
100
AcDbEntity
  8
Defpoints
 62
     0
100
AcDbPoint
 10
24.91563010424613
 20
37.00013378684256
 30
0.0
  0
POINT
  5
94E
330
944
100
AcDbEntity
  8
Defpoints
 62
     0
100
AcDbPoint
 10
24.91563010424613
 20
10.51021716236561
 30
0.0
  0
ENDBLK
  5
94F
330
944
100
AcDbEntity
  8
0
100
AcDbBlockEnd
  0
BLOCK
  5
95A
330
959
100
AcDbEntity
  8
0
100
AcDbBlockBegin
  2
*D82
 70
     1
 10
0.0
 20
0.0
 30
0.0
  3
*D82
  1
*D36
  0
LINE
  5
95B
330
959
100
AcDbEntity
  8
文字
 62
     0
370
    -2
100
AcDbLine
 10
9.994287714709557
 20
37.31279296240265
 30
0.0
 11
9.994287714709557
 21
0.0
 31
0.0
  0
LINE
  5
95C
330
959
100
AcDbEntity
  8
文字
 62
     0
370
    -2
100
AcDbLine
 10
31.99123050420509
 20
36.73686067092132
 30
0.0
 11
31.99123050420509
 21
0.0
 31
0.0
  0
LINE
  5
95D
330
959
100
AcDbEntity
  8
文字
 62
     0
370
    -2
100
AcDbLine
 10
12.49428771470956
 20
1.25
 30
0.0
 11
29.49123050420509
 21
1.25
 31
0.0
  0
SOLID
  5
95E
330
959
100
AcDbEntity
  8
文字
 62
     0
100
AcDbTrace
 10
12.49428771470956
 20
1.666666666666667
 30
0.0
 11
12.49428771470956
 21
0.8333333333333333
 31
0.0
 12
9.994287714709557
 22
1.25
 32
0.0
 13
9.994287714709557
 23
1.25
 33
0.0
  0
SOLID
  5
95F
330
959
100
AcDbEntity
  8
文字
 62
     0
100
AcDbTrace
 10
29.49123050420509
 20
0.8333333333333333
 30
0.0
 11
29.49123050420509
 21
1.666666666666667
 31
0.0
 12
31.99123050420509
 22
1.25
 32
0.0
 13
31.99123050420509
 23
1.25
 33
0.0
  0
MTEXT
  5
960
330
959
100
AcDbEntity
  8
文字
 62
     0
100
AcDbMText
 10
21.08965056370735
 20
3.19625
 30
0.0
 40
2.5
 41
0.0
 46
0.0
 71
     5
 72
     1
  1
%%c22
 73
     1
 44
1.0
  0
POINT
  5
961
330
959
100
AcDbEntity
  8
Defpoints
 62
     0
100
AcDbPoint
 10
9.994287714709557
 20
37.93779296240265
 30
0.0
  0
POINT
  5
962
330
959
100
AcDbEntity
  8
Defpoints
 62
     0
100
AcDbPoint
 10
31.99123050420509
 20
37.36186067092132
 30
0.0
  0
POINT
  5
963
330
959
100
AcDbEntity
  8
Defpoints
 62
     0
100
AcDbPoint
 10
31.99123050420509
 20
1.25
 30
0.0
  0
ENDBLK
  5
964
330
959
100
AcDbEntity
  8
0
100
AcDbBlockEnd
  0
BLOCK
  5
975
330
974
100
AcDbEntity
  8
0
100
AcDbBlockBegin
  2
*D83
 70
     1
 10
0.0
 20
0.0
 30
0.0
  3
*D83
  1
*D85
  0
LINE
  5
977
330
974
100
AcDbEntity
  8
文字
 62
     0
370
    -2
100
AcDbLine
 10
101.6639486708587
 20
52.73203183074803
 30
0.0
 11
101.6639486708587
 21
25.6171152062711
 31
0.0
  0
LINE
  5
978
330
974
100
AcDbEntity
  8
文字
 62
     0
370
    -2
100
AcDbLine
 10
109.6313823856755
 20
52.73203183074805
 30
0.0
 11
109.6313823856755
 21
25.6171152062711
 31
0.0
  0
LINE
  5
979
330
974
100
AcDbEntity
  8
文字
 62
     0
370
    -2
100
AcDbLine
 10
104.1639486708587
 20
26.8671152062711
 30
0.0
 11
107.1313823856755
 21
26.8671152062711
 31
0.0
  0
SOLID
  5
97A
330
974
100
AcDbEntity
  8
文字
 62
     0
100
AcDbTrace
 10
104.1639486708587
 20
27.28378187293777
 30
0.0
 11
104.1639486708587
 21
26.45044853960443
 31
0.0
 12
101.6639486708587
 22
26.8671152062711
 32
0.0
 13
101.6639486708587
 23
26.8671152062711
 33
0.0
  0
SOLID
  5
97B
330
974
100
AcDbEntity
  8
文字
 62
     0
100
AcDbTrace
 10
107.1313823856755
 20
26.45044853960443
 30
0.0
 11
107.1313823856755
 21
27.28378187293777
 31
0.0
 12
109.6313823856755
 22
26.8671152062711
 32
0.0
 13
109.6313823856755
 23
26.8671152062711
 33
0.0
  0
MTEXT
  5
97C
330
974
100
AcDbEntity
  8
文字
 62
     0
100
AcDbMText
 10
105.6476655282671
 20
28.7683652062711
 30
0.0
 40
2.5
 41
0.0
 46
0.0
 71
     5
 72
     1
  1
8
 73
     1
 44
1.0
  0
POINT
  5
97D
330
974
100
AcDbEntity
  8
Defpoints
 62
     0
100
AcDbPoint
 10
101.6639486708587
 20
53.35703183074803
 30
0.0
  0
POINT
  5
97E
330
974
100
AcDbEntity
  8
Defpoints
 62
     0
100
AcDbPoint
 10
109.6313823856755
 20
53.35703183074805
 30
0.0
  0
POINT
  5
97F
330
974
100
AcDbEntity
  8
Defpoints
 62
     0
100
AcDbPoint
 10
109.6313823856755
 20
26.8671152062711
 30
0.0
  0
ENDBLK
  5
976
330
974
100
AcDbEntity
  8
0
100
AcDbBlockEnd
  0
BLOCK
  5
981
330
980
100
AcDbEntity
  8
0
100
AcDbBlockBegin
  2
*D84
 70
     1
 10
0.0
 20
0.0
 30
0.0
  3
*D84
  1
*D86
  0
LINE
  5
983
330
980
100
AcDbEntity
  8
文字
 62
     0
370
    -2
100
AcDbLine
 10
94.7100399961389
 20
53.66969100630813
 30
0.0
 11
94.7100399961389
 21
16.35689804390549
 31
0.0
  0
LINE
  5
984
330
980
100
AcDbEntity
  8
文字
 62
     0
370
    -2
100
AcDbLine
 10
116.7069827856344
 20
53.09375871482681
 30
0.0
 11
116.7069827856344
 21
16.35689804390549
 31
0.0
  0
LINE
  5
985
330
980
100
AcDbEntity
  8
文字
 62
     0
370
    -2
100
AcDbLine
 10
97.2100399961389
 20
17.60689804390549
 30
0.0
 11
114.2069827856344
 21
17.60689804390549
 31
0.0
  0
SOLID
  5
986
330
980
100
AcDbEntity
  8
文字
 62
     0
100
AcDbTrace
 10
97.2100399961389
 20
18.02356471057216
 30
0.0
 11
97.2100399961389
 21
17.19023137723882
 31
0.0
 12
94.7100399961389
 22
17.60689804390549
 32
0.0
 13
94.7100399961389
 23
17.60689804390549
 33
0.0
  0
SOLID
  5
987
330
980
100
AcDbEntity
  8
文字
 62
     0
100
AcDbTrace
 10
114.2069827856344
 20
17.19023137723882
 30
0.0
 11
114.2069827856344
 21
18.02356471057216
 31
0.0
 12
116.7069827856344
 22
17.60689804390549
 32
0.0
 13
116.7069827856344
 23
17.60689804390549
 33
0.0
  0
MTEXT
  5
988
330
980
100
AcDbEntity
  8
文字
 62
     0
100
AcDbMText
 10
105.8054028451367
 20
19.55314804390549
 30
0.0
 40
2.5
 41
0.0
 46
0.0
 71
     5
 72
     1
  1
%%c22
 73
     1
 44
1.0
  0
POINT
  5
989
330
980
100
AcDbEntity
  8
Defpoints
 62
     0
100
AcDbPoint
 10
94.7100399961389
 20
54.29469100630813
 30
0.0
  0
POINT
  5
98A
330
980
100
AcDbEntity
  8
Defpoints
 62
     0
100
AcDbPoint
 10
116.7069827856344
 20
53.71875871482681
 30
0.0
  0
POINT
  5
98B
330
980
100
AcDbEntity
  8
Defpoints
 62
     0
100
AcDbPoint
 10
116.7069827856344
 20
17.60689804390549
 30
0.0
  0
ENDBLK
  5
982
330
980
100
AcDbEntity
  8
0
100
AcDbBlockEnd
  0
ENDSEC
  0
SECTION
  2
ENTITIES
  0
LINE
  5
2DF
330
1F
100
AcDbEntity
  8
実線
 62
     0
100
AcDbLine
 10
44.95454055024855
 20
40.10553394814281
 30
0.0
 11
51.2615010359151
 21
40.10553394814281
 31
0.0
  0
LINE
  5
706
330
1F
100
AcDbEntity
  8
実線
 62
     0
100
AcDbLine
 10
44.95280932039793
 20
40.1055339481428
 30
0.0
 11
51.25976980606448
 21
40.1055339481428
 31
0.0
  0
LWPOLYLINE
  5
70F
102
{ACAD_REACTORS
330
71B
102
}
330
1F
100
AcDbEntity
  8
実線
 62
     0
100
AcDbPolyline
 90
        4
 70
     0
 43
0.0
 10
53.85802079308183
 20
41.10553394814287
 10
53.85802079308183
 20
44.1055339481428
 10
42.35802079308183
 20
44.1055339481428
 10
42.35802079308183
 20
41.1055339481428
  0
LINE
  5
710
330
1F
100
AcDbEntity
  8
実線
 62
     0
100
AcDbLine
 10
45.23302079308183
 20
44.1055339481428
 30
0.0
 11
45.23302079308183
 21
41.1055339481428
 31
0.0
  0
LINE
  5
711
330
1F
100
AcDbEntity
  8
実線
 62
     0
100
AcDbLine
 10
50.98302079308183
 20
44.1055339481428
 30
0.0
 11
50.98302079308183
 21
41.1055339481428
 31
0.0
  0
ARC
  5
712
330
1F
100
AcDbEntity
  8
実線
 62
     0
100
AcDbCircle
 10
43.79552079308182
 20
41.6387370731428
 30
0.0
 40
1.533203124999987
100
AcDbArc
 50
200.3510216860866
 51
339.6489783139134
  0
ARC
  5
713
330
1F
100
AcDbEntity
  8
実線
 62
     0
100
AcDbCircle
 10
52.42052079308182
 20
41.6387370731428
 30
0.0
 40
1.533203124999987
100
AcDbArc
 50
200.3510216860866
 51
339.6489783139134
  0
ARC
  5
714
330
1F
100
AcDbEntity
  8
実線
 62
     0
100
AcDbCircle
 10
48.10802079308182
 20
44.73834644814288
 30
0.0
 40
4.632812500000075
100
AcDbArc
 50
231.6419839483792
 51
308.358016051621
  0
LWPOLYLINE
  5
715
330
1F
100
AcDbEntity
  8
実線
 62
     0
100
AcDbPolyline
 90
        2
 70
     0
 43
0.0
 10
43.79552079308182
 20
40.1055339481428
 10
52.42052079308182
 20
40.1055339481428
  0
DIMENSION
  5
719
102
{ACAD_REACTORS
330
71B
102
}
102
{ACAD_XDICTIONARY
360
71A
102
}
330
1F
100
AcDbEntity
  8
文字
 62
     0
370
    -3
100
AcDbDimension
280
     0
  2
*D64
 10
76.60995928990799
 20
44.1055339481428
 30
0.0
 11
74.73495928990799
 21
42.10059914935466
 31
0.0
 70
    32
  1
4
 71
     5
 42
4.009869597576275
 73
     0
 74
     0
 75
     0
  3
ISO-25
100
AcDbAlignedDimension
 13
76.60995928990799
 23
40.09566435056652
 33
0.0
 14
53.85802079308183
 24
44.1055339481428
 34
0.0
 50
90.0
100
AcDbRotatedDimension
1001
ACAD
1000
DSTYLE
1002
{
1070
   279
1070
     1
1002
}
  0
DIMENSION
  5
7EE
330
1F
100
AcDbEntity
  8
文字
 62
     0
370
    -3
100
AcDbDimension
280
     0
  2
*D71
 10
51.10802079308183
 20
133.8184690624037
 30
0.0
 11
48.10802079308183
 21
135.7197190624037
 31
0.0
 70
    32
  1
{\fArial|b0|i0|c0|p32;M}<>
 71
     5
 42
6.0
 73
     0
 74
     0
 75
     0
  3
ISO-25
100
AcDbAlignedDimension
 13
45.10802079308183
 23
122.4805339481428
 33
0.0
 14
51.10802079308183
 24
122.4805339481428
 34
0.0
100
AcDbRotatedDimension
  0
LWPOLYLINE
  5
7EF
330
1F
100
AcDbEntity
  8
実線
 62
     0
100
AcDbPolyline
 90
        6
 70
     1
 43
0.0
 10
45.10802079308183
 20
44.1055339481428
 10
51.10802079308183
 20
44.1055339481428
 10
51.10802079308183
 20
123.1055339481428
 10
50.10802079308183
 20
124.1055339481428
 10
46.10802079308183
 20
124.1055339481428
 10
45.10802079308183
 20
123.1055339481428
  0
LINE
  5
7F0
330
1F
100
AcDbEntity
  8
実線
 62
     0
370
    -3
100
AcDbLine
 10
45.10802079308183
 20
123.1055339481428
 30
0.0
 11
51.10802079308183
 21
123.1055339481428
 31
0.0
  0
LINE
  5
7F1
330
1F
100
AcDbEntity
  8
実線
 62
     0
100
AcDbLine
 10
46.10802079308183
 20
124.1055339481428
 30
0.0
 11
46.10802079308181
 21
44.1055339481428
 31
0.0
  0
LINE
  5
7F2
102
{ACAD_REACTORS
330
7F5
102
}
330
1F
100
AcDbEntity
  8
実線
 62
     0
100
AcDbLine
 10
50.10802079308183
 20
124.1055339481428
 30
0.0
 11
50.10802079308181
 21
44.1055339481428
 31
0.0
  0
DIMENSION
  5
7F3
102
{ACAD_REACTORS
330
7F5
102
}
102
{ACAD_XDICTIONARY
360
7F4
102
}
330
1F
100
AcDbEntity
  8
文字
 62
     0
370
    -3
100
AcDbDimension
280
     0
  2
*D72
 10
76.609959289908
 20
44.1055339481428
 30
0.0
 11
74.708709289908
 21
84.1055339481428
 31
0.0
 70
    32
 71
     5
 42
80.0
 73
     0
 74
     0
 75
     0
  3
ISO-25
100
AcDbAlignedDimension
 13
50.10802079308183
 23
124.1055339481428
 33
0.0
 14
53.85802079308184
 24
44.1055339481428
 34
0.0
 50
90.0
100
AcDbRotatedDimension
  0
MTEXT
  5
839
330
1F
100
AcDbEntity
  8
文字・寸法線
 62
     0
100
AcDbMText
 10
55.54430709329679
 20
165.7420787887141
 30
0.0
 40
6.0
 41
0.0
 46
6.0
 71
     9
 72
     1
  1
{\fＭＳ ゴシック|b0|i0|c0|p0;S-S3 M6X80}
 73
     1
 44
1.0
1001
ACAD
1000
ACAD_MTEXT_DEFINED_HEIGHT_BEGIN
1070
    46
1040
6.0
1000
ACAD_MTEXT_DEFINED_HEIGHT_END
  0
DIMENSION
  5
8AB
102
{ACAD_XDICTIONARY
360
8AC
102
}
330
1F
100
AcDbEntity
  8
文字
370
    -3
100
AcDbDimension
280
     0
  2
*D78
 10
76.67842468880279
 20
31.3297500818695
 30
0.0
 11
76.67842468880279
 21
36.57391332832046
 31
0.0
 70
   160
  1
9
 71
     5
 42
8.765914268697031
 73
     0
 74
     0
 75
     0
  3
ISO-25
100
AcDbAlignedDimension
 13
51.45130779824179
 23
40.09566435056653
 33
0.0
 14
60.10975202293243
 24
31.3297500818695
 34
0.0
 50
90.0
100
AcDbRotatedDimension
  0
LINE
  5
8AE
330
1F
100
AcDbEntity
  8
実線
 62
     0
100
AcDbLine
 10
33.92291903294427
 20
36.39198385342206
 30
0.0
 11
61.92291903294429
 21
36.39198385342199
 31
0.0
  0
LINE
  5
8AF
330
1F
100
AcDbEntity
  8
実線
 62
     0
100
AcDbLine
 10
33.92291903294427
 20
31.39198385342206
 30
0.0
 11
61.92291903294429
 21
31.39198385342202
 31
0.0
  0
ARC
  5
8B0
330
1F
100
AcDbEntity
  8
実線
 62
     0
100
AcDbCircle
 10
61.92291903294429
 20
33.891983853422
 30
0.0
 40
2.499999999999989
100
AcDbArc
 50
270.0
 51
90.0
  0
ARC
  5
8B1
102
{ACAD_REACTORS
330
8B5
102
}
330
1F
100
AcDbEntity
  8
実線
 62
     0
100
AcDbCircle
 10
33.92291903294427
 20
33.89198385342206
 30
0.0
 40
2.5
100
AcDbArc
 50
90.0
 51
270.0
  0
DIMENSION
  5
8B2
330
1F
100
AcDbEntity
  8
文字
 62
     0
370
    -3
100
AcDbDimension
280
     0
  2
*D79
 10
64.42291903294428
 20
16.53805371418846
 30
0.0
 11
47.92291903294428
 21
18.48430371418846
 31
0.0
 70
    32
  1
%%c<>
 71
     5
 42
33.00000000000001
 73
     0
 74
     0
 75
     0
  3
ISO-25
100
AcDbAlignedDimension
 13
31.42291903294427
 23
33.89198385342206
 33
0.0
 14
64.42291903294428
 24
33.891983853422
 34
0.0
100
AcDbRotatedDimension
  0
DIMENSION
  5
8B3
102
{ACAD_REACTORS
330
8B5
102
}
102
{ACAD_XDICTIONARY
360
8B4
102
}
330
1F
100
AcDbEntity
  8
文字
370
    -3
100
AcDbDimension
280
     0
  2
*D80
 10
26.92426399329031
 20
31.39198385342206
 30
0.0
 11
25.02801399329031
 21
33.89198385342206
 31
0.0
 70
    32
 71
     5
 42
5.0
 73
     0
 74
     0
 75
     0
  3
ISO-25
100
AcDbAlignedDimension
 13
33.92291903294427
 23
36.39198385342206
 33
0.0
 14
33.92291903294427
 24
31.39198385342206
 34
0.0
 50
90.0
100
AcDbRotatedDimension
  0
ARC
  5
8B6
330
1F
100
AcDbEntity
  8
実線
 62
     0
100
AcDbCircle
 10
47.41106793871796
 20
27.84929173489901
 30
0.0
 40
12.49999999999999
100
AcDbArc
 50
99.95896571345169
 51
136.8888879796147
  0
ARC
  5
8B7
330
1F
100
AcDbEntity
  8
実線
 62
     0
100
AcDbCircle
 10
48.80843610714693
 20
27.84929173489902
 30
0.0
 40
12.49999999999997
100
AcDbArc
 50
43.11111202038498
 51
80.08336653003899
  0
LINE
  5
8EC
330
1F
100
AcDbEntity
  8
中心線
 62
     0
370
    -3
100
AcDbLine
 10
48.1290723550731
 20
27.94543905173374
 30
0.0
 11
48.12907235507306
 21
142.7593579060965
 31
0.0
  0
DIMENSION
  5
968
102
{ACAD_REACTORS
330
96A
102
}
102
{ACAD_XDICTIONARY
360
969
102
}
330
1F
100
AcDbEntity
  8
文字
 62
     0
100
AcDbDimension
280
     0
  2
*D83
 10
109.6313823856755
 20
26.8671152062711
 30
0.0
 11
105.6476655282671
 21
26.8671152062711
 31
0.0
 70
   160
  1
8
 71
     5
 42
7.967433714816806
 73
     0
 74
     0
 75
     0
  3
ISO-25
100
AcDbAlignedDimension
 13
101.6639486708587
 23
53.35703183074803
 33
0.0
 14
109.6313823856755
 24
53.35703183074805
 34
0.0
100
AcDbRotatedDimension
  0
CIRCLE
  5
96B
330
1F
100
AcDbEntity
  8
実線
 62
     0
100
AcDbCircle
 10
105.6476655282671
 20
53.35703183074803
 30
0.0
 40
2.5
  0
LWPOLYLINE
  5
96C
102
{ACAD_REACTORS
330
96A
102
}
330
1F
100
AcDbEntity
  8
実線
 62
     0
100
AcDbPolyline
 90
        6
 70
     1
 43
0.0
 10
109.6313823856755
 20
55.65703183074804
 10
105.6476655282671
 20
57.95703183074802
 10
101.6639486708587
 20
55.65703183074804
 10
101.6639486708587
 20
51.05703183074805
 10
105.6476655282671
 20
48.75703183074804
 10
109.6313823856755
 20
51.05703183074802
  0
LINE
  5
96D
102
{ACAD_REACTORS
330
96A
102
}
330
1F
100
AcDbEntity
  8
中心線
  6
CENTER
 62
     0
 48
0.2
100
AcDbLine
 10
84.71575228142935
 20
53.35703183074803
 30
0.0
 11
125.0654498087821
 21
53.35703183074802
 31
0.0
  0
LINE
  5
96E
330
1F
100
AcDbEntity
  8
中心線
 62
     0
 48
0.2
100
AcDbLine
 10
105.6476655282671
 20
32.3205996529391
 30
0.0
 11
105.6476655282671
 21
74.61241037863688
 31
0.0
  0
CIRCLE
  5
96F
330
1F
100
AcDbEntity
  8
実線
 62
     0
370
    20
100
AcDbCircle
 10
105.6476655282671
 20
53.35703183074802
 30
0.0
 40
1.5
  0
CIRCLE
  5
970
330
1F
100
AcDbEntity
  8
実線
 62
     0
370
    -3
100
AcDbCircle
 10
105.6476655282671
 20
53.32863639620895
 30
0.0
 40
16.5
  0
CIRCLE
  5
971
330
1F
100
AcDbEntity
  8
実線
 62
     0
370
    -3
100
AcDbCircle
 10
105.6476655282671
 20
53.35703183074803
 30
0.0
 40
11.00386904717414
  0
DIMENSION
  5
972
102
{ACAD_XDICTIONARY
360
973
102
}
330
1F
100
AcDbEntity
  8
文字
100
AcDbDimension
280
     0
  2
*D84
 10
116.7069827856344
 20
17.60689804390549
 30
0.0
 11
105.8054028451367
 21
17.60689804390549
 31
0.0
 70
   160
  1
%%c<>
 71
     5
 42
21.99694278949553
 73
     0
 74
     0
 75
     0
  3
ISO-25
100
AcDbAlignedDimension
 13
94.7100399961389
 23
54.29469100630813
 33
0.0
 14
116.7069827856344
 24
53.71875871482681
 34
0.0
100
AcDbRotatedDimension
  0
ENDSEC
  0
SECTION
  2
OBJECTS
  0
DICTIONARY
  5
C
330
0
100
AcDbDictionary
281
     1
  3
ACAD_COLOR
350
73
  3
ACAD_DETAILVIEWSTYLE
350
122
  3
ACAD_GROUP
350
D
  3
ACAD_IMAGE_VARS
350
DC
  3
ACAD_LAYOUT
350
1A
  3
ACAD_MATERIAL
350
72
  3
ACAD_MLEADERSTYLE
350
B5
  3
ACAD_MLINESTYLE
350
17
  3
ACAD_PLOTSETTINGS
350
19
  3
ACAD_PLOTSTYLENAME
350
E
  3
ACAD_SCALELIST
350
B6
  3
ACAD_SECTIONVIEWSTYLE
350
123
  3
ACAD_TABLESTYLE
350
86
  3
ACAD_VISUALSTYLE
350
99
  3
ACDB_RECOMPOSE_DATA
350
994
  3
AcDbVariableDictionary
350
66
  3
APPDATA
350
E1
  0
SUN
  5
ED
330
94
100
AcDbSun
 90
        1
290
     0
 63
     7
421
 16777215
 40
1.0
291
     1
 91
  2455826
 92
 54000000
292
     0
 70
     2
 71
   256
280
     1
  0
DICTIONARY
  5
71A
330
719
100
AcDbDictionary
280
     1
281
     1
  3
ACAD_DIMASSOC
360
71B
  0
DICTIONARY
  5
7F4
330
7F3
100
AcDbDictionary
280
     1
281
     1
  3
ACAD_DIMASSOC
360
7F5
  0
DICTIONARY
  5
8AC
330
8AB
100
AcDbDictionary
280
     1
281
     1
  0
DICTIONARY
  5
8B4
330
8B3
100
AcDbDictionary
280
     1
281
     1
  3
ACAD_DIMASSOC
360
8B5
  0
DICTIONARY
  5
969
330
968
100
AcDbDictionary
280
     1
281
     1
  3
ACAD_DIMASSOC
360
96A
  0
DICTIONARY
  5
973
330
972
100
AcDbDictionary
280
     1
281
     1
  0
DICTIONARY
  5
73
102
{ACAD_REACTORS
330
C
102
}
330
C
100
AcDbDictionary
281
     1
  0
DICTIONARY
  5
122
102
{ACAD_REACTORS
330
C
102
}
330
C
100
AcDbDictionary
281
     1
  0
DICTIONARY
  5
D
102
{ACAD_REACTORS
330
C
102
}
330
C
100
AcDbDictionary
281
     1
  0
RASTERVARIABLES
  5
DC
102
{ACAD_REACTORS
330
C
102
}
330
C
100
AcDbRasterVariables
 90
        0
 70
     1
 71
     1
 72
     5
  0
DICTIONARY
  5
1A
102
{ACAD_REACTORS
330
C
102
}
330
C
100
AcDbDictionary
281
     1
  3
Model
350
22
  3
Sheet1
350
59
  3
Sheet2
350
5E
  0
DICTIONARY
  5
72
102
{ACAD_REACTORS
330
C
102
}
330
C
100
AcDbDictionary
281
     1
  3
ByBlock
350
E2
  3
ByLayer
350
96
  3
Global
350
98
  0
DICTIONARY
  5
B5
102
{ACAD_REACTORS
330
C
102
}
330
C
100
AcDbDictionary
281
     1
  0
DICTIONARY
  5
17
102
{ACAD_REACTORS
330
C
102
}
330
C
100
AcDbDictionary
281
     1
  3
Standard
350
18
  0
DICTIONARY
  5
19
102
{ACAD_REACTORS
330
C
102
}
330
C
100
AcDbDictionary
281
     1
  0
ACDBDICTIONARYWDFLT
  5
E
102
{ACAD_REACTORS
330
C
102
}
330
C
100
AcDbDictionary
281
     1
  3
Normal
350
F
100
AcDbDictionaryWithDefault
340
F
  0
DICTIONARY
  5
B6
102
{ACAD_REACTORS
330
C
102
}
330
C
100
AcDbDictionary
281
     1
  3
A0
350
B7
  3
A1
350
B8
  3
A2
350
B9
  3
A3
350
BA
  3
A4
350
BB
  3
A5
350
BC
  3
A6
350
BD
  3
A7
350
BE
  3
A8
350
BF
  3
A9
350
C0
  3
B0
350
C1
  3
B1
350
C2
  3
B2
350
C3
  3
B3
350
C4
  3
B4
350
C5
  3
B5
350
C6
  3
B6
350
C7
  3
B7
350
C8
  3
B8
350
C9
  3
B9
350
CA
  3
C0
350
CB
  3
C1
350
CC
  3
C2
350
CD
  3
C3
350
CE
  3
C4
350
CF
  3
C5
350
D0
  3
C6
350
D1
  3
C7
350
D2
  3
C8
350
D3
  3
C9
350
D4
  3
D0
350
D5
  3
D1
350
D6
  3
D2
350
D7
  0
DICTIONARY
  5
123
102
{ACAD_REACTORS
330
C
102
}
330
C
100
AcDbDictionary
281
     1
  0
DICTIONARY
  5
86
102
{ACAD_REACTORS
330
C
102
}
330
C
100
AcDbDictionary
281
     1
  3
Standard
350
87
  0
DICTIONARY
  5
99
102
{ACAD_REACTORS
330
C
102
}
330
C
100
AcDbDictionary
281
     1
  3
2dWireframe
350
9F
  3
3D Hidden
350
A1
  3
3dWireframe
350
A0
  3
Basic
350
9E
  3
Brighten
350
A5
  3
ColorChange
350
A9
  3
Conceptual
350
A2
  3
Dim
350
A4
  3
EdgeColorOff
350
E7
  3
Facepattern
350
A8
  3
Flat
350
9A
  3
FlatWithEdges
350
9B
  3
Gouraud
350
9C
  3
GouraudWithEdges
350
9D
  3
Hidden
350
E4
  3
JitterOff
350
E5
  3
Linepattern
350
A7
  3
OverhangOff
350
E6
  3
Realistic
350
A3
  3
Shaded
350
EC
  3
Shaded with edges
350
EB
  3
Shades of Gray
350
E8
  3
Sketchy
350
E9
  3
Thicken
350
A6
  3
Wireframe
350
E3
  3
X-Ray
350
EA
  0
XRECORD
  5
994
102
{ACAD_REACTORS
330
C
102
}
330
C
100
AcDbXrecord
280
     1
 90
        1
330
87
  0
DICTIONARY
  5
66
102
{ACAD_REACTORS
330
C
102
}
330
C
100
AcDbDictionary
281
     1
  3
CANNOSCALE
350
D8
  3
CTABLESTYLE
350
89
  3
DIMASSOC
350
67
  3
HIDETEXT
350
6B
  3
LIGHTSINBLOCKS
350
DF
  3
XCLIPFRAME
350
E0
  0
DICTIONARY
  5
E1
102
{ACAD_REACTORS
330
C
102
}
330
C
100
AcDbDictionary
281
     1
  0
DIMASSOC
  5
71B
102
{ACAD_REACTORS
330
71A
102
}
330
71A
100
AcDbDimAssoc
330
719
 90
        2
 70
     0
 71
     0
  1
AcDbOsnapPointRef
 72
     1
331
70F
 73
     2
 91
        1
 40
1.0
 10
0.0
 20
0.0
 30
2.000000000000000E+50
 75
     0
  0
DIMASSOC
  5
7F5
102
{ACAD_REACTORS
330
7F4
102
}
330
7F4
100
AcDbDimAssoc
330
7F3
 90
        1
 70
     0
 71
     0
  1
AcDbOsnapPointRef
 72
    13
331
7F2
 73
     2
 91
        0
 40
0.0
 10
0.0
 20
0.0
 30
2.000000000000000E+50
 75
     0
  0
DIMASSOC
  5
8B5
102
{ACAD_REACTORS
330
8B4
102
}
330
8B4
100
AcDbDimAssoc
330
8B3
 90
        3
 70
     0
 71
     0
  1
AcDbOsnapPointRef
 72
    13
331
8B1
 73
     2
 91
        0
 40
1.570796326794897
 10
0.0
 20
0.0
 30
2.000000000000000E+50
 75
     0
  1
AcDbOsnapPointRef
 72
     1
331
8B1
 73
     2
 91
        0
 40
4.71238898038469
 10
0.0
 20
0.0
 30
2.000000000000000E+50
 75
     0
  0
DIMASSOC
  5
96A
102
{ACAD_REACTORS
330
969
102
}
330
969
100
AcDbDimAssoc
330
968
 90
        3
 70
     0
 71
     0
  1
AcDbOsnapPointRef
 72
     6
331
96C
 73
     2
 91
        3
 40
0.5000000000000031
 10
0.0
 20
0.0
 30
0.0
332
96D
 74
     2
 92
        0
 75
     0
  1
AcDbOsnapPointRef
 72
     6
331
96C
 73
     2
 91
        6
 40
0.5000000000000032
 10
0.0
 20
0.0
 30
0.0
332
96D
 74
     2
 92
        0
 75
     0
  0
LAYOUT
  5
22
102
{ACAD_REACTORS
330
1A
102
}
330
1A
100
AcDbPlotSettings
  1

  2
none_device
  4
ANSI_A_(8.50_x_11.00_Inches)
  6

 40
6.35
 41
19.05
 42
6.35
 43
19.05
 44
215.9
 45
279.4
 46
11.11250000000003
 47
0.0000000000000142
 48
0.0
 49
0.0
140
0.0
141
0.0
142
1.0
143
1.263157894736842
 70
 11444
 72
     0
 73
     1
 74
     1
  7
monochrome.ctb
 75
     0
 76
     0
 77
     2
 78
   300
147
0.7916666666666665
148
-702.8076765758875
149
-496.2830551296954
100
AcDbLayout
  1
Model
 70
     1
 71
     0
 10
0.0
 20
0.0
 11
12.0
 21
9.0
 12
0.0
 22
0.0
 32
0.0
 14
17.15630709329678
 24
15.28805371418846
 34
0.0
 15
125.0654498087821
 25
171.7420787887141
 35
0.0
146
0.0
 13
0.0
 23
0.0
 33
0.0
 16
1.0
 26
0.0
 36
0.0
 17
0.0
 27
1.0
 37
0.0
 76
     0
330
1F
331
94
  0
LAYOUT
  5
59
102
{ACAD_REACTORS
330
1A
102
}
330
1A
100
AcDbPlotSettings
  1

  2
None
  4

  6

 40
0.0
 41
0.0
 42
0.0
 43
0.0
 44
0.0
 45
0.0
 46
0.0
 47
0.0
 48
0.0
 49
0.0
140
0.0
141
0.0
142
1.0
143
1.0
 70
   688
 72
     0
 73
     0
 74
     5
  7

 75
    16
 76
     0
 77
     2
 78
   300
147
1.0
148
0.0
149
0.0
100
AcDbLayout
  1
Sheet1
 70
     1
 71
     1
 10
0.0
 20
0.0
 11
12.0
 21
9.0
 12
0.0
 22
0.0
 32
0.0
 14
0.0
 24
0.0
 34
0.0
 15
0.0
 25
0.0
 35
0.0
146
0.0
 13
0.0
 23
0.0
 33
0.0
 16
1.0
 26
0.0
 36
0.0
 17
0.0
 27
1.0
 37
0.0
 76
     0
330
58
  0
LAYOUT
  5
5E
102
{ACAD_REACTORS
330
1A
102
}
330
1A
100
AcDbPlotSettings
  1

  2
None
  4

  6

 40
0.0
 41
0.0
 42
0.0
 43
0.0
 44
0.0
 45
0.0
 46
0.0
 47
0.0
 48
0.0
 49
0.0
140
0.0
141
0.0
142
1.0
143
1.0
 70
   688
 72
     0
 73
     0
 74
     5
  7

 75
    16
 76
     0
 77
     2
 78
   300
147
1.0
148
0.0
149
0.0
100
AcDbLayout
  1
Sheet2
 70
     1
 71
     2
 10
0.0
 20
0.0
 11
12.0
 21
9.0
 12
0.0
 22
0.0
 32
0.0
 14
0.0
 24
0.0
 34
0.0
 15
0.0
 25
0.0
 35
0.0
146
0.0
 13
0.0
 23
0.0
 33
0.0
 16
1.0
 26
0.0
 36
0.0
 17
0.0
 27
1.0
 37
0.0
 76
     0
330
5D
  0
MATERIAL
  5
E2
102
{ACAD_REACTORS
330
72
102
}
330
72
100
AcDbMaterial
  1
ByBlock
 72
     1
 94
      127
  0
MATERIAL
  5
96
102
{ACAD_REACTORS
330
72
102
}
330
72
100
AcDbMaterial
  1
ByLayer
 72
     1
 94
       63
  0
MATERIAL
  5
98
102
{ACAD_REACTORS
330
72
102
}
330
72
100
AcDbMaterial
  1
Global
 72
     1
 94
       63
  0
MLINESTYLE
  5
18
102
{ACAD_REACTORS
330
17
102
}
330
17
100
AcDbMlineStyle
  2
STANDARD
 70
     0
  3

 62
   256
 51
90.0
 52
90.0
 71
     2
 49
0.5
 62
   256
  6
BYLAYER
 49
-0.5
 62
   256
  6
BYLAYER
  0
ACDBPLACEHOLDER
  5
F
102
{ACAD_REACTORS
330
E
102
}
330
E
  0
SCALE
  5
B7
102
{ACAD_REACTORS
330
B6
102
}
330
B6
100
AcDbScale
 70
     0
300
1:1
140
1.0
141
1.0
290
     1
  0
SCALE
  5
B8
102
{ACAD_REACTORS
330
B6
102
}
330
B6
100
AcDbScale
 70
     0
300
1:2
140
1.0
141
2.0
290
     0
  0
SCALE
  5
B9
102
{ACAD_REACTORS
330
B6
102
}
330
B6
100
AcDbScale
 70
     0
300
1:4
140
1.0
141
4.0
290
     0
  0
SCALE
  5
BA
102
{ACAD_REACTORS
330
B6
102
}
330
B6
100
AcDbScale
 70
     0
300
1:5
140
1.0
141
5.0
290
     0
  0
SCALE
  5
BB
102
{ACAD_REACTORS
330
B6
102
}
330
B6
100
AcDbScale
 70
     0
300
1:8
140
1.0
141
8.0
290
     0
  0
SCALE
  5
BC
102
{ACAD_REACTORS
330
B6
102
}
330
B6
100
AcDbScale
 70
     0
300
1:10
140
1.0
141
10.0
290
     0
  0
SCALE
  5
BD
102
{ACAD_REACTORS
330
B6
102
}
330
B6
100
AcDbScale
 70
     0
300
1:16
140
1.0
141
16.0
290
     0
  0
SCALE
  5
BE
102
{ACAD_REACTORS
330
B6
102
}
330
B6
100
AcDbScale
 70
     0
300
1:20
140
1.0
141
20.0
290
     0
  0
SCALE
  5
BF
102
{ACAD_REACTORS
330
B6
102
}
330
B6
100
AcDbScale
 70
     0
300
1:30
140
1.0
141
30.0
290
     0
  0
SCALE
  5
C0
102
{ACAD_REACTORS
330
B6
102
}
330
B6
100
AcDbScale
 70
     0
300
1:40
140
1.0
141
40.0
290
     0
  0
SCALE
  5
C1
102
{ACAD_REACTORS
330
B6
102
}
330
B6
100
AcDbScale
 70
     0
300
1:50
140
1.0
141
50.0
290
     0
  0
SCALE
  5
C2
102
{ACAD_REACTORS
330
B6
102
}
330
B6
100
AcDbScale
 70
     0
300
1:100
140
1.0
141
100.0
290
     0
  0
SCALE
  5
C3
102
{ACAD_REACTORS
330
B6
102
}
330
B6
100
AcDbScale
 70
     0
300
2:1
140
2.0
141
1.0
290
     0
  0
SCALE
  5
C4
102
{ACAD_REACTORS
330
B6
102
}
330
B6
100
AcDbScale
 70
     0
300
4:1
140
4.0
141
1.0
290
     0
  0
SCALE
  5
C5
102
{ACAD_REACTORS
330
B6
102
}
330
B6
100
AcDbScale
 70
     0
300
8:1
140
8.0
141
1.0
290
     0
  0
SCALE
  5
C6
102
{ACAD_REACTORS
330
B6
102
}
330
B6
100
AcDbScale
 70
     0
300
10:1
140
10.0
141
1.0
290
     0
  0
SCALE
  5
C7
102
{ACAD_REACTORS
330
B6
102
}
330
B6
100
AcDbScale
 70
     0
300
100:1
140
100.0
141
1.0
290
     0
  0
SCALE
  5
C8
102
{ACAD_REACTORS
330
B6
102
}
330
B6
100
AcDbScale
 70
     0
300
1/128" = 1'-0"
140
0.0078125
141
12.0
290
     0
  0
SCALE
  5
C9
102
{ACAD_REACTORS
330
B6
102
}
330
B6
100
AcDbScale
 70
     0
300
1/64" = 1'-0"
140
0.015625
141
12.0
290
     0
  0
SCALE
  5
CA
102
{ACAD_REACTORS
330
B6
102
}
330
B6
100
AcDbScale
 70
     0
300
1/32" = 1'-0"
140
0.03125
141
12.0
290
     0
  0
SCALE
  5
CB
102
{ACAD_REACTORS
330
B6
102
}
330
B6
100
AcDbScale
 70
     0
300
1/16" = 1'-0"
140
0.0625
141
12.0
290
     0
  0
SCALE
  5
CC
102
{ACAD_REACTORS
330
B6
102
}
330
B6
100
AcDbScale
 70
     0
300
3/32" = 1'-0"
140
0.09375
141
12.0
290
     0
  0
SCALE
  5
CD
102
{ACAD_REACTORS
330
B6
102
}
330
B6
100
AcDbScale
 70
     0
300
1/8" = 1'-0"
140
0.125
141
12.0
290
     0
  0
SCALE
  5
CE
102
{ACAD_REACTORS
330
B6
102
}
330
B6
100
AcDbScale
 70
     0
300
3/16" = 1'-0"
140
0.1875
141
12.0
290
     0
  0
SCALE
  5
CF
102
{ACAD_REACTORS
330
B6
102
}
330
B6
100
AcDbScale
 70
     0
300
1/4" = 1'-0"
140
0.25
141
12.0
290
     0
  0
SCALE
  5
D0
102
{ACAD_REACTORS
330
B6
102
}
330
B6
100
AcDbScale
 70
     0
300
3/8" = 1'-0"
140
0.375
141
12.0
290
     0
  0
SCALE
  5
D1
102
{ACAD_REACTORS
330
B6
102
}
330
B6
100
AcDbScale
 70
     0
300
1/2" = 1'-0"
140
0.5
141
12.0
290
     0
  0
SCALE
  5
D2
102
{ACAD_REACTORS
330
B6
102
}
330
B6
100
AcDbScale
 70
     0
300
3/4" = 1'-0"
140
0.75
141
12.0
290
     0
  0
SCALE
  5
D3
102
{ACAD_REACTORS
330
B6
102
}
330
B6
100
AcDbScale
 70
     0
300
1" = 1'-0"
140
1.0
141
12.0
290
     0
  0
SCALE
  5
D4
102
{ACAD_REACTORS
330
B6
102
}
330
B6
100
AcDbScale
 70
     0
300
1-1/2" = 1'-0"
140
1.5
141
12.0
290
     0
  0
SCALE
  5
D5
102
{ACAD_REACTORS
330
B6
102
}
330
B6
100
AcDbScale
 70
     0
300
3" = 1'-0"
140
3.0
141
12.0
290
     0
  0
SCALE
  5
D6
102
{ACAD_REACTORS
330
B6
102
}
330
B6
100
AcDbScale
 70
     0
300
6" = 1'-0"
140
6.0
141
12.0
290
     0
  0
SCALE
  5
D7
102
{ACAD_REACTORS
330
B6
102
}
330
B6
100
AcDbScale
 70
     0
300
1'-0" = 1'-0"
140
12.0
141
12.0
290
     0
  0
TABLESTYLE
  5
87
102
{ACAD_REACTORS
330
86
102
}
102
{ACAD_XDICTIONARY
360
992
102
}
330
86
100
AcDbTableStyle
  3
Standard
 70
     0
 71
     0
 40
0.06
 41
0.06
280
     0
281
     0
  7
Standard
140
0.18
170
     2
 62
     0
 63
   257
283
     0
 90
      512
 91
        0
  1

274
    -2
284
     1
 64
     0
275
    -2
285
     1
 65
     0
276
    -2
286
     1
 66
     0
277
    -2
287
     1
 67
     0
278
    -2
288
     1
 68
     0
279
    -2
289
     1
 69
     0
  7
Standard
140
0.25
170
     5
 62
     0
 63
   257
283
     0
 90
      512
 91
        0
  1

274
    -2
284
     1
 64
     0
275
    -2
285
     1
 65
     0
276
    -2
286
     1
 66
     0
277
    -2
287
     1
 67
     0
278
    -2
288
     1
 68
     0
279
    -2
289
     1
 69
     0
  7
Standard
140
0.18
170
     5
 62
     0
 63
   257
283
     0
 90
      512
 91
        0
  1

274
    -2
284
     1
 64
     0
275
    -2
285
     1
 65
     0
276
    -2
286
     1
 66
     0
277
    -2
287
     1
 67
     0
278
    -2
288
     1
 68
     0
279
    -2
289
     1
 69
     0
  0
VISUALSTYLE
  5
9F
102
{ACAD_REACTORS
330
99
102
}
330
99
100
AcDbVisualStyle
  2
2dWireframe
 70
     4
177
     3
291
     0
 70
    58
 90
        0
176
     1
 90
        2
176
     1
 90
        1
176
     1
 90
        0
176
     1
 40
-0.6
176
     1
 40
-30.0
176
     1
 62
     7
420
 16777215
176
     1
 90
        1
176
     1
 90
        4
176
     1
 62
     7
176
     1
 62
   257
176
     1
 90
        1
176
     1
 90
        1
176
     1
 40
1.0
176
     1
 90
        0
176
     1
 62
   257
176
     1
 40
1.0
176
     1
 90
        1
176
     1
 90
        6
176
     1
 90
        2
176
     1
 62
     7
176
     1
 90
        5
176
     1
 90
        0
176
     1
 90
        0
176
     1
290
     0
176
     1
 90
        1
176
     1
 40
0.0
176
     1
 90
        0
176
     1
290
     1
176
     1
290
     1
176
     1
290
     0
176
     1
290
     0
176
     1
290
     0
176
     1
290
     0
176
     1
290
     0
176
     1
290
     0
176
     1
290
     0
176
     1
 90
       50
176
     1
 40
0.0
176
     1
 40
1.0
176
     1
 90
        0
176
     1
 62
    18
420
        0
176
     1
 90
       50
176
     1
 90
        3
176
     1
 62
     5
420
      255
176
     1
290
     0
176
     1
 90
       50
176
     1
 90
       50
176
     1
 90
       50
176
     1
290
     0
176
     1
 90
       50
176
     1
 62
   256
176
     0
 40
1.0
176
     0
 90
        2
176
     1
  1
strokes_ogs.tif
176
     1
290
     0
176
     1
 40
1.0
176
     1
 40
1.0
176
     1
  0
VISUALSTYLE
  5
A1
102
{ACAD_REACTORS
330
99
102
}
330
99
100
AcDbVisualStyle
  2
3D Hidden
 70
     6
177
     3
291
     0
 70
    58
 90
        1
176
     1
 90
        2
176
     1
 90
        2
176
     1
 90
        0
176
     1
 40
-0.6
176
     1
 40
-30.0
176
     1
 62
     7
420
 16777215
176
     1
 90
        2
176
     1
 90
        2
176
     1
 62
     7
176
     1
 62
   257
176
     1
 90
        2
176
     1
 90
        1
176
     1
 40
40.0
176
     1
 90
        0
176
     1
 62
   257
176
     1
 40
1.0
176
     1
 90
        1
176
     1
 90
        6
176
     1
 90
        2
176
     1
 62
     7
176
     1
 90
        3
176
     1
 90
        0
176
     1
 90
        0
176
     1
290
     0
176
     1
 90
        1
176
     1
 40
0.0
176
     1
 90
        0
176
     1
290
     0
176
     1
290
     1
176
     1
290
     1
176
     1
290
     0
176
     1
290
     0
176
     1
290
     0
176
     1
290
     0
176
     1
290
     0
176
     1
290
     0
176
     1
 90
       50
176
     1
 40
0.0
176
     1
 40
1.0
176
     1
 90
        0
176
     1
 62
    18
420
        0
176
     1
 90
       50
176
     1
 90
        3
176
     1
 62
     5
420
      255
176
     1
290
     0
176
     1
 90
       50
176
     1
 90
       50
176
     1
 90
       50
176
     1
290
     0
176
     1
 90
       50
176
     1
 62
   256
176
     0
 40
1.0
176
     0
 90
        2
176
     1
  1
strokes_ogs.tif
176
     1
290
     0
176
     1
 40
1.0
176
     1
 40
1.0
176
     1
  0
VISUALSTYLE
  5
A0
102
{ACAD_REACTORS
330
99
102
}
330
99
100
AcDbVisualStyle
  2
3dWireframe
 70
     5
177
     3
291
     0
 70
    58
 90
        0
176
     1
 90
        2
176
     1
 90
        1
176
     1
 90
        0
176
     1
 40
-0.6
176
     1
 40
-30.0
176
     1
 62
     7
420
 16777215
176
     1
 90
        1
176
     1
 90
        4
176
     1
 62
     7
176
     1
 62
   257
176
     1
 90
        1
176
     1
 90
        1
176
     1
 40
1.0
176
     1
 90
        0
176
     1
 62
   257
176
     1
 40
1.0
176
     1
 90
        1
176
     1
 90
        6
176
     1
 90
        2
176
     1
 62
     7
176
     1
 90
        5
176
     1
 90
        0
176
     1
 90
        0
176
     1
290
     0
176
     1
 90
        1
176
     1
 40
0.0
176
     1
 90
        0
176
     1
290
     0
176
     1
290
     1
176
     1
290
     1
176
     1
290
     0
176
     1
290
     0
176
     1
290
     0
176
     1
290
     0
176
     1
290
     0
176
     1
290
     0
176
     1
 90
       50
176
     1
 40
0.0
176
     1
 40
1.0
176
     1
 90
        0
176
     1
 62
    18
420
        0
176
     1
 90
       50
176
     1
 90
        3
176
     1
 62
     5
420
      255
176
     1
290
     0
176
     1
 90
       50
176
     1
 90
       50
176
     1
 90
       50
176
     1
290
     0
176
     1
 90
       50
176
     1
 62
   256
176
     0
 40
1.0
176
     0
 90
        2
176
     1
  1
strokes_ogs.tif
176
     1
290
     0
176
     1
 40
1.0
176
     1
 40
1.0
176
     1
  0
VISUALSTYLE
  5
9E
102
{ACAD_REACTORS
330
99
102
}
330
99
100
AcDbVisualStyle
  2
Basic
 70
     7
177
     3
291
     1
 70
    58
 90
        1
176
     1
 90
        0
176
     1
 90
        1
176
     1
 90
        0
176
     1
 40
-0.6
176
     1
 40
-30.0
176
     1
 62
     7
420
 16777215
176
     1
 90
        0
176
     1
 90
        4
176
     1
 62
     7
176
     1
 62
   257
176
     1
 90
        1
176
     1
 90
        1
176
     1
 40
1.0
176
     1
 90
        8
176
     1
 62
     7
176
     1
 40
1.0
176
     1
 90
        1
176
     1
 90
        6
176
     1
 90
        2
176
     1
 62
     7
176
     1
 90
        5
176
     1
 90
        0
176
     1
 90
        0
176
     1
290
     0
176
     1
 90
        1
176
     1
 40
0.0
176
     1
 90
        0
176
     1
290
     0
176
     1
290
     1
176
     1
290
     1
176
     1
290
     0
176
     1
290
     0
176
     1
290
     0
176
     1
290
     0
176
     1
290
     0
176
     1
290
     0
176
     1
 90
       50
176
     1
 40
0.0
176
     1
 40
1.0
176
     1
 90
        0
176
     1
 62
    18
420
        0
176
     1
 90
       50
176
     1
 90
        3
176
     1
 62
     5
420
      255
176
     1
290
     0
176
     1
 90
       50
176
     1
 90
       50
176
     1
 90
       50
176
     1
290
     0
176
     1
 90
       50
176
     1
 62
   256
176
     0
 40
1.0
176
     0
 90
        2
176
     1
  1
strokes_ogs.tif
176
     1
290
     0
176
     1
 40
1.0
176
     1
 40
1.0
176
     1
  0
VISUALSTYLE
  5
A5
102
{ACAD_REACTORS
330
99
102
}
330
99
100
AcDbVisualStyle
  2
Brighten
 70
    12
177
     3
291
     1
 70
    58
 90
        2
176
     1
 90
        2
176
     1
 90
        1
176
     1
 90
        0
176
     1
 40
-0.6
176
     1
 40
-30.0
176
     1
 62
     7
420
 16777215
176
     1
 90
        1
176
     1
 90
        4
176
     1
 62
     7
176
     1
 62
   257
176
     1
 90
        1
176
     1
 90
        1
176
     1
 40
1.0
176
     1
 90
        8
176
     1
 62
     7
176
     1
 40
1.0
176
     1
 90
        1
176
     1
 90
        6
176
     1
 90
        2
176
     1
 62
     7
176
     1
 90
        5
176
     1
 90
        0
176
     1
 90
        0
176
     1
290
     0
176
     1
 90
        1
176
     1
 40
50.0
176
     1
 90
        0
176
     1
290
     0
176
     1
290
     1
176
     1
290
     1
176
     1
290
     0
176
     1
290
     0
176
     1
290
     0
176
     1
290
     0
176
     1
290
     0
176
     1
290
     0
176
     1
 90
       50
176
     1
 40
0.0
176
     1
 40
1.0
176
     1
 90
        0
176
     1
 62
    18
420
        0
176
     1
 90
       50
176
     1
 90
        3
176
     1
 62
     5
420
      255
176
     1
290
     0
176
     1
 90
       50
176
     1
 90
       50
176
     1
 90
       50
176
     1
290
     0
176
     1
 90
       50
176
     1
 62
   256
176
     0
 40
1.0
176
     0
 90
        2
176
     1
  1
strokes_ogs.tif
176
     1
290
     0
176
     1
 40
1.0
176
     1
 40
1.0
176
     1
  0
VISUALSTYLE
  5
A9
102
{ACAD_REACTORS
330
99
102
}
330
99
100
AcDbVisualStyle
  2
ColorChange
 70
    16
177
     3
291
     1
 70
    58
 90
        2
176
     1
 90
        2
176
     1
 90
        3
176
     1
 90
        0
176
     1
 40
-0.6
176
     1
 40
-30.0
176
     1
 62
     8
420
  8421504
176
     1
 90
        1
176
     1
 90
        4
176
     1
 62
     7
176
     1
 62
   257
176
     1
 90
        1
176
     1
 90
        1
176
     1
 40
1.0
176
     1
 90
        8
176
     1
 62
     8
420
  8421504
176
     1
 40
1.0
176
     1
 90
        1
176
     1
 90
        6
176
     1
 90
        2
176
     1
 62
     7
176
     1
 90
        5
176
     1
 90
        0
176
     1
 90
        0
176
     1
290
     0
176
     1
 90
        1
176
     1
 40
0.0
176
     1
 90
        0
176
     1
290
     0
176
     1
290
     1
176
     1
290
     1
176
     1
290
     0
176
     1
290
     0
176
     1
290
     0
176
     1
290
     0
176
     1
290
     0
176
     1
290
     0
176
     1
 90
       50
176
     1
 40
0.0
176
     1
 40
1.0
176
     1
 90
        0
176
     1
 62
    18
420
        0
176
     1
 90
       50
176
     1
 90
        3
176
     1
 62
     5
420
      255
176
     1
290
     0
176
     1
 90
       50
176
     1
 90
       50
176
     1
 90
       50
176
     1
290
     0
176
     1
 90
       50
176
     1
 62
   256
176
     0
 40
1.0
176
     0
 90
        2
176
     1
  1
strokes_ogs.tif
176
     1
290
     0
176
     1
 40
1.0
176
     1
 40
1.0
176
     1
  0
VISUALSTYLE
  5
A2
102
{ACAD_REACTORS
330
99
102
}
330
99
100
AcDbVisualStyle
  2
Conceptual
 70
     9
177
     3
291
     0
 70
    58
 90
        3
176
     1
 90
        2
176
     1
 90
        1
176
     1
 90
        0
176
     1
 40
-0.6
176
     1
 40
-30.0
176
     1
 62
     7
420
 16777215
176
     1
 90
        2
176
     1
 90
        2
176
     1
 62
     7
176
     1
 62
   257
176
     1
 90
        1
176
     1
 90
        1
176
     1
 40
40.0
176
     1
 90
        8
176
     1
 62
     7
176
     1
 40
1.0
176
     1
 90
        1
176
     1
 90
        6
176
     1
 90
        2
176
     1
 62
     7
176
     1
 90
        3
176
     1
 90
        0
176
     1
 90
        0
176
     1
290
     0
176
     1
 90
        1
176
     1
 40
0.0
176
     1
 90
        0
176
     1
290
     0
176
     1
290
     1
176
     1
290
     1
176
     1
290
     0
176
     1
290
     0
176
     1
290
     0
176
     1
290
     0
176
     1
290
     0
176
     1
290
     0
176
     1
 90
       50
176
     1
 40
0.0
176
     1
 40
1.0
176
     1
 90
        0
176
     1
 62
    18
420
        0
176
     1
 90
       50
176
     1
 90
        3
176
     1
 62
     5
420
      255
176
     1
290
     0
176
     1
 90
       50
176
     1
 90
       50
176
     1
 90
       50
176
     1
290
     0
176
     1
 90
       50
176
     1
 62
   256
176
     0
 40
1.0
176
     0
 90
        2
176
     1
  1
strokes_ogs.tif
176
     1
290
     0
176
     1
 40
1.0
176
     1
 40
1.0
176
     1
  0
VISUALSTYLE
  5
A4
102
{ACAD_REACTORS
330
99
102
}
330
99
100
AcDbVisualStyle
  2
Dim
 70
    11
177
     3
291
     1
 70
    58
 90
        2
176
     1
 90
        2
176
     1
 90
        1
176
     1
 90
        0
176
     1
 40
-0.6
176
     1
 40
-30.0
176
     1
 62
     7
420
 16777215
176
     1
 90
        1
176
     1
 90
        4
176
     1
 62
     7
176
     1
 62
   257
176
     1
 90
        1
176
     1
 90
        1
176
     1
 40
1.0
176
     1
 90
        8
176
     1
 62
     7
176
     1
 40
1.0
176
     1
 90
        1
176
     1
 90
        6
176
     1
 90
        2
176
     1
 62
     7
176
     1
 90
        5
176
     1
 90
        0
176
     1
 90
        0
176
     1
290
     0
176
     1
 90
        1
176
     1
 40
-50.0
176
     1
 90
        0
176
     1
290
     0
176
     1
290
     1
176
     1
290
     1
176
     1
290
     0
176
     1
290
     0
176
     1
290
     0
176
     1
290
     0
176
     1
290
     0
176
     1
290
     0
176
     1
 90
       50
176
     1
 40
0.0
176
     1
 40
1.0
176
     1
 90
        0
176
     1
 62
    18
420
        0
176
     1
 90
       50
176
     1
 90
        3
176
     1
 62
     5
420
      255
176
     1
290
     0
176
     1
 90
       50
176
     1
 90
       50
176
     1
 90
       50
176
     1
290
     0
176
     1
 90
       50
176
     1
 62
   256
176
     0
 40
1.0
176
     0
 90
        2
176
     1
  1
strokes_ogs.tif
176
     1
290
     0
176
     1
 40
1.0
176
     1
 40
1.0
176
     1
  0
VISUALSTYLE
  5
E7
102
{ACAD_REACTORS
330
99
102
}
330
99
100
AcDbVisualStyle
  2
EdgeColorOff
 70
    22
177
     3
291
     1
 70
    58
 90
        2
176
     0
 90
        2
176
     0
 90
        0
176
     0
 90
        0
176
     0
 40
0.6
176
     0
 40
30.0
176
     0
 62
     7
420
 16777215
176
     0
 90
        1
176
     0
 90
        4
176
     0
 62
     7
176
     0
 62
   257
176
     0
 90
        1
176
     0
 90
        1
176
     0
 40
1.0
176
     0
 90
        8
176
     2
 62
     7
176
     0
 40
1.0
176
     0
 90
        1
176
     0
 90
        6
176
     0
 90
        2
176
     0
 62
     7
176
     0
 90
        5
176
     0
 90
        0
176
     0
 90
        0
176
     0
290
     0
176
     0
 90
        1
176
     0
 40
0.0
176
     0
 90
        0
176
     0
290
     0
176
     0
290
     1
176
     0
290
     1
176
     0
290
     0
176
     0
290
     0
176
     0
290
     0
176
     0
290
     0
176
     0
290
     0
176
     0
290
     0
176
     0
 90
       50
176
     0
 40
0.0
176
     0
 40
1.0
176
     0
 90
        0
176
     0
 62
    18
420
        0
176
     0
 90
       50
176
     0
 90
        3
176
     0
 62
     5
420
      255
176
     0
290
     0
176
     0
 90
       50
176
     0
 90
       50
176
     0
 90
       50
176
     0
290
     0
176
     0
 90
       50
176
     0
 62
   256
176
     0
 40
1.0
176
     0
 90
        2
176
     0
  1
strokes_ogs.tif
176
     0
290
     0
176
     0
 40
1.0
176
     0
 40
1.0
176
     0
  0
VISUALSTYLE
  5
A8
102
{ACAD_REACTORS
330
99
102
}
330
99
100
AcDbVisualStyle
  2
Facepattern
 70
    15
177
     3
291
     1
 70
    58
 90
        2
176
     1
 90
        2
176
     1
 90
        1
176
     1
 90
        0
176
     1
 40
-0.6
176
     1
 40
-30.0
176
     1
 62
     7
420
 16777215
176
     1
 90
        1
176
     1
 90
        4
176
     1
 62
     7
176
     1
 62
   257
176
     1
 90
        1
176
     1
 90
        1
176
     1
 40
1.0
176
     1
 90
        8
176
     1
 62
     7
176
     1
 40
1.0
176
     1
 90
        1
176
     1
 90
        6
176
     1
 90
        2
176
     1
 62
     7
176
     1
 90
        5
176
     1
 90
        0
176
     1
 90
        0
176
     1
290
     0
176
     1
 90
        1
176
     1
 40
0.0
176
     1
 90
        0
176
     1
290
     0
176
     1
290
     1
176
     1
290
     1
176
     1
290
     0
176
     1
290
     0
176
     1
290
     0
176
     1
290
     0
176
     1
290
     0
176
     1
290
     0
176
     1
 90
       50
176
     1
 40
0.0
176
     1
 40
1.0
176
     1
 90
        0
176
     1
 62
    18
420
        0
176
     1
 90
       50
176
     1
 90
        3
176
     1
 62
     5
420
      255
176
     1
290
     0
176
     1
 90
       50
176
     1
 90
       50
176
     1
 90
       50
176
     1
290
     0
176
     1
 90
       50
176
     1
 62
   256
176
     0
 40
1.0
176
     0
 90
        2
176
     1
  1
strokes_ogs.tif
176
     1
290
     0
176
     1
 40
1.0
176
     1
 40
1.0
176
     1
  0
VISUALSTYLE
  5
9A
102
{ACAD_REACTORS
330
99
102
}
330
99
100
AcDbVisualStyle
  2
Flat
 70
     0
177
     3
291
     1
 70
    58
 90
        2
176
     1
 90
        1
176
     1
 90
        1
176
     1
 90
        2
176
     1
 40
-0.6
176
     1
 40
30.0
176
     1
 62
     7
420
 16777215
176
     1
 90
        0
176
     1
 90
        4
176
     1
 62
     7
176
     1
 62
   257
176
     1
 90
        1
176
     1
 90
        1
176
     1
 40
1.0
176
     1
 90
        8
176
     1
 62
     7
176
     1
 40
1.0
176
     1
 90
        1
176
     1
 90
        6
176
     1
 90
        2
176
     1
 62
     7
176
     1
 90
        5
176
     1
 90
        0
176
     1
 90
        0
176
     1
290
     0
176
     1
 90
        1
176
     1
 40
0.0
176
     1
 90
        0
176
     1
290
     0
176
     1
290
     1
176
     1
290
     1
176
     1
290
     0
176
     1
290
     0
176
     1
290
     0
176
     1
290
     0
176
     1
290
     0
176
     1
290
     0
176
     1
 90
       50
176
     1
 40
0.0
176
     1
 40
1.0
176
     1
 90
        0
176
     1
 62
    18
420
        0
176
     1
 90
       50
176
     1
 90
        3
176
     1
 62
     5
420
      255
176
     1
290
     0
176
     1
 90
       50
176
     1
 90
       50
176
     1
 90
       50
176
     1
290
     0
176
     1
 90
       50
176
     1
 62
   256
176
     0
 40
1.0
176
     0
 90
        2
176
     1
  1
strokes_ogs.tif
176
     1
290
     0
176
     1
 40
1.0
176
     1
 40
1.0
176
     1
  0
VISUALSTYLE
  5
9B
102
{ACAD_REACTORS
330
99
102
}
330
99
100
AcDbVisualStyle
  2
FlatWithEdges
 70
     1
177
     3
291
     1
 70
    58
 90
        2
176
     1
 90
        1
176
     1
 90
        1
176
     1
 90
        2
176
     1
 40
-0.6
176
     1
 40
30.0
176
     1
 62
     7
420
 16777215
176
     1
 90
        1
176
     1
 90
        4
176
     1
 62
     7
176
     1
 62
   257
176
     1
 90
        1
176
     1
 90
        1
176
     1
 40
1.0
176
     1
 90
        0
176
     1
 62
   257
176
     1
 40
1.0
176
     1
 90
        1
176
     1
 90
        6
176
     1
 90
        2
176
     1
 62
     7
176
     1
 90
        5
176
     1
 90
        0
176
     1
 90
        0
176
     1
290
     0
176
     1
 90
        1
176
     1
 40
0.0
176
     1
 90
        0
176
     1
290
     0
176
     1
290
     1
176
     1
290
     1
176
     1
290
     0
176
     1
290
     0
176
     1
290
     0
176
     1
290
     0
176
     1
290
     0
176
     1
290
     0
176
     1
 90
       50
176
     1
 40
0.0
176
     1
 40
1.0
176
     1
 90
        0
176
     1
 62
    18
420
        0
176
     1
 90
       50
176
     1
 90
        3
176
     1
 62
     5
420
      255
176
     1
290
     0
176
     1
 90
       50
176
     1
 90
       50
176
     1
 90
       50
176
     1
290
     0
176
     1
 90
       50
176
     1
 62
   256
176
     0
 40
1.0
176
     0
 90
        2
176
     1
  1
strokes_ogs.tif
176
     1
290
     0
176
     1
 40
1.0
176
     1
 40
1.0
176
     1
  0
VISUALSTYLE
  5
9C
102
{ACAD_REACTORS
330
99
102
}
330
99
100
AcDbVisualStyle
  2
Gouraud
 70
     2
177
     3
291
     1
 70
    58
 90
        2
176
     1
 90
        2
176
     1
 90
        1
176
     1
 90
        2
176
     1
 40
-0.6
176
     1
 40
30.0
176
     1
 62
     7
420
 16777215
176
     1
 90
        0
176
     1
 90
        4
176
     1
 62
     7
176
     1
 62
   257
176
     1
 90
        1
176
     1
 90
        1
176
     1
 40
1.0
176
     1
 90
        0
176
     1
 62
     7
176
     1
 40
1.0
176
     1
 90
        1
176
     1
 90
        6
176
     1
 90
        2
176
     1
 62
     7
176
     1
 90
        5
176
     1
 90
        0
176
     1
 90
        0
176
     1
290
     0
176
     1
 90
        1
176
     1
 40
0.0
176
     1
 90
        0
176
     1
290
     0
176
     1
290
     1
176
     1
290
     1
176
     1
290
     0
176
     1
290
     0
176
     1
290
     0
176
     1
290
     0
176
     1
290
     0
176
     1
290
     0
176
     1
 90
       50
176
     1
 40
0.0
176
     1
 40
1.0
176
     1
 90
        0
176
     1
 62
    18
420
        0
176
     1
 90
       50
176
     1
 90
        3
176
     1
 62
     5
420
      255
176
     1
290
     0
176
     1
 90
       50
176
     1
 90
       50
176
     1
 90
       50
176
     1
290
     0
176
     1
 90
       50
176
     1
 62
   256
176
     0
 40
1.0
176
     0
 90
        2
176
     1
  1
strokes_ogs.tif
176
     1
290
     0
176
     1
 40
1.0
176
     1
 40
1.0
176
     1
  0
VISUALSTYLE
  5
9D
102
{ACAD_REACTORS
330
99
102
}
330
99
100
AcDbVisualStyle
  2
GouraudWithEdges
 70
     3
177
     3
291
     1
 70
    58
 90
        2
176
     1
 90
        2
176
     1
 90
        1
176
     1
 90
        2
176
     1
 40
-0.6
176
     1
 40
30.0
176
     1
 62
     7
420
 16777215
176
     1
 90
        1
176
     1
 90
        4
176
     1
 62
     7
176
     1
 62
   257
176
     1
 90
        1
176
     1
 90
        1
176
     1
 40
1.0
176
     1
 90
        0
176
     1
 62
   257
176
     1
 40
1.0
176
     1
 90
        1
176
     1
 90
        6
176
     1
 90
        2
176
     1
 62
     7
176
     1
 90
        5
176
     1
 90
        0
176
     1
 90
        0
176
     1
290
     0
176
     1
 90
        1
176
     1
 40
0.0
176
     1
 90
        0
176
     1
290
     0
176
     1
290
     1
176
     1
290
     1
176
     1
290
     0
176
     1
290
     0
176
     1
290
     0
176
     1
290
     0
176
     1
290
     0
176
     1
290
     0
176
     1
 90
       50
176
     1
 40
0.0
176
     1
 40
1.0
176
     1
 90
        0
176
     1
 62
    18
420
        0
176
     1
 90
       50
176
     1
 90
        3
176
     1
 62
     5
420
      255
176
     1
290
     0
176
     1
 90
       50
176
     1
 90
       50
176
     1
 90
       50
176
     1
290
     0
176
     1
 90
       50
176
     1
 62
   256
176
     0
 40
1.0
176
     0
 90
        2
176
     1
  1
strokes_ogs.tif
176
     1
290
     0
176
     1
 40
1.0
176
     1
 40
1.0
176
     1
  0
VISUALSTYLE
  5
E4
102
{ACAD_REACTORS
330
99
102
}
330
99
100
AcDbVisualStyle
  2
Hidden
 70
     6
177
     3
291
     0
 70
    58
 90
        1
176
     1
 90
        2
176
     1
 90
        2
176
     1
 90
        0
176
     1
 40
0.6
176
     1
 40
30.0
176
     1
 62
     7
420
 16777215
176
     1
 90
        2
176
     1
 90
        2
176
     1
 62
     7
176
     1
 62
   257
176
     1
 90
        2
176
     1
 90
        1
176
     1
 40
40.0
176
     1
 90
        0
176
     1
 62
   257
176
     1
 40
1.0
176
     1
 90
        1
176
     1
 90
        6
176
     1
 90
        2
176
     1
 62
     7
176
     1
 90
        3
176
     1
 90
        0
176
     1
 90
        0
176
     1
290
     0
176
     1
 90
        1
176
     1
 40
0.0
176
     1
 90
        0
176
     1
290
     0
176
     1
290
     1
176
     1
290
     1
176
     1
290
     0
176
     1
290
     0
176
     1
290
     0
176
     1
290
     0
176
     1
290
     0
176
     1
290
     0
176
     1
 90
       50
176
     1
 40
0.0
176
     1
 40
1.0
176
     1
 90
        0
176
     1
 62
    18
420
        0
176
     1
 90
       50
176
     1
 90
        3
176
     1
 62
     5
420
      255
176
     1
290
     0
176
     1
 90
       50
176
     1
 90
       50
176
     1
 90
       50
176
     1
290
     0
176
     1
 90
       50
176
     1
 62
   256
176
     0
 40
1.0
176
     0
 90
        2
176
     1
  1
strokes_ogs.tif
176
     1
290
     0
176
     1
 40
1.0
176
     1
 40
1.0
176
     1
  0
VISUALSTYLE
  5
E5
102
{ACAD_REACTORS
330
99
102
}
330
99
100
AcDbVisualStyle
  2
JitterOff
 70
    20
177
     3
291
     1
 70
    58
 90
        2
176
     0
 90
        2
176
     0
 90
        0
176
     0
 90
        0
176
     0
 40
0.6
176
     0
 40
30.0
176
     0
 62
     7
420
 16777215
176
     0
 90
        1
176
     0
 90
        4
176
     0
 62
     7
176
     0
 62
   257
176
     0
 90
        1
176
     0
 90
        1
176
     0
 40
1.0
176
     0
 90
       10
176
     2
 62
     7
176
     0
 40
1.0
176
     0
 90
        1
176
     0
 90
        6
176
     0
 90
        2
176
     0
 62
     7
176
     0
 90
        5
176
     0
 90
        0
176
     0
 90
        0
176
     0
290
     0
176
     0
 90
        1
176
     0
 40
0.0
176
     0
 90
        0
176
     0
290
     0
176
     0
290
     1
176
     0
290
     1
176
     0
290
     0
176
     0
290
     0
176
     0
290
     0
176
     0
290
     0
176
     0
290
     0
176
     0
290
     0
176
     0
 90
       50
176
     0
 40
0.0
176
     0
 40
1.0
176
     0
 90
        0
176
     0
 62
    18
420
        0
176
     0
 90
       50
176
     0
 90
        3
176
     0
 62
     5
420
      255
176
     0
290
     0
176
     0
 90
       50
176
     0
 90
       50
176
     0
 90
       50
176
     0
290
     0
176
     0
 90
       50
176
     0
 62
   256
176
     0
 40
1.0
176
     0
 90
        2
176
     0
  1
strokes_ogs.tif
176
     0
290
     0
176
     0
 40
1.0
176
     0
 40
1.0
176
     0
  0
VISUALSTYLE
  5
A7
102
{ACAD_REACTORS
330
99
102
}
330
99
100
AcDbVisualStyle
  2
Linepattern
 70
    14
177
     3
291
     1
 70
    58
 90
        2
176
     1
 90
        2
176
     1
 90
        1
176
     1
 90
        0
176
     1
 40
-0.6
176
     1
 40
-30.0
176
     1
 62
     7
420
 16777215
176
     1
 90
        1
176
     1
 90
        4
176
     1
 62
     7
176
     1
 62
   257
176
     1
 90
        7
176
     1
 90
        7
176
     1
 40
1.0
176
     1
 90
        8
176
     1
 62
     7
176
     1
 40
1.0
176
     1
 90
        1
176
     1
 90
        6
176
     1
 90
        2
176
     1
 62
     7
176
     1
 90
        5
176
     1
 90
        0
176
     1
 90
        0
176
     1
290
     0
176
     1
 90
        1
176
     1
 40
0.0
176
     1
 90
        0
176
     1
290
     0
176
     1
290
     1
176
     1
290
     1
176
     1
290
     0
176
     1
290
     0
176
     1
290
     0
176
     1
290
     0
176
     1
290
     0
176
     1
290
     0
176
     1
 90
       50
176
     1
 40
0.0
176
     1
 40
1.0
176
     1
 90
        0
176
     1
 62
    18
420
        0
176
     1
 90
       50
176
     1
 90
        3
176
     1
 62
     5
420
      255
176
     1
290
     0
176
     1
 90
       50
176
     1
 90
       50
176
     1
 90
       50
176
     1
290
     0
176
     1
 90
       50
176
     1
 62
   256
176
     0
 40
1.0
176
     0
 90
        2
176
     1
  1
strokes_ogs.tif
176
     1
290
     0
176
     1
 40
1.0
176
     1
 40
1.0
176
     1
  0
VISUALSTYLE
  5
E6
102
{ACAD_REACTORS
330
99
102
}
330
99
100
AcDbVisualStyle
  2
OverhangOff
 70
    21
177
     3
291
     1
 70
    58
 90
        2
176
     0
 90
        2
176
     0
 90
        0
176
     0
 90
        0
176
     0
 40
0.6
176
     0
 40
30.0
176
     0
 62
     7
420
 16777215
176
     0
 90
        1
176
     0
 90
        4
176
     0
 62
     7
176
     0
 62
   257
176
     0
 90
        1
176
     0
 90
        1
176
     0
 40
1.0
176
     0
 90
        9
176
     2
 62
     7
176
     0
 40
1.0
176
     0
 90
        1
176
     0
 90
        6
176
     0
 90
        2
176
     0
 62
     7
176
     0
 90
        5
176
     0
 90
        0
176
     0
 90
        0
176
     0
290
     0
176
     0
 90
        1
176
     0
 40
0.0
176
     0
 90
        0
176
     0
290
     0
176
     0
290
     1
176
     0
290
     1
176
     0
290
     0
176
     0
290
     0
176
     0
290
     0
176
     0
290
     0
176
     0
290
     0
176
     0
290
     0
176
     0
 90
       50
176
     0
 40
0.0
176
     0
 40
1.0
176
     0
 90
        0
176
     0
 62
    18
420
        0
176
     0
 90
       50
176
     0
 90
        3
176
     0
 62
     5
420
      255
176
     0
290
     0
176
     0
 90
       50
176
     0
 90
       50
176
     0
 90
       50
176
     0
290
     0
176
     0
 90
       50
176
     0
 62
   256
176
     0
 40
1.0
176
     0
 90
        2
176
     0
  1
strokes_ogs.tif
176
     0
290
     0
176
     0
 40
1.0
176
     0
 40
1.0
176
     0
  0
VISUALSTYLE
  5
A3
102
{ACAD_REACTORS
330
99
102
}
330
99
100
AcDbVisualStyle
  2
Realistic
 70
     8
177
     3
291
     0
 70
    58
 90
        2
176
     1
 90
        2
176
     1
 90
        1
176
     1
 90
        0
176
     1
 40
-0.6
176
     1
 40
-30.0
176
     1
 62
     7
420
 16777215
176
     1
 90
        1
176
     1
 90
        0
176
     1
 62
     7
176
     1
 62
   257
176
     1
 90
        1
176
     1
 90
        1
176
     1
 40
1.0
176
     1
 90
        8
176
     1
 62
     8
420
  7895160
176
     1
 40
1.0
176
     1
 90
        1
176
     1
 90
        6
176
     1
 90
        2
176
     1
 62
     7
176
     1
 90
        5
176
     1
 90
        0
176
     1
 90
        0
176
     1
290
     0
176
     1
 90
       13
176
     1
 40
0.0
176
     1
 90
        0
176
     1
290
     0
176
     1
290
     1
176
     1
290
     1
176
     1
290
     0
176
     1
290
     0
176
     1
290
     0
176
     1
290
     0
176
     1
290
     0
176
     1
290
     0
176
     1
 90
       50
176
     1
 40
0.0
176
     1
 40
1.0
176
     1
 90
        0
176
     1
 62
    18
420
        0
176
     1
 90
       50
176
     1
 90
        3
176
     1
 62
     5
420
      255
176
     1
290
     0
176
     1
 90
       50
176
     1
 90
       50
176
     1
 90
       50
176
     1
290
     0
176
     1
 90
       50
176
     1
 62
   256
176
     0
 40
1.0
176
     0
 90
        2
176
     1
  1
strokes_ogs.tif
176
     1
290
     0
176
     1
 40
1.0
176
     1
 40
1.0
176
     1
  0
VISUALSTYLE
  5
EC
102
{ACAD_REACTORS
330
99
102
}
330
99
100
AcDbVisualStyle
  2
Shaded
 70
    27
177
     3
291
     0
 70
    58
 90
        2
176
     1
 90
        2
176
     1
 90
        1
176
     1
 90
        2
176
     1
 40
0.6
176
     1
 40
30.0
176
     1
 62
     7
420
 16777215
176
     1
 90
        0
176
     1
 90
        4
176
     1
 62
     7
176
     1
 62
   257
176
     1
 90
        1
176
     1
 90
        1
176
     1
 40
1.0
176
     1
 90
        8
176
     1
 62
   257
176
     1
 40
1.0
176
     1
 90
        1
176
     1
 90
        6
176
     1
 90
        2
176
     1
 62
     8
420
  7895160
176
     1
 90
        3
176
     1
 90
        0
176
     1
 90
        0
176
     1
290
     0
176
     1
 90
        5
176
     1
 40
0.0
176
     1
 90
        0
176
     1
290
     0
176
     1
290
     1
176
     1
290
     1
176
     1
290
     0
176
     1
290
     0
176
     1
290
     0
176
     1
290
     0
176
     1
290
     0
176
     1
290
     0
176
     1
 90
       50
176
     1
 40
0.0
176
     1
 40
1.0
176
     1
 90
        0
176
     1
 62
    18
420
        0
176
     1
 90
       50
176
     1
 90
        3
176
     1
 62
     5
420
      255
176
     1
290
     0
176
     1
 90
       50
176
     1
 90
       50
176
     1
 90
       50
176
     1
290
     0
176
     1
 90
       50
176
     1
 62
   256
176
     0
 40
1.0
176
     0
 90
        2
176
     1
  1
strokes_ogs.tif
176
     1
290
     0
176
     1
 40
1.0
176
     1
 40
1.0
176
     1
  0
VISUALSTYLE
  5
EB
102
{ACAD_REACTORS
330
99
102
}
330
99
100
AcDbVisualStyle
  2
Shaded with edges
 70
    26
177
     3
291
     0
 70
    58
 90
        2
176
     1
 90
        2
176
     1
 90
        1
176
     1
 90
        2
176
     1
 40
0.6
176
     1
 40
30.0
176
     1
 62
     7
420
 16777215
176
     1
 90
        1
176
     1
 90
       10
176
     1
 62
     7
176
     1
 62
   257
176
     1
 90
        2
176
     1
 90
        1
176
     1
 40
1.0
176
     1
 90
        8
176
     1
 62
   257
176
     1
 40
1.0
176
     1
 90
        1
176
     1
 90
        6
176
     1
 90
        2
176
     1
 62
     7
176
     1
 90
        3
176
     1
 90
        0
176
     1
 90
        0
176
     1
290
     0
176
     1
 90
        5
176
     1
 40
0.0
176
     1
 90
        0
176
     1
290
     0
176
     1
290
     1
176
     1
290
     1
176
     1
290
     0
176
     1
290
     0
176
     1
290
     0
176
     1
290
     0
176
     1
290
     0
176
     1
290
     0
176
     1
 90
       50
176
     1
 40
0.0
176
     1
 40
1.0
176
     1
 90
        0
176
     1
 62
    18
420
        0
176
     1
 90
       50
176
     1
 90
        3
176
     1
 62
     5
420
      255
176
     1
290
     0
176
     1
 90
       50
176
     1
 90
       50
176
     1
 90
       50
176
     1
290
     0
176
     1
 90
       50
176
     1
 62
   256
176
     0
 40
1.0
176
     0
 90
        2
176
     1
  1
strokes_ogs.tif
176
     1
290
     0
176
     1
 40
1.0
176
     1
 40
1.0
176
     1
  0
VISUALSTYLE
  5
E8
102
{ACAD_REACTORS
330
99
102
}
330
99
100
AcDbVisualStyle
  2
Shades of Gray
 70
    23
177
     3
291
     0
 70
    58
 90
        2
176
     1
 90
        2
176
     1
 90
        3
176
     1
 90
        0
176
     1
 40
0.6
176
     1
 40
30.0
176
     1
 62
     7
420
 16777215
176
     1
 90
        2
176
     1
 90
        2
176
     1
 62
     7
176
     1
 62
     7
176
     1
 90
        1
176
     1
 90
        1
176
     1
 40
40.0
176
     1
 90
        8
176
     1
 62
     7
176
     1
 40
1.0
176
     1
 90
        1
176
     1
 90
        6
176
     1
 90
        2
176
     1
 62
     7
176
     1
 90
        3
176
     1
 90
        0
176
     1
 90
        0
176
     1
290
     0
176
     1
 90
        1
176
     1
 40
0.0
176
     1
 90
        0
176
     1
290
     0
176
     1
290
     1
176
     1
290
     1
176
     1
290
     0
176
     1
290
     0
176
     1
290
     0
176
     1
290
     0
176
     1
290
     0
176
     1
290
     0
176
     1
 90
       50
176
     1
 40
0.0
176
     1
 40
1.0
176
     1
 90
        0
176
     1
 62
    18
420
        0
176
     1
 90
       50
176
     1
 90
        3
176
     1
 62
     5
420
      255
176
     1
290
     0
176
     1
 90
       50
176
     1
 90
       50
176
     1
 90
       50
176
     1
290
     0
176
     1
 90
       50
176
     1
 62
   256
176
     0
 40
1.0
176
     0
 90
        2
176
     1
  1
strokes_ogs.tif
176
     1
290
     0
176
     1
 40
1.0
176
     1
 40
1.0
176
     1
  0
VISUALSTYLE
  5
E9
102
{ACAD_REACTORS
330
99
102
}
330
99
100
AcDbVisualStyle
  2
Sketchy
 70
    24
177
     3
291
     0
 70
    58
 90
        1
176
     1
 90
        2
176
     1
 90
        2
176
     1
 90
        0
176
     1
 40
0.6
176
     1
 40
30.0
176
     1
 62
     7
420
 16777215
176
     1
 90
        2
176
     1
 90
        2
176
     1
 62
     7
176
     1
 62
     7
176
     1
 90
        1
176
     1
 90
        1
176
     1
 40
40.0
176
     1
 90
       11
176
     1
 62
     7
176
     1
 40
1.0
176
     1
 90
        1
176
     1
 90
        6
176
     1
 90
        2
176
     1
 62
     7
176
     1
 90
        6
176
     1
 90
        0
176
     1
 90
        0
176
     1
290
     0
176
     1
 90
        1
176
     1
 40
0.0
176
     1
 90
        0
176
     1
290
     0
176
     1
290
     1
176
     1
290
     1
176
     1
290
     0
176
     1
290
     0
176
     1
290
     0
176
     1
290
     0
176
     1
290
     0
176
     1
290
     0
176
     1
 90
       50
176
     1
 40
0.0
176
     1
 40
1.0
176
     1
 90
        0
176
     1
 62
    18
420
        0
176
     1
 90
       50
176
     1
 90
        3
176
     1
 62
     5
420
      255
176
     1
290
     0
176
     1
 90
       50
176
     1
 90
       50
176
     1
 90
       50
176
     1
290
     0
176
     1
 90
       50
176
     1
 62
   256
176
     0
 40
1.0
176
     0
 90
        2
176
     1
  1
strokes_ogs.tif
176
     1
290
     0
176
     1
 40
1.0
176
     1
 40
1.0
176
     1
  0
VISUALSTYLE
  5
A6
102
{ACAD_REACTORS
330
99
102
}
330
99
100
AcDbVisualStyle
  2
Thicken
 70
    13
177
     3
291
     1
 70
    58
 90
        2
176
     1
 90
        2
176
     1
 90
        1
176
     1
 90
        0
176
     1
 40
-0.6
176
     1
 40
-30.0
176
     1
 62
     7
420
 16777215
176
     1
 90
        1
176
     1
 90
        4
176
     1
 62
     7
176
     1
 62
   257
176
     1
 90
        1
176
     1
 90
        1
176
     1
 40
1.0
176
     1
 90
       12
176
     1
 62
     7
176
     1
 40
1.0
176
     1
 90
        1
176
     1
 90
        6
176
     1
 90
        2
176
     1
 62
     7
176
     1
 90
        5
176
     1
 90
        0
176
     1
 90
        0
176
     1
290
     0
176
     1
 90
        1
176
     1
 40
0.0
176
     1
 90
        0
176
     1
290
     0
176
     1
290
     1
176
     1
290
     1
176
     1
290
     0
176
     1
290
     0
176
     1
290
     0
176
     1
290
     0
176
     1
290
     0
176
     1
290
     0
176
     1
 90
       50
176
     1
 40
0.0
176
     1
 40
1.0
176
     1
 90
        0
176
     1
 62
    18
420
        0
176
     1
 90
       50
176
     1
 90
        3
176
     1
 62
     5
420
      255
176
     1
290
     0
176
     1
 90
       50
176
     1
 90
       50
176
     1
 90
       50
176
     1
290
     0
176
     1
 90
       50
176
     1
 62
   256
176
     0
 40
1.0
176
     0
 90
        2
176
     1
  1
strokes_ogs.tif
176
     1
290
     0
176
     1
 40
1.0
176
     1
 40
1.0
176
     1
  0
VISUALSTYLE
  5
E3
102
{ACAD_REACTORS
330
99
102
}
330
99
100
AcDbVisualStyle
  2
Wireframe
 70
     5
177
     3
291
     0
 70
    58
 90
        0
176
     1
 90
        2
176
     1
 90
        0
176
     1
 90
        0
176
     1
 40
0.6
176
     1
 40
30.0
176
     1
 62
     7
420
 16777215
176
     1
 90
        1
176
     1
 90
        4
176
     1
 62
     7
176
     1
 62
   257
176
     1
 90
        1
176
     1
 90
        1
176
     1
 40
1.0
176
     1
 90
        0
176
     1
 62
   257
176
     1
 40
1.0
176
     1
 90
        1
176
     1
 90
        6
176
     1
 90
        2
176
     1
 62
     7
176
     1
 90
        3
176
     1
 90
        0
176
     1
 90
        0
176
     1
290
     0
176
     1
 90
        1
176
     1
 40
0.0
176
     1
 90
        0
176
     1
290
     0
176
     1
290
     1
176
     1
290
     1
176
     1
290
     0
176
     1
290
     0
176
     1
290
     0
176
     1
290
     0
176
     1
290
     0
176
     1
290
     0
176
     1
 90
       50
176
     1
 40
0.0
176
     1
 40
1.0
176
     1
 90
        0
176
     1
 62
    18
420
        0
176
     1
 90
       50
176
     1
 90
        3
176
     1
 62
     5
420
      255
176
     1
290
     0
176
     1
 90
       50
176
     1
 90
       50
176
     1
 90
       50
176
     1
290
     0
176
     1
 90
       50
176
     1
 62
   256
176
     0
 40
1.0
176
     0
 90
        2
176
     1
  1
strokes_ogs.tif
176
     1
290
     0
176
     1
 40
1.0
176
     1
 40
1.0
176
     1
  0
VISUALSTYLE
  5
EA
102
{ACAD_REACTORS
330
99
102
}
330
99
100
AcDbVisualStyle
  2
X-Ray
 70
    25
177
     3
291
     0
 70
    58
 90
        2
176
     1
 90
        2
176
     1
 90
        1
176
     1
 90
        1
176
     1
 40
0.5
176
     1
 40
30.0
176
     1
 62
     7
420
 16777215
176
     1
 90
        1
176
     1
 90
        0
176
     1
 62
     7
176
     1
 62
   257
176
     1
 90
        1
176
     1
 90
        1
176
     1
 40
1.0
176
     1
 90
        8
176
     1
 62
     7
176
     1
 40
1.0
176
     1
 90
        1
176
     1
 90
        6
176
     1
 90
        2
176
     1
 62
     7
176
     1
 90
        3
176
     1
 90
        0
176
     1
 90
        0
176
     1
290
     0
176
     1
 90
       13
176
     1
 40
0.0
176
     1
 90
        0
176
     1
290
     0
176
     1
290
     1
176
     1
290
     1
176
     1
290
     0
176
     1
290
     0
176
     1
290
     0
176
     1
290
     0
176
     1
290
     0
176
     1
290
     0
176
     1
 90
       50
176
     1
 40
0.0
176
     1
 40
1.0
176
     1
 90
        0
176
     1
 62
    18
420
        0
176
     1
 90
       50
176
     1
 90
        3
176
     1
 62
     5
420
      255
176
     1
290
     0
176
     1
 90
       50
176
     1
 90
       50
176
     1
 90
       50
176
     1
290
     0
176
     1
 90
       50
176
     1
 62
   256
176
     0
 40
1.0
176
     0
 90
        2
176
     1
  1
strokes_ogs.tif
176
     1
290
     0
176
     1
 40
1.0
176
     1
 40
1.0
176
     1
  0
DICTIONARYVAR
  5
D8
102
{ACAD_REACTORS
330
66
102
}
330
66
100
DictionaryVariables
280
     0
  1
1:1
  0
DICTIONARYVAR
  5
89
102
{ACAD_REACTORS
330
66
102
}
330
66
100
DictionaryVariables
280
     0
  1
Standard
  0
DICTIONARYVAR
  5
67
102
{ACAD_REACTORS
330
66
102
}
330
66
100
DictionaryVariables
280
     0
  1
2
  0
DICTIONARYVAR
  5
6B
102
{ACAD_REACTORS
330
66
102
}
330
66
100
DictionaryVariables
280
     0
  1
1
  0
DICTIONARYVAR
  5
DF
102
{ACAD_REACTORS
330
66
102
}
330
66
100
DictionaryVariables
280
     0
  1
0
  0
DICTIONARYVAR
  5
E0
102
{ACAD_REACTORS
330
66
102
}
330
66
100
DictionaryVariables
280
     0
  1
0
  0
DICTIONARY
  5
992
330
87
100
AcDbDictionary
280
     1
281
     1
  3
ACAD_ROUNDTRIP_2008_TABLESTYLE_CELLSTYLEMAP
360
993
  0
CELLSTYLEMAP
  5
993
102
{ACAD_REACTORS
330
992
102
}
330
992
100
AcDbCellStyleMap
 90
        3
300
CELLSTYLE
  1
TABLEFORMAT_BEGIN
 90
        5
170
     1
 91
        0
 92
    32768
 62
   257
 93
        1
300
CONTENTFORMAT
  1
CONTENTFORMAT_BEGIN
 90
        0
 91
        0
 92
      512
 93
        0
300

 40
0.0
140
1.0
 94
        5
 62
     0
340
11
144
0.25
309
CONTENTFORMAT_END
171
     0
 94
        6
 95
        1
302
GRIDFORMAT
  1
GRIDFORMAT_BEGIN
 90
        0
 91
        1
 62
     0
 92
       -2
340
0
 93
        0
 40
0.045
309
GRIDFORMAT_END
 95
        2
302
GRIDFORMAT
  1
GRIDFORMAT_BEGIN
 90
        0
 91
        1
 62
     0
 92
       -2
340
0
 93
        0
 40
0.045
309
GRIDFORMAT_END
 95
        4
302
GRIDFORMAT
  1
GRIDFORMAT_BEGIN
 90
        0
 91
        1
 62
     0
 92
       -2
340
0
 93
        0
 40
0.045
309
GRIDFORMAT_END
 95
        8
302
GRIDFORMAT
  1
GRIDFORMAT_BEGIN
 90
        0
 91
        1
 62
     0
 92
       -2
340
0
 93
        0
 40
0.045
309
GRIDFORMAT_END
 95
       16
302
GRIDFORMAT
  1
GRIDFORMAT_BEGIN
 90
        0
 91
        1
 62
     0
 92
       -2
340
0
 93
        0
 40
0.045
309
GRIDFORMAT_END
 95
       32
302
GRIDFORMAT
  1
GRIDFORMAT_BEGIN
 90
        0
 91
        1
 62
     0
 92
       -2
340
0
 93
        0
 40
0.045
309
GRIDFORMAT_END
309
TABLEFORMAT_END
  1
CELLSTYLE_BEGIN
 90
        1
 91
        1
300
_TITLE
309
CELLSTYLE_END
300
CELLSTYLE
  1
TABLEFORMAT_BEGIN
 90
        5
170
     1
 91
        0
 92
        0
 62
   257
 93
        1
300
CONTENTFORMAT
  1
CONTENTFORMAT_BEGIN
 90
        0
 91
        0
 92
      512
 93
        0
300

 40
0.0
140
1.0
 94
        5
 62
     0
340
11
144
0.18
309
CONTENTFORMAT_END
171
     0
 94
        6
 95
        1
302
GRIDFORMAT
  1
GRIDFORMAT_BEGIN
 90
        0
 91
        1
 62
     0
 92
       -2
340
0
 93
        0
 40
0.045
309
GRIDFORMAT_END
 95
        2
302
GRIDFORMAT
  1
GRIDFORMAT_BEGIN
 90
        0
 91
        1
 62
     0
 92
       -2
340
0
 93
        0
 40
0.045
309
GRIDFORMAT_END
 95
        4
302
GRIDFORMAT
  1
GRIDFORMAT_BEGIN
 90
        0
 91
        1
 62
     0
 92
       -2
340
0
 93
        0
 40
0.045
309
GRIDFORMAT_END
 95
        8
302
GRIDFORMAT
  1
GRIDFORMAT_BEGIN
 90
        0
 91
        1
 62
     0
 92
       -2
340
0
 93
        0
 40
0.045
309
GRIDFORMAT_END
 95
       16
302
GRIDFORMAT
  1
GRIDFORMAT_BEGIN
 90
        0
 91
        1
 62
     0
 92
       -2
340
0
 93
        0
 40
0.045
309
GRIDFORMAT_END
 95
       32
302
GRIDFORMAT
  1
GRIDFORMAT_BEGIN
 90
        0
 91
        1
 62
     0
 92
       -2
340
0
 93
        0
 40
0.045
309
GRIDFORMAT_END
309
TABLEFORMAT_END
  1
CELLSTYLE_BEGIN
 90
        2
 91
        1
300
_HEADER
309
CELLSTYLE_END
300
CELLSTYLE
  1
TABLEFORMAT_BEGIN
 90
        5
170
     1
 91
        0
 92
        0
 62
   257
 93
        1
300
CONTENTFORMAT
  1
CONTENTFORMAT_BEGIN
 90
        0
 91
        0
 92
      512
 93
        0
300

 40
0.0
140
1.0
 94
        2
 62
     0
340
11
144
0.18
309
CONTENTFORMAT_END
171
     0
 94
        6
 95
        1
302
GRIDFORMAT
  1
GRIDFORMAT_BEGIN
 90
        0
 91
        1
 62
     0
 92
       -2
340
0
 93
        0
 40
0.045
309
GRIDFORMAT_END
 95
        2
302
GRIDFORMAT
  1
GRIDFORMAT_BEGIN
 90
        0
 91
        1
 62
     0
 92
       -2
340
0
 93
        0
 40
0.045
309
GRIDFORMAT_END
 95
        4
302
GRIDFORMAT
  1
GRIDFORMAT_BEGIN
 90
        0
 91
        1
 62
     0
 92
       -2
340
0
 93
        0
 40
0.045
309
GRIDFORMAT_END
 95
        8
302
GRIDFORMAT
  1
GRIDFORMAT_BEGIN
 90
        0
 91
        1
 62
     0
 92
       -2
340
0
 93
        0
 40
0.045
309
GRIDFORMAT_END
 95
       16
302
GRIDFORMAT
  1
GRIDFORMAT_BEGIN
 90
        0
 91
        1
 62
     0
 92
       -2
340
0
 93
        0
 40
0.045
309
GRIDFORMAT_END
 95
       32
302
GRIDFORMAT
  1
GRIDFORMAT_BEGIN
 90
        0
 91
        1
 62
     0
 92
       -2
340
0
 93
        0
 40
0.045
309
GRIDFORMAT_END
309
TABLEFORMAT_END
  1
CELLSTYLE_BEGIN
 90
        3
 91
        2
300
_DATA
309
CELLSTYLE_END
  0
ENDSEC
  0
EOF
