  0
SECTION
  2
HEADER
  9
$ACADVER
  1
AC1027
  9
$ACADMAINTVER
 70
     8
  9
$DWGCODEPAGE
  3
ANSI_932
  9
$REQUIREDVERSIONS
160
                 0
  9
$LASTSAVEDBY
  1
akihiro
  9
$INSBASE
 10
0.0
 20
0.0
 30
0.0
  9
$EXTMIN
 10
47.25414524442451
 20
32.07391270739907
 30
0.0
  9
$EXTMAX
 10
185.6507218605223
 20
189.6524247063665
 30
0.0
  9
$LIMMIN
 10
0.0
 20
0.0
  9
$LIMMAX
 10
420.0
 20
297.0
  9
$ORTHOMODE
 70
     0
  9
$REGENMODE
 70
     1
  9
$FILLMODE
 70
     1
  9
$QTEXTMODE
 70
     0
  9
$MIRRTEXT
 70
     0
  9
$LTSCALE
 40
0.2
  9
$ATTMODE
 70
     1
  9
$TEXTSIZE
 40
3.0
  9
$TRACEWID
 40
1.0
  9
$TEXTSTYLE
  7
STANDARD
  9
$CLAYER
  8
文字
  9
$CELTYPE
  6
BYLAYER
  9
$CECOLOR
 62
   256
  9
$CELTSCALE
 40
1.0
  9
$DISPSILH
 70
     0
  9
$DIMSCALE
 40
1.0
  9
$DIMASZ
 40
2.5
  9
$DIMEXO
 40
0.625
  9
$DIMDLI
 40
3.75
  9
$DIMRND
 40
0.0
  9
$DIMDLE
 40
0.0
  9
$DIMEXE
 40
1.25
  9
$DIMTP
 40
0.0
  9
$DIMTM
 40
0.0
  9
$DIMTXT
 40
2.5
  9
$DIMCEN
 40
2.5
  9
$DIMTSZ
 40
0.0
  9
$DIMTOL
 70
     0
  9
$DIMLIM
 70
     0
  9
$DIMTIH
 70
     0
  9
$DIMTOH
 70
     0
  9
$DIMSE1
 70
     0
  9
$DIMSE2
 70
     0
  9
$DIMTAD
 70
     1
  9
$DIMZIN
 70
     8
  9
$DIMBLK
  1

  9
$DIMASO
 70
     1
  9
$DIMSHO
 70
     1
  9
$DIMPOST
  1

  9
$DIMAPOST
  1

  9
$DIMALT
 70
     0
  9
$DIMALTD
 70
     3
  9
$DIMALTF
 40
0.03937007874016
  9
$DIMLFAC
 40
1.0
  9
$DIMTOFL
 70
     1
  9
$DIMTVP
 40
0.0
  9
$DIMTIX
 70
     0
  9
$DIMSOXD
 70
     0
  9
$DIMSAH
 70
     0
  9
$DIMBLK1
  1

  9
$DIMBLK2
  1

  9
$DIMSTYLE
  2
ISO-25
  9
$DIMCLRD
 70
     0
  9
$DIMCLRE
 70
     0
  9
$DIMCLRT
 70
     0
  9
$DIMTFAC
 40
1.0
  9
$DIMGAP
 40
0.625
  9
$DIMJUST
 70
     0
  9
$DIMSD1
 70
     0
  9
$DIMSD2
 70
     0
  9
$DIMTOLJ
 70
     0
  9
$DIMTZIN
 70
     8
  9
$DIMALTZ
 70
     0
  9
$DIMALTTZ
 70
     0
  9
$DIMUPT
 70
     0
  9
$DIMDEC
 70
     2
  9
$DIMTDEC
 70
     2
  9
$DIMALTU
 70
     2
  9
$DIMALTTD
 70
     3
  9
$DIMTXSTY
  7
STANDARD
  9
$DIMAUNIT
 70
     0
  9
$DIMADEC
 70
     0
  9
$DIMALTRND
 40
0.0
  9
$DIMAZIN
 70
     0
  9
$DIMDSEP
 70
    46
  9
$DIMATFIT
 70
     3
  9
$DIMFRAC
 70
     0
  9
$DIMLDRBLK
  1

  9
$DIMLUNIT
 70
     2
  9
$DIMLWD
 70
    -2
  9
$DIMLWE
 70
    -2
  9
$DIMTMOVE
 70
     2
  9
$DIMFXL
 40
1.0
  9
$DIMFXLON
 70
     0
  9
$DIMJOGANG
 40
0.7853981633974483
  9
$DIMTFILL
 70
     0
  9
$DIMTFILLCLR
 70
     0
  9
$DIMARCSYM
 70
     0
  9
$DIMLTYPE
  6

  9
$DIMLTEX1
  6

  9
$DIMLTEX2
  6

  9
$DIMTXTDIRECTION
 70
     0
  9
$LUNITS
 70
     2
  9
$LUPREC
 70
     4
  9
$SKETCHINC
 40
1.0
  9
$FILLETRAD
 40
3.0
  9
$AUNITS
 70
     0
  9
$AUPREC
 70
     0
  9
$MENU
  1
.
  9
$ELEVATION
 40
0.0
  9
$PELEVATION
 40
0.0
  9
$THICKNESS
 40
0.0
  9
$LIMCHECK
 70
     0
  9
$CHAMFERA
 40
2.0
  9
$CHAMFERB
 40
2.0
  9
$CHAMFERC
 40
0.0
  9
$CHAMFERD
 40
0.0
  9
$SKPOLY
 70
     0
  9
$TDCREATE
 40
2452936.788310324
  9
$TDUCREATE
 40
2452936.413310324
  9
$TDUPDATE
 40
2456720.774356759
  9
$TDUUPDATE
 40
2456720.399356759
  9
$TDINDWG
 40
0.6542255093
  9
$TDUSRTIMER
 40
2456720.398516308
  9
$USRTIMER
 70
     1
  9
$ANGBASE
 50
0.0
  9
$ANGDIR
 70
     0
  9
$PDMODE
 70
     0
  9
$PDSIZE
 40
0.0
  9
$PLINEWID
 40
0.0
  9
$SPLFRAME
 70
     0
  9
$SPLINETYPE
 70
     6
  9
$SPLINESEGS
 70
     8
  9
$HANDSEED
  5
173E
  9
$SURFTAB1
 70
     6
  9
$SURFTAB2
 70
     6
  9
$SURFTYPE
 70
     6
  9
$SURFU
 70
     6
  9
$SURFV
 70
     6
  9
$UCSBASE
  2

  9
$UCSNAME
  2

  9
$UCSORG
 10
0.0
 20
0.0
 30
0.0
  9
$UCSXDIR
 10
1.0
 20
0.0
 30
0.0
  9
$UCSYDIR
 10
0.0
 20
1.0
 30
0.0
  9
$UCSORTHOREF
  2

  9
$UCSORTHOVIEW
 70
     0
  9
$UCSORGTOP
 10
0.0
 20
0.0
 30
0.0
  9
$UCSORGBOTTOM
 10
0.0
 20
0.0
 30
0.0
  9
$UCSORGLEFT
 10
0.0
 20
0.0
 30
0.0
  9
$UCSORGRIGHT
 10
0.0
 20
0.0
 30
0.0
  9
$UCSORGFRONT
 10
0.0
 20
0.0
 30
0.0
  9
$UCSORGBACK
 10
0.0
 20
0.0
 30
0.0
  9
$PUCSBASE
  2

  9
$PUCSNAME
  2

  9
$PUCSORG
 10
0.0
 20
0.0
 30
0.0
  9
$PUCSXDIR
 10
1.0
 20
0.0
 30
0.0
  9
$PUCSYDIR
 10
0.0
 20
1.0
 30
0.0
  9
$PUCSORTHOREF
  2

  9
$PUCSORTHOVIEW
 70
     0
  9
$PUCSORGTOP
 10
0.0
 20
0.0
 30
0.0
  9
$PUCSORGBOTTOM
 10
0.0
 20
0.0
 30
0.0
  9
$PUCSORGLEFT
 10
0.0
 20
0.0
 30
0.0
  9
$PUCSORGRIGHT
 10
0.0
 20
0.0
 30
0.0
  9
$PUCSORGFRONT
 10
0.0
 20
0.0
 30
0.0
  9
$PUCSORGBACK
 10
0.0
 20
0.0
 30
0.0
  9
$USERI1
 70
     0
  9
$USERI2
 70
     0
  9
$USERI3
 70
     0
  9
$USERI4
 70
     0
  9
$USERI5
 70
     0
  9
$USERR1
 40
0.0
  9
$USERR2
 40
0.0
  9
$USERR3
 40
0.0
  9
$USERR4
 40
0.0
  9
$USERR5
 40
0.0
  9
$WORLDVIEW
 70
     1
  9
$SHADEDGE
 70
     3
  9
$SHADEDIF
 70
    70
  9
$TILEMODE
 70
     1
  9
$MAXACTVP
 70
    64
  9
$PINSBASE
 10
0.0
 20
0.0
 30
0.0
  9
$PLIMCHECK
 70
     0
  9
$PEXTMIN
 10
1.000000000000000E+20
 20
1.000000000000000E+20
 30
1.000000000000000E+20
  9
$PEXTMAX
 10
-1.000000000000000E+20
 20
-1.000000000000000E+20
 30
-1.000000000000000E+20
  9
$PLIMMIN
 10
0.0
 20
0.0
  9
$PLIMMAX
 10
0.0
 20
0.0
  9
$UNITMODE
 70
     0
  9
$VISRETAIN
 70
     1
  9
$PLINEGEN
 70
     0
  9
$PSLTSCALE
 70
     0
  9
$TREEDEPTH
 70
  3020
  9
$CMLSTYLE
  2
STANDARD
  9
$CMLJUST
 70
     0
  9
$CMLSCALE
 40
20.0
  9
$PROXYGRAPHICS
 70
     1
  9
$MEASUREMENT
 70
     1
  9
$CELWEIGHT
370
    -1
  9
$ENDCAPS
280
     0
  9
$JOINSTYLE
280
     0
  9
$LWDISPLAY
290
     0
  9
$INSUNITS
 70
     0
  9
$HYPERLINKBASE
  1

  9
$STYLESHEET
  1

  9
$XEDIT
290
     1
  9
$CEPSNTYPE
380
     0
  9
$PSTYLEMODE
290
     1
  9
$FINGERPRINTGUID
  2
{2DD4CCB2-2596-FA07-5368-1C94508F8F5D}
  9
$VERSIONGUID
  2
{FAEB1C32-E019-11D5-929B-00C0DF256EC4}
  9
$EXTNAMES
290
     1
  9
$PSVPSCALE
 40
0.0
  9
$OLESTARTUP
290
     0
  9
$SORTENTS
280
   127
  9
$INDEXCTL
280
     0
  9
$HIDETEXT
280
     1
  9
$XCLIPFRAME
280
     2
  9
$HALOGAP
280
     0
  9
$OBSCOLOR
 70
   257
  9
$OBSLTYPE
280
     0
  9
$INTERSECTIONDISPLAY
280
     0
  9
$INTERSECTIONCOLOR
 70
   257
  9
$DIMASSOC
280
     2
  9
$PROJECTNAME
  1

  9
$CAMERADISPLAY
290
     0
  9
$LENSLENGTH
 40
50.0
  9
$CAMERAHEIGHT
 40
0.0
  9
$STEPSPERSEC
 40
2.0
  9
$STEPSIZE
 40
6.0
  9
$3DDWFPREC
 40
2.0
  9
$PSOLWIDTH
 40
0.25
  9
$PSOLHEIGHT
 40
4.0
  9
$LOFTANG1
 40
1.570796326794897
  9
$LOFTANG2
 40
1.570796326794897
  9
$LOFTMAG1
 40
0.0
  9
$LOFTMAG2
 40
0.0
  9
$LOFTPARAM
 70
     7
  9
$LOFTNORMALS
280
     1
  9
$LATITUDE
 40
37.795
  9
$LONGITUDE
 40
-122.394
  9
$NORTHDIRECTION
 40
0.0
  9
$TIMEZONE
 70
 -8000
  9
$LIGHTGLYPHDISPLAY
280
     1
  9
$TILEMODELIGHTSYNCH
280
     1
  9
$SOLIDHIST
280
     1
  9
$SHOWHIST
280
     1
  9
$DWFFRAME
280
     2
  9
$DGNFRAME
280
     2
  9
$REALWORLDSCALE
290
     1
  9
$INTERFERECOLOR
 62
   256
  9
$CSHADOW
280
     0
  9
$SHADOWPLANELOCATION
 40
0.0
  0
ENDSEC
  0
SECTION
  2
CLASSES
  0
CLASS
  1
ACDBDICTIONARYWDFLT
  2
AcDbDictionaryWithDefault
  3
ObjectDBX Classes
 90
        0
 91
        5
280
     0
281
     0
  0
CLASS
  1
DIMASSOC
  2
AcDbDimAssoc
  3
"AcDbDimAssoc|Product Desc:     AcDim ARX App For Dimension|Company:          Autodesk, Inc.|WEB Address:      www.autodesk.com"
 90
        0
 91
        4
280
     0
281
     0
  0
CLASS
  1
VISUALSTYLE
  2
AcDbVisualStyle
  3
ObjectDBX Classes
 90
     4095
 91
        5
280
     0
281
     0
  0
CLASS
  1
SCALE
  2
AcDbScale
  3
ObjectDBX Classes
 90
     1153
 91
        5
280
     0
281
     0
  0
CLASS
  1
MATERIAL
  2
AcDbMaterial
  3
ObjectDBX Classes
 90
     1153
 91
        5
280
     0
281
     0
  0
CLASS
  1
TABLESTYLE
  2
AcDbTableStyle
  3
ObjectDBX Classes
 90
     4095
 91
        5
280
     0
281
     0
  0
CLASS
  1
SUN
  2
AcDbSun
  3
SCENEOE
 90
     1153
 91
        5
280
     0
281
     0
  0
CLASS
  1
RASTERVARIABLES
  2
AcDbRasterVariables
  3
ISM
 90
        0
 91
        5
280
     0
281
     0
  0
CLASS
  1
DICTIONARYVAR
  2
AcDbDictionaryVar
  3
ObjectDBX Classes
 90
        0
 91
        4
280
     0
281
     0
  0
CLASS
  1
CELLSTYLEMAP
  2
AcDbCellStyleMap
  3
ObjectDBX Classes
 90
     1152
 91
        4
280
     0
281
     0
  0
CLASS
  1
MLEADERSTYLE
  2
AcDbMLeaderStyle
  3
ACDB_MLEADERSTYLE_CLASS
 90
     4095
 91
        4
280
     0
281
     0
  0
CLASS
  1
ACDBSECTIONVIEWSTYLE
  2
AcDbSectionViewStyle
  3
ObjectDBX Classes
 90
     1025
 91
        2
280
     1
281
     0
  0
CLASS
  1
ACDBDETAILVIEWSTYLE
  2
AcDbDetailViewStyle
  3
ObjectDBX Classes
 90
     1025
 91
        2
280
     1
281
     0
  0
CLASS
  1
ACAD_PROXY_OBJECT_WRAPPER
  2
AcDbProxyObjectWrapper
  3
AutoCAD 2000
 90
        0
 91
        4
280
     0
281
     0
  0
CLASS
  1
XRECORD
  2
AcDbXrecord
  3
ObjectDBX Classes
 90
        0
 91
        1
280
     0
281
     0
  0
CLASS
  1
LWPOLYLINE
  2
AcDbPolyline
  3
ObjectDBX Classes
 90
        0
 91
        1
280
     0
281
     1
  0
CLASS
  1
HATCH
  2
AcDbHatch
  3
ObjectDBX Classes
 90
        0
 91
        1
280
     0
281
     1
  0
ENDSEC
  0
SECTION
  2
TABLES
  0
TABLE
  2
VPORT
  5
8
330
0
100
AcDbSymbolTable
 70
     1
  0
VPORT
  5
15FA
330
8
100
AcDbSymbolTableRecord
100
AcDbViewportTableRecord
  2
*ACTIVE
 70
     0
 10
0.0
 20
0.0
 11
1.0
 21
1.0
 12
116.4524335524734
 22
110.8631687068828
 13
0.0
 23
0.0
 14
10.0
 24
10.0
 15
10.0
 25
10.0
 16
0.0
 26
0.0
 36
1.0
 17
0.0
 27
0.0
 37
0.0
 40
160.7300822389468
 41
1.256410256410256
 42
50.0
 43
0.0
 44
0.0
 50
0.0
 51
0.0
 71
    16
 72
  1000
 73
     1
 74
     3
 75
     0
 76
     0
 77
     0
 78
     0
281
     0
 65
     1
110
0.0
120
0.0
130
0.0
111
1.0
121
0.0
131
0.0
112
0.0
122
1.0
132
0.0
 79
     0
146
0.0
348
16EC
 60
     3
 61
     5
292
     1
282
     1
141
0.0
142
0.0
 63
   256
361
1706
1001
ACAD_NAV_VCDISPLAY
1070
     3
  0
ENDTAB
  0
TABLE
  2
LTYPE
  5
5
330
0
100
AcDbSymbolTable
 70
     6
  0
LTYPE
  5
14
330
5
100
AcDbSymbolTableRecord
100
AcDbLinetypeTableRecord
  2
BYBLOCK
 70
     0
  3

 72
    65
 73
     0
 40
0.0
  0
LTYPE
  5
15
330
5
100
AcDbSymbolTableRecord
100
AcDbLinetypeTableRecord
  2
BYLAYER
 70
     0
  3

 72
    65
 73
     0
 40
0.0
  0
LTYPE
  5
16
330
5
100
AcDbSymbolTableRecord
100
AcDbLinetypeTableRecord
  2
CONTINUOUS
 70
     0
  3
Solid line
 72
    65
 73
     0
 40
0.0
  0
LTYPE
  5
35
330
5
100
AcDbSymbolTableRecord
100
AcDbLinetypeTableRecord
  2
ACAD_ISO08W100
 70
     0
  3
ISO long-dash short-dash ____ __ ____ __ ____ _
 72
    65
 73
     4
 40
36.0
 49
24.0
 74
     0
 49
-3.0
 74
     0
 49
6.0
 74
     0
 49
-3.0
 74
     0
  0
LTYPE
  5
127
330
5
100
AcDbSymbolTableRecord
100
AcDbLinetypeTableRecord
  2
HIDDENX2
 70
     0
  3
Hidden (2x) ____ ____ ____ ____ ____ ____ ____
 72
    65
 73
     2
 40
19.05
 49
12.7
 74
     0
 49
-6.35
 74
     0
  0
LTYPE
  5
5EC
330
5
100
AcDbSymbolTableRecord
100
AcDbLinetypeTableRecord
  2
CENTER
 70
     0
  3
Center ____ _ ____ _ ____ _ ____ _ ____ _ ____
 72
    65
 73
     4
 40
50.8
 49
31.75
 74
     0
 49
-6.35
 74
     0
 49
6.35
 74
     0
 49
-6.35
 74
     0
  0
LTYPE
  5
5ED
330
5
100
AcDbSymbolTableRecord
100
AcDbLinetypeTableRecord
  2
ACAD_ISO02W100
 70
     0
  3
ISO dash __ __ __ __ __ __ __ __ __ __ __ __ __
 72
    65
 73
     2
 40
15.0
 49
12.0
 74
     0
 49
-3.0
 74
     0
  0
LTYPE
  5
605
330
5
100
AcDbSymbolTableRecord
100
AcDbLinetypeTableRecord
  2
DASHED
 70
     0
  3
Dashed __ __ __ __ __ __ __ __ __ __ __ __ __ _
 72
    65
 73
     2
 40
19.05
 49
12.7
 74
     0
 49
-6.35
 74
     0
  0
ENDTAB
  0
TABLE
  2
LAYER
  5
2
102
{ACAD_XDICTIONARY
360
16B7
102
}
330
0
100
AcDbSymbolTable
 70
     9
  0
LAYER
  5
10
330
2
100
AcDbSymbolTableRecord
100
AcDbLayerTableRecord
  2
0
 70
     0
 62
     7
  6
CONTINUOUS
370
    -3
390
1711
347
1703
348
0
  0
LAYER
  5
2E
330
2
100
AcDbSymbolTableRecord
100
AcDbLayerTableRecord
  2
枠
 70
     0
 62
     1
  6
CONTINUOUS
370
    -3
390
1711
347
1703
348
0
  0
LAYER
  5
2F
330
2
100
AcDbSymbolTableRecord
100
AcDbLayerTableRecord
  2
文字
 70
     0
 62
     7
  6
CONTINUOUS
370
    -3
390
1711
347
1703
348
0
  0
LAYER
  5
36
330
2
100
AcDbSymbolTableRecord
100
AcDbLayerTableRecord
  2
中心線
 70
     0
 62
     7
  6
CENTER
370
    -3
390
1711
347
1703
348
0
  0
LAYER
  5
52
330
2
100
AcDbSymbolTableRecord
100
AcDbLayerTableRecord
  2
隠れ線
 70
     0
 62
     2
  6
CONTINUOUS
370
    -3
390
1711
347
1703
348
0
  0
LAYER
  5
128
330
2
100
AcDbSymbolTableRecord
100
AcDbLayerTableRecord
  2
実線
 70
     0
 62
     7
  6
CONTINUOUS
370
    -3
390
1711
347
1703
348
0
  0
LAYER
  5
129
330
2
100
AcDbSymbolTableRecord
100
AcDbLayerTableRecord
  2
破線
 70
     0
 62
     7
  6
DASHED
370
    -3
390
1711
347
1703
348
0
  0
LAYER
  5
693
330
2
100
AcDbSymbolTableRecord
100
AcDbLayerTableRecord
  2
DEFPOINTS
 70
     0
 62
     7
  6
CONTINUOUS
290
     0
370
    -3
390
1711
347
1703
348
0
  0
LAYER
  5
1714
330
2
100
AcDbSymbolTableRecord
100
AcDbLayerTableRecord
  2
文字・寸法線
 70
     0
 62
     7
  6
CONTINUOUS
370
    13
390
1711
347
1703
348
0
  0
ENDTAB
  0
TABLE
  2
STYLE
  5
3
330
0
100
AcDbSymbolTable
 70
     2
  0
STYLE
  5
11
330
3
100
AcDbSymbolTableRecord
100
AcDbTextStyleTableRecord
  2
STANDARD
 70
     0
 40
0.0
 41
1.0
 50
0.0
 71
     0
 42
3.0
  3
txt.shx
  4
bigfont.shx
  0
STYLE
  5
34
330
3
100
AcDbSymbolTableRecord
100
AcDbTextStyleTableRecord
  2

 70
     1
 40
0.0
 41
1.0
 50
0.0
 71
     0
 42
2.5
  3
ltypeshp.shx
  4

  0
ENDTAB
  0
TABLE
  2
VIEW
  5
6
330
0
100
AcDbSymbolTable
 70
     0
  0
ENDTAB
  0
TABLE
  2
UCS
  5
7
330
0
100
AcDbSymbolTable
 70
     0
  0
ENDTAB
  0
TABLE
  2
APPID
  5
9
330
0
100
AcDbSymbolTable
 70
     3
  0
APPID
  5
12
330
9
100
AcDbSymbolTableRecord
100
AcDbRegAppTableRecord
  2
ACAD
 70
     0
  0
APPID
  5
169C
330
9
100
AcDbSymbolTableRecord
100
AcDbRegAppTableRecord
  2
ACAD_NAV_VCDISPLAY
 70
     0
  0
APPID
  5
16C0
330
9
100
AcDbSymbolTableRecord
100
AcDbRegAppTableRecord
  2
ACAD_MLEADERVER
 70
     0
  0
ENDTAB
  0
TABLE
  2
DIMSTYLE
  5
A
330
0
100
AcDbSymbolTable
 70
     1
100
AcDbDimStyleTable
  0
DIMSTYLE
105
29
102
{ACAD_REACTORS
330
A45
330
A58
330
13FE
330
1416
330
1446
330
1462
330
1480
330
159D
330
1658
330
1670
102
}
330
A
100
AcDbSymbolTableRecord
100
AcDbDimStyleTableRecord
  2
ISO-25
 70
     0
 41
2.5
 42
0.625
 43
3.75
 44
1.25
 73
     0
 74
     0
 77
     1
 78
     8
140
2.5
141
2.5
143
0.03937007874016
147
0.625
171
     3
172
     1
178
     0
271
     2
272
     2
274
     3
283
     0
284
     8
340
11
  0
ENDTAB
  0
TABLE
  2
BLOCK_RECORD
  5
1
330
0
100
AcDbSymbolTable
 70
    11
  0
BLOCK_RECORD
  5
21
330
1
100
AcDbSymbolTableRecord
100
AcDbBlockTableRecord
  2
*MODEL_SPACE
340
16E5
 70
     0
280
     1
281
     0
  0
BLOCK_RECORD
  5
163E
330
1
100
AcDbSymbolTableRecord
100
AcDbBlockTableRecord
  2
*PAPER_SPACE
340
16E6
 70
     0
280
     1
281
     0
  0
BLOCK_RECORD
  5
A96
330
1
100
AcDbSymbolTableRecord
100
AcDbBlockTableRecord
  2
*D0
340
0
 70
     0
280
     1
281
     0
  0
BLOCK_RECORD
  5
ACB
330
1
100
AcDbSymbolTableRecord
100
AcDbBlockTableRecord
  2
*D1
340
0
 70
     0
280
     1
281
     0
  0
BLOCK_RECORD
  5
13FF
330
1
100
AcDbSymbolTableRecord
100
AcDbBlockTableRecord
  2
*D2
340
0
 70
     0
280
     1
281
     0
  0
BLOCK_RECORD
  5
1417
330
1
100
AcDbSymbolTableRecord
100
AcDbBlockTableRecord
  2
*D3
340
0
 70
     0
280
     1
281
     0
  0
BLOCK_RECORD
  5
1447
330
1
100
AcDbSymbolTableRecord
100
AcDbBlockTableRecord
  2
*D4
340
0
 70
     0
280
     1
281
     0
  0
BLOCK_RECORD
  5
1463
330
1
100
AcDbSymbolTableRecord
100
AcDbBlockTableRecord
  2
*D5
340
0
 70
     0
280
     1
281
     0
  0
BLOCK_RECORD
  5
1481
330
1
100
AcDbSymbolTableRecord
100
AcDbBlockTableRecord
  2
*D6
340
0
 70
     0
280
     1
281
     0
  0
BLOCK_RECORD
  5
159E
330
1
100
AcDbSymbolTableRecord
100
AcDbBlockTableRecord
  2
*D7
340
0
 70
     0
280
     1
281
     0
  0
BLOCK_RECORD
  5
1659
330
1
100
AcDbSymbolTableRecord
100
AcDbBlockTableRecord
  2
*D8
340
0
 70
     0
280
     1
281
     0
  0
BLOCK_RECORD
  5
1671
330
1
100
AcDbSymbolTableRecord
100
AcDbBlockTableRecord
  2
*D9
340
0
 70
     0
280
     1
281
     0
  0
ENDTAB
  0
ENDSEC
  0
SECTION
  2
BLOCKS
  0
BLOCK
  5
22
330
21
100
AcDbEntity
  8
0
100
AcDbBlockBegin
  2
*MODEL_SPACE
 70
     0
 10
0.0
 20
0.0
 30
0.0
  3
*MODEL_SPACE
  1
*MODEL_SPACE
  0
ENDBLK
  5
23
330
21
100
AcDbEntity
  8
0
100
AcDbBlockEnd
  0
BLOCK
  5
1640
330
163E
100
AcDbEntity
 67
     1
  8
0
100
AcDbBlockBegin
  2
*PAPER_SPACE
 70
     0
 10
0.0
 20
0.0
 30
0.0
  3
*PAPER_SPACE
  1
*PAPER_SPACE
  0
ENDBLK
  5
1641
330
163E
100
AcDbEntity
 67
     1
  8
0
100
AcDbBlockEnd
  0
BLOCK
  5
AA2
330
A96
100
AcDbEntity
  8
0
100
AcDbBlockBegin
  2
*D0
 70
     1
 10
0.0
 20
0.0
 30
0.0
  3
*D0
  1
*D18
  0
LINE
  5
15EF
330
A96
100
AcDbEntity
  8
文字
 62
     0
100
AcDbLine
 10
65.38983640515801
 20
67.53247927894613
 30
0.0
 11
52.11186197512552
 21
67.53247927894613
 31
0.0
  0
LINE
  5
15F0
330
A96
100
AcDbEntity
  8
文字
 62
     0
100
AcDbLine
 10
65.38983640515801
 20
65.93247927894613
 30
0.0
 11
52.11186197512552
 21
65.93247927894613
 31
0.0
  0
LINE
  5
15F1
330
A96
100
AcDbEntity
  8
文字
 62
     0
100
AcDbLine
 10
53.36186197512552
 20
70.03247927894613
 30
0.0
 11
53.36186197512552
 21
72.53247927894613
 31
0.0
  0
LINE
  5
15F2
330
A96
100
AcDbEntity
  8
文字
 62
     0
100
AcDbLine
 10
53.36186197512552
 20
63.43247927894613
 30
0.0
 11
53.36186197512552
 21
55.51581261227948
 31
0.0
  0
LINE
  5
15F3
330
A96
100
AcDbEntity
  8
文字
 62
     0
100
AcDbLine
 10
53.36186197512552
 20
67.53247927894613
 30
0.0
 11
53.36186197512552
 21
65.93247927894613
 31
0.0
  0
SOLID
  5
15F4
330
A96
100
AcDbEntity
  8
文字
 62
     0
100
AcDbTrace
 10
52.94519530845886
 20
70.03247927894613
 30
0.0
 11
53.77852864179219
 21
70.03247927894613
 31
0.0
 12
53.36186197512552
 22
67.53247927894613
 32
0.0
 13
53.36186197512552
 23
67.53247927894613
 33
0.0
  0
SOLID
  5
15F5
330
A96
100
AcDbEntity
  8
文字
 62
     0
100
AcDbTrace
 10
52.94519530845886
 20
63.43247927894613
 30
0.0
 11
53.77852864179219
 21
63.43247927894613
 31
0.0
 12
53.36186197512552
 22
65.93247927894613
 32
0.0
 13
53.36186197512552
 23
65.93247927894613
 33
0.0
  0
MTEXT
  5
15F6
330
A96
100
AcDbEntity
  8
文字
 62
     0
100
AcDbMText
 10
51.48686197512551
 20
58.22414594561281
 30
0.0
 40
2.5
 41
0.0
 46
0.0
 71
     5
 72
     1
  1
1.6
 11
6.123031769111885E-17
 21
1.0
 31
0.0
 73
     1
 44
1.0
  0
POINT
  5
15F7
330
A96
100
AcDbEntity
  8
DEFPOINTS
 62
     0
100
AcDbPoint
 10
66.01483640515801
 20
67.53247927894613
 30
0.0
  0
POINT
  5
15F8
330
A96
100
AcDbEntity
  8
DEFPOINTS
 62
     0
100
AcDbPoint
 10
66.01483640515801
 20
65.93247927894613
 30
0.0
  0
POINT
  5
15F9
330
A96
100
AcDbEntity
  8
DEFPOINTS
 62
     0
100
AcDbPoint
 10
53.36186197512552
 20
65.93247927894613
 30
0.0
  0
ENDBLK
  5
AA3
330
A96
100
AcDbEntity
  8
0
100
AcDbBlockEnd
  0
BLOCK
  5
AD5
330
ACB
100
AcDbEntity
  8
0
100
AcDbBlockBegin
  2
*D1
 70
     1
 10
0.0
 20
0.0
 30
0.0
  3
*D1
  1
*D22
  0
LINE
  5
15E6
330
ACB
100
AcDbEntity
  8
文字
 62
     0
100
AcDbLine
 10
66.01483640515801
 20
65.30747927894613
 30
0.0
 11
66.01483640515801
 21
47.06770638861043
 31
0.0
  0
LINE
  5
15E7
330
ACB
100
AcDbEntity
  8
文字
 62
     0
100
AcDbLine
 10
96.01483640515801
 20
65.30747927894612
 30
0.0
 11
96.01483640515801
 21
47.06770638861043
 31
0.0
  0
LINE
  5
15E8
330
ACB
100
AcDbEntity
  8
文字
 62
     0
100
AcDbLine
 10
68.51483640515801
 20
48.31770638861043
 30
0.0
 11
93.51483640515801
 21
48.31770638861043
 31
0.0
  0
SOLID
  5
15E9
330
ACB
100
AcDbEntity
  8
文字
 62
     0
100
AcDbTrace
 10
68.51483640515801
 20
48.7343730552771
 30
0.0
 11
68.51483640515801
 21
47.90103972194377
 31
0.0
 12
66.01483640515801
 22
48.31770638861043
 32
0.0
 13
66.01483640515801
 23
48.31770638861043
 33
0.0
  0
SOLID
  5
15EA
330
ACB
100
AcDbEntity
  8
文字
 62
     0
100
AcDbTrace
 10
93.51483640515801
 20
48.7343730552771
 30
0.0
 11
93.51483640515801
 21
47.90103972194377
 31
0.0
 12
96.01483640515801
 22
48.31770638861043
 32
0.0
 13
96.01483640515801
 23
48.31770638861043
 33
0.0
  0
MTEXT
  5
15EB
330
ACB
100
AcDbEntity
  8
文字
 62
     0
100
AcDbMText
 10
81.01483640515801
 20
50.19270638861043
 30
0.0
 40
2.5
 41
0.0
 46
0.0
 71
     5
 72
     1
  1
%%c30
 73
     1
 44
1.0
  0
POINT
  5
15EC
330
ACB
100
AcDbEntity
  8
DEFPOINTS
 62
     0
100
AcDbPoint
 10
66.01483640515801
 20
65.93247927894613
 30
0.0
  0
POINT
  5
15ED
330
ACB
100
AcDbEntity
  8
DEFPOINTS
 62
     0
100
AcDbPoint
 10
96.01483640515801
 20
65.93247927894612
 30
0.0
  0
POINT
  5
15EE
330
ACB
100
AcDbEntity
  8
DEFPOINTS
 62
     0
100
AcDbPoint
 10
96.01483640515801
 20
48.31770638861043
 30
0.0
  0
ENDBLK
  5
AD6
330
ACB
100
AcDbEntity
  8
0
100
AcDbBlockEnd
  0
BLOCK
  5
1409
330
13FF
100
AcDbEntity
  8
0
100
AcDbBlockBegin
  2
*D2
 70
     1
 10
0.0
 20
0.0
 30
0.0
  3
*D2
  1
*D61
  0
LINE
  5
15DD
330
13FF
100
AcDbEntity
  8
文字
 62
     0
100
AcDbLine
 10
75.01483640515801
 20
150.3332631452195
 30
0.0
 11
75.01483640515801
 21
169.0971789629178
 31
0.0
  0
LINE
  5
15DE
330
13FF
100
AcDbEntity
  8
文字
 62
     0
100
AcDbLine
 10
87.01483640515802
 20
150.3332631452195
 30
0.0
 11
87.01483640515802
 21
169.0971789629178
 31
0.0
  0
LINE
  5
15DF
330
13FF
100
AcDbEntity
  8
文字
 62
     0
100
AcDbLine
 10
77.51483640515801
 20
167.8471789629178
 30
0.0
 11
84.51483640515801
 21
167.8471789629178
 31
0.0
  0
SOLID
  5
15E0
330
13FF
100
AcDbEntity
  8
文字
 62
     0
100
AcDbTrace
 10
77.51483640515801
 20
168.2638456295845
 30
0.0
 11
77.51483640515801
 21
167.4305122962512
 31
0.0
 12
75.01483640515801
 22
167.8471789629178
 32
0.0
 13
75.01483640515801
 23
167.8471789629178
 33
0.0
  0
SOLID
  5
15E1
330
13FF
100
AcDbEntity
  8
文字
 62
     0
100
AcDbTrace
 10
84.51483640515801
 20
168.2638456295845
 30
0.0
 11
84.51483640515801
 21
167.4305122962512
 31
0.0
 12
87.01483640515802
 22
167.8471789629178
 32
0.0
 13
87.01483640515802
 23
167.8471789629178
 33
0.0
  0
MTEXT
  5
15E2
330
13FF
100
AcDbEntity
  8
文字
 62
     0
100
AcDbMText
 10
81.01483640515801
 20
169.723031623218
 30
0.0
 40
2.5
 41
0.0
 46
0.0
 71
     5
 72
     1
  1
{\fArial|b0|i0|c0|p32;M }12
 73
     1
 44
1.0
  0
POINT
  5
15E3
330
13FF
100
AcDbEntity
  8
DEFPOINTS
 62
     0
100
AcDbPoint
 10
75.01483640515801
 20
149.7082631452195
 30
0.0
  0
POINT
  5
15E4
330
13FF
100
AcDbEntity
  8
DEFPOINTS
 62
     0
100
AcDbPoint
 10
87.01483640515802
 20
149.7082631452195
 30
0.0
  0
POINT
  5
15E5
330
13FF
100
AcDbEntity
  8
DEFPOINTS
 62
     0
100
AcDbPoint
 10
87.01483640515802
 20
167.8471789629178
 30
0.0
  0
ENDBLK
  5
140A
330
13FF
100
AcDbEntity
  8
0
100
AcDbBlockEnd
  0
BLOCK
  5
1421
330
1417
100
AcDbEntity
  8
0
100
AcDbBlockBegin
  2
*D3
 70
     1
 10
0.0
 20
0.0
 30
0.0
  3
*D3
  1
*D62
  0
LINE
  5
15D4
330
1417
100
AcDbEntity
  8
文字
 62
     0
100
AcDbLine
 10
96.63983640515801
 20
65.93247927894612
 30
0.0
 11
115.2425135737998
 21
65.93247927894612
 31
0.0
  0
LINE
  5
15D5
330
1417
100
AcDbEntity
  8
文字
 62
     0
100
AcDbLine
 10
91.17922841932744
 20
79.70826314521945
 30
0.0
 11
115.2425135737998
 21
79.70826314521943
 31
0.0
  0
LINE
  5
15D6
330
1417
100
AcDbEntity
  8
文字
 62
     0
100
AcDbLine
 10
113.9925135737998
 20
68.43247927894612
 30
0.0
 11
113.9925135737998
 21
77.20826314521943
 31
0.0
  0
SOLID
  5
15D7
330
1417
100
AcDbEntity
  8
文字
 62
     0
100
AcDbTrace
 10
113.5758469071331
 20
68.43247927894612
 30
0.0
 11
114.4091802404665
 21
68.43247927894612
 31
0.0
 12
113.9925135737998
 22
65.93247927894612
 32
0.0
 13
113.9925135737998
 23
65.93247927894612
 33
0.0
  0
SOLID
  5
15D8
330
1417
100
AcDbEntity
  8
文字
 62
     0
100
AcDbTrace
 10
113.5758469071331
 20
77.20826314521943
 30
0.0
 11
114.4091802404665
 21
77.20826314521943
 31
0.0
 12
113.9925135737998
 22
79.70826314521943
 32
0.0
 13
113.9925135737998
 23
79.70826314521943
 33
0.0
  0
MTEXT
  5
15D9
330
1417
100
AcDbEntity
  8
文字
 62
     0
100
AcDbMText
 10
112.1175135737998
 20
72.82037121208279
 30
0.0
 40
2.5
 41
0.0
 46
0.0
 71
     5
 72
     1
  1
13
 11
6.123031769111885E-17
 21
1.0
 31
0.0
 73
     1
 44
1.0
  0
POINT
  5
15DA
330
1417
100
AcDbEntity
  8
DEFPOINTS
 62
     0
100
AcDbPoint
 10
96.01483640515801
 20
65.93247927894612
 30
0.0
  0
POINT
  5
15DB
330
1417
100
AcDbEntity
  8
DEFPOINTS
 62
     0
100
AcDbPoint
 10
90.55422841932744
 20
79.70826314521945
 30
0.0
  0
POINT
  5
15DC
330
1417
100
AcDbEntity
  8
DEFPOINTS
 62
     0
100
AcDbPoint
 10
113.9925135737998
 20
79.70826314521943
 30
0.0
  0
ENDBLK
  5
1422
330
1417
100
AcDbEntity
  8
0
100
AcDbBlockEnd
  0
BLOCK
  5
1453
330
1447
100
AcDbEntity
  8
0
100
AcDbBlockBegin
  2
*D4
 70
     1
 10
0.0
 20
0.0
 30
0.0
  3
*D4
  1
*D64
  0
LINE
  5
15C9
330
1447
100
AcDbEntity
  8
文字
 62
     0
100
AcDbLine
 10
80.01483640515798
 20
152.3332631452195
 30
0.0
 11
80.01483640515798
 21
160.4530746370137
 31
0.0
  0
LINE
  5
15CA
330
1447
100
AcDbEntity
  8
文字
 62
     0
100
AcDbLine
 10
82.01483640515798
 20
152.3332631452195
 30
0.0
 11
82.01483640515798
 21
160.4530746370137
 31
0.0
  0
LINE
  5
15CB
330
1447
100
AcDbEntity
  8
文字
 62
     0
100
AcDbLine
 10
77.51483640515798
 20
159.2030746370137
 30
0.0
 11
75.01483640515798
 21
159.2030746370137
 31
0.0
  0
LINE
  5
15CC
330
1447
100
AcDbEntity
  8
文字
 62
     0
100
AcDbLine
 10
84.51483640515798
 20
159.2030746370137
 30
0.0
 11
89.93150307182466
 21
159.2030746370137
 31
0.0
  0
LINE
  5
15CD
330
1447
100
AcDbEntity
  8
文字
 62
     0
100
AcDbLine
 10
80.01483640515798
 20
159.2030746370137
 30
0.0
 11
82.01483640515798
 21
159.2030746370137
 31
0.0
  0
SOLID
  5
15CE
330
1447
100
AcDbEntity
  8
文字
 62
     0
100
AcDbTrace
 10
77.51483640515798
 20
159.6197413036804
 30
0.0
 11
77.51483640515798
 21
158.7864079703471
 31
0.0
 12
80.01483640515798
 22
159.2030746370137
 32
0.0
 13
80.01483640515798
 23
159.2030746370137
 33
0.0
  0
SOLID
  5
15CF
330
1447
100
AcDbEntity
  8
文字
 62
     0
100
AcDbTrace
 10
84.51483640515798
 20
159.6197413036804
 30
0.0
 11
84.51483640515798
 21
158.7864079703471
 31
0.0
 12
82.01483640515798
 22
159.2030746370137
 32
0.0
 13
82.01483640515798
 23
159.2030746370137
 33
0.0
  0
MTEXT
  5
15D0
330
1447
100
AcDbEntity
  8
文字
 62
     0
100
AcDbMText
 10
88.47316973849131
 20
161.0780746370137
 30
0.0
 40
2.5
 41
0.0
 46
0.0
 71
     5
 72
     1
  1
2
 73
     1
 44
1.0
  0
POINT
  5
15D1
330
1447
100
AcDbEntity
  8
DEFPOINTS
 62
     0
100
AcDbPoint
 10
80.01483640515798
 20
151.7082631452195
 30
0.0
  0
POINT
  5
15D2
330
1447
100
AcDbEntity
  8
DEFPOINTS
 62
     0
100
AcDbPoint
 10
82.01483640515798
 20
151.7082631452195
 30
0.0
  0
POINT
  5
15D3
330
1447
100
AcDbEntity
  8
DEFPOINTS
 62
     0
100
AcDbPoint
 10
82.01483640515798
 20
159.2030746370137
 30
0.0
  0
ENDBLK
  5
1454
330
1447
100
AcDbEntity
  8
0
100
AcDbBlockEnd
  0
BLOCK
  5
146F
330
1463
100
AcDbEntity
  8
0
100
AcDbBlockBegin
  2
*D5
 70
     1
 10
0.0
 20
0.0
 30
0.0
  3
*D5
  1
*D65
  0
LINE
  5
15BE
330
1463
100
AcDbEntity
  8
文字
 62
     0
100
AcDbLine
 10
79.38983640515798
 20
151.7082631452195
 30
0.0
 11
67.15536454991663
 21
151.7082631452195
 31
0.0
  0
LINE
  5
15BF
330
1463
100
AcDbEntity
  8
文字
 62
     0
100
AcDbLine
 10
79.38983640515798
 20
149.7082631452195
 30
0.0
 11
67.15536454991663
 21
149.7082631452195
 31
0.0
  0
LINE
  5
15C0
330
1463
100
AcDbEntity
  8
文字
 62
     0
100
AcDbLine
 10
68.40536454991663
 20
154.2082631452195
 30
0.0
 11
68.40536454991663
 21
156.7082631452195
 31
0.0
  0
LINE
  5
15C1
330
1463
100
AcDbEntity
  8
文字
 62
     0
100
AcDbLine
 10
68.40536454991663
 20
147.2082631452195
 30
0.0
 11
68.40536454991663
 21
141.7915964785528
 31
0.0
  0
LINE
  5
15C2
330
1463
100
AcDbEntity
  8
文字
 62
     0
100
AcDbLine
 10
68.40536454991663
 20
151.7082631452195
 30
0.0
 11
68.40536454991663
 21
149.7082631452195
 31
0.0
  0
SOLID
  5
15C3
330
1463
100
AcDbEntity
  8
文字
 62
     0
100
AcDbTrace
 10
67.98869788324996
 20
154.2082631452195
 30
0.0
 11
68.8220312165833
 21
154.2082631452195
 31
0.0
 12
68.40536454991663
 22
151.7082631452195
 32
0.0
 13
68.40536454991663
 23
151.7082631452195
 33
0.0
  0
SOLID
  5
15C4
330
1463
100
AcDbEntity
  8
文字
 62
     0
100
AcDbTrace
 10
67.98869788324996
 20
147.2082631452195
 30
0.0
 11
68.8220312165833
 21
147.2082631452195
 31
0.0
 12
68.40536454991663
 22
149.7082631452195
 32
0.0
 13
68.40536454991663
 23
149.7082631452195
 33
0.0
  0
MTEXT
  5
15C5
330
1463
100
AcDbEntity
  8
文字
 62
     0
100
AcDbMText
 10
66.53036454991661
 20
143.2499298118861
 30
0.0
 40
2.5
 41
0.0
 46
0.0
 71
     5
 72
     1
  1
2
 11
6.123031769111885E-17
 21
1.0
 31
0.0
 73
     1
 44
1.0
  0
POINT
  5
15C6
330
1463
100
AcDbEntity
  8
DEFPOINTS
 62
     0
100
AcDbPoint
 10
80.01483640515798
 20
151.7082631452195
 30
0.0
  0
POINT
  5
15C7
330
1463
100
AcDbEntity
  8
DEFPOINTS
 62
     0
100
AcDbPoint
 10
80.01483640515798
 20
149.7082631452195
 30
0.0
  0
POINT
  5
15C8
330
1463
100
AcDbEntity
  8
DEFPOINTS
 62
     0
100
AcDbPoint
 10
68.40536454991663
 20
149.7082631452195
 30
0.0
  0
ENDBLK
  5
1470
330
1463
100
AcDbEntity
  8
0
100
AcDbBlockEnd
  0
BLOCK
  5
148B
330
1481
100
AcDbEntity
  8
0
100
AcDbBlockBegin
  2
*D6
 70
     1
 10
0.0
 20
0.0
 30
0.0
  3
*D6
  1
*D66
  0
LINE
  5
1693
330
1481
100
AcDbEntity
  8
文字
 62
     0
100
AcDbLine
 10
154.6507218605223
 20
65.30747927894612
 30
0.0
 11
154.6507218605223
 21
32.07391270739907
 31
0.0
  0
LINE
  5
1694
330
1481
100
AcDbEntity
  8
文字
 62
     0
100
AcDbLine
 10
176.6507218605223
 20
65.30747927894612
 30
0.0
 11
176.6507218605223
 21
32.07391270739907
 31
0.0
  0
LINE
  5
1695
330
1481
100
AcDbEntity
  8
文字
 62
     0
100
AcDbLine
 10
157.1507218605223
 20
33.32391270739907
 30
0.0
 11
174.1507218605223
 21
33.32391270739907
 31
0.0
  0
SOLID
  5
1696
330
1481
100
AcDbEntity
  8
文字
 62
     0
100
AcDbTrace
 10
157.1507218605223
 20
33.74057937406574
 30
0.0
 11
157.1507218605223
 21
32.90724604073241
 31
0.0
 12
154.6507218605223
 22
33.32391270739907
 32
0.0
 13
154.6507218605223
 23
33.32391270739907
 33
0.0
  0
SOLID
  5
1697
330
1481
100
AcDbEntity
  8
文字
 62
     0
100
AcDbTrace
 10
174.1507218605223
 20
33.74057937406574
 30
0.0
 11
174.1507218605223
 21
32.90724604073241
 31
0.0
 12
176.6507218605223
 22
33.32391270739907
 32
0.0
 13
176.6507218605223
 23
33.32391270739907
 33
0.0
  0
MTEXT
  5
1698
330
1481
100
AcDbEntity
  8
文字
 62
     0
100
AcDbMText
 10
165.6507218605223
 20
35.19891270739907
 30
0.0
 40
2.5
 41
0.0
 46
0.0
 71
     5
 72
     1
  1
%%c22
 73
     1
 44
1.0
  0
POINT
  5
1699
330
1481
100
AcDbEntity
  8
DEFPOINTS
 62
     0
100
AcDbPoint
 10
154.6507218605223
 20
65.93247927894612
 30
0.0
  0
POINT
  5
169A
330
1481
100
AcDbEntity
  8
DEFPOINTS
 62
     0
100
AcDbPoint
 10
176.6507218605223
 20
65.93247927894612
 30
0.0
  0
POINT
  5
169B
330
1481
100
AcDbEntity
  8
DEFPOINTS
 62
     0
100
AcDbPoint
 10
176.6507218605223
 20
33.32391270739907
 30
0.0
  0
ENDBLK
  5
148C
330
1481
100
AcDbEntity
  8
0
100
AcDbBlockEnd
  0
BLOCK
  5
15A8
330
159E
100
AcDbEntity
  8
0
100
AcDbBlockBegin
  2
*D7
 70
     1
 10
0.0
 20
0.0
 30
0.0
  3
*D7
  1
*D68
  0
LINE
  5
15B5
330
159E
100
AcDbEntity
  8
文字
 62
     0
100
AcDbLine
 10
85.63983640515801
 20
151.7082631452195
 30
0.0
 11
115.2425135737998
 21
151.7082631452195
 31
0.0
  0
LINE
  5
15B6
330
159E
100
AcDbEntity
  8
文字
 62
     0
100
AcDbLine
 10
91.17922841932744
 20
79.70826314521945
 30
0.0
 11
115.2425135737998
 21
79.70826314521943
 31
0.0
  0
LINE
  5
15B7
330
159E
100
AcDbEntity
  8
文字
 62
     0
100
AcDbLine
 10
113.9925135737998
 20
149.2082631452195
 30
0.0
 11
113.9925135737998
 21
82.20826314521943
 31
0.0
  0
SOLID
  5
15B8
330
159E
100
AcDbEntity
  8
文字
 62
     0
100
AcDbTrace
 10
113.5758469071331
 20
149.2082631452195
 30
0.0
 11
114.4091802404665
 21
149.2082631452195
 31
0.0
 12
113.9925135737998
 22
151.7082631452195
 32
0.0
 13
113.9925135737998
 23
151.7082631452195
 33
0.0
  0
SOLID
  5
15B9
330
159E
100
AcDbEntity
  8
文字
 62
     0
100
AcDbTrace
 10
113.5758469071331
 20
82.20826314521943
 30
0.0
 11
114.4091802404665
 21
82.20826314521943
 31
0.0
 12
113.9925135737998
 22
79.70826314521943
 32
0.0
 13
113.9925135737998
 23
79.70826314521943
 33
0.0
  0
MTEXT
  5
15BA
330
159E
100
AcDbEntity
  8
文字
 62
     0
100
AcDbMText
 10
112.1175135737998
 20
115.7082631452195
 30
0.0
 40
2.5
 41
0.0
 46
0.0
 71
     5
 72
     1
  1
72
 11
6.123031769111885E-17
 21
1.0
 31
0.0
 73
     1
 44
1.0
  0
POINT
  5
15BB
330
159E
100
AcDbEntity
  8
DEFPOINTS
 62
     0
100
AcDbPoint
 10
85.01483640515801
 20
151.7082631452195
 30
0.0
  0
POINT
  5
15BC
330
159E
100
AcDbEntity
  8
DEFPOINTS
 62
     0
100
AcDbPoint
 10
90.55422841932744
 20
79.70826314521945
 30
0.0
  0
POINT
  5
15BD
330
159E
100
AcDbEntity
  8
DEFPOINTS
 62
     0
100
AcDbPoint
 10
113.9925135737998
 20
79.70826314521943
 30
0.0
  0
ENDBLK
  5
15A9
330
159E
100
AcDbEntity
  8
0
100
AcDbBlockEnd
  0
BLOCK
  5
165A
330
1659
100
AcDbEntity
  8
0
100
AcDbBlockBegin
  2
*D8
 70
     1
 10
0.0
 20
0.0
 30
0.0
  3
*D8
  1
*D8
  0
LINE
  5
1666
330
1659
100
AcDbEntity
  8
文字
 62
     0
100
AcDbLine
 10
91.17922841932747
 20
79.70826314521943
 30
0.0
 11
107.3296461816774
 21
79.70826314521942
 31
0.0
  0
LINE
  5
1667
330
1659
100
AcDbEntity
  8
文字
 62
     0
100
AcDbLine
 10
87.63983640515802
 20
72.70826314521945
 30
0.0
 11
107.3296461816774
 21
72.70826314521943
 31
0.0
  0
LINE
  5
1668
330
1659
100
AcDbEntity
  8
文字
 62
     0
100
AcDbLine
 10
106.0796461816774
 20
77.20826314521942
 30
0.0
 11
106.0796461816774
 21
75.20826314521943
 31
0.0
  0
SOLID
  5
1669
330
1659
100
AcDbEntity
  8
文字
 62
     0
100
AcDbTrace
 10
105.6629795150107
 20
77.20826314521942
 30
0.0
 11
106.4963128483441
 21
77.20826314521942
 31
0.0
 12
106.0796461816774
 22
79.70826314521942
 32
0.0
 13
106.0796461816774
 23
79.70826314521942
 33
0.0
  0
SOLID
  5
166A
330
1659
100
AcDbEntity
  8
文字
 62
     0
100
AcDbTrace
 10
105.6629795150107
 20
75.20826314521943
 30
0.0
 11
106.4963128483441
 21
75.20826314521943
 31
0.0
 12
106.0796461816774
 22
72.70826314521943
 32
0.0
 13
106.0796461816774
 23
72.70826314521943
 33
0.0
  0
MTEXT
  5
166B
330
1659
100
AcDbEntity
  8
文字
 62
     0
100
AcDbMText
 10
104.2046461816774
 20
76.20826314521946
 30
0.0
 40
2.5
 41
0.0
 46
0.0
 71
     5
 72
     1
  1
7
 11
6.123031769111886E-17
 21
1.0
 31
0.0
 73
     1
 44
1.0
  0
POINT
  5
166C
330
1659
100
AcDbEntity
  8
DEFPOINTS
 62
     0
100
AcDbPoint
 10
90.55422841932747
 20
79.70826314521943
 30
0.0
  0
POINT
  5
166D
330
1659
100
AcDbEntity
  8
DEFPOINTS
 62
     0
100
AcDbPoint
 10
87.01483640515802
 20
72.70826314521945
 30
0.0
  0
POINT
  5
166E
330
1659
100
AcDbEntity
  8
DEFPOINTS
 62
     0
100
AcDbPoint
 10
106.0796461816774
 20
72.70826314521943
 30
0.0
  0
ENDBLK
  5
165B
330
1659
100
AcDbEntity
  8
0
100
AcDbBlockEnd
  0
BLOCK
  5
1672
330
1671
100
AcDbEntity
  8
0
100
AcDbBlockBegin
  2
*D9
 70
     1
 10
0.0
 20
0.0
 30
0.0
  3
*D9
  1
*D9
  0
LINE
  5
168A
330
1671
100
AcDbEntity
  8
文字
 62
     0
100
AcDbLine
 10
87.63983640515802
 20
72.70826314521945
 30
0.0
 11
107.3296461816774
 21
72.70826314521943
 31
0.0
  0
LINE
  5
168B
330
1671
100
AcDbEntity
  8
文字
 62
     0
100
AcDbLine
 10
96.63983640515801
 20
65.93247927894612
 30
0.0
 11
107.3296461816774
 21
65.93247927894612
 31
0.0
  0
LINE
  5
168C
330
1671
100
AcDbEntity
  8
文字
 62
     0
100
AcDbLine
 10
106.0796461816774
 20
70.20826314521943
 30
0.0
 11
106.0796461816774
 21
68.43247927894612
 31
0.0
  0
SOLID
  5
168D
330
1671
100
AcDbEntity
  8
文字
 62
     0
100
AcDbTrace
 10
105.6629795150107
 20
70.20826314521943
 30
0.0
 11
106.4963128483441
 21
70.20826314521943
 31
0.0
 12
106.0796461816774
 22
72.70826314521943
 32
0.0
 13
106.0796461816774
 23
72.70826314521943
 33
0.0
  0
SOLID
  5
168E
330
1671
100
AcDbEntity
  8
文字
 62
     0
100
AcDbTrace
 10
105.6629795150107
 20
68.43247927894612
 30
0.0
 11
106.4963128483441
 21
68.43247927894612
 31
0.0
 12
106.0796461816774
 22
65.93247927894612
 32
0.0
 13
106.0796461816774
 23
65.93247927894612
 33
0.0
  0
MTEXT
  5
168F
330
1671
100
AcDbEntity
  8
文字
 62
     0
100
AcDbMText
 10
104.2046461816774
 20
69.3203712120828
 30
0.0
 40
2.5
 41
0.0
 46
0.0
 71
     5
 72
     1
  1
6
 11
6.123031769111886E-17
 21
1.0
 31
0.0
 73
     1
 44
1.0
  0
POINT
  5
1690
330
1671
100
AcDbEntity
  8
DEFPOINTS
 62
     0
100
AcDbPoint
 10
87.01483640515802
 20
72.70826314521945
 30
0.0
  0
POINT
  5
1691
330
1671
100
AcDbEntity
  8
DEFPOINTS
 62
     0
100
AcDbPoint
 10
96.01483640515801
 20
65.93247927894612
 30
0.0
  0
POINT
  5
1692
330
1671
100
AcDbEntity
  8
DEFPOINTS
 62
     0
100
AcDbPoint
 10
106.0796461816774
 20
65.93247927894612
 30
0.0
  0
ENDBLK
  5
1673
330
1671
100
AcDbEntity
  8
0
100
AcDbBlockEnd
  0
ENDSEC
  0
SECTION
  2
ENTITIES
  0
DIMENSION
  5
A45
330
21
100
AcDbEntity
  8
文字
100
AcDbDimension
280
     0
  2
*D0
 10
53.36186197512552
 20
65.93247927894613
 30
0.0
 11
51.48686197512551
 21
58.22414594561281
 31
0.0
 70
    32
 71
     5
 42
-1.0
 73
     0
 74
     0
 75
     0
  3
ISO-25
100
AcDbAlignedDimension
 13
66.01483640515801
 23
67.53247927894613
 33
0.0
 14
66.01483640515801
 24
65.93247927894613
 34
0.0
 50
90.0
100
AcDbRotatedDimension
  0
DIMENSION
  5
A58
330
21
100
AcDbEntity
  8
文字
100
AcDbDimension
280
     0
  2
*D1
 10
96.01483640515801
 20
48.31770638861043
 30
0.0
 11
81.01483640515801
 21
50.19270638861043
 31
0.0
 70
    32
  1
%%c<>
 71
     5
 42
-1.0
 73
     0
 74
     0
 75
     0
  3
ISO-25
100
AcDbAlignedDimension
 13
66.01483640515801
 23
65.93247927894613
 33
0.0
 14
96.01483640515801
 24
65.93247927894612
 34
0.0
100
AcDbRotatedDimension
  0
LINE
  5
A5B
330
21
100
AcDbEntity
  8
実線
100
AcDbLine
 10
77.85962493247413
 20
72.70826314521945
 30
0.0
 11
84.16658541814067
 21
72.70826314521945
 31
0.0
  0
CIRCLE
  5
A6E
330
21
100
AcDbEntity
  8
実線
100
AcDbCircle
 10
165.6507218605223
 20
65.93247927894612
 30
0.0
 40
15.0
  0
CIRCLE
  5
A6F
330
21
100
AcDbEntity
  8
実線
100
AcDbCircle
 10
165.6507218605223
 20
65.93247927894612
 30
0.0
 40
11.0
  0
LINE
  5
A70
330
21
100
AcDbEntity
  8
実線
100
AcDbLine
 10
69.01149504135589
 20
67.53247927894613
 30
0.0
 11
93.0181777689601
 21
67.53247927894613
 31
0.0
  0
LINE
  5
A71
330
21
100
AcDbEntity
  8
実線
100
AcDbLine
 10
93.0181777689601
 20
67.53247927894613
 30
0.0
 11
96.01483640515798
 21
67.53247927894613
 31
0.0
  0
ARC
  5
A73
330
21
100
AcDbEntity
  8
実線
100
AcDbCircle
 10
93.01817776896013
 20
69.53247927894613
 30
0.0
 40
2.0
100
AcDbArc
 50
218.7731483960189
 51
270.0
  0
ARC
  5
A74
330
21
100
AcDbEntity
  8
実線
100
AcDbCircle
 10
69.0114950413559
 20
69.53247927894613
 30
0.0
 40
2.0
100
AcDbArc
 50
270.0
 51
321.2268516039812
  0
ARC
  5
A75
330
21
100
AcDbEntity
  8
実線
100
AcDbCircle
 10
80.31615232094354
 20
60.45202093197564
 30
0.0
 40
12.5
100
AcDbArc
 50
101.333659492412
 51
141.2268516039818
  0
LINE
  5
A76
330
21
100
AcDbEntity
  8
中心線
100
AcDbLine
 10
81.01483640515801
 20
61.89343848805663
 30
0.0
 11
81.01483640515798
 21
157.2389122172662
 31
0.0
  0
LINE
  5
A77
330
21
100
AcDbEntity
  8
実線
100
AcDbLine
 10
66.01483640515801
 20
67.53247927894613
 30
0.0
 11
66.01483640515801
 21
65.93247927894613
 31
0.0
  0
LINE
  5
A78
330
21
100
AcDbEntity
  8
実線
100
AcDbLine
 10
69.01149504135589
 20
67.53247927894613
 30
0.0
 11
66.01483640515801
 21
67.53247927894613
 31
0.0
  0
LINE
  5
A79
330
21
100
AcDbEntity
  8
実線
100
AcDbLine
 10
96.01483640515801
 20
65.93247927894612
 30
0.0
 11
96.01483640515801
 21
67.53247927894613
 31
0.0
  0
LINE
  5
A7A
330
21
100
AcDbEntity
  8
実線
100
AcDbLine
 10
66.01483640515801
 20
65.93247927894613
 30
0.0
 11
96.01483640515801
 21
65.93247927894612
 31
0.0
  0
ARC
  5
115A
330
21
100
AcDbEntity
  8
実線
100
AcDbCircle
 10
81.71352048937247
 20
60.45202093197564
 30
0.0
 40
12.5
100
AcDbArc
 50
38.77314839601818
 51
78.66634050758799
  0
MTEXT
  5
11F9
330
21
100
AcDbEntity
  8
文字
100
AcDbMText
 10
229.4131315167949
 20
143.9032343405189
 30
0.0
 40
2.5
 41
0.0
 46
0.0
 71
     7
 72
     1
  1

 73
     1
 44
1.0
  0
LINE
  5
13CE
330
21
100
AcDbEntity
  8
実線
100
AcDbLine
 10
75.01483640515801
 20
72.70826314521945
 30
0.0
 11
74.51483640515801
 21
73.70826314521945
 31
0.0
  0
LINE
  5
13CF
330
21
100
AcDbEntity
  8
実線
100
AcDbLine
 10
74.51483640515801
 20
73.70826314521945
 30
0.0
 11
87.51483640515802
 21
73.70826314521945
 31
0.0
  0
LINE
  5
13D0
330
21
100
AcDbEntity
  8
実線
100
AcDbLine
 10
87.51483640515802
 20
73.70826314521945
 30
0.0
 11
87.01483640515802
 21
72.70826314521945
 31
0.0
  0
LINE
  5
13D1
330
21
100
AcDbEntity
  8
実線
100
AcDbLine
 10
87.01483640515802
 20
72.70826314521945
 30
0.0
 11
75.01483640515801
 21
72.70826314521945
 31
0.0
  0
LWPOLYLINE
  5
13D2
330
21
100
AcDbEntity
  8
実線
100
AcDbPolyline
 90
        2
 70
     0
 43
0.0
 10
71.47544439098856
 20
79.70826314521945
 10
90.55422841932744
 20
79.70826314521945
  0
ARC
  5
13D4
330
21
100
AcDbEntity
  8
実線
100
AcDbCircle
 10
81.01483640515801
 20
76.70826314521945
 30
0.0
 40
10.0
100
AcDbArc
 50
342.5423968762779
 51
17.4576031237221
  0
LWPOLYLINE
  5
13D5
330
21
100
AcDbEntity
  8
実線
100
AcDbPolyline
 90
        2
 70
     0
 43
0.0
 10
90.55422841932744
 20
73.70826314521945
 10
71.47544439098856
 20
73.70826314521945
  0
ARC
  5
13D6
330
21
100
AcDbEntity
  8
実線
100
AcDbCircle
 10
81.01483640515801
 20
76.70826314521945
 30
0.0
 40
10.0
100
AcDbArc
 50
162.5423968762779
 51
197.4576031237221
  0
LWPOLYLINE
  5
13D7
330
21
100
AcDbEntity
  8
実線
100
AcDbPolyline
 90
        3
 70
     0
 43
0.0
 10
80.01483640515798
 20
151.7082631452195
 10
77.01483640515801
 20
151.7082631452195
 10
75.01483640515801
 20
149.7082631452195
  0
LWPOLYLINE
  5
13D8
330
21
100
AcDbEntity
  8
実線
100
AcDbPolyline
 90
        4
 70
     0
 43
0.0
 10
80.01483640515798
 20
151.7082631452195
 10
80.01483640515798
 20
149.7082631452195
 10
82.01483640515798
 20
149.7082631452195
 10
82.01483640515798
 20
151.7082631452195
  0
LINE
  5
13D9
330
21
100
AcDbEntity
  8
実線
100
AcDbLine
 10
75.01483640515801
 20
149.7082631452195
 30
0.0
 11
87.01483640515802
 21
149.7082631452195
 31
0.0
  0
LINE
  5
13DD
330
21
100
AcDbEntity
  8
中心線
100
AcDbLine
 10
185.6507218605223
 20
65.93247927894612
 30
0.0
 11
145.6507218605223
 21
65.93247927894612
 31
0.0
  0
LINE
  5
13DE
330
21
100
AcDbEntity
  8
中心線
100
AcDbLine
 10
165.6507218605223
 20
85.93247927894623
 30
0.0
 11
165.6507218605223
 21
45.93247927894622
 31
0.0
  0
CIRCLE
  5
13DF
330
21
100
AcDbEntity
  8
実線
100
AcDbCircle
 10
165.6507218605223
 20
65.93247927894612
 30
0.0
 40
10.0
  0
CIRCLE
  5
13E3
330
21
100
AcDbEntity
  8
実線
100
AcDbCircle
 10
165.6507218605223
 20
65.93247927894612
 30
0.0
 40
6.0
  0
CIRCLE
  5
13E4
330
21
100
AcDbEntity
  8
実線
100
AcDbCircle
 10
165.6507218605223
 20
65.93247927894612
 30
0.0
 40
4.0
  0
LINE
  5
13E5
330
21
100
AcDbEntity
  8
実線
100
AcDbLine
 10
165.6507218605223
 20
65.93247927894612
 30
0.0
 11
164.6507218605223
 21
65.93247927894612
 31
0.0
  0
LINE
  5
13E6
330
21
100
AcDbEntity
  8
実線
100
AcDbLine
 10
164.6507218605223
 20
65.93247927894612
 30
0.0
 11
164.6507218605223
 21
71.84855906204572
 31
0.0
  0
LINE
  5
13E7
330
21
100
AcDbEntity
  8
実線
100
AcDbLine
 10
164.6507218605223
 20
65.93247927894612
 30
0.0
 11
164.6507218605223
 21
60.01639949584653
 31
0.0
  0
LINE
  5
13E8
330
21
100
AcDbEntity
  8
実線
100
AcDbLine
 10
166.6507218605223
 20
65.93247927894612
 30
0.0
 11
166.6507218605223
 21
71.84855906204572
 31
0.0
  0
LINE
  5
13E9
330
21
100
AcDbEntity
  8
実線
100
AcDbLine
 10
166.6507218605223
 20
65.93247927894612
 30
0.0
 11
166.6507218605223
 21
60.01639949584653
 31
0.0
  0
DIMENSION
  5
13FE
330
21
100
AcDbEntity
  8
文字
100
AcDbDimension
280
     0
  2
*D2
 10
87.01483640515802
 20
167.8471789629178
 30
0.0
 11
81.01483640515801
 21
169.723031623218
 31
0.0
 70
    32
  1
{\fArial|b0|i0|c0|p32;M }<>
 71
     5
 42
-1.0
 73
     0
 74
     0
 75
     0
  3
ISO-25
100
AcDbAlignedDimension
 13
75.01483640515801
 23
149.7082631452195
 33
0.0
 14
87.01483640515802
 24
149.7082631452195
 34
0.0
100
AcDbRotatedDimension
  0
DIMENSION
  5
1416
330
21
100
AcDbEntity
  8
文字
100
AcDbDimension
280
     0
  2
*D3
 10
113.9925135737998
 20
79.70826314521943
 30
0.0
 11
112.1175135737998
 21
72.82037121208279
 31
0.0
 70
    32
  1
13
 71
     5
 42
-1.0
 73
     0
 74
     0
 75
     0
  3
ISO-25
100
AcDbAlignedDimension
 13
96.01483640515801
 23
65.93247927894612
 33
0.0
 14
90.55422841932744
 24
79.70826314521945
 34
0.0
 50
90.0
100
AcDbRotatedDimension
  0
DIMENSION
  5
1446
330
21
100
AcDbEntity
  8
文字
100
AcDbDimension
280
     0
  2
*D4
 10
82.01483640515798
 20
159.2030746370137
 30
0.0
 11
88.47316973849131
 21
161.0780746370137
 31
0.0
 70
    32
 71
     5
 42
-1.0
 73
     0
 74
     0
 75
     0
  3
ISO-25
100
AcDbAlignedDimension
 13
80.01483640515798
 23
151.7082631452195
 33
0.0
 14
82.01483640515798
 24
151.7082631452195
 34
0.0
100
AcDbRotatedDimension
  0
DIMENSION
  5
1462
330
21
100
AcDbEntity
  8
文字
100
AcDbDimension
280
     0
  2
*D5
 10
68.40536454991663
 20
149.7082631452195
 30
0.0
 11
66.53036454991661
 21
143.2499298118861
 31
0.0
 70
    32
 71
     5
 42
-1.0
 73
     0
 74
     0
 75
     0
  3
ISO-25
100
AcDbAlignedDimension
 13
80.01483640515798
 23
151.7082631452195
 33
0.0
 14
80.01483640515798
 24
149.7082631452195
 34
0.0
 50
90.0
100
AcDbRotatedDimension
  0
LEADER
  5
147E
330
21
100
AcDbEntity
  8
文字
100
AcDbLeader
  3
ISO-25
 73
     0
 40
2.6425
 41
5.625
 76
     3
 10
70.84092199704345
 20
76.27571381940105
 30
0.0
 10
57.59757760974357
 20
91.64289944609615
 30
0.0
 10
56.22757654573469
 20
91.64289944609615
 30
0.0
340
147F
1001
ACAD
1000
DSTYLE
1002
{
1070
   341
1005
0
1070
     5
1000

1070
   147
1040
0.625
1070
    77
1070
     1
1002
}
  0
MTEXT
  5
147F
102
{ACAD_REACTORS
330
147E
102
}
330
21
100
AcDbEntity
  8
文字
100
AcDbMText
 10
55.60257654573469
 20
92.26789944609615
 30
0.0
 40
2.5
 41
0.0
 46
0.0
 71
     9
 72
     1
  1
{\fArial|b0|i0|c0|p32;%%c20}
 73
     1
 44
1.0
  0
DIMENSION
  5
1480
330
21
100
AcDbEntity
  8
文字
100
AcDbDimension
280
     0
  2
*D6
 10
176.6507218605223
 20
33.32391270739907
 30
0.0
 11
165.6507218605223
 21
35.19891270739907
 31
0.0
 70
    32
  1
%%c<>
 71
     5
 42
-1.0
 73
     0
 74
     0
 75
     0
  3
ISO-25
100
AcDbAlignedDimension
 13
154.6507218605223
 23
65.93247927894612
 33
0.0
 14
176.6507218605223
 24
65.93247927894612
 34
0.0
100
AcDbRotatedDimension
  0
MTEXT
  5
14B4
330
21
100
AcDbEntity
  8
文字
100
AcDbMText
 10
127.5841542359041
 20
75.14853889856829
 30
0.0
 40
2.5
 41
0.0
 46
0.0
 71
     7
 72
     1
  1

 73
     1
 44
1.0
  0
LWPOLYLINE
  5
14BD
330
21
100
AcDbEntity
  8
実線
100
AcDbPolyline
 90
        3
 70
     0
 43
0.0
 10
87.01483640515802
 20
149.7082631452195
 10
85.01483640515801
 20
151.7082631452195
 10
82.01483640515798
 20
151.7082631452195
  0
MTEXT
  5
153B
330
21
100
AcDbEntity
  8
実線
100
AcDbMText
 10
123.288736678394
 20
64.71004953536703
 30
0.0
 40
2.5
 41
0.0
 46
0.0
 71
     7
 72
     1
  1

 73
     1
 44
1.0
  0
LEADER
  5
153E
102
{ACAD_XDICTIONARY
360
1540
102
}
330
21
100
AcDbEntity
  8
文字
100
AcDbLeader
  3
ISO-25
 73
     0
 74
     0
 40
4.868
 41
9.632
 76
     3
 10
81.01483640515801
 20
65.93247927894612
 30
0.0
 10
108.4502085600155
 20
50.34170514931384
 30
0.0
 10
110.645832426318
 20
50.34170514931384
 30
0.0
340
153F
1001
ACAD
1000
DSTYLE
1002
{
1070
   341
1005
0
1070
     5
1000

1070
   147
1040
0.625
1070
    77
1070
     1
1002
}
  0
MTEXT
  5
153F
102
{ACAD_REACTORS
330
153E
102
}
330
21
100
AcDbEntity
  8
文字
100
AcDbMText
 10
111.270832426318
 20
50.96670514931384
 30
0.0
 40
4.0
 41
0.0
 46
0.0
 71
     7
 72
     1
  1
＋付
 73
     1
 44
1.0
  0
LWPOLYLINE
  5
157A
330
21
100
AcDbEntity
  8
実線
100
AcDbPolyline
 90
        4
 70
     0
 43
0.0
 10
75.01483640515801
 20
149.7082631452195
 10
75.01483640515801
 20
79.70826314521945
 10
87.01483640515802
 20
79.70826314521945
 10
87.01483640515802
 20
149.7082631452195
  0
LINE
  5
159A
330
21
100
AcDbEntity
  8
実線
100
AcDbLine
 10
77.01483640515801
 20
151.7082631452195
 30
0.0
 11
77.01483640515801
 21
79.70826314521945
 31
0.0
  0
LINE
  5
159B
330
21
100
AcDbEntity
  8
実線
100
AcDbLine
 10
85.01483640515801
 20
151.7082631452195
 30
0.0
 11
85.01483640515801
 21
79.70826314521945
 31
0.0
  0
DIMENSION
  5
159D
330
21
100
AcDbEntity
  8
文字
100
AcDbDimension
280
     0
  2
*D7
 10
113.9925135737998
 20
79.70826314521943
 30
0.0
 11
112.1175135737998
 21
115.7082631452195
 31
0.0
 70
    32
 71
     5
 42
-1.0
 73
     0
 74
     0
 75
     0
  3
ISO-25
100
AcDbAlignedDimension
 13
85.01483640515801
 23
151.7082631452195
 33
0.0
 14
90.55422841932744
 24
79.70826314521945
 34
0.0
 50
90.0
100
AcDbRotatedDimension
  0
DIMENSION
  5
1658
330
21
100
AcDbEntity
  8
文字
100
AcDbDimension
280
     0
  2
*D8
 10
106.0796461816774
 20
72.70826314521943
 30
0.0
 11
104.2046461816774
 21
76.20826314521946
 31
0.0
 70
    32
 71
     5
 42
-1.0
 73
     0
 74
     0
 75
     0
  3
ISO-25
100
AcDbAlignedDimension
 13
90.55422841932747
 23
79.70826314521943
 33
0.0
 14
87.01483640515802
 24
72.70826314521945
 34
0.0
 50
90.0
100
AcDbRotatedDimension
  0
DIMENSION
  5
1670
330
21
100
AcDbEntity
  8
文字
100
AcDbDimension
280
     0
  2
*D9
 10
106.0796461816774
 20
65.93247927894612
 30
0.0
 11
104.2046461816774
 21
69.3203712120828
 31
0.0
 70
    32
  1
6
 71
     5
 42
-1.0
 73
     0
 74
     0
 75
     0
  3
ISO-25
100
AcDbAlignedDimension
 13
87.01483640515802
 23
72.70826314521945
 33
0.0
 14
96.01483640515801
 24
65.93247927894612
 34
0.0
 50
90.0
100
AcDbRotatedDimension
  0
MTEXT
  5
173A
330
21
100
AcDbEntity
  8
文字・寸法線
 62
     0
100
AcDbMText
 10
93.2861452444245
 20
183.6524247063665
 30
0.0
 40
6.0
 41
0.0
 46
6.0
 71
     9
 72
     1
  1
{\fＭＳ ゴシック|b0|i0|c0|p0;S-SC1 M12X85}
 73
     1
 44
1.0
1001
ACAD
1000
ACAD_MTEXT_DEFINED_HEIGHT_BEGIN
1070
    46
1040
6.0
1000
ACAD_MTEXT_DEFINED_HEIGHT_END
  0
ENDSEC
  0
SECTION
  2
OBJECTS
  0
DICTIONARY
  5
C
330
0
100
AcDbDictionary
281
     1
  3
ACAD_CIP_PREVIOUS_PRODUCT_INFO
350
1656
  3
ACAD_COLOR
350
1719
  3
ACAD_DETAILVIEWSTYLE
350
164B
  3
ACAD_GROUP
350
D
  3
ACAD_IMAGE_VARS
350
163D
  3
ACAD_LAYOUT
350
16E4
  3
ACAD_MATERIAL
350
1700
  3
ACAD_MLEADERSTYLE
350
170C
  3
ACAD_MLINESTYLE
350
17
  3
ACAD_PLOTSETTINGS
350
170F
  3
ACAD_PLOTSTYLENAME
350
1710
  3
ACAD_SCALELIST
350
16C2
  3
ACAD_SECTIONVIEWSTYLE
350
164C
  3
ACAD_TABLESTYLE
350
1704
  3
ACAD_VISUALSTYLE
350
16E7
  3
ACADDIM
350
6E9
  3
ACDB_RECOMPOSE_DATA
350
173D
  3
ACDBVARIABLEDICTIONARY
350
1642
  3
APPDATA
350
163B
  0
SUN
  5
1706
330
15FA
100
AcDbSun
 90
        1
290
     0
 63
     7
421
 16777215
 40
1.0
291
     1
 91
  2455826
 92
 54000000
292
     0
 70
     2
 71
   256
280
     1
  0
DICTIONARY
  5
16B7
330
2
100
AcDbDictionary
280
     1
281
     1
  3
ACAD_LAYERSTATES
360
16B8
  0
DICTIONARY
  5
1540
330
153E
100
AcDbDictionary
280
     1
281
     1
  0
XRECORD
  5
1656
102
{ACAD_REACTORS
330
C
102
}
330
C
100
AcDbXrecord
280
     1
300
ACDLT
300
2014
300
ACDLT_F_S
  0
DICTIONARY
  5
1719
102
{ACAD_REACTORS
330
C
102
}
330
C
100
AcDbDictionary
281
     1
  0
DICTIONARY
  5
164B
102
{ACAD_REACTORS
330
C
102
}
330
C
100
AcDbDictionary
281
     1
  3
METRIC50
350
1651
  0
DICTIONARY
  5
D
102
{ACAD_REACTORS
330
C
102
}
330
C
100
AcDbDictionary
281
     1
  0
RASTERVARIABLES
  5
163D
102
{ACAD_REACTORS
330
C
102
}
330
C
100
AcDbRasterVariables
 90
        0
 70
     1
 71
     1
 72
     1
  0
DICTIONARY
  5
16E4
102
{ACAD_REACTORS
330
C
102
}
330
C
100
AcDbDictionary
281
     1
  3
Model
350
16E5
  3
シート 1
350
16E6
  0
DICTIONARY
  5
1700
102
{ACAD_REACTORS
330
C
102
}
330
C
100
AcDbDictionary
281
     1
  3
ByBlock
350
1702
  3
ByLayer
350
1701
  3
Global
350
1703
  0
DICTIONARY
  5
170C
102
{ACAD_REACTORS
330
C
102
}
330
C
100
AcDbDictionary
281
     1
  0
DICTIONARY
  5
17
102
{ACAD_REACTORS
330
C
102
}
330
C
100
AcDbDictionary
281
     1
  3
STANDARD
350
18
  0
DICTIONARY
  5
170F
102
{ACAD_REACTORS
330
C
102
}
330
C
100
AcDbDictionary
281
     1
  0
ACDBDICTIONARYWDFLT
  5
1710
102
{ACAD_REACTORS
330
C
102
}
330
C
100
AcDbDictionary
281
     1
  3
Normal
350
1711
100
AcDbDictionaryWithDefault
340
1711
  0
DICTIONARY
  5
16C2
102
{ACAD_REACTORS
330
C
102
}
330
C
100
AcDbDictionary
281
     1
  3
A0
350
16C3
  3
A1
350
16C4
  3
A2
350
16C5
  3
A3
350
16C6
  3
A4
350
16C7
  3
A5
350
16C8
  3
A6
350
16C9
  3
A7
350
16CA
  3
A8
350
16CB
  3
A9
350
16CC
  3
B0
350
16CD
  3
B1
350
16CE
  3
B2
350
16CF
  3
B3
350
16D0
  3
B4
350
16D1
  3
B5
350
16D2
  3
B6
350
16D3
  3
B7
350
16D4
  3
B8
350
16D5
  3
B9
350
16D6
  3
C0
350
16D7
  3
C1
350
16D8
  3
C2
350
16D9
  3
C3
350
16DA
  3
C4
350
16DB
  3
C5
350
16DC
  3
C6
350
16DD
  3
C7
350
16DE
  3
C8
350
16DF
  3
C9
350
16E0
  3
D0
350
16E1
  3
D1
350
16E2
  3
D2
350
16E3
  0
DICTIONARY
  5
164C
102
{ACAD_REACTORS
330
C
102
}
330
C
100
AcDbDictionary
281
     1
  3
METRIC50
350
1650
  0
DICTIONARY
  5
1704
102
{ACAD_REACTORS
330
C
102
}
330
C
100
AcDbDictionary
281
     1
  3
Standard
350
1705
  0
DICTIONARY
  5
16E7
102
{ACAD_REACTORS
330
C
102
}
330
C
100
AcDbDictionary
281
     1
  3
2dWireframe
350
16EC
  3
Basic
350
16EF
  3
Brighten
350
16F3
  3
ColorChange
350
16F7
  3
Conceptual
350
16F1
  3
Dim
350
16F2
  3
EdgeColorOff
350
16FA
  3
Facepattern
350
16F6
  3
Flat
350
16E8
  3
FlatWithEdges
350
16E9
  3
Gouraud
350
16EA
  3
GouraudWithEdges
350
16EB
  3
Hidden
350
16EE
  3
JitterOff
350
16F8
  3
Linepattern
350
16F5
  3
OverhangOff
350
16F9
  3
Realistic
350
16F0
  3
Shaded
350
16FF
  3
Shaded with edges
350
16FE
  3
Shades of Gray
350
16FB
  3
Sketchy
350
16FC
  3
Thicken
350
16F4
  3
Wireframe
350
16ED
  3
X-Ray
350
16FD
  0
XRECORD
  5
6E9
102
{ACAD_REACTORS
330
C
102
}
330
C
100
AcDbXrecord
280
     1
 90
   990106
  3

 60
     0
 61
     0
 62
     1
 63
     3
 64
     1
 65
     0
 66
     0
 67
     3
 68
     1
 69
     0
 70
     0
 71
     0
 72
     0
 40
0.0
170
     2
340
153F
  0
XRECORD
  5
173D
102
{ACAD_REACTORS
330
C
102
}
330
C
100
AcDbXrecord
280
     1
 90
        1
330
1705
  0
DICTIONARY
  5
1642
102
{ACAD_REACTORS
330
C
102
}
330
C
100
AcDbDictionary
281
     1
  3
CANNOSCALE
350
1707
  3
CTABLESTYLE
350
170B
  3
MSLTSCALE
350
170D
  0
DICTIONARY
  5
163B
102
{ACAD_REACTORS
330
C
102
}
330
C
100
AcDbDictionary
281
     1
  0
DICTIONARY
  5
16B8
102
{ACAD_REACTORS
330
16B7
102
}
330
16B7
100
AcDbDictionary
281
     1
  0
ACAD_PROXY_OBJECT
  5
1651
102
{ACAD_REACTORS
330
164B
102
}
102
{ACAD_XDICTIONARY
360
169F
102
}
330
164B
100
AcDbProxyObject
 90
      499
 91
      512
 95
  3604511
 70
     0
162
              1030
311
42134019401D001C801A4018C00D400C0024DC9400F001700104018C0158018401C80080015801A4019401DC0110019401D0018401A401B00124019000F80094008000A0009400F001700104018C0158018401C80080015801A4019401DC014C018C018401B0019400800170019800800088009401CC01B8008800F8009400
311
A400
161
               603
310
9207000000180000000000000000A20403000000180000000000000000A2023300000018001000000180000000000000000A20400000000000017202028CC000000600023300000018000008
340
11
340
0
340
16
340
11
340
16
340
16
 94
        0
  0
LAYOUT
  5
16E5
102
{ACAD_REACTORS
330
16E4
102
}
330
16E4
100
AcDbPlotSettings
  1

  2
none_device
  4

  6

 40
0.0
 41
0.0
 42
0.0
 43
0.0
 44
0.0
 45
0.0
 46
0.0
 47
0.0
 48
0.0
 49
0.0
140
0.0
141
0.0
142
1.0
143
1.0
 70
  1712
 72
     1
 73
     0
 74
     0
  7

 75
     0
 76
     0
 77
     2
 78
   300
147
1.0
148
195.2744699566719
149
10.56402536907351
100
AcDbLayout
  1
Model
 70
     1
 71
     0
 10
0.0
 20
0.0
 11
420.0
 21
297.0
 12
0.0
 22
0.0
 32
0.0
 14
47.25414524442451
 24
32.07391270739907
 34
0.0
 15
185.6507218605223
 25
189.6524247063665
 35
0.0
146
0.0
 13
0.0
 23
0.0
 33
0.0
 16
1.0
 26
0.0
 36
0.0
 17
0.0
 27
1.0
 37
0.0
 76
     0
330
21
331
15FA
  0
LAYOUT
  5
16E6
102
{ACAD_REACTORS
330
16E4
102
}
330
16E4
100
AcDbPlotSettings
  1

  2
none_device
  4

  6

 40
0.0
 41
0.0
 42
0.0
 43
0.0
 44
0.0
 45
0.0
 46
0.0
 47
0.0
 48
0.0
 49
0.0
140
0.0
141
0.0
142
1.0
143
1.0
 70
   688
 72
     1
 73
     0
 74
     5
  7

 75
    16
 76
     0
 77
     2
 78
   300
147
1.0
148
0.0
149
0.0
100
AcDbLayout
  1
シート 1
 70
     0
 71
     1
 10
0.0
 20
0.0
 11
0.0
 21
0.0
 12
0.0
 22
0.0
 32
0.0
 14
1.000000000000000E+20
 24
1.000000000000000E+20
 34
1.000000000000000E+20
 15
-1.000000000000000E+20
 25
-1.000000000000000E+20
 35
-1.000000000000000E+20
146
0.0
 13
0.0
 23
0.0
 33
0.0
 16
1.0
 26
0.0
 36
0.0
 17
0.0
 27
1.0
 37
0.0
 76
     0
330
163E
  0
MATERIAL
  5
1702
102
{ACAD_REACTORS
330
1700
102
}
330
1700
100
AcDbMaterial
  1
ByBlock
 72
     1
 94
      127
  0
MATERIAL
  5
1701
102
{ACAD_REACTORS
330
1700
102
}
330
1700
100
AcDbMaterial
  1
ByLayer
 72
     1
 94
      127
  0
MATERIAL
  5
1703
102
{ACAD_REACTORS
330
1700
102
}
330
1700
100
AcDbMaterial
  1
Global
 72
     1
 94
      127
  0
MLINESTYLE
  5
18
102
{ACAD_REACTORS
330
17
102
}
330
17
100
AcDbMlineStyle
  2
STANDARD
 70
     0
  3

 62
   256
 51
90.0
 52
90.0
 71
     2
 49
0.5
 62
   256
  6
BYLAYER
 49
-0.5
 62
   256
  6
BYLAYER
  0
ACDBPLACEHOLDER
  5
1711
102
{ACAD_REACTORS
330
1710
102
}
330
1710
  0
SCALE
  5
16C3
102
{ACAD_REACTORS
330
16C2
102
}
330
16C2
100
AcDbScale
 70
     0
300
1:1
140
1.0
141
1.0
290
     1
  0
SCALE
  5
16C4
102
{ACAD_REACTORS
330
16C2
102
}
330
16C2
100
AcDbScale
 70
     0
300
1:2
140
1.0
141
2.0
290
     0
  0
SCALE
  5
16C5
102
{ACAD_REACTORS
330
16C2
102
}
330
16C2
100
AcDbScale
 70
     0
300
1:4
140
1.0
141
4.0
290
     0
  0
SCALE
  5
16C6
102
{ACAD_REACTORS
330
16C2
102
}
330
16C2
100
AcDbScale
 70
     0
300
1:5
140
1.0
141
5.0
290
     0
  0
SCALE
  5
16C7
102
{ACAD_REACTORS
330
16C2
102
}
330
16C2
100
AcDbScale
 70
     0
300
1:8
140
1.0
141
8.0
290
     0
  0
SCALE
  5
16C8
102
{ACAD_REACTORS
330
16C2
102
}
330
16C2
100
AcDbScale
 70
     0
300
1:10
140
1.0
141
10.0
290
     0
  0
SCALE
  5
16C9
102
{ACAD_REACTORS
330
16C2
102
}
330
16C2
100
AcDbScale
 70
     0
300
1:16
140
1.0
141
16.0
290
     0
  0
SCALE
  5
16CA
102
{ACAD_REACTORS
330
16C2
102
}
330
16C2
100
AcDbScale
 70
     0
300
1:20
140
1.0
141
20.0
290
     0
  0
SCALE
  5
16CB
102
{ACAD_REACTORS
330
16C2
102
}
330
16C2
100
AcDbScale
 70
     0
300
1:30
140
1.0
141
30.0
290
     0
  0
SCALE
  5
16CC
102
{ACAD_REACTORS
330
16C2
102
}
330
16C2
100
AcDbScale
 70
     0
300
1:40
140
1.0
141
40.0
290
     0
  0
SCALE
  5
16CD
102
{ACAD_REACTORS
330
16C2
102
}
330
16C2
100
AcDbScale
 70
     0
300
1:50
140
1.0
141
50.0
290
     0
  0
SCALE
  5
16CE
102
{ACAD_REACTORS
330
16C2
102
}
330
16C2
100
AcDbScale
 70
     0
300
1:100
140
1.0
141
100.0
290
     0
  0
SCALE
  5
16CF
102
{ACAD_REACTORS
330
16C2
102
}
330
16C2
100
AcDbScale
 70
     0
300
2:1
140
2.0
141
1.0
290
     0
  0
SCALE
  5
16D0
102
{ACAD_REACTORS
330
16C2
102
}
330
16C2
100
AcDbScale
 70
     0
300
4:1
140
4.0
141
1.0
290
     0
  0
SCALE
  5
16D1
102
{ACAD_REACTORS
330
16C2
102
}
330
16C2
100
AcDbScale
 70
     0
300
8:1
140
8.0
141
1.0
290
     0
  0
SCALE
  5
16D2
102
{ACAD_REACTORS
330
16C2
102
}
330
16C2
100
AcDbScale
 70
     0
300
10:1
140
10.0
141
1.0
290
     0
  0
SCALE
  5
16D3
102
{ACAD_REACTORS
330
16C2
102
}
330
16C2
100
AcDbScale
 70
     0
300
100:1
140
100.0
141
1.0
290
     0
  0
SCALE
  5
16D4
102
{ACAD_REACTORS
330
16C2
102
}
330
16C2
100
AcDbScale
 70
     0
300
1/128" = 1'-0"
140
0.0078125
141
12.0
290
     0
  0
SCALE
  5
16D5
102
{ACAD_REACTORS
330
16C2
102
}
330
16C2
100
AcDbScale
 70
     0
300
1/64" = 1'-0"
140
0.015625
141
12.0
290
     0
  0
SCALE
  5
16D6
102
{ACAD_REACTORS
330
16C2
102
}
330
16C2
100
AcDbScale
 70
     0
300
1/32" = 1'-0"
140
0.03125
141
12.0
290
     0
  0
SCALE
  5
16D7
102
{ACAD_REACTORS
330
16C2
102
}
330
16C2
100
AcDbScale
 70
     0
300
1/16" = 1'-0"
140
0.0625
141
12.0
290
     0
  0
SCALE
  5
16D8
102
{ACAD_REACTORS
330
16C2
102
}
330
16C2
100
AcDbScale
 70
     0
300
3/32" = 1'-0"
140
0.09375
141
12.0
290
     0
  0
SCALE
  5
16D9
102
{ACAD_REACTORS
330
16C2
102
}
330
16C2
100
AcDbScale
 70
     0
300
1/8" = 1'-0"
140
0.125
141
12.0
290
     0
  0
SCALE
  5
16DA
102
{ACAD_REACTORS
330
16C2
102
}
330
16C2
100
AcDbScale
 70
     0
300
3/16" = 1'-0"
140
0.1875
141
12.0
290
     0
  0
SCALE
  5
16DB
102
{ACAD_REACTORS
330
16C2
102
}
330
16C2
100
AcDbScale
 70
     0
300
1/4" = 1'-0"
140
0.25
141
12.0
290
     0
  0
SCALE
  5
16DC
102
{ACAD_REACTORS
330
16C2
102
}
330
16C2
100
AcDbScale
 70
     0
300
3/8" = 1'-0"
140
0.375
141
12.0
290
     0
  0
SCALE
  5
16DD
102
{ACAD_REACTORS
330
16C2
102
}
330
16C2
100
AcDbScale
 70
     0
300
1/2" = 1'-0"
140
0.5
141
12.0
290
     0
  0
SCALE
  5
16DE
102
{ACAD_REACTORS
330
16C2
102
}
330
16C2
100
AcDbScale
 70
     0
300
3/4" = 1'-0"
140
0.75
141
12.0
290
     0
  0
SCALE
  5
16DF
102
{ACAD_REACTORS
330
16C2
102
}
330
16C2
100
AcDbScale
 70
     0
300
1" = 1'-0"
140
1.0
141
12.0
290
     0
  0
SCALE
  5
16E0
102
{ACAD_REACTORS
330
16C2
102
}
330
16C2
100
AcDbScale
 70
     0
300
1-1/2" = 1'-0"
140
1.5
141
12.0
290
     0
  0
SCALE
  5
16E1
102
{ACAD_REACTORS
330
16C2
102
}
330
16C2
100
AcDbScale
 70
     0
300
3" = 1'-0"
140
3.0
141
12.0
290
     0
  0
SCALE
  5
16E2
102
{ACAD_REACTORS
330
16C2
102
}
330
16C2
100
AcDbScale
 70
     0
300
6" = 1'-0"
140
6.0
141
12.0
290
     0
  0
SCALE
  5
16E3
102
{ACAD_REACTORS
330
16C2
102
}
330
16C2
100
AcDbScale
 70
     0
300
1'-0" = 1'-0"
140
12.0
141
12.0
290
     0
  0
ACAD_PROXY_OBJECT
  5
1650
102
{ACAD_REACTORS
330
164C
102
}
102
{ACAD_XDICTIONARY
360
169D
102
}
330
164C
100
AcDbProxyObject
 90
      499
 91
      511
 95
  3604511
 70
     0
162
              1944
311
42134019401D001C801A4018C00D400C0011049002C0020004F002C00200051002C00200053002C00200058002C0020005A005649400F001700104018C0158018401C80080015801A4019401DC014C0194018C01D001A401BC01B8014C01D0018401C801D00124019000F8009400B4009400F001700104018C0158018401C8
311
0080015801A4019401DC014C0194018C01D001A401BC01B8011401B801900124019000F80094008000A0009400F001700104018C0158018401C80080015801A4019401DC014C018C018401B0019400800170019800800088009401CC01B8008800F8009400A4010641004E005300490033003100
161
              1301
310
92CD000000180000000000000000A2040000006000000000000000028800000000000001220233000000180009940000006000000000000000028800000000000000A20400000060000000000000000288100000000000005C8080C0000006000400000064003100000000000000881000000000000008808340C16A22A7D9
310
0FC9F8CAE65A70A583A07E1FE81C635378FA1F8CAE65A70A583A17E7944A7F127A97E9FA
340
11
340
0
340
0
340
16
340
16
340
11
 94
        0
  0
TABLESTYLE
  5
1705
102
{ACAD_REACTORS
330
1704
102
}
102
{ACAD_XDICTIONARY
360
173B
102
}
330
1704
100
AcDbTableStyle
  3
Standard
 70
     0
 71
     0
 40
0.06
 41
0.06
280
     0
281
     0
  7
STANDARD
140
4.5
170
     2
 62
     0
 63
   257
283
     0
 90
        4
 91
        0
  1

274
    -2
284
     1
 64
     0
275
    -2
285
     1
 65
     0
276
    -2
286
     1
 66
     0
277
    -2
287
     1
 67
     0
278
    -2
288
     1
 68
     0
279
    -2
289
     1
 69
     0
  7
STANDARD
140
6.0
170
     5
 62
     0
 63
   257
283
     0
 90
        4
 91
        0
  1

274
    -2
284
     1
 64
     0
275
    -2
285
     1
 65
     0
276
    -2
286
     1
 66
     0
277
    -2
287
     1
 67
     0
278
    -2
288
     1
 68
     0
279
    -2
289
     1
 69
     0
  7
STANDARD
140
4.5
170
     5
 62
     0
 63
   257
283
     0
 90
        4
 91
        0
  1

274
    -2
284
     1
 64
     0
275
    -2
285
     1
 65
     0
276
    -2
286
     1
 66
     0
277
    -2
287
     1
 67
     0
278
    -2
288
     1
 68
     0
279
    -2
289
     1
 69
     0
  0
VISUALSTYLE
  5
16EC
102
{ACAD_REACTORS
330
16E7
102
}
330
16E7
100
AcDbVisualStyle
  2
2dWireframe
 70
     4
177
     3
291
     0
 70
    58
 90
        0
176
     1
 90
        2
176
     1
 90
        0
176
     1
 90
        0
176
     1
 40
0.6
176
     1
 40
30.0
176
     1
 62
     7
420
 16777215
176
     1
 90
        1
176
     1
 90
        4
176
     1
 62
     7
176
     1
 62
   257
176
     1
 90
        1
176
     1
 90
        1
176
     1
 40
1.0
176
     1
 90
        0
176
     1
 62
   257
176
     1
 40
1.0
176
     1
 90
        1
176
     1
 90
        6
176
     1
 90
        2
176
     1
 62
     7
176
     1
 90
        5
176
     1
 90
        0
176
     1
 90
        0
176
     1
290
     0
176
     1
 90
        1
176
     1
 40
0.0
176
     1
 90
        0
176
     1
290
     1
176
     1
290
     1
176
     1
290
     0
176
     1
290
     0
176
     1
290
     0
176
     1
290
     0
176
     1
290
     0
176
     1
290
     0
176
     1
290
     0
176
     1
 90
       50
176
     1
 40
0.0
176
     1
 40
1.0
176
     1
 90
        0
176
     1
 62
    18
420
        0
176
     1
 90
       50
176
     1
 90
        3
176
     1
 62
     5
420
      255
176
     1
290
     0
176
     1
 90
       50
176
     1
 90
       50
176
     1
 90
       50
176
     1
290
     0
176
     1
 90
       50
176
     1
 62
   256
176
     0
 40
1.0
176
     0
 90
        2
176
     1
  1
strokes_ogs.tif
176
     1
290
     0
176
     1
 40
1.0
176
     1
 40
1.0
176
     1
  0
VISUALSTYLE
  5
16EF
102
{ACAD_REACTORS
330
16E7
102
}
330
16E7
100
AcDbVisualStyle
  2
Basic
 70
     7
177
     3
291
     1
 70
    58
 90
        1
176
     1
 90
        0
176
     1
 90
        1
176
     1
 90
        0
176
     1
 40
0.6
176
     1
 40
30.0
176
     1
 62
     7
420
 16777215
176
     1
 90
        0
176
     1
 90
        4
176
     1
 62
     7
176
     1
 62
   257
176
     1
 90
        1
176
     1
 90
        1
176
     1
 40
1.0
176
     1
 90
        8
176
     1
 62
     7
176
     1
 40
1.0
176
     1
 90
        1
176
     1
 90
        6
176
     1
 90
        2
176
     1
 62
     7
176
     1
 90
        5
176
     1
 90
        0
176
     1
 90
        0
176
     1
290
     0
176
     1
 90
        1
176
     1
 40
0.0
176
     1
 90
        0
176
     1
290
     0
176
     1
290
     1
176
     1
290
     1
176
     1
290
     0
176
     1
290
     0
176
     1
290
     0
176
     1
290
     0
176
     1
290
     0
176
     1
290
     0
176
     1
 90
       50
176
     1
 40
0.0
176
     1
 40
1.0
176
     1
 90
        0
176
     1
 62
    18
420
        0
176
     1
 90
       50
176
     1
 90
        3
176
     1
 62
     5
420
      255
176
     1
290
     0
176
     1
 90
       50
176
     1
 90
       50
176
     1
 90
       50
176
     1
290
     0
176
     1
 90
       50
176
     1
 62
   256
176
     0
 40
1.0
176
     0
 90
        2
176
     1
  1
strokes_ogs.tif
176
     1
290
     0
176
     1
 40
1.0
176
     1
 40
1.0
176
     1
  0
VISUALSTYLE
  5
16F3
102
{ACAD_REACTORS
330
16E7
102
}
330
16E7
100
AcDbVisualStyle
  2
Brighten
 70
    12
177
     3
291
     1
 70
    58
 90
        2
176
     1
 90
        2
176
     1
 90
        0
176
     1
 90
        0
176
     1
 40
0.6
176
     1
 40
30.0
176
     1
 62
     7
420
 16777215
176
     1
 90
        1
176
     1
 90
        4
176
     1
 62
     7
176
     1
 62
   257
176
     1
 90
        1
176
     1
 90
        1
176
     1
 40
1.0
176
     1
 90
        8
176
     1
 62
     7
176
     1
 40
1.0
176
     1
 90
        1
176
     1
 90
        6
176
     1
 90
        2
176
     1
 62
     7
176
     1
 90
        5
176
     1
 90
        0
176
     1
 90
        0
176
     1
290
     0
176
     1
 90
        1
176
     1
 40
50.0
176
     1
 90
        0
176
     1
290
     0
176
     1
290
     1
176
     1
290
     1
176
     1
290
     0
176
     1
290
     0
176
     1
290
     0
176
     1
290
     0
176
     1
290
     0
176
     1
290
     0
176
     1
 90
       50
176
     1
 40
0.0
176
     1
 40
1.0
176
     1
 90
        0
176
     1
 62
    18
420
        0
176
     1
 90
       50
176
     1
 90
        3
176
     1
 62
     5
420
      255
176
     1
290
     0
176
     1
 90
       50
176
     1
 90
       50
176
     1
 90
       50
176
     1
290
     0
176
     1
 90
       50
176
     1
 62
   256
176
     0
 40
1.0
176
     0
 90
        2
176
     1
  1
strokes_ogs.tif
176
     1
290
     0
176
     1
 40
1.0
176
     1
 40
1.0
176
     1
  0
VISUALSTYLE
  5
16F7
102
{ACAD_REACTORS
330
16E7
102
}
330
16E7
100
AcDbVisualStyle
  2
ColorChange
 70
    16
177
     3
291
     1
 70
    58
 90
        2
176
     1
 90
        2
176
     1
 90
        3
176
     1
 90
        0
176
     1
 40
0.6
176
     1
 40
30.0
176
     1
 62
     8
420
  8421504
176
     1
 90
        1
176
     1
 90
        4
176
     1
 62
     7
176
     1
 62
   257
176
     1
 90
        1
176
     1
 90
        1
176
     1
 40
1.0
176
     1
 90
        8
176
     1
 62
     8
420
  8421504
176
     1
 40
1.0
176
     1
 90
        1
176
     1
 90
        6
176
     1
 90
        2
176
     1
 62
     7
176
     1
 90
        5
176
     1
 90
        0
176
     1
 90
        0
176
     1
290
     0
176
     1
 90
        1
176
     1
 40
0.0
176
     1
 90
        0
176
     1
290
     0
176
     1
290
     1
176
     1
290
     1
176
     1
290
     0
176
     1
290
     0
176
     1
290
     0
176
     1
290
     0
176
     1
290
     0
176
     1
290
     0
176
     1
 90
       50
176
     1
 40
0.0
176
     1
 40
1.0
176
     1
 90
        0
176
     1
 62
    18
420
        0
176
     1
 90
       50
176
     1
 90
        3
176
     1
 62
     5
420
      255
176
     1
290
     0
176
     1
 90
       50
176
     1
 90
       50
176
     1
 90
       50
176
     1
290
     0
176
     1
 90
       50
176
     1
 62
   256
176
     0
 40
1.0
176
     0
 90
        2
176
     1
  1
strokes_ogs.tif
176
     1
290
     0
176
     1
 40
1.0
176
     1
 40
1.0
176
     1
  0
VISUALSTYLE
  5
16F1
102
{ACAD_REACTORS
330
16E7
102
}
330
16E7
100
AcDbVisualStyle
  2
Conceptual
 70
     9
177
     3
291
     0
 70
    58
 90
        3
176
     1
 90
        2
176
     1
 90
        0
176
     1
 90
        0
176
     1
 40
0.6
176
     1
 40
30.0
176
     1
 62
     7
420
 16777215
176
     1
 90
        2
176
     1
 90
        2
176
     1
 62
     7
176
     1
 62
   257
176
     1
 90
        1
176
     1
 90
        1
176
     1
 40
179.0
176
     1
 90
        8
176
     1
 62
     7
176
     1
 40
1.0
176
     1
 90
        1
176
     1
 90
        6
176
     1
 90
        2
176
     1
 62
     7
176
     1
 90
        3
176
     1
 90
        0
176
     1
 90
        0
176
     1
290
     0
176
     1
 90
        1
176
     1
 40
0.0
176
     1
 90
        0
176
     1
290
     0
176
     1
290
     1
176
     1
290
     1
176
     1
290
     0
176
     1
290
     0
176
     1
290
     0
176
     1
290
     0
176
     1
290
     0
176
     1
290
     0
176
     1
 90
       50
176
     1
 40
0.0
176
     1
 40
1.0
176
     1
 90
        0
176
     1
 62
    18
420
        0
176
     1
 90
       50
176
     1
 90
        3
176
     1
 62
     5
420
      255
176
     1
290
     0
176
     1
 90
       50
176
     1
 90
       50
176
     1
 90
       50
176
     1
290
     0
176
     1
 90
       50
176
     1
 62
   256
176
     0
 40
1.0
176
     0
 90
        2
176
     1
  1
strokes_ogs.tif
176
     1
290
     0
176
     1
 40
1.0
176
     1
 40
1.0
176
     1
  0
VISUALSTYLE
  5
16F2
102
{ACAD_REACTORS
330
16E7
102
}
330
16E7
100
AcDbVisualStyle
  2
Dim
 70
    11
177
     3
291
     1
 70
    58
 90
        2
176
     1
 90
        2
176
     1
 90
        0
176
     1
 90
        0
176
     1
 40
0.6
176
     1
 40
30.0
176
     1
 62
     7
420
 16777215
176
     1
 90
        1
176
     1
 90
        4
176
     1
 62
     7
176
     1
 62
   257
176
     1
 90
        1
176
     1
 90
        1
176
     1
 40
1.0
176
     1
 90
        8
176
     1
 62
     7
176
     1
 40
1.0
176
     1
 90
        1
176
     1
 90
        6
176
     1
 90
        2
176
     1
 62
     7
176
     1
 90
        5
176
     1
 90
        0
176
     1
 90
        0
176
     1
290
     0
176
     1
 90
        1
176
     1
 40
-50.0
176
     1
 90
        0
176
     1
290
     0
176
     1
290
     1
176
     1
290
     1
176
     1
290
     0
176
     1
290
     0
176
     1
290
     0
176
     1
290
     0
176
     1
290
     0
176
     1
290
     0
176
     1
 90
       50
176
     1
 40
0.0
176
     1
 40
1.0
176
     1
 90
        0
176
     1
 62
    18
420
        0
176
     1
 90
       50
176
     1
 90
        3
176
     1
 62
     5
420
      255
176
     1
290
     0
176
     1
 90
       50
176
     1
 90
       50
176
     1
 90
       50
176
     1
290
     0
176
     1
 90
       50
176
     1
 62
   256
176
     0
 40
1.0
176
     0
 90
        2
176
     1
  1
strokes_ogs.tif
176
     1
290
     0
176
     1
 40
1.0
176
     1
 40
1.0
176
     1
  0
VISUALSTYLE
  5
16FA
102
{ACAD_REACTORS
330
16E7
102
}
330
16E7
100
AcDbVisualStyle
  2
EdgeColorOff
 70
    22
177
     3
291
     1
 70
    58
 90
        2
176
     0
 90
        2
176
     0
 90
        0
176
     0
 90
        0
176
     0
 40
0.6
176
     0
 40
30.0
176
     0
 62
     7
420
 16777215
176
     0
 90
        1
176
     0
 90
        4
176
     0
 62
     7
176
     0
 62
   257
176
     0
 90
        1
176
     0
 90
        1
176
     0
 40
1.0
176
     0
 90
        8
176
     2
 62
     7
176
     0
 40
1.0
176
     0
 90
        1
176
     0
 90
        6
176
     0
 90
        2
176
     0
 62
     7
176
     0
 90
        5
176
     0
 90
        0
176
     0
 90
        0
176
     0
290
     0
176
     0
 90
        1
176
     0
 40
0.0
176
     0
 90
        0
176
     0
290
     0
176
     0
290
     1
176
     0
290
     1
176
     0
290
     0
176
     0
290
     0
176
     0
290
     0
176
     0
290
     0
176
     0
290
     0
176
     0
290
     0
176
     0
 90
       50
176
     0
 40
0.0
176
     0
 40
1.0
176
     0
 90
        0
176
     0
 62
    18
420
        0
176
     0
 90
       50
176
     0
 90
        3
176
     0
 62
     5
420
      255
176
     0
290
     0
176
     0
 90
       50
176
     0
 90
       50
176
     0
 90
       50
176
     0
290
     0
176
     0
 90
       50
176
     0
 62
   256
176
     0
 40
1.0
176
     0
 90
        2
176
     0
  1
strokes_ogs.tif
176
     0
290
     0
176
     0
 40
1.0
176
     0
 40
1.0
176
     0
  0
VISUALSTYLE
  5
16F6
102
{ACAD_REACTORS
330
16E7
102
}
330
16E7
100
AcDbVisualStyle
  2
Facepattern
 70
    15
177
     3
291
     1
 70
    58
 90
        2
176
     1
 90
        2
176
     1
 90
        0
176
     1
 90
        0
176
     1
 40
0.6
176
     1
 40
30.0
176
     1
 62
     7
420
 16777215
176
     1
 90
        1
176
     1
 90
        4
176
     1
 62
     7
176
     1
 62
   257
176
     1
 90
        1
176
     1
 90
        1
176
     1
 40
1.0
176
     1
 90
        8
176
     1
 62
     7
176
     1
 40
1.0
176
     1
 90
        1
176
     1
 90
        6
176
     1
 90
        2
176
     1
 62
     7
176
     1
 90
        5
176
     1
 90
        0
176
     1
 90
        0
176
     1
290
     0
176
     1
 90
        1
176
     1
 40
0.0
176
     1
 90
        0
176
     1
290
     0
176
     1
290
     1
176
     1
290
     1
176
     1
290
     0
176
     1
290
     0
176
     1
290
     0
176
     1
290
     0
176
     1
290
     0
176
     1
290
     0
176
     1
 90
       50
176
     1
 40
0.0
176
     1
 40
1.0
176
     1
 90
        0
176
     1
 62
    18
420
        0
176
     1
 90
       50
176
     1
 90
        3
176
     1
 62
     5
420
      255
176
     1
290
     0
176
     1
 90
       50
176
     1
 90
       50
176
     1
 90
       50
176
     1
290
     0
176
     1
 90
       50
176
     1
 62
   256
176
     0
 40
1.0
176
     0
 90
        2
176
     1
  1
strokes_ogs.tif
176
     1
290
     0
176
     1
 40
1.0
176
     1
 40
1.0
176
     1
  0
VISUALSTYLE
  5
16E8
102
{ACAD_REACTORS
330
16E7
102
}
330
16E7
100
AcDbVisualStyle
  2
Flat
 70
     0
177
     3
291
     1
 70
    58
 90
        2
176
     1
 90
        1
176
     1
 90
        1
176
     1
 90
        2
176
     1
 40
0.6
176
     1
 40
30.0
176
     1
 62
     7
420
 16777215
176
     1
 90
        0
176
     1
 90
        0
176
     1
 62
     7
176
     1
 62
   257
176
     1
 90
        1
176
     1
 90
        1
176
     1
 40
1.0
176
     1
 90
        8
176
     1
 62
     7
176
     1
 40
1.0
176
     1
 90
        1
176
     1
 90
        6
176
     1
 90
        2
176
     1
 62
     7
176
     1
 90
        5
176
     1
 90
        0
176
     1
 90
        0
176
     1
290
     0
176
     1
 90
       13
176
     1
 40
0.0
176
     1
 90
        0
176
     1
290
     0
176
     1
290
     1
176
     1
290
     1
176
     1
290
     0
176
     1
290
     0
176
     1
290
     0
176
     1
290
     0
176
     1
290
     0
176
     1
290
     0
176
     1
 90
       50
176
     1
 40
0.0
176
     1
 40
1.0
176
     1
 90
        0
176
     1
 62
    18
420
        0
176
     1
 90
       50
176
     1
 90
        3
176
     1
 62
     5
420
      255
176
     1
290
     0
176
     1
 90
       50
176
     1
 90
       50
176
     1
 90
       50
176
     1
290
     0
176
     1
 90
       50
176
     1
 62
   256
176
     0
 40
1.0
176
     0
 90
        2
176
     1
  1
strokes_ogs.tif
176
     1
290
     0
176
     1
 40
1.0
176
     1
 40
1.0
176
     1
  0
VISUALSTYLE
  5
16E9
102
{ACAD_REACTORS
330
16E7
102
}
330
16E7
100
AcDbVisualStyle
  2
FlatWithEdges
 70
     1
177
     3
291
     1
 70
    58
 90
        2
176
     1
 90
        1
176
     1
 90
        1
176
     1
 90
        2
176
     1
 40
0.6
176
     1
 40
30.0
176
     1
 62
     7
420
 16777215
176
     1
 90
        1
176
     1
 90
        0
176
     1
 62
     7
176
     1
 62
   257
176
     1
 90
        1
176
     1
 90
        1
176
     1
 40
1.0
176
     1
 90
        0
176
     1
 62
   257
176
     1
 40
1.0
176
     1
 90
        1
176
     1
 90
        6
176
     1
 90
        2
176
     1
 62
     7
176
     1
 90
        5
176
     1
 90
        0
176
     1
 90
        0
176
     1
290
     0
176
     1
 90
       13
176
     1
 40
0.0
176
     1
 90
        0
176
     1
290
     0
176
     1
290
     1
176
     1
290
     1
176
     1
290
     0
176
     1
290
     0
176
     1
290
     0
176
     1
290
     0
176
     1
290
     0
176
     1
290
     0
176
     1
 90
       50
176
     1
 40
0.0
176
     1
 40
1.0
176
     1
 90
        0
176
     1
 62
    18
420
        0
176
     1
 90
       50
176
     1
 90
        3
176
     1
 62
     5
420
      255
176
     1
290
     0
176
     1
 90
       50
176
     1
 90
       50
176
     1
 90
       50
176
     1
290
     0
176
     1
 90
       50
176
     1
 62
   256
176
     0
 40
1.0
176
     0
 90
        2
176
     1
  1
strokes_ogs.tif
176
     1
290
     0
176
     1
 40
1.0
176
     1
 40
1.0
176
     1
  0
VISUALSTYLE
  5
16EA
102
{ACAD_REACTORS
330
16E7
102
}
330
16E7
100
AcDbVisualStyle
  2
Gouraud
 70
     2
177
     3
291
     1
 70
    58
 90
        2
176
     1
 90
        2
176
     1
 90
        1
176
     1
 90
        2
176
     1
 40
0.6
176
     1
 40
30.0
176
     1
 62
     7
420
 16777215
176
     1
 90
        0
176
     1
 90
        0
176
     1
 62
     7
176
     1
 62
   257
176
     1
 90
        1
176
     1
 90
        1
176
     1
 40
1.0
176
     1
 90
        0
176
     1
 62
     7
176
     1
 40
1.0
176
     1
 90
        1
176
     1
 90
        6
176
     1
 90
        2
176
     1
 62
     7
176
     1
 90
        5
176
     1
 90
        0
176
     1
 90
        0
176
     1
290
     0
176
     1
 90
       13
176
     1
 40
0.0
176
     1
 90
        0
176
     1
290
     0
176
     1
290
     1
176
     1
290
     1
176
     1
290
     0
176
     1
290
     0
176
     1
290
     0
176
     1
290
     0
176
     1
290
     0
176
     1
290
     0
176
     1
 90
       50
176
     1
 40
0.0
176
     1
 40
1.0
176
     1
 90
        0
176
     1
 62
    18
420
        0
176
     1
 90
       50
176
     1
 90
        3
176
     1
 62
     5
420
      255
176
     1
290
     0
176
     1
 90
       50
176
     1
 90
       50
176
     1
 90
       50
176
     1
290
     0
176
     1
 90
       50
176
     1
 62
   256
176
     0
 40
1.0
176
     0
 90
        2
176
     1
  1
strokes_ogs.tif
176
     1
290
     0
176
     1
 40
1.0
176
     1
 40
1.0
176
     1
  0
VISUALSTYLE
  5
16EB
102
{ACAD_REACTORS
330
16E7
102
}
330
16E7
100
AcDbVisualStyle
  2
GouraudWithEdges
 70
     3
177
     3
291
     1
 70
    58
 90
        2
176
     1
 90
        2
176
     1
 90
        1
176
     1
 90
        2
176
     1
 40
0.6
176
     1
 40
30.0
176
     1
 62
     7
420
 16777215
176
     1
 90
        1
176
     1
 90
        0
176
     1
 62
     7
176
     1
 62
   257
176
     1
 90
        1
176
     1
 90
        1
176
     1
 40
1.0
176
     1
 90
        0
176
     1
 62
   257
176
     1
 40
1.0
176
     1
 90
        1
176
     1
 90
        6
176
     1
 90
        2
176
     1
 62
     7
176
     1
 90
        5
176
     1
 90
        0
176
     1
 90
        0
176
     1
290
     0
176
     1
 90
       13
176
     1
 40
0.0
176
     1
 90
        0
176
     1
290
     0
176
     1
290
     1
176
     1
290
     1
176
     1
290
     0
176
     1
290
     0
176
     1
290
     0
176
     1
290
     0
176
     1
290
     0
176
     1
290
     0
176
     1
 90
       50
176
     1
 40
0.0
176
     1
 40
1.0
176
     1
 90
        0
176
     1
 62
    18
420
        0
176
     1
 90
       50
176
     1
 90
        3
176
     1
 62
     5
420
      255
176
     1
290
     0
176
     1
 90
       50
176
     1
 90
       50
176
     1
 90
       50
176
     1
290
     0
176
     1
 90
       50
176
     1
 62
   256
176
     0
 40
1.0
176
     0
 90
        2
176
     1
  1
strokes_ogs.tif
176
     1
290
     0
176
     1
 40
1.0
176
     1
 40
1.0
176
     1
  0
VISUALSTYLE
  5
16EE
102
{ACAD_REACTORS
330
16E7
102
}
330
16E7
100
AcDbVisualStyle
  2
Hidden
 70
     6
177
     3
291
     0
 70
    58
 90
        1
176
     1
 90
        2
176
     1
 90
        2
176
     1
 90
        0
176
     1
 40
0.6
176
     1
 40
30.0
176
     1
 62
     7
420
 16777215
176
     1
 90
        2
176
     1
 90
        2
176
     1
 62
     7
176
     1
 62
   257
176
     1
 90
        2
176
     1
 90
        1
176
     1
 40
40.0
176
     1
 90
        0
176
     1
 62
   257
176
     1
 40
1.0
176
     1
 90
        1
176
     1
 90
        6
176
     1
 90
        2
176
     1
 62
     7
176
     1
 90
        3
176
     1
 90
        0
176
     1
 90
        0
176
     1
290
     0
176
     1
 90
        1
176
     1
 40
0.0
176
     1
 90
        0
176
     1
290
     0
176
     1
290
     1
176
     1
290
     1
176
     1
290
     0
176
     1
290
     0
176
     1
290
     0
176
     1
290
     0
176
     1
290
     0
176
     1
290
     0
176
     1
 90
       50
176
     1
 40
0.0
176
     1
 40
1.0
176
     1
 90
        0
176
     1
 62
    18
420
        0
176
     1
 90
       50
176
     1
 90
        3
176
     1
 62
     5
420
      255
176
     1
290
     0
176
     1
 90
       50
176
     1
 90
       50
176
     1
 90
       50
176
     1
290
     0
176
     1
 90
       50
176
     1
 62
   256
176
     0
 40
1.0
176
     0
 90
        2
176
     1
  1
strokes_ogs.tif
176
     1
290
     0
176
     1
 40
1.0
176
     1
 40
1.0
176
     1
  0
VISUALSTYLE
  5
16F8
102
{ACAD_REACTORS
330
16E7
102
}
330
16E7
100
AcDbVisualStyle
  2
JitterOff
 70
    20
177
     3
291
     1
 70
    58
 90
        2
176
     0
 90
        2
176
     0
 90
        0
176
     0
 90
        0
176
     0
 40
0.6
176
     0
 40
30.0
176
     0
 62
     7
420
 16777215
176
     0
 90
        1
176
     0
 90
        4
176
     0
 62
     7
176
     0
 62
   257
176
     0
 90
        1
176
     0
 90
        1
176
     0
 40
1.0
176
     0
 90
       10
176
     2
 62
     7
176
     0
 40
1.0
176
     0
 90
        1
176
     0
 90
        6
176
     0
 90
        2
176
     0
 62
     7
176
     0
 90
        5
176
     0
 90
        0
176
     0
 90
        0
176
     0
290
     0
176
     0
 90
        1
176
     0
 40
0.0
176
     0
 90
        0
176
     0
290
     0
176
     0
290
     1
176
     0
290
     1
176
     0
290
     0
176
     0
290
     0
176
     0
290
     0
176
     0
290
     0
176
     0
290
     0
176
     0
290
     0
176
     0
 90
       50
176
     0
 40
0.0
176
     0
 40
1.0
176
     0
 90
        0
176
     0
 62
    18
420
        0
176
     0
 90
       50
176
     0
 90
        3
176
     0
 62
     5
420
      255
176
     0
290
     0
176
     0
 90
       50
176
     0
 90
       50
176
     0
 90
       50
176
     0
290
     0
176
     0
 90
       50
176
     0
 62
   256
176
     0
 40
1.0
176
     0
 90
        2
176
     0
  1
strokes_ogs.tif
176
     0
290
     0
176
     0
 40
1.0
176
     0
 40
1.0
176
     0
  0
VISUALSTYLE
  5
16F5
102
{ACAD_REACTORS
330
16E7
102
}
330
16E7
100
AcDbVisualStyle
  2
Linepattern
 70
    14
177
     3
291
     1
 70
    58
 90
        2
176
     1
 90
        2
176
     1
 90
        0
176
     1
 90
        0
176
     1
 40
0.6
176
     1
 40
30.0
176
     1
 62
     7
420
 16777215
176
     1
 90
        1
176
     1
 90
        4
176
     1
 62
     7
176
     1
 62
   257
176
     1
 90
        7
176
     1
 90
        7
176
     1
 40
1.0
176
     1
 90
        8
176
     1
 62
     7
176
     1
 40
1.0
176
     1
 90
        1
176
     1
 90
        6
176
     1
 90
        2
176
     1
 62
     7
176
     1
 90
        5
176
     1
 90
        0
176
     1
 90
        0
176
     1
290
     0
176
     1
 90
        1
176
     1
 40
0.0
176
     1
 90
        0
176
     1
290
     0
176
     1
290
     1
176
     1
290
     1
176
     1
290
     0
176
     1
290
     0
176
     1
290
     0
176
     1
290
     0
176
     1
290
     0
176
     1
290
     0
176
     1
 90
       50
176
     1
 40
0.0
176
     1
 40
1.0
176
     1
 90
        0
176
     1
 62
    18
420
        0
176
     1
 90
       50
176
     1
 90
        3
176
     1
 62
     5
420
      255
176
     1
290
     0
176
     1
 90
       50
176
     1
 90
       50
176
     1
 90
       50
176
     1
290
     0
176
     1
 90
       50
176
     1
 62
   256
176
     0
 40
1.0
176
     0
 90
        2
176
     1
  1
strokes_ogs.tif
176
     1
290
     0
176
     1
 40
1.0
176
     1
 40
1.0
176
     1
  0
VISUALSTYLE
  5
16F9
102
{ACAD_REACTORS
330
16E7
102
}
330
16E7
100
AcDbVisualStyle
  2
OverhangOff
 70
    21
177
     3
291
     1
 70
    58
 90
        2
176
     0
 90
        2
176
     0
 90
        0
176
     0
 90
        0
176
     0
 40
0.6
176
     0
 40
30.0
176
     0
 62
     7
420
 16777215
176
     0
 90
        1
176
     0
 90
        4
176
     0
 62
     7
176
     0
 62
   257
176
     0
 90
        1
176
     0
 90
        1
176
     0
 40
1.0
176
     0
 90
        9
176
     2
 62
     7
176
     0
 40
1.0
176
     0
 90
        1
176
     0
 90
        6
176
     0
 90
        2
176
     0
 62
     7
176
     0
 90
        5
176
     0
 90
        0
176
     0
 90
        0
176
     0
290
     0
176
     0
 90
        1
176
     0
 40
0.0
176
     0
 90
        0
176
     0
290
     0
176
     0
290
     1
176
     0
290
     1
176
     0
290
     0
176
     0
290
     0
176
     0
290
     0
176
     0
290
     0
176
     0
290
     0
176
     0
290
     0
176
     0
 90
       50
176
     0
 40
0.0
176
     0
 40
1.0
176
     0
 90
        0
176
     0
 62
    18
420
        0
176
     0
 90
       50
176
     0
 90
        3
176
     0
 62
     5
420
      255
176
     0
290
     0
176
     0
 90
       50
176
     0
 90
       50
176
     0
 90
       50
176
     0
290
     0
176
     0
 90
       50
176
     0
 62
   256
176
     0
 40
1.0
176
     0
 90
        2
176
     0
  1
strokes_ogs.tif
176
     0
290
     0
176
     0
 40
1.0
176
     0
 40
1.0
176
     0
  0
VISUALSTYLE
  5
16F0
102
{ACAD_REACTORS
330
16E7
102
}
330
16E7
100
AcDbVisualStyle
  2
Realistic
 70
     8
177
     3
291
     0
 70
    58
 90
        2
176
     1
 90
        3
176
     1
 90
        0
176
     1
 90
        2
176
     1
 40
0.6
176
     1
 40
30.0
176
     1
 62
     7
420
 16777215
176
     1
 90
        0
176
     1
 90
        0
176
     1
 62
     7
176
     1
 62
   257
176
     1
 90
        1
176
     1
 90
        1
176
     1
 40
1.0
176
     1
 90
        8
176
     1
 62
   257
176
     1
 40
1.0
176
     1
 90
        1
176
     1
 90
        6
176
     1
 90
        2
176
     1
 62
     7
176
     1
 90
        3
176
     1
 90
        0
176
     1
 90
        0
176
     1
290
     0
176
     1
 90
       13
176
     1
 40
0.0
176
     1
 90
        0
176
     1
290
     0
176
     1
290
     1
176
     1
290
     1
176
     1
290
     0
176
     1
290
     0
176
     1
290
     0
176
     1
290
     0
176
     1
290
     0
176
     1
290
     0
176
     1
 90
       50
176
     1
 40
0.0
176
     1
 40
1.0
176
     1
 90
        0
176
     1
 62
    18
420
        0
176
     1
 90
       50
176
     1
 90
        3
176
     1
 62
     5
420
      255
176
     1
290
     0
176
     1
 90
       50
176
     1
 90
       50
176
     1
 90
       50
176
     1
290
     0
176
     1
 90
       50
176
     1
 62
   256
176
     0
 40
1.0
176
     0
 90
        2
176
     1
  1
strokes_ogs.tif
176
     1
290
     0
176
     1
 40
1.0
176
     1
 40
1.0
176
     1
  0
VISUALSTYLE
  5
16FF
102
{ACAD_REACTORS
330
16E7
102
}
330
16E7
100
AcDbVisualStyle
  2
Shaded
 70
    27
177
     3
291
     0
 70
    58
 90
        2
176
     1
 90
        2
176
     1
 90
        1
176
     1
 90
        2
176
     1
 40
0.6
176
     1
 40
30.0
176
     1
 62
     7
420
 16777215
176
     1
 90
        0
176
     1
 90
        4
176
     1
 62
     7
176
     1
 62
   257
176
     1
 90
        1
176
     1
 90
        1
176
     1
 40
1.0
176
     1
 90
        8
176
     1
 62
   257
176
     1
 40
1.0
176
     1
 90
        1
176
     1
 90
        6
176
     1
 90
        2
176
     1
 62
     8
420
  7895160
176
     1
 90
        3
176
     1
 90
        0
176
     1
 90
        0
176
     1
290
     0
176
     1
 90
        5
176
     1
 40
0.0
176
     1
 90
        0
176
     1
290
     0
176
     1
290
     1
176
     1
290
     1
176
     1
290
     0
176
     1
290
     0
176
     1
290
     0
176
     1
290
     0
176
     1
290
     0
176
     1
290
     0
176
     1
 90
       50
176
     1
 40
0.0
176
     1
 40
1.0
176
     1
 90
        0
176
     1
 62
    18
420
        0
176
     1
 90
       50
176
     1
 90
        3
176
     1
 62
     5
420
      255
176
     1
290
     0
176
     1
 90
       50
176
     1
 90
       50
176
     1
 90
       50
176
     1
290
     0
176
     1
 90
       50
176
     1
 62
   256
176
     0
 40
1.0
176
     0
 90
        2
176
     1
  1
strokes_ogs.tif
176
     1
290
     0
176
     1
 40
1.0
176
     1
 40
1.0
176
     1
  0
VISUALSTYLE
  5
16FE
102
{ACAD_REACTORS
330
16E7
102
}
330
16E7
100
AcDbVisualStyle
  2
Shaded with edges
 70
    26
177
     3
291
     0
 70
    58
 90
        2
176
     1
 90
        2
176
     1
 90
        1
176
     1
 90
        2
176
     1
 40
0.6
176
     1
 40
30.0
176
     1
 62
     7
420
 16777215
176
     1
 90
        1
176
     1
 90
       10
176
     1
 62
     7
176
     1
 62
   257
176
     1
 90
        2
176
     1
 90
        1
176
     1
 40
1.0
176
     1
 90
        8
176
     1
 62
   257
176
     1
 40
1.0
176
     1
 90
        1
176
     1
 90
        6
176
     1
 90
        2
176
     1
 62
     7
176
     1
 90
        3
176
     1
 90
        0
176
     1
 90
        0
176
     1
290
     0
176
     1
 90
        5
176
     1
 40
0.0
176
     1
 90
        0
176
     1
290
     0
176
     1
290
     1
176
     1
290
     1
176
     1
290
     0
176
     1
290
     0
176
     1
290
     0
176
     1
290
     0
176
     1
290
     0
176
     1
290
     0
176
     1
 90
       50
176
     1
 40
0.0
176
     1
 40
1.0
176
     1
 90
        0
176
     1
 62
    18
420
        0
176
     1
 90
       50
176
     1
 90
        3
176
     1
 62
     5
420
      255
176
     1
290
     0
176
     1
 90
       50
176
     1
 90
       50
176
     1
 90
       50
176
     1
290
     0
176
     1
 90
       50
176
     1
 62
   256
176
     0
 40
1.0
176
     0
 90
        2
176
     1
  1
strokes_ogs.tif
176
     1
290
     0
176
     1
 40
1.0
176
     1
 40
1.0
176
     1
  0
VISUALSTYLE
  5
16FB
102
{ACAD_REACTORS
330
16E7
102
}
330
16E7
100
AcDbVisualStyle
  2
Shades of Gray
 70
    23
177
     3
291
     0
 70
    58
 90
        2
176
     1
 90
        2
176
     1
 90
        3
176
     1
 90
        0
176
     1
 40
0.6
176
     1
 40
30.0
176
     1
 62
     7
420
 16777215
176
     1
 90
        2
176
     1
 90
        2
176
     1
 62
     7
176
     1
 62
     7
176
     1
 90
        1
176
     1
 90
        1
176
     1
 40
40.0
176
     1
 90
        8
176
     1
 62
     7
176
     1
 40
1.0
176
     1
 90
        1
176
     1
 90
        6
176
     1
 90
        2
176
     1
 62
     7
176
     1
 90
        3
176
     1
 90
        0
176
     1
 90
        0
176
     1
290
     0
176
     1
 90
        1
176
     1
 40
0.0
176
     1
 90
        0
176
     1
290
     0
176
     1
290
     1
176
     1
290
     1
176
     1
290
     0
176
     1
290
     0
176
     1
290
     0
176
     1
290
     0
176
     1
290
     0
176
     1
290
     0
176
     1
 90
       50
176
     1
 40
0.0
176
     1
 40
1.0
176
     1
 90
        0
176
     1
 62
    18
420
        0
176
     1
 90
       50
176
     1
 90
        3
176
     1
 62
     5
420
      255
176
     1
290
     0
176
     1
 90
       50
176
     1
 90
       50
176
     1
 90
       50
176
     1
290
     0
176
     1
 90
       50
176
     1
 62
   256
176
     0
 40
1.0
176
     0
 90
        2
176
     1
  1
strokes_ogs.tif
176
     1
290
     0
176
     1
 40
1.0
176
     1
 40
1.0
176
     1
  0
VISUALSTYLE
  5
16FC
102
{ACAD_REACTORS
330
16E7
102
}
330
16E7
100
AcDbVisualStyle
  2
Sketchy
 70
    24
177
     3
291
     0
 70
    58
 90
        1
176
     1
 90
        2
176
     1
 90
        2
176
     1
 90
        0
176
     1
 40
0.6
176
     1
 40
30.0
176
     1
 62
     7
420
 16777215
176
     1
 90
        2
176
     1
 90
        2
176
     1
 62
     7
176
     1
 62
     7
176
     1
 90
        1
176
     1
 90
        1
176
     1
 40
40.0
176
     1
 90
       11
176
     1
 62
     7
176
     1
 40
1.0
176
     1
 90
        1
176
     1
 90
        6
176
     1
 90
        2
176
     1
 62
     7
176
     1
 90
        6
176
     1
 90
        0
176
     1
 90
        0
176
     1
290
     0
176
     1
 90
        1
176
     1
 40
0.0
176
     1
 90
        0
176
     1
290
     0
176
     1
290
     1
176
     1
290
     1
176
     1
290
     0
176
     1
290
     0
176
     1
290
     0
176
     1
290
     0
176
     1
290
     0
176
     1
290
     0
176
     1
 90
       50
176
     1
 40
0.0
176
     1
 40
1.0
176
     1
 90
        0
176
     1
 62
    18
420
        0
176
     1
 90
       50
176
     1
 90
        3
176
     1
 62
     5
420
      255
176
     1
290
     0
176
     1
 90
       50
176
     1
 90
       50
176
     1
 90
       50
176
     1
290
     0
176
     1
 90
       50
176
     1
 62
   256
176
     0
 40
1.0
176
     0
 90
        2
176
     1
  1
strokes_ogs.tif
176
     1
290
     0
176
     1
 40
1.0
176
     1
 40
1.0
176
     1
  0
VISUALSTYLE
  5
16F4
102
{ACAD_REACTORS
330
16E7
102
}
330
16E7
100
AcDbVisualStyle
  2
Thicken
 70
    13
177
     3
291
     1
 70
    58
 90
        2
176
     1
 90
        2
176
     1
 90
        0
176
     1
 90
        0
176
     1
 40
0.6
176
     1
 40
30.0
176
     1
 62
     7
420
 16777215
176
     1
 90
        1
176
     1
 90
        4
176
     1
 62
     7
176
     1
 62
   257
176
     1
 90
        1
176
     1
 90
        1
176
     1
 40
1.0
176
     1
 90
       12
176
     1
 62
     7
176
     1
 40
1.0
176
     1
 90
        1
176
     1
 90
        6
176
     1
 90
        2
176
     1
 62
     7
176
     1
 90
        5
176
     1
 90
        0
176
     1
 90
        0
176
     1
290
     0
176
     1
 90
        1
176
     1
 40
0.0
176
     1
 90
        0
176
     1
290
     0
176
     1
290
     1
176
     1
290
     1
176
     1
290
     0
176
     1
290
     0
176
     1
290
     0
176
     1
290
     0
176
     1
290
     0
176
     1
290
     0
176
     1
 90
       50
176
     1
 40
0.0
176
     1
 40
1.0
176
     1
 90
        0
176
     1
 62
    18
420
        0
176
     1
 90
       50
176
     1
 90
        3
176
     1
 62
     5
420
      255
176
     1
290
     0
176
     1
 90
       50
176
     1
 90
       50
176
     1
 90
       50
176
     1
290
     0
176
     1
 90
       50
176
     1
 62
   256
176
     0
 40
1.0
176
     0
 90
        2
176
     1
  1
strokes_ogs.tif
176
     1
290
     0
176
     1
 40
1.0
176
     1
 40
1.0
176
     1
  0
VISUALSTYLE
  5
16ED
102
{ACAD_REACTORS
330
16E7
102
}
330
16E7
100
AcDbVisualStyle
  2
Wireframe
 70
     5
177
     3
291
     0
 70
    58
 90
        0
176
     1
 90
        2
176
     1
 90
        0
176
     1
 90
        0
176
     1
 40
0.6
176
     1
 40
30.0
176
     1
 62
     7
420
 16777215
176
     1
 90
        1
176
     1
 90
        4
176
     1
 62
     7
176
     1
 62
   257
176
     1
 90
        1
176
     1
 90
        1
176
     1
 40
1.0
176
     1
 90
        0
176
     1
 62
   257
176
     1
 40
1.0
176
     1
 90
        1
176
     1
 90
        6
176
     1
 90
        2
176
     1
 62
     7
176
     1
 90
        3
176
     1
 90
        0
176
     1
 90
        0
176
     1
290
     0
176
     1
 90
        1
176
     1
 40
0.0
176
     1
 90
        0
176
     1
290
     0
176
     1
290
     1
176
     1
290
     1
176
     1
290
     0
176
     1
290
     0
176
     1
290
     0
176
     1
290
     0
176
     1
290
     0
176
     1
290
     0
176
     1
 90
       50
176
     1
 40
0.0
176
     1
 40
1.0
176
     1
 90
        0
176
     1
 62
    18
420
        0
176
     1
 90
       50
176
     1
 90
        3
176
     1
 62
     5
420
      255
176
     1
290
     0
176
     1
 90
       50
176
     1
 90
       50
176
     1
 90
       50
176
     1
290
     0
176
     1
 90
       50
176
     1
 62
   256
176
     0
 40
1.0
176
     0
 90
        2
176
     1
  1
strokes_ogs.tif
176
     1
290
     0
176
     1
 40
1.0
176
     1
 40
1.0
176
     1
  0
VISUALSTYLE
  5
16FD
102
{ACAD_REACTORS
330
16E7
102
}
330
16E7
100
AcDbVisualStyle
  2
X-Ray
 70
    25
177
     3
291
     0
 70
    58
 90
        2
176
     1
 90
        2
176
     1
 90
        1
176
     1
 90
        1
176
     1
 40
0.5
176
     1
 40
30.0
176
     1
 62
     7
420
 16777215
176
     1
 90
        1
176
     1
 90
        0
176
     1
 62
     7
176
     1
 62
   257
176
     1
 90
        1
176
     1
 90
        1
176
     1
 40
1.0
176
     1
 90
        8
176
     1
 62
     7
176
     1
 40
1.0
176
     1
 90
        1
176
     1
 90
        6
176
     1
 90
        2
176
     1
 62
     7
176
     1
 90
        3
176
     1
 90
        0
176
     1
 90
        0
176
     1
290
     0
176
     1
 90
       13
176
     1
 40
0.0
176
     1
 90
        0
176
     1
290
     0
176
     1
290
     1
176
     1
290
     1
176
     1
290
     0
176
     1
290
     0
176
     1
290
     0
176
     1
290
     0
176
     1
290
     0
176
     1
290
     0
176
     1
 90
       50
176
     1
 40
0.0
176
     1
 40
1.0
176
     1
 90
        0
176
     1
 62
    18
420
        0
176
     1
 90
       50
176
     1
 90
        3
176
     1
 62
     5
420
      255
176
     1
290
     0
176
     1
 90
       50
176
     1
 90
       50
176
     1
 90
       50
176
     1
290
     0
176
     1
 90
       50
176
     1
 62
   256
176
     0
 40
1.0
176
     0
 90
        2
176
     1
  1
strokes_ogs.tif
176
     1
290
     0
176
     1
 40
1.0
176
     1
 40
1.0
176
     1
  0
DICTIONARYVAR
  5
1707
102
{ACAD_REACTORS
330
1642
102
}
330
1642
100
DictionaryVariables
280
     0
  1
1:1
  0
DICTIONARYVAR
  5
170B
102
{ACAD_REACTORS
330
1642
102
}
330
1642
100
DictionaryVariables
280
     0
  1
Standard
  0
DICTIONARYVAR
  5
170D
102
{ACAD_REACTORS
330
1642
102
}
330
1642
100
DictionaryVariables
280
     0
  1
0
  0
DICTIONARY
  5
169F
330
1651
100
AcDbDictionary
280
     1
281
     1
  3
ACAD_XREC_ROUNDTRIP
360
16BE
  0
DICTIONARY
  5
169D
330
1650
100
AcDbDictionary
280
     1
281
     1
  3
ACAD_XREC_ROUNDTRIP
360
16BD
  0
DICTIONARY
  5
173B
330
1705
100
AcDbDictionary
280
     1
281
     1
  3
ACAD_ROUNDTRIP_2008_TABLESTYLE_CELLSTYLEMAP
360
173C
  0
XRECORD
  5
16BE
102
{ACAD_REACTORS
330
169F
102
}
330
169F
100
AcDbXrecord
280
     1
102
DISPLAYNAME
  1
Metric50
102
FLAGS
 90
        0
  0
XRECORD
  5
16BD
102
{ACAD_REACTORS
330
169D
102
}
330
169D
100
AcDbXrecord
280
     1
102
DISPLAYNAME
  1
Metric50
102
FLAGS
 90
        0
  0
CELLSTYLEMAP
  5
173C
102
{ACAD_REACTORS
330
173B
102
}
330
173B
100
AcDbCellStyleMap
 90
        3
300
CELLSTYLE
  1
TABLEFORMAT_BEGIN
 90
        5
170
     1
 91
        0
 92
        0
 62
   257
 93
        1
300
CONTENTFORMAT
  1
CONTENTFORMAT_BEGIN
 90
        0
 91
        0
 92
        4
 93
        0
300

 40
0.0
140
1.0
 94
        5
 62
     0
340
11
144
6.0
309
CONTENTFORMAT_END
171
     1
301
MARGIN
  1
CELLMARGIN_BEGIN
 40
1.5
 40
1.5
 40
1.5
 40
1.5
 40
1.5
 40
1.5
309
CELLMARGIN_END
 94
        6
 95
        1
302
GRIDFORMAT
  1
GRIDFORMAT_BEGIN
 90
        0
 91
        1
 62
     0
 92
       -2
340
14
 93
        0
 40
0.045
309
GRIDFORMAT_END
 95
        2
302
GRIDFORMAT
  1
GRIDFORMAT_BEGIN
 90
        0
 91
        1
 62
     0
 92
       -2
340
14
 93
        0
 40
0.045
309
GRIDFORMAT_END
 95
        4
302
GRIDFORMAT
  1
GRIDFORMAT_BEGIN
 90
        0
 91
        1
 62
     0
 92
       -2
340
14
 93
        0
 40
0.045
309
GRIDFORMAT_END
 95
        8
302
GRIDFORMAT
  1
GRIDFORMAT_BEGIN
 90
        0
 91
        1
 62
     0
 92
       -2
340
14
 93
        0
 40
0.045
309
GRIDFORMAT_END
 95
       16
302
GRIDFORMAT
  1
GRIDFORMAT_BEGIN
 90
        0
 91
        1
 62
     0
 92
       -2
340
14
 93
        0
 40
0.045
309
GRIDFORMAT_END
 95
       32
302
GRIDFORMAT
  1
GRIDFORMAT_BEGIN
 90
        0
 91
        1
 62
     0
 92
       -2
340
14
 93
        0
 40
0.045
309
GRIDFORMAT_END
309
TABLEFORMAT_END
  1
CELLSTYLE_BEGIN
 90
        1
 91
        1
300
_TITLE
309
CELLSTYLE_END
300
CELLSTYLE
  1
TABLEFORMAT_BEGIN
 90
        5
170
     1
 91
        0
 92
        0
 62
   257
 93
        1
300
CONTENTFORMAT
  1
CONTENTFORMAT_BEGIN
 90
        0
 91
        0
 92
        4
 93
        0
300

 40
0.0
140
1.0
 94
        5
 62
     0
340
11
144
4.5
309
CONTENTFORMAT_END
171
     1
301
MARGIN
  1
CELLMARGIN_BEGIN
 40
1.5
 40
1.5
 40
1.5
 40
1.5
 40
1.5
 40
1.5
309
CELLMARGIN_END
 94
        6
 95
        1
302
GRIDFORMAT
  1
GRIDFORMAT_BEGIN
 90
        0
 91
        1
 62
     0
 92
       -2
340
14
 93
        0
 40
0.045
309
GRIDFORMAT_END
 95
        2
302
GRIDFORMAT
  1
GRIDFORMAT_BEGIN
 90
        0
 91
        1
 62
     0
 92
       -2
340
14
 93
        0
 40
0.045
309
GRIDFORMAT_END
 95
        4
302
GRIDFORMAT
  1
GRIDFORMAT_BEGIN
 90
        0
 91
        1
 62
     0
 92
       -2
340
14
 93
        0
 40
0.045
309
GRIDFORMAT_END
 95
        8
302
GRIDFORMAT
  1
GRIDFORMAT_BEGIN
 90
        0
 91
        1
 62
     0
 92
       -2
340
14
 93
        0
 40
0.045
309
GRIDFORMAT_END
 95
       16
302
GRIDFORMAT
  1
GRIDFORMAT_BEGIN
 90
        0
 91
        1
 62
     0
 92
       -2
340
14
 93
        0
 40
0.045
309
GRIDFORMAT_END
 95
       32
302
GRIDFORMAT
  1
GRIDFORMAT_BEGIN
 90
        0
 91
        1
 62
     0
 92
       -2
340
14
 93
        0
 40
0.045
309
GRIDFORMAT_END
309
TABLEFORMAT_END
  1
CELLSTYLE_BEGIN
 90
        2
 91
        1
300
_HEADER
309
CELLSTYLE_END
300
CELLSTYLE
  1
TABLEFORMAT_BEGIN
 90
        5
170
     1
 91
        0
 92
        0
 62
   257
 93
        1
300
CONTENTFORMAT
  1
CONTENTFORMAT_BEGIN
 90
        0
 91
        0
 92
        4
 93
        0
300

 40
0.0
140
1.0
 94
        2
 62
     0
340
11
144
4.5
309
CONTENTFORMAT_END
171
     1
301
MARGIN
  1
CELLMARGIN_BEGIN
 40
1.5
 40
1.5
 40
1.5
 40
1.5
 40
1.5
 40
1.5
309
CELLMARGIN_END
 94
        6
 95
        1
302
GRIDFORMAT
  1
GRIDFORMAT_BEGIN
 90
        0
 91
        1
 62
     0
 92
       -2
340
14
 93
        0
 40
0.045
309
GRIDFORMAT_END
 95
        2
302
GRIDFORMAT
  1
GRIDFORMAT_BEGIN
 90
        0
 91
        1
 62
     0
 92
       -2
340
14
 93
        0
 40
0.045
309
GRIDFORMAT_END
 95
        4
302
GRIDFORMAT
  1
GRIDFORMAT_BEGIN
 90
        0
 91
        1
 62
     0
 92
       -2
340
14
 93
        0
 40
0.045
309
GRIDFORMAT_END
 95
        8
302
GRIDFORMAT
  1
GRIDFORMAT_BEGIN
 90
        0
 91
        1
 62
     0
 92
       -2
340
14
 93
        0
 40
0.045
309
GRIDFORMAT_END
 95
       16
302
GRIDFORMAT
  1
GRIDFORMAT_BEGIN
 90
        0
 91
        1
 62
     0
 92
       -2
340
14
 93
        0
 40
0.045
309
GRIDFORMAT_END
 95
       32
302
GRIDFORMAT
  1
GRIDFORMAT_BEGIN
 90
        0
 91
        1
 62
     0
 92
       -2
340
14
 93
        0
 40
0.045
309
GRIDFORMAT_END
309
TABLEFORMAT_END
  1
CELLSTYLE_BEGIN
 90
        3
 91
        2
300
_DATA
309
CELLSTYLE_END
  0
ENDSEC
  0
EOF
