  0
SECTION
  2
HEADER
  9
$ACADVER
  1
AC1027
  9
$ACADMAINTVER
 70
     8
  9
$DWGCODEPAGE
  3
ANSI_932
  9
$REQUIREDVERSIONS
160
                 0
  9
$LASTSAVEDBY
  1
Yasu
  9
$INSBASE
 10
0.0
 20
0.0
 30
0.0
  9
$EXTMIN
 10
41.58026452067939
 20
35.22335868362295
 30
0.0
  9
$EXTMAX
 10
179.9561440372748
 20
186.1148472070569
 30
0.0
  9
$LIMMIN
 10
0.0
 20
0.0
  9
$LIMMAX
 10
12.0
 20
9.0
  9
$ORTHOMODE
 70
     0
  9
$REGENMODE
 70
     1
  9
$FILLMODE
 70
     1
  9
$QTEXTMODE
 70
     0
  9
$MIRRTEXT
 70
     0
  9
$LTSCALE
 40
1.0
  9
$ATTMODE
 70
     1
  9
$TEXTSIZE
 40
0.2
  9
$TRACEWID
 40
0.05
  9
$TEXTSTYLE
  7
STANDARD
  9
$CLAYER
  8
0
  9
$CELTYPE
  6
BYLAYER
  9
$CECOLOR
 62
   256
  9
$CELTSCALE
 40
1.0
  9
$DISPSILH
 70
     0
  9
$DIMSCALE
 40
1.0
  9
$DIMASZ
 40
0.18
  9
$DIMEXO
 40
0.0625
  9
$DIMDLI
 40
0.38
  9
$DIMRND
 40
0.0
  9
$DIMDLE
 40
0.0
  9
$DIMEXE
 40
0.18
  9
$DIMTP
 40
0.0
  9
$DIMTM
 40
0.0
  9
$DIMTXT
 40
0.18
  9
$DIMCEN
 40
0.09
  9
$DIMTSZ
 40
0.0
  9
$DIMTOL
 70
     0
  9
$DIMLIM
 70
     0
  9
$DIMTIH
 70
     1
  9
$DIMTOH
 70
     1
  9
$DIMSE1
 70
     0
  9
$DIMSE2
 70
     0
  9
$DIMTAD
 70
     0
  9
$DIMZIN
 70
     0
  9
$DIMBLK
  1

  9
$DIMASO
 70
     1
  9
$DIMSHO
 70
     1
  9
$DIMPOST
  1

  9
$DIMAPOST
  1

  9
$DIMALT
 70
     0
  9
$DIMALTD
 70
     2
  9
$DIMALTF
 40
25.4
  9
$DIMLFAC
 40
1.0
  9
$DIMTOFL
 70
     0
  9
$DIMTVP
 40
0.0
  9
$DIMTIX
 70
     0
  9
$DIMSOXD
 70
     0
  9
$DIMSAH
 70
     0
  9
$DIMBLK1
  1

  9
$DIMBLK2
  1

  9
$DIMSTYLE
  2
STANDARD
  9
$DIMCLRD
 70
     0
  9
$DIMCLRE
 70
     0
  9
$DIMCLRT
 70
     0
  9
$DIMTFAC
 40
1.0
  9
$DIMGAP
 40
0.09
  9
$DIMJUST
 70
     0
  9
$DIMSD1
 70
     0
  9
$DIMSD2
 70
     0
  9
$DIMTOLJ
 70
     1
  9
$DIMTZIN
 70
     0
  9
$DIMALTZ
 70
     0
  9
$DIMALTTZ
 70
     0
  9
$DIMUPT
 70
     0
  9
$DIMDEC
 70
     4
  9
$DIMTDEC
 70
     4
  9
$DIMALTU
 70
     2
  9
$DIMALTTD
 70
     2
  9
$DIMTXSTY
  7
STANDARD
  9
$DIMAUNIT
 70
     0
  9
$DIMADEC
 70
     0
  9
$DIMALTRND
 40
0.0
  9
$DIMAZIN
 70
     0
  9
$DIMDSEP
 70
    46
  9
$DIMATFIT
 70
     3
  9
$DIMFRAC
 70
     0
  9
$DIMLDRBLK
  1

  9
$DIMLUNIT
 70
     2
  9
$DIMLWD
 70
    -2
  9
$DIMLWE
 70
    -2
  9
$DIMTMOVE
 70
     2
  9
$DIMFXL
 40
1.0
  9
$DIMFXLON
 70
     0
  9
$DIMJOGANG
 40
0.7853981633974483
  9
$DIMTFILL
 70
     0
  9
$DIMTFILLCLR
 70
     0
  9
$DIMARCSYM
 70
     0
  9
$DIMLTYPE
  6

  9
$DIMLTEX1
  6

  9
$DIMLTEX2
  6

  9
$DIMTXTDIRECTION
 70
     0
  9
$LUNITS
 70
     2
  9
$LUPREC
 70
     4
  9
$SKETCHINC
 40
0.1
  9
$FILLETRAD
 40
0.0
  9
$AUNITS
 70
     0
  9
$AUPREC
 70
     0
  9
$MENU
  1
.
  9
$ELEVATION
 40
0.0
  9
$PELEVATION
 40
0.0
  9
$THICKNESS
 40
0.0
  9
$LIMCHECK
 70
     0
  9
$CHAMFERA
 40
0.0
  9
$CHAMFERB
 40
0.0
  9
$CHAMFERC
 40
0.0
  9
$CHAMFERD
 40
0.0
  9
$SKPOLY
 70
     0
  9
$TDCREATE
 40
2452643.438384225
  9
$TDUCREATE
 40
2452643.063384225
  9
$TDUPDATE
 40
2456739.950859213
  9
$TDUUPDATE
 40
2456739.575859213
  9
$TDINDWG
 40
0.0010398958
  9
$TDUSRTIMER
 40
2456739.575735
  9
$USRTIMER
 70
     1
  9
$ANGBASE
 50
0.0
  9
$ANGDIR
 70
     0
  9
$PDMODE
 70
     0
  9
$PDSIZE
 40
0.0
  9
$PLINEWID
 40
0.0
  9
$SPLFRAME
 70
     0
  9
$SPLINETYPE
 70
     6
  9
$SPLINESEGS
 70
     8
  9
$HANDSEED
  5
843
  9
$SURFTAB1
 70
     6
  9
$SURFTAB2
 70
     6
  9
$SURFTYPE
 70
     6
  9
$SURFU
 70
     6
  9
$SURFV
 70
     6
  9
$UCSBASE
  2

  9
$UCSNAME
  2

  9
$UCSORG
 10
0.0
 20
0.0
 30
0.0
  9
$UCSXDIR
 10
1.0
 20
0.0
 30
0.0
  9
$UCSYDIR
 10
0.0
 20
1.0
 30
0.0
  9
$UCSORTHOREF
  2

  9
$UCSORTHOVIEW
 70
     0
  9
$UCSORGTOP
 10
0.0
 20
0.0
 30
0.0
  9
$UCSORGBOTTOM
 10
0.0
 20
0.0
 30
0.0
  9
$UCSORGLEFT
 10
0.0
 20
0.0
 30
0.0
  9
$UCSORGRIGHT
 10
0.0
 20
0.0
 30
0.0
  9
$UCSORGFRONT
 10
0.0
 20
0.0
 30
0.0
  9
$UCSORGBACK
 10
0.0
 20
0.0
 30
0.0
  9
$PUCSBASE
  2

  9
$PUCSNAME
  2

  9
$PUCSORG
 10
0.0
 20
0.0
 30
0.0
  9
$PUCSXDIR
 10
1.0
 20
0.0
 30
0.0
  9
$PUCSYDIR
 10
0.0
 20
1.0
 30
0.0
  9
$PUCSORTHOREF
  2

  9
$PUCSORTHOVIEW
 70
     0
  9
$PUCSORGTOP
 10
0.0
 20
0.0
 30
0.0
  9
$PUCSORGBOTTOM
 10
0.0
 20
0.0
 30
0.0
  9
$PUCSORGLEFT
 10
0.0
 20
0.0
 30
0.0
  9
$PUCSORGRIGHT
 10
0.0
 20
0.0
 30
0.0
  9
$PUCSORGFRONT
 10
0.0
 20
0.0
 30
0.0
  9
$PUCSORGBACK
 10
0.0
 20
0.0
 30
0.0
  9
$USERI1
 70
     0
  9
$USERI2
 70
     0
  9
$USERI3
 70
     0
  9
$USERI4
 70
     0
  9
$USERI5
 70
     0
  9
$USERR1
 40
0.0
  9
$USERR2
 40
0.0
  9
$USERR3
 40
0.0
  9
$USERR4
 40
0.0
  9
$USERR5
 40
0.0
  9
$WORLDVIEW
 70
     1
  9
$SHADEDGE
 70
     3
  9
$SHADEDIF
 70
    70
  9
$TILEMODE
 70
     1
  9
$MAXACTVP
 70
    64
  9
$PINSBASE
 10
0.0
 20
0.0
 30
0.0
  9
$PLIMCHECK
 70
     0
  9
$PEXTMIN
 10
0.0
 20
0.0
 30
0.0
  9
$PEXTMAX
 10
0.0
 20
0.0
 30
0.0
  9
$PLIMMIN
 10
0.0
 20
0.0
  9
$PLIMMAX
 10
0.0
 20
0.0
  9
$UNITMODE
 70
     0
  9
$VISRETAIN
 70
     1
  9
$PLINEGEN
 70
     0
  9
$PSLTSCALE
 70
     1
  9
$TREEDEPTH
 70
  3020
  9
$CMLSTYLE
  2
STANDARD
  9
$CMLJUST
 70
     0
  9
$CMLSCALE
 40
1.0
  9
$PROXYGRAPHICS
 70
     1
  9
$MEASUREMENT
 70
     0
  9
$CELWEIGHT
370
    -1
  9
$ENDCAPS
280
     0
  9
$JOINSTYLE
280
     0
  9
$LWDISPLAY
290
     0
  9
$INSUNITS
 70
     0
  9
$HYPERLINKBASE
  1

  9
$STYLESHEET
  1

  9
$XEDIT
290
     1
  9
$CEPSNTYPE
380
     0
  9
$PSTYLEMODE
290
     1
  9
$FINGERPRINTGUID
  2
{574AFBFE-ADED-6003-3B22-871B2BFB0CE7}
  9
$VERSIONGUID
  2
{FAEB1C32-E019-11D5-929B-00C0DF256EC4}
  9
$EXTNAMES
290
     1
  9
$PSVPSCALE
 40
0.0
  9
$OLESTARTUP
290
     0
  9
$SORTENTS
280
   127
  9
$INDEXCTL
280
     0
  9
$HIDETEXT
280
     1
  9
$XCLIPFRAME
280
     2
  9
$HALOGAP
280
     0
  9
$OBSCOLOR
 70
   257
  9
$OBSLTYPE
280
     0
  9
$INTERSECTIONDISPLAY
280
     0
  9
$INTERSECTIONCOLOR
 70
   257
  9
$DIMASSOC
280
     2
  9
$PROJECTNAME
  1

  9
$CAMERADISPLAY
290
     0
  9
$LENSLENGTH
 40
50.0
  9
$CAMERAHEIGHT
 40
0.0
  9
$STEPSPERSEC
 40
2.0
  9
$STEPSIZE
 40
6.0
  9
$3DDWFPREC
 40
2.0
  9
$PSOLWIDTH
 40
0.25
  9
$PSOLHEIGHT
 40
4.0
  9
$LOFTANG1
 40
1.570796326794897
  9
$LOFTANG2
 40
1.570796326794897
  9
$LOFTMAG1
 40
0.0
  9
$LOFTMAG2
 40
0.0
  9
$LOFTPARAM
 70
     7
  9
$LOFTNORMALS
280
     1
  9
$LATITUDE
 40
37.795
  9
$LONGITUDE
 40
-122.394
  9
$NORTHDIRECTION
 40
0.0
  9
$TIMEZONE
 70
 -8000
  9
$LIGHTGLYPHDISPLAY
280
     1
  9
$TILEMODELIGHTSYNCH
280
     1
  9
$SOLIDHIST
280
     1
  9
$SHOWHIST
280
     1
  9
$DWFFRAME
280
     2
  9
$DGNFRAME
280
     2
  9
$REALWORLDSCALE
290
     1
  9
$INTERFERECOLOR
 62
   256
  9
$CSHADOW
280
     0
  9
$SHADOWPLANELOCATION
 40
0.0
  0
ENDSEC
  0
SECTION
  2
CLASSES
  0
CLASS
  1
ACDBDICTIONARYWDFLT
  2
AcDbDictionaryWithDefault
  3
ObjectDBX Classes
 90
        0
 91
       17
280
     0
281
     0
  0
CLASS
  1
ACDBPLACEHOLDER
  2
AcDbPlaceHolder
  3
ObjectDBX Classes
 90
        0
 91
        1
280
     0
281
     0
  0
CLASS
  1
LAYOUT
  2
AcDbLayout
  3
ObjectDBX Classes
 90
        0
 91
        1
280
     0
281
     0
  0
CLASS
  1
DICTIONARYVAR
  2
AcDbDictionaryVar
  3
ObjectDBX Classes
 90
        0
 91
       10
280
     0
281
     0
  0
CLASS
  1
TABLESTYLE
  2
AcDbTableStyle
  3
ObjectDBX Classes
 90
     4095
 91
       17
280
     0
281
     0
  0
CLASS
  1
MATERIAL
  2
AcDbMaterial
  3
ObjectDBX Classes
 90
     1153
 91
       17
280
     0
281
     0
  0
CLASS
  1
VISUALSTYLE
  2
AcDbVisualStyle
  3
ObjectDBX Classes
 90
     4095
 91
       17
280
     0
281
     0
  0
CLASS
  1
SCALE
  2
AcDbScale
  3
ObjectDBX Classes
 90
     1153
 91
       17
280
     0
281
     0
  0
CLASS
  1
CELLSTYLEMAP
  2
AcDbCellStyleMap
  3
ObjectDBX Classes
 90
     1152
 91
       10
280
     0
281
     0
  0
CLASS
  1
RASTERVARIABLES
  2
AcDbRasterVariables
  3
ISM
 90
        0
 91
       17
280
     0
281
     0
  0
CLASS
  1
SUN
  2
AcDbSun
  3
SCENEOE
 90
     1153
 91
       17
280
     0
281
     0
  0
CLASS
  1
DIMASSOC
  2
AcDbDimAssoc
  3
"AcDbDimAssoc|Product Desc:     AcDim ARX App For Dimension|Company:          Autodesk, Inc.|WEB Address:      www.autodesk.com"
 90
        0
 91
       10
280
     0
281
     0
  0
CLASS
  1
XRECORD
  2
AcDbXrecord
  3
ObjectDBX Classes
 90
        0
 91
        1
280
     0
281
     0
  0
CLASS
  1
LWPOLYLINE
  2
AcDbPolyline
  3
ObjectDBX Classes
 90
        0
 91
        1
280
     0
281
     1
  0
CLASS
  1
HATCH
  2
AcDbHatch
  3
ObjectDBX Classes
 90
        0
 91
        1
280
     0
281
     1
  0
ENDSEC
  0
SECTION
  2
TABLES
  0
TABLE
  2
VPORT
  5
8
330
0
100
AcDbSymbolTable
 70
     1
  0
VPORT
  5
94
330
8
100
AcDbSymbolTableRecord
100
AcDbViewportTableRecord
  2
*ACTIVE
 70
     0
 10
0.0
 20
0.0
 11
1.0
 21
1.0
 12
138.4377978449569
 22
130.2078059032019
 13
0.0
 23
0.0
 14
0.5
 24
0.5
 15
0.5
 25
0.5
 16
0.0
 26
0.0
 36
1.0
 17
-27.66959356597981
 27
-19.53870295786193
 37
0.0
 40
153.9093182939027
 41
1.762376237623763
 42
50.0
 43
0.0
 44
0.0
 50
0.0
 51
0.0
 71
    16
 72
  1000
 73
     1
 74
     3
 75
     0
 76
     0
 77
     0
 78
     0
281
     0
 65
     1
110
0.0
120
0.0
130
0.0
111
1.0
121
0.0
131
0.0
112
0.0
122
1.0
132
0.0
 79
     0
146
0.0
348
665
 60
     3
 61
     5
292
     1
282
     1
141
0.0
142
0.0
 63
   256
361
67F
  0
ENDTAB
  0
TABLE
  2
LTYPE
  5
5
330
0
100
AcDbSymbolTable
 70
     2
  0
LTYPE
  5
14
330
5
100
AcDbSymbolTableRecord
100
AcDbLinetypeTableRecord
  2
BYBLOCK
 70
     0
  3

 72
    65
 73
     0
 40
0.0
  0
LTYPE
  5
15
330
5
100
AcDbSymbolTableRecord
100
AcDbLinetypeTableRecord
  2
BYLAYER
 70
     0
  3

 72
    65
 73
     0
 40
0.0
  0
LTYPE
  5
16
330
5
100
AcDbSymbolTableRecord
100
AcDbLinetypeTableRecord
  2
CONTINUOUS
 70
     0
  3
Solid line
 72
    65
 73
     0
 40
0.0
  0
LTYPE
  5
2CF
330
5
100
AcDbSymbolTableRecord
100
AcDbLinetypeTableRecord
  2
CENTER
 70
     0
  3
Center ____ _ ____ _ ____ _ ____ _ ____ _ ____
 72
    65
 73
     4
 40
50.8
 49
31.75
 74
     0
 49
-6.35
 74
     0
 49
6.35
 74
     0
 49
-6.35
 74
     0
  0
ENDTAB
  0
TABLE
  2
LAYER
  5
2
330
0
100
AcDbSymbolTable
 70
     6
  0
LAYER
  5
10
330
2
100
AcDbSymbolTableRecord
100
AcDbLayerTableRecord
  2
0
 70
     0
 62
     7
  6
CONTINUOUS
370
    -3
390
68A
347
67C
348
0
  0
LAYER
  5
125
330
2
100
AcDbSymbolTableRecord
100
AcDbLayerTableRecord
  2
DEFPOINTS
 70
     0
 62
     7
  6
CONTINUOUS
290
     0
370
    -3
390
68A
347
67C
348
0
  0
LAYER
  5
126
330
2
100
AcDbSymbolTableRecord
100
AcDbLayerTableRecord
  2
文字
 70
     0
 62
     7
  6
CONTINUOUS
370
    -3
390
68A
347
67C
348
0
  0
LAYER
  5
128
330
2
100
AcDbSymbolTableRecord
100
AcDbLayerTableRecord
  2
実線
 70
     0
 62
   140
  6
CONTINUOUS
370
    -3
390
68A
347
67C
348
0
  0
LAYER
  5
2CE
330
2
100
AcDbSymbolTableRecord
100
AcDbLayerTableRecord
  2
中心線
 70
     0
 62
     7
  6
CENTER
370
    -3
390
68A
347
67C
348
0
  0
LAYER
  5
68B
330
2
100
AcDbSymbolTableRecord
100
AcDbLayerTableRecord
  2
文字・寸法線
 70
     0
 62
     7
  6
CONTINUOUS
370
    13
390
68A
347
67C
348
0
  0
ENDTAB
  0
TABLE
  2
STYLE
  5
3
330
0
100
AcDbSymbolTable
 70
     1
  0
STYLE
  5
11
330
3
100
AcDbSymbolTableRecord
100
AcDbTextStyleTableRecord
  2
STANDARD
 70
     0
 40
0.0
 41
1.0
 50
0.0
 71
     0
 42
0.2
  3
arial.ttf
  4

1001
ACAD
1000
Arial
1071
        0
  0
ENDTAB
  0
TABLE
  2
VIEW
  5
6
330
0
100
AcDbSymbolTable
 70
     0
  0
ENDTAB
  0
TABLE
  2
UCS
  5
7
330
0
100
AcDbSymbolTable
 70
     0
  0
ENDTAB
  0
TABLE
  2
APPID
  5
9
330
0
100
AcDbSymbolTable
 70
     1
  0
APPID
  5
12
330
9
100
AcDbSymbolTableRecord
100
AcDbRegAppTableRecord
  2
ACAD
 70
     0
  0
ENDTAB
  0
TABLE
  2
DIMSTYLE
  5
A
330
0
100
AcDbSymbolTable
 70
     2
100
AcDbDimStyleTable
  0
DIMSTYLE
105
27
330
A
100
AcDbSymbolTableRecord
100
AcDbDimStyleTableRecord
  2
STANDARD
 70
     0
178
     0
340
11
  0
DIMSTYLE
105
12B
102
{ACAD_REACTORS
330
368
330
616
330
61B
330
78D
330
78E
330
827
330
82B
102
}
330
A
100
AcDbSymbolTableRecord
100
AcDbDimStyleTableRecord
  2
ISO-25
 70
     0
 41
2.5
 42
0.625
 43
3.75
 44
1.25
 73
     0
 74
     0
 77
     1
 78
     8
140
2.5
141
2.5
143
0.03937007874016
147
0.625
171
     3
172
     1
178
     0
271
     2
272
     2
274
     3
283
     0
284
     8
340
11
  0
ENDTAB
  0
TABLE
  2
BLOCK_RECORD
  5
1
330
0
100
AcDbSymbolTable
 70
    58
  0
BLOCK_RECORD
  5
1F
330
1
100
AcDbSymbolTableRecord
100
AcDbBlockTableRecord
  2
*MODEL_SPACE
340
65E
 70
     0
280
     1
281
     0
  0
BLOCK_RECORD
  5
58
330
1
100
AcDbSymbolTableRecord
100
AcDbBlockTableRecord
  2
*PAPER_SPACE
340
65F
 70
     0
280
     1
281
     0
  0
BLOCK_RECORD
  5
5D
330
1
100
AcDbSymbolTableRecord
100
AcDbBlockTableRecord
  2
*PAPER_SPACE0
340
0
 70
     0
280
     1
281
     0
  0
BLOCK_RECORD
  5
15A
330
1
100
AcDbSymbolTableRecord
100
AcDbBlockTableRecord
  2
*D1
340
0
 70
     0
280
     1
281
     0
  0
BLOCK_RECORD
  5
169
330
1
100
AcDbSymbolTableRecord
100
AcDbBlockTableRecord
  2
*D2
340
0
 70
     0
280
     1
281
     0
  0
BLOCK_RECORD
  5
17A
330
1
100
AcDbSymbolTableRecord
100
AcDbBlockTableRecord
  2
*D3
340
0
 70
     0
280
     1
281
     0
  0
BLOCK_RECORD
  5
1AF
330
1
100
AcDbSymbolTableRecord
100
AcDbBlockTableRecord
  2
*D4
340
0
 70
     0
280
     1
281
     0
  0
BLOCK_RECORD
  5
1BB
330
1
100
AcDbSymbolTableRecord
100
AcDbBlockTableRecord
  2
*D5
340
0
 70
     0
280
     1
281
     0
  0
BLOCK_RECORD
  5
1CA
330
1
100
AcDbSymbolTableRecord
100
AcDbBlockTableRecord
  2
*D6
340
0
 70
     0
280
     1
281
     0
  0
BLOCK_RECORD
  5
20B
330
1
100
AcDbSymbolTableRecord
100
AcDbBlockTableRecord
  2
*D7
340
0
 70
     0
280
     1
281
     0
  0
BLOCK_RECORD
  5
21C
330
1
100
AcDbSymbolTableRecord
100
AcDbBlockTableRecord
  2
*D8
340
0
 70
     0
280
     1
281
     0
  0
BLOCK_RECORD
  5
22B
330
1
100
AcDbSymbolTableRecord
100
AcDbBlockTableRecord
  2
*D9
340
0
 70
     0
280
     1
281
     0
  0
BLOCK_RECORD
  5
23C
330
1
100
AcDbSymbolTableRecord
100
AcDbBlockTableRecord
  2
*D10
340
0
 70
     0
280
     1
281
     0
  0
BLOCK_RECORD
  5
253
330
1
100
AcDbSymbolTableRecord
100
AcDbBlockTableRecord
  2
*D11
340
0
 70
     0
280
     1
281
     0
  0
BLOCK_RECORD
  5
288
330
1
100
AcDbSymbolTableRecord
100
AcDbBlockTableRecord
  2
*D12
340
0
 70
     0
280
     1
281
     0
  0
BLOCK_RECORD
  5
296
330
1
100
AcDbSymbolTableRecord
100
AcDbBlockTableRecord
  2
*D13
340
0
 70
     0
280
     1
281
     0
  0
BLOCK_RECORD
  5
2A2
330
1
100
AcDbSymbolTableRecord
100
AcDbBlockTableRecord
  2
*D14
340
0
 70
     0
280
     1
281
     0
  0
BLOCK_RECORD
  5
2B1
330
1
100
AcDbSymbolTableRecord
100
AcDbBlockTableRecord
  2
*D15
340
0
 70
     0
280
     1
281
     0
  0
BLOCK_RECORD
  5
2BD
330
1
100
AcDbSymbolTableRecord
100
AcDbBlockTableRecord
  2
*D16
340
0
 70
     0
280
     1
281
     0
  0
BLOCK_RECORD
  5
2F3
330
1
100
AcDbSymbolTableRecord
100
AcDbBlockTableRecord
  2
*D17
340
0
 70
     0
280
     1
281
     0
  0
BLOCK_RECORD
  5
304
330
1
100
AcDbSymbolTableRecord
100
AcDbBlockTableRecord
  2
*D18
340
0
 70
     0
280
     1
281
     0
  0
BLOCK_RECORD
  5
31C
330
1
100
AcDbSymbolTableRecord
100
AcDbBlockTableRecord
  2
*D19
340
0
 70
     0
280
     1
281
     0
  0
BLOCK_RECORD
  5
32B
330
1
100
AcDbSymbolTableRecord
100
AcDbBlockTableRecord
  2
*D20
340
0
 70
     0
280
     1
281
     0
  0
BLOCK_RECORD
  5
33F
330
1
100
AcDbSymbolTableRecord
100
AcDbBlockTableRecord
  2
*D21
340
0
 70
     0
280
     1
281
     0
  0
BLOCK_RECORD
  5
37B
330
1
100
AcDbSymbolTableRecord
100
AcDbBlockTableRecord
  2
*D22
340
0
 70
     0
280
     1
281
     0
  0
BLOCK_RECORD
  5
389
330
1
100
AcDbSymbolTableRecord
100
AcDbBlockTableRecord
  2
*D23
340
0
 70
     0
280
     1
281
     0
  0
BLOCK_RECORD
  5
395
330
1
100
AcDbSymbolTableRecord
100
AcDbBlockTableRecord
  2
*D24
340
0
 70
     0
280
     1
281
     0
  0
BLOCK_RECORD
  5
3A1
330
1
100
AcDbSymbolTableRecord
100
AcDbBlockTableRecord
  2
*D25
340
0
 70
     0
280
     1
281
     0
  0
BLOCK_RECORD
  5
3AD
330
1
100
AcDbSymbolTableRecord
100
AcDbBlockTableRecord
  2
*D26
340
0
 70
     0
280
     1
281
     0
  0
BLOCK_RECORD
  5
3BC
330
1
100
AcDbSymbolTableRecord
100
AcDbBlockTableRecord
  2
*D27
340
0
 70
     0
280
     1
281
     0
  0
BLOCK_RECORD
  5
3EF
330
1
100
AcDbSymbolTableRecord
100
AcDbBlockTableRecord
  2
*D28
340
0
 70
     0
280
     1
281
     0
  0
BLOCK_RECORD
  5
401
330
1
100
AcDbSymbolTableRecord
100
AcDbBlockTableRecord
  2
*D29
340
0
 70
     0
280
     1
281
     0
  0
BLOCK_RECORD
  5
435
330
1
100
AcDbSymbolTableRecord
100
AcDbBlockTableRecord
  2
*D30
340
0
 70
     0
280
     1
281
     0
  0
BLOCK_RECORD
  5
465
330
1
100
AcDbSymbolTableRecord
100
AcDbBlockTableRecord
  2
*D31
340
0
 70
     0
280
     1
281
     0
  0
BLOCK_RECORD
  5
4BF
330
1
100
AcDbSymbolTableRecord
100
AcDbBlockTableRecord
  2
*D32
340
0
 70
     0
280
     1
281
     0
  0
BLOCK_RECORD
  5
4D1
330
1
100
AcDbSymbolTableRecord
100
AcDbBlockTableRecord
  2
*D33
340
0
 70
     0
280
     1
281
     0
  0
BLOCK_RECORD
  5
505
330
1
100
AcDbSymbolTableRecord
100
AcDbBlockTableRecord
  2
*D34
340
0
 70
     0
280
     1
281
     0
  0
BLOCK_RECORD
  5
518
330
1
100
AcDbSymbolTableRecord
100
AcDbBlockTableRecord
  2
*D35
340
0
 70
     0
280
     1
281
     0
  0
BLOCK_RECORD
  5
53A
330
1
100
AcDbSymbolTableRecord
100
AcDbBlockTableRecord
  2
*D36
340
0
 70
     0
280
     1
281
     0
  0
BLOCK_RECORD
  5
546
330
1
100
AcDbSymbolTableRecord
100
AcDbBlockTableRecord
  2
*D37
340
0
 70
     0
280
     1
281
     0
  0
BLOCK_RECORD
  5
57A
330
1
100
AcDbSymbolTableRecord
100
AcDbBlockTableRecord
  2
*D38
340
0
 70
     0
280
     1
281
     0
  0
BLOCK_RECORD
  5
58D
330
1
100
AcDbSymbolTableRecord
100
AcDbBlockTableRecord
  2
*D39
340
0
 70
     0
280
     1
281
     0
  0
BLOCK_RECORD
  5
5AF
330
1
100
AcDbSymbolTableRecord
100
AcDbBlockTableRecord
  2
*D40
340
0
 70
     0
280
     1
281
     0
  0
BLOCK_RECORD
  5
5BB
330
1
100
AcDbSymbolTableRecord
100
AcDbBlockTableRecord
  2
*D41
340
0
 70
     0
280
     1
281
     0
  0
BLOCK_RECORD
  5
5EF
330
1
100
AcDbSymbolTableRecord
100
AcDbBlockTableRecord
  2
*D42
340
0
 70
     0
280
     1
281
     0
  0
BLOCK_RECORD
  5
602
330
1
100
AcDbSymbolTableRecord
100
AcDbBlockTableRecord
  2
*D43
340
0
 70
     0
280
     1
281
     0
  0
BLOCK_RECORD
  5
622
330
1
100
AcDbSymbolTableRecord
100
AcDbBlockTableRecord
  2
*D44
340
0
 70
     0
280
     1
281
     0
  0
BLOCK_RECORD
  5
62E
330
1
100
AcDbSymbolTableRecord
100
AcDbBlockTableRecord
  2
*D45
340
0
 70
     0
280
     1
281
     0
  0
BLOCK_RECORD
  5
6EC
330
1
100
AcDbSymbolTableRecord
100
AcDbBlockTableRecord
  2
*D46
340
0
 70
     0
280
     1
281
     0
  0
BLOCK_RECORD
  5
70C
330
1
100
AcDbSymbolTableRecord
100
AcDbBlockTableRecord
  2
*D47
340
0
 70
     0
280
     1
281
     0
  0
BLOCK_RECORD
  5
740
330
1
100
AcDbSymbolTableRecord
100
AcDbBlockTableRecord
  2
*D48
340
0
 70
     0
280
     1
281
     0
  0
BLOCK_RECORD
  5
750
330
1
100
AcDbSymbolTableRecord
100
AcDbBlockTableRecord
  2
*D49
340
0
 70
     0
280
     1
281
     0
  0
BLOCK_RECORD
  5
762
330
1
100
AcDbSymbolTableRecord
100
AcDbBlockTableRecord
  2
*D50
340
0
 70
     0
280
     1
281
     0
  0
BLOCK_RECORD
  5
771
330
1
100
AcDbSymbolTableRecord
100
AcDbBlockTableRecord
  2
*D51
340
0
 70
     0
280
     1
281
     0
  0
BLOCK_RECORD
  5
793
330
1
100
AcDbSymbolTableRecord
100
AcDbBlockTableRecord
  2
*D52
340
0
 70
     0
280
     1
281
     0
  0
BLOCK_RECORD
  5
7A1
330
1
100
AcDbSymbolTableRecord
100
AcDbBlockTableRecord
  2
*D53
340
0
 70
     0
280
     1
281
     0
  0
BLOCK_RECORD
  5
7AD
330
1
100
AcDbSymbolTableRecord
100
AcDbBlockTableRecord
  2
*D54
340
0
 70
     0
280
     1
281
     0
  0
BLOCK_RECORD
  5
7B9
330
1
100
AcDbSymbolTableRecord
100
AcDbBlockTableRecord
  2
*D55
340
0
 70
     0
280
     1
281
     0
  0
BLOCK_RECORD
  5
80C
330
1
100
AcDbSymbolTableRecord
100
AcDbBlockTableRecord
  2
*D56
340
0
 70
     0
280
     1
281
     0
  0
BLOCK_RECORD
  5
82F
330
1
100
AcDbSymbolTableRecord
100
AcDbBlockTableRecord
  2
*D57
340
0
 70
     0
280
     1
281
     0
  0
ENDTAB
  0
ENDSEC
  0
SECTION
  2
BLOCKS
  0
BLOCK
  5
20
330
1F
100
AcDbEntity
  8
0
100
AcDbBlockBegin
  2
*MODEL_SPACE
 70
     0
 10
0.0
 20
0.0
 30
0.0
  3
*MODEL_SPACE
  1
*MODEL_SPACE
  0
ENDBLK
  5
21
330
1F
100
AcDbEntity
  8
0
100
AcDbBlockEnd
  0
BLOCK
  5
5A
330
58
100
AcDbEntity
 67
     1
  8
0
100
AcDbBlockBegin
  2
*PAPER_SPACE
 70
     0
 10
0.0
 20
0.0
 30
0.0
  3
*PAPER_SPACE
  1
*PAPER_SPACE
  0
ENDBLK
  5
5B
330
58
100
AcDbEntity
 67
     1
  8
0
100
AcDbBlockEnd
  0
BLOCK
  5
5F
330
5D
100
AcDbEntity
  8
0
100
AcDbBlockBegin
  2
*PAPER_SPACE0
 70
     0
 10
0.0
 20
0.0
 30
0.0
  3
*PAPER_SPACE0
  1
*Paper_Space0
  0
ENDBLK
  5
60
330
5D
100
AcDbEntity
  8
0
100
AcDbBlockEnd
  0
BLOCK
  5
15B
330
15A
100
AcDbEntity
  8
0
100
AcDbBlockBegin
  2
*D1
 70
     1
 10
0.0
 20
0.0
 30
0.0
  3
*D1
  1
*D9
  0
LINE
  5
15C
330
15A
100
AcDbEntity
  8
文字
 62
     0
100
AcDbLine
 10
28.50000000000005
 20
34.76381968519637
 30
0.0
 11
28.50000000000005
 21
6.73904507074586
 31
0.0
  0
LINE
  5
15D
330
15A
100
AcDbEntity
  8
文字
 62
     0
100
AcDbLine
 10
4.500000000000053
 20
34.76381968519637
 30
0.0
 11
4.500000000000053
 21
6.73904507074586
 31
0.0
  0
LINE
  5
15E
330
15A
100
AcDbEntity
  8
文字
 62
     0
100
AcDbLine
 10
26.00000000000005
 20
7.98904507074586
 30
0.0
 11
7.000000000000053
 21
7.98904507074586
 31
0.0
  0
SOLID
  5
15F
330
15A
100
AcDbEntity
  8
文字
 62
     0
100
AcDbTrace
 10
26.00000000000005
 20
7.572378404079193
 30
0.0
 11
26.00000000000005
 21
8.405711737412526
 31
0.0
 12
28.50000000000005
 22
7.98904507074586
 32
0.0
 13
28.50000000000005
 23
7.98904507074586
 33
0.0
  0
SOLID
  5
160
330
15A
100
AcDbEntity
  8
文字
 62
     0
100
AcDbTrace
 10
7.000000000000053
 20
8.405711737412526
 30
0.0
 11
7.000000000000053
 21
7.572378404079193
 31
0.0
 12
4.500000000000053
 22
7.98904507074586
 32
0.0
 13
4.500000000000053
 23
7.98904507074586
 33
0.0
  0
MTEXT
  5
161
330
15A
100
AcDbEntity
  8
文字
 62
     0
100
AcDbMText
 10
22.1868909218376
 20
9.937373856557592
 30
0.0
 40
2.5
 41
0.0
 46
0.0
 71
     5
 72
     1
  1
%%c24
 73
     1
 44
1.0
  0
POINT
  5
162
330
15A
100
AcDbEntity
  8
DEFPOINTS
 62
     0
100
AcDbPoint
 10
28.50000000000005
 20
35.38881968519637
 30
0.0
  0
POINT
  5
163
330
15A
100
AcDbEntity
  8
DEFPOINTS
 62
     0
100
AcDbPoint
 10
4.500000000000053
 20
35.38881968519637
 30
0.0
  0
POINT
  5
164
330
15A
100
AcDbEntity
  8
DEFPOINTS
 62
     0
100
AcDbPoint
 10
4.500000000000053
 20
7.98904507074586
 30
0.0
  0
ENDBLK
  5
165
330
15A
100
AcDbEntity
  8
0
100
AcDbBlockEnd
  0
BLOCK
  5
16A
330
169
100
AcDbEntity
  8
0
100
AcDbBlockBegin
  2
*D2
 70
     1
 10
0.0
 20
0.0
 30
0.0
  3
*D2
  1
*D10
  0
LINE
  5
16B
330
169
100
AcDbEntity
  8
文字
 62
     0
100
AcDbLine
 10
19.50000000000005
 20
29.56381968519639
 30
0.0
 11
19.50000000000005
 21
17.35912756985376
 31
0.0
  0
LINE
  5
16C
330
169
100
AcDbEntity
  8
文字
 62
     0
100
AcDbLine
 10
13.50000000000005
 20
29.56381968519639
 30
0.0
 11
13.50000000000005
 21
17.35912756985376
 31
0.0
  0
LINE
  5
16D
330
169
100
AcDbEntity
  8
文字
 62
     0
100
AcDbLine
 10
19.50000000000005
 20
18.60912756985376
 30
0.0
 11
27.40870850386547
 21
18.60912756985376
 31
0.0
  0
LINE
  5
16E
330
169
100
AcDbEntity
  8
文字
 62
     0
100
AcDbLine
 10
19.50000000000005
 20
18.60912756985376
 30
0.0
 11
13.50000000000005
 21
18.60912756985376
 31
0.0
  0
LINE
  5
16F
330
169
100
AcDbEntity
  8
文字
 62
     0
100
AcDbLine
 10
22.00000000000005
 20
18.60912756985376
 30
0.0
 11
24.50000000000005
 21
18.60912756985376
 31
0.0
  0
LINE
  5
170
330
169
100
AcDbEntity
  8
文字
 62
     0
100
AcDbLine
 10
11.00000000000005
 20
18.60912756985376
 30
0.0
 11
8.500000000000053
 21
18.60912756985376
 31
0.0
  0
SOLID
  5
171
330
169
100
AcDbEntity
  8
文字
 62
     0
100
AcDbTrace
 10
22.00000000000005
 20
19.02579423652043
 30
0.0
 11
22.00000000000005
 21
18.19246090318709
 31
0.0
 12
19.50000000000005
 22
18.60912756985376
 32
0.0
 13
19.50000000000005
 23
18.60912756985376
 33
0.0
  0
SOLID
  5
172
330
169
100
AcDbEntity
  8
文字
 62
     0
100
AcDbTrace
 10
11.00000000000005
 20
18.19246090318709
 30
0.0
 11
11.00000000000005
 21
19.02579423652043
 31
0.0
 12
13.50000000000005
 22
18.60912756985376
 32
0.0
 13
13.50000000000005
 23
18.60912756985376
 33
0.0
  0
MTEXT
  5
173
330
169
100
AcDbEntity
  8
文字
 62
     0
100
AcDbMText
 10
25.95833333333341
 20
20.50970737885785
 30
0.0
 40
2.5
 41
0.0
 46
0.0
 71
     5
 72
     1
  1
6
 73
     1
 44
1.0
  0
POINT
  5
174
330
169
100
AcDbEntity
  8
DEFPOINTS
 62
     0
100
AcDbPoint
 10
19.50000000000005
 20
30.18881968519639
 30
0.0
  0
POINT
  5
175
330
169
100
AcDbEntity
  8
DEFPOINTS
 62
     0
100
AcDbPoint
 10
13.50000000000005
 20
30.18881968519639
 30
0.0
  0
POINT
  5
176
330
169
100
AcDbEntity
  8
DEFPOINTS
 62
     0
100
AcDbPoint
 10
13.50000000000005
 20
18.60912756985376
 30
0.0
  0
ENDBLK
  5
177
330
169
100
AcDbEntity
  8
0
100
AcDbBlockEnd
  0
BLOCK
  5
17B
330
17A
100
AcDbEntity
  8
0
100
AcDbBlockBegin
  2
*D3
 70
     1
 10
0.0
 20
0.0
 30
0.0
  3
*D3
  1
*D11
  0
LINE
  5
17C
330
17A
100
AcDbEntity
  8
文字
 62
     0
100
AcDbLine
 10
33.0
 20
32.16381968519641
 30
0.0
 11
33.0
 21
0.0
 31
0.0
  0
LINE
  5
17D
330
17A
100
AcDbEntity
  8
文字
 62
     0
100
AcDbLine
 10
0.0
 20
32.16381968519641
 30
0.0
 11
0.0
 21
0.0
 31
0.0
  0
LINE
  5
17E
330
17A
100
AcDbEntity
  8
文字
 62
     0
100
AcDbLine
 10
30.5
 20
1.25
 30
0.0
 11
2.5
 21
1.25
 31
0.0
  0
SOLID
  5
17F
330
17A
100
AcDbEntity
  8
文字
 62
     0
100
AcDbTrace
 10
30.5
 20
0.8333333333333333
 30
0.0
 11
30.5
 21
1.666666666666667
 31
0.0
 12
33.0
 22
1.25
 32
0.0
 13
33.0
 23
1.25
 33
0.0
  0
SOLID
  5
180
330
17A
100
AcDbEntity
  8
文字
 62
     0
100
AcDbTrace
 10
2.5
 20
1.666666666666667
 30
0.0
 11
2.5
 21
0.8333333333333333
 31
0.0
 12
0.0
 22
1.25
 32
0.0
 13
0.0
 23
1.25
 33
0.0
  0
MTEXT
  5
181
330
17A
100
AcDbEntity
  8
文字
 62
     0
100
AcDbMText
 10
20.88204009210322
 20
3.198328785811733
 30
0.0
 40
2.5
 41
0.0
 46
0.0
 71
     5
 72
     1
  1
%%c33
 73
     1
 44
1.0
  0
POINT
  5
182
330
17A
100
AcDbEntity
  8
DEFPOINTS
 62
     0
100
AcDbPoint
 10
33.0
 20
32.78881968519641
 30
0.0
  0
POINT
  5
183
330
17A
100
AcDbEntity
  8
DEFPOINTS
 62
     0
100
AcDbPoint
 10
0.0
 20
32.78881968519641
 30
0.0
  0
POINT
  5
184
330
17A
100
AcDbEntity
  8
DEFPOINTS
 62
     0
100
AcDbPoint
 10
0.0
 20
1.25
 30
0.0
  0
ENDBLK
  5
185
330
17A
100
AcDbEntity
  8
0
100
AcDbBlockEnd
  0
BLOCK
  5
1B0
330
1AF
100
AcDbEntity
  8
0
100
AcDbBlockBegin
  2
*D4
 70
     1
 10
0.0
 20
0.0
 30
0.0
  3
*D4
  1
*D5
  0
LINE
  5
1B2
330
1AF
100
AcDbEntity
  8
文字
 62
     0
100
AcDbLine
 10
106.5929325565169
 20
93.03377466661559
 30
0.0
 11
106.5929325565169
 21
65.00900005216506
 31
0.0
  0
LINE
  5
1B3
330
1AF
100
AcDbEntity
  8
文字
 62
     0
100
AcDbLine
 10
82.59293255651693
 20
93.03377466661559
 30
0.0
 11
82.59293255651693
 21
65.00900005216506
 31
0.0
  0
LINE
  5
1B4
330
1AF
100
AcDbEntity
  8
文字
 62
     0
100
AcDbLine
 10
104.0929325565169
 20
66.25900005216506
 30
0.0
 11
85.09293255651693
 21
66.25900005216506
 31
0.0
  0
SOLID
  5
1B5
330
1AF
100
AcDbEntity
  8
文字
 62
     0
100
AcDbTrace
 10
104.0929325565169
 20
65.84233338549839
 30
0.0
 11
104.0929325565169
 21
66.67566671883174
 31
0.0
 12
106.5929325565169
 22
66.25900005216506
 32
0.0
 13
106.5929325565169
 23
66.25900005216506
 33
0.0
  0
SOLID
  5
1B6
330
1AF
100
AcDbEntity
  8
文字
 62
     0
100
AcDbTrace
 10
85.09293255651693
 20
66.67566671883174
 30
0.0
 11
85.09293255651693
 21
65.84233338549839
 31
0.0
 12
82.59293255651693
 22
66.25900005216506
 32
0.0
 13
82.59293255651693
 23
66.25900005216506
 33
0.0
  0
MTEXT
  5
1B7
330
1AF
100
AcDbEntity
  8
文字
 62
     0
100
AcDbMText
 10
100.2798234783545
 20
68.2073288379768
 30
0.0
 40
2.5
 41
0.0
 46
0.0
 71
     5
 72
     1
  1
%%c24
 73
     1
 44
1.0
  0
POINT
  5
1B8
330
1AF
100
AcDbEntity
  8
DEFPOINTS
 62
     0
100
AcDbPoint
 10
106.5929325565169
 20
93.65877466661559
 30
0.0
  0
POINT
  5
1B9
330
1AF
100
AcDbEntity
  8
DEFPOINTS
 62
     0
100
AcDbPoint
 10
82.59293255651693
 20
93.65877466661559
 30
0.0
  0
POINT
  5
1BA
330
1AF
100
AcDbEntity
  8
DEFPOINTS
 62
     0
100
AcDbPoint
 10
82.59293255651693
 20
66.25900005216506
 30
0.0
  0
ENDBLK
  5
1B1
330
1AF
100
AcDbEntity
  8
0
100
AcDbBlockEnd
  0
BLOCK
  5
1BC
330
1BB
100
AcDbEntity
  8
0
100
AcDbBlockBegin
  2
*D5
 70
     1
 10
0.0
 20
0.0
 30
0.0
  3
*D5
  1
*D6
  0
LINE
  5
1BE
330
1BB
100
AcDbEntity
  8
文字
 62
     0
100
AcDbLine
 10
97.59293255651693
 20
87.8337746666156
 30
0.0
 11
97.59293255651693
 21
75.62908255127296
 31
0.0
  0
LINE
  5
1BF
330
1BB
100
AcDbEntity
  8
文字
 62
     0
100
AcDbLine
 10
91.59293255651693
 20
87.8337746666156
 30
0.0
 11
91.59293255651693
 21
75.62908255127296
 31
0.0
  0
LINE
  5
1C0
330
1BB
100
AcDbEntity
  8
文字
 62
     0
100
AcDbLine
 10
97.59293255651693
 20
76.87908255127296
 30
0.0
 11
105.5016410603823
 21
76.87908255127296
 31
0.0
  0
LINE
  5
1C1
330
1BB
100
AcDbEntity
  8
文字
 62
     0
100
AcDbLine
 10
97.59293255651693
 20
76.87908255127296
 30
0.0
 11
91.59293255651693
 21
76.87908255127296
 31
0.0
  0
LINE
  5
1C2
330
1BB
100
AcDbEntity
  8
文字
 62
     0
100
AcDbLine
 10
100.0929325565169
 20
76.87908255127296
 30
0.0
 11
102.5929325565169
 21
76.87908255127296
 31
0.0
  0
LINE
  5
1C3
330
1BB
100
AcDbEntity
  8
文字
 62
     0
100
AcDbLine
 10
89.09293255651693
 20
76.87908255127296
 30
0.0
 11
86.59293255651693
 21
76.87908255127296
 31
0.0
  0
SOLID
  5
1C4
330
1BB
100
AcDbEntity
  8
文字
 62
     0
100
AcDbTrace
 10
100.0929325565169
 20
77.29574921793963
 30
0.0
 11
100.0929325565169
 21
76.46241588460629
 31
0.0
 12
97.59293255651693
 22
76.87908255127296
 32
0.0
 13
97.59293255651693
 23
76.87908255127296
 33
0.0
  0
SOLID
  5
1C5
330
1BB
100
AcDbEntity
  8
文字
 62
     0
100
AcDbTrace
 10
89.09293255651693
 20
76.46241588460629
 30
0.0
 11
89.09293255651693
 21
77.29574921793963
 31
0.0
 12
91.59293255651693
 22
76.87908255127296
 32
0.0
 13
91.59293255651693
 23
76.87908255127296
 33
0.0
  0
MTEXT
  5
1C6
330
1BB
100
AcDbEntity
  8
文字
 62
     0
100
AcDbMText
 10
104.0512658898503
 20
78.77966236027706
 30
0.0
 40
2.5
 41
0.0
 46
0.0
 71
     5
 72
     1
  1
6
 73
     1
 44
1.0
  0
POINT
  5
1C7
330
1BB
100
AcDbEntity
  8
DEFPOINTS
 62
     0
100
AcDbPoint
 10
97.59293255651693
 20
88.4587746666156
 30
0.0
  0
POINT
  5
1C8
330
1BB
100
AcDbEntity
  8
DEFPOINTS
 62
     0
100
AcDbPoint
 10
91.59293255651693
 20
88.4587746666156
 30
0.0
  0
POINT
  5
1C9
330
1BB
100
AcDbEntity
  8
DEFPOINTS
 62
     0
100
AcDbPoint
 10
91.59293255651693
 20
76.87908255127296
 30
0.0
  0
ENDBLK
  5
1BD
330
1BB
100
AcDbEntity
  8
0
100
AcDbBlockEnd
  0
BLOCK
  5
1CB
330
1CA
100
AcDbEntity
  8
0
100
AcDbBlockBegin
  2
*D6
 70
     1
 10
0.0
 20
0.0
 30
0.0
  3
*D6
  1
*D7
  0
LINE
  5
1CD
330
1CA
100
AcDbEntity
  8
文字
 62
     0
100
AcDbLine
 10
111.0929325565169
 20
90.43377466661562
 30
0.0
 11
111.0929325565169
 21
58.2699549814192
 31
0.0
  0
LINE
  5
1CE
330
1CA
100
AcDbEntity
  8
文字
 62
     0
100
AcDbLine
 10
78.09293255651687
 20
90.43377466661562
 30
0.0
 11
78.09293255651687
 21
58.2699549814192
 31
0.0
  0
LINE
  5
1CF
330
1CA
100
AcDbEntity
  8
文字
 62
     0
100
AcDbLine
 10
108.5929325565169
 20
59.5199549814192
 30
0.0
 11
80.59293255651687
 21
59.5199549814192
 31
0.0
  0
SOLID
  5
1D0
330
1CA
100
AcDbEntity
  8
文字
 62
     0
100
AcDbTrace
 10
108.5929325565169
 20
59.10328831475254
 30
0.0
 11
108.5929325565169
 21
59.93662164808587
 31
0.0
 12
111.0929325565169
 22
59.5199549814192
 32
0.0
 13
111.0929325565169
 23
59.5199549814192
 33
0.0
  0
SOLID
  5
1D1
330
1CA
100
AcDbEntity
  8
文字
 62
     0
100
AcDbTrace
 10
80.59293255651687
 20
59.93662164808587
 30
0.0
 11
80.59293255651687
 21
59.10328831475254
 31
0.0
 12
78.09293255651687
 22
59.5199549814192
 32
0.0
 13
78.09293255651687
 23
59.5199549814192
 33
0.0
  0
MTEXT
  5
1D2
330
1CA
100
AcDbEntity
  8
文字
 62
     0
100
AcDbMText
 10
98.9749726486201
 20
61.46828376723094
 30
0.0
 40
2.5
 41
0.0
 46
0.0
 71
     5
 72
     1
  1
%%c33
 73
     1
 44
1.0
  0
POINT
  5
1D3
330
1CA
100
AcDbEntity
  8
DEFPOINTS
 62
     0
100
AcDbPoint
 10
111.0929325565169
 20
91.05877466661562
 30
0.0
  0
POINT
  5
1D4
330
1CA
100
AcDbEntity
  8
DEFPOINTS
 62
     0
100
AcDbPoint
 10
78.09293255651687
 20
91.05877466661562
 30
0.0
  0
POINT
  5
1D5
330
1CA
100
AcDbEntity
  8
DEFPOINTS
 62
     0
100
AcDbPoint
 10
78.09293255651687
 20
59.5199549814192
 30
0.0
  0
ENDBLK
  5
1CC
330
1CA
100
AcDbEntity
  8
0
100
AcDbBlockEnd
  0
BLOCK
  5
20C
330
20B
100
AcDbEntity
  8
0
100
AcDbBlockBegin
  2
*D7
 70
     1
 10
0.0
 20
0.0
 30
0.0
  3
*D7
  1
*D8
  0
LINE
  5
20D
330
20B
100
AcDbEntity
  8
文字
 62
     0
100
AcDbLine
 10
25.01560177681058
 20
32.18881968519639
 30
0.0
 11
27.67984218961176
 21
32.18881968519639
 31
0.0
  0
LINE
  5
20E
330
20B
100
AcDbEntity
  8
文字
 62
     0
100
AcDbLine
 10
25.01560177681058
 20
30.18881968519639
 30
0.0
 11
27.67984218961176
 21
30.18881968519639
 31
0.0
  0
LINE
  5
20F
330
20B
100
AcDbEntity
  8
文字
 62
     0
100
AcDbLine
 10
26.42984218961176
 20
27.68881968519639
 30
0.0
 11
26.42984218961176
 21
22.27783742053063
 31
0.0
  0
LINE
  5
210
330
20B
100
AcDbEntity
  8
文字
 62
     0
100
AcDbLine
 10
26.42984218961176
 20
32.18881968519639
 30
0.0
 11
26.42984218961176
 21
30.18881968519639
 31
0.0
  0
LINE
  5
211
330
20B
100
AcDbEntity
  8
文字
 62
     0
100
AcDbLine
 10
26.42984218961176
 20
34.68881968519639
 30
0.0
 11
26.42984218961176
 21
37.18881968519639
 31
0.0
  0
SOLID
  5
212
330
20B
100
AcDbEntity
  8
文字
 62
     0
100
AcDbTrace
 10
26.01317552294509
 20
34.68881968519639
 30
0.0
 11
26.84650885627843
 21
34.68881968519639
 31
0.0
 12
26.42984218961176
 22
32.18881968519639
 32
0.0
 13
26.42984218961176
 23
32.18881968519639
 33
0.0
  0
SOLID
  5
213
330
20B
100
AcDbEntity
  8
文字
 62
     0
100
AcDbTrace
 10
26.84650885627843
 20
27.68881968519639
 30
0.0
 11
26.01317552294509
 21
27.68881968519639
 31
0.0
 12
26.42984218961176
 22
30.18881968519639
 32
0.0
 13
26.42984218961176
 23
30.18881968519639
 33
0.0
  0
MTEXT
  5
214
330
20B
100
AcDbEntity
  8
文字
 62
     0
100
AcDbMText
 10
24.54972622781094
 20
23.73332855286351
 30
0.0
 40
2.5
 41
0.0
 46
0.0
 71
     5
 72
     1
  1
2
 11
0.0
 21
1.0
 31
0.0
 73
     1
 44
1.0
  0
POINT
  5
215
330
20B
100
AcDbEntity
  8
DEFPOINTS
 62
     0
100
AcDbPoint
 10
24.39060177681058
 20
32.18881968519639
 30
0.0
  0
POINT
  5
216
330
20B
100
AcDbEntity
  8
DEFPOINTS
 62
     0
100
AcDbPoint
 10
24.39060177681058
 20
30.18881968519639
 30
0.0
  0
POINT
  5
217
330
20B
100
AcDbEntity
  8
DEFPOINTS
 62
     0
100
AcDbPoint
 10
26.42984218961176
 20
30.18881968519639
 30
0.0
  0
ENDBLK
  5
218
330
20B
100
AcDbEntity
  8
0
100
AcDbBlockEnd
  0
BLOCK
  5
21D
330
21C
100
AcDbEntity
  8
0
100
AcDbBlockBegin
  2
*D8
 70
     1
 10
0.0
 20
0.0
 30
0.0
  3
*D8
  1
*D9
  0
LINE
  5
21E
330
21C
100
AcDbEntity
  8
文字
 62
     0
100
AcDbLine
 10
46.27965068535359
 20
34.76381968519637
 30
0.0
 11
46.27965068535359
 21
6.73904507074586
 31
0.0
  0
LINE
  5
21F
330
21C
100
AcDbEntity
  8
文字
 62
     0
100
AcDbLine
 10
22.27965068535359
 20
34.76381968519637
 30
0.0
 11
22.27965068535359
 21
6.73904507074586
 31
0.0
  0
LINE
  5
220
330
21C
100
AcDbEntity
  8
文字
 62
     0
100
AcDbLine
 10
43.77965068535359
 20
7.98904507074586
 30
0.0
 11
24.77965068535359
 21
7.98904507074586
 31
0.0
  0
SOLID
  5
221
330
21C
100
AcDbEntity
  8
文字
 62
     0
100
AcDbTrace
 10
43.77965068535359
 20
7.572378404079193
 30
0.0
 11
43.77965068535359
 21
8.405711737412526
 31
0.0
 12
46.27965068535359
 22
7.98904507074586
 32
0.0
 13
46.27965068535359
 23
7.98904507074586
 33
0.0
  0
SOLID
  5
222
330
21C
100
AcDbEntity
  8
文字
 62
     0
100
AcDbTrace
 10
24.77965068535359
 20
8.405711737412526
 30
0.0
 11
24.77965068535359
 21
7.572378404079193
 31
0.0
 12
22.27965068535359
 22
7.98904507074586
 32
0.0
 13
22.27965068535359
 23
7.98904507074586
 33
0.0
  0
MTEXT
  5
223
330
21C
100
AcDbEntity
  8
文字
 62
     0
100
AcDbMText
 10
39.96654160719113
 20
9.937373856557592
 30
0.0
 40
2.5
 41
0.0
 46
0.0
 71
     5
 72
     1
  1
%%c24
 73
     1
 44
1.0
  0
POINT
  5
224
330
21C
100
AcDbEntity
  8
DEFPOINTS
 62
     0
100
AcDbPoint
 10
46.27965068535359
 20
35.38881968519637
 30
0.0
  0
POINT
  5
225
330
21C
100
AcDbEntity
  8
DEFPOINTS
 62
     0
100
AcDbPoint
 10
22.27965068535359
 20
35.38881968519637
 30
0.0
  0
POINT
  5
226
330
21C
100
AcDbEntity
  8
DEFPOINTS
 62
     0
100
AcDbPoint
 10
22.27965068535359
 20
7.98904507074586
 30
0.0
  0
ENDBLK
  5
227
330
21C
100
AcDbEntity
  8
0
100
AcDbBlockEnd
  0
BLOCK
  5
22C
330
22B
100
AcDbEntity
  8
0
100
AcDbBlockBegin
  2
*D9
 70
     1
 10
0.0
 20
0.0
 30
0.0
  3
*D9
  1
*D10
  0
LINE
  5
22D
330
22B
100
AcDbEntity
  8
文字
 62
     0
100
AcDbLine
 10
37.27965068535359
 20
29.56381968519639
 30
0.0
 11
37.27965068535359
 21
17.35912756985376
 31
0.0
  0
LINE
  5
22E
330
22B
100
AcDbEntity
  8
文字
 62
     0
100
AcDbLine
 10
31.27965068535359
 20
29.56381968519639
 30
0.0
 11
31.27965068535359
 21
17.35912756985376
 31
0.0
  0
LINE
  5
22F
330
22B
100
AcDbEntity
  8
文字
 62
     0
100
AcDbLine
 10
37.27965068535359
 20
18.60912756985376
 30
0.0
 11
45.18835918921901
 21
18.60912756985376
 31
0.0
  0
LINE
  5
230
330
22B
100
AcDbEntity
  8
文字
 62
     0
100
AcDbLine
 10
37.27965068535359
 20
18.60912756985376
 30
0.0
 11
31.27965068535359
 21
18.60912756985376
 31
0.0
  0
LINE
  5
231
330
22B
100
AcDbEntity
  8
文字
 62
     0
100
AcDbLine
 10
39.77965068535359
 20
18.60912756985376
 30
0.0
 11
42.27965068535359
 21
18.60912756985376
 31
0.0
  0
LINE
  5
232
330
22B
100
AcDbEntity
  8
文字
 62
     0
100
AcDbLine
 10
28.77965068535359
 20
18.60912756985376
 30
0.0
 11
26.27965068535359
 21
18.60912756985376
 31
0.0
  0
SOLID
  5
233
330
22B
100
AcDbEntity
  8
文字
 62
     0
100
AcDbTrace
 10
39.77965068535359
 20
19.02579423652043
 30
0.0
 11
39.77965068535359
 21
18.19246090318709
 31
0.0
 12
37.27965068535359
 22
18.60912756985376
 32
0.0
 13
37.27965068535359
 23
18.60912756985376
 33
0.0
  0
SOLID
  5
234
330
22B
100
AcDbEntity
  8
文字
 62
     0
100
AcDbTrace
 10
28.77965068535359
 20
18.19246090318709
 30
0.0
 11
28.77965068535359
 21
19.02579423652043
 31
0.0
 12
31.27965068535359
 22
18.60912756985376
 32
0.0
 13
31.27965068535359
 23
18.60912756985376
 33
0.0
  0
MTEXT
  5
235
330
22B
100
AcDbEntity
  8
文字
 62
     0
100
AcDbMText
 10
43.73798401868694
 20
20.50970737885785
 30
0.0
 40
2.5
 41
0.0
 46
0.0
 71
     5
 72
     1
  1
6
 73
     1
 44
1.0
  0
POINT
  5
236
330
22B
100
AcDbEntity
  8
DEFPOINTS
 62
     0
100
AcDbPoint
 10
37.27965068535359
 20
30.18881968519639
 30
0.0
  0
POINT
  5
237
330
22B
100
AcDbEntity
  8
DEFPOINTS
 62
     0
100
AcDbPoint
 10
31.27965068535359
 20
30.18881968519639
 30
0.0
  0
POINT
  5
238
330
22B
100
AcDbEntity
  8
DEFPOINTS
 62
     0
100
AcDbPoint
 10
31.27965068535359
 20
18.60912756985376
 30
0.0
  0
ENDBLK
  5
239
330
22B
100
AcDbEntity
  8
0
100
AcDbBlockEnd
  0
BLOCK
  5
23D
330
23C
100
AcDbEntity
  8
0
100
AcDbBlockBegin
  2
*D10
 70
     1
 10
0.0
 20
0.0
 30
0.0
  3
*D10
  1
*D11
  0
LINE
  5
23E
330
23C
100
AcDbEntity
  8
文字
 62
     0
100
AcDbLine
 10
50.77965068535354
 20
32.16381968519641
 30
0.0
 11
50.77965068535353
 21
0.0
 31
0.0
  0
LINE
  5
23F
330
23C
100
AcDbEntity
  8
文字
 62
     0
100
AcDbLine
 10
17.77965068535353
 20
32.16381968519641
 30
0.0
 11
17.77965068535353
 21
0.0
 31
0.0
  0
LINE
  5
240
330
23C
100
AcDbEntity
  8
文字
 62
     0
100
AcDbLine
 10
48.27965068535353
 20
1.25
 30
0.0
 11
20.27965068535353
 21
1.25
 31
0.0
  0
SOLID
  5
241
330
23C
100
AcDbEntity
  8
文字
 62
     0
100
AcDbTrace
 10
48.27965068535353
 20
0.8333333333333333
 30
0.0
 11
48.27965068535353
 21
1.666666666666667
 31
0.0
 12
50.77965068535353
 22
1.25
 32
0.0
 13
50.77965068535353
 23
1.25
 33
0.0
  0
SOLID
  5
242
330
23C
100
AcDbEntity
  8
文字
 62
     0
100
AcDbTrace
 10
20.27965068535353
 20
1.666666666666667
 30
0.0
 11
20.27965068535353
 21
0.8333333333333333
 31
0.0
 12
17.77965068535353
 22
1.25
 32
0.0
 13
17.77965068535353
 23
1.25
 33
0.0
  0
MTEXT
  5
243
330
23C
100
AcDbEntity
  8
文字
 62
     0
100
AcDbMText
 10
38.66169077745676
 20
3.198328785811733
 30
0.0
 40
2.5
 41
0.0
 46
0.0
 71
     5
 72
     1
  1
%%c33
 73
     1
 44
1.0
  0
POINT
  5
244
330
23C
100
AcDbEntity
  8
DEFPOINTS
 62
     0
100
AcDbPoint
 10
50.77965068535354
 20
32.78881968519641
 30
0.0
  0
POINT
  5
245
330
23C
100
AcDbEntity
  8
DEFPOINTS
 62
     0
100
AcDbPoint
 10
17.77965068535353
 20
32.78881968519641
 30
0.0
  0
POINT
  5
246
330
23C
100
AcDbEntity
  8
DEFPOINTS
 62
     0
100
AcDbPoint
 10
17.77965068535353
 20
1.25
 30
0.0
  0
ENDBLK
  5
247
330
23C
100
AcDbEntity
  8
0
100
AcDbBlockEnd
  0
BLOCK
  5
254
330
253
100
AcDbEntity
  8
0
100
AcDbBlockBegin
  2
*D11
 70
     1
 10
0.0
 20
0.0
 30
0.0
  3
*D11
  1
*D7
  0
LINE
  5
255
330
253
100
AcDbEntity
  8
文字
 62
     0
100
AcDbLine
 10
21.65465068535359
 20
35.38881968519637
 30
0.0
 11
1.926159618008187
 21
35.38881968519638
 31
0.0
  0
LINE
  5
256
330
253
100
AcDbEntity
  8
文字
 62
     0
100
AcDbLine
 10
21.65039642167501
 20
30.18881968519639
 30
0.0
 11
1.926159618008185
 21
30.18881968519639
 31
0.0
  0
LINE
  5
257
330
253
100
AcDbEntity
  8
文字
 62
     0
100
AcDbLine
 10
3.176159618008184
 20
27.68881968519639
 30
0.0
 11
3.176159618008182
 21
19.4094881708717
 31
0.0
  0
LINE
  5
258
330
253
100
AcDbEntity
  8
文字
 62
     0
100
AcDbLine
 10
3.176159618008187
 20
35.38881968519638
 30
0.0
 11
3.176159618008185
 21
30.18881968519639
 31
0.0
  0
LINE
  5
259
330
253
100
AcDbEntity
  8
文字
 62
     0
100
AcDbLine
 10
3.176159618008188
 20
37.88881968519638
 30
0.0
 11
3.176159618008189
 21
40.38881968519638
 31
0.0
  0
SOLID
  5
25A
330
253
100
AcDbEntity
  8
文字
 62
     0
100
AcDbTrace
 10
2.759492951341521
 20
37.88881968519638
 30
0.0
 11
3.592826284674854
 21
37.88881968519638
 31
0.0
 12
3.176159618008187
 22
35.38881968519638
 32
0.0
 13
3.176159618008187
 23
35.38881968519638
 33
0.0
  0
SOLID
  5
25B
330
253
100
AcDbEntity
  8
文字
 62
     0
100
AcDbTrace
 10
3.592826284674851
 20
27.68881968519639
 30
0.0
 11
2.759492951341518
 21
27.68881968519639
 31
0.0
 12
3.176159618008185
 22
30.18881968519639
 32
0.0
 13
3.176159618008185
 23
30.18881968519639
 33
0.0
  0
MTEXT
  5
25C
330
253
100
AcDbEntity
  8
文字
 62
     0
100
AcDbMText
 10
1.27557980900409
 20
22.29915392803404
 30
0.0
 40
2.5
 41
0.0
 46
0.0
 71
     5
 72
     1
  1
5.2
 11
3.416070845000489E-16
 21
1.0
 31
0.0
 73
     1
 44
1.0
  0
POINT
  5
25D
330
253
100
AcDbEntity
  8
DEFPOINTS
 62
     0
100
AcDbPoint
 10
22.27965068535359
 20
35.38881968519637
 30
0.0
  0
POINT
  5
25E
330
253
100
AcDbEntity
  8
DEFPOINTS
 62
     0
100
AcDbPoint
 10
22.27539642167501
 20
30.18881968519639
 30
0.0
  0
POINT
  5
25F
330
253
100
AcDbEntity
  8
DEFPOINTS
 62
     0
100
AcDbPoint
 10
3.176159618008185
 20
30.18881968519639
 30
0.0
  0
ENDBLK
  5
260
330
253
100
AcDbEntity
  8
0
100
AcDbBlockEnd
  0
BLOCK
  5
289
330
288
100
AcDbEntity
  8
0
100
AcDbBlockBegin
  2
*D12
 70
     1
 10
0.0
 20
0.0
 30
0.0
  3
*D12
  1
*D14
  0
LINE
  5
28B
330
288
100
AcDbEntity
  8
文字
 62
     0
100
AcDbLine
 10
64.65884828271034
 20
53.27638215754814
 30
0.0
 11
67.32308869551152
 21
53.27638215754814
 31
0.0
  0
LINE
  5
28C
330
288
100
AcDbEntity
  8
文字
 62
     0
100
AcDbLine
 10
64.65884828271034
 20
51.27638215754814
 30
0.0
 11
67.32308869551152
 21
51.27638215754814
 31
0.0
  0
LINE
  5
28D
330
288
100
AcDbEntity
  8
文字
 62
     0
100
AcDbLine
 10
66.07308869551152
 20
48.77638215754814
 30
0.0
 11
66.07308869551152
 21
43.36539989288238
 31
0.0
  0
LINE
  5
28E
330
288
100
AcDbEntity
  8
文字
 62
     0
100
AcDbLine
 10
66.07308869551152
 20
53.27638215754814
 30
0.0
 11
66.07308869551152
 21
51.27638215754814
 31
0.0
  0
LINE
  5
28F
330
288
100
AcDbEntity
  8
文字
 62
     0
100
AcDbLine
 10
66.07308869551152
 20
55.77638215754814
 30
0.0
 11
66.07308869551152
 21
58.27638215754814
 31
0.0
  0
SOLID
  5
290
330
288
100
AcDbEntity
  8
文字
 62
     0
100
AcDbTrace
 10
65.65642202884484
 20
55.77638215754814
 30
0.0
 11
66.48975536217819
 21
55.77638215754814
 31
0.0
 12
66.07308869551152
 22
53.27638215754814
 32
0.0
 13
66.07308869551152
 23
53.27638215754814
 33
0.0
  0
SOLID
  5
291
330
288
100
AcDbEntity
  8
文字
 62
     0
100
AcDbTrace
 10
66.48975536217819
 20
48.77638215754814
 30
0.0
 11
65.65642202884484
 21
48.77638215754814
 31
0.0
 12
66.07308869551152
 22
51.27638215754814
 32
0.0
 13
66.07308869551152
 23
51.27638215754814
 33
0.0
  0
MTEXT
  5
292
330
288
100
AcDbEntity
  8
文字
 62
     0
100
AcDbMText
 10
64.19297273371069
 20
44.82089102521526
 30
0.0
 40
2.5
 41
0.0
 46
0.0
 71
     5
 72
     1
  1
2
 11
0.0
 21
1.0
 31
0.0
 73
     1
 44
1.0
  0
POINT
  5
293
330
288
100
AcDbEntity
  8
DEFPOINTS
 62
     0
100
AcDbPoint
 10
64.03384828271034
 20
53.27638215754814
 30
0.0
  0
POINT
  5
294
330
288
100
AcDbEntity
  8
DEFPOINTS
 62
     0
100
AcDbPoint
 10
64.03384828271034
 20
51.27638215754814
 30
0.0
  0
POINT
  5
295
330
288
100
AcDbEntity
  8
DEFPOINTS
 62
     0
100
AcDbPoint
 10
66.07308869551152
 20
51.27638215754814
 30
0.0
  0
ENDBLK
  5
28A
330
288
100
AcDbEntity
  8
0
100
AcDbBlockEnd
  0
BLOCK
  5
297
330
296
100
AcDbEntity
  8
0
100
AcDbBlockBegin
  2
*D13
 70
     1
 10
0.0
 20
0.0
 30
0.0
  3
*D13
  1
*D15
  0
LINE
  5
299
330
296
100
AcDbEntity
  8
文字
 62
     0
100
AcDbLine
 10
85.92289719125334
 20
55.85138215754813
 30
0.0
 11
85.92289719125334
 21
27.82660754309762
 31
0.0
  0
LINE
  5
29A
330
296
100
AcDbEntity
  8
文字
 62
     0
100
AcDbLine
 10
61.92289719125334
 20
55.85138215754813
 30
0.0
 11
61.92289719125334
 21
27.82660754309762
 31
0.0
  0
LINE
  5
29B
330
296
100
AcDbEntity
  8
文字
 62
     0
100
AcDbLine
 10
83.42289719125334
 20
29.07660754309762
 30
0.0
 11
64.42289719125334
 21
29.07660754309762
 31
0.0
  0
SOLID
  5
29C
330
296
100
AcDbEntity
  8
文字
 62
     0
100
AcDbTrace
 10
83.42289719125334
 20
28.65994087643095
 30
0.0
 11
83.42289719125334
 21
29.49327420976428
 31
0.0
 12
85.92289719125334
 22
29.07660754309762
 32
0.0
 13
85.92289719125334
 23
29.07660754309762
 33
0.0
  0
SOLID
  5
29D
330
296
100
AcDbEntity
  8
文字
 62
     0
100
AcDbTrace
 10
64.42289719125334
 20
29.49327420976428
 30
0.0
 11
64.42289719125334
 21
28.65994087643095
 31
0.0
 12
61.92289719125334
 22
29.07660754309762
 32
0.0
 13
61.92289719125334
 23
29.07660754309762
 33
0.0
  0
MTEXT
  5
29E
330
296
100
AcDbEntity
  8
文字
 62
     0
100
AcDbMText
 10
79.60978811309089
 20
31.02493632890935
 30
0.0
 40
2.5
 41
0.0
 46
0.0
 71
     5
 72
     1
  1
%%c24
 73
     1
 44
1.0
  0
POINT
  5
29F
330
296
100
AcDbEntity
  8
DEFPOINTS
 62
     0
100
AcDbPoint
 10
85.92289719125334
 20
56.47638215754813
 30
0.0
  0
POINT
  5
2A0
330
296
100
AcDbEntity
  8
DEFPOINTS
 62
     0
100
AcDbPoint
 10
61.92289719125334
 20
56.47638215754813
 30
0.0
  0
POINT
  5
2A1
330
296
100
AcDbEntity
  8
DEFPOINTS
 62
     0
100
AcDbPoint
 10
61.92289719125334
 20
29.07660754309762
 30
0.0
  0
ENDBLK
  5
298
330
296
100
AcDbEntity
  8
0
100
AcDbBlockEnd
  0
BLOCK
  5
2A3
330
2A2
100
AcDbEntity
  8
0
100
AcDbBlockBegin
  2
*D14
 70
     1
 10
0.0
 20
0.0
 30
0.0
  3
*D14
  1
*D16
  0
LINE
  5
2A5
330
2A2
100
AcDbEntity
  8
文字
 62
     0
100
AcDbLine
 10
76.92289719125334
 20
50.65138215754814
 30
0.0
 11
76.92289719125334
 21
38.44669004220552
 31
0.0
  0
LINE
  5
2A6
330
2A2
100
AcDbEntity
  8
文字
 62
     0
100
AcDbLine
 10
70.92289719125334
 20
50.65138215754814
 30
0.0
 11
70.92289719125334
 21
38.44669004220552
 31
0.0
  0
LINE
  5
2A7
330
2A2
100
AcDbEntity
  8
文字
 62
     0
100
AcDbLine
 10
76.92289719125334
 20
39.69669004220552
 30
0.0
 11
84.83160569511875
 21
39.69669004220552
 31
0.0
  0
LINE
  5
2A8
330
2A2
100
AcDbEntity
  8
文字
 62
     0
100
AcDbLine
 10
76.92289719125334
 20
39.69669004220552
 30
0.0
 11
70.92289719125334
 21
39.69669004220552
 31
0.0
  0
LINE
  5
2A9
330
2A2
100
AcDbEntity
  8
文字
 62
     0
100
AcDbLine
 10
79.42289719125334
 20
39.69669004220552
 30
0.0
 11
81.92289719125334
 21
39.69669004220552
 31
0.0
  0
LINE
  5
2AA
330
2A2
100
AcDbEntity
  8
文字
 62
     0
100
AcDbLine
 10
68.42289719125334
 20
39.69669004220552
 30
0.0
 11
65.92289719125334
 21
39.69669004220552
 31
0.0
  0
SOLID
  5
2AB
330
2A2
100
AcDbEntity
  8
文字
 62
     0
100
AcDbTrace
 10
79.42289719125334
 20
40.11335670887218
 30
0.0
 11
79.42289719125334
 21
39.28002337553885
 31
0.0
 12
76.92289719125334
 22
39.69669004220552
 32
0.0
 13
76.92289719125334
 23
39.69669004220552
 33
0.0
  0
SOLID
  5
2AC
330
2A2
100
AcDbEntity
  8
文字
 62
     0
100
AcDbTrace
 10
68.42289719125334
 20
39.28002337553885
 30
0.0
 11
68.42289719125334
 21
40.11335670887218
 31
0.0
 12
70.92289719125334
 22
39.69669004220552
 32
0.0
 13
70.92289719125334
 23
39.69669004220552
 33
0.0
  0
MTEXT
  5
2AD
330
2A2
100
AcDbEntity
  8
文字
 62
     0
100
AcDbMText
 10
83.3812305245867
 20
41.59726985120961
 30
0.0
 40
2.5
 41
0.0
 46
0.0
 71
     5
 72
     1
  1
6
 73
     1
 44
1.0
  0
POINT
  5
2AE
330
2A2
100
AcDbEntity
  8
DEFPOINTS
 62
     0
100
AcDbPoint
 10
76.92289719125334
 20
51.27638215754814
 30
0.0
  0
POINT
  5
2AF
330
2A2
100
AcDbEntity
  8
DEFPOINTS
 62
     0
100
AcDbPoint
 10
70.92289719125334
 20
51.27638215754814
 30
0.0
  0
POINT
  5
2B0
330
2A2
100
AcDbEntity
  8
DEFPOINTS
 62
     0
100
AcDbPoint
 10
70.92289719125334
 20
39.69669004220552
 30
0.0
  0
ENDBLK
  5
2A4
330
2A2
100
AcDbEntity
  8
0
100
AcDbBlockEnd
  0
BLOCK
  5
2B2
330
2B1
100
AcDbEntity
  8
0
100
AcDbBlockBegin
  2
*D15
 70
     1
 10
0.0
 20
0.0
 30
0.0
  3
*D15
  1
*D17
  0
LINE
  5
2B4
330
2B1
100
AcDbEntity
  8
文字
 62
     0
100
AcDbLine
 10
90.4228971912533
 20
53.25138215754816
 30
0.0
 11
90.4228971912533
 21
21.08756247235176
 31
0.0
  0
LINE
  5
2B5
330
2B1
100
AcDbEntity
  8
文字
 62
     0
100
AcDbLine
 10
57.42289719125328
 20
53.25138215754816
 30
0.0
 11
57.42289719125328
 21
21.08756247235176
 31
0.0
  0
LINE
  5
2B6
330
2B1
100
AcDbEntity
  8
文字
 62
     0
100
AcDbLine
 10
87.9228971912533
 20
22.33756247235176
 30
0.0
 11
59.92289719125328
 21
22.33756247235176
 31
0.0
  0
SOLID
  5
2B7
330
2B1
100
AcDbEntity
  8
文字
 62
     0
100
AcDbTrace
 10
87.9228971912533
 20
21.92089580568509
 30
0.0
 11
87.9228971912533
 21
22.75422913901842
 31
0.0
 12
90.4228971912533
 22
22.33756247235176
 32
0.0
 13
90.4228971912533
 23
22.33756247235176
 33
0.0
  0
SOLID
  5
2B8
330
2B1
100
AcDbEntity
  8
文字
 62
     0
100
AcDbTrace
 10
59.92289719125328
 20
22.75422913901842
 30
0.0
 11
59.92289719125328
 21
21.92089580568509
 31
0.0
 12
57.42289719125328
 22
22.33756247235176
 32
0.0
 13
57.42289719125328
 23
22.33756247235176
 33
0.0
  0
MTEXT
  5
2B9
330
2B1
100
AcDbEntity
  8
文字
 62
     0
100
AcDbMText
 10
78.30493728335651
 20
24.28589125816349
 30
0.0
 40
2.5
 41
0.0
 46
0.0
 71
     5
 72
     1
  1
%%c33
 73
     1
 44
1.0
  0
POINT
  5
2BA
330
2B1
100
AcDbEntity
  8
DEFPOINTS
 62
     0
100
AcDbPoint
 10
90.4228971912533
 20
53.87638215754816
 30
0.0
  0
POINT
  5
2BB
330
2B1
100
AcDbEntity
  8
DEFPOINTS
 62
     0
100
AcDbPoint
 10
57.42289719125328
 20
53.87638215754816
 30
0.0
  0
POINT
  5
2BC
330
2B1
100
AcDbEntity
  8
DEFPOINTS
 62
     0
100
AcDbPoint
 10
57.42289719125328
 20
22.33756247235176
 30
0.0
  0
ENDBLK
  5
2B3
330
2B1
100
AcDbEntity
  8
0
100
AcDbBlockEnd
  0
BLOCK
  5
2BE
330
2BD
100
AcDbEntity
  8
0
100
AcDbBlockBegin
  2
*D16
 70
     1
 10
0.0
 20
0.0
 30
0.0
  3
*D16
  1
*D18
  0
LINE
  5
2C0
330
2BD
100
AcDbEntity
  8
文字
 62
     0
370
    -2
100
AcDbLine
 10
61.29789719125334
 20
56.47638215754813
 30
0.0
 11
41.56940612390794
 21
56.47638215754814
 31
0.0
  0
LINE
  5
2C1
330
2BD
100
AcDbEntity
  8
文字
 62
     0
370
    -2
100
AcDbLine
 10
61.29364292757477
 20
51.27638215754814
 30
0.0
 11
41.56940612390794
 21
51.27638215754815
 31
0.0
  0
LINE
  5
2C2
330
2BD
100
AcDbEntity
  8
文字
 62
     0
370
    -2
100
AcDbLine
 10
42.81940612390794
 20
56.47638215754814
 30
0.0
 11
42.81940612390794
 21
51.27638215754815
 31
0.0
  0
LINE
  5
2C3
330
2BD
100
AcDbEntity
  8
文字
 62
     0
370
    -2
100
AcDbLine
 10
42.81940612390794
 20
58.97638215754814
 30
0.0
 11
42.81940612390794
 21
61.47638215754814
 31
0.0
  0
LINE
  5
2C4
330
2BD
100
AcDbEntity
  8
文字
 62
     0
370
    -2
100
AcDbLine
 10
42.81940612390794
 20
48.77638215754815
 30
0.0
 11
42.81940612390794
 21
46.27638215754815
 31
0.0
  0
SOLID
  5
2C5
330
2BD
100
AcDbEntity
  8
文字
 62
     0
100
AcDbTrace
 10
42.40273945724127
 20
58.97638215754814
 30
0.0
 11
43.2360727905746
 21
58.97638215754814
 31
0.0
 12
42.81940612390794
 22
56.47638215754814
 32
0.0
 13
42.81940612390794
 23
56.47638215754814
 33
0.0
  0
SOLID
  5
2C6
330
2BD
100
AcDbEntity
  8
文字
 62
     0
100
AcDbTrace
 10
43.2360727905746
 20
48.77638215754815
 30
0.0
 11
42.40273945724127
 21
48.77638215754815
 31
0.0
 12
42.81940612390794
 22
51.27638215754815
 32
0.0
 13
42.81940612390794
 23
51.27638215754815
 33
0.0
  0
MTEXT
  5
2C7
330
2BD
100
AcDbEntity
  8
文字
 62
     0
100
AcDbMText
 10
40.92394227670466
 20
53.87638215754814
 30
0.0
 40
2.5
 41
0.0
 46
0.0
 71
     5
 72
     1
  1
5
 11
0.0
 21
1.0
 31
0.0
 73
     1
 44
1.0
  0
POINT
  5
2C8
330
2BD
100
AcDbEntity
  8
DEFPOINTS
 62
     0
100
AcDbPoint
 10
61.92289719125334
 20
56.47638215754813
 30
0.0
  0
POINT
  5
2C9
330
2BD
100
AcDbEntity
  8
DEFPOINTS
 62
     0
100
AcDbPoint
 10
61.91864292757477
 20
51.27638215754814
 30
0.0
  0
POINT
  5
2CA
330
2BD
100
AcDbEntity
  8
DEFPOINTS
 62
     0
100
AcDbPoint
 10
42.81940612390794
 20
51.27638215754815
 30
0.0
  0
ENDBLK
  5
2BF
330
2BD
100
AcDbEntity
  8
0
100
AcDbBlockEnd
  0
BLOCK
  5
2F4
330
2F3
100
AcDbEntity
  8
0
100
AcDbBlockBegin
  2
*D17
 70
     1
 10
0.0
 20
0.0
 30
0.0
  3
*D17
  1
*D1
  0
LINE
  5
2F5
330
2F3
100
AcDbEntity
  8
文字
 62
     0
100
AcDbLine
 10
15.15297443003251
 20
20.46477289033569
 30
0.0
 11
1.875000000000028
 21
20.46477289033569
 31
0.0
  0
LINE
  5
2F6
330
2F3
100
AcDbEntity
  8
文字
 62
     0
100
AcDbLine
 10
15.15297443003251
 20
18.8647728903357
 30
0.0
 11
1.875000000000028
 21
18.8647728903357
 31
0.0
  0
LINE
  5
2F7
330
2F3
100
AcDbEntity
  8
文字
 62
     0
100
AcDbLine
 10
3.125000000000028
 20
16.3647728903357
 30
0.0
 11
3.125000000000028
 21
8.29690113044484
 31
0.0
  0
LINE
  5
2F8
330
2F3
100
AcDbEntity
  8
文字
 62
     0
100
AcDbLine
 10
3.125000000000028
 20
20.46477289033569
 30
0.0
 11
3.125000000000028
 21
18.8647728903357
 31
0.0
  0
LINE
  5
2F9
330
2F3
100
AcDbEntity
  8
文字
 62
     0
100
AcDbLine
 10
3.125000000000028
 20
22.96477289033569
 30
0.0
 11
3.125000000000028
 21
25.46477289033569
 31
0.0
  0
SOLID
  5
2FA
330
2F3
100
AcDbEntity
  8
文字
 62
     0
100
AcDbTrace
 10
2.708333333333362
 20
22.96477289033569
 30
0.0
 11
3.541666666666695
 21
22.96477289033569
 31
0.0
 12
3.125000000000028
 22
20.46477289033569
 32
0.0
 13
3.125000000000028
 23
20.46477289033569
 33
0.0
  0
SOLID
  5
2FB
330
2F3
100
AcDbEntity
  8
文字
 62
     0
100
AcDbTrace
 10
3.541666666666695
 20
16.3647728903357
 30
0.0
 11
2.708333333333362
 21
16.3647728903357
 31
0.0
 12
3.125000000000028
 22
18.8647728903357
 32
0.0
 13
3.125000000000028
 23
18.8647728903357
 33
0.0
  0
MTEXT
  5
2FC
330
2F3
100
AcDbEntity
  8
文字
 62
     0
100
AcDbMText
 10
1.224420190995936
 20
11.08083701039027
 30
0.0
 40
2.5
 41
0.0
 46
0.0
 71
     5
 72
     1
  1
1.6
 11
0.0
 21
1.0
 31
0.0
 73
     1
 44
1.0
  0
POINT
  5
2FD
330
2F3
100
AcDbEntity
  8
DEFPOINTS
 62
     0
100
AcDbPoint
 10
15.77797443003251
 20
20.46477289033569
 30
0.0
  0
POINT
  5
2FE
330
2F3
100
AcDbEntity
  8
DEFPOINTS
 62
     0
100
AcDbPoint
 10
15.77797443003251
 20
18.8647728903357
 30
0.0
  0
POINT
  5
2FF
330
2F3
100
AcDbEntity
  8
DEFPOINTS
 62
     0
100
AcDbPoint
 10
3.125000000000028
 20
18.8647728903357
 30
0.0
  0
ENDBLK
  5
300
330
2F3
100
AcDbEntity
  8
0
100
AcDbBlockEnd
  0
BLOCK
  5
305
330
304
100
AcDbEntity
  8
0
100
AcDbBlockBegin
  2
*D18
 70
     1
 10
0.0
 20
0.0
 30
0.0
  3
*D18
  1
*D3
  0
LINE
  5
306
330
304
100
AcDbEntity
  8
文字
 62
     0
100
AcDbLine
 10
15.77797443003251
 20
18.2397728903357
 30
0.0
 11
15.77797443003251
 21
0.0
 31
0.0
  0
LINE
  5
307
330
304
100
AcDbEntity
  8
文字
 62
     0
100
AcDbLine
 10
45.77797443003251
 20
18.23977289033569
 30
0.0
 11
45.77797443003251
 21
0.0
 31
0.0
  0
LINE
  5
308
330
304
100
AcDbEntity
  8
文字
 62
     0
100
AcDbLine
 10
18.27797443003251
 20
1.25
 30
0.0
 11
43.27797443003251
 21
1.25
 31
0.0
  0
SOLID
  5
309
330
304
100
AcDbEntity
  8
文字
 62
     0
100
AcDbTrace
 10
18.27797443003251
 20
1.666666666666667
 30
0.0
 11
18.27797443003251
 21
0.8333333333333333
 31
0.0
 12
15.77797443003251
 22
1.25
 32
0.0
 13
15.77797443003251
 23
1.25
 33
0.0
  0
SOLID
  5
30A
330
304
100
AcDbEntity
  8
文字
 62
     0
100
AcDbTrace
 10
43.27797443003251
 20
0.8333333333333333
 30
0.0
 11
43.27797443003251
 21
1.666666666666667
 31
0.0
 12
45.77797443003251
 22
1.25
 32
0.0
 13
45.77797443003251
 23
1.25
 33
0.0
  0
MTEXT
  5
30B
330
304
100
AcDbEntity
  8
文字
 62
     0
100
AcDbMText
 10
30.77797443003251
 20
3.198328785811733
 30
0.0
 40
2.5
 41
0.0
 46
0.0
 71
     5
 72
     1
  1
%%c30
 73
     1
 44
1.0
  0
POINT
  5
30C
330
304
100
AcDbEntity
  8
DEFPOINTS
 62
     0
100
AcDbPoint
 10
15.77797443003251
 20
18.8647728903357
 30
0.0
  0
POINT
  5
30D
330
304
100
AcDbEntity
  8
DEFPOINTS
 62
     0
100
AcDbPoint
 10
45.77797443003251
 20
18.86477289033569
 30
0.0
  0
POINT
  5
30E
330
304
100
AcDbEntity
  8
DEFPOINTS
 62
     0
100
AcDbPoint
 10
45.77797443003251
 20
1.25
 30
0.0
  0
ENDBLK
  5
30F
330
304
100
AcDbEntity
  8
0
100
AcDbBlockEnd
  0
BLOCK
  5
31D
330
31C
100
AcDbEntity
  8
0
100
AcDbBlockBegin
  2
*D19
 70
     1
 10
0.0
 20
0.0
 30
0.0
  3
*D19
  1
*D4
  0
LINE
  5
31E
330
31C
100
AcDbEntity
  8
文字
 62
     0
100
AcDbLine
 10
26.77797443003251
 20
68.65973448000324
 30
0.0
 11
26.77797443003251
 21
81.50425398038743
 31
0.0
  0
LINE
  5
31F
330
31C
100
AcDbEntity
  8
文字
 62
     0
100
AcDbLine
 10
34.77797443003251
 20
68.65973448000324
 30
0.0
 11
34.77797443003251
 21
81.50425398038743
 31
0.0
  0
LINE
  5
320
330
31C
100
AcDbEntity
  8
文字
 62
     0
100
AcDbLine
 10
29.27797443003251
 20
80.25425398038743
 30
0.0
 11
32.27797443003251
 21
80.25425398038743
 31
0.0
  0
SOLID
  5
321
330
31C
100
AcDbEntity
  8
文字
 62
     0
100
AcDbTrace
 10
29.27797443003251
 20
80.6709206470541
 30
0.0
 11
29.27797443003251
 21
79.83758731372076
 31
0.0
 12
26.77797443003251
 22
80.25425398038743
 32
0.0
 13
26.77797443003251
 23
80.25425398038743
 33
0.0
  0
SOLID
  5
322
330
31C
100
AcDbEntity
  8
文字
 62
     0
100
AcDbTrace
 10
32.27797443003251
 20
79.83758731372076
 30
0.0
 11
32.27797443003251
 21
80.6709206470541
 31
0.0
 12
34.77797443003251
 22
80.25425398038743
 32
0.0
 13
34.77797443003251
 23
80.25425398038743
 33
0.0
  0
MTEXT
  5
323
330
31C
100
AcDbEntity
  8
文字
 62
     0
100
AcDbMText
 10
30.77797443003251
 20
82.15483378939153
 30
0.0
 40
2.5
 41
0.0
 46
0.0
 71
     5
 72
     1
  1
{\fArial|b0|i0|c0|p32;M}8
 73
     1
 44
1.0
  0
POINT
  5
324
330
31C
100
AcDbEntity
  8
DEFPOINTS
 62
     0
100
AcDbPoint
 10
26.77797443003251
 20
68.03473448000324
 30
0.0
  0
POINT
  5
325
330
31C
100
AcDbEntity
  8
DEFPOINTS
 62
     0
100
AcDbPoint
 10
34.77797443003251
 20
68.03473448000324
 30
0.0
  0
POINT
  5
326
330
31C
100
AcDbEntity
  8
DEFPOINTS
 62
     0
100
AcDbPoint
 10
34.77797443003251
 20
80.25425398038743
 30
0.0
  0
ENDBLK
  5
327
330
31C
100
AcDbEntity
  8
0
100
AcDbBlockEnd
  0
BLOCK
  5
32C
330
32B
100
AcDbEntity
  8
0
100
AcDbBlockBegin
  2
*D20
 70
     1
 10
0.0
 20
0.0
 30
0.0
  3
*D20
  1
*D6
  0
LINE
  5
32D
330
32B
100
AcDbEntity
  8
文字
 62
     0
100
AcDbLine
 10
46.40297443003251
 20
18.86477289033569
 30
0.0
 11
65.63468370888992
 21
18.86477289033569
 31
0.0
  0
LINE
  5
32E
330
32B
100
AcDbEntity
  8
文字
 62
     0
100
AcDbLine
 10
37.044205322409
 20
25.64055675660904
 30
0.0
 11
65.63468370888992
 21
25.64055675660904
 31
0.0
  0
LINE
  5
32F
330
32B
100
AcDbEntity
  8
文字
 62
     0
100
AcDbLine
 10
64.38468370888992
 20
21.36477289033569
 30
0.0
 11
64.38468370888992
 21
23.14055675660904
 31
0.0
  0
SOLID
  5
330
330
32B
100
AcDbEntity
  8
文字
 62
     0
100
AcDbTrace
 10
63.96801704222326
 20
21.36477289033569
 30
0.0
 11
64.8013503755566
 21
21.36477289033569
 31
0.0
 12
64.38468370888992
 22
18.86477289033569
 32
0.0
 13
64.38468370888992
 23
18.86477289033569
 33
0.0
  0
SOLID
  5
331
330
32B
100
AcDbEntity
  8
文字
 62
     0
100
AcDbTrace
 10
64.8013503755566
 20
23.14055675660904
 30
0.0
 11
63.96801704222326
 21
23.14055675660904
 31
0.0
 12
64.38468370888992
 22
25.64055675660904
 32
0.0
 13
64.38468370888992
 23
25.64055675660904
 33
0.0
  0
MTEXT
  5
332
330
32B
100
AcDbEntity
  8
文字
 62
     0
100
AcDbMText
 10
62.50968370888992
 20
22.25266482347237
 30
0.0
 40
2.5
 41
0.0
 46
0.0
 71
     5
 72
     1
  1
7
 11
0.0
 21
1.0
 31
0.0
 73
     1
 44
1.0
  0
POINT
  5
333
330
32B
100
AcDbEntity
  8
DEFPOINTS
 62
     0
100
AcDbPoint
 10
45.77797443003251
 20
18.86477289033569
 30
0.0
  0
POINT
  5
334
330
32B
100
AcDbEntity
  8
DEFPOINTS
 62
     0
100
AcDbPoint
 10
36.419205322409
 20
25.64055675660904
 30
0.0
  0
POINT
  5
335
330
32B
100
AcDbEntity
  8
DEFPOINTS
 62
     0
100
AcDbPoint
 10
64.38468370888992
 20
25.64055675660904
 30
0.0
  0
ENDBLK
  5
336
330
32B
100
AcDbEntity
  8
0
100
AcDbBlockEnd
  0
BLOCK
  5
340
330
33F
100
AcDbEntity
  8
0
100
AcDbBlockBegin
  2
*D21
 70
     1
 10
0.0
 20
0.0
 30
0.0
  3
*D21
  1
*D7
  0
LINE
  5
341
330
33F
100
AcDbEntity
  8
文字
 62
     0
100
AcDbLine
 10
34.40297443003251
 20
68.64055675660904
 30
0.0
 11
65.63468370888992
 21
68.64055675660904
 31
0.0
  0
LINE
  5
342
330
33F
100
AcDbEntity
  8
文字
 62
     0
100
AcDbLine
 10
37.669205322409
 20
25.64055675660904
 30
0.0
 11
65.63468370888992
 21
25.64055675660904
 31
0.0
  0
LINE
  5
343
330
33F
100
AcDbEntity
  8
文字
 62
     0
100
AcDbLine
 10
64.38468370888992
 20
66.14055675660904
 30
0.0
 11
64.38468370888992
 21
28.14055675660904
 31
0.0
  0
SOLID
  5
344
330
33F
100
AcDbEntity
  8
文字
 62
     0
100
AcDbTrace
 10
64.8013503755566
 20
66.14055675660904
 30
0.0
 11
63.96801704222326
 21
66.14055675660904
 31
0.0
 12
64.38468370888992
 22
68.64055675660904
 32
0.0
 13
64.38468370888992
 23
68.64055675660904
 33
0.0
  0
SOLID
  5
345
330
33F
100
AcDbEntity
  8
文字
 62
     0
100
AcDbTrace
 10
63.96801704222326
 20
28.14055675660904
 30
0.0
 11
64.8013503755566
 21
28.14055675660904
 31
0.0
 12
64.38468370888992
 22
25.64055675660904
 32
0.0
 13
64.38468370888992
 23
25.64055675660904
 33
0.0
  0
MTEXT
  5
346
330
33F
100
AcDbEntity
  8
文字
 62
     0
100
AcDbMText
 10
62.48410389988583
 20
47.14055675660904
 30
0.0
 40
2.5
 41
0.0
 46
0.0
 71
     5
 72
     1
  1
43
 11
0.0
 21
1.0
 31
0.0
 73
     1
 44
1.0
  0
POINT
  5
347
330
33F
100
AcDbEntity
  8
DEFPOINTS
 62
     0
100
AcDbPoint
 10
33.77797443003251
 20
68.64055675660904
 30
0.0
  0
POINT
  5
348
330
33F
100
AcDbEntity
  8
DEFPOINTS
 62
     0
100
AcDbPoint
 10
37.044205322409
 20
25.64055675660904
 30
0.0
  0
POINT
  5
349
330
33F
100
AcDbEntity
  8
DEFPOINTS
 62
     0
100
AcDbPoint
 10
64.38468370888992
 20
25.64055675660904
 30
0.0
  0
ENDBLK
  5
34A
330
33F
100
AcDbEntity
  8
0
100
AcDbBlockEnd
  0
BLOCK
  5
37C
330
37B
100
AcDbEntity
  8
0
100
AcDbBlockBegin
  2
*D22
 70
     1
 10
0.0
 20
0.0
 30
0.0
  3
*D22
  1
*D25
  0
LINE
  5
37E
330
37B
100
AcDbEntity
  8
文字
 62
     0
100
AcDbLine
 10
58.14187588562341
 20
54.93495516145202
 30
0.0
 11
44.86390145559092
 21
54.93495516145202
 31
0.0
  0
LINE
  5
37F
330
37B
100
AcDbEntity
  8
文字
 62
     0
100
AcDbLine
 10
58.14187588562341
 20
53.33495516145202
 30
0.0
 11
44.86390145559092
 21
53.33495516145202
 31
0.0
  0
LINE
  5
380
330
37B
100
AcDbEntity
  8
文字
 62
     0
100
AcDbLine
 10
46.11390145559092
 20
50.83495516145202
 30
0.0
 11
46.11390145559092
 21
42.76708340156116
 31
0.0
  0
LINE
  5
381
330
37B
100
AcDbEntity
  8
文字
 62
     0
100
AcDbLine
 10
46.11390145559092
 20
54.93495516145202
 30
0.0
 11
46.11390145559092
 21
53.33495516145202
 31
0.0
  0
LINE
  5
382
330
37B
100
AcDbEntity
  8
文字
 62
     0
100
AcDbLine
 10
46.11390145559092
 20
57.43495516145202
 30
0.0
 11
46.11390145559092
 21
59.93495516145202
 31
0.0
  0
SOLID
  5
383
330
37B
100
AcDbEntity
  8
文字
 62
     0
100
AcDbTrace
 10
45.69723478892426
 20
57.43495516145202
 30
0.0
 11
46.53056812225758
 21
57.43495516145202
 31
0.0
 12
46.11390145559092
 22
54.93495516145202
 32
0.0
 13
46.11390145559092
 23
54.93495516145202
 33
0.0
  0
SOLID
  5
384
330
37B
100
AcDbEntity
  8
文字
 62
     0
100
AcDbTrace
 10
46.53056812225758
 20
50.83495516145202
 30
0.0
 11
45.69723478892426
 21
50.83495516145202
 31
0.0
 12
46.11390145559092
 22
53.33495516145202
 32
0.0
 13
46.11390145559092
 23
53.33495516145202
 33
0.0
  0
MTEXT
  5
385
330
37B
100
AcDbEntity
  8
文字
 62
     0
100
AcDbMText
 10
44.21332164658683
 20
45.55101928150659
 30
0.0
 40
2.5
 41
0.0
 46
0.0
 71
     5
 72
     1
  1
1.6
 11
0.0
 21
1.0
 31
0.0
 73
     1
 44
1.0
  0
POINT
  5
386
330
37B
100
AcDbEntity
  8
DEFPOINTS
 62
     0
100
AcDbPoint
 10
58.76687588562341
 20
54.93495516145202
 30
0.0
  0
POINT
  5
387
330
37B
100
AcDbEntity
  8
DEFPOINTS
 62
     0
100
AcDbPoint
 10
58.76687588562341
 20
53.33495516145202
 30
0.0
  0
POINT
  5
388
330
37B
100
AcDbEntity
  8
DEFPOINTS
 62
     0
100
AcDbPoint
 10
46.11390145559092
 20
53.33495516145202
 30
0.0
  0
ENDBLK
  5
37D
330
37B
100
AcDbEntity
  8
0
100
AcDbBlockEnd
  0
BLOCK
  5
38A
330
389
100
AcDbEntity
  8
0
100
AcDbBlockBegin
  2
*D23
 70
     1
 10
0.0
 20
0.0
 30
0.0
  3
*D23
  1
*D26
  0
LINE
  5
38C
330
389
100
AcDbEntity
  8
文字
 62
     0
100
AcDbLine
 10
58.76687588562341
 20
52.70995516145202
 30
0.0
 11
58.76687588562341
 21
34.47018227111632
 31
0.0
  0
LINE
  5
38D
330
389
100
AcDbEntity
  8
文字
 62
     0
100
AcDbLine
 10
88.7668758856234
 20
52.70995516145201
 30
0.0
 11
88.7668758856234
 21
34.47018227111632
 31
0.0
  0
LINE
  5
38E
330
389
100
AcDbEntity
  8
文字
 62
     0
100
AcDbLine
 10
61.26687588562341
 20
35.72018227111632
 30
0.0
 11
86.2668758856234
 21
35.72018227111632
 31
0.0
  0
SOLID
  5
38F
330
389
100
AcDbEntity
  8
文字
 62
     0
100
AcDbTrace
 10
61.26687588562341
 20
36.13684893778299
 30
0.0
 11
61.26687588562341
 21
35.30351560444966
 31
0.0
 12
58.76687588562341
 22
35.72018227111632
 32
0.0
 13
58.76687588562341
 23
35.72018227111632
 33
0.0
  0
SOLID
  5
390
330
389
100
AcDbEntity
  8
文字
 62
     0
100
AcDbTrace
 10
86.2668758856234
 20
35.30351560444966
 30
0.0
 11
86.2668758856234
 21
36.13684893778299
 31
0.0
 12
88.7668758856234
 22
35.72018227111632
 32
0.0
 13
88.7668758856234
 23
35.72018227111632
 33
0.0
  0
MTEXT
  5
391
330
389
100
AcDbEntity
  8
文字
 62
     0
100
AcDbMText
 10
73.7668758856234
 20
37.66851105692805
 30
0.0
 40
2.5
 41
0.0
 46
0.0
 71
     5
 72
     1
  1
%%c30
 73
     1
 44
1.0
  0
POINT
  5
392
330
389
100
AcDbEntity
  8
DEFPOINTS
 62
     0
100
AcDbPoint
 10
58.76687588562341
 20
53.33495516145202
 30
0.0
  0
POINT
  5
393
330
389
100
AcDbEntity
  8
DEFPOINTS
 62
     0
100
AcDbPoint
 10
88.7668758856234
 20
53.33495516145201
 30
0.0
  0
POINT
  5
394
330
389
100
AcDbEntity
  8
DEFPOINTS
 62
     0
100
AcDbPoint
 10
88.7668758856234
 20
35.72018227111632
 30
0.0
  0
ENDBLK
  5
38B
330
389
100
AcDbEntity
  8
0
100
AcDbBlockEnd
  0
BLOCK
  5
396
330
395
100
AcDbEntity
  8
0
100
AcDbBlockBegin
  2
*D24
 70
     1
 10
0.0
 20
0.0
 30
0.0
  3
*D24
  1
*D27
  0
LINE
  5
398
330
395
100
AcDbEntity
  8
文字
 62
     0
100
AcDbLine
 10
69.7668758856234
 20
103.1299167511196
 30
0.0
 11
69.7668758856234
 21
115.9744362515038
 31
0.0
  0
LINE
  5
399
330
395
100
AcDbEntity
  8
文字
 62
     0
100
AcDbLine
 10
77.7668758856234
 20
103.1299167511196
 30
0.0
 11
77.7668758856234
 21
115.9744362515038
 31
0.0
  0
LINE
  5
39A
330
395
100
AcDbEntity
  8
文字
 62
     0
100
AcDbLine
 10
72.2668758856234
 20
114.7244362515038
 30
0.0
 11
75.2668758856234
 21
114.7244362515038
 31
0.0
  0
SOLID
  5
39B
330
395
100
AcDbEntity
  8
文字
 62
     0
100
AcDbTrace
 10
72.2668758856234
 20
115.1411029181704
 30
0.0
 11
72.2668758856234
 21
114.3077695848371
 31
0.0
 12
69.7668758856234
 22
114.7244362515038
 32
0.0
 13
69.7668758856234
 23
114.7244362515038
 33
0.0
  0
SOLID
  5
39C
330
395
100
AcDbEntity
  8
文字
 62
     0
100
AcDbTrace
 10
75.2668758856234
 20
114.3077695848371
 30
0.0
 11
75.2668758856234
 21
115.1411029181704
 31
0.0
 12
77.7668758856234
 22
114.7244362515038
 32
0.0
 13
77.7668758856234
 23
114.7244362515038
 33
0.0
  0
MTEXT
  5
39D
330
395
100
AcDbEntity
  8
文字
 62
     0
100
AcDbMText
 10
73.7668758856234
 20
116.6250160605079
 30
0.0
 40
2.5
 41
0.0
 46
0.0
 71
     5
 72
     1
  1
{\fArial|b0|i0|c0|p32;M}8
 73
     1
 44
1.0
  0
POINT
  5
39E
330
395
100
AcDbEntity
  8
DEFPOINTS
 62
     0
100
AcDbPoint
 10
69.7668758856234
 20
102.5049167511196
 30
0.0
  0
POINT
  5
39F
330
395
100
AcDbEntity
  8
DEFPOINTS
 62
     0
100
AcDbPoint
 10
77.7668758856234
 20
102.5049167511196
 30
0.0
  0
POINT
  5
3A0
330
395
100
AcDbEntity
  8
DEFPOINTS
 62
     0
100
AcDbPoint
 10
77.7668758856234
 20
114.7244362515038
 30
0.0
  0
ENDBLK
  5
397
330
395
100
AcDbEntity
  8
0
100
AcDbBlockEnd
  0
BLOCK
  5
3A2
330
3A1
100
AcDbEntity
  8
0
100
AcDbBlockBegin
  2
*D25
 70
     1
 10
0.0
 20
0.0
 30
0.0
  3
*D25
  1
*D28
  0
LINE
  5
3A4
330
3A1
100
AcDbEntity
  8
実線
 62
     0
370
    -2
100
AcDbLine
 10
89.3918758856234
 20
51.27638215754814
 30
0.0
 11
108.6235851644808
 21
51.27638215754814
 31
0.0
  0
LINE
  5
3A5
330
3A1
100
AcDbEntity
  8
実線
 62
     0
370
    -2
100
AcDbLine
 10
80.03310677799989
 20
60.11073902772537
 30
0.0
 11
108.6235851644808
 21
60.11073902772537
 31
0.0
  0
LINE
  5
3A6
330
3A1
100
AcDbEntity
  8
実線
 62
     0
370
    -2
100
AcDbLine
 10
107.3735851644808
 20
53.77638215754814
 30
0.0
 11
107.3735851644808
 21
57.61073902772537
 31
0.0
  0
SOLID
  5
3A7
330
3A1
100
AcDbEntity
  8
実線
 62
     0
100
AcDbTrace
 10
106.9569184978141
 20
53.77638215754814
 30
0.0
 11
107.7902518311475
 21
53.77638215754814
 31
0.0
 12
107.3735851644808
 22
51.27638215754814
 32
0.0
 13
107.3735851644808
 23
51.27638215754814
 33
0.0
  0
SOLID
  5
3A8
330
3A1
100
AcDbEntity
  8
実線
 62
     0
100
AcDbTrace
 10
107.7902518311475
 20
57.61073902772537
 30
0.0
 11
106.9569184978141
 21
57.61073902772537
 31
0.0
 12
107.3735851644808
 22
60.11073902772537
 32
0.0
 13
107.3735851644808
 23
60.11073902772537
 33
0.0
  0
MTEXT
  5
3A9
330
3A1
100
AcDbEntity
  8
実線
 62
     0
100
AcDbMText
 10
105.4723351644808
 20
55.69356059263676
 30
0.0
 40
2.5
 41
0.0
 46
0.0
 71
     5
 72
     1
  1
9
 11
0.0
 21
1.0
 31
0.0
 73
     1
 44
1.0
  0
POINT
  5
3AA
330
3A1
100
AcDbEntity
  8
DEFPOINTS
 62
     0
100
AcDbPoint
 10
88.7668758856234
 20
51.27638215754814
 30
0.0
  0
POINT
  5
3AB
330
3A1
100
AcDbEntity
  8
DEFPOINTS
 62
     0
100
AcDbPoint
 10
79.40810677799989
 20
60.11073902772537
 30
0.0
  0
POINT
  5
3AC
330
3A1
100
AcDbEntity
  8
DEFPOINTS
 62
     0
100
AcDbPoint
 10
107.3735851644808
 20
60.11073902772537
 30
0.0
  0
ENDBLK
  5
3A3
330
3A1
100
AcDbEntity
  8
0
100
AcDbBlockEnd
  0
BLOCK
  5
3AE
330
3AD
100
AcDbEntity
  8
0
100
AcDbBlockBegin
  2
*D26
 70
     1
 10
0.0
 20
0.0
 30
0.0
  3
*D26
  1
*D29
  0
LINE
  5
3B0
330
3AD
100
AcDbEntity
  8
文字
 62
     0
100
AcDbLine
 10
77.3918758856234
 20
103.1107390277254
 30
0.0
 11
108.6235851644808
 21
103.1107390277254
 31
0.0
  0
LINE
  5
3B1
330
3AD
100
AcDbEntity
  8
文字
 62
     0
100
AcDbLine
 10
80.65810677799989
 20
60.11073902772537
 30
0.0
 11
108.6235851644808
 21
60.11073902772537
 31
0.0
  0
LINE
  5
3B2
330
3AD
100
AcDbEntity
  8
文字
 62
     0
100
AcDbLine
 10
107.3735851644808
 20
100.6107390277254
 30
0.0
 11
107.3735851644808
 21
62.61073902772537
 31
0.0
  0
SOLID
  5
3B3
330
3AD
100
AcDbEntity
  8
文字
 62
     0
100
AcDbTrace
 10
107.7902518311475
 20
100.6107390277254
 30
0.0
 11
106.9569184978141
 21
100.6107390277254
 31
0.0
 12
107.3735851644808
 22
103.1107390277254
 32
0.0
 13
107.3735851644808
 23
103.1107390277254
 33
0.0
  0
SOLID
  5
3B4
330
3AD
100
AcDbEntity
  8
文字
 62
     0
100
AcDbTrace
 10
106.9569184978141
 20
62.61073902772537
 30
0.0
 11
107.7902518311475
 21
62.61073902772537
 31
0.0
 12
107.3735851644808
 22
60.11073902772537
 32
0.0
 13
107.3735851644808
 23
60.11073902772537
 33
0.0
  0
MTEXT
  5
3B5
330
3AD
100
AcDbEntity
  8
文字
 62
     0
100
AcDbMText
 10
105.4730053554767
 20
81.61073902772537
 30
0.0
 40
2.5
 41
0.0
 46
0.0
 71
     5
 72
     1
  1
43
 11
0.0
 21
1.0
 31
0.0
 73
     1
 44
1.0
  0
POINT
  5
3B6
330
3AD
100
AcDbEntity
  8
DEFPOINTS
 62
     0
100
AcDbPoint
 10
76.7668758856234
 20
103.1107390277254
 30
0.0
  0
POINT
  5
3B7
330
3AD
100
AcDbEntity
  8
DEFPOINTS
 62
     0
100
AcDbPoint
 10
80.03310677799989
 20
60.11073902772537
 30
0.0
  0
POINT
  5
3B8
330
3AD
100
AcDbEntity
  8
DEFPOINTS
 62
     0
100
AcDbPoint
 10
107.3735851644808
 20
60.11073902772537
 30
0.0
  0
ENDBLK
  5
3AF
330
3AD
100
AcDbEntity
  8
0
100
AcDbBlockEnd
  0
BLOCK
  5
3BD
330
3BC
100
AcDbEntity
  8
0
100
AcDbBlockBegin
  2
*D27
 70
     1
 10
0.0
 20
0.0
 30
0.0
  3
*D27
  1
*D30
  0
LINE
  5
3BF
330
3BC
100
AcDbEntity
  8
0
 62
     0
100
AcDbLine
 10
76.8293758856234
 20
103.1107390277254
 30
0.0
 11
116.7495337437958
 21
103.1107390277254
 31
0.0
  0
LINE
  5
3C0
330
3BC
100
AcDbEntity
  8
0
 62
     0
100
AcDbLine
 10
76.98539719125334
 20
51.27638215754814
 30
0.0
 11
116.7495337437958
 21
51.27638215754814
 31
0.0
  0
LINE
  5
3C1
330
3BC
100
AcDbEntity
  8
0
 62
     0
100
AcDbLine
 10
116.5695337437958
 20
102.9307390277254
 30
0.0
 11
116.5695337437958
 21
77.37540233888505
 31
0.0
  0
LINE
  5
3C2
330
3BC
100
AcDbEntity
  8
0
 62
     0
100
AcDbLine
 10
116.5695337437958
 20
51.45638215754814
 30
0.0
 11
116.5695337437958
 21
77.01171884638846
 31
0.0
  0
SOLID
  5
3C3
330
3BC
100
AcDbEntity
  8
0
 62
     0
100
AcDbTrace
 10
116.5995337437958
 20
102.9307390277254
 30
0.0
 11
116.5395337437958
 21
102.9307390277254
 31
0.0
 12
116.5695337437958
 22
103.1107390277254
 32
0.0
 13
116.5695337437958
 23
103.1107390277254
 33
0.0
  0
SOLID
  5
3C4
330
3BC
100
AcDbEntity
  8
0
 62
     0
100
AcDbTrace
 10
116.5395337437958
 20
51.45638215754814
 30
0.0
 11
116.5995337437958
 21
51.45638215754814
 31
0.0
 12
116.5695337437958
 22
51.27638215754814
 32
0.0
 13
116.5695337437958
 23
51.27638215754814
 33
0.0
  0
MTEXT
  5
3C5
330
3BC
100
AcDbEntity
  8
0
 62
     0
100
AcDbMText
 10
116.5695337437958
 20
77.19356059263676
 30
0.0
 40
0.18
 41
0.0
 46
0.0
 71
     5
 72
     1
  1
\A1;51.8344
 73
     1
 44
1.0
  0
POINT
  5
3C6
330
3BC
100
AcDbEntity
  8
DEFPOINTS
 62
     0
100
AcDbPoint
 10
76.7668758856234
 20
103.1107390277254
 30
0.0
  0
POINT
  5
3C7
330
3BC
100
AcDbEntity
  8
DEFPOINTS
 62
     0
100
AcDbPoint
 10
76.92289719125334
 20
51.27638215754814
 30
0.0
  0
POINT
  5
3C8
330
3BC
100
AcDbEntity
  8
DEFPOINTS
 62
     0
100
AcDbPoint
 10
116.5695337437958
 20
51.27638215754814
 30
0.0
  0
ENDBLK
  5
3BE
330
3BC
100
AcDbEntity
  8
0
100
AcDbBlockEnd
  0
BLOCK
  5
3F0
330
3EF
100
AcDbEntity
  8
0
100
AcDbBlockBegin
  2
*D28
 70
     1
 10
0.0
 20
0.0
 30
0.0
  3
*D28
  1
*D32
  0
LINE
  5
3F1
330
3EF
100
AcDbEntity
  8
文字
 62
     0
100
AcDbLine
 10
0.625
 20
43.00000000000001
 30
0.0
 11
31.85670927885741
 21
43.00000000000001
 31
0.0
  0
LINE
  5
3F2
330
3EF
100
AcDbEntity
  8
文字
 62
     0
100
AcDbLine
 10
3.891230892376484
 20
0.0
 30
0.0
 11
31.85670927885741
 21
-0.0000000000000018
 31
0.0
  0
LINE
  5
3F3
330
3EF
100
AcDbEntity
  8
文字
 62
     0
100
AcDbLine
 10
30.60670927885741
 20
40.50000000000001
 30
0.0
 11
30.60670927885741
 21
2.499999999999998
 31
0.0
  0
SOLID
  5
3F4
330
3EF
100
AcDbEntity
  8
文字
 62
     0
100
AcDbTrace
 10
31.02337594552408
 20
40.50000000000001
 30
0.0
 11
30.19004261219074
 21
40.50000000000001
 31
0.0
 12
30.60670927885741
 22
43.00000000000001
 32
0.0
 13
30.60670927885741
 23
43.00000000000001
 33
0.0
  0
SOLID
  5
3F5
330
3EF
100
AcDbEntity
  8
文字
 62
     0
100
AcDbTrace
 10
30.19004261219074
 20
2.499999999999998
 30
0.0
 11
31.02337594552408
 21
2.499999999999998
 31
0.0
 12
30.60670927885741
 22
-0.0000000000000017
 32
0.0
 13
30.60670927885741
 23
-0.0000000000000017
 33
0.0
  0
MTEXT
  5
3F6
330
3EF
100
AcDbEntity
  8
文字
 62
     0
100
AcDbMText
 10
28.70612946985332
 20
21.5
 30
0.0
 40
2.5
 41
0.0
 46
0.0
 71
     5
 72
     1
  1
43
 11
8.262124834419768E-17
 21
1.0
 31
0.0
 73
     1
 44
1.0
  0
POINT
  5
3F7
330
3EF
100
AcDbEntity
  8
DEFPOINTS
 62
     0
100
AcDbPoint
 10
0.0
 20
43.00000000000001
 30
0.0
  0
POINT
  5
3F8
330
3EF
100
AcDbEntity
  8
DEFPOINTS
 62
     0
100
AcDbPoint
 10
3.266230892376484
 20
0.0
 30
0.0
  0
POINT
  5
3F9
330
3EF
100
AcDbEntity
  8
DEFPOINTS
 62
     0
100
AcDbPoint
 10
30.60670927885741
 20
-0.0000000000000017
 30
0.0
  0
ENDBLK
  5
3FA
330
3EF
100
AcDbEntity
  8
0
100
AcDbBlockEnd
  0
BLOCK
  5
402
330
401
100
AcDbEntity
  8
0
100
AcDbBlockBegin
  2
*D29
 70
     1
 10
0.0
 20
0.0
 30
0.0
  3
*D29
  1
*D33
  0
LINE
  5
404
330
401
100
AcDbEntity
  8
文字
 62
     0
100
AcDbLine
 10
86.72773251507328
 20
143.1107390277254
 30
0.0
 11
120.4190557544054
 21
143.1107390277254
 31
0.0
  0
LINE
  5
405
330
401
100
AcDbEntity
  8
文字
 62
     0
100
AcDbLine
 10
92.45357736792448
 20
51.27638215754814
 30
0.0
 11
120.4190557544054
 21
51.27638215754814
 31
0.0
  0
LINE
  5
406
330
401
100
AcDbEntity
  8
文字
 62
     0
100
AcDbLine
 10
119.1690557544054
 20
140.6107390277254
 30
0.0
 11
119.1690557544054
 21
53.77638215754814
 31
0.0
  0
SOLID
  5
407
330
401
100
AcDbEntity
  8
文字
 62
     0
100
AcDbTrace
 10
119.5857224210721
 20
140.6107390277254
 30
0.0
 11
118.7523890877387
 21
140.6107390277254
 31
0.0
 12
119.1690557544054
 22
143.1107390277254
 32
0.0
 13
119.1690557544054
 23
143.1107390277254
 33
0.0
  0
SOLID
  5
408
330
401
100
AcDbEntity
  8
文字
 62
     0
100
AcDbTrace
 10
118.7523890877387
 20
53.77638215754814
 30
0.0
 11
119.5857224210721
 21
53.77638215754814
 31
0.0
 12
119.1690557544054
 22
51.27638215754814
 32
0.0
 13
119.1690557544054
 23
51.27638215754814
 33
0.0
  0
MTEXT
  5
409
330
401
100
AcDbEntity
  8
文字
 62
     0
100
AcDbMText
 10
117.2684759454013
 20
97.19356059263679
 30
0.0
 40
2.5
 41
0.0
 46
0.0
 71
     5
 72
     1
  1
92
 11
0.0
 21
1.0
 31
0.0
 73
     1
 44
1.0
  0
POINT
  5
40A
330
401
100
AcDbEntity
  8
DEFPOINTS
 62
     0
100
AcDbPoint
 10
86.10273251507328
 20
143.1107390277254
 30
0.0
  0
POINT
  5
40B
330
401
100
AcDbEntity
  8
DEFPOINTS
 62
     0
100
AcDbPoint
 10
91.82857736792448
 20
51.27638215754814
 30
0.0
  0
POINT
  5
40C
330
401
100
AcDbEntity
  8
DEFPOINTS
 62
     0
100
AcDbPoint
 10
119.1690557544054
 20
51.27638215754814
 30
0.0
  0
ENDBLK
  5
403
330
401
100
AcDbEntity
  8
0
100
AcDbBlockEnd
  0
BLOCK
  5
436
330
435
100
AcDbEntity
  8
0
100
AcDbBlockBegin
  2
*D30
 70
     1
 10
0.0
 20
0.0
 30
0.0
  3
*D30
  1
*D2
  0
LINE
  5
437
330
435
100
AcDbEntity
  8
文字
 62
     0
100
AcDbLine
 10
9.931913246837695
 20
35.32348246400043
 30
0.0
 11
9.931913246837695
 21
0.0
 31
0.0
  0
LINE
  5
438
330
435
100
AcDbEntity
  8
文字
 62
     0
100
AcDbLine
 10
31.93191324683769
 20
35.32348246400043
 30
0.0
 11
31.93191324683769
 21
0.0
 31
0.0
  0
LINE
  5
439
330
435
100
AcDbEntity
  8
文字
 62
     0
100
AcDbLine
 10
12.43191324683769
 20
1.25
 30
0.0
 11
29.43191324683769
 21
1.25
 31
0.0
  0
SOLID
  5
43A
330
435
100
AcDbEntity
  8
文字
 62
     0
100
AcDbTrace
 10
12.43191324683769
 20
1.666666666666667
 30
0.0
 11
12.43191324683769
 21
0.8333333333333333
 31
0.0
 12
9.931913246837695
 22
1.25
 32
0.0
 13
9.931913246837695
 23
1.25
 33
0.0
  0
SOLID
  5
43B
330
435
100
AcDbEntity
  8
文字
 62
     0
100
AcDbTrace
 10
29.43191324683769
 20
0.8333333333333333
 30
0.0
 11
29.43191324683769
 21
1.666666666666667
 31
0.0
 12
31.93191324683769
 22
1.25
 32
0.0
 13
31.93191324683769
 23
1.25
 33
0.0
  0
MTEXT
  5
43C
330
435
100
AcDbEntity
  8
文字
 62
     0
100
AcDbMText
 10
21.0852474954078
 20
3.198328785811733
 30
0.0
 40
2.5
 41
0.0
 46
0.0
 71
     5
 72
     1
  1
%%c22
 73
     1
 44
1.0
  0
POINT
  5
43D
330
435
100
AcDbEntity
  8
DEFPOINTS
 62
     0
100
AcDbPoint
 10
9.931913246837695
 20
35.94848246400043
 30
0.0
  0
POINT
  5
43E
330
435
100
AcDbEntity
  8
DEFPOINTS
 62
     0
100
AcDbPoint
 10
31.93191324683769
 20
35.94848246400043
 30
0.0
  0
POINT
  5
43F
330
435
100
AcDbEntity
  8
DEFPOINTS
 62
     0
100
AcDbPoint
 10
31.93191324683769
 20
1.25
 30
0.0
  0
ENDBLK
  5
440
330
435
100
AcDbEntity
  8
0
100
AcDbBlockEnd
  0
BLOCK
  5
466
330
465
100
AcDbEntity
  8
0
100
AcDbBlockBegin
  2
*D31
 70
     1
 10
0.0
 20
0.0
 30
0.0
  3
*D31
  1
*D36
  0
LINE
  5
468
330
465
100
AcDbEntity
  8
文字
 62
     0
100
AcDbLine
 10
142.8495336766243
 20
64.97490480250897
 30
0.0
 11
142.8495336766243
 21
29.65142233850854
 31
0.0
  0
LINE
  5
469
330
465
100
AcDbEntity
  8
文字
 62
     0
100
AcDbLine
 10
164.8495336766243
 20
64.97490480250897
 30
0.0
 11
164.8495336766243
 21
29.65142233850854
 31
0.0
  0
LINE
  5
46A
330
465
100
AcDbEntity
  8
文字
 62
     0
100
AcDbLine
 10
145.3495336766243
 20
30.90142233850854
 30
0.0
 11
162.3495336766243
 21
30.90142233850854
 31
0.0
  0
SOLID
  5
46B
330
465
100
AcDbEntity
  8
文字
 62
     0
100
AcDbTrace
 10
145.3495336766243
 20
31.31808900517521
 30
0.0
 11
145.3495336766243
 21
30.48475567184187
 31
0.0
 12
142.8495336766243
 22
30.90142233850854
 32
0.0
 13
142.8495336766243
 23
30.90142233850854
 33
0.0
  0
SOLID
  5
46C
330
465
100
AcDbEntity
  8
文字
 62
     0
100
AcDbTrace
 10
162.3495336766243
 20
30.48475567184187
 30
0.0
 11
162.3495336766243
 21
31.31808900517521
 31
0.0
 12
164.8495336766243
 22
30.90142233850854
 32
0.0
 13
164.8495336766243
 23
30.90142233850854
 33
0.0
  0
MTEXT
  5
46D
330
465
100
AcDbEntity
  8
文字
 62
     0
100
AcDbMText
 10
154.0028679251944
 20
32.84975112432027
 30
0.0
 40
2.5
 41
0.0
 46
0.0
 71
     5
 72
     1
  1
%%c22
 73
     1
 44
1.0
  0
POINT
  5
46E
330
465
100
AcDbEntity
  8
DEFPOINTS
 62
     0
100
AcDbPoint
 10
142.8495336766243
 20
65.59990480250897
 30
0.0
  0
POINT
  5
46F
330
465
100
AcDbEntity
  8
DEFPOINTS
 62
     0
100
AcDbPoint
 10
164.8495336766243
 20
65.59990480250897
 30
0.0
  0
POINT
  5
470
330
465
100
AcDbEntity
  8
DEFPOINTS
 62
     0
100
AcDbPoint
 10
164.8495336766243
 20
30.90142233850854
 30
0.0
  0
ENDBLK
  5
467
330
465
100
AcDbEntity
  8
0
100
AcDbBlockEnd
  0
BLOCK
  5
4C0
330
4BF
100
AcDbEntity
  8
0
100
AcDbBlockBegin
  2
*D32
 70
     1
 10
0.0
 20
0.0
 30
0.0
  3
*D32
  1
*D57
  0
LINE
  5
4C1
330
4BF
100
AcDbEntity
  8
文字
 62
     0
100
AcDbLine
 10
33.0
 20
41.90555994571285
 30
0.0
 11
33.0
 21
0.0
 31
0.0
  0
LINE
  5
4C2
330
4BF
100
AcDbEntity
  8
文字
 62
     0
100
AcDbLine
 10
0.0
 20
41.90555994571285
 30
0.0
 11
0.0
 21
0.0
 31
0.0
  0
LINE
  5
4C3
330
4BF
100
AcDbEntity
  8
文字
 62
     0
100
AcDbLine
 10
30.5
 20
1.25
 30
0.0
 11
2.5
 21
1.25
 31
0.0
  0
SOLID
  5
4C4
330
4BF
100
AcDbEntity
  8
文字
 62
     0
100
AcDbTrace
 10
30.5
 20
0.8333333333333333
 30
0.0
 11
30.5
 21
1.666666666666667
 31
0.0
 12
33.0
 22
1.25
 32
0.0
 13
33.0
 23
1.25
 33
0.0
  0
SOLID
  5
4C5
330
4BF
100
AcDbEntity
  8
文字
 62
     0
100
AcDbTrace
 10
2.5
 20
1.666666666666667
 30
0.0
 11
2.5
 21
0.8333333333333333
 31
0.0
 12
0.0
 22
1.25
 32
0.0
 13
0.0
 23
1.25
 33
0.0
  0
MTEXT
  5
4C6
330
4BF
100
AcDbEntity
  8
文字
 62
     0
100
AcDbMText
 10
20.99982710811742
 20
3.198328785811733
 30
0.0
 40
2.5
 41
0.0
 46
0.0
 71
     5
 72
     1
  1
%%c33
 73
     1
 44
1.0
  0
POINT
  5
4C7
330
4BF
100
AcDbEntity
  8
DEFPOINTS
 62
     0
100
AcDbPoint
 10
33.0
 20
42.53055994571285
 30
0.0
  0
POINT
  5
4C8
330
4BF
100
AcDbEntity
  8
DEFPOINTS
 62
     0
100
AcDbPoint
 10
0.0
 20
42.53055994571285
 30
0.0
  0
POINT
  5
4C9
330
4BF
100
AcDbEntity
  8
DEFPOINTS
 62
     0
100
AcDbPoint
 10
0.0
 20
1.25
 30
0.0
  0
ENDBLK
  5
4CA
330
4BF
100
AcDbEntity
  8
0
100
AcDbBlockEnd
  0
BLOCK
  5
4D2
330
4D1
100
AcDbEntity
  8
0
100
AcDbBlockBegin
  2
*D33
 70
     1
 10
0.0
 20
0.0
 30
0.0
  3
*D33
  1
*D40
  0
LINE
  5
4D4
330
4D1
100
AcDbEntity
  8
文字
 62
     0
100
AcDbLine
 10
170.3531478252105
 20
65.34724393062798
 30
0.0
 11
170.3531478252105
 21
23.44168398491513
 31
0.0
  0
LINE
  5
4D5
330
4D1
100
AcDbEntity
  8
文字
 62
     0
100
AcDbLine
 10
137.3531478252105
 20
65.34724393062798
 30
0.0
 11
137.3531478252105
 21
23.44168398491513
 31
0.0
  0
LINE
  5
4D6
330
4D1
100
AcDbEntity
  8
文字
 62
     0
100
AcDbLine
 10
167.8531478252105
 20
24.69168398491513
 30
0.0
 11
139.8531478252105
 21
24.69168398491513
 31
0.0
  0
SOLID
  5
4D7
330
4D1
100
AcDbEntity
  8
文字
 62
     0
100
AcDbTrace
 10
167.8531478252105
 20
24.27501731824846
 30
0.0
 11
167.8531478252105
 21
25.1083506515818
 31
0.0
 12
170.3531478252105
 22
24.69168398491513
 32
0.0
 13
170.3531478252105
 23
24.69168398491513
 33
0.0
  0
SOLID
  5
4D8
330
4D1
100
AcDbEntity
  8
文字
 62
     0
100
AcDbTrace
 10
139.8531478252105
 20
25.1083506515818
 30
0.0
 11
139.8531478252105
 21
24.27501731824846
 31
0.0
 12
137.3531478252105
 22
24.69168398491513
 32
0.0
 13
137.3531478252105
 23
24.69168398491513
 33
0.0
  0
MTEXT
  5
4D9
330
4D1
100
AcDbEntity
  8
文字
 62
     0
100
AcDbMText
 10
158.3529749333279
 20
26.64001277072686
 30
0.0
 40
2.5
 41
0.0
 46
0.0
 71
     5
 72
     1
  1
%%c33
 73
     1
 44
1.0
  0
POINT
  5
4DA
330
4D1
100
AcDbEntity
  8
DEFPOINTS
 62
     0
100
AcDbPoint
 10
170.3531478252105
 20
65.97224393062798
 30
0.0
  0
POINT
  5
4DB
330
4D1
100
AcDbEntity
  8
DEFPOINTS
 62
     0
100
AcDbPoint
 10
137.3531478252105
 20
65.97224393062798
 30
0.0
  0
POINT
  5
4DC
330
4D1
100
AcDbEntity
  8
DEFPOINTS
 62
     0
100
AcDbPoint
 10
137.3531478252105
 20
24.69168398491513
 30
0.0
  0
ENDBLK
  5
4D3
330
4D1
100
AcDbEntity
  8
0
100
AcDbBlockEnd
  0
BLOCK
  5
506
330
505
100
AcDbEntity
  8
0
100
AcDbBlockBegin
  2
*D34
 70
     1
 10
0.0
 20
0.0
 30
0.0
  3
*D34
  1
*D4
  0
LINE
  5
507
330
505
100
AcDbEntity
  8
文字
 62
     0
100
AcDbLine
 10
0.0
 20
23.14296772947809
 30
0.0
 11
0.0
 21
35.98748722986231
 31
0.0
  0
LINE
  5
508
330
505
100
AcDbEntity
  8
文字
 62
     0
100
AcDbLine
 10
8.0
 20
23.14296772947809
 30
0.0
 11
8.0
 21
35.98748722986231
 31
0.0
  0
LINE
  5
509
330
505
100
AcDbEntity
  8
文字
 62
     0
100
AcDbLine
 10
2.5
 20
34.73748722986231
 30
0.0
 11
5.5
 21
34.73748722986231
 31
0.0
  0
SOLID
  5
50A
330
505
100
AcDbEntity
  8
文字
 62
     0
100
AcDbTrace
 10
2.5
 20
35.15415389652897
 30
0.0
 11
2.5
 21
34.32082056319565
 31
0.0
 12
0.0
 22
34.73748722986231
 32
0.0
 13
0.0
 23
34.73748722986231
 33
0.0
  0
SOLID
  5
50B
330
505
100
AcDbEntity
  8
文字
 62
     0
100
AcDbTrace
 10
5.5
 20
34.32082056319565
 30
0.0
 11
5.5
 21
35.15415389652897
 31
0.0
 12
8.0
 22
34.73748722986231
 32
0.0
 13
8.0
 23
34.73748722986231
 33
0.0
  0
MTEXT
  5
50C
330
505
100
AcDbEntity
  8
文字
 62
     0
100
AcDbMText
 10
4.0
 20
36.6380670388664
 30
0.0
 40
2.5
 41
0.0
 46
0.0
 71
     5
 72
     1
  1
{\fArial|b0|i0|c0|p32;M}8
 73
     1
 44
1.0
  0
POINT
  5
50D
330
505
100
AcDbEntity
  8
DEFPOINTS
 62
     0
100
AcDbPoint
 10
0.0
 20
22.51796772947809
 30
0.0
  0
POINT
  5
50E
330
505
100
AcDbEntity
  8
DEFPOINTS
 62
     0
100
AcDbPoint
 10
8.0
 20
22.51796772947809
 30
0.0
  0
POINT
  5
50F
330
505
100
AcDbEntity
  8
DEFPOINTS
 62
     0
100
AcDbPoint
 10
8.0
 20
34.73748722986231
 30
0.0
  0
ENDBLK
  5
510
330
505
100
AcDbEntity
  8
0
100
AcDbBlockEnd
  0
BLOCK
  5
519
330
518
100
AcDbEntity
  8
0
100
AcDbBlockBegin
  2
*D35
 70
     1
 10
0.0
 20
0.0
 30
0.0
  3
*D35
  1
*D6
  0
LINE
  5
51A
330
518
100
AcDbEntity
  8
文字
 62
     0
100
AcDbLine
 10
8.625
 20
22.99999999999999
 30
0.0
 11
38.85670927885776
 21
22.99999999999998
 31
0.0
  0
LINE
  5
51B
330
518
100
AcDbEntity
  8
文字
 62
     0
100
AcDbLine
 10
8.625000000000341
 20
0.0
 30
0.0
 11
38.85670927885776
 21
-0.0000000000000019
 31
0.0
  0
LINE
  5
51C
330
518
100
AcDbEntity
  8
文字
 62
     0
100
AcDbLine
 10
37.60670927885776
 20
20.49999999999998
 30
0.0
 11
37.60670927885776
 21
2.499999999999998
 31
0.0
  0
SOLID
  5
51D
330
518
100
AcDbEntity
  8
文字
 62
     0
100
AcDbTrace
 10
38.02337594552443
 20
20.49999999999998
 30
0.0
 11
37.1900426121911
 21
20.49999999999998
 31
0.0
 12
37.60670927885776
 22
22.99999999999998
 32
0.0
 13
37.60670927885776
 23
22.99999999999998
 33
0.0
  0
SOLID
  5
51E
330
518
100
AcDbEntity
  8
文字
 62
     0
100
AcDbTrace
 10
37.1900426121911
 20
2.499999999999998
 30
0.0
 11
38.02337594552443
 21
2.499999999999998
 31
0.0
 12
37.60670927885776
 22
-0.0000000000000018
 32
0.0
 13
37.60670927885776
 23
-0.0000000000000018
 33
0.0
  0
MTEXT
  5
51F
330
518
100
AcDbEntity
  8
文字
 62
     0
100
AcDbMText
 10
35.70612946985367
 20
11.49999999999999
 30
0.0
 40
2.5
 41
0.0
 46
0.0
 71
     5
 72
     1
  1
23
 11
0.0
 21
1.0
 31
0.0
 73
     1
 44
1.0
  0
POINT
  5
520
330
518
100
AcDbEntity
  8
DEFPOINTS
 62
     0
100
AcDbPoint
 10
8.0
 20
22.99999999999999
 30
0.0
  0
POINT
  5
521
330
518
100
AcDbEntity
  8
DEFPOINTS
 62
     0
100
AcDbPoint
 10
8.000000000000341
 20
0.0
 30
0.0
  0
POINT
  5
522
330
518
100
AcDbEntity
  8
DEFPOINTS
 62
     0
100
AcDbPoint
 10
37.60670927885776
 20
-0.0000000000000018
 30
0.0
  0
ENDBLK
  5
523
330
518
100
AcDbEntity
  8
0
100
AcDbBlockEnd
  0
BLOCK
  5
53B
330
53A
100
AcDbEntity
  8
0
100
AcDbBlockBegin
  2
*D36
 70
     1
 10
0.0
 20
0.0
 30
0.0
  3
*D36
  1
*D37
  0
LINE
  5
53D
330
53A
100
AcDbEntity
  8
文字
 62
     0
100
AcDbLine
 10
69.76860711547369
 20
83.25370675720346
 30
0.0
 11
69.76860711547369
 21
96.09822625758768
 31
0.0
  0
LINE
  5
53E
330
53A
100
AcDbEntity
  8
文字
 62
     0
100
AcDbLine
 10
77.76860711547369
 20
83.25370675720346
 30
0.0
 11
77.76860711547369
 21
96.09822625758768
 31
0.0
  0
LINE
  5
53F
330
53A
100
AcDbEntity
  8
文字
 62
     0
100
AcDbLine
 10
72.26860711547369
 20
94.84822625758768
 30
0.0
 11
75.26860711547369
 21
94.84822625758768
 31
0.0
  0
SOLID
  5
540
330
53A
100
AcDbEntity
  8
文字
 62
     0
100
AcDbTrace
 10
72.26860711547369
 20
95.26489292425435
 30
0.0
 11
72.26860711547369
 21
94.43155959092101
 31
0.0
 12
69.76860711547369
 22
94.84822625758768
 32
0.0
 13
69.76860711547369
 23
94.84822625758768
 33
0.0
  0
SOLID
  5
541
330
53A
100
AcDbEntity
  8
文字
 62
     0
100
AcDbTrace
 10
75.26860711547369
 20
94.43155959092101
 30
0.0
 11
75.26860711547369
 21
95.26489292425435
 31
0.0
 12
77.76860711547369
 22
94.84822625758768
 32
0.0
 13
77.76860711547369
 23
94.84822625758768
 33
0.0
  0
MTEXT
  5
542
330
53A
100
AcDbEntity
  8
文字
 62
     0
100
AcDbMText
 10
73.76860711547369
 20
96.74880606659178
 30
0.0
 40
2.5
 41
0.0
 46
0.0
 71
     5
 72
     1
  1
{\fArial|b0|i0|c0|p32;M}8
 73
     1
 44
1.0
  0
POINT
  5
543
330
53A
100
AcDbEntity
  8
DEFPOINTS
 62
     0
100
AcDbPoint
 10
69.76860711547369
 20
82.62870675720346
 30
0.0
  0
POINT
  5
544
330
53A
100
AcDbEntity
  8
DEFPOINTS
 62
     0
100
AcDbPoint
 10
77.76860711547369
 20
82.62870675720346
 30
0.0
  0
POINT
  5
545
330
53A
100
AcDbEntity
  8
DEFPOINTS
 62
     0
100
AcDbPoint
 10
77.76860711547369
 20
94.84822625758768
 30
0.0
  0
ENDBLK
  5
53C
330
53A
100
AcDbEntity
  8
0
100
AcDbBlockEnd
  0
BLOCK
  5
547
330
546
100
AcDbEntity
  8
0
100
AcDbBlockBegin
  2
*D37
 70
     1
 10
0.0
 20
0.0
 30
0.0
  3
*D37
  1
*D38
  0
LINE
  5
549
330
546
100
AcDbEntity
  8
文字
 62
     0
100
AcDbLine
 10
78.39360711547369
 20
83.11073902772536
 30
0.0
 11
108.6253163943314
 21
83.11073902772536
 31
0.0
  0
LINE
  5
54A
330
546
100
AcDbEntity
  8
文字
 62
     0
100
AcDbLine
 10
78.39360711547403
 20
60.11073902772537
 30
0.0
 11
108.6253163943314
 21
60.11073902772537
 31
0.0
  0
LINE
  5
54B
330
546
100
AcDbEntity
  8
文字
 62
     0
100
AcDbLine
 10
107.3753163943314
 20
80.61073902772536
 30
0.0
 11
107.3753163943314
 21
62.61073902772537
 31
0.0
  0
SOLID
  5
54C
330
546
100
AcDbEntity
  8
文字
 62
     0
100
AcDbTrace
 10
107.7919830609981
 20
80.61073902772536
 30
0.0
 11
106.9586497276648
 21
80.61073902772536
 31
0.0
 12
107.3753163943314
 22
83.11073902772536
 32
0.0
 13
107.3753163943314
 23
83.11073902772536
 33
0.0
  0
SOLID
  5
54D
330
546
100
AcDbEntity
  8
文字
 62
     0
100
AcDbTrace
 10
106.9586497276648
 20
62.61073902772537
 30
0.0
 11
107.7919830609981
 21
62.61073902772537
 31
0.0
 12
107.3753163943314
 22
60.11073902772537
 32
0.0
 13
107.3753163943314
 23
60.11073902772537
 33
0.0
  0
MTEXT
  5
54E
330
546
100
AcDbEntity
  8
文字
 62
     0
100
AcDbMText
 10
105.4747365853273
 20
71.61073902772537
 30
0.0
 40
2.5
 41
0.0
 46
0.0
 71
     5
 72
     1
  1
23
 11
0.0
 21
1.0
 31
0.0
 73
     1
 44
1.0
  0
POINT
  5
54F
330
546
100
AcDbEntity
  8
DEFPOINTS
 62
     0
100
AcDbPoint
 10
77.76860711547369
 20
83.11073902772536
 30
0.0
  0
POINT
  5
550
330
546
100
AcDbEntity
  8
DEFPOINTS
 62
     0
100
AcDbPoint
 10
77.76860711547403
 20
60.11073902772537
 30
0.0
  0
POINT
  5
551
330
546
100
AcDbEntity
  8
DEFPOINTS
 62
     0
100
AcDbPoint
 10
107.3753163943314
 20
60.11073902772537
 30
0.0
  0
ENDBLK
  5
548
330
546
100
AcDbEntity
  8
0
100
AcDbBlockEnd
  0
BLOCK
  5
57B
330
57A
100
AcDbEntity
  8
0
100
AcDbBlockBegin
  2
*D38
 70
     1
 10
0.0
 20
0.0
 30
0.0
  3
*D38
  1
*D4
  0
LINE
  5
57C
330
57A
100
AcDbEntity
  8
文字
 62
     0
100
AcDbLine
 10
0.0
 20
62.99399810260988
 30
0.0
 11
0.0
 21
75.83851760299396
 31
0.0
  0
LINE
  5
57D
330
57A
100
AcDbEntity
  8
文字
 62
     0
100
AcDbLine
 10
8.0
 20
62.99399810260988
 30
0.0
 11
8.0
 21
75.83851760299396
 31
0.0
  0
LINE
  5
57E
330
57A
100
AcDbEntity
  8
文字
 62
     0
100
AcDbLine
 10
2.5
 20
74.58851760299396
 30
0.0
 11
5.5
 21
74.58851760299396
 31
0.0
  0
SOLID
  5
57F
330
57A
100
AcDbEntity
  8
文字
 62
     0
100
AcDbTrace
 10
2.5
 20
75.00518426966063
 30
0.0
 11
2.5
 21
74.17185093632729
 31
0.0
 12
0.0
 22
74.58851760299396
 32
0.0
 13
0.0
 23
74.58851760299396
 33
0.0
  0
SOLID
  5
580
330
57A
100
AcDbEntity
  8
文字
 62
     0
100
AcDbTrace
 10
5.5
 20
74.17185093632729
 30
0.0
 11
5.5
 21
75.00518426966063
 31
0.0
 12
8.0
 22
74.58851760299396
 32
0.0
 13
8.0
 23
74.58851760299396
 33
0.0
  0
MTEXT
  5
581
330
57A
100
AcDbEntity
  8
文字
 62
     0
100
AcDbMText
 10
4.0
 20
76.48909741199806
 30
0.0
 40
2.5
 41
0.0
 46
0.0
 71
     5
 72
     1
  1
{\fArial|b0|i0|c0|p32;M}8
 73
     1
 44
1.0
  0
POINT
  5
582
330
57A
100
AcDbEntity
  8
DEFPOINTS
 62
     0
100
AcDbPoint
 10
0.0
 20
62.36899810260988
 30
0.0
  0
POINT
  5
583
330
57A
100
AcDbEntity
  8
DEFPOINTS
 62
     0
100
AcDbPoint
 10
8.0
 20
62.36899810260988
 30
0.0
  0
POINT
  5
584
330
57A
100
AcDbEntity
  8
DEFPOINTS
 62
     0
100
AcDbPoint
 10
8.0
 20
74.58851760299396
 30
0.0
  0
ENDBLK
  5
585
330
57A
100
AcDbEntity
  8
0
100
AcDbBlockEnd
  0
BLOCK
  5
58E
330
58D
100
AcDbEntity
  8
0
100
AcDbBlockBegin
  2
*D39
 70
     1
 10
0.0
 20
0.0
 30
0.0
  3
*D39
  1
*D7
  0
LINE
  5
58F
330
58D
100
AcDbEntity
  8
文字
 62
     0
100
AcDbLine
 10
7.625
 20
63.00000000000006
 30
0.0
 11
38.8567092788574
 21
63.00000000000006
 31
0.0
  0
LINE
  5
590
330
58D
100
AcDbEntity
  8
文字
 62
     0
100
AcDbLine
 10
10.89123089237648
 20
0.0
 30
0.0
 11
38.85670927885739
 21
-0.0000000000000018
 31
0.0
  0
LINE
  5
591
330
58D
100
AcDbEntity
  8
文字
 62
     0
100
AcDbLine
 10
37.6067092788574
 20
60.50000000000006
 30
0.0
 11
37.60670927885739
 21
2.499999999999998
 31
0.0
  0
SOLID
  5
592
330
58D
100
AcDbEntity
  8
文字
 62
     0
100
AcDbTrace
 10
38.02337594552407
 20
60.50000000000006
 30
0.0
 11
37.19004261219074
 21
60.50000000000006
 31
0.0
 12
37.6067092788574
 22
63.00000000000006
 32
0.0
 13
37.6067092788574
 23
63.00000000000006
 33
0.0
  0
SOLID
  5
593
330
58D
100
AcDbEntity
  8
文字
 62
     0
100
AcDbTrace
 10
37.19004261219073
 20
2.499999999999998
 30
0.0
 11
38.02337594552406
 21
2.499999999999998
 31
0.0
 12
37.60670927885739
 22
-0.0000000000000017
 32
0.0
 13
37.60670927885739
 23
-0.0000000000000017
 33
0.0
  0
MTEXT
  5
594
330
58D
100
AcDbEntity
  8
文字
 62
     0
100
AcDbMText
 10
35.7061294698533
 20
31.50000000000003
 30
0.0
 40
2.5
 41
0.0
 46
0.0
 71
     5
 72
     1
  1
63
 11
1.127845612317618E-16
 21
1.0
 31
0.0
 73
     1
 44
1.0
  0
POINT
  5
595
330
58D
100
AcDbEntity
  8
DEFPOINTS
 62
     0
100
AcDbPoint
 10
7.0
 20
63.00000000000006
 30
0.0
  0
POINT
  5
596
330
58D
100
AcDbEntity
  8
DEFPOINTS
 62
     0
100
AcDbPoint
 10
10.26623089237648
 20
0.0
 30
0.0
  0
POINT
  5
597
330
58D
100
AcDbEntity
  8
DEFPOINTS
 62
     0
100
AcDbPoint
 10
37.60670927885739
 20
-0.0000000000000017
 30
0.0
  0
ENDBLK
  5
598
330
58D
100
AcDbEntity
  8
0
100
AcDbBlockEnd
  0
BLOCK
  5
5B0
330
5AF
100
AcDbEntity
  8
0
100
AcDbBlockBegin
  2
*D40
 70
     1
 10
0.0
 20
0.0
 30
0.0
  3
*D40
  1
*D42
  0
LINE
  5
5B2
330
5AF
100
AcDbEntity
  8
文字
 62
     0
100
AcDbLine
 10
69.76860711547403
 20
123.1047371303353
 30
0.0
 11
69.76860711547403
 21
135.9492566307193
 31
0.0
  0
LINE
  5
5B3
330
5AF
100
AcDbEntity
  8
文字
 62
     0
100
AcDbLine
 10
77.76860711547403
 20
123.1047371303353
 30
0.0
 11
77.76860711547403
 21
135.9492566307193
 31
0.0
  0
LINE
  5
5B4
330
5AF
100
AcDbEntity
  8
文字
 62
     0
100
AcDbLine
 10
72.26860711547403
 20
134.6992566307193
 30
0.0
 11
75.26860711547403
 21
134.6992566307193
 31
0.0
  0
SOLID
  5
5B5
330
5AF
100
AcDbEntity
  8
文字
 62
     0
100
AcDbTrace
 10
72.26860711547403
 20
135.115923297386
 30
0.0
 11
72.26860711547403
 21
134.2825899640527
 31
0.0
 12
69.76860711547403
 22
134.6992566307193
 32
0.0
 13
69.76860711547403
 23
134.6992566307193
 33
0.0
  0
SOLID
  5
5B6
330
5AF
100
AcDbEntity
  8
文字
 62
     0
100
AcDbTrace
 10
75.26860711547403
 20
134.2825899640527
 30
0.0
 11
75.26860711547403
 21
135.115923297386
 31
0.0
 12
77.76860711547403
 22
134.6992566307193
 32
0.0
 13
77.76860711547403
 23
134.6992566307193
 33
0.0
  0
MTEXT
  5
5B7
330
5AF
100
AcDbEntity
  8
文字
 62
     0
100
AcDbMText
 10
73.76860711547403
 20
136.5998364397234
 30
0.0
 40
2.5
 41
0.0
 46
0.0
 71
     5
 72
     1
  1
{\fArial|b0|i0|c0|p32;M}8
 73
     1
 44
1.0
  0
POINT
  5
5B8
330
5AF
100
AcDbEntity
  8
DEFPOINTS
 62
     0
100
AcDbPoint
 10
69.76860711547403
 20
122.4797371303353
 30
0.0
  0
POINT
  5
5B9
330
5AF
100
AcDbEntity
  8
DEFPOINTS
 62
     0
100
AcDbPoint
 10
77.76860711547403
 20
122.4797371303353
 30
0.0
  0
POINT
  5
5BA
330
5AF
100
AcDbEntity
  8
DEFPOINTS
 62
     0
100
AcDbPoint
 10
77.76860711547403
 20
134.6992566307193
 30
0.0
  0
ENDBLK
  5
5B1
330
5AF
100
AcDbEntity
  8
0
100
AcDbBlockEnd
  0
BLOCK
  5
5BC
330
5BB
100
AcDbEntity
  8
0
100
AcDbBlockBegin
  2
*D41
 70
     1
 10
0.0
 20
0.0
 30
0.0
  3
*D41
  1
*D43
  0
LINE
  5
5BE
330
5BB
100
AcDbEntity
  8
文字
 62
     0
100
AcDbLine
 10
77.39360711547403
 20
123.1107390277254
 30
0.0
 11
108.6253163943314
 21
123.1107390277254
 31
0.0
  0
LINE
  5
5BF
330
5BB
100
AcDbEntity
  8
文字
 62
     0
100
AcDbLine
 10
80.65983800785051
 20
60.11073902772536
 30
0.0
 11
108.6253163943314
 21
60.11073902772536
 31
0.0
  0
LINE
  5
5C0
330
5BB
100
AcDbEntity
  8
文字
 62
     0
100
AcDbLine
 10
107.3753163943314
 20
120.6107390277254
 30
0.0
 11
107.3753163943314
 21
62.61073902772536
 31
0.0
  0
SOLID
  5
5C1
330
5BB
100
AcDbEntity
  8
文字
 62
     0
100
AcDbTrace
 10
107.7919830609981
 20
120.6107390277254
 30
0.0
 11
106.9586497276647
 21
120.6107390277254
 31
0.0
 12
107.3753163943314
 22
123.1107390277254
 32
0.0
 13
107.3753163943314
 23
123.1107390277254
 33
0.0
  0
SOLID
  5
5C2
330
5BB
100
AcDbEntity
  8
文字
 62
     0
100
AcDbTrace
 10
106.9586497276647
 20
62.61073902772536
 30
0.0
 11
107.7919830609981
 21
62.61073902772536
 31
0.0
 12
107.3753163943314
 22
60.11073902772536
 32
0.0
 13
107.3753163943314
 23
60.11073902772536
 33
0.0
  0
MTEXT
  5
5C3
330
5BB
100
AcDbEntity
  8
文字
 62
     0
100
AcDbMText
 10
105.4747365853273
 20
91.61073902772537
 30
0.0
 40
2.5
 41
0.0
 46
0.0
 71
     5
 72
     1
  1
63
 11
0.0
 21
1.0
 31
0.0
 73
     1
 44
1.0
  0
POINT
  5
5C4
330
5BB
100
AcDbEntity
  8
DEFPOINTS
 62
     0
100
AcDbPoint
 10
76.76860711547403
 20
123.1107390277254
 30
0.0
  0
POINT
  5
5C5
330
5BB
100
AcDbEntity
  8
DEFPOINTS
 62
     0
100
AcDbPoint
 10
80.03483800785051
 20
60.11073902772536
 30
0.0
  0
POINT
  5
5C6
330
5BB
100
AcDbEntity
  8
DEFPOINTS
 62
     0
100
AcDbPoint
 10
107.3753163943314
 20
60.11073902772536
 30
0.0
  0
ENDBLK
  5
5BD
330
5BB
100
AcDbEntity
  8
0
100
AcDbBlockEnd
  0
BLOCK
  5
5F0
330
5EF
100
AcDbEntity
  8
0
100
AcDbBlockBegin
  2
*D42
 70
     1
 10
0.0
 20
0.0
 30
0.0
  3
*D42
  1
*D4
  0
LINE
  5
5F1
330
5EF
100
AcDbEntity
  8
文字
 62
     0
100
AcDbLine
 10
0.0
 20
83.16588713969635
 30
0.0
 11
0.0
 21
96.01040664008057
 31
0.0
  0
LINE
  5
5F2
330
5EF
100
AcDbEntity
  8
文字
 62
     0
100
AcDbLine
 10
8.0
 20
83.16588713969635
 30
0.0
 11
8.0
 21
96.01040664008057
 31
0.0
  0
LINE
  5
5F3
330
5EF
100
AcDbEntity
  8
文字
 62
     0
100
AcDbLine
 10
2.5
 20
94.76040664008057
 30
0.0
 11
5.5
 21
94.76040664008057
 31
0.0
  0
SOLID
  5
5F4
330
5EF
100
AcDbEntity
  8
文字
 62
     0
100
AcDbTrace
 10
2.5
 20
95.17707330674725
 30
0.0
 11
2.5
 21
94.3437399734139
 31
0.0
 12
0.0
 22
94.76040664008057
 32
0.0
 13
0.0
 23
94.76040664008057
 33
0.0
  0
SOLID
  5
5F5
330
5EF
100
AcDbEntity
  8
文字
 62
     0
100
AcDbTrace
 10
5.5
 20
94.3437399734139
 30
0.0
 11
5.5
 21
95.17707330674725
 31
0.0
 12
8.0
 22
94.76040664008057
 32
0.0
 13
8.0
 23
94.76040664008057
 33
0.0
  0
MTEXT
  5
5F6
330
5EF
100
AcDbEntity
  8
文字
 62
     0
100
AcDbMText
 10
4.0
 20
96.66098644908467
 30
0.0
 40
2.5
 41
0.0
 46
0.0
 71
     5
 72
     1
  1
{\fArial|b0|i0|c0|p32;M}8
 73
     1
 44
1.0
  0
POINT
  5
5F7
330
5EF
100
AcDbEntity
  8
DEFPOINTS
 62
     0
100
AcDbPoint
 10
0.0
 20
82.54088713969635
 30
0.0
  0
POINT
  5
5F8
330
5EF
100
AcDbEntity
  8
DEFPOINTS
 62
     0
100
AcDbPoint
 10
8.0
 20
82.54088713969635
 30
0.0
  0
POINT
  5
5F9
330
5EF
100
AcDbEntity
  8
DEFPOINTS
 62
     0
100
AcDbPoint
 10
8.0
 20
94.76040664008057
 30
0.0
  0
ENDBLK
  5
5FA
330
5EF
100
AcDbEntity
  8
0
100
AcDbBlockEnd
  0
BLOCK
  5
603
330
602
100
AcDbEntity
  8
0
100
AcDbBlockBegin
  2
*D43
 70
     1
 10
0.0
 20
0.0
 30
0.0
  3
*D43
  1
*D7
  0
LINE
  5
604
330
602
100
AcDbEntity
  8
文字
 62
     0
100
AcDbLine
 10
7.625000000000028
 20
83.00000000000007
 30
0.0
 11
38.85670927885744
 21
83.00000000000007
 31
0.0
  0
LINE
  5
605
330
602
100
AcDbEntity
  8
文字
 62
     0
100
AcDbLine
 10
10.8912308923765
 20
0.0
 30
0.0
 11
38.85670927885744
 21
-0.0000000000000018
 31
0.0
  0
LINE
  5
606
330
602
100
AcDbEntity
  8
文字
 62
     0
100
AcDbLine
 10
37.60670927885744
 20
80.50000000000007
 30
0.0
 11
37.60670927885744
 21
2.499999999999998
 31
0.0
  0
SOLID
  5
607
330
602
100
AcDbEntity
  8
文字
 62
     0
100
AcDbTrace
 10
38.02337594552411
 20
80.50000000000007
 30
0.0
 11
37.19004261219078
 21
80.50000000000007
 31
0.0
 12
37.60670927885744
 22
83.00000000000007
 32
0.0
 13
37.60670927885744
 23
83.00000000000007
 33
0.0
  0
SOLID
  5
608
330
602
100
AcDbEntity
  8
文字
 62
     0
100
AcDbTrace
 10
37.19004261219077
 20
2.499999999999998
 30
0.0
 11
38.0233759455241
 21
2.499999999999998
 31
0.0
 12
37.60670927885744
 22
-0.0000000000000017
 32
0.0
 13
37.60670927885744
 23
-0.0000000000000017
 33
0.0
  0
MTEXT
  5
609
330
602
100
AcDbEntity
  8
文字
 62
     0
100
AcDbMText
 10
35.70612946985334
 20
41.50000000000004
 30
0.0
 40
2.5
 41
0.0
 46
0.0
 71
     5
 72
     1
  1
83
 11
8.560755852531321E-17
 21
1.0
 31
0.0
 73
     1
 44
1.0
  0
POINT
  5
60A
330
602
100
AcDbEntity
  8
DEFPOINTS
 62
     0
100
AcDbPoint
 10
7.000000000000028
 20
83.00000000000007
 30
0.0
  0
POINT
  5
60B
330
602
100
AcDbEntity
  8
DEFPOINTS
 62
     0
100
AcDbPoint
 10
10.2662308923765
 20
0.0
 30
0.0
  0
POINT
  5
60C
330
602
100
AcDbEntity
  8
DEFPOINTS
 62
     0
100
AcDbPoint
 10
37.60670927885744
 20
-0.0000000000000017
 30
0.0
  0
ENDBLK
  5
60D
330
602
100
AcDbEntity
  8
0
100
AcDbBlockEnd
  0
BLOCK
  5
623
330
622
100
AcDbEntity
  8
0
100
AcDbBlockBegin
  2
*D44
 70
     1
 10
0.0
 20
0.0
 30
0.0
  3
*D44
  1
*D45
  0
LINE
  5
625
330
622
100
AcDbEntity
  8
実線
 62
     0
370
    -2
100
AcDbLine
 10
69.59880745223656
 20
159.60794935781
 30
0.0
 11
69.59880745223656
 21
172.4524688581942
 31
0.0
  0
LINE
  5
626
330
622
100
AcDbEntity
  8
実線
 62
     0
370
    -2
100
AcDbLine
 10
77.59880745223656
 20
159.60794935781
 30
0.0
 11
77.59880745223656
 21
172.4524688581942
 31
0.0
  0
LINE
  5
627
330
622
100
AcDbEntity
  8
実線
 62
     0
370
    -2
100
AcDbLine
 10
72.09880745223656
 20
171.2024688581942
 30
0.0
 11
75.09880745223656
 21
171.2024688581942
 31
0.0
  0
SOLID
  5
628
330
622
100
AcDbEntity
  8
実線
 62
     0
100
AcDbTrace
 10
72.09880745223656
 20
171.6191355248609
 30
0.0
 11
72.09880745223656
 21
170.7858021915276
 31
0.0
 12
69.59880745223656
 22
171.2024688581942
 32
0.0
 13
69.59880745223656
 23
171.2024688581942
 33
0.0
  0
SOLID
  5
629
330
622
100
AcDbEntity
  8
実線
 62
     0
100
AcDbTrace
 10
75.09880745223656
 20
170.7858021915276
 30
0.0
 11
75.09880745223656
 21
171.6191355248609
 31
0.0
 12
77.59880745223656
 22
171.2024688581942
 32
0.0
 13
77.59880745223656
 23
171.2024688581942
 33
0.0
  0
MTEXT
  5
62A
330
622
100
AcDbEntity
  8
実線
 62
     0
100
AcDbMText
 10
73.59880745223656
 20
173.1037188581942
 30
0.0
 40
2.5
 41
0.0
 46
0.0
 71
     5
 72
     1
  1
{\fArial|b0|i0|c0|p32;M}8
 73
     1
 44
1.0
  0
POINT
  5
62B
330
622
100
AcDbEntity
  8
DEFPOINTS
 62
     0
100
AcDbPoint
 10
69.59880745223656
 20
158.98294935781
 30
0.0
  0
POINT
  5
62C
330
622
100
AcDbEntity
  8
DEFPOINTS
 62
     0
100
AcDbPoint
 10
77.59880745223656
 20
158.98294935781
 30
0.0
  0
POINT
  5
62D
330
622
100
AcDbEntity
  8
DEFPOINTS
 62
     0
100
AcDbPoint
 10
77.59880745223656
 20
171.2024688581942
 30
0.0
  0
ENDBLK
  5
624
330
622
100
AcDbEntity
  8
0
100
AcDbBlockEnd
  0
BLOCK
  5
62F
330
62E
100
AcDbEntity
  8
0
100
AcDbBlockBegin
  2
*D45
 70
     1
 10
0.0
 20
0.0
 30
0.0
  3
*D45
  1
*D46
  0
LINE
  5
631
330
62E
100
AcDbEntity
  8
実線
 62
     0
370
    -2
100
AcDbLine
 10
78.52357649215729
 20
158.1105775887333
 30
0.0
 11
108.5295912740861
 21
158.1105775887333
 31
0.0
  0
LINE
  5
632
330
62E
100
AcDbEntity
  8
実線
 62
     0
370
    -2
100
AcDbLine
 10
80.56411288760516
 20
60.11073902772537
 30
0.0
 11
108.5295912740861
 21
60.11073902772537
 31
0.0
  0
LINE
  5
633
330
62E
100
AcDbEntity
  8
実線
 62
     0
370
    -2
100
AcDbLine
 10
107.2795912740861
 20
155.6105775887333
 30
0.0
 11
107.2795912740861
 21
62.61073902772537
 31
0.0
  0
SOLID
  5
634
330
62E
100
AcDbEntity
  8
実線
 62
     0
100
AcDbTrace
 10
107.6962579407528
 20
155.6105775887333
 30
0.0
 11
106.8629246074194
 21
155.6105775887333
 31
0.0
 12
107.2795912740861
 22
158.1105775887333
 32
0.0
 13
107.2795912740861
 23
158.1105775887333
 33
0.0
  0
SOLID
  5
635
330
62E
100
AcDbEntity
  8
実線
 62
     0
100
AcDbTrace
 10
106.8629246074194
 20
62.61073902772537
 30
0.0
 11
107.6962579407528
 21
62.61073902772537
 31
0.0
 12
107.2795912740861
 22
60.11073902772537
 32
0.0
 13
107.2795912740861
 23
60.11073902772537
 33
0.0
  0
MTEXT
  5
636
330
62E
100
AcDbEntity
  8
実線
 62
     0
100
AcDbMText
 10
105.3783412740861
 20
109.1106583082293
 30
0.0
 40
2.5
 41
0.0
 46
0.0
 71
     5
 72
     1
  1
98
 11
0.0
 21
1.0
 31
0.0
 73
     1
 44
1.0
  0
POINT
  5
637
330
62E
100
AcDbEntity
  8
DEFPOINTS
 62
     0
100
AcDbPoint
 10
77.89857649215729
 20
158.1105775887333
 30
0.0
  0
POINT
  5
638
330
62E
100
AcDbEntity
  8
DEFPOINTS
 62
     0
100
AcDbPoint
 10
79.93911288760516
 20
60.11073902772537
 30
0.0
  0
POINT
  5
639
330
62E
100
AcDbEntity
  8
DEFPOINTS
 62
     0
100
AcDbPoint
 10
107.2795912740861
 20
60.11073902772537
 30
0.0
  0
ENDBLK
  5
630
330
62E
100
AcDbEntity
  8
0
100
AcDbBlockEnd
  0
BLOCK
  5
6ED
330
6EC
100
AcDbEntity
  8
0
100
AcDbBlockBegin
  2
*D46
 70
     1
 10
0.0
 20
0.0
 30
0.0
  3
*D46
  1
*D52
  0
LINE
  5
6EE
330
6EC
100
AcDbEntity
  8
文字
 62
     0
370
    -2
100
AcDbLine
 10
31.93191324683769
 20
36.14191976597814
 30
0.0
 11
31.93191324683769
 21
0.0
 31
0.0
  0
LINE
  5
6EF
330
6EC
100
AcDbEntity
  8
文字
 62
     0
370
    -2
100
AcDbLine
 10
9.931913246837695
 20
36.14191976597814
 30
0.0
 11
9.931913246837695
 21
0.0
 31
0.0
  0
LINE
  5
6F0
330
6EC
100
AcDbEntity
  8
文字
 62
     0
370
    -2
100
AcDbLine
 10
29.43191324683769
 20
1.25
 30
0.0
 11
12.43191324683769
 21
1.25
 31
0.0
  0
SOLID
  5
6F1
330
6EC
100
AcDbEntity
  8
文字
 62
     0
100
AcDbTrace
 10
29.43191324683769
 20
0.8333333333333333
 30
0.0
 11
29.43191324683769
 21
1.666666666666667
 31
0.0
 12
31.93191324683769
 22
1.25
 32
0.0
 13
31.93191324683769
 23
1.25
 33
0.0
  0
SOLID
  5
6F2
330
6EC
100
AcDbEntity
  8
文字
 62
     0
100
AcDbTrace
 10
12.43191324683769
 20
1.666666666666667
 30
0.0
 11
12.43191324683769
 21
0.8333333333333333
 31
0.0
 12
9.931913246837695
 22
1.25
 32
0.0
 13
9.931913246837695
 23
1.25
 33
0.0
  0
MTEXT
  5
6F3
330
6EC
100
AcDbEntity
  8
文字
 62
     0
100
AcDbMText
 10
20.93552739542392
 20
3.198328785811733
 30
0.0
 40
2.5
 41
0.0
 46
0.0
 71
     5
 72
     1
  1
%%c22
 73
     1
 44
1.0
  0
POINT
  5
6F4
330
6EC
100
AcDbEntity
  8
DEFPOINTS
 62
     0
100
AcDbPoint
 10
31.93191324683769
 20
36.76691976597814
 30
0.0
  0
POINT
  5
6F5
330
6EC
100
AcDbEntity
  8
DEFPOINTS
 62
     0
100
AcDbPoint
 10
9.931913246837695
 20
36.76691976597814
 30
0.0
  0
POINT
  5
6F6
330
6EC
100
AcDbEntity
  8
DEFPOINTS
 62
     0
100
AcDbPoint
 10
9.931913246837695
 20
1.25
 30
0.0
  0
ENDBLK
  5
6F7
330
6EC
100
AcDbEntity
  8
0
100
AcDbBlockEnd
  0
BLOCK
  5
70D
330
70C
100
AcDbEntity
  8
0
100
AcDbBlockBegin
  2
*D47
 70
     1
 10
0.0
 20
0.0
 30
0.0
  3
*D47
  1
*D48
  0
LINE
  5
70F
330
70C
100
AcDbEntity
  8
実線
 62
     0
370
    -2
100
AcDbLine
 10
164.4280772420775
 20
69.7258934017919
 30
0.0
 11
164.4280772420775
 21
33.58397363581375
 31
0.0
  0
LINE
  5
710
330
70C
100
AcDbEntity
  8
実線
 62
     0
370
    -2
100
AcDbLine
 10
142.4280772420775
 20
69.7258934017919
 30
0.0
 11
142.4280772420775
 21
33.58397363581375
 31
0.0
  0
LINE
  5
711
330
70C
100
AcDbEntity
  8
実線
 62
     0
370
    -2
100
AcDbLine
 10
161.9280772420775
 20
34.83397363581375
 30
0.0
 11
144.9280772420775
 21
34.83397363581375
 31
0.0
  0
SOLID
  5
712
330
70C
100
AcDbEntity
  8
実線
 62
     0
100
AcDbTrace
 10
161.9280772420775
 20
34.41730696914708
 30
0.0
 11
161.9280772420775
 21
35.25064030248041
 31
0.0
 12
164.4280772420775
 22
34.83397363581375
 32
0.0
 13
164.4280772420775
 23
34.83397363581375
 33
0.0
  0
SOLID
  5
713
330
70C
100
AcDbEntity
  8
実線
 62
     0
100
AcDbTrace
 10
144.9280772420775
 20
35.25064030248041
 30
0.0
 11
144.9280772420775
 21
34.41730696914708
 31
0.0
 12
142.4280772420775
 22
34.83397363581375
 32
0.0
 13
142.4280772420775
 23
34.83397363581375
 33
0.0
  0
MTEXT
  5
714
330
70C
100
AcDbEntity
  8
実線
 62
     0
100
AcDbMText
 10
153.4316913906637
 20
36.78022363581375
 30
0.0
 40
2.5
 41
0.0
 46
0.0
 71
     5
 72
     1
  1
%%c22
 73
     1
 44
1.0
  0
POINT
  5
715
330
70C
100
AcDbEntity
  8
DEFPOINTS
 62
     0
100
AcDbPoint
 10
164.4280772420775
 20
70.3508934017919
 30
0.0
  0
POINT
  5
716
330
70C
100
AcDbEntity
  8
DEFPOINTS
 62
     0
100
AcDbPoint
 10
142.4280772420775
 20
70.3508934017919
 30
0.0
  0
POINT
  5
717
330
70C
100
AcDbEntity
  8
DEFPOINTS
 62
     0
100
AcDbPoint
 10
142.4280772420775
 20
34.83397363581375
 30
0.0
  0
ENDBLK
  5
70E
330
70C
100
AcDbEntity
  8
0
100
AcDbBlockEnd
  0
BLOCK
  5
741
330
740
100
AcDbEntity
  8
0
100
AcDbBlockBegin
  2
*D48
 70
     1
 10
0.0
 20
0.0
 30
0.0
  3
*D48
  1
*D50
  0
LINE
  5
742
330
740
100
AcDbEntity
  8
文字
 62
     0
370
    -2
100
AcDbLine
 10
27.82370972132016
 20
15.41669636768103
 30
0.0
 11
27.82370972132016
 21
5.976724044629464
 31
0.0
  0
LINE
  5
743
330
740
100
AcDbEntity
  8
文字
 62
     0
370
    -2
100
AcDbLine
 10
21.82370972132016
 20
15.41669636768103
 30
0.0
 11
21.82370972132016
 21
5.976724044629464
 31
0.0
  0
LINE
  5
744
330
740
100
AcDbEntity
  8
文字
 62
     0
370
    -2
100
AcDbLine
 10
27.82370972132016
 20
7.226724044629464
 30
0.0
 11
21.82370972132016
 21
7.226724044629464
 31
0.0
  0
LINE
  5
745
330
740
100
AcDbEntity
  8
文字
 62
     0
370
    -2
100
AcDbLine
 10
30.32370972132016
 20
7.226724044629464
 30
0.0
 11
32.82370972132016
 21
7.226724044629464
 31
0.0
  0
LINE
  5
746
330
740
100
AcDbEntity
  8
文字
 62
     0
370
    -2
100
AcDbLine
 10
19.32370972132016
 20
7.226724044629464
 30
0.0
 11
16.82370972132016
 21
7.226724044629464
 31
0.0
  0
SOLID
  5
747
330
740
100
AcDbEntity
  8
文字
 62
     0
100
AcDbTrace
 10
30.32370972132016
 20
7.643390711296131
 30
0.0
 11
30.32370972132016
 21
6.810057377962797
 31
0.0
 12
27.82370972132016
 22
7.226724044629464
 32
0.0
 13
27.82370972132016
 23
7.226724044629464
 33
0.0
  0
SOLID
  5
748
330
740
100
AcDbEntity
  8
文字
 62
     0
100
AcDbTrace
 10
19.32370972132016
 20
6.810057377962797
 30
0.0
 11
19.32370972132016
 21
7.643390711296131
 31
0.0
 12
21.82370972132016
 22
7.226724044629464
 32
0.0
 13
21.82370972132016
 23
7.226724044629464
 33
0.0
  0
MTEXT
  5
749
330
740
100
AcDbEntity
  8
文字
 62
     0
100
AcDbMText
 10
24.72293524548948
 20
9.127303853633556
 30
0.0
 40
2.5
 41
0.0
 46
0.0
 71
     5
 72
     1
  1
6
 73
     1
 44
1.0
  0
POINT
  5
74A
330
740
100
AcDbEntity
  8
DEFPOINTS
 62
     0
100
AcDbPoint
 10
27.82370972132016
 20
16.04169636768103
 30
0.0
  0
POINT
  5
74B
330
740
100
AcDbEntity
  8
DEFPOINTS
 62
     0
100
AcDbPoint
 10
21.82370972132016
 20
16.04169636768103
 30
0.0
  0
POINT
  5
74C
330
740
100
AcDbEntity
  8
DEFPOINTS
 62
     0
100
AcDbPoint
 10
21.82370972132016
 20
7.226724044629464
 30
0.0
  0
ENDBLK
  5
74D
330
740
100
AcDbEntity
  8
0
100
AcDbBlockEnd
  0
BLOCK
  5
751
330
750
100
AcDbEntity
  8
0
100
AcDbBlockBegin
  2
*D49
 70
     1
 10
0.0
 20
0.0
 30
0.0
  3
*D49
  1
*D51
  0
LINE
  5
752
330
750
100
AcDbEntity
  8
文字
 62
     0
370
    -2
100
AcDbLine
 10
28.79026549662952
 20
24.80761063637806
 30
0.0
 11
54.64238238719052
 21
24.80761063637806
 31
0.0
  0
LINE
  5
753
330
750
100
AcDbEntity
  8
文字
 62
     0
370
    -2
100
AcDbLine
 10
37.44870972132016
 20
16.04169636768103
 30
0.0
 11
54.64238238719052
 21
16.04169636768103
 31
0.0
  0
LINE
  5
754
330
750
100
AcDbEntity
  8
文字
 62
     0
370
    -2
100
AcDbLine
 10
53.39238238719052
 20
22.30761063637806
 30
0.0
 11
53.39238238719052
 21
18.54169636768103
 31
0.0
  0
SOLID
  5
755
330
750
100
AcDbEntity
  8
文字
 62
     0
100
AcDbTrace
 10
53.80904905385719
 20
22.30761063637806
 30
0.0
 11
52.97571572052386
 21
22.30761063637806
 31
0.0
 12
53.39238238719052
 22
24.80761063637806
 32
0.0
 13
53.39238238719052
 23
24.80761063637806
 33
0.0
  0
SOLID
  5
756
330
750
100
AcDbEntity
  8
文字
 62
     0
100
AcDbTrace
 10
52.97571572052386
 20
18.54169636768103
 30
0.0
 11
53.80904905385719
 21
18.54169636768103
 31
0.0
 12
53.39238238719052
 22
16.04169636768103
 32
0.0
 13
53.39238238719052
 23
16.04169636768103
 33
0.0
  0
MTEXT
  5
757
330
750
100
AcDbEntity
  8
文字
 62
     0
100
AcDbMText
 10
51.49180257818643
 20
21.28585961413199
 30
0.0
 40
2.5
 41
0.0
 46
0.0
 71
     5
 72
     1
  1
9
 11
0.0
 21
1.0
 31
0.0
 73
     1
 44
1.0
  0
POINT
  5
758
330
750
100
AcDbEntity
  8
DEFPOINTS
 62
     0
100
AcDbPoint
 10
28.16526549662952
 20
24.80761063637806
 30
0.0
  0
POINT
  5
759
330
750
100
AcDbEntity
  8
DEFPOINTS
 62
     0
100
AcDbPoint
 10
36.82370972132016
 20
16.04169636768103
 30
0.0
  0
POINT
  5
75A
330
750
100
AcDbEntity
  8
DEFPOINTS
 62
     0
100
AcDbPoint
 10
53.39238238719052
 20
16.04169636768103
 30
0.0
  0
ENDBLK
  5
75B
330
750
100
AcDbEntity
  8
0
100
AcDbBlockEnd
  0
BLOCK
  5
763
330
762
100
AcDbEntity
  8
0
100
AcDbBlockBegin
  2
*D50
 70
     1
 10
0.0
 20
0.0
 30
0.0
  3
*D50
  1
*D52
  0
LINE
  5
764
330
762
100
AcDbEntity
  8
文字
 62
     0
370
    -2
100
AcDbLine
 10
8.136876731331995
 20
17.9789301392336
 30
0.0
 11
8.136876731331995
 21
0.0
 31
0.0
  0
LINE
  5
765
330
762
100
AcDbEntity
  8
文字
 62
     0
370
    -2
100
AcDbLine
 10
41.13687673133199
 20
17.97893013923354
 30
0.0
 11
41.13687673133199
 21
0.0
 31
0.0
  0
LINE
  5
766
330
762
100
AcDbEntity
  8
文字
 62
     0
370
    -2
100
AcDbLine
 10
10.63687673133199
 20
1.25
 30
0.0
 11
38.63687673133199
 21
1.25
 31
0.0
  0
SOLID
  5
767
330
762
100
AcDbEntity
  8
文字
 62
     0
100
AcDbTrace
 10
10.63687673133199
 20
1.666666666666667
 30
0.0
 11
10.63687673133199
 21
0.8333333333333333
 31
0.0
 12
8.136876731331995
 22
1.25
 32
0.0
 13
8.136876731331995
 23
1.25
 33
0.0
  0
SOLID
  5
768
330
762
100
AcDbEntity
  8
文字
 62
     0
100
AcDbTrace
 10
38.63687673133199
 20
0.8333333333333333
 30
0.0
 11
38.63687673133199
 21
1.666666666666667
 31
0.0
 12
41.13687673133199
 22
1.25
 32
0.0
 13
41.13687673133199
 23
1.25
 33
0.0
  0
MTEXT
  5
769
330
762
100
AcDbEntity
  8
文字
 62
     0
100
AcDbMText
 10
24.63687673133199
 20
3.198328785811733
 30
0.0
 40
2.5
 41
0.0
 46
0.0
 71
     5
 72
     1
  1
%%c33
 73
     1
 44
1.0
  0
POINT
  5
76A
330
762
100
AcDbEntity
  8
DEFPOINTS
 62
     0
100
AcDbPoint
 10
8.136876731331995
 20
18.6039301392336
 30
0.0
  0
POINT
  5
76B
330
762
100
AcDbEntity
  8
DEFPOINTS
 62
     0
100
AcDbPoint
 10
41.13687673133199
 20
18.60393013923354
 30
0.0
  0
POINT
  5
76C
330
762
100
AcDbEntity
  8
DEFPOINTS
 62
     0
100
AcDbPoint
 10
41.13687673133199
 20
1.25
 30
0.0
  0
ENDBLK
  5
76D
330
762
100
AcDbEntity
  8
0
100
AcDbBlockEnd
  0
BLOCK
  5
772
330
771
100
AcDbEntity
  8
0
100
AcDbBlockBegin
  2
*D51
 70
     1
 10
0.0
 20
0.0
 30
0.0
  3
*D51
  1
*D53
  0
LINE
  5
773
330
771
100
AcDbEntity
  8
文字
 62
     0
370
    -2
100
AcDbLine
 10
10.01187673133199
 20
21.1039301392336
 30
0.0
 11
2.388221691678041
 21
21.1039301392336
 31
0.0
  0
LINE
  5
774
330
771
100
AcDbEntity
  8
文字
 62
     0
370
    -2
100
AcDbLine
 10
10.01187673133199
 20
16.1039301392336
 30
0.0
 11
2.388221691678041
 21
16.1039301392336
 31
0.0
  0
LINE
  5
775
330
771
100
AcDbEntity
  8
文字
 62
     0
370
    -2
100
AcDbLine
 10
3.638221691678041
 20
21.1039301392336
 30
0.0
 11
3.638221691678041
 21
16.1039301392336
 31
0.0
  0
LINE
  5
776
330
771
100
AcDbEntity
  8
文字
 62
     0
370
    -2
100
AcDbLine
 10
3.638221691678042
 20
23.6039301392336
 30
0.0
 11
3.638221691678042
 21
26.1039301392336
 31
0.0
  0
LINE
  5
777
330
771
100
AcDbEntity
  8
文字
 62
     0
370
    -2
100
AcDbLine
 10
3.638221691678041
 20
13.6039301392336
 30
0.0
 11
3.638221691678041
 21
11.1039301392336
 31
0.0
  0
SOLID
  5
778
330
771
100
AcDbEntity
  8
文字
 62
     0
100
AcDbTrace
 10
3.221555025011375
 20
23.6039301392336
 30
0.0
 11
4.054888358344709
 21
23.6039301392336
 31
0.0
 12
3.638221691678041
 22
21.1039301392336
 32
0.0
 13
3.638221691678041
 23
21.1039301392336
 33
0.0
  0
SOLID
  5
779
330
771
100
AcDbEntity
  8
文字
 62
     0
100
AcDbTrace
 10
4.054888358344708
 20
13.6039301392336
 30
0.0
 11
3.221555025011374
 21
13.6039301392336
 31
0.0
 12
3.638221691678041
 22
16.1039301392336
 32
0.0
 13
3.638221691678041
 23
16.1039301392336
 33
0.0
  0
MTEXT
  5
77A
330
771
100
AcDbEntity
  8
文字
 62
     0
100
AcDbMText
 10
1.742757844474767
 20
18.6039301392336
 30
0.0
 40
2.5
 41
0.0
 46
0.0
 71
     5
 72
     1
  1
5
 11
8.881784197001253E-17
 21
1.0
 31
0.0
 73
     1
 44
1.0
  0
POINT
  5
77B
330
771
100
AcDbEntity
  8
DEFPOINTS
 62
     0
100
AcDbPoint
 10
10.63687673133199
 20
21.1039301392336
 30
0.0
  0
POINT
  5
77C
330
771
100
AcDbEntity
  8
DEFPOINTS
 62
     0
100
AcDbPoint
 10
10.63687673133199
 20
16.1039301392336
 30
0.0
  0
POINT
  5
77D
330
771
100
AcDbEntity
  8
DEFPOINTS
 62
     0
100
AcDbPoint
 10
3.638221691678041
 20
16.1039301392336
 30
0.0
  0
ENDBLK
  5
77E
330
771
100
AcDbEntity
  8
0
100
AcDbBlockEnd
  0
BLOCK
  5
794
330
793
100
AcDbEntity
  8
0
100
AcDbBlockBegin
  2
*D52
 70
     1
 10
0.0
 20
0.0
 30
0.0
  3
*D52
  1
*D54
  0
LINE
  5
796
330
793
100
AcDbEntity
  8
実線
 62
     0
370
    -2
100
AcDbLine
 10
76.78111306150745
 20
50.64005505130398
 30
0.0
 11
76.78111306150745
 21
41.20008272825242
 31
0.0
  0
LINE
  5
797
330
793
100
AcDbEntity
  8
実線
 62
     0
370
    -2
100
AcDbLine
 10
70.78111306150745
 20
50.64005505130398
 30
0.0
 11
70.78111306150745
 21
41.20008272825242
 31
0.0
  0
LINE
  5
798
330
793
100
AcDbEntity
  8
実線
 62
     0
370
    -2
100
AcDbLine
 10
76.78111306150745
 20
42.45008272825242
 30
0.0
 11
70.78111306150745
 21
42.45008272825242
 31
0.0
  0
LINE
  5
799
330
793
100
AcDbEntity
  8
実線
 62
     0
370
    -2
100
AcDbLine
 10
79.28111306150745
 20
42.45008272825242
 30
0.0
 11
81.78111306150745
 21
42.45008272825242
 31
0.0
  0
LINE
  5
79A
330
793
100
AcDbEntity
  8
実線
 62
     0
370
    -2
100
AcDbLine
 10
68.28111306150745
 20
42.45008272825242
 30
0.0
 11
65.78111306150745
 21
42.45008272825242
 31
0.0
  0
SOLID
  5
79B
330
793
100
AcDbEntity
  8
実線
 62
     0
100
AcDbTrace
 10
79.28111306150745
 20
42.86674939491908
 30
0.0
 11
79.28111306150745
 21
42.03341606158575
 31
0.0
 12
76.78111306150745
 22
42.45008272825242
 32
0.0
 13
76.78111306150745
 23
42.45008272825242
 33
0.0
  0
SOLID
  5
79C
330
793
100
AcDbEntity
  8
実線
 62
     0
100
AcDbTrace
 10
68.28111306150745
 20
42.03341606158575
 30
0.0
 11
68.28111306150745
 21
42.86674939491908
 31
0.0
 12
70.78111306150745
 22
42.45008272825242
 32
0.0
 13
70.78111306150745
 23
42.45008272825242
 33
0.0
  0
MTEXT
  5
79D
330
793
100
AcDbEntity
  8
実線
 62
     0
100
AcDbMText
 10
73.6803385856768
 20
44.35133272825242
 30
0.0
 40
2.5
 41
0.0
 46
0.0
 71
     5
 72
     1
  1
6
 73
     1
 44
1.0
  0
POINT
  5
79E
330
793
100
AcDbEntity
  8
DEFPOINTS
 62
     0
100
AcDbPoint
 10
76.78111306150745
 20
51.26505505130398
 30
0.0
  0
POINT
  5
79F
330
793
100
AcDbEntity
  8
DEFPOINTS
 62
     0
100
AcDbPoint
 10
70.78111306150745
 20
51.26505505130398
 30
0.0
  0
POINT
  5
7A0
330
793
100
AcDbEntity
  8
DEFPOINTS
 62
     0
100
AcDbPoint
 10
70.78111306150745
 20
42.45008272825242
 30
0.0
  0
ENDBLK
  5
795
330
793
100
AcDbEntity
  8
0
100
AcDbBlockEnd
  0
BLOCK
  5
7A2
330
7A1
100
AcDbEntity
  8
0
100
AcDbBlockBegin
  2
*D53
 70
     1
 10
0.0
 20
0.0
 30
0.0
  3
*D53
  1
*D55
  0
LINE
  5
7A4
330
7A1
100
AcDbEntity
  8
文字
 62
     0
370
    -2
100
AcDbLine
 10
77.74766883681681
 20
60.03096932000101
 30
0.0
 11
103.5997857273778
 21
60.03096932000101
 31
0.0
  0
LINE
  5
7A5
330
7A1
100
AcDbEntity
  8
文字
 62
     0
370
    -2
100
AcDbLine
 10
86.40611306150745
 20
51.26505505130398
 30
0.0
 11
103.5997857273778
 21
51.26505505130398
 31
0.0
  0
LINE
  5
7A6
330
7A1
100
AcDbEntity
  8
文字
 62
     0
370
    -2
100
AcDbLine
 10
102.3497857273778
 20
57.53096932000101
 30
0.0
 11
102.3497857273778
 21
53.76505505130398
 31
0.0
  0
SOLID
  5
7A7
330
7A1
100
AcDbEntity
  8
文字
 62
     0
100
AcDbTrace
 10
102.7664523940445
 20
57.53096932000101
 30
0.0
 11
101.9331190607111
 21
57.53096932000101
 31
0.0
 12
102.3497857273778
 22
60.03096932000101
 32
0.0
 13
102.3497857273778
 23
60.03096932000101
 33
0.0
  0
SOLID
  5
7A8
330
7A1
100
AcDbEntity
  8
文字
 62
     0
100
AcDbTrace
 10
101.9331190607111
 20
53.76505505130398
 30
0.0
 11
102.7664523940445
 21
53.76505505130398
 31
0.0
 12
102.3497857273778
 22
51.26505505130398
 32
0.0
 13
102.3497857273778
 23
51.26505505130398
 33
0.0
  0
MTEXT
  5
7A9
330
7A1
100
AcDbEntity
  8
文字
 62
     0
100
AcDbMText
 10
100.4492059183737
 20
56.50921829775495
 30
0.0
 40
2.5
 41
0.0
 46
0.0
 71
     5
 72
     1
  1
9
 11
0.0
 21
1.0
 31
0.0
 73
     1
 44
1.0
  0
POINT
  5
7AA
330
7A1
100
AcDbEntity
  8
DEFPOINTS
 62
     0
100
AcDbPoint
 10
77.12266883681681
 20
60.03096932000101
 30
0.0
  0
POINT
  5
7AB
330
7A1
100
AcDbEntity
  8
DEFPOINTS
 62
     0
100
AcDbPoint
 10
85.78111306150745
 20
51.26505505130398
 30
0.0
  0
POINT
  5
7AC
330
7A1
100
AcDbEntity
  8
DEFPOINTS
 62
     0
100
AcDbPoint
 10
102.3497857273778
 20
51.26505505130398
 30
0.0
  0
ENDBLK
  5
7A3
330
7A1
100
AcDbEntity
  8
0
100
AcDbBlockEnd
  0
BLOCK
  5
7AE
330
7AD
100
AcDbEntity
  8
0
100
AcDbBlockBegin
  2
*D54
 70
     1
 10
0.0
 20
0.0
 30
0.0
  3
*D54
  1
*D56
  0
LINE
  5
7B0
330
7AD
100
AcDbEntity
  8
実線
 62
     0
370
    -2
100
AcDbLine
 10
57.0942800715193
 20
53.20228882285655
 30
0.0
 11
57.0942800715193
 21
35.22335868362295
 31
0.0
  0
LINE
  5
7B1
330
7AD
100
AcDbEntity
  8
実線
 62
     0
370
    -2
100
AcDbLine
 10
90.09428007151931
 20
53.2022888228565
 30
0.0
 11
90.09428007151931
 21
35.22335868362295
 31
0.0
  0
LINE
  5
7B2
330
7AD
100
AcDbEntity
  8
実線
 62
     0
370
    -2
100
AcDbLine
 10
59.5942800715193
 20
36.47335868362295
 30
0.0
 11
87.59428007151931
 21
36.47335868362295
 31
0.0
  0
SOLID
  5
7B3
330
7AD
100
AcDbEntity
  8
実線
 62
     0
100
AcDbTrace
 10
59.5942800715193
 20
36.89002535028961
 30
0.0
 11
59.5942800715193
 21
36.05669201695628
 31
0.0
 12
57.0942800715193
 22
36.47335868362295
 32
0.0
 13
57.0942800715193
 23
36.47335868362295
 33
0.0
  0
SOLID
  5
7B4
330
7AD
100
AcDbEntity
  8
実線
 62
     0
100
AcDbTrace
 10
87.59428007151931
 20
36.05669201695628
 30
0.0
 11
87.59428007151931
 21
36.89002535028961
 31
0.0
 12
90.09428007151931
 22
36.47335868362295
 32
0.0
 13
90.09428007151931
 23
36.47335868362295
 33
0.0
  0
MTEXT
  5
7B5
330
7AD
100
AcDbEntity
  8
実線
 62
     0
100
AcDbMText
 10
73.59428007151931
 20
38.41960868362295
 30
0.0
 40
2.5
 41
0.0
 46
0.0
 71
     5
 72
     1
  1
%%c33
 73
     1
 44
1.0
  0
POINT
  5
7B6
330
7AD
100
AcDbEntity
  8
DEFPOINTS
 62
     0
100
AcDbPoint
 10
57.0942800715193
 20
53.82728882285655
 30
0.0
  0
POINT
  5
7B7
330
7AD
100
AcDbEntity
  8
DEFPOINTS
 62
     0
100
AcDbPoint
 10
90.09428007151931
 20
53.8272888228565
 30
0.0
  0
POINT
  5
7B8
330
7AD
100
AcDbEntity
  8
DEFPOINTS
 62
     0
100
AcDbPoint
 10
90.09428007151931
 20
36.47335868362295
 30
0.0
  0
ENDBLK
  5
7AF
330
7AD
100
AcDbEntity
  8
0
100
AcDbBlockEnd
  0
BLOCK
  5
7BA
330
7B9
100
AcDbEntity
  8
0
100
AcDbBlockBegin
  2
*D55
 70
     1
 10
0.0
 20
0.0
 30
0.0
  3
*D55
  1
*D57
  0
LINE
  5
7BC
330
7B9
100
AcDbEntity
  8
実線
 62
     0
370
    -2
100
AcDbLine
 10
58.9692800715193
 20
56.32728882285655
 30
0.0
 11
51.34562503186535
 21
56.32728882285655
 31
0.0
  0
LINE
  5
7BD
330
7B9
100
AcDbEntity
  8
実線
 62
     0
370
    -2
100
AcDbLine
 10
58.9692800715193
 20
51.32728882285655
 30
0.0
 11
51.34562503186535
 21
51.32728882285655
 31
0.0
  0
LINE
  5
7BE
330
7B9
100
AcDbEntity
  8
実線
 62
     0
370
    -2
100
AcDbLine
 10
52.59562503186535
 20
56.32728882285655
 30
0.0
 11
52.59562503186535
 21
51.32728882285655
 31
0.0
  0
LINE
  5
7BF
330
7B9
100
AcDbEntity
  8
実線
 62
     0
370
    -2
100
AcDbLine
 10
52.59562503186535
 20
58.82728882285655
 30
0.0
 11
52.59562503186535
 21
61.32728882285655
 31
0.0
  0
LINE
  5
7C0
330
7B9
100
AcDbEntity
  8
実線
 62
     0
370
    -2
100
AcDbLine
 10
52.59562503186535
 20
48.82728882285655
 30
0.0
 11
52.59562503186535
 21
46.32728882285655
 31
0.0
  0
SOLID
  5
7C1
330
7B9
100
AcDbEntity
  8
実線
 62
     0
100
AcDbTrace
 10
52.17895836519869
 20
58.82728882285655
 30
0.0
 11
53.01229169853202
 21
58.82728882285655
 31
0.0
 12
52.59562503186535
 22
56.32728882285655
 32
0.0
 13
52.59562503186535
 23
56.32728882285655
 33
0.0
  0
SOLID
  5
7C2
330
7B9
100
AcDbEntity
  8
実線
 62
     0
100
AcDbTrace
 10
53.01229169853202
 20
48.82728882285655
 30
0.0
 11
52.17895836519869
 21
48.82728882285655
 31
0.0
 12
52.59562503186535
 22
51.32728882285655
 32
0.0
 13
52.59562503186535
 23
51.32728882285655
 33
0.0
  0
MTEXT
  5
7C3
330
7B9
100
AcDbEntity
  8
実線
 62
     0
100
AcDbMText
 10
50.69937503186535
 20
53.82728882285655
 30
0.0
 40
2.5
 41
0.0
 46
0.0
 71
     5
 72
     1
  1
5
 11
0.0
 21
1.0
 31
0.0
 73
     1
 44
1.0
  0
POINT
  5
7C4
330
7B9
100
AcDbEntity
  8
DEFPOINTS
 62
     0
100
AcDbPoint
 10
59.5942800715193
 20
56.32728882285655
 30
0.0
  0
POINT
  5
7C5
330
7B9
100
AcDbEntity
  8
DEFPOINTS
 62
     0
100
AcDbPoint
 10
59.5942800715193
 20
51.32728882285655
 30
0.0
  0
POINT
  5
7C6
330
7B9
100
AcDbEntity
  8
DEFPOINTS
 62
     0
100
AcDbPoint
 10
52.59562503186535
 20
51.32728882285655
 30
0.0
  0
ENDBLK
  5
7BB
330
7B9
100
AcDbEntity
  8
0
100
AcDbBlockEnd
  0
BLOCK
  5
80D
330
80C
100
AcDbEntity
  8
0
100
AcDbBlockBegin
  2
*D56
 70
     1
 10
0.0
 20
0.0
 30
0.0
  3
*D56
  1
*D45
  0
LINE
  5
80E
330
80C
100
AcDbEntity
  8
文字
 62
     0
370
    -2
100
AcDbLine
 10
31.93191324683769
 20
36.14191976597814
 30
0.0
 11
31.93191324683769
 21
0.0
 31
0.0
  0
LINE
  5
80F
330
80C
100
AcDbEntity
  8
文字
 62
     0
370
    -2
100
AcDbLine
 10
9.931913246837695
 20
36.14191976597814
 30
0.0
 11
9.931913246837695
 21
0.0
 31
0.0
  0
LINE
  5
810
330
80C
100
AcDbEntity
  8
文字
 62
     0
370
    -2
100
AcDbLine
 10
29.43191324683769
 20
1.25
 30
0.0
 11
12.43191324683769
 21
1.25
 31
0.0
  0
SOLID
  5
811
330
80C
100
AcDbEntity
  8
文字
 62
     0
100
AcDbTrace
 10
29.43191324683769
 20
0.8333333333333333
 30
0.0
 11
29.43191324683769
 21
1.666666666666667
 31
0.0
 12
31.93191324683769
 22
1.25
 32
0.0
 13
31.93191324683769
 23
1.25
 33
0.0
  0
SOLID
  5
812
330
80C
100
AcDbEntity
  8
文字
 62
     0
100
AcDbTrace
 10
12.43191324683769
 20
1.666666666666667
 30
0.0
 11
12.43191324683769
 21
0.8333333333333333
 31
0.0
 12
9.931913246837695
 22
1.25
 32
0.0
 13
9.931913246837695
 23
1.25
 33
0.0
  0
MTEXT
  5
813
330
80C
100
AcDbEntity
  8
文字
 62
     0
100
AcDbMText
 10
20.93552739542389
 20
3.19625
 30
0.0
 40
2.5
 41
0.0
 46
0.0
 71
     5
 72
     1
  1
%%c22
 73
     1
 44
1.0
  0
POINT
  5
814
330
80C
100
AcDbEntity
  8
DEFPOINTS
 62
     0
100
AcDbPoint
 10
31.93191324683769
 20
36.76691976597814
 30
0.0
  0
POINT
  5
815
330
80C
100
AcDbEntity
  8
DEFPOINTS
 62
     0
100
AcDbPoint
 10
9.931913246837695
 20
36.76691976597814
 30
0.0
  0
POINT
  5
816
330
80C
100
AcDbEntity
  8
DEFPOINTS
 62
     0
100
AcDbPoint
 10
9.931913246837695
 20
1.25
 30
0.0
  0
ENDBLK
  5
817
330
80C
100
AcDbEntity
  8
0
100
AcDbBlockEnd
  0
BLOCK
  5
830
330
82F
100
AcDbEntity
  8
0
100
AcDbBlockBegin
  2
*D57
 70
     1
 10
0.0
 20
0.0
 30
0.0
  3
*D57
  1
*D58
  0
LINE
  5
832
330
82F
100
AcDbEntity
  8
文字
 62
     0
370
    -2
100
AcDbLine
 10
149.6028058146837
 20
72.30834680581984
 30
0.0
 11
149.6028058146837
 21
36.16642703984169
 31
0.0
  0
LINE
  5
833
330
82F
100
AcDbEntity
  8
文字
 62
     0
370
    -2
100
AcDbLine
 10
127.6028058146837
 20
72.30834680581984
 30
0.0
 11
127.6028058146837
 21
36.16642703984169
 31
0.0
  0
LINE
  5
834
330
82F
100
AcDbEntity
  8
文字
 62
     0
370
    -2
100
AcDbLine
 10
147.1028058146837
 20
37.41642703984169
 30
0.0
 11
130.1028058146837
 21
37.41642703984169
 31
0.0
  0
SOLID
  5
835
330
82F
100
AcDbEntity
  8
文字
 62
     0
100
AcDbTrace
 10
147.1028058146837
 20
36.99976037317503
 30
0.0
 11
147.1028058146837
 21
37.83309370650836
 31
0.0
 12
149.6028058146837
 22
37.41642703984169
 32
0.0
 13
149.6028058146837
 23
37.41642703984169
 33
0.0
  0
SOLID
  5
836
330
82F
100
AcDbEntity
  8
文字
 62
     0
100
AcDbTrace
 10
130.1028058146837
 20
37.83309370650836
 30
0.0
 11
130.1028058146837
 21
36.99976037317503
 31
0.0
 12
127.6028058146837
 22
37.41642703984169
 32
0.0
 13
127.6028058146837
 23
37.41642703984169
 33
0.0
  0
MTEXT
  5
837
330
82F
100
AcDbEntity
  8
文字
 62
     0
100
AcDbMText
 10
138.6064199632699
 20
39.36267703984169
 30
0.0
 40
2.5
 41
0.0
 46
0.0
 71
     5
 72
     1
  1
%%c22
 73
     1
 44
1.0
  0
POINT
  5
838
330
82F
100
AcDbEntity
  8
DEFPOINTS
 62
     0
100
AcDbPoint
 10
149.6028058146837
 20
72.93334680581984
 30
0.0
  0
POINT
  5
839
330
82F
100
AcDbEntity
  8
DEFPOINTS
 62
     0
100
AcDbPoint
 10
127.6028058146837
 20
72.93334680581984
 30
0.0
  0
POINT
  5
83A
330
82F
100
AcDbEntity
  8
DEFPOINTS
 62
     0
100
AcDbPoint
 10
127.6028058146837
 20
37.41642703984169
 30
0.0
  0
ENDBLK
  5
831
330
82F
100
AcDbEntity
  8
0
100
AcDbBlockEnd
  0
ENDSEC
  0
SECTION
  2
ENTITIES
  0
LINE
  5
35C
330
1F
100
AcDbEntity
  8
実線
 62
     0
100
AcDbLine
 10
70.61166441293952
 20
60.11073902772537
 30
0.0
 11
76.91862489860607
 21
60.11073902772537
 31
0.0
  0
LINE
  5
362
330
1F
100
AcDbEntity
  8
中心線
 62
     0
100
AcDbLine
 10
73.76687588562342
 20
47.715700545285
 30
0.0
 11
73.71977882233517
 21
168.3572804639641
 31
0.0
  0
DIMENSION
  5
368
330
1F
100
AcDbEntity
  8
実線
 62
     0
100
AcDbDimension
280
     0
  2
*D25
 10
107.3735851644808
 20
60.11073902772537
 30
0.0
 11
105.4723351644808
 21
55.69356059263676
 31
0.0
 70
    32
  1
9
 71
     5
 42
8.834356870177231
 73
     0
 74
     0
 75
     0
  3
ISO-25
100
AcDbAlignedDimension
 13
88.7668758856234
 23
51.27638215754814
 33
0.0
 14
79.40810677799989
 24
60.11073902772537
 34
0.0
 50
90.0
100
AcDbRotatedDimension
  0
LINE
  5
52C
330
1F
100
AcDbEntity
  8
実線
 62
     0
100
AcDbLine
 10
70.61339564279014
 20
60.11073902772537
 30
0.0
 11
76.92035612845669
 21
60.11073902772537
 31
0.0
  0
LINE
  5
5A1
330
1F
100
AcDbEntity
  8
実線
 62
     0
100
AcDbLine
 10
70.61339564279014
 20
60.11073902772537
 30
0.0
 11
76.92035612845669
 21
60.11073902772537
 31
0.0
  0
LINE
  5
615
330
1F
100
AcDbEntity
  8
実線
 62
     0
100
AcDbLine
 10
70.51767052254479
 20
60.11073902772537
 30
0.0
 11
76.82463100821134
 21
60.11073902772537
 31
0.0
  0
DIMENSION
  5
616
330
1F
100
AcDbEntity
  8
実線
 62
     0
100
AcDbDimension
280
     0
  2
*D44
 10
77.59880745223656
 20
171.2024688581942
 30
0.0
 11
73.59880745223656
 21
173.1037188581942
 31
0.0
 70
    32
  1
{\fArial|b0|i0|c0|p32;M}<>
 71
     5
 42
8.0
 73
     0
 74
     0
 75
     0
  3
ISO-25
100
AcDbAlignedDimension
 13
69.59880745223656
 23
158.98294935781
 33
0.0
 14
77.59880745223656
 24
158.98294935781
 34
0.0
100
AcDbRotatedDimension
  0
LINE
  5
617
330
1F
100
AcDbEntity
  8
実線
 62
     0
100
AcDbLine
 10
70.67288199522868
 20
158.0743101989744
 30
0.0
 11
70.67288199522866
 21
60.11073902772537
 31
0.0
  0
LINE
  5
618
330
1F
100
AcDbEntity
  8
実線
 62
     0
100
AcDbLine
 10
76.67288199522868
 20
158.0743101989746
 30
0.0
 11
76.67288199522866
 21
60.14408799255592
 31
0.0
  0
LWPOLYLINE
  5
619
330
1F
100
AcDbEntity
  8
実線
 62
     0
100
AcDbPolyline
 90
        6
 70
     1
 43
0.0
 10
69.67288199522868
 20
60.14408799255592
 10
77.67288199522868
 20
60.14408799255592
 10
77.67288199522869
 20
157.0743101989746
 10
76.67288199522869
 20
158.0743101989746
 10
70.67288199522866
 20
158.0743101989744
 10
69.67288199522866
 20
157.0743101989744
  0
LINE
  5
61A
330
1F
100
AcDbEntity
  8
実線
 62
     0
100
AcDbLine
 10
69.67288199522866
 20
157.0743101989744
 30
0.0
 11
77.67288199522869
 21
157.0743101989746
 31
0.0
  0
DIMENSION
  5
61B
330
1F
100
AcDbEntity
  8
実線
 62
     0
100
AcDbDimension
280
     0
  2
*D45
 10
107.2795912740861
 20
60.11073902772537
 30
0.0
 11
105.3783412740861
 21
109.1106583082293
 31
0.0
 70
    32
 71
     5
 42
97.99983856100792
 73
     0
 74
     0
 75
     0
  3
ISO-25
100
AcDbAlignedDimension
 13
77.89857649215729
 23
158.1105775887333
 33
0.0
 14
79.93911288760516
 24
60.11073902772537
 34
0.0
 50
90.0
100
AcDbRotatedDimension
  0
MTEXT
  5
6B1
330
1F
100
AcDbEntity
  8
文字・寸法線
 62
     0
100
AcDbMText
 10
87.61226452067939
 20
180.1148472070569
 30
0.0
 40
6.0
 41
0.0
 46
6.0
 71
     9
 72
     1
  1
{\fMS Gothic|b0|i0|c0|p0;S-SC3 M8X105}
 73
     1
 44
1.0
1001
ACAD
1000
ACAD_MTEXT_DEFINED_HEIGHT_BEGIN
1070
    46
1040
6.0
1000
ACAD_MTEXT_DEFINED_HEIGHT_END
  0
LINE
  5
789
330
1F
100
AcDbEntity
  8
実線
 62
     0
100
AcDbLine
 10
59.5942800715193
 20
56.32728882285655
 30
0.0
 11
87.59428007151931
 21
56.3272888228565
 31
0.0
  0
LINE
  5
78A
330
1F
100
AcDbEntity
  8
実線
 62
     0
100
AcDbLine
 10
59.5942800715193
 20
51.32728882285655
 30
0.0
 11
87.59428007151931
 21
51.32728882285652
 31
0.0
  0
ARC
  5
78B
330
1F
100
AcDbEntity
  8
実線
 62
     0
100
AcDbCircle
 10
87.59428007151931
 20
53.8272888228565
 30
0.0
 40
2.499999999999989
100
AcDbArc
 50
270.0
 51
90.0
  0
ARC
  5
78C
102
{ACAD_REACTORS
330
790
102
}
330
1F
100
AcDbEntity
  8
実線
 62
     0
100
AcDbCircle
 10
59.5942800715193
 20
53.82728882285655
 30
0.0
 40
2.5
100
AcDbArc
 50
90.0
 51
270.0
  0
DIMENSION
  5
78D
330
1F
100
AcDbEntity
  8
実線
 62
     0
100
AcDbDimension
280
     0
  2
*D54
 10
90.09428007151931
 20
36.47335868362295
 30
0.0
 11
73.59428007151931
 21
38.41960868362295
 31
0.0
 70
    32
  1
%%c<>
 71
     5
 42
33.00000000000001
 73
     0
 74
     0
 75
     0
  3
ISO-25
100
AcDbAlignedDimension
 13
57.0942800715193
 23
53.82728882285655
 33
0.0
 14
90.09428007151931
 24
53.8272888228565
 34
0.0
100
AcDbRotatedDimension
  0
DIMENSION
  5
78E
102
{ACAD_REACTORS
330
790
102
}
102
{ACAD_XDICTIONARY
360
78F
102
}
330
1F
100
AcDbEntity
  8
実線
 62
     0
100
AcDbDimension
280
     0
  2
*D55
 10
52.59562503186535
 20
51.32728882285655
 30
0.0
 11
50.69937503186535
 21
53.82728882285655
 31
0.0
 70
    32
 71
     5
 42
5.0
 73
     0
 74
     0
 75
     0
  3
ISO-25
100
AcDbAlignedDimension
 13
59.5942800715193
 23
56.32728882285655
 33
0.0
 14
59.5942800715193
 24
51.32728882285655
 34
0.0
 50
90.0
100
AcDbRotatedDimension
  0
ARC
  5
791
330
1F
100
AcDbEntity
  8
実線
 62
     0
100
AcDbCircle
 10
73.082428977293
 20
47.78459670433349
 30
0.0
 40
12.5
100
AcDbArc
 50
99.95896571345172
 51
137.6839500359245
  0
ARC
  5
792
330
1F
100
AcDbEntity
  8
実線
 62
     0
100
AcDbCircle
 10
74.47979714572193
 20
47.78459670433349
 30
0.0
 40
12.5
100
AcDbArc
 50
42.08396039430914
 51
80.08336653003884
  0
LINE
  5
81D
330
1F
100
AcDbEntity
  8
中心線
 48
0.3
100
AcDbLine
 10
117.670892567846
 20
72.93334680581984
 30
0.0
 11
158.0205900951987
 21
72.93334680581984
 31
0.0
  0
CIRCLE
  5
81E
330
1F
100
AcDbEntity
  8
実線
 62
     0
100
AcDbCircle
 10
138.6028058146837
 20
72.93334680581984
 30
0.0
 40
11.0
  0
LINE
  5
81F
330
1F
100
AcDbEntity
  8
中心線
 62
     0
 48
0.3
100
AcDbLine
 10
138.6028058146837
 20
96.36670392487103
 30
0.0
 11
138.6028058146837
 21
53.98308712088875
 31
0.0
  0
CIRCLE
  5
820
330
1F
100
AcDbEntity
  8
実線
 62
     0
100
AcDbCircle
 10
138.6028058146837
 20
72.93334680581984
 30
0.0
 40
3.4
  0
CIRCLE
  5
821
330
1F
100
AcDbEntity
  8
実線
 62
     0
100
AcDbCircle
 10
138.6028058146837
 20
72.93334680581984
 30
0.0
 40
4.0
  0
LINE
  5
822
330
1F
100
AcDbEntity
  8
実線
 62
     0
100
AcDbLine
 10
138.6028058146837
 20
72.93334680581984
 30
0.0
 11
138.6028058146837
 21
73.93334680581984
 31
0.0
  0
LINE
  5
823
330
1F
100
AcDbEntity
  8
実線
 62
     0
100
AcDbLine
 10
138.6028058146837
 20
73.93334680581984
 30
0.0
 11
138.6028058146837
 21
71.93334680581984
 31
0.0
  0
LINE
  5
824
102
{ACAD_REACTORS
330
829
102
}
330
1F
100
AcDbEntity
  8
実線
 62
     0
100
AcDbLine
 10
138.6028058146837
 20
72.93334680581984
 30
0.0
 11
137.6028058146837
 21
72.93334680581984
 31
0.0
  0
LINE
  5
825
330
1F
100
AcDbEntity
  8
実線
 62
     0
100
AcDbLine
 10
138.6028058146837
 20
72.93334680581984
 30
0.0
 11
139.6028058146837
 21
72.93334680581984
 31
0.0
  0
MTEXT
  5
826
102
{ACAD_REACTORS
330
827
102
}
330
1F
100
AcDbEntity
  8
文字
 62
     0
100
AcDbMText
 10
159.7281440372748
 20
94.77368751703193
 30
0.0
 40
4.0
 41
0.0
 46
4.0
 71
     7
 72
     1
  1
{\fMS Gothic|b0|i0|c0|p0;頭部＋付}
 73
     1
 44
1.0
1001
ACAD
1000
ACAD_MTEXT_DEFINED_HEIGHT_BEGIN
1070
    46
1040
4.0
1000
ACAD_MTEXT_DEFINED_HEIGHT_END
  0
LEADER
  5
827
102
{ACAD_REACTORS
330
829
102
}
102
{ACAD_XDICTIONARY
360
828
102
}
330
1F
100
AcDbEntity
  8
文字
 62
     0
100
AcDbLeader
  3
ISO-25
 73
     0
 74
     0
 40
4.668
 41
20.228
 76
     3
 10
138.6028058146837
 20
72.93334680581984
 30
0.0
 10
157.2928106583332
 20
94.14868751703193
 30
0.0
 10
159.1031440372748
 20
94.14868751703193
 30
0.0
340
826
1001
ACAD
1000
DSTYLE
1002
{
1070
   147
1040
0.625
1070
    77
1070
     1
1002
}
  0
CIRCLE
  5
82A
330
1F
100
AcDbEntity
  8
実線
 62
     0
100
AcDbCircle
 10
138.6452695663444
 20
72.94900871087805
 30
0.0
 40
16.5
  0
DIMENSION
  5
82B
102
{ACAD_XDICTIONARY
360
82C
102
}
330
1F
100
AcDbEntity
  8
文字
100
AcDbDimension
280
     0
  2
*D57
 10
127.6028058146837
 20
37.41642703984169
 30
0.0
 11
138.6064199632699
 21
37.41642703984169
 31
0.0
 70
   160
  1
%%c<>
 71
     5
 42
22.0
 73
     0
 74
     0
 75
     0
  3
ISO-25
100
AcDbAlignedDimension
 13
149.6028058146837
 23
72.93334680581984
 33
0.0
 14
127.6028058146837
 24
72.93334680581984
 34
0.0
 50
-0.000000000000014
100
AcDbRotatedDimension
  0
LINE
  5
82D
330
1F
100
AcDbEntity
  8
実線
 62
     0
370
   140
100
AcDbLine
 10
138.6028058146837
 20
74.18932718497095
 30
0.0
 11
138.6028058146837
 21
71.67736642666873
 31
0.0
  0
LINE
  5
82E
330
1F
100
AcDbEntity
  8
実線
 62
     0
370
   140
100
AcDbLine
 10
137.3468254355326
 20
72.93334680581984
 30
0.0
 11
139.8587861938348
 21
72.93334680581984
 31
0.0
  0
LINE
  5
83B
330
1F
100
AcDbEntity
  8
0
100
AcDbLine
 10
72.00900270731421
 20
158.1031950051584
 30
0.0
 11
73.68885001675598
 21
156.035690624307
 31
0.0
  0
LINE
  5
83C
330
1F
100
AcDbEntity
  8
0
100
AcDbLine
 10
73.68885001675598
 20
156.035690624307
 30
0.0
 11
75.02411326272252
 21
158.0743101989745
 31
0.0
  0
ENDSEC
  0
SECTION
  2
OBJECTS
  0
DICTIONARY
  5
C
330
0
100
AcDbDictionary
281
     1
  3
ACAD_COLOR
350
690
  3
ACAD_DETAILVIEWSTYLE
350
122
  3
ACAD_GROUP
350
D
  3
ACAD_IMAGE_VARS
350
DC
  3
ACAD_LAYOUT
350
65D
  3
ACAD_MATERIAL
350
679
  3
ACAD_MLEADERSTYLE
350
685
  3
ACAD_MLINESTYLE
350
17
  3
ACAD_PLOTSETTINGS
350
688
  3
ACAD_PLOTSTYLENAME
350
689
  3
ACAD_SCALELIST
350
63B
  3
ACAD_SECTIONVIEWSTYLE
350
123
  3
ACAD_TABLESTYLE
350
67D
  3
ACAD_VISUALSTYLE
350
660
  3
ACDB_RECOMPOSE_DATA
350
842
  3
ACDBVARIABLEDICTIONARY
350
66
  3
APPDATA
350
E1
  0
SUN
  5
67F
330
94
100
AcDbSun
 90
        1
290
     0
 63
     7
421
 16777215
 40
1.0
291
     1
 91
  2455826
 92
 54000000
292
     0
 70
     2
 71
   256
280
     1
  0
DICTIONARY
  5
78F
330
78E
100
AcDbDictionary
280
     1
281
     1
  3
ACAD_DIMASSOC
360
790
  0
DICTIONARY
  5
828
330
827
100
AcDbDictionary
280
     1
281
     1
  3
ACAD_DIMASSOC
360
829
  0
DICTIONARY
  5
82C
330
82B
100
AcDbDictionary
280
     1
281
     1
  0
DICTIONARY
  5
690
102
{ACAD_REACTORS
330
C
102
}
330
C
100
AcDbDictionary
281
     1
  0
DICTIONARY
  5
122
102
{ACAD_REACTORS
330
C
102
}
330
C
100
AcDbDictionary
281
     1
  0
DICTIONARY
  5
D
102
{ACAD_REACTORS
330
C
102
}
330
C
100
AcDbDictionary
281
     1
  0
RASTERVARIABLES
  5
DC
102
{ACAD_REACTORS
330
C
102
}
330
C
100
AcDbRasterVariables
 90
        0
 70
     1
 71
     1
 72
     5
  0
DICTIONARY
  5
65D
102
{ACAD_REACTORS
330
C
102
}
330
C
100
AcDbDictionary
281
     1
  3
Model
350
65E
  3
シート 1
350
65F
  0
DICTIONARY
  5
679
102
{ACAD_REACTORS
330
C
102
}
330
C
100
AcDbDictionary
281
     1
  3
ByBlock
350
67B
  3
ByLayer
350
67A
  3
Global
350
67C
  0
DICTIONARY
  5
685
102
{ACAD_REACTORS
330
C
102
}
330
C
100
AcDbDictionary
281
     1
  0
DICTIONARY
  5
17
102
{ACAD_REACTORS
330
C
102
}
330
C
100
AcDbDictionary
281
     1
  3
STANDARD
350
18
  0
DICTIONARY
  5
688
102
{ACAD_REACTORS
330
C
102
}
330
C
100
AcDbDictionary
281
     1
  0
ACDBDICTIONARYWDFLT
  5
689
102
{ACAD_REACTORS
330
C
102
}
330
C
100
AcDbDictionary
281
     1
  3
Normal
350
68A
100
AcDbDictionaryWithDefault
340
68A
  0
DICTIONARY
  5
63B
102
{ACAD_REACTORS
330
C
102
}
330
C
100
AcDbDictionary
281
     1
  3
A0
350
63C
  3
A1
350
63D
  3
A2
350
63E
  3
A3
350
63F
  3
A4
350
640
  3
A5
350
641
  3
A6
350
642
  3
A7
350
643
  3
A8
350
644
  3
A9
350
645
  3
B0
350
646
  3
B1
350
647
  3
B2
350
648
  3
B3
350
649
  3
B4
350
64A
  3
B5
350
64B
  3
B6
350
64C
  3
B7
350
64D
  3
B8
350
64E
  3
B9
350
64F
  3
C0
350
650
  3
C1
350
651
  3
C2
350
652
  3
C3
350
653
  3
C4
350
654
  3
C5
350
655
  3
C6
350
656
  3
C7
350
657
  3
C8
350
658
  3
C9
350
659
  3
D0
350
65A
  3
D1
350
65B
  3
D2
350
65C
  0
DICTIONARY
  5
123
102
{ACAD_REACTORS
330
C
102
}
330
C
100
AcDbDictionary
281
     1
  0
DICTIONARY
  5
67D
102
{ACAD_REACTORS
330
C
102
}
330
C
100
AcDbDictionary
281
     1
  3
Standard
350
67E
  0
DICTIONARY
  5
660
102
{ACAD_REACTORS
330
C
102
}
330
C
100
AcDbDictionary
281
     1
  3
2dWireframe
350
665
  3
Basic
350
668
  3
Brighten
350
66C
  3
ColorChange
350
670
  3
Conceptual
350
66A
  3
Dim
350
66B
  3
EdgeColorOff
350
673
  3
Facepattern
350
66F
  3
Flat
350
661
  3
FlatWithEdges
350
662
  3
Gouraud
350
663
  3
GouraudWithEdges
350
664
  3
Hidden
350
667
  3
JitterOff
350
671
  3
Linepattern
350
66E
  3
OverhangOff
350
672
  3
Realistic
350
669
  3
Shaded
350
678
  3
Shaded with edges
350
677
  3
Shades of Gray
350
674
  3
Sketchy
350
675
  3
Thicken
350
66D
  3
Wireframe
350
666
  3
X-Ray
350
676
  0
XRECORD
  5
842
102
{ACAD_REACTORS
330
C
102
}
330
C
100
AcDbXrecord
280
     1
 90
        1
330
67E
  0
DICTIONARY
  5
66
102
{ACAD_REACTORS
330
C
102
}
330
C
100
AcDbDictionary
281
     1
  3
CANNOSCALE
350
680
  3
CTABLESTYLE
350
684
  3
DIMASSOC
350
67
  3
HIDETEXT
350
6B
  3
MSLTSCALE
350
686
  0
DICTIONARY
  5
E1
102
{ACAD_REACTORS
330
C
102
}
330
C
100
AcDbDictionary
281
     1
  0
DIMASSOC
  5
790
102
{ACAD_REACTORS
330
78F
102
}
330
78F
100
AcDbDimAssoc
330
78E
 90
        3
 70
     0
 71
     0
  1
AcDbOsnapPointRef
 72
    13
331
78C
 73
     2
 91
        0
 40
1.570796326794897
 10
0.0
 20
0.0
 30
2.000000000000000E+50
 75
     0
  1
AcDbOsnapPointRef
 72
     1
331
78C
 73
     2
 91
        0
 40
4.71238898038469
 10
0.0
 20
0.0
 30
2.000000000000000E+50
 75
     0
  0
DIMASSOC
  5
829
102
{ACAD_REACTORS
330
828
102
}
330
828
100
AcDbDimAssoc
330
827
 90
        1
 70
     0
 71
     0
  1
AcDbOsnapPointRef
 72
    13
331
824
 73
     2
 91
        0
 40
0.0
 10
0.0
 20
0.0
 30
2.000000000000000E+50
 75
     0
  0
LAYOUT
  5
65E
102
{ACAD_REACTORS
330
65D
102
}
330
65D
100
AcDbPlotSettings
  1

  2
none_device
  4

  6

 40
0.0
 41
0.0
 42
0.0
 43
0.0
 44
0.0
 45
0.0
 46
0.0
 47
0.0
 48
0.0
 49
0.0
140
0.0
141
0.0
142
1.0
143
1.0
 70
  1712
 72
     0
 73
     0
 74
     0
  7

 75
     0
 76
     0
 77
     2
 78
   300
147
1.0
148
95.88208651019423
149
-762.7805431351784
100
AcDbLayout
  1
Model
 70
     1
 71
     0
 10
0.0
 20
0.0
 11
12.0
 21
9.0
 12
0.0
 22
0.0
 32
0.0
 14
41.58026452067939
 24
35.22335868362295
 34
0.0
 15
179.9561440372748
 25
186.1148472070569
 35
0.0
146
0.0
 13
0.0
 23
0.0
 33
0.0
 16
1.0
 26
0.0
 36
0.0
 17
0.0
 27
1.0
 37
0.0
 76
     0
330
1F
331
94
  0
LAYOUT
  5
65F
102
{ACAD_REACTORS
330
65D
102
}
330
65D
100
AcDbPlotSettings
  1

  2
none_device
  4

  6

 40
0.0
 41
0.0
 42
0.0
 43
0.0
 44
0.0
 45
0.0
 46
0.0
 47
0.0
 48
0.0
 49
0.0
140
0.0
141
0.0
142
1.0
143
1.0
 70
   688
 72
     0
 73
     0
 74
     5
  7

 75
    16
 76
     0
 77
     2
 78
   300
147
1.0
148
0.0
149
0.0
100
AcDbLayout
  1
シート 1
 70
     1
 71
     1
 10
0.0
 20
0.0
 11
0.0
 21
0.0
 12
0.0
 22
0.0
 32
0.0
 14
0.0
 24
0.0
 34
0.0
 15
0.0
 25
0.0
 35
0.0
146
0.0
 13
0.0
 23
0.0
 33
0.0
 16
1.0
 26
0.0
 36
0.0
 17
0.0
 27
1.0
 37
0.0
 76
     0
330
58
  0
MATERIAL
  5
67B
102
{ACAD_REACTORS
330
679
102
}
330
679
100
AcDbMaterial
  1
ByBlock
 72
     1
 94
      127
  0
MATERIAL
  5
67A
102
{ACAD_REACTORS
330
679
102
}
330
679
100
AcDbMaterial
  1
ByLayer
 72
     1
 94
      127
  0
MATERIAL
  5
67C
102
{ACAD_REACTORS
330
679
102
}
330
679
100
AcDbMaterial
  1
Global
 72
     1
 94
      127
  0
MLINESTYLE
  5
18
102
{ACAD_REACTORS
330
17
102
}
330
17
100
AcDbMlineStyle
  2
STANDARD
 70
     0
  3

 62
   256
 51
90.0
 52
90.0
 71
     2
 49
0.5
 62
   256
  6
BYLAYER
 49
-0.5
 62
   256
  6
BYLAYER
  0
ACDBPLACEHOLDER
  5
68A
102
{ACAD_REACTORS
330
689
102
}
330
689
  0
SCALE
  5
63C
102
{ACAD_REACTORS
330
63B
102
}
330
63B
100
AcDbScale
 70
     0
300
1:1
140
1.0
141
1.0
290
     1
  0
SCALE
  5
63D
102
{ACAD_REACTORS
330
63B
102
}
330
63B
100
AcDbScale
 70
     0
300
1:2
140
1.0
141
2.0
290
     0
  0
SCALE
  5
63E
102
{ACAD_REACTORS
330
63B
102
}
330
63B
100
AcDbScale
 70
     0
300
1:4
140
1.0
141
4.0
290
     0
  0
SCALE
  5
63F
102
{ACAD_REACTORS
330
63B
102
}
330
63B
100
AcDbScale
 70
     0
300
1:5
140
1.0
141
5.0
290
     0
  0
SCALE
  5
640
102
{ACAD_REACTORS
330
63B
102
}
330
63B
100
AcDbScale
 70
     0
300
1:8
140
1.0
141
8.0
290
     0
  0
SCALE
  5
641
102
{ACAD_REACTORS
330
63B
102
}
330
63B
100
AcDbScale
 70
     0
300
1:10
140
1.0
141
10.0
290
     0
  0
SCALE
  5
642
102
{ACAD_REACTORS
330
63B
102
}
330
63B
100
AcDbScale
 70
     0
300
1:16
140
1.0
141
16.0
290
     0
  0
SCALE
  5
643
102
{ACAD_REACTORS
330
63B
102
}
330
63B
100
AcDbScale
 70
     0
300
1:20
140
1.0
141
20.0
290
     0
  0
SCALE
  5
644
102
{ACAD_REACTORS
330
63B
102
}
330
63B
100
AcDbScale
 70
     0
300
1:30
140
1.0
141
30.0
290
     0
  0
SCALE
  5
645
102
{ACAD_REACTORS
330
63B
102
}
330
63B
100
AcDbScale
 70
     0
300
1:40
140
1.0
141
40.0
290
     0
  0
SCALE
  5
646
102
{ACAD_REACTORS
330
63B
102
}
330
63B
100
AcDbScale
 70
     0
300
1:50
140
1.0
141
50.0
290
     0
  0
SCALE
  5
647
102
{ACAD_REACTORS
330
63B
102
}
330
63B
100
AcDbScale
 70
     0
300
1:100
140
1.0
141
100.0
290
     0
  0
SCALE
  5
648
102
{ACAD_REACTORS
330
63B
102
}
330
63B
100
AcDbScale
 70
     0
300
2:1
140
2.0
141
1.0
290
     0
  0
SCALE
  5
649
102
{ACAD_REACTORS
330
63B
102
}
330
63B
100
AcDbScale
 70
     0
300
4:1
140
4.0
141
1.0
290
     0
  0
SCALE
  5
64A
102
{ACAD_REACTORS
330
63B
102
}
330
63B
100
AcDbScale
 70
     0
300
8:1
140
8.0
141
1.0
290
     0
  0
SCALE
  5
64B
102
{ACAD_REACTORS
330
63B
102
}
330
63B
100
AcDbScale
 70
     0
300
10:1
140
10.0
141
1.0
290
     0
  0
SCALE
  5
64C
102
{ACAD_REACTORS
330
63B
102
}
330
63B
100
AcDbScale
 70
     0
300
100:1
140
100.0
141
1.0
290
     0
  0
SCALE
  5
64D
102
{ACAD_REACTORS
330
63B
102
}
330
63B
100
AcDbScale
 70
     0
300
1/128" = 1'-0"
140
0.0078125
141
12.0
290
     0
  0
SCALE
  5
64E
102
{ACAD_REACTORS
330
63B
102
}
330
63B
100
AcDbScale
 70
     0
300
1/64" = 1'-0"
140
0.015625
141
12.0
290
     0
  0
SCALE
  5
64F
102
{ACAD_REACTORS
330
63B
102
}
330
63B
100
AcDbScale
 70
     0
300
1/32" = 1'-0"
140
0.03125
141
12.0
290
     0
  0
SCALE
  5
650
102
{ACAD_REACTORS
330
63B
102
}
330
63B
100
AcDbScale
 70
     0
300
1/16" = 1'-0"
140
0.0625
141
12.0
290
     0
  0
SCALE
  5
651
102
{ACAD_REACTORS
330
63B
102
}
330
63B
100
AcDbScale
 70
     0
300
3/32" = 1'-0"
140
0.09375
141
12.0
290
     0
  0
SCALE
  5
652
102
{ACAD_REACTORS
330
63B
102
}
330
63B
100
AcDbScale
 70
     0
300
1/8" = 1'-0"
140
0.125
141
12.0
290
     0
  0
SCALE
  5
653
102
{ACAD_REACTORS
330
63B
102
}
330
63B
100
AcDbScale
 70
     0
300
3/16" = 1'-0"
140
0.1875
141
12.0
290
     0
  0
SCALE
  5
654
102
{ACAD_REACTORS
330
63B
102
}
330
63B
100
AcDbScale
 70
     0
300
1/4" = 1'-0"
140
0.25
141
12.0
290
     0
  0
SCALE
  5
655
102
{ACAD_REACTORS
330
63B
102
}
330
63B
100
AcDbScale
 70
     0
300
3/8" = 1'-0"
140
0.375
141
12.0
290
     0
  0
SCALE
  5
656
102
{ACAD_REACTORS
330
63B
102
}
330
63B
100
AcDbScale
 70
     0
300
1/2" = 1'-0"
140
0.5
141
12.0
290
     0
  0
SCALE
  5
657
102
{ACAD_REACTORS
330
63B
102
}
330
63B
100
AcDbScale
 70
     0
300
3/4" = 1'-0"
140
0.75
141
12.0
290
     0
  0
SCALE
  5
658
102
{ACAD_REACTORS
330
63B
102
}
330
63B
100
AcDbScale
 70
     0
300
1" = 1'-0"
140
1.0
141
12.0
290
     0
  0
SCALE
  5
659
102
{ACAD_REACTORS
330
63B
102
}
330
63B
100
AcDbScale
 70
     0
300
1-1/2" = 1'-0"
140
1.5
141
12.0
290
     0
  0
SCALE
  5
65A
102
{ACAD_REACTORS
330
63B
102
}
330
63B
100
AcDbScale
 70
     0
300
3" = 1'-0"
140
3.0
141
12.0
290
     0
  0
SCALE
  5
65B
102
{ACAD_REACTORS
330
63B
102
}
330
63B
100
AcDbScale
 70
     0
300
6" = 1'-0"
140
6.0
141
12.0
290
     0
  0
SCALE
  5
65C
102
{ACAD_REACTORS
330
63B
102
}
330
63B
100
AcDbScale
 70
     0
300
1'-0" = 1'-0"
140
12.0
141
12.0
290
     0
  0
TABLESTYLE
  5
67E
102
{ACAD_REACTORS
330
67D
102
}
102
{ACAD_XDICTIONARY
360
840
102
}
330
67D
100
AcDbTableStyle
  3
Standard
 70
     0
 71
     0
 40
0.06
 41
0.06
280
     0
281
     0
  7
STANDARD
140
0.18
170
     2
 62
     0
 63
   257
283
     0
 90
        4
 91
        0
  1

274
    -2
284
     1
 64
     0
275
    -2
285
     1
 65
     0
276
    -2
286
     1
 66
     0
277
    -2
287
     1
 67
     0
278
    -2
288
     1
 68
     0
279
    -2
289
     1
 69
     0
  7
STANDARD
140
0.25
170
     5
 62
     0
 63
   257
283
     0
 90
        4
 91
        0
  1

274
    -2
284
     1
 64
     0
275
    -2
285
     1
 65
     0
276
    -2
286
     1
 66
     0
277
    -2
287
     1
 67
     0
278
    -2
288
     1
 68
     0
279
    -2
289
     1
 69
     0
  7
STANDARD
140
0.18
170
     5
 62
     0
 63
   257
283
     0
 90
        4
 91
        0
  1

274
    -2
284
     1
 64
     0
275
    -2
285
     1
 65
     0
276
    -2
286
     1
 66
     0
277
    -2
287
     1
 67
     0
278
    -2
288
     1
 68
     0
279
    -2
289
     1
 69
     0
  0
VISUALSTYLE
  5
665
102
{ACAD_REACTORS
330
660
102
}
330
660
100
AcDbVisualStyle
  2
2dWireframe
 70
     4
177
     3
291
     0
 70
    58
 90
        0
176
     1
 90
        2
176
     1
 90
        0
176
     1
 90
        0
176
     1
 40
0.6
176
     1
 40
30.0
176
     1
 62
     7
420
 16777215
176
     1
 90
        1
176
     1
 90
        4
176
     1
 62
     7
176
     1
 62
   257
176
     1
 90
        1
176
     1
 90
        1
176
     1
 40
1.0
176
     1
 90
        0
176
     1
 62
   257
176
     1
 40
1.0
176
     1
 90
        1
176
     1
 90
        6
176
     1
 90
        2
176
     1
 62
     7
176
     1
 90
        5
176
     1
 90
        0
176
     1
 90
        0
176
     1
290
     0
176
     1
 90
        1
176
     1
 40
0.0
176
     1
 90
        0
176
     1
290
     1
176
     1
290
     1
176
     1
290
     0
176
     1
290
     0
176
     1
290
     0
176
     1
290
     0
176
     1
290
     0
176
     1
290
     0
176
     1
290
     0
176
     1
 90
       50
176
     1
 40
0.0
176
     1
 40
1.0
176
     1
 90
        0
176
     1
 62
    18
420
        0
176
     1
 90
       50
176
     1
 90
        3
176
     1
 62
     5
420
      255
176
     1
290
     0
176
     1
 90
       50
176
     1
 90
       50
176
     1
 90
       50
176
     1
290
     0
176
     1
 90
       50
176
     1
 62
   256
176
     0
 40
1.0
176
     0
 90
        2
176
     1
  1
strokes_ogs.tif
176
     1
290
     0
176
     1
 40
1.0
176
     1
 40
1.0
176
     1
  0
VISUALSTYLE
  5
668
102
{ACAD_REACTORS
330
660
102
}
330
660
100
AcDbVisualStyle
  2
Basic
 70
     7
177
     3
291
     1
 70
    58
 90
        1
176
     1
 90
        0
176
     1
 90
        1
176
     1
 90
        0
176
     1
 40
0.6
176
     1
 40
30.0
176
     1
 62
     7
420
 16777215
176
     1
 90
        0
176
     1
 90
        4
176
     1
 62
     7
176
     1
 62
   257
176
     1
 90
        1
176
     1
 90
        1
176
     1
 40
1.0
176
     1
 90
        8
176
     1
 62
     7
176
     1
 40
1.0
176
     1
 90
        1
176
     1
 90
        6
176
     1
 90
        2
176
     1
 62
     7
176
     1
 90
        5
176
     1
 90
        0
176
     1
 90
        0
176
     1
290
     0
176
     1
 90
        1
176
     1
 40
0.0
176
     1
 90
        0
176
     1
290
     0
176
     1
290
     1
176
     1
290
     1
176
     1
290
     0
176
     1
290
     0
176
     1
290
     0
176
     1
290
     0
176
     1
290
     0
176
     1
290
     0
176
     1
 90
       50
176
     1
 40
0.0
176
     1
 40
1.0
176
     1
 90
        0
176
     1
 62
    18
420
        0
176
     1
 90
       50
176
     1
 90
        3
176
     1
 62
     5
420
      255
176
     1
290
     0
176
     1
 90
       50
176
     1
 90
       50
176
     1
 90
       50
176
     1
290
     0
176
     1
 90
       50
176
     1
 62
   256
176
     0
 40
1.0
176
     0
 90
        2
176
     1
  1
strokes_ogs.tif
176
     1
290
     0
176
     1
 40
1.0
176
     1
 40
1.0
176
     1
  0
VISUALSTYLE
  5
66C
102
{ACAD_REACTORS
330
660
102
}
330
660
100
AcDbVisualStyle
  2
Brighten
 70
    12
177
     3
291
     1
 70
    58
 90
        2
176
     1
 90
        2
176
     1
 90
        0
176
     1
 90
        0
176
     1
 40
0.6
176
     1
 40
30.0
176
     1
 62
     7
420
 16777215
176
     1
 90
        1
176
     1
 90
        4
176
     1
 62
     7
176
     1
 62
   257
176
     1
 90
        1
176
     1
 90
        1
176
     1
 40
1.0
176
     1
 90
        8
176
     1
 62
     7
176
     1
 40
1.0
176
     1
 90
        1
176
     1
 90
        6
176
     1
 90
        2
176
     1
 62
     7
176
     1
 90
        5
176
     1
 90
        0
176
     1
 90
        0
176
     1
290
     0
176
     1
 90
        1
176
     1
 40
50.0
176
     1
 90
        0
176
     1
290
     0
176
     1
290
     1
176
     1
290
     1
176
     1
290
     0
176
     1
290
     0
176
     1
290
     0
176
     1
290
     0
176
     1
290
     0
176
     1
290
     0
176
     1
 90
       50
176
     1
 40
0.0
176
     1
 40
1.0
176
     1
 90
        0
176
     1
 62
    18
420
        0
176
     1
 90
       50
176
     1
 90
        3
176
     1
 62
     5
420
      255
176
     1
290
     0
176
     1
 90
       50
176
     1
 90
       50
176
     1
 90
       50
176
     1
290
     0
176
     1
 90
       50
176
     1
 62
   256
176
     0
 40
1.0
176
     0
 90
        2
176
     1
  1
strokes_ogs.tif
176
     1
290
     0
176
     1
 40
1.0
176
     1
 40
1.0
176
     1
  0
VISUALSTYLE
  5
670
102
{ACAD_REACTORS
330
660
102
}
330
660
100
AcDbVisualStyle
  2
ColorChange
 70
    16
177
     3
291
     1
 70
    58
 90
        2
176
     1
 90
        2
176
     1
 90
        3
176
     1
 90
        0
176
     1
 40
0.6
176
     1
 40
30.0
176
     1
 62
     8
420
  8421504
176
     1
 90
        1
176
     1
 90
        4
176
     1
 62
     7
176
     1
 62
   257
176
     1
 90
        1
176
     1
 90
        1
176
     1
 40
1.0
176
     1
 90
        8
176
     1
 62
     8
420
  8421504
176
     1
 40
1.0
176
     1
 90
        1
176
     1
 90
        6
176
     1
 90
        2
176
     1
 62
     7
176
     1
 90
        5
176
     1
 90
        0
176
     1
 90
        0
176
     1
290
     0
176
     1
 90
        1
176
     1
 40
0.0
176
     1
 90
        0
176
     1
290
     0
176
     1
290
     1
176
     1
290
     1
176
     1
290
     0
176
     1
290
     0
176
     1
290
     0
176
     1
290
     0
176
     1
290
     0
176
     1
290
     0
176
     1
 90
       50
176
     1
 40
0.0
176
     1
 40
1.0
176
     1
 90
        0
176
     1
 62
    18
420
        0
176
     1
 90
       50
176
     1
 90
        3
176
     1
 62
     5
420
      255
176
     1
290
     0
176
     1
 90
       50
176
     1
 90
       50
176
     1
 90
       50
176
     1
290
     0
176
     1
 90
       50
176
     1
 62
   256
176
     0
 40
1.0
176
     0
 90
        2
176
     1
  1
strokes_ogs.tif
176
     1
290
     0
176
     1
 40
1.0
176
     1
 40
1.0
176
     1
  0
VISUALSTYLE
  5
66A
102
{ACAD_REACTORS
330
660
102
}
330
660
100
AcDbVisualStyle
  2
Conceptual
 70
     9
177
     3
291
     0
 70
    58
 90
        3
176
     1
 90
        2
176
     1
 90
        0
176
     1
 90
        0
176
     1
 40
0.6
176
     1
 40
30.0
176
     1
 62
     7
420
 16777215
176
     1
 90
        2
176
     1
 90
        2
176
     1
 62
     7
176
     1
 62
   257
176
     1
 90
        1
176
     1
 90
        1
176
     1
 40
179.0
176
     1
 90
        8
176
     1
 62
     7
176
     1
 40
1.0
176
     1
 90
        1
176
     1
 90
        6
176
     1
 90
        2
176
     1
 62
     7
176
     1
 90
        3
176
     1
 90
        0
176
     1
 90
        0
176
     1
290
     0
176
     1
 90
        1
176
     1
 40
0.0
176
     1
 90
        0
176
     1
290
     0
176
     1
290
     1
176
     1
290
     1
176
     1
290
     0
176
     1
290
     0
176
     1
290
     0
176
     1
290
     0
176
     1
290
     0
176
     1
290
     0
176
     1
 90
       50
176
     1
 40
0.0
176
     1
 40
1.0
176
     1
 90
        0
176
     1
 62
    18
420
        0
176
     1
 90
       50
176
     1
 90
        3
176
     1
 62
     5
420
      255
176
     1
290
     0
176
     1
 90
       50
176
     1
 90
       50
176
     1
 90
       50
176
     1
290
     0
176
     1
 90
       50
176
     1
 62
   256
176
     0
 40
1.0
176
     0
 90
        2
176
     1
  1
strokes_ogs.tif
176
     1
290
     0
176
     1
 40
1.0
176
     1
 40
1.0
176
     1
  0
VISUALSTYLE
  5
66B
102
{ACAD_REACTORS
330
660
102
}
330
660
100
AcDbVisualStyle
  2
Dim
 70
    11
177
     3
291
     1
 70
    58
 90
        2
176
     1
 90
        2
176
     1
 90
        0
176
     1
 90
        0
176
     1
 40
0.6
176
     1
 40
30.0
176
     1
 62
     7
420
 16777215
176
     1
 90
        1
176
     1
 90
        4
176
     1
 62
     7
176
     1
 62
   257
176
     1
 90
        1
176
     1
 90
        1
176
     1
 40
1.0
176
     1
 90
        8
176
     1
 62
     7
176
     1
 40
1.0
176
     1
 90
        1
176
     1
 90
        6
176
     1
 90
        2
176
     1
 62
     7
176
     1
 90
        5
176
     1
 90
        0
176
     1
 90
        0
176
     1
290
     0
176
     1
 90
        1
176
     1
 40
-50.0
176
     1
 90
        0
176
     1
290
     0
176
     1
290
     1
176
     1
290
     1
176
     1
290
     0
176
     1
290
     0
176
     1
290
     0
176
     1
290
     0
176
     1
290
     0
176
     1
290
     0
176
     1
 90
       50
176
     1
 40
0.0
176
     1
 40
1.0
176
     1
 90
        0
176
     1
 62
    18
420
        0
176
     1
 90
       50
176
     1
 90
        3
176
     1
 62
     5
420
      255
176
     1
290
     0
176
     1
 90
       50
176
     1
 90
       50
176
     1
 90
       50
176
     1
290
     0
176
     1
 90
       50
176
     1
 62
   256
176
     0
 40
1.0
176
     0
 90
        2
176
     1
  1
strokes_ogs.tif
176
     1
290
     0
176
     1
 40
1.0
176
     1
 40
1.0
176
     1
  0
VISUALSTYLE
  5
673
102
{ACAD_REACTORS
330
660
102
}
330
660
100
AcDbVisualStyle
  2
EdgeColorOff
 70
    22
177
     3
291
     1
 70
    58
 90
        2
176
     0
 90
        2
176
     0
 90
        0
176
     0
 90
        0
176
     0
 40
0.6
176
     0
 40
30.0
176
     0
 62
     7
420
 16777215
176
     0
 90
        1
176
     0
 90
        4
176
     0
 62
     7
176
     0
 62
   257
176
     0
 90
        1
176
     0
 90
        1
176
     0
 40
1.0
176
     0
 90
        8
176
     2
 62
     7
176
     0
 40
1.0
176
     0
 90
        1
176
     0
 90
        6
176
     0
 90
        2
176
     0
 62
     7
176
     0
 90
        5
176
     0
 90
        0
176
     0
 90
        0
176
     0
290
     0
176
     0
 90
        1
176
     0
 40
0.0
176
     0
 90
        0
176
     0
290
     0
176
     0
290
     1
176
     0
290
     1
176
     0
290
     0
176
     0
290
     0
176
     0
290
     0
176
     0
290
     0
176
     0
290
     0
176
     0
290
     0
176
     0
 90
       50
176
     0
 40
0.0
176
     0
 40
1.0
176
     0
 90
        0
176
     0
 62
    18
420
        0
176
     0
 90
       50
176
     0
 90
        3
176
     0
 62
     5
420
      255
176
     0
290
     0
176
     0
 90
       50
176
     0
 90
       50
176
     0
 90
       50
176
     0
290
     0
176
     0
 90
       50
176
     0
 62
   256
176
     0
 40
1.0
176
     0
 90
        2
176
     0
  1
strokes_ogs.tif
176
     0
290
     0
176
     0
 40
1.0
176
     0
 40
1.0
176
     0
  0
VISUALSTYLE
  5
66F
102
{ACAD_REACTORS
330
660
102
}
330
660
100
AcDbVisualStyle
  2
Facepattern
 70
    15
177
     3
291
     1
 70
    58
 90
        2
176
     1
 90
        2
176
     1
 90
        0
176
     1
 90
        0
176
     1
 40
0.6
176
     1
 40
30.0
176
     1
 62
     7
420
 16777215
176
     1
 90
        1
176
     1
 90
        4
176
     1
 62
     7
176
     1
 62
   257
176
     1
 90
        1
176
     1
 90
        1
176
     1
 40
1.0
176
     1
 90
        8
176
     1
 62
     7
176
     1
 40
1.0
176
     1
 90
        1
176
     1
 90
        6
176
     1
 90
        2
176
     1
 62
     7
176
     1
 90
        5
176
     1
 90
        0
176
     1
 90
        0
176
     1
290
     0
176
     1
 90
        1
176
     1
 40
0.0
176
     1
 90
        0
176
     1
290
     0
176
     1
290
     1
176
     1
290
     1
176
     1
290
     0
176
     1
290
     0
176
     1
290
     0
176
     1
290
     0
176
     1
290
     0
176
     1
290
     0
176
     1
 90
       50
176
     1
 40
0.0
176
     1
 40
1.0
176
     1
 90
        0
176
     1
 62
    18
420
        0
176
     1
 90
       50
176
     1
 90
        3
176
     1
 62
     5
420
      255
176
     1
290
     0
176
     1
 90
       50
176
     1
 90
       50
176
     1
 90
       50
176
     1
290
     0
176
     1
 90
       50
176
     1
 62
   256
176
     0
 40
1.0
176
     0
 90
        2
176
     1
  1
strokes_ogs.tif
176
     1
290
     0
176
     1
 40
1.0
176
     1
 40
1.0
176
     1
  0
VISUALSTYLE
  5
661
102
{ACAD_REACTORS
330
660
102
}
330
660
100
AcDbVisualStyle
  2
Flat
 70
     0
177
     3
291
     1
 70
    58
 90
        2
176
     1
 90
        1
176
     1
 90
        1
176
     1
 90
        2
176
     1
 40
0.6
176
     1
 40
30.0
176
     1
 62
     7
420
 16777215
176
     1
 90
        0
176
     1
 90
        0
176
     1
 62
     7
176
     1
 62
   257
176
     1
 90
        1
176
     1
 90
        1
176
     1
 40
1.0
176
     1
 90
        8
176
     1
 62
     7
176
     1
 40
1.0
176
     1
 90
        1
176
     1
 90
        6
176
     1
 90
        2
176
     1
 62
     7
176
     1
 90
        5
176
     1
 90
        0
176
     1
 90
        0
176
     1
290
     0
176
     1
 90
       13
176
     1
 40
0.0
176
     1
 90
        0
176
     1
290
     0
176
     1
290
     1
176
     1
290
     1
176
     1
290
     0
176
     1
290
     0
176
     1
290
     0
176
     1
290
     0
176
     1
290
     0
176
     1
290
     0
176
     1
 90
       50
176
     1
 40
0.0
176
     1
 40
1.0
176
     1
 90
        0
176
     1
 62
    18
420
        0
176
     1
 90
       50
176
     1
 90
        3
176
     1
 62
     5
420
      255
176
     1
290
     0
176
     1
 90
       50
176
     1
 90
       50
176
     1
 90
       50
176
     1
290
     0
176
     1
 90
       50
176
     1
 62
   256
176
     0
 40
1.0
176
     0
 90
        2
176
     1
  1
strokes_ogs.tif
176
     1
290
     0
176
     1
 40
1.0
176
     1
 40
1.0
176
     1
  0
VISUALSTYLE
  5
662
102
{ACAD_REACTORS
330
660
102
}
330
660
100
AcDbVisualStyle
  2
FlatWithEdges
 70
     1
177
     3
291
     1
 70
    58
 90
        2
176
     1
 90
        1
176
     1
 90
        1
176
     1
 90
        2
176
     1
 40
0.6
176
     1
 40
30.0
176
     1
 62
     7
420
 16777215
176
     1
 90
        1
176
     1
 90
        0
176
     1
 62
     7
176
     1
 62
   257
176
     1
 90
        1
176
     1
 90
        1
176
     1
 40
1.0
176
     1
 90
        0
176
     1
 62
   257
176
     1
 40
1.0
176
     1
 90
        1
176
     1
 90
        6
176
     1
 90
        2
176
     1
 62
     7
176
     1
 90
        5
176
     1
 90
        0
176
     1
 90
        0
176
     1
290
     0
176
     1
 90
       13
176
     1
 40
0.0
176
     1
 90
        0
176
     1
290
     0
176
     1
290
     1
176
     1
290
     1
176
     1
290
     0
176
     1
290
     0
176
     1
290
     0
176
     1
290
     0
176
     1
290
     0
176
     1
290
     0
176
     1
 90
       50
176
     1
 40
0.0
176
     1
 40
1.0
176
     1
 90
        0
176
     1
 62
    18
420
        0
176
     1
 90
       50
176
     1
 90
        3
176
     1
 62
     5
420
      255
176
     1
290
     0
176
     1
 90
       50
176
     1
 90
       50
176
     1
 90
       50
176
     1
290
     0
176
     1
 90
       50
176
     1
 62
   256
176
     0
 40
1.0
176
     0
 90
        2
176
     1
  1
strokes_ogs.tif
176
     1
290
     0
176
     1
 40
1.0
176
     1
 40
1.0
176
     1
  0
VISUALSTYLE
  5
663
102
{ACAD_REACTORS
330
660
102
}
330
660
100
AcDbVisualStyle
  2
Gouraud
 70
     2
177
     3
291
     1
 70
    58
 90
        2
176
     1
 90
        2
176
     1
 90
        1
176
     1
 90
        2
176
     1
 40
0.6
176
     1
 40
30.0
176
     1
 62
     7
420
 16777215
176
     1
 90
        0
176
     1
 90
        0
176
     1
 62
     7
176
     1
 62
   257
176
     1
 90
        1
176
     1
 90
        1
176
     1
 40
1.0
176
     1
 90
        0
176
     1
 62
     7
176
     1
 40
1.0
176
     1
 90
        1
176
     1
 90
        6
176
     1
 90
        2
176
     1
 62
     7
176
     1
 90
        5
176
     1
 90
        0
176
     1
 90
        0
176
     1
290
     0
176
     1
 90
       13
176
     1
 40
0.0
176
     1
 90
        0
176
     1
290
     0
176
     1
290
     1
176
     1
290
     1
176
     1
290
     0
176
     1
290
     0
176
     1
290
     0
176
     1
290
     0
176
     1
290
     0
176
     1
290
     0
176
     1
 90
       50
176
     1
 40
0.0
176
     1
 40
1.0
176
     1
 90
        0
176
     1
 62
    18
420
        0
176
     1
 90
       50
176
     1
 90
        3
176
     1
 62
     5
420
      255
176
     1
290
     0
176
     1
 90
       50
176
     1
 90
       50
176
     1
 90
       50
176
     1
290
     0
176
     1
 90
       50
176
     1
 62
   256
176
     0
 40
1.0
176
     0
 90
        2
176
     1
  1
strokes_ogs.tif
176
     1
290
     0
176
     1
 40
1.0
176
     1
 40
1.0
176
     1
  0
VISUALSTYLE
  5
664
102
{ACAD_REACTORS
330
660
102
}
330
660
100
AcDbVisualStyle
  2
GouraudWithEdges
 70
     3
177
     3
291
     1
 70
    58
 90
        2
176
     1
 90
        2
176
     1
 90
        1
176
     1
 90
        2
176
     1
 40
0.6
176
     1
 40
30.0
176
     1
 62
     7
420
 16777215
176
     1
 90
        1
176
     1
 90
        0
176
     1
 62
     7
176
     1
 62
   257
176
     1
 90
        1
176
     1
 90
        1
176
     1
 40
1.0
176
     1
 90
        0
176
     1
 62
   257
176
     1
 40
1.0
176
     1
 90
        1
176
     1
 90
        6
176
     1
 90
        2
176
     1
 62
     7
176
     1
 90
        5
176
     1
 90
        0
176
     1
 90
        0
176
     1
290
     0
176
     1
 90
       13
176
     1
 40
0.0
176
     1
 90
        0
176
     1
290
     0
176
     1
290
     1
176
     1
290
     1
176
     1
290
     0
176
     1
290
     0
176
     1
290
     0
176
     1
290
     0
176
     1
290
     0
176
     1
290
     0
176
     1
 90
       50
176
     1
 40
0.0
176
     1
 40
1.0
176
     1
 90
        0
176
     1
 62
    18
420
        0
176
     1
 90
       50
176
     1
 90
        3
176
     1
 62
     5
420
      255
176
     1
290
     0
176
     1
 90
       50
176
     1
 90
       50
176
     1
 90
       50
176
     1
290
     0
176
     1
 90
       50
176
     1
 62
   256
176
     0
 40
1.0
176
     0
 90
        2
176
     1
  1
strokes_ogs.tif
176
     1
290
     0
176
     1
 40
1.0
176
     1
 40
1.0
176
     1
  0
VISUALSTYLE
  5
667
102
{ACAD_REACTORS
330
660
102
}
330
660
100
AcDbVisualStyle
  2
Hidden
 70
     6
177
     3
291
     0
 70
    58
 90
        1
176
     1
 90
        2
176
     1
 90
        2
176
     1
 90
        0
176
     1
 40
0.6
176
     1
 40
30.0
176
     1
 62
     7
420
 16777215
176
     1
 90
        2
176
     1
 90
        2
176
     1
 62
     7
176
     1
 62
   257
176
     1
 90
        2
176
     1
 90
        1
176
     1
 40
40.0
176
     1
 90
        0
176
     1
 62
   257
176
     1
 40
1.0
176
     1
 90
        1
176
     1
 90
        6
176
     1
 90
        2
176
     1
 62
     7
176
     1
 90
        3
176
     1
 90
        0
176
     1
 90
        0
176
     1
290
     0
176
     1
 90
        1
176
     1
 40
0.0
176
     1
 90
        0
176
     1
290
     0
176
     1
290
     1
176
     1
290
     1
176
     1
290
     0
176
     1
290
     0
176
     1
290
     0
176
     1
290
     0
176
     1
290
     0
176
     1
290
     0
176
     1
 90
       50
176
     1
 40
0.0
176
     1
 40
1.0
176
     1
 90
        0
176
     1
 62
    18
420
        0
176
     1
 90
       50
176
     1
 90
        3
176
     1
 62
     5
420
      255
176
     1
290
     0
176
     1
 90
       50
176
     1
 90
       50
176
     1
 90
       50
176
     1
290
     0
176
     1
 90
       50
176
     1
 62
   256
176
     0
 40
1.0
176
     0
 90
        2
176
     1
  1
strokes_ogs.tif
176
     1
290
     0
176
     1
 40
1.0
176
     1
 40
1.0
176
     1
  0
VISUALSTYLE
  5
671
102
{ACAD_REACTORS
330
660
102
}
330
660
100
AcDbVisualStyle
  2
JitterOff
 70
    20
177
     3
291
     1
 70
    58
 90
        2
176
     0
 90
        2
176
     0
 90
        0
176
     0
 90
        0
176
     0
 40
0.6
176
     0
 40
30.0
176
     0
 62
     7
420
 16777215
176
     0
 90
        1
176
     0
 90
        4
176
     0
 62
     7
176
     0
 62
   257
176
     0
 90
        1
176
     0
 90
        1
176
     0
 40
1.0
176
     0
 90
       10
176
     2
 62
     7
176
     0
 40
1.0
176
     0
 90
        1
176
     0
 90
        6
176
     0
 90
        2
176
     0
 62
     7
176
     0
 90
        5
176
     0
 90
        0
176
     0
 90
        0
176
     0
290
     0
176
     0
 90
        1
176
     0
 40
0.0
176
     0
 90
        0
176
     0
290
     0
176
     0
290
     1
176
     0
290
     1
176
     0
290
     0
176
     0
290
     0
176
     0
290
     0
176
     0
290
     0
176
     0
290
     0
176
     0
290
     0
176
     0
 90
       50
176
     0
 40
0.0
176
     0
 40
1.0
176
     0
 90
        0
176
     0
 62
    18
420
        0
176
     0
 90
       50
176
     0
 90
        3
176
     0
 62
     5
420
      255
176
     0
290
     0
176
     0
 90
       50
176
     0
 90
       50
176
     0
 90
       50
176
     0
290
     0
176
     0
 90
       50
176
     0
 62
   256
176
     0
 40
1.0
176
     0
 90
        2
176
     0
  1
strokes_ogs.tif
176
     0
290
     0
176
     0
 40
1.0
176
     0
 40
1.0
176
     0
  0
VISUALSTYLE
  5
66E
102
{ACAD_REACTORS
330
660
102
}
330
660
100
AcDbVisualStyle
  2
Linepattern
 70
    14
177
     3
291
     1
 70
    58
 90
        2
176
     1
 90
        2
176
     1
 90
        0
176
     1
 90
        0
176
     1
 40
0.6
176
     1
 40
30.0
176
     1
 62
     7
420
 16777215
176
     1
 90
        1
176
     1
 90
        4
176
     1
 62
     7
176
     1
 62
   257
176
     1
 90
        7
176
     1
 90
        7
176
     1
 40
1.0
176
     1
 90
        8
176
     1
 62
     7
176
     1
 40
1.0
176
     1
 90
        1
176
     1
 90
        6
176
     1
 90
        2
176
     1
 62
     7
176
     1
 90
        5
176
     1
 90
        0
176
     1
 90
        0
176
     1
290
     0
176
     1
 90
        1
176
     1
 40
0.0
176
     1
 90
        0
176
     1
290
     0
176
     1
290
     1
176
     1
290
     1
176
     1
290
     0
176
     1
290
     0
176
     1
290
     0
176
     1
290
     0
176
     1
290
     0
176
     1
290
     0
176
     1
 90
       50
176
     1
 40
0.0
176
     1
 40
1.0
176
     1
 90
        0
176
     1
 62
    18
420
        0
176
     1
 90
       50
176
     1
 90
        3
176
     1
 62
     5
420
      255
176
     1
290
     0
176
     1
 90
       50
176
     1
 90
       50
176
     1
 90
       50
176
     1
290
     0
176
     1
 90
       50
176
     1
 62
   256
176
     0
 40
1.0
176
     0
 90
        2
176
     1
  1
strokes_ogs.tif
176
     1
290
     0
176
     1
 40
1.0
176
     1
 40
1.0
176
     1
  0
VISUALSTYLE
  5
672
102
{ACAD_REACTORS
330
660
102
}
330
660
100
AcDbVisualStyle
  2
OverhangOff
 70
    21
177
     3
291
     1
 70
    58
 90
        2
176
     0
 90
        2
176
     0
 90
        0
176
     0
 90
        0
176
     0
 40
0.6
176
     0
 40
30.0
176
     0
 62
     7
420
 16777215
176
     0
 90
        1
176
     0
 90
        4
176
     0
 62
     7
176
     0
 62
   257
176
     0
 90
        1
176
     0
 90
        1
176
     0
 40
1.0
176
     0
 90
        9
176
     2
 62
     7
176
     0
 40
1.0
176
     0
 90
        1
176
     0
 90
        6
176
     0
 90
        2
176
     0
 62
     7
176
     0
 90
        5
176
     0
 90
        0
176
     0
 90
        0
176
     0
290
     0
176
     0
 90
        1
176
     0
 40
0.0
176
     0
 90
        0
176
     0
290
     0
176
     0
290
     1
176
     0
290
     1
176
     0
290
     0
176
     0
290
     0
176
     0
290
     0
176
     0
290
     0
176
     0
290
     0
176
     0
290
     0
176
     0
 90
       50
176
     0
 40
0.0
176
     0
 40
1.0
176
     0
 90
        0
176
     0
 62
    18
420
        0
176
     0
 90
       50
176
     0
 90
        3
176
     0
 62
     5
420
      255
176
     0
290
     0
176
     0
 90
       50
176
     0
 90
       50
176
     0
 90
       50
176
     0
290
     0
176
     0
 90
       50
176
     0
 62
   256
176
     0
 40
1.0
176
     0
 90
        2
176
     0
  1
strokes_ogs.tif
176
     0
290
     0
176
     0
 40
1.0
176
     0
 40
1.0
176
     0
  0
VISUALSTYLE
  5
669
102
{ACAD_REACTORS
330
660
102
}
330
660
100
AcDbVisualStyle
  2
Realistic
 70
     8
177
     3
291
     0
 70
    58
 90
        2
176
     1
 90
        3
176
     1
 90
        0
176
     1
 90
        2
176
     1
 40
0.6
176
     1
 40
30.0
176
     1
 62
     7
420
 16777215
176
     1
 90
        0
176
     1
 90
        0
176
     1
 62
     7
176
     1
 62
   257
176
     1
 90
        1
176
     1
 90
        1
176
     1
 40
1.0
176
     1
 90
        8
176
     1
 62
   257
176
     1
 40
1.0
176
     1
 90
        1
176
     1
 90
        6
176
     1
 90
        2
176
     1
 62
     7
176
     1
 90
        3
176
     1
 90
        0
176
     1
 90
        0
176
     1
290
     0
176
     1
 90
       13
176
     1
 40
0.0
176
     1
 90
        0
176
     1
290
     0
176
     1
290
     1
176
     1
290
     1
176
     1
290
     0
176
     1
290
     0
176
     1
290
     0
176
     1
290
     0
176
     1
290
     0
176
     1
290
     0
176
     1
 90
       50
176
     1
 40
0.0
176
     1
 40
1.0
176
     1
 90
        0
176
     1
 62
    18
420
        0
176
     1
 90
       50
176
     1
 90
        3
176
     1
 62
     5
420
      255
176
     1
290
     0
176
     1
 90
       50
176
     1
 90
       50
176
     1
 90
       50
176
     1
290
     0
176
     1
 90
       50
176
     1
 62
   256
176
     0
 40
1.0
176
     0
 90
        2
176
     1
  1
strokes_ogs.tif
176
     1
290
     0
176
     1
 40
1.0
176
     1
 40
1.0
176
     1
  0
VISUALSTYLE
  5
678
102
{ACAD_REACTORS
330
660
102
}
330
660
100
AcDbVisualStyle
  2
Shaded
 70
    27
177
     3
291
     0
 70
    58
 90
        2
176
     1
 90
        2
176
     1
 90
        1
176
     1
 90
        2
176
     1
 40
0.6
176
     1
 40
30.0
176
     1
 62
     7
420
 16777215
176
     1
 90
        0
176
     1
 90
        4
176
     1
 62
     7
176
     1
 62
   257
176
     1
 90
        1
176
     1
 90
        1
176
     1
 40
1.0
176
     1
 90
        8
176
     1
 62
   257
176
     1
 40
1.0
176
     1
 90
        1
176
     1
 90
        6
176
     1
 90
        2
176
     1
 62
     8
420
  7895160
176
     1
 90
        3
176
     1
 90
        0
176
     1
 90
        0
176
     1
290
     0
176
     1
 90
        5
176
     1
 40
0.0
176
     1
 90
        0
176
     1
290
     0
176
     1
290
     1
176
     1
290
     1
176
     1
290
     0
176
     1
290
     0
176
     1
290
     0
176
     1
290
     0
176
     1
290
     0
176
     1
290
     0
176
     1
 90
       50
176
     1
 40
0.0
176
     1
 40
1.0
176
     1
 90
        0
176
     1
 62
    18
420
        0
176
     1
 90
       50
176
     1
 90
        3
176
     1
 62
     5
420
      255
176
     1
290
     0
176
     1
 90
       50
176
     1
 90
       50
176
     1
 90
       50
176
     1
290
     0
176
     1
 90
       50
176
     1
 62
   256
176
     0
 40
1.0
176
     0
 90
        2
176
     1
  1
strokes_ogs.tif
176
     1
290
     0
176
     1
 40
1.0
176
     1
 40
1.0
176
     1
  0
VISUALSTYLE
  5
677
102
{ACAD_REACTORS
330
660
102
}
330
660
100
AcDbVisualStyle
  2
Shaded with edges
 70
    26
177
     3
291
     0
 70
    58
 90
        2
176
     1
 90
        2
176
     1
 90
        1
176
     1
 90
        2
176
     1
 40
0.6
176
     1
 40
30.0
176
     1
 62
     7
420
 16777215
176
     1
 90
        1
176
     1
 90
       10
176
     1
 62
     7
176
     1
 62
   257
176
     1
 90
        2
176
     1
 90
        1
176
     1
 40
1.0
176
     1
 90
        8
176
     1
 62
   257
176
     1
 40
1.0
176
     1
 90
        1
176
     1
 90
        6
176
     1
 90
        2
176
     1
 62
     7
176
     1
 90
        3
176
     1
 90
        0
176
     1
 90
        0
176
     1
290
     0
176
     1
 90
        5
176
     1
 40
0.0
176
     1
 90
        0
176
     1
290
     0
176
     1
290
     1
176
     1
290
     1
176
     1
290
     0
176
     1
290
     0
176
     1
290
     0
176
     1
290
     0
176
     1
290
     0
176
     1
290
     0
176
     1
 90
       50
176
     1
 40
0.0
176
     1
 40
1.0
176
     1
 90
        0
176
     1
 62
    18
420
        0
176
     1
 90
       50
176
     1
 90
        3
176
     1
 62
     5
420
      255
176
     1
290
     0
176
     1
 90
       50
176
     1
 90
       50
176
     1
 90
       50
176
     1
290
     0
176
     1
 90
       50
176
     1
 62
   256
176
     0
 40
1.0
176
     0
 90
        2
176
     1
  1
strokes_ogs.tif
176
     1
290
     0
176
     1
 40
1.0
176
     1
 40
1.0
176
     1
  0
VISUALSTYLE
  5
674
102
{ACAD_REACTORS
330
660
102
}
330
660
100
AcDbVisualStyle
  2
Shades of Gray
 70
    23
177
     3
291
     0
 70
    58
 90
        2
176
     1
 90
        2
176
     1
 90
        3
176
     1
 90
        0
176
     1
 40
0.6
176
     1
 40
30.0
176
     1
 62
     7
420
 16777215
176
     1
 90
        2
176
     1
 90
        2
176
     1
 62
     7
176
     1
 62
     7
176
     1
 90
        1
176
     1
 90
        1
176
     1
 40
40.0
176
     1
 90
        8
176
     1
 62
     7
176
     1
 40
1.0
176
     1
 90
        1
176
     1
 90
        6
176
     1
 90
        2
176
     1
 62
     7
176
     1
 90
        3
176
     1
 90
        0
176
     1
 90
        0
176
     1
290
     0
176
     1
 90
        1
176
     1
 40
0.0
176
     1
 90
        0
176
     1
290
     0
176
     1
290
     1
176
     1
290
     1
176
     1
290
     0
176
     1
290
     0
176
     1
290
     0
176
     1
290
     0
176
     1
290
     0
176
     1
290
     0
176
     1
 90
       50
176
     1
 40
0.0
176
     1
 40
1.0
176
     1
 90
        0
176
     1
 62
    18
420
        0
176
     1
 90
       50
176
     1
 90
        3
176
     1
 62
     5
420
      255
176
     1
290
     0
176
     1
 90
       50
176
     1
 90
       50
176
     1
 90
       50
176
     1
290
     0
176
     1
 90
       50
176
     1
 62
   256
176
     0
 40
1.0
176
     0
 90
        2
176
     1
  1
strokes_ogs.tif
176
     1
290
     0
176
     1
 40
1.0
176
     1
 40
1.0
176
     1
  0
VISUALSTYLE
  5
675
102
{ACAD_REACTORS
330
660
102
}
330
660
100
AcDbVisualStyle
  2
Sketchy
 70
    24
177
     3
291
     0
 70
    58
 90
        1
176
     1
 90
        2
176
     1
 90
        2
176
     1
 90
        0
176
     1
 40
0.6
176
     1
 40
30.0
176
     1
 62
     7
420
 16777215
176
     1
 90
        2
176
     1
 90
        2
176
     1
 62
     7
176
     1
 62
     7
176
     1
 90
        1
176
     1
 90
        1
176
     1
 40
40.0
176
     1
 90
       11
176
     1
 62
     7
176
     1
 40
1.0
176
     1
 90
        1
176
     1
 90
        6
176
     1
 90
        2
176
     1
 62
     7
176
     1
 90
        6
176
     1
 90
        0
176
     1
 90
        0
176
     1
290
     0
176
     1
 90
        1
176
     1
 40
0.0
176
     1
 90
        0
176
     1
290
     0
176
     1
290
     1
176
     1
290
     1
176
     1
290
     0
176
     1
290
     0
176
     1
290
     0
176
     1
290
     0
176
     1
290
     0
176
     1
290
     0
176
     1
 90
       50
176
     1
 40
0.0
176
     1
 40
1.0
176
     1
 90
        0
176
     1
 62
    18
420
        0
176
     1
 90
       50
176
     1
 90
        3
176
     1
 62
     5
420
      255
176
     1
290
     0
176
     1
 90
       50
176
     1
 90
       50
176
     1
 90
       50
176
     1
290
     0
176
     1
 90
       50
176
     1
 62
   256
176
     0
 40
1.0
176
     0
 90
        2
176
     1
  1
strokes_ogs.tif
176
     1
290
     0
176
     1
 40
1.0
176
     1
 40
1.0
176
     1
  0
VISUALSTYLE
  5
66D
102
{ACAD_REACTORS
330
660
102
}
330
660
100
AcDbVisualStyle
  2
Thicken
 70
    13
177
     3
291
     1
 70
    58
 90
        2
176
     1
 90
        2
176
     1
 90
        0
176
     1
 90
        0
176
     1
 40
0.6
176
     1
 40
30.0
176
     1
 62
     7
420
 16777215
176
     1
 90
        1
176
     1
 90
        4
176
     1
 62
     7
176
     1
 62
   257
176
     1
 90
        1
176
     1
 90
        1
176
     1
 40
1.0
176
     1
 90
       12
176
     1
 62
     7
176
     1
 40
1.0
176
     1
 90
        1
176
     1
 90
        6
176
     1
 90
        2
176
     1
 62
     7
176
     1
 90
        5
176
     1
 90
        0
176
     1
 90
        0
176
     1
290
     0
176
     1
 90
        1
176
     1
 40
0.0
176
     1
 90
        0
176
     1
290
     0
176
     1
290
     1
176
     1
290
     1
176
     1
290
     0
176
     1
290
     0
176
     1
290
     0
176
     1
290
     0
176
     1
290
     0
176
     1
290
     0
176
     1
 90
       50
176
     1
 40
0.0
176
     1
 40
1.0
176
     1
 90
        0
176
     1
 62
    18
420
        0
176
     1
 90
       50
176
     1
 90
        3
176
     1
 62
     5
420
      255
176
     1
290
     0
176
     1
 90
       50
176
     1
 90
       50
176
     1
 90
       50
176
     1
290
     0
176
     1
 90
       50
176
     1
 62
   256
176
     0
 40
1.0
176
     0
 90
        2
176
     1
  1
strokes_ogs.tif
176
     1
290
     0
176
     1
 40
1.0
176
     1
 40
1.0
176
     1
  0
VISUALSTYLE
  5
666
102
{ACAD_REACTORS
330
660
102
}
330
660
100
AcDbVisualStyle
  2
Wireframe
 70
     5
177
     3
291
     0
 70
    58
 90
        0
176
     1
 90
        2
176
     1
 90
        0
176
     1
 90
        0
176
     1
 40
0.6
176
     1
 40
30.0
176
     1
 62
     7
420
 16777215
176
     1
 90
        1
176
     1
 90
        4
176
     1
 62
     7
176
     1
 62
   257
176
     1
 90
        1
176
     1
 90
        1
176
     1
 40
1.0
176
     1
 90
        0
176
     1
 62
   257
176
     1
 40
1.0
176
     1
 90
        1
176
     1
 90
        6
176
     1
 90
        2
176
     1
 62
     7
176
     1
 90
        3
176
     1
 90
        0
176
     1
 90
        0
176
     1
290
     0
176
     1
 90
        1
176
     1
 40
0.0
176
     1
 90
        0
176
     1
290
     0
176
     1
290
     1
176
     1
290
     1
176
     1
290
     0
176
     1
290
     0
176
     1
290
     0
176
     1
290
     0
176
     1
290
     0
176
     1
290
     0
176
     1
 90
       50
176
     1
 40
0.0
176
     1
 40
1.0
176
     1
 90
        0
176
     1
 62
    18
420
        0
176
     1
 90
       50
176
     1
 90
        3
176
     1
 62
     5
420
      255
176
     1
290
     0
176
     1
 90
       50
176
     1
 90
       50
176
     1
 90
       50
176
     1
290
     0
176
     1
 90
       50
176
     1
 62
   256
176
     0
 40
1.0
176
     0
 90
        2
176
     1
  1
strokes_ogs.tif
176
     1
290
     0
176
     1
 40
1.0
176
     1
 40
1.0
176
     1
  0
VISUALSTYLE
  5
676
102
{ACAD_REACTORS
330
660
102
}
330
660
100
AcDbVisualStyle
  2
X-Ray
 70
    25
177
     3
291
     0
 70
    58
 90
        2
176
     1
 90
        2
176
     1
 90
        1
176
     1
 90
        1
176
     1
 40
0.5
176
     1
 40
30.0
176
     1
 62
     7
420
 16777215
176
     1
 90
        1
176
     1
 90
        0
176
     1
 62
     7
176
     1
 62
   257
176
     1
 90
        1
176
     1
 90
        1
176
     1
 40
1.0
176
     1
 90
        8
176
     1
 62
     7
176
     1
 40
1.0
176
     1
 90
        1
176
     1
 90
        6
176
     1
 90
        2
176
     1
 62
     7
176
     1
 90
        3
176
     1
 90
        0
176
     1
 90
        0
176
     1
290
     0
176
     1
 90
       13
176
     1
 40
0.0
176
     1
 90
        0
176
     1
290
     0
176
     1
290
     1
176
     1
290
     1
176
     1
290
     0
176
     1
290
     0
176
     1
290
     0
176
     1
290
     0
176
     1
290
     0
176
     1
290
     0
176
     1
 90
       50
176
     1
 40
0.0
176
     1
 40
1.0
176
     1
 90
        0
176
     1
 62
    18
420
        0
176
     1
 90
       50
176
     1
 90
        3
176
     1
 62
     5
420
      255
176
     1
290
     0
176
     1
 90
       50
176
     1
 90
       50
176
     1
 90
       50
176
     1
290
     0
176
     1
 90
       50
176
     1
 62
   256
176
     0
 40
1.0
176
     0
 90
        2
176
     1
  1
strokes_ogs.tif
176
     1
290
     0
176
     1
 40
1.0
176
     1
 40
1.0
176
     1
  0
DICTIONARYVAR
  5
680
102
{ACAD_REACTORS
330
66
102
}
330
66
100
DictionaryVariables
280
     0
  1
1:1
  0
DICTIONARYVAR
  5
684
102
{ACAD_REACTORS
330
66
102
}
330
66
100
DictionaryVariables
280
     0
  1
Standard
  0
DICTIONARYVAR
  5
67
102
{ACAD_REACTORS
330
66
102
}
330
66
100
DictionaryVariables
280
     0
  1
2
  0
DICTIONARYVAR
  5
6B
102
{ACAD_REACTORS
330
66
102
}
330
66
100
DictionaryVariables
280
     0
  1
1
  0
DICTIONARYVAR
  5
686
102
{ACAD_REACTORS
330
66
102
}
330
66
100
DictionaryVariables
280
     0
  1
0
  0
DICTIONARY
  5
840
330
67E
100
AcDbDictionary
280
     1
281
     1
  3
ACAD_ROUNDTRIP_2008_TABLESTYLE_CELLSTYLEMAP
360
841
  0
CELLSTYLEMAP
  5
841
102
{ACAD_REACTORS
330
840
102
}
330
840
100
AcDbCellStyleMap
 90
        3
300
CELLSTYLE
  1
TABLEFORMAT_BEGIN
 90
        5
170
     1
 91
        0
 92
        0
 62
   257
 93
        1
300
CONTENTFORMAT
  1
CONTENTFORMAT_BEGIN
 90
        0
 91
        0
 92
        4
 93
        0
300

 40
0.0
140
1.0
 94
        5
 62
     0
340
11
144
0.25
309
CONTENTFORMAT_END
171
     1
301
MARGIN
  1
CELLMARGIN_BEGIN
 40
0.06
 40
0.06
 40
0.06
 40
0.06
 40
0.06
 40
0.06
309
CELLMARGIN_END
 94
        6
 95
        1
302
GRIDFORMAT
  1
GRIDFORMAT_BEGIN
 90
        0
 91
        1
 62
     0
 92
       -2
340
14
 93
        0
 40
0.045
309
GRIDFORMAT_END
 95
        2
302
GRIDFORMAT
  1
GRIDFORMAT_BEGIN
 90
        0
 91
        1
 62
     0
 92
       -2
340
14
 93
        0
 40
0.045
309
GRIDFORMAT_END
 95
        4
302
GRIDFORMAT
  1
GRIDFORMAT_BEGIN
 90
        0
 91
        1
 62
     0
 92
       -2
340
14
 93
        0
 40
0.045
309
GRIDFORMAT_END
 95
        8
302
GRIDFORMAT
  1
GRIDFORMAT_BEGIN
 90
        0
 91
        1
 62
     0
 92
       -2
340
14
 93
        0
 40
0.045
309
GRIDFORMAT_END
 95
       16
302
GRIDFORMAT
  1
GRIDFORMAT_BEGIN
 90
        0
 91
        1
 62
     0
 92
       -2
340
14
 93
        0
 40
0.045
309
GRIDFORMAT_END
 95
       32
302
GRIDFORMAT
  1
GRIDFORMAT_BEGIN
 90
        0
 91
        1
 62
     0
 92
       -2
340
14
 93
        0
 40
0.045
309
GRIDFORMAT_END
309
TABLEFORMAT_END
  1
CELLSTYLE_BEGIN
 90
        1
 91
        1
300
_TITLE
309
CELLSTYLE_END
300
CELLSTYLE
  1
TABLEFORMAT_BEGIN
 90
        5
170
     1
 91
        0
 92
        0
 62
   257
 93
        1
300
CONTENTFORMAT
  1
CONTENTFORMAT_BEGIN
 90
        0
 91
        0
 92
        4
 93
        0
300

 40
0.0
140
1.0
 94
        5
 62
     0
340
11
144
0.18
309
CONTENTFORMAT_END
171
     1
301
MARGIN
  1
CELLMARGIN_BEGIN
 40
0.06
 40
0.06
 40
0.06
 40
0.06
 40
0.06
 40
0.06
309
CELLMARGIN_END
 94
        6
 95
        1
302
GRIDFORMAT
  1
GRIDFORMAT_BEGIN
 90
        0
 91
        1
 62
     0
 92
       -2
340
14
 93
        0
 40
0.045
309
GRIDFORMAT_END
 95
        2
302
GRIDFORMAT
  1
GRIDFORMAT_BEGIN
 90
        0
 91
        1
 62
     0
 92
       -2
340
14
 93
        0
 40
0.045
309
GRIDFORMAT_END
 95
        4
302
GRIDFORMAT
  1
GRIDFORMAT_BEGIN
 90
        0
 91
        1
 62
     0
 92
       -2
340
14
 93
        0
 40
0.045
309
GRIDFORMAT_END
 95
        8
302
GRIDFORMAT
  1
GRIDFORMAT_BEGIN
 90
        0
 91
        1
 62
     0
 92
       -2
340
14
 93
        0
 40
0.045
309
GRIDFORMAT_END
 95
       16
302
GRIDFORMAT
  1
GRIDFORMAT_BEGIN
 90
        0
 91
        1
 62
     0
 92
       -2
340
14
 93
        0
 40
0.045
309
GRIDFORMAT_END
 95
       32
302
GRIDFORMAT
  1
GRIDFORMAT_BEGIN
 90
        0
 91
        1
 62
     0
 92
       -2
340
14
 93
        0
 40
0.045
309
GRIDFORMAT_END
309
TABLEFORMAT_END
  1
CELLSTYLE_BEGIN
 90
        2
 91
        1
300
_HEADER
309
CELLSTYLE_END
300
CELLSTYLE
  1
TABLEFORMAT_BEGIN
 90
        5
170
     1
 91
        0
 92
        0
 62
   257
 93
        1
300
CONTENTFORMAT
  1
CONTENTFORMAT_BEGIN
 90
        0
 91
        0
 92
        4
 93
        0
300

 40
0.0
140
1.0
 94
        2
 62
     0
340
11
144
0.18
309
CONTENTFORMAT_END
171
     1
301
MARGIN
  1
CELLMARGIN_BEGIN
 40
0.06
 40
0.06
 40
0.06
 40
0.06
 40
0.06
 40
0.06
309
CELLMARGIN_END
 94
        6
 95
        1
302
GRIDFORMAT
  1
GRIDFORMAT_BEGIN
 90
        0
 91
        1
 62
     0
 92
       -2
340
14
 93
        0
 40
0.045
309
GRIDFORMAT_END
 95
        2
302
GRIDFORMAT
  1
GRIDFORMAT_BEGIN
 90
        0
 91
        1
 62
     0
 92
       -2
340
14
 93
        0
 40
0.045
309
GRIDFORMAT_END
 95
        4
302
GRIDFORMAT
  1
GRIDFORMAT_BEGIN
 90
        0
 91
        1
 62
     0
 92
       -2
340
14
 93
        0
 40
0.045
309
GRIDFORMAT_END
 95
        8
302
GRIDFORMAT
  1
GRIDFORMAT_BEGIN
 90
        0
 91
        1
 62
     0
 92
       -2
340
14
 93
        0
 40
0.045
309
GRIDFORMAT_END
 95
       16
302
GRIDFORMAT
  1
GRIDFORMAT_BEGIN
 90
        0
 91
        1
 62
     0
 92
       -2
340
14
 93
        0
 40
0.045
309
GRIDFORMAT_END
 95
       32
302
GRIDFORMAT
  1
GRIDFORMAT_BEGIN
 90
        0
 91
        1
 62
     0
 92
       -2
340
14
 93
        0
 40
0.045
309
GRIDFORMAT_END
309
TABLEFORMAT_END
  1
CELLSTYLE_BEGIN
 90
        3
 91
        2
300
_DATA
309
CELLSTYLE_END
  0
ENDSEC
  0
EOF
