  0
SECTION
  2
HEADER
  9
$ACADVER
  1
AC1027
  9
$ACADMAINTVER
 70
     8
  9
$DWGCODEPAGE
  3
ANSI_932
  9
$REQUIREDVERSIONS
160
                 0
  9
$LASTSAVEDBY
  1
Yasu
  9
$INSBASE
 10
0.0
 20
0.0
 30
0.0
  9
$EXTMIN
 10
26.63126091521251
 20
29.85393863339095
 30
0.0
  9
$EXTMAX
 10
250.2736857214478
 20
218.6685293591635
 30
0.0
  9
$LIMMIN
 10
0.0
 20
0.0
  9
$LIMMAX
 10
420.0
 20
297.0
  9
$ORTHOMODE
 70
     0
  9
$REGENMODE
 70
     1
  9
$FILLMODE
 70
     1
  9
$QTEXTMODE
 70
     0
  9
$MIRRTEXT
 70
     0
  9
$LTSCALE
 40
0.2
  9
$ATTMODE
 70
     1
  9
$TEXTSIZE
 40
3.0
  9
$TRACEWID
 40
1.0
  9
$TEXTSTYLE
  7
Standard
  9
$CLAYER
  8
文字
  9
$CELTYPE
  6
ByLayer
  9
$CECOLOR
 62
   256
  9
$CELTSCALE
 40
1.0
  9
$DISPSILH
 70
     0
  9
$DIMSCALE
 40
1.0
  9
$DIMASZ
 40
2.5
  9
$DIMEXO
 40
0.625
  9
$DIMDLI
 40
3.75
  9
$DIMRND
 40
0.0
  9
$DIMDLE
 40
0.0
  9
$DIMEXE
 40
1.25
  9
$DIMTP
 40
0.0
  9
$DIMTM
 40
0.0
  9
$DIMTXT
 40
2.5
  9
$DIMCEN
 40
2.5
  9
$DIMTSZ
 40
0.0
  9
$DIMTOL
 70
     0
  9
$DIMLIM
 70
     0
  9
$DIMTIH
 70
     0
  9
$DIMTOH
 70
     0
  9
$DIMSE1
 70
     0
  9
$DIMSE2
 70
     0
  9
$DIMTAD
 70
     1
  9
$DIMZIN
 70
     8
  9
$DIMBLK
  1

  9
$DIMASO
 70
     1
  9
$DIMSHO
 70
     1
  9
$DIMPOST
  1

  9
$DIMAPOST
  1

  9
$DIMALT
 70
     0
  9
$DIMALTD
 70
     3
  9
$DIMALTF
 40
0.03937007874016
  9
$DIMLFAC
 40
1.0
  9
$DIMTOFL
 70
     1
  9
$DIMTVP
 40
0.0
  9
$DIMTIX
 70
     0
  9
$DIMSOXD
 70
     0
  9
$DIMSAH
 70
     0
  9
$DIMBLK1
  1

  9
$DIMBLK2
  1

  9
$DIMSTYLE
  2
ISO-25
  9
$DIMCLRD
 70
     0
  9
$DIMCLRE
 70
     0
  9
$DIMCLRT
 70
     0
  9
$DIMTFAC
 40
1.0
  9
$DIMGAP
 40
0.625
  9
$DIMJUST
 70
     0
  9
$DIMSD1
 70
     0
  9
$DIMSD2
 70
     0
  9
$DIMTOLJ
 70
     0
  9
$DIMTZIN
 70
     8
  9
$DIMALTZ
 70
     0
  9
$DIMALTTZ
 70
     0
  9
$DIMUPT
 70
     0
  9
$DIMDEC
 70
     2
  9
$DIMTDEC
 70
     2
  9
$DIMALTU
 70
     2
  9
$DIMALTTD
 70
     3
  9
$DIMTXSTY
  7
Standard
  9
$DIMAUNIT
 70
     0
  9
$DIMADEC
 70
     0
  9
$DIMALTRND
 40
0.0
  9
$DIMAZIN
 70
     0
  9
$DIMDSEP
 70
    46
  9
$DIMATFIT
 70
     3
  9
$DIMFRAC
 70
     0
  9
$DIMLDRBLK
  1

  9
$DIMLUNIT
 70
     2
  9
$DIMLWD
 70
    -2
  9
$DIMLWE
 70
    -2
  9
$DIMTMOVE
 70
     0
  9
$DIMFXL
 40
1.0
  9
$DIMFXLON
 70
     0
  9
$DIMJOGANG
 40
0.7853981633974483
  9
$DIMTFILL
 70
     0
  9
$DIMTFILLCLR
 70
     0
  9
$DIMARCSYM
 70
     0
  9
$DIMLTYPE
  6

  9
$DIMLTEX1
  6

  9
$DIMLTEX2
  6

  9
$DIMTXTDIRECTION
 70
     0
  9
$LUNITS
 70
     2
  9
$LUPREC
 70
     4
  9
$SKETCHINC
 40
1.0
  9
$FILLETRAD
 40
3.0
  9
$AUNITS
 70
     0
  9
$AUPREC
 70
     0
  9
$MENU
  1
.
  9
$ELEVATION
 40
0.0
  9
$PELEVATION
 40
0.0
  9
$THICKNESS
 40
0.0
  9
$LIMCHECK
 70
     0
  9
$CHAMFERA
 40
2.0
  9
$CHAMFERB
 40
2.0
  9
$CHAMFERC
 40
0.0
  9
$CHAMFERD
 40
0.0
  9
$SKPOLY
 70
     0
  9
$TDCREATE
 40
2452936.788310359
  9
$TDUCREATE
 40
2452936.413310359
  9
$TDUPDATE
 40
2456739.016920359
  9
$TDUUPDATE
 40
2456738.641920359
  9
$TDINDWG
 40
0.552246331
  9
$TDUSRTIMER
 40
2456738.639576644
  9
$USRTIMER
 70
     1
  9
$ANGBASE
 50
0.0
  9
$ANGDIR
 70
     0
  9
$PDMODE
 70
     0
  9
$PDSIZE
 40
0.0
  9
$PLINEWID
 40
0.0
  9
$SPLFRAME
 70
     0
  9
$SPLINETYPE
 70
     6
  9
$SPLINESEGS
 70
     8
  9
$HANDSEED
  5
C29
  9
$SURFTAB1
 70
     6
  9
$SURFTAB2
 70
     6
  9
$SURFTYPE
 70
     6
  9
$SURFU
 70
     6
  9
$SURFV
 70
     6
  9
$UCSBASE
  2

  9
$UCSNAME
  2

  9
$UCSORG
 10
0.0
 20
0.0
 30
0.0
  9
$UCSXDIR
 10
1.0
 20
0.0
 30
0.0
  9
$UCSYDIR
 10
0.0
 20
1.0
 30
0.0
  9
$UCSORTHOREF
  2

  9
$UCSORTHOVIEW
 70
     0
  9
$UCSORGTOP
 10
0.0
 20
0.0
 30
0.0
  9
$UCSORGBOTTOM
 10
0.0
 20
0.0
 30
0.0
  9
$UCSORGLEFT
 10
0.0
 20
0.0
 30
0.0
  9
$UCSORGRIGHT
 10
0.0
 20
0.0
 30
0.0
  9
$UCSORGFRONT
 10
0.0
 20
0.0
 30
0.0
  9
$UCSORGBACK
 10
0.0
 20
0.0
 30
0.0
  9
$PUCSBASE
  2

  9
$PUCSNAME
  2

  9
$PUCSORG
 10
0.0
 20
0.0
 30
0.0
  9
$PUCSXDIR
 10
1.0
 20
0.0
 30
0.0
  9
$PUCSYDIR
 10
0.0
 20
1.0
 30
0.0
  9
$PUCSORTHOREF
  2

  9
$PUCSORTHOVIEW
 70
     0
  9
$PUCSORGTOP
 10
0.0
 20
0.0
 30
0.0
  9
$PUCSORGBOTTOM
 10
0.0
 20
0.0
 30
0.0
  9
$PUCSORGLEFT
 10
0.0
 20
0.0
 30
0.0
  9
$PUCSORGRIGHT
 10
0.0
 20
0.0
 30
0.0
  9
$PUCSORGFRONT
 10
0.0
 20
0.0
 30
0.0
  9
$PUCSORGBACK
 10
0.0
 20
0.0
 30
0.0
  9
$USERI1
 70
     0
  9
$USERI2
 70
     0
  9
$USERI3
 70
     0
  9
$USERI4
 70
     0
  9
$USERI5
 70
     0
  9
$USERR1
 40
0.0
  9
$USERR2
 40
0.0
  9
$USERR3
 40
0.0
  9
$USERR4
 40
0.0
  9
$USERR5
 40
0.0
  9
$WORLDVIEW
 70
     1
  9
$SHADEDGE
 70
     3
  9
$SHADEDIF
 70
    70
  9
$TILEMODE
 70
     1
  9
$MAXACTVP
 70
    64
  9
$PINSBASE
 10
0.0
 20
0.0
 30
0.0
  9
$PLIMCHECK
 70
     0
  9
$PEXTMIN
 10
1.000000000000000E+20
 20
1.000000000000000E+20
 30
1.000000000000000E+20
  9
$PEXTMAX
 10
-1.000000000000000E+20
 20
-1.000000000000000E+20
 30
-1.000000000000000E+20
  9
$PLIMMIN
 10
0.0
 20
0.0
  9
$PLIMMAX
 10
0.0
 20
0.0
  9
$UNITMODE
 70
     0
  9
$VISRETAIN
 70
     1
  9
$PLINEGEN
 70
     0
  9
$PSLTSCALE
 70
     0
  9
$TREEDEPTH
 70
  3020
  9
$CMLSTYLE
  2
Standard
  9
$CMLJUST
 70
     0
  9
$CMLSCALE
 40
20.0
  9
$PROXYGRAPHICS
 70
     1
  9
$MEASUREMENT
 70
     1
  9
$CELWEIGHT
370
    -1
  9
$ENDCAPS
280
     0
  9
$JOINSTYLE
280
     0
  9
$LWDISPLAY
290
     0
  9
$INSUNITS
 70
     4
  9
$HYPERLINKBASE
  1

  9
$STYLESHEET
  1

  9
$XEDIT
290
     1
  9
$CEPSNTYPE
380
     0
  9
$PSTYLEMODE
290
     1
  9
$FINGERPRINTGUID
  2
{86E58535-AB5B-4AFE-AB1B-6758AAB7EA7D}
  9
$VERSIONGUID
  2
{4F352431-FE75-4097-8BA4-7D461FDE661E}
  9
$EXTNAMES
290
     1
  9
$PSVPSCALE
 40
0.0
  9
$OLESTARTUP
290
     0
  9
$SORTENTS
280
   127
  9
$INDEXCTL
280
     0
  9
$HIDETEXT
280
     1
  9
$XCLIPFRAME
280
     0
  9
$HALOGAP
280
     0
  9
$OBSCOLOR
 70
   257
  9
$OBSLTYPE
280
     0
  9
$INTERSECTIONDISPLAY
280
     0
  9
$INTERSECTIONCOLOR
 70
   257
  9
$DIMASSOC
280
     2
  9
$PROJECTNAME
  1

  9
$CAMERADISPLAY
290
     0
  9
$LENSLENGTH
 40
50.0
  9
$CAMERAHEIGHT
 40
0.0
  9
$STEPSPERSEC
 40
2.0
  9
$STEPSIZE
 40
6.0
  9
$3DDWFPREC
 40
2.0
  9
$PSOLWIDTH
 40
0.25
  9
$PSOLHEIGHT
 40
4.0
  9
$LOFTANG1
 40
1.570796326794897
  9
$LOFTANG2
 40
1.570796326794897
  9
$LOFTMAG1
 40
0.0
  9
$LOFTMAG2
 40
0.0
  9
$LOFTPARAM
 70
     7
  9
$LOFTNORMALS
280
     1
  9
$LATITUDE
 40
37.795
  9
$LONGITUDE
 40
-122.394
  9
$NORTHDIRECTION
 40
0.0
  9
$TIMEZONE
 70
 -8000
  9
$LIGHTGLYPHDISPLAY
280
     1
  9
$TILEMODELIGHTSYNCH
280
     1
  9
$SOLIDHIST
280
     1
  9
$SHOWHIST
280
     1
  9
$DWFFRAME
280
     2
  9
$DGNFRAME
280
     2
  9
$REALWORLDSCALE
290
     1
  9
$INTERFERECOLOR
 62
   256
  9
$CSHADOW
280
     0
  9
$SHADOWPLANELOCATION
 40
0.0
  0
ENDSEC
  0
SECTION
  2
CLASSES
  0
CLASS
  1
ACDBDICTIONARYWDFLT
  2
AcDbDictionaryWithDefault
  3
ObjectDBX Classes
 90
        0
 91
        5
280
     0
281
     0
  0
CLASS
  1
DIMASSOC
  2
AcDbDimAssoc
  3
"AcDbDimAssoc|Product Desc:     AcDim ARX App For Dimension|Company:          Autodesk, Inc.|WEB Address:      www.autodesk.com"
 90
        0
 91
        4
280
     0
281
     0
  0
CLASS
  1
VISUALSTYLE
  2
AcDbVisualStyle
  3
ObjectDBX Classes
 90
     4095
 91
        5
280
     0
281
     0
  0
CLASS
  1
SCALE
  2
AcDbScale
  3
ObjectDBX Classes
 90
     1153
 91
        5
280
     0
281
     0
  0
CLASS
  1
MATERIAL
  2
AcDbMaterial
  3
ObjectDBX Classes
 90
     1153
 91
        5
280
     0
281
     0
  0
CLASS
  1
TABLESTYLE
  2
AcDbTableStyle
  3
ObjectDBX Classes
 90
     4095
 91
        5
280
     0
281
     0
  0
CLASS
  1
SUN
  2
AcDbSun
  3
SCENEOE
 90
     1153
 91
        5
280
     0
281
     0
  0
CLASS
  1
RASTERVARIABLES
  2
AcDbRasterVariables
  3
ISM
 90
        0
 91
        5
280
     0
281
     0
  0
CLASS
  1
DICTIONARYVAR
  2
AcDbDictionaryVar
  3
ObjectDBX Classes
 90
        0
 91
        4
280
     0
281
     0
  0
CLASS
  1
CELLSTYLEMAP
  2
AcDbCellStyleMap
  3
ObjectDBX Classes
 90
     1152
 91
        4
280
     0
281
     0
  0
ENDSEC
  0
SECTION
  2
TABLES
  0
TABLE
  2
VPORT
  5
8
330
0
100
AcDbSymbolTable
 70
     1
  0
VPORT
  5
BA4
330
8
100
AcDbSymbolTableRecord
100
AcDbViewportTableRecord
  2
*Active
 70
     0
 10
0.0
 20
0.0
 11
1.0
 21
1.0
 12
138.4524733183302
 22
124.2612339962772
 13
0.0
 23
0.0
 14
10.0
 24
10.0
 15
10.0
 25
10.0
 16
0.0
 26
0.0
 36
1.0
 17
0.0
 27
0.0
 37
0.0
 40
192.590882540288
 41
1.762376237623762
 42
50.0
 43
0.0
 44
0.0
 50
0.0
 51
0.0
 71
    16
 72
  1000
 73
     1
 74
     3
 75
     0
 76
     0
 77
     0
 78
     0
281
     0
 65
     1
110
0.0
120
0.0
130
0.0
111
1.0
121
0.0
131
0.0
112
0.0
122
1.0
132
0.0
 79
     0
146
0.0
348
BAA
 60
     3
 61
     5
292
     1
282
     1
141
0.0
142
0.0
 63
   256
361
BE6
  0
ENDTAB
  0
TABLE
  2
LTYPE
  5
5
330
0
100
AcDbSymbolTable
 70
     6
  0
LTYPE
  5
14
330
5
100
AcDbSymbolTableRecord
100
AcDbLinetypeTableRecord
  2
ByBlock
 70
     0
  3

 72
    65
 73
     0
 40
0.0
  0
LTYPE
  5
15
330
5
100
AcDbSymbolTableRecord
100
AcDbLinetypeTableRecord
  2
ByLayer
 70
     0
  3

 72
    65
 73
     0
 40
0.0
  0
LTYPE
  5
16
330
5
100
AcDbSymbolTableRecord
100
AcDbLinetypeTableRecord
  2
Continuous
 70
     0
  3
Solid line
 72
    65
 73
     0
 40
0.0
  0
LTYPE
  5
35
330
5
100
AcDbSymbolTableRecord
100
AcDbLinetypeTableRecord
  2
ACAD_ISO08W100
 70
     0
  3
ISO long-dash short-dash ____ __ ____ __ ____ _
 72
    65
 73
     4
 40
36.0
 49
24.0
 74
     0
 49
-3.0
 74
     0
 49
6.0
 74
     0
 49
-3.0
 74
     0
  0
LTYPE
  5
127
330
5
100
AcDbSymbolTableRecord
100
AcDbLinetypeTableRecord
  2
HIDDENX2
 70
     0
  3
Hidden (2x) ____ ____ ____ ____ ____ ____ ____
 72
    65
 73
     2
 40
19.05
 49
12.7
 74
     0
 49
-6.35
 74
     0
  0
LTYPE
  5
5EC
330
5
100
AcDbSymbolTableRecord
100
AcDbLinetypeTableRecord
  2
CENTER
 70
     0
  3
Center ____ _ ____ _ ____ _ ____ _ ____ _ ____
 72
    65
 73
     4
 40
50.8
 49
31.75
 74
     0
 49
-6.35
 74
     0
 49
6.35
 74
     0
 49
-6.35
 74
     0
  0
LTYPE
  5
5ED
330
5
100
AcDbSymbolTableRecord
100
AcDbLinetypeTableRecord
  2
ACAD_ISO02W100
 70
     0
  3
ISO dash __ __ __ __ __ __ __ __ __ __ __ __ __
 72
    65
 73
     2
 40
15.0
 49
12.0
 74
     0
 49
-3.0
 74
     0
  0
LTYPE
  5
605
330
5
100
AcDbSymbolTableRecord
100
AcDbLinetypeTableRecord
  2
DASHED
 70
     0
  3
Dashed __ __ __ __ __ __ __ __ __ __ __ __ __ _
 72
    65
 73
     2
 40
19.05
 49
12.7
 74
     0
 49
-6.35
 74
     0
  0
ENDTAB
  0
TABLE
  2
LAYER
  5
2
330
0
100
AcDbSymbolTable
 70
     9
  0
LAYER
  5
10
330
2
100
AcDbSymbolTableRecord
100
AcDbLayerTableRecord
  2
0
 70
     0
 62
     7
  6
Continuous
370
    -3
390
F
347
BE2
348
0
  0
LAYER
  5
2E
330
2
100
AcDbSymbolTableRecord
100
AcDbLayerTableRecord
  2
枠
 70
     0
 62
     1
  6
Continuous
370
    30
390
F
347
BE2
348
0
  0
LAYER
  5
2F
330
2
100
AcDbSymbolTableRecord
100
AcDbLayerTableRecord
  2
文字
 70
     0
 62
     7
  6
Continuous
370
    30
390
F
347
BE2
348
0
  0
LAYER
  5
36
330
2
100
AcDbSymbolTableRecord
100
AcDbLayerTableRecord
  2
中心線
 70
     0
 62
     7
  6
CENTER
370
    30
390
F
347
BE2
348
0
  0
LAYER
  5
52
330
2
100
AcDbSymbolTableRecord
100
AcDbLayerTableRecord
  2
隠れ線
 70
     0
 62
     2
  6
Continuous
290
     0
370
    -3
390
F
347
BE2
348
0
  0
LAYER
  5
128
330
2
100
AcDbSymbolTableRecord
100
AcDbLayerTableRecord
  2
実線
 70
     0
 62
     7
  6
Continuous
370
    50
390
F
347
BE2
348
0
  0
LAYER
  5
129
330
2
100
AcDbSymbolTableRecord
100
AcDbLayerTableRecord
  2
破線
 70
     0
 62
     7
  6
DASHED
370
    20
390
F
347
BE2
348
0
  0
LAYER
  5
693
330
2
100
AcDbSymbolTableRecord
100
AcDbLayerTableRecord
  2
Defpoints
 70
     0
 62
     7
  6
Continuous
290
     0
370
    -3
390
F
347
BE2
348
0
  0
LAYER
  5
BFD
330
2
100
AcDbSymbolTableRecord
100
AcDbLayerTableRecord
  2
文字・寸法線
 70
     0
 62
     7
  6
Continuous
370
    -3
390
F
347
BE2
348
0
  0
ENDTAB
  0
TABLE
  2
STYLE
  5
3
330
0
100
AcDbSymbolTable
 70
     2
  0
STYLE
  5
11
330
3
100
AcDbSymbolTableRecord
100
AcDbTextStyleTableRecord
  2
Standard
 70
     0
 40
0.0
 41
1.0
 50
0.0
 71
     0
 42
3.0
  3
txt.shx
  4
bigfont.shx
  0
STYLE
  5
34
330
3
100
AcDbSymbolTableRecord
100
AcDbTextStyleTableRecord
  2

 70
     1
 40
0.0
 41
1.0
 50
0.0
 71
     0
 42
2.5
  3
ltypeshp.shx
  4

  0
ENDTAB
  0
TABLE
  2
VIEW
  5
6
330
0
100
AcDbSymbolTable
 70
     0
  0
ENDTAB
  0
TABLE
  2
UCS
  5
7
330
0
100
AcDbSymbolTable
 70
     0
  0
ENDTAB
  0
TABLE
  2
APPID
  5
9
330
0
100
AcDbSymbolTable
 70
     1
  0
APPID
  5
12
330
9
100
AcDbSymbolTableRecord
100
AcDbRegAppTableRecord
  2
ACAD
 70
     0
  0
ENDTAB
  0
TABLE
  2
DIMSTYLE
  5
A
330
0
100
AcDbSymbolTable
 70
     1
100
AcDbDimStyleTable
  0
DIMSTYLE
105
29
102
{ACAD_REACTORS
330
6C3
330
920
330
986
330
A24
330
AD9
330
AC8
330
ACB
330
B7B
102
}
330
A
100
AcDbSymbolTableRecord
100
AcDbDimStyleTableRecord
  2
ISO-25
 70
     0
 41
2.5
 42
0.625
 43
3.75
 44
1.25
 73
     0
 74
     0
 77
     1
 78
     8
140
2.5
141
2.5
143
0.03937007874016
147
0.625
171
     3
172
     1
178
     0
271
     2
272
     2
274
     3
283
     0
284
     8
340
11
  0
ENDTAB
  0
TABLE
  2
BLOCK_RECORD
  5
1
330
0
100
AcDbSymbolTable
 70
     8
  0
BLOCK_RECORD
  5
21
330
1
100
AcDbSymbolTableRecord
100
AcDbBlockTableRecord
  2
*Model_Space
340
24
 70
     0
280
     1
281
     0
  0
BLOCK_RECORD
  5
BF3
330
1
100
AcDbSymbolTableRecord
100
AcDbBlockTableRecord
  2
*Paper_Space
340
BF4
 70
     0
280
     1
281
     0
  0
BLOCK_RECORD
  5
6C4
330
1
100
AcDbSymbolTableRecord
100
AcDbBlockTableRecord
  2
*D0
340
0
 70
     0
280
     1
281
     0
  0
BLOCK_RECORD
  5
921
330
1
100
AcDbSymbolTableRecord
100
AcDbBlockTableRecord
  2
*D1
340
0
 70
     0
280
     1
281
     0
  0
BLOCK_RECORD
  5
996
330
1
100
AcDbSymbolTableRecord
100
AcDbBlockTableRecord
  2
*D2
340
0
 70
     0
280
     1
281
     0
  0
BLOCK_RECORD
  5
A25
330
1
100
AcDbSymbolTableRecord
100
AcDbBlockTableRecord
  2
*D3
340
0
 70
     0
280
     1
281
     0
  0
BLOCK_RECORD
  5
AE2
330
1
100
AcDbSymbolTableRecord
100
AcDbBlockTableRecord
  2
*D4
340
0
 70
     0
280
     1
281
     0
  0
BLOCK_RECORD
  5
AEE
330
1
100
AcDbSymbolTableRecord
100
AcDbBlockTableRecord
  2
*D5
340
0
 70
     0
280
     1
281
     0
  0
BLOCK_RECORD
  5
AFA
330
1
100
AcDbSymbolTableRecord
100
AcDbBlockTableRecord
  2
*D6
340
0
 70
     0
280
     1
281
     0
  0
BLOCK_RECORD
  5
B7C
330
1
100
AcDbSymbolTableRecord
100
AcDbBlockTableRecord
  2
*D7
340
0
 70
     0
280
     1
281
     0
  0
ENDTAB
  0
ENDSEC
  0
SECTION
  2
BLOCKS
  0
BLOCK
  5
22
330
21
100
AcDbEntity
  8
0
100
AcDbBlockBegin
  2
*Model_Space
 70
     0
 10
0.0
 20
0.0
 30
0.0
  3
*Model_Space
  1
*Model_Space
  0
ENDBLK
  5
23
330
21
100
AcDbEntity
  8
0
100
AcDbBlockEnd
  0
BLOCK
  5
BF5
330
BF3
100
AcDbEntity
 67
     1
  8
0
100
AcDbBlockBegin
  2
*Paper_Space
 70
     0
 10
0.0
 20
0.0
 30
0.0
  3
*Paper_Space
  1
*Paper_Space
  0
ENDBLK
  5
BF6
330
BF3
100
AcDbEntity
 67
     1
  8
0
100
AcDbBlockEnd
  0
BLOCK
  5
6CF
330
6C4
100
AcDbEntity
  8
0
370
    30
100
AcDbBlockBegin
  2
*D0
 70
     1
 10
0.0
 20
0.0
 30
0.0
  3
*D0
  1
*D1
  0
LINE
  5
A09
330
6C4
100
AcDbEntity
  8
文字
 62
     0
370
    -2
100
AcDbLine
 10
87.73243796410695
 20
68.51665816316097
 30
0.0
 11
120.9870888713035
 21
68.51665816316095
 31
0.0
  0
LINE
  5
A0A
330
6C4
100
AcDbEntity
  8
文字
 62
     0
370
    -2
100
AcDbLine
 10
87.73243796410695
 20
76.5521920690937
 30
0.0
 11
120.9870888713035
 21
76.55219206909369
 31
0.0
  0
LINE
  5
A0B
330
6C4
100
AcDbEntity
  8
文字
 62
     0
370
    -2
100
AcDbLine
 10
119.7370888713035
 20
71.01665816316095
 30
0.0
 11
119.7370888713035
 21
74.05219206909369
 31
0.0
  0
SOLID
  5
A0C
330
6C4
100
AcDbEntity
  8
文字
 62
     0
370
    20
100
AcDbTrace
 10
119.3204222046368
 20
71.01665816316095
 30
0.0
 11
120.1537555379702
 21
71.01665816316095
 31
0.0
 12
119.7370888713035
 22
68.51665816316095
 32
0.0
 13
119.7370888713035
 23
68.51665816316095
 33
0.0
  0
SOLID
  5
A0D
330
6C4
100
AcDbEntity
  8
文字
 62
     0
370
    20
100
AcDbTrace
 10
119.3204222046368
 20
74.05219206909369
 30
0.0
 11
120.1537555379702
 21
74.05219206909369
 31
0.0
 12
119.7370888713035
 22
76.55219206909369
 32
0.0
 13
119.7370888713035
 23
76.55219206909369
 33
0.0
  0
MTEXT
  5
A0E
330
6C4
100
AcDbEntity
  8
文字
 62
     0
100
AcDbMText
 10
117.8620888713035
 20
72.53442511612734
 30
0.0
 40
2.5
 41
0.0
 46
0.0
 71
     5
 72
     1
  1
8
 11
6.123031769111886E-17
 21
1.0
 31
0.0
 73
     1
 44
1.0
  0
POINT
  5
A0F
330
6C4
100
AcDbEntity
  8
Defpoints
 62
     0
370
    20
100
AcDbPoint
 10
87.10743796410695
 20
68.51665816316097
 30
0.0
  0
POINT
  5
A10
330
6C4
100
AcDbEntity
  8
Defpoints
 62
     0
370
    20
100
AcDbPoint
 10
87.10743796410695
 20
76.5521920690937
 30
0.0
  0
POINT
  5
A11
330
6C4
100
AcDbEntity
  8
Defpoints
 62
     0
370
    20
100
AcDbPoint
 10
119.7370888713035
 20
76.55219206909369
 30
0.0
  0
ENDBLK
  5
6D0
330
6C4
100
AcDbEntity
  8
0
370
    30
100
AcDbBlockEnd
  0
BLOCK
  5
92B
330
921
100
AcDbEntity
  8
0
370
    20
100
AcDbBlockBegin
  2
*D1
 70
     1
 10
0.0
 20
0.0
 30
0.0
  3
*D1
  1
*D2
  0
LINE
  5
A67
330
921
100
AcDbEntity
  8
文字
 62
     0
370
    -2
100
AcDbLine
 10
201.6198287998888
 20
107.7229665591597
 30
0.0
 11
201.6198287998888
 21
68.19581125578446
 31
0.0
  0
LINE
  5
A68
330
921
100
AcDbEntity
  8
文字
 62
     0
370
    -2
100
AcDbLine
 10
220.585785142768
 20
107.7229665591597
 30
0.0
 11
220.585785142768
 21
68.19581125578446
 31
0.0
  0
LINE
  5
A69
330
921
100
AcDbEntity
  8
文字
 62
     0
370
    -2
100
AcDbLine
 10
204.1198287998888
 20
69.44581125578446
 30
0.0
 11
218.085785142768
 21
69.44581125578446
 31
0.0
  0
SOLID
  5
A6A
330
921
100
AcDbEntity
  8
文字
 62
     0
100
AcDbTrace
 10
204.1198287998888
 20
69.86247792245113
 30
0.0
 11
204.1198287998888
 21
69.02914458911779
 31
0.0
 12
201.6198287998888
 22
69.44581125578446
 32
0.0
 13
201.6198287998888
 23
69.44581125578446
 33
0.0
  0
SOLID
  5
A6B
330
921
100
AcDbEntity
  8
文字
 62
     0
100
AcDbTrace
 10
218.085785142768
 20
69.86247792245113
 30
0.0
 11
218.085785142768
 21
69.02914458911779
 31
0.0
 12
220.585785142768
 22
69.44581125578446
 32
0.0
 13
220.585785142768
 23
69.44581125578446
 33
0.0
  0
MTEXT
  5
A6C
330
921
100
AcDbEntity
  8
文字
 62
     0
100
AcDbMText
 10
211.1028069713284
 20
71.32081125578446
 30
0.0
 40
2.5
 41
0.0
 46
0.0
 71
     5
 72
     1
  1
19
 73
     1
 44
1.0
  0
POINT
  5
A6D
330
921
100
AcDbEntity
  8
Defpoints
 62
     0
100
AcDbPoint
 10
201.6198287998888
 20
108.3479665591597
 30
0.0
  0
POINT
  5
A6E
330
921
100
AcDbEntity
  8
Defpoints
 62
     0
100
AcDbPoint
 10
220.585785142768
 20
108.3479665591597
 30
0.0
  0
POINT
  5
A6F
330
921
100
AcDbEntity
  8
Defpoints
 62
     0
100
AcDbPoint
 10
220.585785142768
 20
69.44581125578446
 30
0.0
  0
ENDBLK
  5
92C
330
921
100
AcDbEntity
  8
0
370
    20
100
AcDbBlockEnd
  0
BLOCK
  5
9A0
330
996
100
AcDbEntity
  8
0
370
    20
100
AcDbBlockBegin
  2
*D2
 70
     1
 10
0.0
 20
0.0
 30
0.0
  3
*D2
  1
*D3
  0
LINE
  5
A5E
330
996
100
AcDbEntity
  8
文字
 62
     0
370
    -2
100
AcDbLine
 10
80.78243796410695
 20
176.5521920690937
 30
0.0
 11
120.9870888713035
 21
176.5521920690937
 31
0.0
  0
LINE
  5
A5F
330
996
100
AcDbEntity
  8
文字
 62
     0
370
    -2
100
AcDbLine
 10
87.73243796410688
 20
76.5521920690937
 30
0.0
 11
120.9870888713035
 21
76.55219206909369
 31
0.0
  0
LINE
  5
A60
330
996
100
AcDbEntity
  8
文字
 62
     0
370
    -2
100
AcDbLine
 10
119.7370888713035
 20
174.0521920690937
 30
0.0
 11
119.7370888713035
 21
79.05219206909369
 31
0.0
  0
SOLID
  5
A61
330
996
100
AcDbEntity
  8
文字
 62
     0
100
AcDbTrace
 10
119.3204222046368
 20
174.0521920690937
 30
0.0
 11
120.1537555379702
 21
174.0521920690937
 31
0.0
 12
119.7370888713035
 22
176.5521920690937
 32
0.0
 13
119.7370888713035
 23
176.5521920690937
 33
0.0
  0
SOLID
  5
A62
330
996
100
AcDbEntity
  8
文字
 62
     0
100
AcDbTrace
 10
119.3204222046368
 20
79.05219206909369
 30
0.0
 11
120.1537555379702
 21
79.05219206909369
 31
0.0
 12
119.7370888713035
 22
76.55219206909369
 32
0.0
 13
119.7370888713035
 23
76.55219206909369
 33
0.0
  0
MTEXT
  5
A63
330
996
100
AcDbEntity
  8
文字
 62
     0
100
AcDbMText
 10
117.8620888713035
 20
126.5521920690937
 30
0.0
 40
2.5
 41
0.0
 46
0.0
 71
     5
 72
     1
  1
100
 11
6.123031769111886E-17
 21
1.0
 31
0.0
 73
     1
 44
1.0
  0
POINT
  5
A64
330
996
100
AcDbEntity
  8
Defpoints
 62
     0
100
AcDbPoint
 10
80.15743796410695
 20
176.5521920690937
 30
0.0
  0
POINT
  5
A65
330
996
100
AcDbEntity
  8
Defpoints
 62
     0
100
AcDbPoint
 10
87.10743796410688
 20
76.5521920690937
 30
0.0
  0
POINT
  5
A66
330
996
100
AcDbEntity
  8
Defpoints
 62
     0
100
AcDbPoint
 10
119.7370888713035
 20
76.55219206909369
 30
0.0
  0
ENDBLK
  5
9A1
330
996
100
AcDbEntity
  8
0
370
    20
100
AcDbBlockEnd
  0
BLOCK
  5
A2F
330
A25
100
AcDbEntity
  8
0
100
AcDbBlockBegin
  2
*D3
 70
     1
 10
0.0
 20
0.0
 30
0.0
  3
*D3
  1
*D4
  0
LINE
  5
A3C
330
A25
100
AcDbEntity
  8
文字
 62
     0
370
    -2
100
AcDbLine
 10
70.15743796410695
 20
175.1771920690937
 30
0.0
 11
70.15743796410695
 21
191.8616852071262
 31
0.0
  0
LINE
  5
A3D
330
A25
100
AcDbEntity
  8
文字
 62
     0
370
    -2
100
AcDbLine
 10
82.15743796410695
 20
175.1771920690937
 30
0.0
 11
82.15743796410695
 21
191.8616852071262
 31
0.0
  0
LINE
  5
A3E
330
A25
100
AcDbEntity
  8
文字
 62
     0
370
    -2
100
AcDbLine
 10
72.65743796410695
 20
190.6116852071262
 30
0.0
 11
79.65743796410695
 21
190.6116852071262
 31
0.0
  0
SOLID
  5
A3F
330
A25
100
AcDbEntity
  8
文字
 62
     0
100
AcDbTrace
 10
72.65743796410695
 20
191.0283518737928
 30
0.0
 11
72.65743796410695
 21
190.1950185404595
 31
0.0
 12
70.15743796410695
 22
190.6116852071262
 32
0.0
 13
70.15743796410695
 23
190.6116852071262
 33
0.0
  0
SOLID
  5
A40
330
A25
100
AcDbEntity
  8
文字
 62
     0
100
AcDbTrace
 10
79.65743796410695
 20
191.0283518737928
 30
0.0
 11
79.65743796410695
 21
190.1950185404595
 31
0.0
 12
82.15743796410695
 22
190.6116852071262
 32
0.0
 13
82.15743796410695
 23
190.6116852071262
 33
0.0
  0
MTEXT
  5
A41
330
A25
100
AcDbEntity
  8
文字
 62
     0
100
AcDbMText
 10
76.15743796410695
 20
192.4866852071262
 30
0.0
 40
2.5
 41
0.0
 46
0.0
 71
     5
 72
     1
  1
{\fArial|b0|i0|c0|p32;M}12
 73
     1
 44
1.0
  0
POINT
  5
A42
330
A25
100
AcDbEntity
  8
Defpoints
 62
     0
100
AcDbPoint
 10
70.15743796410695
 20
174.5521920690937
 30
0.0
  0
POINT
  5
A43
330
A25
100
AcDbEntity
  8
Defpoints
 62
     0
100
AcDbPoint
 10
82.15743796410695
 20
174.5521920690937
 30
0.0
  0
POINT
  5
A44
330
A25
100
AcDbEntity
  8
Defpoints
 62
     0
100
AcDbPoint
 10
82.15743796410695
 20
190.6116852071262
 30
0.0
  0
ENDBLK
  5
A30
330
A25
100
AcDbEntity
  8
0
100
AcDbBlockEnd
  0
BLOCK
  5
AEC
330
AE2
100
AcDbEntity
  8
0
100
AcDbBlockBegin
  2
*D4
 70
     1
 10
0.0
 20
0.0
 30
0.0
  3
*D4
  1
*D5
  0
LINE
  5
B2B
330
AE2
100
AcDbEntity
  8
文字
 62
     0
370
    -2
100
AcDbLine
 10
106.2179967871328
 20
53.79931037953509
 30
0.0
 11
106.2179967871328
 21
29.85393863339095
 31
0.0
  0
LINE
  5
B2C
330
AE2
100
AcDbEntity
  8
文字
 62
     0
370
    -2
100
AcDbLine
 10
46.21799678713285
 20
53.79931037953509
 30
0.0
 11
46.21799678713285
 21
29.85393863339095
 31
0.0
  0
LINE
  5
B2D
330
AE2
100
AcDbEntity
  8
文字
 62
     0
370
    -2
100
AcDbLine
 10
103.7179967871328
 20
31.10393863339095
 30
0.0
 11
48.71799678713285
 21
31.10393863339095
 31
0.0
  0
SOLID
  5
B2E
330
AE2
100
AcDbEntity
  8
文字
 62
     0
100
AcDbTrace
 10
103.7179967871328
 20
31.52060530005762
 30
0.0
 11
103.7179967871328
 21
30.68727196672429
 31
0.0
 12
106.2179967871328
 22
31.10393863339095
 32
0.0
 13
106.2179967871328
 23
31.10393863339095
 33
0.0
  0
SOLID
  5
B2F
330
AE2
100
AcDbEntity
  8
文字
 62
     0
100
AcDbTrace
 10
48.71799678713285
 20
31.52060530005762
 30
0.0
 11
48.71799678713285
 21
30.68727196672429
 31
0.0
 12
46.21799678713285
 22
31.10393863339095
 32
0.0
 13
46.21799678713285
 23
31.10393863339095
 33
0.0
  0
MTEXT
  5
B30
330
AE2
100
AcDbEntity
  8
文字
 62
     0
100
AcDbMText
 10
76.21799678713285
 20
32.97893863339095
 30
0.0
 40
2.5
 41
0.0
 46
0.0
 71
     5
 72
     1
  1
%%c60
 73
     1
 44
1.0
  0
POINT
  5
B31
330
AE2
100
AcDbEntity
  8
Defpoints
 62
     0
100
AcDbPoint
 10
106.2179967871328
 20
54.42431037953509
 30
0.0
  0
POINT
  5
B32
330
AE2
100
AcDbEntity
  8
Defpoints
 62
     0
100
AcDbPoint
 10
46.21799678713285
 20
54.42431037953509
 30
0.0
  0
POINT
  5
B33
330
AE2
100
AcDbEntity
  8
Defpoints
 62
     0
100
AcDbPoint
 10
46.21799678713285
 20
31.10393863339095
 30
0.0
  0
ENDBLK
  5
AED
330
AE2
100
AcDbEntity
  8
0
100
AcDbBlockEnd
  0
BLOCK
  5
AF8
330
AEE
100
AcDbEntity
  8
0
100
AcDbBlockBegin
  2
*D5
 70
     1
 10
0.0
 20
0.0
 30
0.0
  3
*D5
  1
*D6
  0
LINE
  5
B3D
330
AEE
100
AcDbEntity
  8
文字
 62
     0
370
    -2
100
AcDbLine
 10
45.59299678713285
 20
60.17431037953509
 30
0.0
 11
28.50626091521253
 21
60.17431037953509
 31
0.0
  0
LINE
  5
B3E
330
AEE
100
AcDbEntity
  8
文字
 62
     0
370
    -2
100
AcDbLine
 10
46.59299678713285
 20
50.67431037953509
 30
0.0
 11
28.50626091521252
 21
50.67431037953509
 31
0.0
  0
LINE
  5
B3F
330
AEE
100
AcDbEntity
  8
文字
 62
     0
370
    -2
100
AcDbLine
 10
29.75626091521253
 20
57.67431037953509
 30
0.0
 11
29.75626091521252
 21
53.17431037953509
 31
0.0
  0
SOLID
  5
B40
330
AEE
100
AcDbEntity
  8
文字
 62
     0
100
AcDbTrace
 10
29.33959424854586
 20
57.67431037953509
 30
0.0
 11
30.17292758187919
 21
57.67431037953509
 31
0.0
 12
29.75626091521253
 22
60.17431037953509
 32
0.0
 13
29.75626091521253
 23
60.17431037953509
 33
0.0
  0
SOLID
  5
B41
330
AEE
100
AcDbEntity
  8
文字
 62
     0
100
AcDbTrace
 10
29.33959424854585
 20
53.17431037953509
 30
0.0
 11
30.17292758187919
 21
53.17431037953509
 31
0.0
 12
29.75626091521252
 22
50.67431037953509
 32
0.0
 13
29.75626091521252
 23
50.67431037953509
 33
0.0
  0
MTEXT
  5
B42
330
AEE
100
AcDbEntity
  8
文字
 62
     0
100
AcDbMText
 10
27.88126091521251
 20
55.42431037953509
 30
0.0
 40
2.5
 41
0.0
 46
0.0
 71
     5
 72
     1
  1
9.5
 11
6.123031769111886E-17
 21
1.0
 31
0.0
 73
     1
 44
1.0
  0
POINT
  5
B43
330
AEE
100
AcDbEntity
  8
Defpoints
 62
     0
100
AcDbPoint
 10
46.21799678713285
 20
60.17431037953509
 30
0.0
  0
POINT
  5
B44
330
AEE
100
AcDbEntity
  8
Defpoints
 62
     0
100
AcDbPoint
 10
47.21799678713285
 20
50.67431037953509
 30
0.0
  0
POINT
  5
B45
330
AEE
100
AcDbEntity
  8
Defpoints
 62
     0
100
AcDbPoint
 10
29.75626091521252
 20
50.67431037953509
 30
0.0
  0
ENDBLK
  5
AF9
330
AEE
100
AcDbEntity
  8
0
100
AcDbBlockEnd
  0
BLOCK
  5
B04
330
AFA
100
AcDbEntity
  8
0
100
AcDbBlockBegin
  2
*D6
 70
     1
 10
0.0
 20
0.0
 30
0.0
  3
*D6
  1
*D7
  0
LINE
  5
B34
330
AFA
100
AcDbEntity
  8
文字
 62
     0
370
    -2
100
AcDbLine
 10
88.38771737561991
 20
68.51665816316098
 30
0.0
 11
121.0173682828164
 21
68.51665816316097
 31
0.0
  0
LINE
  5
B35
330
AFA
100
AcDbEntity
  8
文字
 62
     0
370
    -2
100
AcDbLine
 10
105.8429967871329
 20
50.67431037953509
 30
0.0
 11
121.0173682828164
 21
50.67431037953508
 31
0.0
  0
LINE
  5
B36
330
AFA
100
AcDbEntity
  8
文字
 62
     0
370
    -2
100
AcDbLine
 10
119.7673682828164
 20
66.01665816316097
 30
0.0
 11
119.7673682828164
 21
53.17431037953508
 31
0.0
  0
SOLID
  5
B37
330
AFA
100
AcDbEntity
  8
文字
 62
     0
100
AcDbTrace
 10
119.3507016161498
 20
66.01665816316097
 30
0.0
 11
120.1840349494831
 21
66.01665816316097
 31
0.0
 12
119.7673682828164
 22
68.51665816316097
 32
0.0
 13
119.7673682828164
 23
68.51665816316097
 33
0.0
  0
SOLID
  5
B38
330
AFA
100
AcDbEntity
  8
文字
 62
     0
100
AcDbTrace
 10
119.3507016161498
 20
53.17431037953508
 30
0.0
 11
120.1840349494831
 21
53.17431037953508
 31
0.0
 12
119.7673682828164
 22
50.67431037953508
 32
0.0
 13
119.7673682828164
 23
50.67431037953508
 33
0.0
  0
MTEXT
  5
B39
330
AFA
100
AcDbEntity
  8
文字
 62
     0
100
AcDbMText
 10
117.8923682828164
 20
59.59548427134805
 30
0.0
 40
2.5
 41
0.0
 46
0.0
 71
     5
 72
     1
  1
18
 11
6.123031769111886E-17
 21
1.0
 31
0.0
 73
     1
 44
1.0
  0
POINT
  5
B3A
330
AFA
100
AcDbEntity
  8
Defpoints
 62
     0
100
AcDbPoint
 10
87.76271737561991
 20
68.51665816316098
 30
0.0
  0
POINT
  5
B3B
330
AFA
100
AcDbEntity
  8
Defpoints
 62
     0
100
AcDbPoint
 10
105.2179967871329
 20
50.67431037953509
 30
0.0
  0
POINT
  5
B3C
330
AFA
100
AcDbEntity
  8
Defpoints
 62
     0
100
AcDbPoint
 10
119.7673682828164
 20
50.67431037953508
 30
0.0
  0
ENDBLK
  5
B05
330
AFA
100
AcDbEntity
  8
0
100
AcDbBlockEnd
  0
BLOCK
  5
B86
330
B7C
100
AcDbEntity
  8
0
100
AcDbBlockBegin
  2
*D7
 70
     1
 10
0.0
 20
0.0
 30
0.0
  3
*D7
  1
*D9
  0
LINE
  5
B93
330
B7C
100
AcDbEntity
  8
文字
 62
     0
370
    -2
100
AcDbLine
 10
189.8035764046791
 20
113.1979665591597
 30
0.0
 11
189.8035764046791
 21
59.171766385414
 31
0.0
  0
LINE
  5
B94
330
B7C
100
AcDbEntity
  8
文字
 62
     0
370
    -2
100
AcDbLine
 10
232.8023055239318
 20
113.1100289512207
 30
0.0
 11
232.8023055239318
 21
59.171766385414
 31
0.0
  0
LINE
  5
B95
330
B7C
100
AcDbEntity
  8
文字
 62
     0
370
    -2
100
AcDbLine
 10
192.3035764046791
 20
60.421766385414
 30
0.0
 11
230.3023055239318
 21
60.421766385414
 31
0.0
  0
SOLID
  5
B96
330
B7C
100
AcDbEntity
  8
文字
 62
     0
100
AcDbTrace
 10
192.3035764046791
 20
60.83843305208067
 30
0.0
 11
192.3035764046791
 21
60.00509971874734
 31
0.0
 12
189.8035764046791
 22
60.421766385414
 32
0.0
 13
189.8035764046791
 23
60.421766385414
 33
0.0
  0
SOLID
  5
B97
330
B7C
100
AcDbEntity
  8
文字
 62
     0
100
AcDbTrace
 10
230.3023055239318
 20
60.00509971874734
 30
0.0
 11
230.3023055239318
 21
60.83843305208067
 31
0.0
 12
232.8023055239318
 22
60.421766385414
 32
0.0
 13
232.8023055239318
 23
60.421766385414
 33
0.0
  0
MTEXT
  5
B98
330
B7C
100
AcDbEntity
  8
文字
 62
     0
100
AcDbMText
 10
211.3029409643055
 20
62.296766385414
 30
0.0
 40
2.5
 41
0.0
 46
0.0
 71
     5
 72
     1
  1
%%c43
 73
     1
 44
1.0
  0
POINT
  5
B99
330
B7C
100
AcDbEntity
  8
Defpoints
 62
     0
100
AcDbPoint
 10
189.8035764046791
 20
113.8229665591597
 30
0.0
  0
POINT
  5
B9A
330
B7C
100
AcDbEntity
  8
Defpoints
 62
     0
100
AcDbPoint
 10
232.8023055239318
 20
113.7350289512207
 30
0.0
  0
POINT
  5
B9B
330
B7C
100
AcDbEntity
  8
Defpoints
 62
     0
100
AcDbPoint
 10
232.8023055239318
 20
60.421766385414
 30
0.0
  0
ENDBLK
  5
B87
330
B7C
100
AcDbEntity
  8
0
100
AcDbBlockEnd
  0
ENDSEC
  0
SECTION
  2
ENTITIES
  0
LINE
  5
62F
330
21
100
AcDbEntity
  8
実線
370
    50
100
AcDbLine
 10
72.19679696661993
 20
68.98834076199373
 30
0.0
 11
72.15743796410692
 21
68.98834076199373
 31
0.0
  0
LINE
  5
63B
330
21
100
AcDbEntity
  8
実線
370
    50
100
AcDbLine
 10
80.15743796410693
 20
68.98834076199371
 30
0.0
 11
80.11807896159385
 21
68.98834076199371
 31
0.0
  0
CIRCLE
  5
640
330
21
100
AcDbEntity
  8
実線
370
    50
100
AcDbCircle
 10
211.1028069713284
 20
113.8229665591597
 30
0.0
 40
30.0
  0
LINE
  5
642
330
21
100
AcDbEntity
  8
中心線
100
AcDbLine
 10
211.1028069713284
 20
113.8229665591597
 30
0.0
 11
211.1028069713284
 21
153.9349915351274
 31
0.0
  0
LINE
  5
643
330
21
100
AcDbEntity
  8
中心線
100
AcDbLine
 10
211.1028069713284
 20
113.8229665591597
 30
0.0
 11
211.1028069713284
 21
76.22502939696358
 31
0.0
  0
LWPOLYLINE
  5
663
330
21
100
AcDbEntity
  8
実線
370
    50
100
AcDbPolyline
 90
        4
 70
     0
 43
0.0
 10
87.10743796410692
 20
70.5521920690937
 10
87.10743796410692
 20
76.5521920690937
 10
65.20743796410693
 20
76.5521920690937
 10
65.20743796410693
 20
70.5521920690937
  0
LINE
  5
664
330
21
100
AcDbEntity
  8
実線
370
    50
100
AcDbLine
 10
82.10743796410692
 20
76.5521920690937
 30
0.0
 11
82.10743796410692
 21
69.55219206909369
 31
0.0
  0
LINE
  5
665
330
21
100
AcDbEntity
  8
実線
370
    50
100
AcDbLine
 10
70.20743796410693
 20
76.5521920690937
 30
0.0
 11
70.20743796410693
 21
69.5521920690937
 31
0.0
  0
ARC
  5
669
330
21
100
AcDbEntity
  8
実線
370
    50
100
AcDbCircle
 10
67.70743796410693
 20
72.12212076885105
 30
0.0
 40
3.58532195511595
100
AcDbArc
 50
225.7902212344514
 51
314.2097787655486
  0
ARC
  5
66B
330
21
100
AcDbEntity
  8
実線
370
    50
100
AcDbCircle
 10
84.60743796410692
 20
72.05219206909373
 30
0.0
 40
3.535533905932768
100
AcDbArc
 50
225.0000000000004
 51
314.9999999999998
  0
LINE
  5
66C
330
21
100
AcDbEntity
  8
実線
370
    50
100
AcDbLine
 10
87.10743796410694
 20
69.5521920690937
 30
0.0
 11
87.10743796410692
 21
70.5521920690937
 31
0.0
  0
LINE
  5
66D
330
21
100
AcDbEntity
  8
実線
370
    50
100
AcDbLine
 10
87.10743796410692
 20
70.5521920690937
 30
0.0
 11
87.10743796410694
 21
69.5521920690937
 31
0.0
  0
LINE
  5
66E
330
21
100
AcDbEntity
  8
実線
370
    50
100
AcDbLine
 10
65.20743796410693
 20
70.5521920690937
 30
0.0
 11
65.20743796410693
 21
69.5521920690937
 31
0.0
  0
LWPOLYLINE
  5
67A
102
{ACAD_REACTORS
330
937
102
}
330
21
100
AcDbEntity
  8
実線
370
    50
100
AcDbPolyline
 90
        6
 70
     1
 43
0.0
 10
201.6198287998888
 20
108.3479665591597
 10
211.1028069713284
 20
102.8729665591597
 10
220.585785142768
 20
108.3479665591597
 10
220.585785142768
 20
119.2979665591597
 10
211.1028069713284
 20
124.7729665591597
 10
201.6198287998888
 20
119.2979665591598
  0
CIRCLE
  5
67D
330
21
100
AcDbEntity
  8
実線
370
    50
100
AcDbCircle
 10
211.1028069713284
 20
113.8229665591597
 30
0.0
 40
6.0
  0
CIRCLE
  5
67E
330
21
100
AcDbEntity
  8
実線
370
    30
100
AcDbCircle
 10
211.1028069713284
 20
113.8229665591597
 30
0.0
 40
5.15
  0
LINE
  5
688
330
21
100
AcDbEntity
  8
実線
370
    50
100
AcDbLine
 10
68.69086922309828
 20
68.67431037953507
 30
0.0
 11
83.56344788209248
 21
68.67431037953507
 31
0.0
  0
ARC
  5
689
330
21
100
AcDbEntity
  8
実線
370
    50
100
AcDbCircle
 10
76.15743796410695
 20
89.27632307004187
 30
0.0
 40
20.60203494178584
100
AcDbArc
 50
253.2134882526874
 51
286.7865117473125
  0
DIMENSION
  5
6C3
330
21
100
AcDbEntity
  8
文字
100
AcDbDimension
280
     0
  2
*D0
 10
119.7370888713035
 20
76.55219206909369
 30
0.0
 11
117.8620888713035
 21
72.53442511612734
 31
0.0
 70
    32
  1
8
 71
     5
 42
8.035533905932738
 73
     0
 74
     0
 75
     0
  3
ISO-25
100
AcDbAlignedDimension
 13
87.10743796410695
 23
68.51665816316097
 33
0.0
 14
87.10743796410695
 24
76.5521920690937
 34
0.0
 50
90.0
100
AcDbRotatedDimension
  0
DIMENSION
  5
920
102
{ACAD_REACTORS
330
937
102
}
102
{ACAD_XDICTIONARY
360
92D
102
}
330
21
100
AcDbEntity
  8
文字
100
AcDbDimension
280
     0
  2
*D1
 10
220.585785142768
 20
69.44581125578446
 30
0.0
 11
211.1028069713284
 21
71.32081125578446
 31
0.0
 70
    32
  1
19
 71
     5
 42
18.9659563428792
 73
     0
 74
     0
 75
     0
  3
ISO-25
100
AcDbAlignedDimension
 13
201.6198287998888
 23
108.3479665591597
 33
0.0
 14
220.585785142768
 24
108.3479665591597
 34
0.0
100
AcDbRotatedDimension
  0
DIMENSION
  5
986
102
{ACAD_REACTORS
330
988
102
}
102
{ACAD_XDICTIONARY
360
987
102
}
330
21
100
AcDbEntity
  8
文字
100
AcDbDimension
280
     0
  2
*D2
 10
119.7370888713035
 20
76.55219206909369
 30
0.0
 11
117.8620888713035
 21
126.5521920690937
 31
0.0
 70
    32
  1
100
 71
     5
 42
100.0
 73
     0
 74
     0
 75
     0
  3
ISO-25
100
AcDbAlignedDimension
 13
80.15743796410695
 23
176.5521920690937
 33
0.0
 14
87.10743796410688
 24
76.5521920690937
 34
0.0
 50
90.0
100
AcDbRotatedDimension
  0
LINE
  5
989
330
21
100
AcDbEntity
  8
実線
370
    20
100
AcDbLine
 10
80.15743796410695
 20
126.5521920690937
 30
0.0
 11
80.15743796410695
 21
76.5521920690937
 31
0.0
  0
LINE
  5
98A
102
{ACAD_REACTORS
330
988
102
}
330
21
100
AcDbEntity
  8
実線
370
    20
100
AcDbLine
 10
80.15743796410695
 20
176.5521920690937
 30
0.0
 11
80.15743796410695
 21
128.8615931458523
 31
0.0
  0
LINE
  5
98B
330
21
100
AcDbEntity
  8
実線
370
    20
100
AcDbLine
 10
70.15743796410695
 20
174.5521920690937
 30
0.0
 11
82.15743796410695
 21
174.5521920690937
 31
0.0
  0
LWPOLYLINE
  5
98C
330
21
100
AcDbEntity
  8
実線
100
AcDbPolyline
 90
        4
 70
     0
 43
0.0
 10
70.15743796410695
 20
120.7786893771975
 10
70.15743796410695
 20
76.5521920690937
 10
82.15743796410695
 20
76.5521920690937
 10
82.15743796410695
 20
127.706892607473
  0
LWPOLYLINE
  5
98F
102
{ACAD_REACTORS
330
A3B
102
}
330
21
100
AcDbEntity
  8
実線
100
AcDbPolyline
 90
        6
 70
     0
 43
0.0
 10
82.15743796410695
 20
130.0162936842315
 10
82.15743796410695
 20
174.5521920690937
 10
80.15743796410695
 20
176.5521920690937
 10
72.15743796410695
 20
176.5521920690937
 10
70.15743796410695
 20
174.5521920690937
 10
70.15743796410695
 20
123.0880904539559
  0
LINE
  5
990
330
21
100
AcDbEntity
  8
実線
370
    20
100
AcDbLine
 10
72.15743796410695
 20
121.9333899155767
 30
0.0
 11
72.15743796410695
 21
76.5521920690937
 31
0.0
  0
LINE
  5
991
330
21
100
AcDbEntity
  8
実線
370
    20
100
AcDbLine
 10
72.15743796410695
 20
176.5521920690937
 30
0.0
 11
72.15743796410695
 21
124.2427909923352
 31
0.0
  0
DIMENSION
  5
A24
102
{ACAD_REACTORS
330
A3B
102
}
102
{ACAD_XDICTIONARY
360
A31
102
}
330
21
100
AcDbEntity
  8
文字
100
AcDbDimension
280
     0
  2
*D3
 10
82.15743796410695
 20
190.6116852071262
 30
0.0
 11
76.15743796410695
 21
192.4866852071262
 31
0.0
 70
    32
  1
{\fArial|b0|i0|c0|p32;M}<>
 71
     5
 42
12.0
 73
     0
 74
     0
 75
     0
  3
ISO-25
100
AcDbAlignedDimension
 13
70.15743796410695
 23
174.5521920690937
 33
0.0
 14
82.15743796410695
 24
174.5521920690937
 34
0.0
100
AcDbRotatedDimension
  0
LINE
  5
A4E
330
21
100
AcDbEntity
  8
実線
100
AcDbLine
 10
70.15743796410695
 20
123.0880904539559
 30
0.0
 11
70.15743796410695
 21
120.7786893771975
 31
0.0
  0
LINE
  5
A4F
330
21
100
AcDbEntity
  8
実線
100
AcDbLine
 10
82.15743796410695
 20
130.0162936842315
 30
0.0
 11
82.15743796410695
 21
127.706892607473
 31
0.0
  0
LINE
  5
A50
330
21
100
AcDbEntity
  8
実線
370
    20
100
AcDbLine
 10
80.15743796410695
 20
128.8615931458523
 30
0.0
 11
80.15743796410695
 21
126.5521920690937
 31
0.0
  0
LINE
  5
A51
330
21
100
AcDbEntity
  8
実線
370
    20
100
AcDbLine
 10
72.15743796410695
 20
124.2427909923352
 30
0.0
 11
72.15743796410695
 21
121.9333899155767
 31
0.0
  0
LINE
  5
A7C
102
{ACAD_REACTORS
330
B92
102
}
330
21
100
AcDbEntity
  8
中心線
100
AcDbLine
 10
211.1028069713284
 20
113.8229665591597
 30
0.0
 11
170.4048584585528
 21
113.8229665591597
 31
0.0
  0
LINE
  5
A7D
330
21
100
AcDbEntity
  8
中心線
100
AcDbLine
 10
211.1028069713284
 20
113.8229665591597
 30
0.0
 11
250.2736857214478
 21
113.8229665591597
 31
0.0
  0
DIMENSION
  5
AC8
102
{ACAD_REACTORS
330
ACA
102
}
102
{ACAD_XDICTIONARY
360
AC9
102
}
330
21
100
AcDbEntity
  8
文字
100
AcDbDimension
280
     0
  2
*D5
 10
29.75626091521252
 20
50.67431037953509
 30
0.0
 11
27.88126091521251
 21
55.42431037953509
 31
0.0
 70
    32
 71
     5
 42
9.5
 73
     0
 74
     0
 75
     0
  3
ISO-25
100
AcDbAlignedDimension
 13
46.21799678713285
 23
60.17431037953509
 33
0.0
 14
47.21799678713285
 24
50.67431037953509
 34
0.0
 50
90.0
100
AcDbRotatedDimension
  0
DIMENSION
  5
ACB
102
{ACAD_REACTORS
330
ACD
102
}
102
{ACAD_XDICTIONARY
360
ACC
102
}
330
21
100
AcDbEntity
  8
文字
100
AcDbDimension
280
     0
  2
*D6
 10
119.7673682828164
 20
50.67431037953508
 30
0.0
 11
117.8923682828164
 21
59.59548427134805
 31
0.0
 70
    32
  1
18
 71
     5
 42
17.84234778362589
 73
     0
 74
     0
 75
     0
  3
ISO-25
100
AcDbAlignedDimension
 13
87.76271737561991
 23
68.51665816316098
 33
0.0
 14
105.2179967871329
 24
50.67431037953509
 34
0.0
 50
90.0
100
AcDbRotatedDimension
  0
LINE
  5
ACE
102
{ACAD_REACTORS
330
ACD
330
ACA
102
}
330
21
100
AcDbEntity
  8
実線
100
AcDbLine
 10
47.21799678713285
 20
50.67431037953509
 30
0.0
 11
105.2179967871329
 21
50.67431037953509
 31
0.0
  0
LINE
  5
ACF
102
{ACAD_REACTORS
330
ACA
102
}
330
21
100
AcDbEntity
  8
実線
100
AcDbLine
 10
49.21799678713285
 20
60.17431037953509
 30
0.0
 11
54.01406965482138
 21
60.17431037953509
 31
0.0
  0
LINE
  5
AD0
102
{ACAD_REACTORS
330
ADB
330
ACA
102
}
330
21
100
AcDbEntity
  8
実線
100
AcDbLine
 10
46.21799678713285
 20
57.17431037953509
 30
0.0
 11
46.21799678713285
 21
51.67431037953509
 31
0.0
  0
LINE
  5
AD1
102
{ACAD_REACTORS
330
ADB
102
}
330
21
100
AcDbEntity
  8
実線
100
AcDbLine
 10
106.2179967871328
 20
57.17431037953509
 30
0.0
 11
106.2179967871329
 21
51.67431037953509
 31
0.0
  0
ARC
  5
AD2
330
21
100
AcDbEntity
  8
実線
100
AcDbCircle
 10
103.2179967871328
 20
57.17431037953509
 30
0.0
 40
3.0
100
AcDbArc
 50
0.0
 51
90.0
  0
ARC
  5
AD3
330
21
100
AcDbEntity
  8
実線
100
AcDbCircle
 10
49.21799678713285
 20
57.17431037953509
 30
0.0
 40
3.0
100
AcDbArc
 50
90.0
 51
180.0
  0
LINE
  5
AD4
330
21
100
AcDbEntity
  8
実線
100
AcDbLine
 10
98.61939350931824
 20
60.17431037953509
 30
0.0
 11
103.2179967871328
 21
60.17431037953509
 31
0.0
  0
LINE
  5
AD5
330
21
100
AcDbEntity
  8
実線
100
AcDbLine
 10
100.2179967871328
 20
60.17431037953509
 30
0.0
 11
98.42192391944431
 21
60.17431037953509
 31
0.0
  0
LINE
  5
AD6
330
21
100
AcDbEntity
  8
実線
100
AcDbLine
 10
97.21799678713285
 20
60.17431037953509
 30
0.0
 11
53.81660006494744
 21
60.17431037953509
 31
0.0
  0
ARC
  5
AD7
330
21
100
AcDbEntity
  8
実線
100
AcDbCircle
 10
105.2179967871329
 20
51.67431037953509
 30
0.0
 40
1.0
100
AcDbArc
 50
270.0
 51
0.0
  0
ARC
  5
AD8
330
21
100
AcDbEntity
  8
実線
100
AcDbCircle
 10
47.21799678713285
 20
51.67431037953509
 30
0.0
 40
1.0
100
AcDbArc
 50
180.0
 51
270.0
  0
DIMENSION
  5
AD9
102
{ACAD_REACTORS
330
ADB
102
}
102
{ACAD_XDICTIONARY
360
ADA
102
}
330
21
100
AcDbEntity
  8
文字
100
AcDbDimension
280
     0
  2
*D4
 10
46.21799678713285
 20
31.10393863339095
 30
0.0
 11
76.21799678713285
 21
32.97893863339095
 31
0.0
 70
    32
  1
%%c60
 71
     5
 42
60.0
 73
     0
 74
     0
 75
     0
  3
ISO-25
100
AcDbAlignedDimension
 13
106.2179967871328
 23
54.42431037953509
 33
0.0
 14
46.21799678713285
 24
54.42431037953509
 34
0.0
100
AcDbRotatedDimension
  0
ARC
  5
ADC
330
21
100
AcDbEntity
  8
実線
100
AcDbCircle
 10
68.73650811382556
 20
53.67432180184662
 30
0.0
 40
15.0
100
AcDbArc
 50
90.07070807745987
 51
150.0000444525814
  0
ARC
  5
ADD
330
21
100
AcDbEntity
  8
実線
100
AcDbCircle
 10
83.69948546044012
 20
53.67432180184663
 30
0.0
 40
15.0
100
AcDbArc
 50
29.99995554741865
 51
89.92929192254013
  0
ARC
  5
ADE
330
21
100
AcDbEntity
  8
実線
100
AcDbCircle
 10
54.01406965482138
 20
62.17431037953509
 30
0.0
 40
2.0
100
AcDbArc
 50
270.0
 51
330.0000444525813
  0
ARC
  5
ADF
330
21
100
AcDbEntity
  8
実線
100
AcDbCircle
 10
98.42192391944431
 20
62.17431037953509
 30
0.0
 40
2.0
100
AcDbArc
 50
209.9999555474186
 51
270.0
  0
LINE
  5
AE0
330
21
100
AcDbEntity
  8
実線
100
AcDbLine
 10
97.21799678713285
 20
60.17431037953509
 30
0.0
 11
98.42192391944431
 21
60.17431037953509
 31
0.0
  0
LINE
  5
AE1
330
21
100
AcDbEntity
  8
中心線
100
AcDbLine
 10
76.18771737561987
 20
41.47224468170405
 30
0.0
 11
76.18771737561988
 21
183.330070294546
 31
0.0
  0
LINE
  5
B2A
330
21
100
AcDbEntity
  8
実線
100
AcDbLine
 10
68.71799678713283
 20
68.67431037953507
 30
0.0
 11
83.71799678713285
 21
68.67431037953509
 31
0.0
  0
CIRCLE
  5
B7A
102
{ACAD_REACTORS
330
B92
102
}
330
21
100
AcDbEntity
  8
実線
100
AcDbCircle
 10
211.1028069713284
 20
113.8229665591597
 30
0.0
 40
21.29923056664931
  0
DIMENSION
  5
B7B
102
{ACAD_REACTORS
330
B92
102
}
102
{ACAD_XDICTIONARY
360
B88
102
}
330
21
100
AcDbEntity
  8
文字
100
AcDbDimension
280
     0
  2
*D7
 10
232.8023055239318
 20
60.421766385414
 30
0.0
 11
211.3029409643055
 21
62.296766385414
 31
0.0
 70
    32
  1
%%c<>
 71
     5
 42
42.99872911925274
 73
     0
 74
     0
 75
     0
  3
ISO-25
100
AcDbAlignedDimension
 13
189.8035764046791
 23
113.8229665591597
 33
0.0
 14
232.8023055239318
 24
113.7350289512207
 34
0.0
100
AcDbRotatedDimension
  0
MTEXT
  5
C21
330
21
100
AcDbEntity
  8
文字・寸法線
 62
     0
100
AcDbMText
 10
93.82703653720384
 20
212.6685293591635
 30
0.0
 40
6.0
 41
0.0
 46
6.0
 71
     9
 72
     1
  1
{\fＭＳ ゴシック|b0|i0|c0|p0;S-V M12X100}
 73
     1
 44
1.0
1001
ACAD
1000
ACAD_MTEXT_DEFINED_HEIGHT_BEGIN
1070
    46
1040
6.0
1000
ACAD_MTEXT_DEFINED_HEIGHT_END
  0
ENDSEC
  0
SECTION
  2
OBJECTS
  0
DICTIONARY
  5
C
330
0
100
AcDbDictionary
281
     1
  3
ACAD_COLOR
350
1C
  3
ACAD_DETAILVIEWSTYLE
350
BF1
  3
ACAD_GROUP
350
D
  3
ACAD_IMAGE_VARS
350
BE7
  3
ACAD_LAYOUT
350
1A
  3
ACAD_MATERIAL
350
1B
  3
ACAD_MLEADERSTYLE
350
BEE
  3
ACAD_MLINESTYLE
350
17
  3
ACAD_PLOTSETTINGS
350
19
  3
ACAD_PLOTSTYLENAME
350
E
  3
ACAD_SCALELIST
350
BBE
  3
ACAD_SECTIONVIEWSTYLE
350
BF2
  3
ACAD_TABLESTYLE
350
BE3
  3
ACAD_VISUALSTYLE
350
BA5
  3
AcadDim
350
6E9
  3
ACDB_RECOMPOSE_DATA
350
C28
  3
AcDbVariableDictionary
350
BE8
  3
APPDATA
350
BE5
  0
SUN
  5
BE6
330
BA4
100
AcDbSun
 90
        1
290
     0
 63
     7
421
 16777215
 40
1.0
291
     1
 91
  2455826
 92
 54000000
292
     0
 70
     2
 71
   256
280
     1
  0
DICTIONARY
  5
92D
330
920
100
AcDbDictionary
280
     1
281
     1
  3
ACAD_DIMASSOC
360
937
  0
DICTIONARY
  5
987
330
986
100
AcDbDictionary
280
     1
281
     1
  3
ACAD_DIMASSOC
360
988
  0
DICTIONARY
  5
A31
330
A24
100
AcDbDictionary
280
     1
281
     1
  3
ACAD_DIMASSOC
360
A3B
  0
DICTIONARY
  5
AC9
330
AC8
100
AcDbDictionary
280
     1
281
     1
  3
ACAD_DIMASSOC
360
ACA
  0
DICTIONARY
  5
ACC
330
ACB
100
AcDbDictionary
280
     1
281
     1
  3
ACAD_DIMASSOC
360
ACD
  0
DICTIONARY
  5
ADA
330
AD9
100
AcDbDictionary
280
     1
281
     1
  3
ACAD_DIMASSOC
360
ADB
  0
DICTIONARY
  5
B88
330
B7B
100
AcDbDictionary
280
     1
281
     1
  3
ACAD_DIMASSOC
360
B92
  0
DICTIONARY
  5
1C
102
{ACAD_REACTORS
330
C
102
}
330
C
100
AcDbDictionary
281
     1
  0
DICTIONARY
  5
BF1
102
{ACAD_REACTORS
330
C
102
}
330
C
100
AcDbDictionary
281
     1
  0
DICTIONARY
  5
D
102
{ACAD_REACTORS
330
C
102
}
330
C
100
AcDbDictionary
281
     1
  0
RASTERVARIABLES
  5
BE7
102
{ACAD_REACTORS
330
C
102
}
330
C
100
AcDbRasterVariables
 90
        0
 70
     1
 71
     1
 72
     1
  0
DICTIONARY
  5
1A
102
{ACAD_REACTORS
330
C
102
}
330
C
100
AcDbDictionary
281
     1
  3
Model
350
24
  3
Sheet1
350
BF4
  0
DICTIONARY
  5
1B
102
{ACAD_REACTORS
330
C
102
}
330
C
100
AcDbDictionary
281
     1
  3
ByBlock
350
BE1
  3
ByLayer
350
BE0
  3
Global
350
BE2
  0
DICTIONARY
  5
BEE
102
{ACAD_REACTORS
330
C
102
}
330
C
100
AcDbDictionary
281
     1
  0
DICTIONARY
  5
17
102
{ACAD_REACTORS
330
C
102
}
330
C
100
AcDbDictionary
281
     1
  3
Standard
350
18
  0
DICTIONARY
  5
19
102
{ACAD_REACTORS
330
C
102
}
330
C
100
AcDbDictionary
281
     1
  0
ACDBDICTIONARYWDFLT
  5
E
102
{ACAD_REACTORS
330
C
102
}
330
C
100
AcDbDictionary
281
     1
  3
Normal
350
F
100
AcDbDictionaryWithDefault
340
F
  0
DICTIONARY
  5
BBE
102
{ACAD_REACTORS
330
C
102
}
330
C
100
AcDbDictionary
281
     1
  3
A0
350
BBF
  3
A1
350
BC0
  3
A2
350
BC1
  3
A3
350
BC2
  3
A4
350
BC3
  3
A5
350
BC4
  3
A6
350
BC5
  3
A7
350
BC6
  3
A8
350
BC7
  3
A9
350
BC8
  3
B0
350
BC9
  3
B1
350
BCA
  3
B2
350
BCB
  3
B3
350
BCC
  3
B4
350
BCD
  3
B5
350
BCE
  3
B6
350
BCF
  3
B7
350
BD0
  3
B8
350
BD1
  3
B9
350
BD2
  3
C0
350
BD3
  3
C1
350
BD4
  3
C2
350
BD5
  3
C3
350
BD6
  3
C4
350
BD7
  3
C5
350
BD8
  3
C6
350
BD9
  3
C7
350
BDA
  3
C8
350
BDB
  3
C9
350
BDC
  3
D0
350
BDD
  3
D1
350
BDE
  3
D2
350
BDF
  0
DICTIONARY
  5
BF2
102
{ACAD_REACTORS
330
C
102
}
330
C
100
AcDbDictionary
281
     1
  0
DICTIONARY
  5
BE3
102
{ACAD_REACTORS
330
C
102
}
330
C
100
AcDbDictionary
281
     1
  3
Standard
350
BE4
  0
DICTIONARY
  5
BA5
102
{ACAD_REACTORS
330
C
102
}
330
C
100
AcDbDictionary
281
     1
  3
2dWireframe
350
BAA
  3
Basic
350
BAD
  3
Brighten
350
BB1
  3
ColorChange
350
BB5
  3
Conceptual
350
BAF
  3
Dim
350
BB0
  3
EdgeColorOff
350
BB8
  3
Facepattern
350
BB4
  3
Flat
350
BA6
  3
FlatWithEdges
350
BA7
  3
Gouraud
350
BA8
  3
GouraudWithEdges
350
BA9
  3
Hidden
350
BAC
  3
JitterOff
350
BB6
  3
Linepattern
350
BB3
  3
OverhangOff
350
BB7
  3
Realistic
350
BAE
  3
Shaded
350
BBD
  3
Shaded with edges
350
BBC
  3
Shades of Gray
350
BB9
  3
Sketchy
350
BBA
  3
Thicken
350
BB2
  3
Wireframe
350
BAB
  3
X-Ray
350
BBB
  0
XRECORD
  5
6E9
102
{ACAD_REACTORS
330
C
102
}
330
C
100
AcDbXrecord
280
     1
 90
   990106
  3

 60
     0
 61
     0
 62
     1
 63
     3
 64
     1
 65
     0
 66
     0
 67
     3
 68
     1
 69
     0
 70
     0
 71
     0
 72
     0
 40
0.0
170
     2
340
0
  0
XRECORD
  5
C28
102
{ACAD_REACTORS
330
C
102
}
330
C
100
AcDbXrecord
280
     1
 90
        1
330
BE4
  0
DICTIONARY
  5
BE8
102
{ACAD_REACTORS
330
C
102
}
330
C
100
AcDbDictionary
281
     1
  3
CANNOSCALE
350
BE9
  3
CTABLESTYLE
350
BED
  3
MSLTSCALE
350
BEF
  3
XCLIPFRAME
350
BF0
  0
DICTIONARY
  5
BE5
102
{ACAD_REACTORS
330
C
102
}
330
C
100
AcDbDictionary
281
     1
  0
DIMASSOC
  5
937
102
{ACAD_REACTORS
330
92D
102
}
330
92D
100
AcDbDimAssoc
330
920
 90
        3
 70
     0
 71
     0
  1
AcDbOsnapPointRef
 72
    13
331
67A
 73
     2
 91
        1
 40
0.0
 10
0.0
 20
0.0
 30
2.000000000000000E+50
 75
     0
  1
AcDbOsnapPointRef
 72
     1
331
67A
 73
     2
 91
        2
 40
1.0
 10
0.0
 20
0.0
 30
2.000000000000000E+50
 75
     0
  0
DIMASSOC
  5
988
102
{ACAD_REACTORS
330
987
102
}
330
987
100
AcDbDimAssoc
330
986
 90
        1
 70
     0
 71
     0
  1
AcDbOsnapPointRef
 72
    13
331
98A
 73
     2
 91
        0
 40
0.0
 10
0.0
 20
0.0
 30
2.000000000000000E+50
 75
     0
  0
DIMASSOC
  5
A3B
102
{ACAD_REACTORS
330
A31
102
}
330
A31
100
AcDbDimAssoc
330
A24
 90
        3
 70
     0
 71
     0
  1
AcDbOsnapPointRef
 72
     1
331
98F
 73
     2
 91
        4
 40
0.9999999999999999
 10
0.0
 20
0.0
 30
2.000000000000000E+50
 75
     0
  1
AcDbOsnapPointRef
 72
     1
331
98F
 73
     2
 91
        1
 40
1.0
 10
0.0
 20
0.0
 30
2.000000000000000E+50
 75
     0
  0
DIMASSOC
  5
ACA
102
{ACAD_REACTORS
330
AC9
102
}
330
AC9
100
AcDbDimAssoc
330
AC8
 90
        3
 70
     0
 71
     0
  1
AcDbOsnapPointRef
 72
     6
331
ACF
 73
     2
 91
        0
 40
-0.6255117640541287
 10
0.0
 20
0.0
 30
0.0
332
AD0
 74
     2
 92
        0
 75
     0
  1
AcDbOsnapPointRef
 72
    13
331
ACE
 73
     2
 91
        0
 40
0.0
 10
0.0
 20
0.0
 30
2.000000000000000E+50
 75
     0
  0
DIMASSOC
  5
ACD
102
{ACAD_REACTORS
330
ACC
102
}
330
ACC
100
AcDbDimAssoc
330
ACB
 90
        2
 70
     0
 71
     0
  1
AcDbOsnapPointRef
 72
     1
331
ACE
 73
     2
 91
        0
 40
1.0
 10
0.0
 20
0.0
 30
2.000000000000000E+50
 75
     0
  0
DIMASSOC
  5
ADB
102
{ACAD_REACTORS
330
ADA
102
}
330
ADA
100
AcDbDimAssoc
330
AD9
 90
        3
 70
     0
 71
     0
  1
AcDbOsnapPointRef
 72
     2
331
AD1
 73
     2
 91
        0
 40
0.5
 10
0.0
 20
0.0
 30
0.0
 75
     0
  1
AcDbOsnapPointRef
 72
     2
331
AD0
 73
     2
 91
        0
 40
0.5
 10
0.0
 20
0.0
 30
0.0
 75
     0
  0
DIMASSOC
  5
B92
102
{ACAD_REACTORS
330
B88
102
}
330
B88
100
AcDbDimAssoc
330
B7B
 90
        1
 70
     0
 71
     0
  1
AcDbOsnapPointRef
 72
     6
331
A7C
 73
     2
 91
        0
 40
0.5233679037486046
 10
0.0
 20
0.0
 30
0.0
332
B7A
 74
     2
 92
        0
 75
     0
  0
LAYOUT
  5
24
102
{ACAD_REACTORS
330
1A
102
}
330
1A
100
AcDbPlotSettings
  1

  2
\\SF05\Brother HL-1440 series
  4
A4
  6

 40
6.72041654586792
 41
5.027085304260254
 42
6.889755249023438
 43
5.027069091796875
 44
209.9733276367188
 45
296.9259948730469
 46
-6.82
 47
-5.06
 48
0.0
 49
0.0
140
297.0
141
210.0
142
1.0
143
1.0
 70
 11924
 72
     1
 73
     1
 74
     4
  7

 75
    16
 76
     1
 77
     2
 78
   300
147
1.0
148
0.0
149
0.0
100
AcDbLayout
  1
Model
 70
     1
 71
     0
 10
0.0
 20
0.0
 11
12.0
 21
9.0
 12
0.0
 22
0.0
 32
0.0
 14
26.63126091521251
 24
29.85393863339095
 34
0.0
 15
250.2736857214478
 25
218.6685293591635
 35
0.0
146
0.0
 13
0.0
 23
0.0
 33
0.0
 16
1.0
 26
0.0
 36
0.0
 17
0.0
 27
1.0
 37
0.0
 76
     0
330
21
331
BA4
  0
LAYOUT
  5
BF4
102
{ACAD_REACTORS
330
1A
102
}
330
1A
100
AcDbPlotSettings
  1

  2
none_device
  4

  6

 40
0.0
 41
0.0
 42
0.0
 43
0.0
 44
0.0
 45
0.0
 46
0.0
 47
0.0
 48
0.0
 49
0.0
140
0.0
141
0.0
142
1.0
143
1.0
 70
   688
 72
     1
 73
     0
 74
     5
  7

 75
    16
 76
     0
 77
     2
 78
   300
147
1.0
148
0.0
149
0.0
100
AcDbLayout
  1
Sheet1
 70
     1
 71
     1
 10
0.0
 20
0.0
 11
0.0
 21
0.0
 12
0.0
 22
0.0
 32
0.0
 14
0.0
 24
0.0
 34
0.0
 15
0.0
 25
0.0
 35
0.0
146
0.0
 13
0.0
 23
0.0
 33
0.0
 16
1.0
 26
0.0
 36
0.0
 17
0.0
 27
1.0
 37
0.0
 76
     0
330
BF3
  0
MATERIAL
  5
BE1
102
{ACAD_REACTORS
330
1B
102
}
330
1B
100
AcDbMaterial
  1
ByBlock
 72
     1
 94
      127
  0
MATERIAL
  5
BE0
102
{ACAD_REACTORS
330
1B
102
}
330
1B
100
AcDbMaterial
  1
ByLayer
 72
     1
 94
      127
  0
MATERIAL
  5
BE2
102
{ACAD_REACTORS
330
1B
102
}
330
1B
100
AcDbMaterial
  1
Global
 72
     1
 94
      127
  0
MLINESTYLE
  5
18
102
{ACAD_REACTORS
330
17
102
}
330
17
100
AcDbMlineStyle
  2
STANDARD
 70
     0
  3

 62
   256
 51
90.0
 52
90.0
 71
     2
 49
0.5
 62
   256
  6
BYLAYER
 49
-0.5
 62
   256
  6
BYLAYER
  0
ACDBPLACEHOLDER
  5
F
102
{ACAD_REACTORS
330
E
102
}
330
E
  0
SCALE
  5
BBF
102
{ACAD_REACTORS
330
BBE
102
}
330
BBE
100
AcDbScale
 70
     0
300
1:1
140
1.0
141
1.0
290
     1
  0
SCALE
  5
BC0
102
{ACAD_REACTORS
330
BBE
102
}
330
BBE
100
AcDbScale
 70
     0
300
1:2
140
1.0
141
2.0
290
     0
  0
SCALE
  5
BC1
102
{ACAD_REACTORS
330
BBE
102
}
330
BBE
100
AcDbScale
 70
     0
300
1:4
140
1.0
141
4.0
290
     0
  0
SCALE
  5
BC2
102
{ACAD_REACTORS
330
BBE
102
}
330
BBE
100
AcDbScale
 70
     0
300
1:5
140
1.0
141
5.0
290
     0
  0
SCALE
  5
BC3
102
{ACAD_REACTORS
330
BBE
102
}
330
BBE
100
AcDbScale
 70
     0
300
1:8
140
1.0
141
8.0
290
     0
  0
SCALE
  5
BC4
102
{ACAD_REACTORS
330
BBE
102
}
330
BBE
100
AcDbScale
 70
     0
300
1:10
140
1.0
141
10.0
290
     0
  0
SCALE
  5
BC5
102
{ACAD_REACTORS
330
BBE
102
}
330
BBE
100
AcDbScale
 70
     0
300
1:16
140
1.0
141
16.0
290
     0
  0
SCALE
  5
BC6
102
{ACAD_REACTORS
330
BBE
102
}
330
BBE
100
AcDbScale
 70
     0
300
1:20
140
1.0
141
20.0
290
     0
  0
SCALE
  5
BC7
102
{ACAD_REACTORS
330
BBE
102
}
330
BBE
100
AcDbScale
 70
     0
300
1:30
140
1.0
141
30.0
290
     0
  0
SCALE
  5
BC8
102
{ACAD_REACTORS
330
BBE
102
}
330
BBE
100
AcDbScale
 70
     0
300
1:40
140
1.0
141
40.0
290
     0
  0
SCALE
  5
BC9
102
{ACAD_REACTORS
330
BBE
102
}
330
BBE
100
AcDbScale
 70
     0
300
1:50
140
1.0
141
50.0
290
     0
  0
SCALE
  5
BCA
102
{ACAD_REACTORS
330
BBE
102
}
330
BBE
100
AcDbScale
 70
     0
300
1:100
140
1.0
141
100.0
290
     0
  0
SCALE
  5
BCB
102
{ACAD_REACTORS
330
BBE
102
}
330
BBE
100
AcDbScale
 70
     0
300
2:1
140
2.0
141
1.0
290
     0
  0
SCALE
  5
BCC
102
{ACAD_REACTORS
330
BBE
102
}
330
BBE
100
AcDbScale
 70
     0
300
4:1
140
4.0
141
1.0
290
     0
  0
SCALE
  5
BCD
102
{ACAD_REACTORS
330
BBE
102
}
330
BBE
100
AcDbScale
 70
     0
300
8:1
140
8.0
141
1.0
290
     0
  0
SCALE
  5
BCE
102
{ACAD_REACTORS
330
BBE
102
}
330
BBE
100
AcDbScale
 70
     0
300
10:1
140
10.0
141
1.0
290
     0
  0
SCALE
  5
BCF
102
{ACAD_REACTORS
330
BBE
102
}
330
BBE
100
AcDbScale
 70
     0
300
100:1
140
100.0
141
1.0
290
     0
  0
SCALE
  5
BD0
102
{ACAD_REACTORS
330
BBE
102
}
330
BBE
100
AcDbScale
 70
     0
300
1/128" = 1'-0"
140
0.0078125
141
12.0
290
     0
  0
SCALE
  5
BD1
102
{ACAD_REACTORS
330
BBE
102
}
330
BBE
100
AcDbScale
 70
     0
300
1/64" = 1'-0"
140
0.015625
141
12.0
290
     0
  0
SCALE
  5
BD2
102
{ACAD_REACTORS
330
BBE
102
}
330
BBE
100
AcDbScale
 70
     0
300
1/32" = 1'-0"
140
0.03125
141
12.0
290
     0
  0
SCALE
  5
BD3
102
{ACAD_REACTORS
330
BBE
102
}
330
BBE
100
AcDbScale
 70
     0
300
1/16" = 1'-0"
140
0.0625
141
12.0
290
     0
  0
SCALE
  5
BD4
102
{ACAD_REACTORS
330
BBE
102
}
330
BBE
100
AcDbScale
 70
     0
300
3/32" = 1'-0"
140
0.09375
141
12.0
290
     0
  0
SCALE
  5
BD5
102
{ACAD_REACTORS
330
BBE
102
}
330
BBE
100
AcDbScale
 70
     0
300
1/8" = 1'-0"
140
0.125
141
12.0
290
     0
  0
SCALE
  5
BD6
102
{ACAD_REACTORS
330
BBE
102
}
330
BBE
100
AcDbScale
 70
     0
300
3/16" = 1'-0"
140
0.1875
141
12.0
290
     0
  0
SCALE
  5
BD7
102
{ACAD_REACTORS
330
BBE
102
}
330
BBE
100
AcDbScale
 70
     0
300
1/4" = 1'-0"
140
0.25
141
12.0
290
     0
  0
SCALE
  5
BD8
102
{ACAD_REACTORS
330
BBE
102
}
330
BBE
100
AcDbScale
 70
     0
300
3/8" = 1'-0"
140
0.375
141
12.0
290
     0
  0
SCALE
  5
BD9
102
{ACAD_REACTORS
330
BBE
102
}
330
BBE
100
AcDbScale
 70
     0
300
1/2" = 1'-0"
140
0.5
141
12.0
290
     0
  0
SCALE
  5
BDA
102
{ACAD_REACTORS
330
BBE
102
}
330
BBE
100
AcDbScale
 70
     0
300
3/4" = 1'-0"
140
0.75
141
12.0
290
     0
  0
SCALE
  5
BDB
102
{ACAD_REACTORS
330
BBE
102
}
330
BBE
100
AcDbScale
 70
     0
300
1" = 1'-0"
140
1.0
141
12.0
290
     0
  0
SCALE
  5
BDC
102
{ACAD_REACTORS
330
BBE
102
}
330
BBE
100
AcDbScale
 70
     0
300
1-1/2" = 1'-0"
140
1.5
141
12.0
290
     0
  0
SCALE
  5
BDD
102
{ACAD_REACTORS
330
BBE
102
}
330
BBE
100
AcDbScale
 70
     0
300
3" = 1'-0"
140
3.0
141
12.0
290
     0
  0
SCALE
  5
BDE
102
{ACAD_REACTORS
330
BBE
102
}
330
BBE
100
AcDbScale
 70
     0
300
6" = 1'-0"
140
6.0
141
12.0
290
     0
  0
SCALE
  5
BDF
102
{ACAD_REACTORS
330
BBE
102
}
330
BBE
100
AcDbScale
 70
     0
300
1'-0" = 1'-0"
140
12.0
141
12.0
290
     0
  0
TABLESTYLE
  5
BE4
102
{ACAD_REACTORS
330
BE3
102
}
102
{ACAD_XDICTIONARY
360
C26
102
}
330
BE3
100
AcDbTableStyle
  3
Standard
 70
     0
 71
     0
 40
0.06
 41
0.06
280
     0
281
     0
  7
Standard
140
4.5
170
     2
 62
     0
 63
   257
283
     0
 90
        4
 91
        0
  1

274
    -2
284
     1
 64
     0
275
    -2
285
     1
 65
     0
276
    -2
286
     1
 66
     0
277
    -2
287
     1
 67
     0
278
    -2
288
     1
 68
     0
279
    -2
289
     1
 69
     0
  7
Standard
140
6.0
170
     5
 62
     0
 63
   257
283
     0
 90
        4
 91
        0
  1

274
    -2
284
     1
 64
     0
275
    -2
285
     1
 65
     0
276
    -2
286
     1
 66
     0
277
    -2
287
     1
 67
     0
278
    -2
288
     1
 68
     0
279
    -2
289
     1
 69
     0
  7
Standard
140
4.5
170
     5
 62
     0
 63
   257
283
     0
 90
        4
 91
        0
  1

274
    -2
284
     1
 64
     0
275
    -2
285
     1
 65
     0
276
    -2
286
     1
 66
     0
277
    -2
287
     1
 67
     0
278
    -2
288
     1
 68
     0
279
    -2
289
     1
 69
     0
  0
VISUALSTYLE
  5
BAA
102
{ACAD_REACTORS
330
BA5
102
}
330
BA5
100
AcDbVisualStyle
  2
2dWireframe
 70
     4
177
     3
291
     0
 70
    58
 90
        0
176
     1
 90
        2
176
     1
 90
        0
176
     1
 90
        0
176
     1
 40
0.6
176
     1
 40
30.0
176
     1
 62
     7
420
 16777215
176
     1
 90
        1
176
     1
 90
        4
176
     1
 62
     7
176
     1
 62
   257
176
     1
 90
        1
176
     1
 90
        1
176
     1
 40
1.0
176
     1
 90
        0
176
     1
 62
   257
176
     1
 40
1.0
176
     1
 90
        1
176
     1
 90
        6
176
     1
 90
        2
176
     1
 62
     7
176
     1
 90
        5
176
     1
 90
        0
176
     1
 90
        0
176
     1
290
     0
176
     1
 90
        1
176
     1
 40
0.0
176
     1
 90
        0
176
     1
290
     1
176
     1
290
     1
176
     1
290
     0
176
     1
290
     0
176
     1
290
     0
176
     1
290
     0
176
     1
290
     0
176
     1
290
     0
176
     1
290
     0
176
     1
 90
       50
176
     1
 40
0.0
176
     1
 40
1.0
176
     1
 90
        0
176
     1
 62
    18
420
        0
176
     1
 90
       50
176
     1
 90
        3
176
     1
 62
     5
420
      255
176
     1
290
     0
176
     1
 90
       50
176
     1
 90
       50
176
     1
 90
       50
176
     1
290
     0
176
     1
 90
       50
176
     1
 62
   256
176
     0
 40
1.0
176
     0
 90
        2
176
     1
  1
strokes_ogs.tif
176
     1
290
     0
176
     1
 40
1.0
176
     1
 40
1.0
176
     1
  0
VISUALSTYLE
  5
BAD
102
{ACAD_REACTORS
330
BA5
102
}
330
BA5
100
AcDbVisualStyle
  2
Basic
 70
     7
177
     3
291
     1
 70
    58
 90
        1
176
     1
 90
        0
176
     1
 90
        1
176
     1
 90
        0
176
     1
 40
0.6
176
     1
 40
30.0
176
     1
 62
     7
420
 16777215
176
     1
 90
        0
176
     1
 90
        4
176
     1
 62
     7
176
     1
 62
   257
176
     1
 90
        1
176
     1
 90
        1
176
     1
 40
1.0
176
     1
 90
        8
176
     1
 62
     7
176
     1
 40
1.0
176
     1
 90
        1
176
     1
 90
        6
176
     1
 90
        2
176
     1
 62
     7
176
     1
 90
        5
176
     1
 90
        0
176
     1
 90
        0
176
     1
290
     0
176
     1
 90
        1
176
     1
 40
0.0
176
     1
 90
        0
176
     1
290
     0
176
     1
290
     1
176
     1
290
     1
176
     1
290
     0
176
     1
290
     0
176
     1
290
     0
176
     1
290
     0
176
     1
290
     0
176
     1
290
     0
176
     1
 90
       50
176
     1
 40
0.0
176
     1
 40
1.0
176
     1
 90
        0
176
     1
 62
    18
420
        0
176
     1
 90
       50
176
     1
 90
        3
176
     1
 62
     5
420
      255
176
     1
290
     0
176
     1
 90
       50
176
     1
 90
       50
176
     1
 90
       50
176
     1
290
     0
176
     1
 90
       50
176
     1
 62
   256
176
     0
 40
1.0
176
     0
 90
        2
176
     1
  1
strokes_ogs.tif
176
     1
290
     0
176
     1
 40
1.0
176
     1
 40
1.0
176
     1
  0
VISUALSTYLE
  5
BB1
102
{ACAD_REACTORS
330
BA5
102
}
330
BA5
100
AcDbVisualStyle
  2
Brighten
 70
    12
177
     3
291
     1
 70
    58
 90
        2
176
     1
 90
        2
176
     1
 90
        0
176
     1
 90
        0
176
     1
 40
0.6
176
     1
 40
30.0
176
     1
 62
     7
420
 16777215
176
     1
 90
        1
176
     1
 90
        4
176
     1
 62
     7
176
     1
 62
   257
176
     1
 90
        1
176
     1
 90
        1
176
     1
 40
1.0
176
     1
 90
        8
176
     1
 62
     7
176
     1
 40
1.0
176
     1
 90
        1
176
     1
 90
        6
176
     1
 90
        2
176
     1
 62
     7
176
     1
 90
        5
176
     1
 90
        0
176
     1
 90
        0
176
     1
290
     0
176
     1
 90
        1
176
     1
 40
50.0
176
     1
 90
        0
176
     1
290
     0
176
     1
290
     1
176
     1
290
     1
176
     1
290
     0
176
     1
290
     0
176
     1
290
     0
176
     1
290
     0
176
     1
290
     0
176
     1
290
     0
176
     1
 90
       50
176
     1
 40
0.0
176
     1
 40
1.0
176
     1
 90
        0
176
     1
 62
    18
420
        0
176
     1
 90
       50
176
     1
 90
        3
176
     1
 62
     5
420
      255
176
     1
290
     0
176
     1
 90
       50
176
     1
 90
       50
176
     1
 90
       50
176
     1
290
     0
176
     1
 90
       50
176
     1
 62
   256
176
     0
 40
1.0
176
     0
 90
        2
176
     1
  1
strokes_ogs.tif
176
     1
290
     0
176
     1
 40
1.0
176
     1
 40
1.0
176
     1
  0
VISUALSTYLE
  5
BB5
102
{ACAD_REACTORS
330
BA5
102
}
330
BA5
100
AcDbVisualStyle
  2
ColorChange
 70
    16
177
     3
291
     1
 70
    58
 90
        2
176
     1
 90
        2
176
     1
 90
        3
176
     1
 90
        0
176
     1
 40
0.6
176
     1
 40
30.0
176
     1
 62
     8
420
  8421504
176
     1
 90
        1
176
     1
 90
        4
176
     1
 62
     7
176
     1
 62
   257
176
     1
 90
        1
176
     1
 90
        1
176
     1
 40
1.0
176
     1
 90
        8
176
     1
 62
     8
420
  8421504
176
     1
 40
1.0
176
     1
 90
        1
176
     1
 90
        6
176
     1
 90
        2
176
     1
 62
     7
176
     1
 90
        5
176
     1
 90
        0
176
     1
 90
        0
176
     1
290
     0
176
     1
 90
        1
176
     1
 40
0.0
176
     1
 90
        0
176
     1
290
     0
176
     1
290
     1
176
     1
290
     1
176
     1
290
     0
176
     1
290
     0
176
     1
290
     0
176
     1
290
     0
176
     1
290
     0
176
     1
290
     0
176
     1
 90
       50
176
     1
 40
0.0
176
     1
 40
1.0
176
     1
 90
        0
176
     1
 62
    18
420
        0
176
     1
 90
       50
176
     1
 90
        3
176
     1
 62
     5
420
      255
176
     1
290
     0
176
     1
 90
       50
176
     1
 90
       50
176
     1
 90
       50
176
     1
290
     0
176
     1
 90
       50
176
     1
 62
   256
176
     0
 40
1.0
176
     0
 90
        2
176
     1
  1
strokes_ogs.tif
176
     1
290
     0
176
     1
 40
1.0
176
     1
 40
1.0
176
     1
  0
VISUALSTYLE
  5
BAF
102
{ACAD_REACTORS
330
BA5
102
}
330
BA5
100
AcDbVisualStyle
  2
Conceptual
 70
     9
177
     3
291
     0
 70
    58
 90
        3
176
     1
 90
        2
176
     1
 90
        0
176
     1
 90
        0
176
     1
 40
0.6
176
     1
 40
30.0
176
     1
 62
     7
420
 16777215
176
     1
 90
        2
176
     1
 90
        2
176
     1
 62
     7
176
     1
 62
   257
176
     1
 90
        1
176
     1
 90
        1
176
     1
 40
179.0
176
     1
 90
        8
176
     1
 62
     7
176
     1
 40
1.0
176
     1
 90
        1
176
     1
 90
        6
176
     1
 90
        2
176
     1
 62
     7
176
     1
 90
        3
176
     1
 90
        0
176
     1
 90
        0
176
     1
290
     0
176
     1
 90
        1
176
     1
 40
0.0
176
     1
 90
        0
176
     1
290
     0
176
     1
290
     1
176
     1
290
     1
176
     1
290
     0
176
     1
290
     0
176
     1
290
     0
176
     1
290
     0
176
     1
290
     0
176
     1
290
     0
176
     1
 90
       50
176
     1
 40
0.0
176
     1
 40
1.0
176
     1
 90
        0
176
     1
 62
    18
420
        0
176
     1
 90
       50
176
     1
 90
        3
176
     1
 62
     5
420
      255
176
     1
290
     0
176
     1
 90
       50
176
     1
 90
       50
176
     1
 90
       50
176
     1
290
     0
176
     1
 90
       50
176
     1
 62
   256
176
     0
 40
1.0
176
     0
 90
        2
176
     1
  1
strokes_ogs.tif
176
     1
290
     0
176
     1
 40
1.0
176
     1
 40
1.0
176
     1
  0
VISUALSTYLE
  5
BB0
102
{ACAD_REACTORS
330
BA5
102
}
330
BA5
100
AcDbVisualStyle
  2
Dim
 70
    11
177
     3
291
     1
 70
    58
 90
        2
176
     1
 90
        2
176
     1
 90
        0
176
     1
 90
        0
176
     1
 40
0.6
176
     1
 40
30.0
176
     1
 62
     7
420
 16777215
176
     1
 90
        1
176
     1
 90
        4
176
     1
 62
     7
176
     1
 62
   257
176
     1
 90
        1
176
     1
 90
        1
176
     1
 40
1.0
176
     1
 90
        8
176
     1
 62
     7
176
     1
 40
1.0
176
     1
 90
        1
176
     1
 90
        6
176
     1
 90
        2
176
     1
 62
     7
176
     1
 90
        5
176
     1
 90
        0
176
     1
 90
        0
176
     1
290
     0
176
     1
 90
        1
176
     1
 40
-50.0
176
     1
 90
        0
176
     1
290
     0
176
     1
290
     1
176
     1
290
     1
176
     1
290
     0
176
     1
290
     0
176
     1
290
     0
176
     1
290
     0
176
     1
290
     0
176
     1
290
     0
176
     1
 90
       50
176
     1
 40
0.0
176
     1
 40
1.0
176
     1
 90
        0
176
     1
 62
    18
420
        0
176
     1
 90
       50
176
     1
 90
        3
176
     1
 62
     5
420
      255
176
     1
290
     0
176
     1
 90
       50
176
     1
 90
       50
176
     1
 90
       50
176
     1
290
     0
176
     1
 90
       50
176
     1
 62
   256
176
     0
 40
1.0
176
     0
 90
        2
176
     1
  1
strokes_ogs.tif
176
     1
290
     0
176
     1
 40
1.0
176
     1
 40
1.0
176
     1
  0
VISUALSTYLE
  5
BB8
102
{ACAD_REACTORS
330
BA5
102
}
330
BA5
100
AcDbVisualStyle
  2
EdgeColorOff
 70
    22
177
     3
291
     1
 70
    58
 90
        2
176
     0
 90
        2
176
     0
 90
        0
176
     0
 90
        0
176
     0
 40
0.6
176
     0
 40
30.0
176
     0
 62
     7
420
 16777215
176
     0
 90
        1
176
     0
 90
        4
176
     0
 62
     7
176
     0
 62
   257
176
     0
 90
        1
176
     0
 90
        1
176
     0
 40
1.0
176
     0
 90
        8
176
     2
 62
     7
176
     0
 40
1.0
176
     0
 90
        1
176
     0
 90
        6
176
     0
 90
        2
176
     0
 62
     7
176
     0
 90
        5
176
     0
 90
        0
176
     0
 90
        0
176
     0
290
     0
176
     0
 90
        1
176
     0
 40
0.0
176
     0
 90
        0
176
     0
290
     0
176
     0
290
     1
176
     0
290
     1
176
     0
290
     0
176
     0
290
     0
176
     0
290
     0
176
     0
290
     0
176
     0
290
     0
176
     0
290
     0
176
     0
 90
       50
176
     0
 40
0.0
176
     0
 40
1.0
176
     0
 90
        0
176
     0
 62
    18
420
        0
176
     0
 90
       50
176
     0
 90
        3
176
     0
 62
     5
420
      255
176
     0
290
     0
176
     0
 90
       50
176
     0
 90
       50
176
     0
 90
       50
176
     0
290
     0
176
     0
 90
       50
176
     0
 62
   256
176
     0
 40
1.0
176
     0
 90
        2
176
     0
  1
strokes_ogs.tif
176
     0
290
     0
176
     0
 40
1.0
176
     0
 40
1.0
176
     0
  0
VISUALSTYLE
  5
BB4
102
{ACAD_REACTORS
330
BA5
102
}
330
BA5
100
AcDbVisualStyle
  2
Facepattern
 70
    15
177
     3
291
     1
 70
    58
 90
        2
176
     1
 90
        2
176
     1
 90
        0
176
     1
 90
        0
176
     1
 40
0.6
176
     1
 40
30.0
176
     1
 62
     7
420
 16777215
176
     1
 90
        1
176
     1
 90
        4
176
     1
 62
     7
176
     1
 62
   257
176
     1
 90
        1
176
     1
 90
        1
176
     1
 40
1.0
176
     1
 90
        8
176
     1
 62
     7
176
     1
 40
1.0
176
     1
 90
        1
176
     1
 90
        6
176
     1
 90
        2
176
     1
 62
     7
176
     1
 90
        5
176
     1
 90
        0
176
     1
 90
        0
176
     1
290
     0
176
     1
 90
        1
176
     1
 40
0.0
176
     1
 90
        0
176
     1
290
     0
176
     1
290
     1
176
     1
290
     1
176
     1
290
     0
176
     1
290
     0
176
     1
290
     0
176
     1
290
     0
176
     1
290
     0
176
     1
290
     0
176
     1
 90
       50
176
     1
 40
0.0
176
     1
 40
1.0
176
     1
 90
        0
176
     1
 62
    18
420
        0
176
     1
 90
       50
176
     1
 90
        3
176
     1
 62
     5
420
      255
176
     1
290
     0
176
     1
 90
       50
176
     1
 90
       50
176
     1
 90
       50
176
     1
290
     0
176
     1
 90
       50
176
     1
 62
   256
176
     0
 40
1.0
176
     0
 90
        2
176
     1
  1
strokes_ogs.tif
176
     1
290
     0
176
     1
 40
1.0
176
     1
 40
1.0
176
     1
  0
VISUALSTYLE
  5
BA6
102
{ACAD_REACTORS
330
BA5
102
}
330
BA5
100
AcDbVisualStyle
  2
Flat
 70
     0
177
     3
291
     1
 70
    58
 90
        2
176
     1
 90
        1
176
     1
 90
        1
176
     1
 90
        2
176
     1
 40
0.6
176
     1
 40
30.0
176
     1
 62
     7
420
 16777215
176
     1
 90
        0
176
     1
 90
        0
176
     1
 62
     7
176
     1
 62
   257
176
     1
 90
        1
176
     1
 90
        1
176
     1
 40
1.0
176
     1
 90
        8
176
     1
 62
     7
176
     1
 40
1.0
176
     1
 90
        1
176
     1
 90
        6
176
     1
 90
        2
176
     1
 62
     7
176
     1
 90
        5
176
     1
 90
        0
176
     1
 90
        0
176
     1
290
     0
176
     1
 90
       13
176
     1
 40
0.0
176
     1
 90
        0
176
     1
290
     0
176
     1
290
     1
176
     1
290
     1
176
     1
290
     0
176
     1
290
     0
176
     1
290
     0
176
     1
290
     0
176
     1
290
     0
176
     1
290
     0
176
     1
 90
       50
176
     1
 40
0.0
176
     1
 40
1.0
176
     1
 90
        0
176
     1
 62
    18
420
        0
176
     1
 90
       50
176
     1
 90
        3
176
     1
 62
     5
420
      255
176
     1
290
     0
176
     1
 90
       50
176
     1
 90
       50
176
     1
 90
       50
176
     1
290
     0
176
     1
 90
       50
176
     1
 62
   256
176
     0
 40
1.0
176
     0
 90
        2
176
     1
  1
strokes_ogs.tif
176
     1
290
     0
176
     1
 40
1.0
176
     1
 40
1.0
176
     1
  0
VISUALSTYLE
  5
BA7
102
{ACAD_REACTORS
330
BA5
102
}
330
BA5
100
AcDbVisualStyle
  2
FlatWithEdges
 70
     1
177
     3
291
     1
 70
    58
 90
        2
176
     1
 90
        1
176
     1
 90
        1
176
     1
 90
        2
176
     1
 40
0.6
176
     1
 40
30.0
176
     1
 62
     7
420
 16777215
176
     1
 90
        1
176
     1
 90
        0
176
     1
 62
     7
176
     1
 62
   257
176
     1
 90
        1
176
     1
 90
        1
176
     1
 40
1.0
176
     1
 90
        0
176
     1
 62
   257
176
     1
 40
1.0
176
     1
 90
        1
176
     1
 90
        6
176
     1
 90
        2
176
     1
 62
     7
176
     1
 90
        5
176
     1
 90
        0
176
     1
 90
        0
176
     1
290
     0
176
     1
 90
       13
176
     1
 40
0.0
176
     1
 90
        0
176
     1
290
     0
176
     1
290
     1
176
     1
290
     1
176
     1
290
     0
176
     1
290
     0
176
     1
290
     0
176
     1
290
     0
176
     1
290
     0
176
     1
290
     0
176
     1
 90
       50
176
     1
 40
0.0
176
     1
 40
1.0
176
     1
 90
        0
176
     1
 62
    18
420
        0
176
     1
 90
       50
176
     1
 90
        3
176
     1
 62
     5
420
      255
176
     1
290
     0
176
     1
 90
       50
176
     1
 90
       50
176
     1
 90
       50
176
     1
290
     0
176
     1
 90
       50
176
     1
 62
   256
176
     0
 40
1.0
176
     0
 90
        2
176
     1
  1
strokes_ogs.tif
176
     1
290
     0
176
     1
 40
1.0
176
     1
 40
1.0
176
     1
  0
VISUALSTYLE
  5
BA8
102
{ACAD_REACTORS
330
BA5
102
}
330
BA5
100
AcDbVisualStyle
  2
Gouraud
 70
     2
177
     3
291
     1
 70
    58
 90
        2
176
     1
 90
        2
176
     1
 90
        1
176
     1
 90
        2
176
     1
 40
0.6
176
     1
 40
30.0
176
     1
 62
     7
420
 16777215
176
     1
 90
        0
176
     1
 90
        0
176
     1
 62
     7
176
     1
 62
   257
176
     1
 90
        1
176
     1
 90
        1
176
     1
 40
1.0
176
     1
 90
        0
176
     1
 62
     7
176
     1
 40
1.0
176
     1
 90
        1
176
     1
 90
        6
176
     1
 90
        2
176
     1
 62
     7
176
     1
 90
        5
176
     1
 90
        0
176
     1
 90
        0
176
     1
290
     0
176
     1
 90
       13
176
     1
 40
0.0
176
     1
 90
        0
176
     1
290
     0
176
     1
290
     1
176
     1
290
     1
176
     1
290
     0
176
     1
290
     0
176
     1
290
     0
176
     1
290
     0
176
     1
290
     0
176
     1
290
     0
176
     1
 90
       50
176
     1
 40
0.0
176
     1
 40
1.0
176
     1
 90
        0
176
     1
 62
    18
420
        0
176
     1
 90
       50
176
     1
 90
        3
176
     1
 62
     5
420
      255
176
     1
290
     0
176
     1
 90
       50
176
     1
 90
       50
176
     1
 90
       50
176
     1
290
     0
176
     1
 90
       50
176
     1
 62
   256
176
     0
 40
1.0
176
     0
 90
        2
176
     1
  1
strokes_ogs.tif
176
     1
290
     0
176
     1
 40
1.0
176
     1
 40
1.0
176
     1
  0
VISUALSTYLE
  5
BA9
102
{ACAD_REACTORS
330
BA5
102
}
330
BA5
100
AcDbVisualStyle
  2
GouraudWithEdges
 70
     3
177
     3
291
     1
 70
    58
 90
        2
176
     1
 90
        2
176
     1
 90
        1
176
     1
 90
        2
176
     1
 40
0.6
176
     1
 40
30.0
176
     1
 62
     7
420
 16777215
176
     1
 90
        1
176
     1
 90
        0
176
     1
 62
     7
176
     1
 62
   257
176
     1
 90
        1
176
     1
 90
        1
176
     1
 40
1.0
176
     1
 90
        0
176
     1
 62
   257
176
     1
 40
1.0
176
     1
 90
        1
176
     1
 90
        6
176
     1
 90
        2
176
     1
 62
     7
176
     1
 90
        5
176
     1
 90
        0
176
     1
 90
        0
176
     1
290
     0
176
     1
 90
       13
176
     1
 40
0.0
176
     1
 90
        0
176
     1
290
     0
176
     1
290
     1
176
     1
290
     1
176
     1
290
     0
176
     1
290
     0
176
     1
290
     0
176
     1
290
     0
176
     1
290
     0
176
     1
290
     0
176
     1
 90
       50
176
     1
 40
0.0
176
     1
 40
1.0
176
     1
 90
        0
176
     1
 62
    18
420
        0
176
     1
 90
       50
176
     1
 90
        3
176
     1
 62
     5
420
      255
176
     1
290
     0
176
     1
 90
       50
176
     1
 90
       50
176
     1
 90
       50
176
     1
290
     0
176
     1
 90
       50
176
     1
 62
   256
176
     0
 40
1.0
176
     0
 90
        2
176
     1
  1
strokes_ogs.tif
176
     1
290
     0
176
     1
 40
1.0
176
     1
 40
1.0
176
     1
  0
VISUALSTYLE
  5
BAC
102
{ACAD_REACTORS
330
BA5
102
}
330
BA5
100
AcDbVisualStyle
  2
Hidden
 70
     6
177
     3
291
     0
 70
    58
 90
        1
176
     1
 90
        2
176
     1
 90
        2
176
     1
 90
        0
176
     1
 40
0.6
176
     1
 40
30.0
176
     1
 62
     7
420
 16777215
176
     1
 90
        2
176
     1
 90
        2
176
     1
 62
     7
176
     1
 62
   257
176
     1
 90
        2
176
     1
 90
        1
176
     1
 40
40.0
176
     1
 90
        0
176
     1
 62
   257
176
     1
 40
1.0
176
     1
 90
        1
176
     1
 90
        6
176
     1
 90
        2
176
     1
 62
     7
176
     1
 90
        3
176
     1
 90
        0
176
     1
 90
        0
176
     1
290
     0
176
     1
 90
        1
176
     1
 40
0.0
176
     1
 90
        0
176
     1
290
     0
176
     1
290
     1
176
     1
290
     1
176
     1
290
     0
176
     1
290
     0
176
     1
290
     0
176
     1
290
     0
176
     1
290
     0
176
     1
290
     0
176
     1
 90
       50
176
     1
 40
0.0
176
     1
 40
1.0
176
     1
 90
        0
176
     1
 62
    18
420
        0
176
     1
 90
       50
176
     1
 90
        3
176
     1
 62
     5
420
      255
176
     1
290
     0
176
     1
 90
       50
176
     1
 90
       50
176
     1
 90
       50
176
     1
290
     0
176
     1
 90
       50
176
     1
 62
   256
176
     0
 40
1.0
176
     0
 90
        2
176
     1
  1
strokes_ogs.tif
176
     1
290
     0
176
     1
 40
1.0
176
     1
 40
1.0
176
     1
  0
VISUALSTYLE
  5
BB6
102
{ACAD_REACTORS
330
BA5
102
}
330
BA5
100
AcDbVisualStyle
  2
JitterOff
 70
    20
177
     3
291
     1
 70
    58
 90
        2
176
     0
 90
        2
176
     0
 90
        0
176
     0
 90
        0
176
     0
 40
0.6
176
     0
 40
30.0
176
     0
 62
     7
420
 16777215
176
     0
 90
        1
176
     0
 90
        4
176
     0
 62
     7
176
     0
 62
   257
176
     0
 90
        1
176
     0
 90
        1
176
     0
 40
1.0
176
     0
 90
       10
176
     2
 62
     7
176
     0
 40
1.0
176
     0
 90
        1
176
     0
 90
        6
176
     0
 90
        2
176
     0
 62
     7
176
     0
 90
        5
176
     0
 90
        0
176
     0
 90
        0
176
     0
290
     0
176
     0
 90
        1
176
     0
 40
0.0
176
     0
 90
        0
176
     0
290
     0
176
     0
290
     1
176
     0
290
     1
176
     0
290
     0
176
     0
290
     0
176
     0
290
     0
176
     0
290
     0
176
     0
290
     0
176
     0
290
     0
176
     0
 90
       50
176
     0
 40
0.0
176
     0
 40
1.0
176
     0
 90
        0
176
     0
 62
    18
420
        0
176
     0
 90
       50
176
     0
 90
        3
176
     0
 62
     5
420
      255
176
     0
290
     0
176
     0
 90
       50
176
     0
 90
       50
176
     0
 90
       50
176
     0
290
     0
176
     0
 90
       50
176
     0
 62
   256
176
     0
 40
1.0
176
     0
 90
        2
176
     0
  1
strokes_ogs.tif
176
     0
290
     0
176
     0
 40
1.0
176
     0
 40
1.0
176
     0
  0
VISUALSTYLE
  5
BB3
102
{ACAD_REACTORS
330
BA5
102
}
330
BA5
100
AcDbVisualStyle
  2
Linepattern
 70
    14
177
     3
291
     1
 70
    58
 90
        2
176
     1
 90
        2
176
     1
 90
        0
176
     1
 90
        0
176
     1
 40
0.6
176
     1
 40
30.0
176
     1
 62
     7
420
 16777215
176
     1
 90
        1
176
     1
 90
        4
176
     1
 62
     7
176
     1
 62
   257
176
     1
 90
        7
176
     1
 90
        7
176
     1
 40
1.0
176
     1
 90
        8
176
     1
 62
     7
176
     1
 40
1.0
176
     1
 90
        1
176
     1
 90
        6
176
     1
 90
        2
176
     1
 62
     7
176
     1
 90
        5
176
     1
 90
        0
176
     1
 90
        0
176
     1
290
     0
176
     1
 90
        1
176
     1
 40
0.0
176
     1
 90
        0
176
     1
290
     0
176
     1
290
     1
176
     1
290
     1
176
     1
290
     0
176
     1
290
     0
176
     1
290
     0
176
     1
290
     0
176
     1
290
     0
176
     1
290
     0
176
     1
 90
       50
176
     1
 40
0.0
176
     1
 40
1.0
176
     1
 90
        0
176
     1
 62
    18
420
        0
176
     1
 90
       50
176
     1
 90
        3
176
     1
 62
     5
420
      255
176
     1
290
     0
176
     1
 90
       50
176
     1
 90
       50
176
     1
 90
       50
176
     1
290
     0
176
     1
 90
       50
176
     1
 62
   256
176
     0
 40
1.0
176
     0
 90
        2
176
     1
  1
strokes_ogs.tif
176
     1
290
     0
176
     1
 40
1.0
176
     1
 40
1.0
176
     1
  0
VISUALSTYLE
  5
BB7
102
{ACAD_REACTORS
330
BA5
102
}
330
BA5
100
AcDbVisualStyle
  2
OverhangOff
 70
    21
177
     3
291
     1
 70
    58
 90
        2
176
     0
 90
        2
176
     0
 90
        0
176
     0
 90
        0
176
     0
 40
0.6
176
     0
 40
30.0
176
     0
 62
     7
420
 16777215
176
     0
 90
        1
176
     0
 90
        4
176
     0
 62
     7
176
     0
 62
   257
176
     0
 90
        1
176
     0
 90
        1
176
     0
 40
1.0
176
     0
 90
        9
176
     2
 62
     7
176
     0
 40
1.0
176
     0
 90
        1
176
     0
 90
        6
176
     0
 90
        2
176
     0
 62
     7
176
     0
 90
        5
176
     0
 90
        0
176
     0
 90
        0
176
     0
290
     0
176
     0
 90
        1
176
     0
 40
0.0
176
     0
 90
        0
176
     0
290
     0
176
     0
290
     1
176
     0
290
     1
176
     0
290
     0
176
     0
290
     0
176
     0
290
     0
176
     0
290
     0
176
     0
290
     0
176
     0
290
     0
176
     0
 90
       50
176
     0
 40
0.0
176
     0
 40
1.0
176
     0
 90
        0
176
     0
 62
    18
420
        0
176
     0
 90
       50
176
     0
 90
        3
176
     0
 62
     5
420
      255
176
     0
290
     0
176
     0
 90
       50
176
     0
 90
       50
176
     0
 90
       50
176
     0
290
     0
176
     0
 90
       50
176
     0
 62
   256
176
     0
 40
1.0
176
     0
 90
        2
176
     0
  1
strokes_ogs.tif
176
     0
290
     0
176
     0
 40
1.0
176
     0
 40
1.0
176
     0
  0
VISUALSTYLE
  5
BAE
102
{ACAD_REACTORS
330
BA5
102
}
330
BA5
100
AcDbVisualStyle
  2
Realistic
 70
     8
177
     3
291
     0
 70
    58
 90
        2
176
     1
 90
        3
176
     1
 90
        0
176
     1
 90
        2
176
     1
 40
0.6
176
     1
 40
30.0
176
     1
 62
     7
420
 16777215
176
     1
 90
        0
176
     1
 90
        0
176
     1
 62
     7
176
     1
 62
   257
176
     1
 90
        1
176
     1
 90
        1
176
     1
 40
1.0
176
     1
 90
        8
176
     1
 62
   257
176
     1
 40
1.0
176
     1
 90
        1
176
     1
 90
        6
176
     1
 90
        2
176
     1
 62
     7
176
     1
 90
        3
176
     1
 90
        0
176
     1
 90
        0
176
     1
290
     0
176
     1
 90
       13
176
     1
 40
0.0
176
     1
 90
        0
176
     1
290
     0
176
     1
290
     1
176
     1
290
     1
176
     1
290
     0
176
     1
290
     0
176
     1
290
     0
176
     1
290
     0
176
     1
290
     0
176
     1
290
     0
176
     1
 90
       50
176
     1
 40
0.0
176
     1
 40
1.0
176
     1
 90
        0
176
     1
 62
    18
420
        0
176
     1
 90
       50
176
     1
 90
        3
176
     1
 62
     5
420
      255
176
     1
290
     0
176
     1
 90
       50
176
     1
 90
       50
176
     1
 90
       50
176
     1
290
     0
176
     1
 90
       50
176
     1
 62
   256
176
     0
 40
1.0
176
     0
 90
        2
176
     1
  1
strokes_ogs.tif
176
     1
290
     0
176
     1
 40
1.0
176
     1
 40
1.0
176
     1
  0
VISUALSTYLE
  5
BBD
102
{ACAD_REACTORS
330
BA5
102
}
330
BA5
100
AcDbVisualStyle
  2
Shaded
 70
    27
177
     3
291
     0
 70
    58
 90
        2
176
     1
 90
        2
176
     1
 90
        1
176
     1
 90
        2
176
     1
 40
0.6
176
     1
 40
30.0
176
     1
 62
     7
420
 16777215
176
     1
 90
        0
176
     1
 90
        4
176
     1
 62
     7
176
     1
 62
   257
176
     1
 90
        1
176
     1
 90
        1
176
     1
 40
1.0
176
     1
 90
        8
176
     1
 62
   257
176
     1
 40
1.0
176
     1
 90
        1
176
     1
 90
        6
176
     1
 90
        2
176
     1
 62
     8
420
  7895160
176
     1
 90
        3
176
     1
 90
        0
176
     1
 90
        0
176
     1
290
     0
176
     1
 90
        5
176
     1
 40
0.0
176
     1
 90
        0
176
     1
290
     0
176
     1
290
     1
176
     1
290
     1
176
     1
290
     0
176
     1
290
     0
176
     1
290
     0
176
     1
290
     0
176
     1
290
     0
176
     1
290
     0
176
     1
 90
       50
176
     1
 40
0.0
176
     1
 40
1.0
176
     1
 90
        0
176
     1
 62
    18
420
        0
176
     1
 90
       50
176
     1
 90
        3
176
     1
 62
     5
420
      255
176
     1
290
     0
176
     1
 90
       50
176
     1
 90
       50
176
     1
 90
       50
176
     1
290
     0
176
     1
 90
       50
176
     1
 62
   256
176
     0
 40
1.0
176
     0
 90
        2
176
     1
  1
strokes_ogs.tif
176
     1
290
     0
176
     1
 40
1.0
176
     1
 40
1.0
176
     1
  0
VISUALSTYLE
  5
BBC
102
{ACAD_REACTORS
330
BA5
102
}
330
BA5
100
AcDbVisualStyle
  2
Shaded with edges
 70
    26
177
     3
291
     0
 70
    58
 90
        2
176
     1
 90
        2
176
     1
 90
        1
176
     1
 90
        2
176
     1
 40
0.6
176
     1
 40
30.0
176
     1
 62
     7
420
 16777215
176
     1
 90
        1
176
     1
 90
       10
176
     1
 62
     7
176
     1
 62
   257
176
     1
 90
        2
176
     1
 90
        1
176
     1
 40
1.0
176
     1
 90
        8
176
     1
 62
   257
176
     1
 40
1.0
176
     1
 90
        1
176
     1
 90
        6
176
     1
 90
        2
176
     1
 62
     7
176
     1
 90
        3
176
     1
 90
        0
176
     1
 90
        0
176
     1
290
     0
176
     1
 90
        5
176
     1
 40
0.0
176
     1
 90
        0
176
     1
290
     0
176
     1
290
     1
176
     1
290
     1
176
     1
290
     0
176
     1
290
     0
176
     1
290
     0
176
     1
290
     0
176
     1
290
     0
176
     1
290
     0
176
     1
 90
       50
176
     1
 40
0.0
176
     1
 40
1.0
176
     1
 90
        0
176
     1
 62
    18
420
        0
176
     1
 90
       50
176
     1
 90
        3
176
     1
 62
     5
420
      255
176
     1
290
     0
176
     1
 90
       50
176
     1
 90
       50
176
     1
 90
       50
176
     1
290
     0
176
     1
 90
       50
176
     1
 62
   256
176
     0
 40
1.0
176
     0
 90
        2
176
     1
  1
strokes_ogs.tif
176
     1
290
     0
176
     1
 40
1.0
176
     1
 40
1.0
176
     1
  0
VISUALSTYLE
  5
BB9
102
{ACAD_REACTORS
330
BA5
102
}
330
BA5
100
AcDbVisualStyle
  2
Shades of Gray
 70
    23
177
     3
291
     0
 70
    58
 90
        2
176
     1
 90
        2
176
     1
 90
        3
176
     1
 90
        0
176
     1
 40
0.6
176
     1
 40
30.0
176
     1
 62
     7
420
 16777215
176
     1
 90
        2
176
     1
 90
        2
176
     1
 62
     7
176
     1
 62
     7
176
     1
 90
        1
176
     1
 90
        1
176
     1
 40
40.0
176
     1
 90
        8
176
     1
 62
     7
176
     1
 40
1.0
176
     1
 90
        1
176
     1
 90
        6
176
     1
 90
        2
176
     1
 62
     7
176
     1
 90
        3
176
     1
 90
        0
176
     1
 90
        0
176
     1
290
     0
176
     1
 90
        1
176
     1
 40
0.0
176
     1
 90
        0
176
     1
290
     0
176
     1
290
     1
176
     1
290
     1
176
     1
290
     0
176
     1
290
     0
176
     1
290
     0
176
     1
290
     0
176
     1
290
     0
176
     1
290
     0
176
     1
 90
       50
176
     1
 40
0.0
176
     1
 40
1.0
176
     1
 90
        0
176
     1
 62
    18
420
        0
176
     1
 90
       50
176
     1
 90
        3
176
     1
 62
     5
420
      255
176
     1
290
     0
176
     1
 90
       50
176
     1
 90
       50
176
     1
 90
       50
176
     1
290
     0
176
     1
 90
       50
176
     1
 62
   256
176
     0
 40
1.0
176
     0
 90
        2
176
     1
  1
strokes_ogs.tif
176
     1
290
     0
176
     1
 40
1.0
176
     1
 40
1.0
176
     1
  0
VISUALSTYLE
  5
BBA
102
{ACAD_REACTORS
330
BA5
102
}
330
BA5
100
AcDbVisualStyle
  2
Sketchy
 70
    24
177
     3
291
     0
 70
    58
 90
        1
176
     1
 90
        2
176
     1
 90
        2
176
     1
 90
        0
176
     1
 40
0.6
176
     1
 40
30.0
176
     1
 62
     7
420
 16777215
176
     1
 90
        2
176
     1
 90
        2
176
     1
 62
     7
176
     1
 62
     7
176
     1
 90
        1
176
     1
 90
        1
176
     1
 40
40.0
176
     1
 90
       11
176
     1
 62
     7
176
     1
 40
1.0
176
     1
 90
        1
176
     1
 90
        6
176
     1
 90
        2
176
     1
 62
     7
176
     1
 90
        6
176
     1
 90
        0
176
     1
 90
        0
176
     1
290
     0
176
     1
 90
        1
176
     1
 40
0.0
176
     1
 90
        0
176
     1
290
     0
176
     1
290
     1
176
     1
290
     1
176
     1
290
     0
176
     1
290
     0
176
     1
290
     0
176
     1
290
     0
176
     1
290
     0
176
     1
290
     0
176
     1
 90
       50
176
     1
 40
0.0
176
     1
 40
1.0
176
     1
 90
        0
176
     1
 62
    18
420
        0
176
     1
 90
       50
176
     1
 90
        3
176
     1
 62
     5
420
      255
176
     1
290
     0
176
     1
 90
       50
176
     1
 90
       50
176
     1
 90
       50
176
     1
290
     0
176
     1
 90
       50
176
     1
 62
   256
176
     0
 40
1.0
176
     0
 90
        2
176
     1
  1
strokes_ogs.tif
176
     1
290
     0
176
     1
 40
1.0
176
     1
 40
1.0
176
     1
  0
VISUALSTYLE
  5
BB2
102
{ACAD_REACTORS
330
BA5
102
}
330
BA5
100
AcDbVisualStyle
  2
Thicken
 70
    13
177
     3
291
     1
 70
    58
 90
        2
176
     1
 90
        2
176
     1
 90
        0
176
     1
 90
        0
176
     1
 40
0.6
176
     1
 40
30.0
176
     1
 62
     7
420
 16777215
176
     1
 90
        1
176
     1
 90
        4
176
     1
 62
     7
176
     1
 62
   257
176
     1
 90
        1
176
     1
 90
        1
176
     1
 40
1.0
176
     1
 90
       12
176
     1
 62
     7
176
     1
 40
1.0
176
     1
 90
        1
176
     1
 90
        6
176
     1
 90
        2
176
     1
 62
     7
176
     1
 90
        5
176
     1
 90
        0
176
     1
 90
        0
176
     1
290
     0
176
     1
 90
        1
176
     1
 40
0.0
176
     1
 90
        0
176
     1
290
     0
176
     1
290
     1
176
     1
290
     1
176
     1
290
     0
176
     1
290
     0
176
     1
290
     0
176
     1
290
     0
176
     1
290
     0
176
     1
290
     0
176
     1
 90
       50
176
     1
 40
0.0
176
     1
 40
1.0
176
     1
 90
        0
176
     1
 62
    18
420
        0
176
     1
 90
       50
176
     1
 90
        3
176
     1
 62
     5
420
      255
176
     1
290
     0
176
     1
 90
       50
176
     1
 90
       50
176
     1
 90
       50
176
     1
290
     0
176
     1
 90
       50
176
     1
 62
   256
176
     0
 40
1.0
176
     0
 90
        2
176
     1
  1
strokes_ogs.tif
176
     1
290
     0
176
     1
 40
1.0
176
     1
 40
1.0
176
     1
  0
VISUALSTYLE
  5
BAB
102
{ACAD_REACTORS
330
BA5
102
}
330
BA5
100
AcDbVisualStyle
  2
Wireframe
 70
     5
177
     3
291
     0
 70
    58
 90
        0
176
     1
 90
        2
176
     1
 90
        0
176
     1
 90
        0
176
     1
 40
0.6
176
     1
 40
30.0
176
     1
 62
     7
420
 16777215
176
     1
 90
        1
176
     1
 90
        4
176
     1
 62
     7
176
     1
 62
   257
176
     1
 90
        1
176
     1
 90
        1
176
     1
 40
1.0
176
     1
 90
        0
176
     1
 62
   257
176
     1
 40
1.0
176
     1
 90
        1
176
     1
 90
        6
176
     1
 90
        2
176
     1
 62
     7
176
     1
 90
        3
176
     1
 90
        0
176
     1
 90
        0
176
     1
290
     0
176
     1
 90
        1
176
     1
 40
0.0
176
     1
 90
        0
176
     1
290
     0
176
     1
290
     1
176
     1
290
     1
176
     1
290
     0
176
     1
290
     0
176
     1
290
     0
176
     1
290
     0
176
     1
290
     0
176
     1
290
     0
176
     1
 90
       50
176
     1
 40
0.0
176
     1
 40
1.0
176
     1
 90
        0
176
     1
 62
    18
420
        0
176
     1
 90
       50
176
     1
 90
        3
176
     1
 62
     5
420
      255
176
     1
290
     0
176
     1
 90
       50
176
     1
 90
       50
176
     1
 90
       50
176
     1
290
     0
176
     1
 90
       50
176
     1
 62
   256
176
     0
 40
1.0
176
     0
 90
        2
176
     1
  1
strokes_ogs.tif
176
     1
290
     0
176
     1
 40
1.0
176
     1
 40
1.0
176
     1
  0
VISUALSTYLE
  5
BBB
102
{ACAD_REACTORS
330
BA5
102
}
330
BA5
100
AcDbVisualStyle
  2
X-Ray
 70
    25
177
     3
291
     0
 70
    58
 90
        2
176
     1
 90
        2
176
     1
 90
        1
176
     1
 90
        1
176
     1
 40
0.5
176
     1
 40
30.0
176
     1
 62
     7
420
 16777215
176
     1
 90
        1
176
     1
 90
        0
176
     1
 62
     7
176
     1
 62
   257
176
     1
 90
        1
176
     1
 90
        1
176
     1
 40
1.0
176
     1
 90
        8
176
     1
 62
     7
176
     1
 40
1.0
176
     1
 90
        1
176
     1
 90
        6
176
     1
 90
        2
176
     1
 62
     7
176
     1
 90
        3
176
     1
 90
        0
176
     1
 90
        0
176
     1
290
     0
176
     1
 90
       13
176
     1
 40
0.0
176
     1
 90
        0
176
     1
290
     0
176
     1
290
     1
176
     1
290
     1
176
     1
290
     0
176
     1
290
     0
176
     1
290
     0
176
     1
290
     0
176
     1
290
     0
176
     1
290
     0
176
     1
 90
       50
176
     1
 40
0.0
176
     1
 40
1.0
176
     1
 90
        0
176
     1
 62
    18
420
        0
176
     1
 90
       50
176
     1
 90
        3
176
     1
 62
     5
420
      255
176
     1
290
     0
176
     1
 90
       50
176
     1
 90
       50
176
     1
 90
       50
176
     1
290
     0
176
     1
 90
       50
176
     1
 62
   256
176
     0
 40
1.0
176
     0
 90
        2
176
     1
  1
strokes_ogs.tif
176
     1
290
     0
176
     1
 40
1.0
176
     1
 40
1.0
176
     1
  0
DICTIONARYVAR
  5
BE9
102
{ACAD_REACTORS
330
BE8
102
}
330
BE8
100
DictionaryVariables
280
     0
  1
1:1
  0
DICTIONARYVAR
  5
BED
102
{ACAD_REACTORS
330
BE8
102
}
330
BE8
100
DictionaryVariables
280
     0
  1
Standard
  0
DICTIONARYVAR
  5
BEF
102
{ACAD_REACTORS
330
BE8
102
}
330
BE8
100
DictionaryVariables
280
     0
  1
0
  0
DICTIONARYVAR
  5
BF0
102
{ACAD_REACTORS
330
BE8
102
}
330
BE8
100
DictionaryVariables
280
     0
  1
0
  0
DICTIONARY
  5
C26
330
BE4
100
AcDbDictionary
280
     1
281
     1
  3
ACAD_ROUNDTRIP_2008_TABLESTYLE_CELLSTYLEMAP
360
C27
  0
CELLSTYLEMAP
  5
C27
102
{ACAD_REACTORS
330
C26
102
}
330
C26
100
AcDbCellStyleMap
 90
        3
300
CELLSTYLE
  1
TABLEFORMAT_BEGIN
 90
        5
170
     1
 91
        0
 92
        0
 62
   257
 93
        1
300
CONTENTFORMAT
  1
CONTENTFORMAT_BEGIN
 90
        0
 91
        0
 92
        4
 93
        0
300

 40
0.0
140
1.0
 94
        5
 62
     0
340
11
144
6.0
309
CONTENTFORMAT_END
171
     1
301
MARGIN
  1
CELLMARGIN_BEGIN
 40
1.5
 40
1.5
 40
1.5
 40
1.5
 40
1.5
 40
1.5
309
CELLMARGIN_END
 94
        6
 95
        1
302
GRIDFORMAT
  1
GRIDFORMAT_BEGIN
 90
        0
 91
        1
 62
     0
 92
       -2
340
14
 93
        0
 40
0.045
309
GRIDFORMAT_END
 95
        2
302
GRIDFORMAT
  1
GRIDFORMAT_BEGIN
 90
        0
 91
        1
 62
     0
 92
       -2
340
14
 93
        0
 40
0.045
309
GRIDFORMAT_END
 95
        4
302
GRIDFORMAT
  1
GRIDFORMAT_BEGIN
 90
        0
 91
        1
 62
     0
 92
       -2
340
14
 93
        0
 40
0.045
309
GRIDFORMAT_END
 95
        8
302
GRIDFORMAT
  1
GRIDFORMAT_BEGIN
 90
        0
 91
        1
 62
     0
 92
       -2
340
14
 93
        0
 40
0.045
309
GRIDFORMAT_END
 95
       16
302
GRIDFORMAT
  1
GRIDFORMAT_BEGIN
 90
        0
 91
        1
 62
     0
 92
       -2
340
14
 93
        0
 40
0.045
309
GRIDFORMAT_END
 95
       32
302
GRIDFORMAT
  1
GRIDFORMAT_BEGIN
 90
        0
 91
        1
 62
     0
 92
       -2
340
14
 93
        0
 40
0.045
309
GRIDFORMAT_END
309
TABLEFORMAT_END
  1
CELLSTYLE_BEGIN
 90
        1
 91
        1
300
_TITLE
309
CELLSTYLE_END
300
CELLSTYLE
  1
TABLEFORMAT_BEGIN
 90
        5
170
     1
 91
        0
 92
        0
 62
   257
 93
        1
300
CONTENTFORMAT
  1
CONTENTFORMAT_BEGIN
 90
        0
 91
        0
 92
        4
 93
        0
300

 40
0.0
140
1.0
 94
        5
 62
     0
340
11
144
4.5
309
CONTENTFORMAT_END
171
     1
301
MARGIN
  1
CELLMARGIN_BEGIN
 40
1.5
 40
1.5
 40
1.5
 40
1.5
 40
1.5
 40
1.5
309
CELLMARGIN_END
 94
        6
 95
        1
302
GRIDFORMAT
  1
GRIDFORMAT_BEGIN
 90
        0
 91
        1
 62
     0
 92
       -2
340
14
 93
        0
 40
0.045
309
GRIDFORMAT_END
 95
        2
302
GRIDFORMAT
  1
GRIDFORMAT_BEGIN
 90
        0
 91
        1
 62
     0
 92
       -2
340
14
 93
        0
 40
0.045
309
GRIDFORMAT_END
 95
        4
302
GRIDFORMAT
  1
GRIDFORMAT_BEGIN
 90
        0
 91
        1
 62
     0
 92
       -2
340
14
 93
        0
 40
0.045
309
GRIDFORMAT_END
 95
        8
302
GRIDFORMAT
  1
GRIDFORMAT_BEGIN
 90
        0
 91
        1
 62
     0
 92
       -2
340
14
 93
        0
 40
0.045
309
GRIDFORMAT_END
 95
       16
302
GRIDFORMAT
  1
GRIDFORMAT_BEGIN
 90
        0
 91
        1
 62
     0
 92
       -2
340
14
 93
        0
 40
0.045
309
GRIDFORMAT_END
 95
       32
302
GRIDFORMAT
  1
GRIDFORMAT_BEGIN
 90
        0
 91
        1
 62
     0
 92
       -2
340
14
 93
        0
 40
0.045
309
GRIDFORMAT_END
309
TABLEFORMAT_END
  1
CELLSTYLE_BEGIN
 90
        2
 91
        1
300
_HEADER
309
CELLSTYLE_END
300
CELLSTYLE
  1
TABLEFORMAT_BEGIN
 90
        5
170
     1
 91
        0
 92
        0
 62
   257
 93
        1
300
CONTENTFORMAT
  1
CONTENTFORMAT_BEGIN
 90
        0
 91
        0
 92
        4
 93
        0
300

 40
0.0
140
1.0
 94
        2
 62
     0
340
11
144
4.5
309
CONTENTFORMAT_END
171
     1
301
MARGIN
  1
CELLMARGIN_BEGIN
 40
1.5
 40
1.5
 40
1.5
 40
1.5
 40
1.5
 40
1.5
309
CELLMARGIN_END
 94
        6
 95
        1
302
GRIDFORMAT
  1
GRIDFORMAT_BEGIN
 90
        0
 91
        1
 62
     0
 92
       -2
340
14
 93
        0
 40
0.045
309
GRIDFORMAT_END
 95
        2
302
GRIDFORMAT
  1
GRIDFORMAT_BEGIN
 90
        0
 91
        1
 62
     0
 92
       -2
340
14
 93
        0
 40
0.045
309
GRIDFORMAT_END
 95
        4
302
GRIDFORMAT
  1
GRIDFORMAT_BEGIN
 90
        0
 91
        1
 62
     0
 92
       -2
340
14
 93
        0
 40
0.045
309
GRIDFORMAT_END
 95
        8
302
GRIDFORMAT
  1
GRIDFORMAT_BEGIN
 90
        0
 91
        1
 62
     0
 92
       -2
340
14
 93
        0
 40
0.045
309
GRIDFORMAT_END
 95
       16
302
GRIDFORMAT
  1
GRIDFORMAT_BEGIN
 90
        0
 91
        1
 62
     0
 92
       -2
340
14
 93
        0
 40
0.045
309
GRIDFORMAT_END
 95
       32
302
GRIDFORMAT
  1
GRIDFORMAT_BEGIN
 90
        0
 91
        1
 62
     0
 92
       -2
340
14
 93
        0
 40
0.045
309
GRIDFORMAT_END
309
TABLEFORMAT_END
  1
CELLSTYLE_BEGIN
 90
        3
 91
        2
300
_DATA
309
CELLSTYLE_END
  0
ENDSEC
  0
EOF
