  0
SECTION
  2
HEADER
  9
$ACADVER
  1
AC1027
  9
$ACADMAINTVER
 70
     8
  9
$DWGCODEPAGE
  3
ANSI_932
  9
$REQUIREDVERSIONS
160
                 0
  9
$LASTSAVEDBY
  1
Yasu
  9
$INSBASE
 10
0.0
 20
0.0
 30
0.0
  9
$EXTMIN
 10
32.95364367774614
 20
41.26821672406129
 30
0.0
  9
$EXTMAX
 10
257.1004112815915
 20
211.5215236038422
 30
0.0
  9
$LIMMIN
 10
0.0
 20
0.0
  9
$LIMMAX
 10
420.0
 20
297.0
  9
$ORTHOMODE
 70
     0
  9
$REGENMODE
 70
     1
  9
$FILLMODE
 70
     1
  9
$QTEXTMODE
 70
     0
  9
$MIRRTEXT
 70
     0
  9
$LTSCALE
 40
0.2
  9
$ATTMODE
 70
     1
  9
$TEXTSIZE
 40
3.0
  9
$TRACEWID
 40
1.0
  9
$TEXTSTYLE
  7
Standard
  9
$CLAYER
  8
実線
  9
$CELTYPE
  6
ByLayer
  9
$CECOLOR
 62
   256
  9
$CELTSCALE
 40
1.0
  9
$DISPSILH
 70
     0
  9
$DIMSCALE
 40
1.0
  9
$DIMASZ
 40
2.5
  9
$DIMEXO
 40
0.625
  9
$DIMDLI
 40
3.75
  9
$DIMRND
 40
0.0
  9
$DIMDLE
 40
0.0
  9
$DIMEXE
 40
1.25
  9
$DIMTP
 40
0.0
  9
$DIMTM
 40
0.0
  9
$DIMTXT
 40
2.5
  9
$DIMCEN
 40
2.5
  9
$DIMTSZ
 40
0.0
  9
$DIMTOL
 70
     0
  9
$DIMLIM
 70
     0
  9
$DIMTIH
 70
     0
  9
$DIMTOH
 70
     0
  9
$DIMSE1
 70
     0
  9
$DIMSE2
 70
     0
  9
$DIMTAD
 70
     1
  9
$DIMZIN
 70
     8
  9
$DIMBLK
  1

  9
$DIMASO
 70
     1
  9
$DIMSHO
 70
     1
  9
$DIMPOST
  1

  9
$DIMAPOST
  1

  9
$DIMALT
 70
     0
  9
$DIMALTD
 70
     3
  9
$DIMALTF
 40
0.03937007874016
  9
$DIMLFAC
 40
1.0
  9
$DIMTOFL
 70
     1
  9
$DIMTVP
 40
0.0
  9
$DIMTIX
 70
     0
  9
$DIMSOXD
 70
     0
  9
$DIMSAH
 70
     0
  9
$DIMBLK1
  1

  9
$DIMBLK2
  1

  9
$DIMSTYLE
  2
ISO-25
  9
$DIMCLRD
 70
     0
  9
$DIMCLRE
 70
     0
  9
$DIMCLRT
 70
     0
  9
$DIMTFAC
 40
1.0
  9
$DIMGAP
 40
0.625
  9
$DIMJUST
 70
     0
  9
$DIMSD1
 70
     0
  9
$DIMSD2
 70
     0
  9
$DIMTOLJ
 70
     0
  9
$DIMTZIN
 70
     8
  9
$DIMALTZ
 70
     0
  9
$DIMALTTZ
 70
     0
  9
$DIMUPT
 70
     0
  9
$DIMDEC
 70
     2
  9
$DIMTDEC
 70
     2
  9
$DIMALTU
 70
     2
  9
$DIMALTTD
 70
     3
  9
$DIMTXSTY
  7
Standard
  9
$DIMAUNIT
 70
     0
  9
$DIMADEC
 70
     0
  9
$DIMALTRND
 40
0.0
  9
$DIMAZIN
 70
     0
  9
$DIMDSEP
 70
    46
  9
$DIMATFIT
 70
     3
  9
$DIMFRAC
 70
     0
  9
$DIMLDRBLK
  1

  9
$DIMLUNIT
 70
     2
  9
$DIMLWD
 70
    -2
  9
$DIMLWE
 70
    -2
  9
$DIMTMOVE
 70
     0
  9
$DIMFXL
 40
1.0
  9
$DIMFXLON
 70
     0
  9
$DIMJOGANG
 40
0.7853981633974483
  9
$DIMTFILL
 70
     0
  9
$DIMTFILLCLR
 70
     0
  9
$DIMARCSYM
 70
     0
  9
$DIMLTYPE
  6

  9
$DIMLTEX1
  6

  9
$DIMLTEX2
  6

  9
$DIMTXTDIRECTION
 70
     0
  9
$LUNITS
 70
     2
  9
$LUPREC
 70
     4
  9
$SKETCHINC
 40
1.0
  9
$FILLETRAD
 40
3.0
  9
$AUNITS
 70
     0
  9
$AUPREC
 70
     0
  9
$MENU
  1
.
  9
$ELEVATION
 40
0.0
  9
$PELEVATION
 40
0.0
  9
$THICKNESS
 40
0.0
  9
$LIMCHECK
 70
     0
  9
$CHAMFERA
 40
2.0
  9
$CHAMFERB
 40
2.0
  9
$CHAMFERC
 40
0.0
  9
$CHAMFERD
 40
0.0
  9
$SKPOLY
 70
     0
  9
$TDCREATE
 40
2452936.788310359
  9
$TDUCREATE
 40
2452936.413310359
  9
$TDUPDATE
 40
2456739.020762812
  9
$TDUUPDATE
 40
2456738.645762812
  9
$TDINDWG
 40
0.4962723032
  9
$TDUSRTIMER
 40
2456738.64517647
  9
$USRTIMER
 70
     1
  9
$ANGBASE
 50
0.0
  9
$ANGDIR
 70
     0
  9
$PDMODE
 70
     0
  9
$PDSIZE
 40
0.0
  9
$PLINEWID
 40
0.0
  9
$SPLFRAME
 70
     0
  9
$SPLINETYPE
 70
     6
  9
$SPLINESEGS
 70
     8
  9
$HANDSEED
  5
C72
  9
$SURFTAB1
 70
     6
  9
$SURFTAB2
 70
     6
  9
$SURFTYPE
 70
     6
  9
$SURFU
 70
     6
  9
$SURFV
 70
     6
  9
$UCSBASE
  2

  9
$UCSNAME
  2

  9
$UCSORG
 10
0.0
 20
0.0
 30
0.0
  9
$UCSXDIR
 10
1.0
 20
0.0
 30
0.0
  9
$UCSYDIR
 10
0.0
 20
1.0
 30
0.0
  9
$UCSORTHOREF
  2

  9
$UCSORTHOVIEW
 70
     0
  9
$UCSORGTOP
 10
0.0
 20
0.0
 30
0.0
  9
$UCSORGBOTTOM
 10
0.0
 20
0.0
 30
0.0
  9
$UCSORGLEFT
 10
0.0
 20
0.0
 30
0.0
  9
$UCSORGRIGHT
 10
0.0
 20
0.0
 30
0.0
  9
$UCSORGFRONT
 10
0.0
 20
0.0
 30
0.0
  9
$UCSORGBACK
 10
0.0
 20
0.0
 30
0.0
  9
$PUCSBASE
  2

  9
$PUCSNAME
  2

  9
$PUCSORG
 10
0.0
 20
0.0
 30
0.0
  9
$PUCSXDIR
 10
1.0
 20
0.0
 30
0.0
  9
$PUCSYDIR
 10
0.0
 20
1.0
 30
0.0
  9
$PUCSORTHOREF
  2

  9
$PUCSORTHOVIEW
 70
     0
  9
$PUCSORGTOP
 10
0.0
 20
0.0
 30
0.0
  9
$PUCSORGBOTTOM
 10
0.0
 20
0.0
 30
0.0
  9
$PUCSORGLEFT
 10
0.0
 20
0.0
 30
0.0
  9
$PUCSORGRIGHT
 10
0.0
 20
0.0
 30
0.0
  9
$PUCSORGFRONT
 10
0.0
 20
0.0
 30
0.0
  9
$PUCSORGBACK
 10
0.0
 20
0.0
 30
0.0
  9
$USERI1
 70
     0
  9
$USERI2
 70
     0
  9
$USERI3
 70
     0
  9
$USERI4
 70
     0
  9
$USERI5
 70
     0
  9
$USERR1
 40
0.0
  9
$USERR2
 40
0.0
  9
$USERR3
 40
0.0
  9
$USERR4
 40
0.0
  9
$USERR5
 40
0.0
  9
$WORLDVIEW
 70
     1
  9
$SHADEDGE
 70
     3
  9
$SHADEDIF
 70
    70
  9
$TILEMODE
 70
     1
  9
$MAXACTVP
 70
    64
  9
$PINSBASE
 10
0.0
 20
0.0
 30
0.0
  9
$PLIMCHECK
 70
     0
  9
$PEXTMIN
 10
0.0
 20
0.0
 30
0.0
  9
$PEXTMAX
 10
0.0
 20
0.0
 30
0.0
  9
$PLIMMIN
 10
-6.35
 20
-6.35
  9
$PLIMMAX
 10
413.8083333333333
 20
290.6888888888888
  9
$UNITMODE
 70
     0
  9
$VISRETAIN
 70
     1
  9
$PLINEGEN
 70
     0
  9
$PSLTSCALE
 70
     1
  9
$TREEDEPTH
 70
  3020
  9
$CMLSTYLE
  2
Standard
  9
$CMLJUST
 70
     0
  9
$CMLSCALE
 40
20.0
  9
$PROXYGRAPHICS
 70
     1
  9
$MEASUREMENT
 70
     1
  9
$CELWEIGHT
370
    -1
  9
$ENDCAPS
280
     0
  9
$JOINSTYLE
280
     0
  9
$LWDISPLAY
290
     0
  9
$INSUNITS
 70
     4
  9
$HYPERLINKBASE
  1

  9
$STYLESHEET
  1

  9
$XEDIT
290
     1
  9
$CEPSNTYPE
380
     0
  9
$PSTYLEMODE
290
     1
  9
$FINGERPRINTGUID
  2
{86E58535-AB5B-4AFE-AB1B-6758AAB7EA7D}
  9
$VERSIONGUID
  2
{D148B498-37E9-486E-97A0-ACF2695E5FCF}
  9
$EXTNAMES
290
     1
  9
$PSVPSCALE
 40
0.0
  9
$OLESTARTUP
290
     0
  9
$SORTENTS
280
   127
  9
$INDEXCTL
280
     0
  9
$HIDETEXT
280
     1
  9
$XCLIPFRAME
280
     0
  9
$HALOGAP
280
     0
  9
$OBSCOLOR
 70
   257
  9
$OBSLTYPE
280
     0
  9
$INTERSECTIONDISPLAY
280
     0
  9
$INTERSECTIONCOLOR
 70
   257
  9
$DIMASSOC
280
     2
  9
$PROJECTNAME
  1

  9
$CAMERADISPLAY
290
     0
  9
$LENSLENGTH
 40
50.0
  9
$CAMERAHEIGHT
 40
0.0
  9
$STEPSPERSEC
 40
2.0
  9
$STEPSIZE
 40
6.0
  9
$3DDWFPREC
 40
2.0
  9
$PSOLWIDTH
 40
0.25
  9
$PSOLHEIGHT
 40
4.0
  9
$LOFTANG1
 40
1.570796326794897
  9
$LOFTANG2
 40
1.570796326794897
  9
$LOFTMAG1
 40
0.0
  9
$LOFTMAG2
 40
0.0
  9
$LOFTPARAM
 70
     7
  9
$LOFTNORMALS
280
     1
  9
$LATITUDE
 40
37.795
  9
$LONGITUDE
 40
-122.394
  9
$NORTHDIRECTION
 40
0.0
  9
$TIMEZONE
 70
 -8000
  9
$LIGHTGLYPHDISPLAY
280
     1
  9
$TILEMODELIGHTSYNCH
280
     1
  9
$SOLIDHIST
280
     1
  9
$SHOWHIST
280
     1
  9
$DWFFRAME
280
     2
  9
$DGNFRAME
280
     2
  9
$REALWORLDSCALE
290
     1
  9
$INTERFERECOLOR
 62
   256
  9
$CSHADOW
280
     0
  9
$SHADOWPLANELOCATION
 40
0.0
  0
ENDSEC
  0
SECTION
  2
CLASSES
  0
CLASS
  1
ACDBDICTIONARYWDFLT
  2
AcDbDictionaryWithDefault
  3
ObjectDBX Classes
 90
        0
 91
        5
280
     0
281
     0
  0
CLASS
  1
DIMASSOC
  2
AcDbDimAssoc
  3
"AcDbDimAssoc|Product Desc:     AcDim ARX App For Dimension|Company:          Autodesk, Inc.|WEB Address:      www.autodesk.com"
 90
        0
 91
        4
280
     0
281
     0
  0
CLASS
  1
VISUALSTYLE
  2
AcDbVisualStyle
  3
ObjectDBX Classes
 90
     4095
 91
        5
280
     0
281
     0
  0
CLASS
  1
SCALE
  2
AcDbScale
  3
ObjectDBX Classes
 90
     1153
 91
        5
280
     0
281
     0
  0
CLASS
  1
MATERIAL
  2
AcDbMaterial
  3
ObjectDBX Classes
 90
     1153
 91
        5
280
     0
281
     0
  0
CLASS
  1
TABLESTYLE
  2
AcDbTableStyle
  3
ObjectDBX Classes
 90
     4095
 91
        5
280
     0
281
     0
  0
CLASS
  1
SUN
  2
AcDbSun
  3
SCENEOE
 90
     1153
 91
        5
280
     0
281
     0
  0
CLASS
  1
RASTERVARIABLES
  2
AcDbRasterVariables
  3
ISM
 90
        0
 91
        5
280
     0
281
     0
  0
CLASS
  1
DICTIONARYVAR
  2
AcDbDictionaryVar
  3
ObjectDBX Classes
 90
        0
 91
        4
280
     0
281
     0
  0
CLASS
  1
CELLSTYLEMAP
  2
AcDbCellStyleMap
  3
ObjectDBX Classes
 90
     1152
 91
        4
280
     0
281
     0
  0
ENDSEC
  0
SECTION
  2
TABLES
  0
TABLE
  2
VPORT
  5
8
330
0
100
AcDbSymbolTable
 70
     1
  0
VPORT
  5
BA2
330
8
100
AcDbSymbolTableRecord
100
AcDbViewportTableRecord
  2
*Active
 70
     0
 10
0.0
 20
0.0
 11
1.0
 21
1.0
 12
145.0270274796688
 22
126.3948701639518
 13
0.0
 23
0.0
 14
10.0
 24
10.0
 15
10.0
 25
10.0
 16
0.0
 26
0.0
 36
1.0
 17
0.0
 27
0.0
 37
0.0
 40
173.6583730173765
 41
1.762376237623762
 42
50.0
 43
0.0
 44
0.0
 50
0.0
 51
0.0
 71
    16
 72
  1000
 73
     1
 74
     3
 75
     0
 76
     0
 77
     0
 78
     0
281
     0
 65
     1
110
0.0
120
0.0
130
0.0
111
1.0
121
0.0
131
0.0
112
0.0
122
1.0
132
0.0
 79
     0
146
0.0
348
BA8
 60
     3
 61
     5
292
     1
282
     1
141
0.0
142
0.0
 63
   256
361
BE4
  0
ENDTAB
  0
TABLE
  2
LTYPE
  5
5
330
0
100
AcDbSymbolTable
 70
     6
  0
LTYPE
  5
14
330
5
100
AcDbSymbolTableRecord
100
AcDbLinetypeTableRecord
  2
ByBlock
 70
     0
  3

 72
    65
 73
     0
 40
0.0
  0
LTYPE
  5
15
330
5
100
AcDbSymbolTableRecord
100
AcDbLinetypeTableRecord
  2
ByLayer
 70
     0
  3

 72
    65
 73
     0
 40
0.0
  0
LTYPE
  5
16
330
5
100
AcDbSymbolTableRecord
100
AcDbLinetypeTableRecord
  2
Continuous
 70
     0
  3
Solid line
 72
    65
 73
     0
 40
0.0
  0
LTYPE
  5
35
330
5
100
AcDbSymbolTableRecord
100
AcDbLinetypeTableRecord
  2
ACAD_ISO08W100
 70
     0
  3
ISO long-dash short-dash ____ __ ____ __ ____ _
 72
    65
 73
     4
 40
36.0
 49
24.0
 74
     0
 49
-3.0
 74
     0
 49
6.0
 74
     0
 49
-3.0
 74
     0
  0
LTYPE
  5
127
330
5
100
AcDbSymbolTableRecord
100
AcDbLinetypeTableRecord
  2
HIDDENX2
 70
     0
  3
Hidden (2x) ____ ____ ____ ____ ____ ____ ____
 72
    65
 73
     2
 40
19.05
 49
12.7
 74
     0
 49
-6.35
 74
     0
  0
LTYPE
  5
5EC
330
5
100
AcDbSymbolTableRecord
100
AcDbLinetypeTableRecord
  2
CENTER
 70
     0
  3
Center ____ _ ____ _ ____ _ ____ _ ____ _ ____
 72
    65
 73
     4
 40
50.8
 49
31.75
 74
     0
 49
-6.35
 74
     0
 49
6.35
 74
     0
 49
-6.35
 74
     0
  0
LTYPE
  5
5ED
330
5
100
AcDbSymbolTableRecord
100
AcDbLinetypeTableRecord
  2
ACAD_ISO02W100
 70
     0
  3
ISO dash __ __ __ __ __ __ __ __ __ __ __ __ __
 72
    65
 73
     2
 40
15.0
 49
12.0
 74
     0
 49
-3.0
 74
     0
  0
LTYPE
  5
605
330
5
100
AcDbSymbolTableRecord
100
AcDbLinetypeTableRecord
  2
DASHED
 70
     0
  3
Dashed __ __ __ __ __ __ __ __ __ __ __ __ __ _
 72
    65
 73
     2
 40
19.05
 49
12.7
 74
     0
 49
-6.35
 74
     0
  0
ENDTAB
  0
TABLE
  2
LAYER
  5
2
330
0
100
AcDbSymbolTable
 70
     9
  0
LAYER
  5
10
330
2
100
AcDbSymbolTableRecord
100
AcDbLayerTableRecord
  2
0
 70
     0
 62
     7
  6
Continuous
370
    -3
390
F
347
BE0
348
0
  0
LAYER
  5
2E
330
2
100
AcDbSymbolTableRecord
100
AcDbLayerTableRecord
  2
枠
 70
     0
 62
     1
  6
Continuous
370
    30
390
F
347
BE0
348
0
  0
LAYER
  5
2F
330
2
100
AcDbSymbolTableRecord
100
AcDbLayerTableRecord
  2
文字
 70
     0
 62
     7
  6
Continuous
370
    25
390
F
347
BE0
348
0
  0
LAYER
  5
36
330
2
100
AcDbSymbolTableRecord
100
AcDbLayerTableRecord
  2
中心線
 70
     0
 62
     7
  6
CENTER
370
    30
390
F
347
BE0
348
0
  0
LAYER
  5
52
330
2
100
AcDbSymbolTableRecord
100
AcDbLayerTableRecord
  2
隠れ線
 70
     0
 62
     2
  6
Continuous
290
     0
370
    -3
390
F
347
BE0
348
0
  0
LAYER
  5
128
330
2
100
AcDbSymbolTableRecord
100
AcDbLayerTableRecord
  2
実線
 70
     0
 62
     7
  6
Continuous
370
    50
390
F
347
BE0
348
0
  0
LAYER
  5
129
330
2
100
AcDbSymbolTableRecord
100
AcDbLayerTableRecord
  2
破線
 70
     0
 62
     7
  6
DASHED
370
    20
390
F
347
BE0
348
0
  0
LAYER
  5
677
330
2
100
AcDbSymbolTableRecord
100
AcDbLayerTableRecord
  2
Defpoints
 70
     0
 62
     7
  6
Continuous
290
     0
370
    -3
390
F
347
BE0
348
0
  0
LAYER
  5
C01
330
2
100
AcDbSymbolTableRecord
100
AcDbLayerTableRecord
  2
文字・寸法線
 70
     0
 62
     7
  6
Continuous
370
    -3
390
F
347
BE0
348
0
  0
ENDTAB
  0
TABLE
  2
STYLE
  5
3
330
0
100
AcDbSymbolTable
 70
     2
  0
STYLE
  5
11
330
3
100
AcDbSymbolTableRecord
100
AcDbTextStyleTableRecord
  2
Standard
 70
     0
 40
0.0
 41
1.0
 50
0.0
 71
     0
 42
3.0
  3
txt.shx
  4
bigfont.shx
  0
STYLE
  5
34
330
3
100
AcDbSymbolTableRecord
100
AcDbTextStyleTableRecord
  2

 70
     1
 40
0.0
 41
1.0
 50
0.0
 71
     0
 42
2.5
  3
ltypeshp.shx
  4

  0
ENDTAB
  0
TABLE
  2
VIEW
  5
6
330
0
100
AcDbSymbolTable
 70
     0
  0
ENDTAB
  0
TABLE
  2
UCS
  5
7
330
0
100
AcDbSymbolTable
 70
     0
  0
ENDTAB
  0
TABLE
  2
APPID
  5
9
330
0
100
AcDbSymbolTable
 70
     1
  0
APPID
  5
12
330
9
100
AcDbSymbolTableRecord
100
AcDbRegAppTableRecord
  2
ACAD
 70
     0
  0
ENDTAB
  0
TABLE
  2
DIMSTYLE
  5
A
330
0
100
AcDbSymbolTable
 70
     1
100
AcDbDimStyleTable
  0
DIMSTYLE
105
29
102
{ACAD_REACTORS
330
6E3
330
7DA
330
846
330
A12
330
AF3
330
B04
330
B57
330
C4D
330
C60
102
}
330
A
100
AcDbSymbolTableRecord
100
AcDbDimStyleTableRecord
  2
ISO-25
 70
     0
 41
2.5
 42
0.625
 43
3.75
 44
1.25
 73
     0
 74
     0
 77
     1
 78
     8
140
2.5
141
2.5
143
0.03937007874016
147
0.625
171
     3
172
     1
178
     0
271
     2
272
     2
274
     3
283
     0
284
     8
340
11
  0
ENDTAB
  0
TABLE
  2
BLOCK_RECORD
  5
1
330
0
100
AcDbSymbolTable
 70
    11
  0
BLOCK_RECORD
  5
21
330
1
100
AcDbSymbolTableRecord
100
AcDbBlockTableRecord
  2
*Model_Space
340
24
 70
     0
280
     1
281
     0
  0
BLOCK_RECORD
  5
BEC
330
1
100
AcDbSymbolTableRecord
100
AcDbBlockTableRecord
  2
*Paper_Space
340
BED
 70
     0
280
     1
281
     0
  0
BLOCK_RECORD
  5
6E4
330
1
100
AcDbSymbolTableRecord
100
AcDbBlockTableRecord
  2
*D0
340
0
 70
     0
280
     1
281
     0
  0
BLOCK_RECORD
  5
7DB
330
1
100
AcDbSymbolTableRecord
100
AcDbBlockTableRecord
  2
*D1
340
0
 70
     0
280
     1
281
     0
  0
BLOCK_RECORD
  5
847
330
1
100
AcDbSymbolTableRecord
100
AcDbBlockTableRecord
  2
*D2
340
0
 70
     0
280
     1
281
     0
  0
BLOCK_RECORD
  5
A13
330
1
100
AcDbSymbolTableRecord
100
AcDbBlockTableRecord
  2
*D3
340
0
 70
     0
280
     1
281
     0
  0
BLOCK_RECORD
  5
B0D
330
1
100
AcDbSymbolTableRecord
100
AcDbBlockTableRecord
  2
*D4
340
0
 70
     0
280
     1
281
     0
  0
BLOCK_RECORD
  5
B25
330
1
100
AcDbSymbolTableRecord
100
AcDbBlockTableRecord
  2
*D5
340
0
 70
     0
280
     1
281
     0
  0
BLOCK_RECORD
  5
B58
330
1
100
AcDbSymbolTableRecord
100
AcDbBlockTableRecord
  2
*D6
340
0
 70
     0
280
     1
281
     0
  0
BLOCK_RECORD
  5
B71
330
1
100
AcDbSymbolTableRecord
100
AcDbBlockTableRecord
  2
*D7
340
0
 70
     0
280
     1
281
     0
  0
BLOCK_RECORD
  5
C50
330
1
100
AcDbSymbolTableRecord
100
AcDbBlockTableRecord
  2
*D9
340
0
 70
     0
280
     1
281
     0
  0
BLOCK_RECORD
  5
C63
330
1
100
AcDbSymbolTableRecord
100
AcDbBlockTableRecord
  2
*D10
340
0
 70
     0
280
     1
281
     0
  0
ENDTAB
  0
ENDSEC
  0
SECTION
  2
BLOCKS
  0
BLOCK
  5
22
330
21
100
AcDbEntity
  8
0
100
AcDbBlockBegin
  2
*Model_Space
 70
     0
 10
0.0
 20
0.0
 30
0.0
  3
*Model_Space
  1
*Model_Space
  0
ENDBLK
  5
23
330
21
100
AcDbEntity
  8
0
100
AcDbBlockEnd
  0
BLOCK
  5
BEE
330
BEC
100
AcDbEntity
 67
     1
  8
0
100
AcDbBlockBegin
  2
*Paper_Space
 70
     0
 10
0.0
 20
0.0
 30
0.0
  3
*Paper_Space
  1
*Paper_Space
  0
ENDBLK
  5
BEF
330
BEC
100
AcDbEntity
 67
     1
  8
0
100
AcDbBlockEnd
  0
BLOCK
  5
6EE
330
6E4
100
AcDbEntity
  8
0
370
    30
100
AcDbBlockBegin
  2
*D0
 70
     1
 10
0.0
 20
0.0
 30
0.0
  3
*D0
  1
*D1
  0
LINE
  5
88D
330
6E4
100
AcDbEntity
  8
文字
 62
     0
370
    -2
100
AcDbLine
 10
74.51010013815349
 20
163.7135896269124
 30
0.0
 11
74.51010013815349
 21
187.6965232369926
 31
0.0
  0
LINE
  5
88E
330
6E4
100
AcDbEntity
  8
文字
 62
     0
370
    -2
100
AcDbLine
 10
90.51010013815349
 20
163.7135896269124
 30
0.0
 11
90.51010013815349
 21
187.6965232369926
 31
0.0
  0
LINE
  5
88F
330
6E4
100
AcDbEntity
  8
文字
 62
     0
370
    -2
100
AcDbLine
 10
77.01010013815349
 20
186.4465232369926
 30
0.0
 11
88.01010013815349
 21
186.4465232369926
 31
0.0
  0
SOLID
  5
890
330
6E4
100
AcDbEntity
  8
文字
 62
     0
100
AcDbTrace
 10
77.01010013815349
 20
186.8631899036592
 30
0.0
 11
77.01010013815349
 21
186.0298565703259
 31
0.0
 12
74.51010013815349
 22
186.4465232369926
 32
0.0
 13
74.51010013815349
 23
186.4465232369926
 33
0.0
  0
SOLID
  5
891
330
6E4
100
AcDbEntity
  8
文字
 62
     0
100
AcDbTrace
 10
88.01010013815349
 20
186.8631899036592
 30
0.0
 11
88.01010013815349
 21
186.0298565703259
 31
0.0
 12
90.51010013815349
 22
186.4465232369926
 32
0.0
 13
90.51010013815349
 23
186.4465232369926
 33
0.0
  0
MTEXT
  5
892
330
6E4
100
AcDbEntity
  8
文字
 62
     0
100
AcDbMText
 10
82.51010013815349
 20
188.3215232369926
 30
0.0
 40
2.5
 41
0.0
 46
0.0
 71
     5
 72
     1
  1
{\fArial|b0|i0|c0|p32;M}16
 73
     1
 44
1.0
  0
POINT
  5
893
330
6E4
100
AcDbEntity
  8
Defpoints
 62
     0
100
AcDbPoint
 10
74.51010013815349
 20
163.0885896269124
 30
0.0
  0
POINT
  5
894
330
6E4
100
AcDbEntity
  8
Defpoints
 62
     0
100
AcDbPoint
 10
90.51010013815349
 20
163.0885896269124
 30
0.0
  0
POINT
  5
895
330
6E4
100
AcDbEntity
  8
Defpoints
 62
     0
100
AcDbPoint
 10
90.51010013815349
 20
186.4465232369926
 30
0.0
  0
ENDBLK
  5
6EF
330
6E4
100
AcDbEntity
  8
0
370
    30
100
AcDbBlockEnd
  0
BLOCK
  5
7E5
330
7DB
100
AcDbEntity
  8
0
100
AcDbBlockBegin
  2
*D1
 70
     1
 10
0.0
 20
0.0
 30
0.0
  3
*D1
  1
*D2
  0
LINE
  5
822
330
7DB
100
AcDbEntity
  8
文字
 62
     0
370
    -2
100
AcDbLine
 10
197.6339522139203
 20
111.3392926050651
 30
0.0
 11
197.6339522139203
 21
69.24959680210968
 31
0.0
  0
LINE
  5
823
330
7DB
100
AcDbEntity
  8
文字
 62
     0
370
    -2
100
AcDbLine
 10
221.6228558987492
 20
111.3392926050651
 30
0.0
 11
221.6228558987492
 21
69.24959680210968
 31
0.0
  0
LINE
  5
824
330
7DB
100
AcDbEntity
  8
文字
 62
     0
370
    -2
100
AcDbLine
 10
200.1339522139203
 20
70.49959680210968
 30
0.0
 11
219.1228558987492
 21
70.49959680210968
 31
0.0
  0
SOLID
  5
825
330
7DB
100
AcDbEntity
  8
文字
 62
     0
100
AcDbTrace
 10
200.1339522139203
 20
70.91626346877635
 30
0.0
 11
200.1339522139203
 21
70.08293013544301
 31
0.0
 12
197.6339522139203
 22
70.49959680210968
 32
0.0
 13
197.6339522139203
 23
70.49959680210968
 33
0.0
  0
SOLID
  5
826
330
7DB
100
AcDbEntity
  8
文字
 62
     0
100
AcDbTrace
 10
219.1228558987492
 20
70.08293013544301
 30
0.0
 11
219.1228558987492
 21
70.91626346877635
 31
0.0
 12
221.6228558987492
 22
70.49959680210968
 32
0.0
 13
221.6228558987492
 23
70.49959680210968
 33
0.0
  0
MTEXT
  5
827
330
7DB
100
AcDbEntity
  8
文字
 62
     0
100
AcDbMText
 10
208.8349797548452
 20
72.37459680210968
 30
0.0
 40
2.5
 41
0.0
 46
0.0
 71
     5
 72
     1
  1
24
 73
     1
 44
1.0
  0
POINT
  5
828
330
7DB
100
AcDbEntity
  8
Defpoints
 62
     0
100
AcDbPoint
 10
197.6339522139203
 20
111.9642926050651
 30
0.0
  0
POINT
  5
829
330
7DB
100
AcDbEntity
  8
Defpoints
 62
     0
100
AcDbPoint
 10
221.6228558987492
 20
111.9642926050651
 30
0.0
  0
POINT
  5
82A
330
7DB
100
AcDbEntity
  8
Defpoints
 62
     0
100
AcDbPoint
 10
221.6228558987492
 20
70.49959680210968
 30
0.0
  0
ENDBLK
  5
7E6
330
7DB
100
AcDbEntity
  8
0
100
AcDbBlockEnd
  0
BLOCK
  5
851
330
847
100
AcDbEntity
  8
0
100
AcDbBlockBegin
  2
*D2
 70
     1
 10
0.0
 20
0.0
 30
0.0
  3
*D2
  1
*D3
  0
LINE
  5
872
330
847
100
AcDbEntity
  8
文字
 62
     0
370
    -2
100
AcDbLine
 10
89.13510013815349
 20
165.0885896269124
 30
0.0
 11
133.9832321659302
 21
165.0885896269124
 31
0.0
  0
LINE
  5
873
330
847
100
AcDbEntity
  8
文字
 62
     0
370
    -2
100
AcDbLine
 10
96.98510013815348
 20
90.08858962691244
 30
0.0
 11
133.9832321659302
 21
90.08858962691244
 31
0.0
  0
LINE
  5
874
330
847
100
AcDbEntity
  8
文字
 62
     0
370
    -2
100
AcDbLine
 10
132.7332321659302
 20
162.5885896269124
 30
0.0
 11
132.7332321659302
 21
92.58858962691244
 31
0.0
  0
SOLID
  5
875
330
847
100
AcDbEntity
  8
文字
 62
     0
100
AcDbTrace
 10
132.3165654992635
 20
162.5885896269124
 30
0.0
 11
133.1498988325968
 21
162.5885896269124
 31
0.0
 12
132.7332321659302
 22
165.0885896269124
 32
0.0
 13
132.7332321659302
 23
165.0885896269124
 33
0.0
  0
SOLID
  5
876
330
847
100
AcDbEntity
  8
文字
 62
     0
100
AcDbTrace
 10
132.3165654992635
 20
92.58858962691244
 30
0.0
 11
133.1498988325968
 21
92.58858962691244
 31
0.0
 12
132.7332321659302
 22
90.08858962691244
 32
0.0
 13
132.7332321659302
 23
90.08858962691244
 33
0.0
  0
MTEXT
  5
877
330
847
100
AcDbEntity
  8
文字
 62
     0
100
AcDbMText
 10
130.8582321659302
 20
127.5885896269124
 30
0.0
 40
2.5
 41
0.0
 46
0.0
 71
     5
 72
     1
  1
75
 11
6.123031769111886E-17
 21
1.0
 31
0.0
 73
     1
 44
1.0
  0
POINT
  5
878
330
847
100
AcDbEntity
  8
Defpoints
 62
     0
100
AcDbPoint
 10
88.51010013815349
 20
165.0885896269124
 30
0.0
  0
POINT
  5
879
330
847
100
AcDbEntity
  8
Defpoints
 62
     0
100
AcDbPoint
 10
96.36010013815348
 20
90.08858962691244
 30
0.0
  0
POINT
  5
87A
330
847
100
AcDbEntity
  8
Defpoints
 62
     0
100
AcDbPoint
 10
132.7332321659302
 20
90.08858962691244
 30
0.0
  0
ENDBLK
  5
852
330
847
100
AcDbEntity
  8
0
100
AcDbBlockEnd
  0
BLOCK
  5
A1D
330
A13
100
AcDbEntity
  8
0
100
AcDbBlockBegin
  2
*D3
 70
     1
 10
0.0
 20
0.0
 30
0.0
  3
*D3
  1
*D4
  0
LINE
  5
A2A
330
A13
100
AcDbEntity
  8
文字
 62
     0
370
    -2
100
AcDbLine
 10
96.98510013815348
 20
90.08858962691244
 30
0.0
 11
133.9832321659302
 21
90.08858962691244
 31
0.0
  0
LINE
  5
A2B
330
A13
100
AcDbEntity
  8
文字
 62
     0
370
    -2
100
AcDbLine
 10
93.50716969211472
 20
80.08858847020542
 30
0.0
 11
133.9832321659302
 21
80.08858847020541
 31
0.0
  0
LINE
  5
A2C
330
A13
100
AcDbEntity
  8
文字
 62
     0
370
    -2
100
AcDbLine
 10
132.7332321659302
 20
87.58858962691244
 30
0.0
 11
132.7332321659302
 21
82.58858847020541
 31
0.0
  0
SOLID
  5
A2D
330
A13
100
AcDbEntity
  8
文字
 62
     0
100
AcDbTrace
 10
132.3165654992635
 20
87.58858962691244
 30
0.0
 11
133.1498988325968
 21
87.58858962691244
 31
0.0
 12
132.7332321659302
 22
90.08858962691244
 32
0.0
 13
132.7332321659302
 23
90.08858962691244
 33
0.0
  0
SOLID
  5
A2E
330
A13
100
AcDbEntity
  8
文字
 62
     0
100
AcDbTrace
 10
132.3165654992635
 20
82.58858847020541
 30
0.0
 11
133.1498988325968
 21
82.58858847020541
 31
0.0
 12
132.7332321659302
 22
80.08858847020541
 32
0.0
 13
132.7332321659302
 23
80.08858847020541
 33
0.0
  0
MTEXT
  5
A2F
330
A13
100
AcDbEntity
  8
文字
 62
     0
100
AcDbMText
 10
130.8582321659302
 20
85.08858904855894
 30
0.0
 40
2.5
 41
0.0
 46
0.0
 71
     5
 72
     1
  1
10
 11
6.123031769111886E-17
 21
1.0
 31
0.0
 73
     1
 44
1.0
  0
POINT
  5
A30
330
A13
100
AcDbEntity
  8
Defpoints
 62
     0
100
AcDbPoint
 10
96.36010013815348
 20
90.08858962691244
 30
0.0
  0
POINT
  5
A31
330
A13
100
AcDbEntity
  8
Defpoints
 62
     0
100
AcDbPoint
 10
92.88216969211472
 20
80.08858847020542
 30
0.0
  0
POINT
  5
A32
330
A13
100
AcDbEntity
  8
Defpoints
 62
     0
100
AcDbPoint
 10
132.7332321659302
 20
80.08858847020541
 30
0.0
  0
ENDBLK
  5
A1E
330
A13
100
AcDbEntity
  8
0
100
AcDbBlockEnd
  0
BLOCK
  5
B17
330
B0D
100
AcDbEntity
  8
0
100
AcDbBlockBegin
  2
*D4
 70
     1
 10
0.0
 20
0.0
 30
0.0
  3
*D4
  1
*D5
  0
LINE
  5
B4E
330
B0D
100
AcDbEntity
  8
文字
 62
     0
370
    -2
100
AcDbLine
 10
51.91537954966648
 20
71.58858847020542
 30
0.0
 11
34.82864367774616
 21
71.58858847020542
 31
0.0
  0
LINE
  5
B4F
330
B0D
100
AcDbEntity
  8
文字
 62
     0
370
    -2
100
AcDbLine
 10
52.91537954966648
 20
62.08858847020542
 30
0.0
 11
34.82864367774616
 21
62.08858847020543
 31
0.0
  0
LINE
  5
B50
330
B0D
100
AcDbEntity
  8
文字
 62
     0
370
    -2
100
AcDbLine
 10
36.07864367774616
 20
69.08858847020542
 30
0.0
 11
36.07864367774616
 21
64.58858847020542
 31
0.0
  0
SOLID
  5
B51
330
B0D
100
AcDbEntity
  8
文字
 62
     0
100
AcDbTrace
 10
35.66197701107949
 20
69.08858847020542
 30
0.0
 11
36.49531034441282
 21
69.08858847020542
 31
0.0
 12
36.07864367774616
 22
71.58858847020542
 32
0.0
 13
36.07864367774616
 23
71.58858847020542
 33
0.0
  0
SOLID
  5
B52
330
B0D
100
AcDbEntity
  8
文字
 62
     0
100
AcDbTrace
 10
35.66197701107949
 20
64.58858847020542
 30
0.0
 11
36.49531034441282
 21
64.58858847020542
 31
0.0
 12
36.07864367774616
 22
62.08858847020543
 32
0.0
 13
36.07864367774616
 23
62.08858847020543
 33
0.0
  0
MTEXT
  5
B53
330
B0D
100
AcDbEntity
  8
文字
 62
     0
100
AcDbMText
 10
34.20364367774615
 20
66.83858847020544
 30
0.0
 40
2.5
 41
0.0
 46
0.0
 71
     5
 72
     1
  1
9.5
 11
6.123031769111886E-17
 21
1.0
 31
0.0
 73
     1
 44
1.0
  0
POINT
  5
B54
330
B0D
100
AcDbEntity
  8
Defpoints
 62
     0
100
AcDbPoint
 10
52.54037954966648
 20
71.58858847020542
 30
0.0
  0
POINT
  5
B55
330
B0D
100
AcDbEntity
  8
Defpoints
 62
     0
100
AcDbPoint
 10
53.54037954966648
 20
62.08858847020542
 30
0.0
  0
POINT
  5
B56
330
B0D
100
AcDbEntity
  8
Defpoints
 62
     0
100
AcDbPoint
 10
36.07864367774616
 20
62.08858847020543
 30
0.0
  0
ENDBLK
  5
B18
330
B0D
100
AcDbEntity
  8
0
100
AcDbBlockEnd
  0
BLOCK
  5
B2F
330
B25
100
AcDbEntity
  8
0
100
AcDbBlockBegin
  2
*D5
 70
     1
 10
0.0
 20
0.0
 30
0.0
  3
*D5
  1
*D6
  0
LINE
  5
B3C
330
B25
100
AcDbEntity
  8
文字
 62
     0
370
    -2
100
AcDbLine
 10
112.5403795496665
 20
65.21358847020542
 30
0.0
 11
112.5403795496665
 21
41.26821672406129
 31
0.0
  0
LINE
  5
B3D
330
B25
100
AcDbEntity
  8
文字
 62
     0
370
    -2
100
AcDbLine
 10
52.54037954966648
 20
65.21358847020542
 30
0.0
 11
52.54037954966648
 21
41.26821672406129
 31
0.0
  0
LINE
  5
B3E
330
B25
100
AcDbEntity
  8
文字
 62
     0
370
    -2
100
AcDbLine
 10
110.0403795496665
 20
42.51821672406129
 30
0.0
 11
55.04037954966648
 21
42.51821672406129
 31
0.0
  0
SOLID
  5
B3F
330
B25
100
AcDbEntity
  8
文字
 62
     0
100
AcDbTrace
 10
110.0403795496665
 20
42.93488339072795
 30
0.0
 11
110.0403795496665
 21
42.10155005739463
 31
0.0
 12
112.5403795496665
 22
42.51821672406129
 32
0.0
 13
112.5403795496665
 23
42.51821672406129
 33
0.0
  0
SOLID
  5
B40
330
B25
100
AcDbEntity
  8
文字
 62
     0
100
AcDbTrace
 10
55.04037954966648
 20
42.93488339072795
 30
0.0
 11
55.04037954966648
 21
42.10155005739463
 31
0.0
 12
52.54037954966648
 22
42.51821672406129
 32
0.0
 13
52.54037954966648
 23
42.51821672406129
 33
0.0
  0
MTEXT
  5
B41
330
B25
100
AcDbEntity
  8
文字
 62
     0
100
AcDbMText
 10
82.54037954966648
 20
44.39321672406129
 30
0.0
 40
2.5
 41
0.0
 46
0.0
 71
     5
 72
     1
  1
%%c60
 73
     1
 44
1.0
  0
POINT
  5
B42
330
B25
100
AcDbEntity
  8
Defpoints
 62
     0
100
AcDbPoint
 10
112.5403795496665
 20
65.83858847020542
 30
0.0
  0
POINT
  5
B43
330
B25
100
AcDbEntity
  8
Defpoints
 62
     0
100
AcDbPoint
 10
52.54037954966648
 20
65.83858847020542
 30
0.0
  0
POINT
  5
B44
330
B25
100
AcDbEntity
  8
Defpoints
 62
     0
100
AcDbPoint
 10
52.54037954966648
 20
42.51821672406129
 30
0.0
  0
ENDBLK
  5
B30
330
B25
100
AcDbEntity
  8
0
100
AcDbBlockEnd
  0
BLOCK
  5
B62
330
B58
100
AcDbEntity
  8
0
100
AcDbBlockBegin
  2
*D6
 70
     1
 10
0.0
 20
0.0
 30
0.0
  3
*D6
  1
*D7
  0
LINE
  5
B65
330
B58
100
AcDbEntity
  8
文字
 62
     0
370
    -2
100
AcDbLine
 10
94.13216969211472
 20
80.08858847020542
 30
0.0
 11
133.9832321659302
 21
80.08858847020541
 31
0.0
  0
LINE
  5
B66
330
B58
100
AcDbEntity
  8
文字
 62
     0
370
    -2
100
AcDbLine
 10
112.1653795496665
 20
62.08858847020542
 30
0.0
 11
133.9832321659302
 21
62.08858847020542
 31
0.0
  0
LINE
  5
B67
330
B58
100
AcDbEntity
  8
文字
 62
     0
370
    -2
100
AcDbLine
 10
132.7332321659302
 20
77.58858847020541
 30
0.0
 11
132.7332321659302
 21
64.58858847020542
 31
0.0
  0
SOLID
  5
B68
330
B58
100
AcDbEntity
  8
文字
 62
     0
100
AcDbTrace
 10
132.3165654992635
 20
77.58858847020541
 30
0.0
 11
133.1498988325968
 21
77.58858847020541
 31
0.0
 12
132.7332321659302
 22
80.08858847020541
 32
0.0
 13
132.7332321659302
 23
80.08858847020541
 33
0.0
  0
SOLID
  5
B69
330
B58
100
AcDbEntity
  8
文字
 62
     0
100
AcDbTrace
 10
132.3165654992635
 20
64.58858847020542
 30
0.0
 11
133.1498988325968
 21
64.58858847020542
 31
0.0
 12
132.7332321659302
 22
62.08858847020542
 32
0.0
 13
132.7332321659302
 23
62.08858847020542
 33
0.0
  0
MTEXT
  5
B6A
330
B58
100
AcDbEntity
  8
文字
 62
     0
100
AcDbMText
 10
130.8582321659302
 20
71.08858847020544
 30
0.0
 40
2.5
 41
0.0
 46
0.0
 71
     5
 72
     1
  1
18
 11
6.123031769111886E-17
 21
1.0
 31
0.0
 73
     1
 44
1.0
  0
POINT
  5
B6B
330
B58
100
AcDbEntity
  8
Defpoints
 62
     0
100
AcDbPoint
 10
93.50716969211472
 20
80.08858847020542
 30
0.0
  0
POINT
  5
B6C
330
B58
100
AcDbEntity
  8
Defpoints
 62
     0
100
AcDbPoint
 10
111.5403795496665
 20
62.08858847020542
 30
0.0
  0
POINT
  5
B6D
330
B58
100
AcDbEntity
  8
Defpoints
 62
     0
100
AcDbPoint
 10
132.7332321659302
 20
62.08858847020542
 30
0.0
  0
ENDBLK
  5
B63
330
B58
100
AcDbEntity
  8
0
100
AcDbBlockEnd
  0
BLOCK
  5
B7B
330
B71
100
AcDbEntity
  8
0
100
AcDbBlockBegin
  2
*D7
 70
     1
 10
0.0
 20
0.0
 30
0.0
  3
*D7
  1
*D8
  0
LINE
  5
B88
330
B71
100
AcDbEntity
  8
文字
 62
     0
370
    -2
100
AcDbLine
 10
188.3284040563347
 20
118.2642926050651
 30
0.0
 11
188.3284040563347
 21
58.99211913548038
 31
0.0
  0
LINE
  5
B89
330
B71
100
AcDbEntity
  8
文字
 62
     0
370
    -2
100
AcDbLine
 10
230.9284040563348
 20
118.2642926050651
 30
0.0
 11
230.9284040563348
 21
58.99211913548038
 31
0.0
  0
LINE
  5
B8A
330
B71
100
AcDbEntity
  8
文字
 62
     0
370
    -2
100
AcDbLine
 10
190.8284040563347
 20
60.24211913548038
 30
0.0
 11
228.4284040563348
 21
60.24211913548038
 31
0.0
  0
SOLID
  5
B8B
330
B71
100
AcDbEntity
  8
文字
 62
     0
100
AcDbTrace
 10
190.8284040563347
 20
60.65878580214704
 30
0.0
 11
190.8284040563347
 21
59.82545246881372
 31
0.0
 12
188.3284040563347
 22
60.24211913548038
 32
0.0
 13
188.3284040563347
 23
60.24211913548038
 33
0.0
  0
SOLID
  5
B8C
330
B71
100
AcDbEntity
  8
文字
 62
     0
100
AcDbTrace
 10
228.4284040563348
 20
60.65878580214704
 30
0.0
 11
228.4284040563348
 21
59.82545246881372
 31
0.0
 12
230.9284040563348
 22
60.24211913548038
 32
0.0
 13
230.9284040563348
 23
60.24211913548038
 33
0.0
  0
MTEXT
  5
B8D
330
B71
100
AcDbEntity
  8
文字
 62
     0
100
AcDbMText
 10
209.6284040563347
 20
62.11711913548038
 30
0.0
 40
2.5
 41
0.0
 46
0.0
 71
     5
 72
     1
  1
%%c42.6
 73
     1
 44
1.0
  0
POINT
  5
B8E
330
B71
100
AcDbEntity
  8
Defpoints
 62
     0
100
AcDbPoint
 10
188.3284040563347
 20
118.8892926050651
 30
0.0
  0
POINT
  5
B8F
330
B71
100
AcDbEntity
  8
Defpoints
 62
     0
100
AcDbPoint
 10
230.9284040563348
 20
118.8892926050651
 30
0.0
  0
POINT
  5
B90
330
B71
100
AcDbEntity
  8
Defpoints
 62
     0
100
AcDbPoint
 10
230.9284040563348
 20
60.24211913548038
 30
0.0
  0
ENDBLK
  5
B7C
330
B71
100
AcDbEntity
  8
0
100
AcDbBlockEnd
  0
BLOCK
  5
C51
330
C50
100
AcDbEntity
  8
0
100
AcDbBlockBegin
  2
*D9
 70
     1
 10
0.0
 20
0.0
 30
0.0
  3
*D9
  1
*D9
  0
LINE
  5
C52
330
C50
100
AcDbEntity
  8
文字
 62
     0
370
    -2
100
AcDbLine
 10
0.0
 20
54.02620017374569
 30
0.0
 11
0.0
 21
0.0
 31
0.0
  0
LINE
  5
C53
330
C50
100
AcDbEntity
  8
文字
 62
     0
370
    -2
100
AcDbLine
 10
42.99872911925272
 20
53.9382625658067
 30
0.0
 11
42.99872911925272
 21
0.0
 31
0.0
  0
LINE
  5
C54
330
C50
100
AcDbEntity
  8
文字
 62
     0
370
    -2
100
AcDbLine
 10
2.5
 20
1.25
 30
0.0
 11
40.49872911925272
 21
1.25
 31
0.0
  0
SOLID
  5
C55
330
C50
100
AcDbEntity
  8
文字
 62
     0
100
AcDbTrace
 10
2.5
 20
1.666666666666667
 30
0.0
 11
2.5
 21
0.8333333333333333
 31
0.0
 12
0.0
 22
1.25
 32
0.0
 13
0.0
 23
1.25
 33
0.0
  0
SOLID
  5
C56
330
C50
100
AcDbEntity
  8
文字
 62
     0
100
AcDbTrace
 10
40.49872911925272
 20
0.8333333333333333
 30
0.0
 11
40.49872911925272
 21
1.666666666666667
 31
0.0
 12
42.99872911925272
 22
1.25
 32
0.0
 13
42.99872911925272
 23
1.25
 33
0.0
  0
MTEXT
  5
C57
330
C50
100
AcDbEntity
  8
文字
 62
     0
100
AcDbMText
 10
21.49936455962636
 20
3.125
 30
0.0
 40
2.5
 41
0.0
 46
0.0
 71
     5
 72
     1
  1
%%c43
 73
     1
 44
1.0
  0
POINT
  5
C58
330
C50
100
AcDbEntity
  8
Defpoints
 62
     0
100
AcDbPoint
 10
0.0
 20
54.65120017374569
 30
0.0
  0
POINT
  5
C59
330
C50
100
AcDbEntity
  8
Defpoints
 62
     0
100
AcDbPoint
 10
42.99872911925272
 20
54.5632625658067
 30
0.0
  0
POINT
  5
C5A
330
C50
100
AcDbEntity
  8
Defpoints
 62
     0
100
AcDbPoint
 10
42.99872911925272
 20
1.25
 30
0.0
  0
ENDBLK
  5
C5B
330
C50
100
AcDbEntity
  8
0
100
AcDbBlockEnd
  0
BLOCK
  5
C64
330
C63
100
AcDbEntity
  8
0
100
AcDbBlockBegin
  2
*D10
 70
     1
 10
0.0
 20
0.0
 30
0.0
  3
*D10
  1
*D10
  0
LINE
  5
C66
330
C63
100
AcDbEntity
  8
文字
 62
     0
370
    -2
100
AcDbLine
 10
187.8075146841156
 20
118.6118224247127
 30
0.0
 11
187.8075146841156
 21
62.02140568404636
 31
0.0
  0
LINE
  5
C67
330
C63
100
AcDbEntity
  8
文字
 62
     0
370
    -2
100
AcDbLine
 10
230.8062438033683
 20
118.5238848167737
 30
0.0
 11
230.8062438033683
 21
62.02140568404636
 31
0.0
  0
LINE
  5
C68
330
C63
100
AcDbEntity
  8
文字
 62
     0
370
    -2
100
AcDbLine
 10
190.3075146841156
 20
63.27140568404636
 30
0.0
 11
228.3062438033683
 21
63.27140568404636
 31
0.0
  0
SOLID
  5
C69
330
C63
100
AcDbEntity
  8
文字
 62
     0
100
AcDbTrace
 10
190.3075146841156
 20
63.68807235071302
 30
0.0
 11
190.3075146841156
 21
62.85473901737969
 31
0.0
 12
187.8075146841156
 22
63.27140568404636
 32
0.0
 13
187.8075146841156
 23
63.27140568404636
 33
0.0
  0
SOLID
  5
C6A
330
C63
100
AcDbEntity
  8
文字
 62
     0
100
AcDbTrace
 10
228.3062438033683
 20
62.85473901737969
 30
0.0
 11
228.3062438033683
 21
63.68807235071302
 31
0.0
 12
230.8062438033683
 22
63.27140568404636
 32
0.0
 13
230.8062438033683
 23
63.27140568404636
 33
0.0
  0
MTEXT
  5
C6B
330
C63
100
AcDbEntity
  8
文字
 62
     0
100
AcDbMText
 10
208.8349797548452
 20
65.14640568404636
 30
0.0
 40
2.5
 41
0.0
 46
0.0
 71
     5
 72
     1
  1
%%c43
 73
     1
 44
1.0
  0
POINT
  5
C6C
330
C63
100
AcDbEntity
  8
Defpoints
 62
     0
100
AcDbPoint
 10
187.8075146841156
 20
119.2368224247127
 30
0.0
  0
POINT
  5
C6D
330
C63
100
AcDbEntity
  8
Defpoints
 62
     0
100
AcDbPoint
 10
230.8062438033683
 20
119.1488848167737
 30
0.0
  0
POINT
  5
C6E
330
C63
100
AcDbEntity
  8
Defpoints
 62
     0
100
AcDbPoint
 10
230.8062438033683
 20
63.27140568404636
 30
0.0
  0
ENDBLK
  5
C65
330
C63
100
AcDbEntity
  8
0
100
AcDbBlockEnd
  0
ENDSEC
  0
SECTION
  2
ENTITIES
  0
LWPOLYLINE
  5
646
102
{ACAD_REACTORS
330
85D
330
A29
102
}
330
21
100
AcDbEntity
  8
実線
100
AcDbPolyline
 90
        4
 70
     0
 43
0.0
 10
96.36010013815348
 20
81.08858962691245
 10
96.36010013815348
 20
90.08858962691244
 10
68.6601001381535
 20
90.08858962691244
 10
68.6601001381535
 20
81.08858962691244
  0
LINE
  5
649
330
21
100
AcDbEntity
  8
実線
100
AcDbLine
 10
75.6601001381535
 20
90.08858962691244
 30
0.0
 11
75.6601001381535
 21
81.08858962691244
 31
0.0
  0
LINE
  5
64A
330
21
100
AcDbEntity
  8
実線
100
AcDbLine
 10
89.36010013815348
 20
90.08858962691244
 30
0.0
 11
89.36010013815348
 21
81.08858962691244
 31
0.0
  0
ARC
  5
64B
330
21
100
AcDbEntity
  8
実線
100
AcDbCircle
 10
72.1601001381535
 20
86.7135819637367
 30
0.0
 40
6.624993493531275
100
AcDbArc
 50
238.1091731852511
 51
301.8908268147489
  0
ARC
  5
64C
330
21
100
AcDbEntity
  8
実線
100
AcDbCircle
 10
82.51010013815349
 20
104.0498396269123
 30
0.0
 40
23.96124999999989
100
AcDbArc
 50
253.3886475888879
 51
286.6113524111121
  0
ARC
  5
64D
102
{ACAD_REACTORS
330
A29
102
}
330
21
100
AcDbEntity
  8
実線
100
AcDbCircle
 10
92.86010013815346
 20
86.7133384314124
 30
0.0
 40
6.624786722131047
100
AcDbArc
 50
238.1080604549022
 51
301.891939545098
  0
LWPOLYLINE
  5
64F
330
21
100
AcDbEntity
  8
実線
100
AcDbPolyline
 90
        6
 70
     1
 43
0.0
 10
74.51010013815349
 20
90.08858962691244
 10
90.51010013815349
 20
90.08858962691244
 10
90.51010013815349
 20
163.0885896269124
 10
88.51010013815349
 20
165.0885896269124
 10
76.51010013815349
 20
165.0885896269124
 10
74.51010013815349
 20
163.0885896269124
  0
LINE
  5
655
330
21
100
AcDbEntity
  8
実線
370
    20
100
AcDbLine
 10
76.51010013815349
 20
165.0885896269124
 30
0.0
 11
76.51010013815348
 21
90.08858962691244
 31
0.0
  0
LINE
  5
656
102
{ACAD_REACTORS
330
85D
102
}
330
21
100
AcDbEntity
  8
実線
370
    20
100
AcDbLine
 10
88.51010013815349
 20
165.0885896269124
 30
0.0
 11
88.51010013815348
 21
90.08858962691244
 31
0.0
  0
LWPOLYLINE
  5
657
102
{ACAD_REACTORS
330
7F1
102
}
330
21
100
AcDbEntity
  8
実線
100
AcDbPolyline
 90
        6
 70
     1
 43
0.0
 10
221.6228558987492
 20
125.8142926050651
 10
209.6284040563347
 20
132.7392926050651
 10
197.6339522139203
 20
125.8142926050651
 10
197.6339522139203
 20
111.9642926050651
 10
209.6284040563347
 20
105.0392926050651
 10
221.6228558987492
 20
111.9642926050651
  0
CIRCLE
  5
658
330
21
100
AcDbEntity
  8
実線
100
AcDbCircle
 10
209.6284040563347
 20
118.8892926050651
 30
0.0
 40
8.0
  0
CIRCLE
  5
659
330
21
100
AcDbEntity
  8
実線
370
    20
100
AcDbCircle
 10
209.6284040563347
 20
118.8892926050651
 30
0.0
 40
7.0
  0
LINE
  5
66C
102
{ACAD_REACTORS
330
A29
102
}
330
21
100
AcDbEntity
  8
実線
100
AcDbLine
 10
72.1601001381535
 20
80.08858847020542
 30
0.0
 11
92.8821696921143
 21
80.08858847020542
 31
0.0
  0
LINE
  5
675
102
{ACAD_REACTORS
330
6FA
102
}
330
21
100
AcDbEntity
  8
実線
370
    20
100
AcDbLine
 10
74.51010013815349
 20
163.0885896269124
 30
0.0
 11
90.51010013815349
 21
163.0885896269124
 31
0.0
  0
DIMENSION
  5
6E3
102
{ACAD_REACTORS
330
6FA
102
}
102
{ACAD_XDICTIONARY
360
6F0
102
}
330
21
100
AcDbEntity
  8
文字
100
AcDbDimension
280
     0
  2
*D0
 10
90.51010013815349
 20
186.4465232369926
 30
0.0
 11
82.51010013815349
 21
188.3215232369926
 31
0.0
 70
    32
  1
{\fArial|b0|i0|c0|p32;M}16
 71
     5
 42
16.0
 73
     0
 74
     0
 75
     0
  3
ISO-25
100
AcDbAlignedDimension
 13
74.51010013815349
 23
163.0885896269124
 33
0.0
 14
90.51010013815349
 24
163.0885896269124
 34
0.0
100
AcDbRotatedDimension
  0
DIMENSION
  5
7DA
102
{ACAD_REACTORS
330
7F1
102
}
102
{ACAD_XDICTIONARY
360
7E7
102
}
330
21
100
AcDbEntity
  8
文字
100
AcDbDimension
280
     0
  2
*D1
 10
221.6228558987492
 20
70.49959680210968
 30
0.0
 11
208.8349797548452
 21
70.49959680210968
 31
0.0
 70
   160
  1
24
 71
     5
 42
23.9889036848289
 73
     0
 74
     0
 75
     0
  3
ISO-25
100
AcDbAlignedDimension
 13
197.6339522139203
 23
111.9642926050651
 33
0.0
 14
221.6228558987492
 24
111.9642926050651
 34
0.0
100
AcDbRotatedDimension
  0
LINE
  5
7F2
330
21
100
AcDbEntity
  8
中心線
100
AcDbLine
 10
209.6284040563347
 20
118.8892926050651
 30
0.0
 11
209.6284040563347
 21
164.4271182448153
 31
0.0
  0
LINE
  5
7F3
330
21
100
AcDbEntity
  8
中心線
100
AcDbLine
 10
209.6284040563347
 20
118.8892926050651
 30
0.0
 11
209.6284040563347
 21
77.07052639211213
 31
0.0
  0
DIMENSION
  5
846
102
{ACAD_REACTORS
330
85D
102
}
102
{ACAD_XDICTIONARY
360
853
102
}
330
21
100
AcDbEntity
  8
文字
100
AcDbDimension
280
     0
  2
*D2
 10
132.7332321659302
 20
90.08858962691244
 30
0.0
 11
130.8582321659302
 21
127.5885896269124
 31
0.0
 70
    32
 71
     5
 42
74.99999999999997
 73
     0
 74
     0
 75
     0
  3
ISO-25
100
AcDbAlignedDimension
 13
88.51010013815349
 23
165.0885896269124
 33
0.0
 14
96.36010013815348
 24
90.08858962691244
 34
0.0
 50
90.0
100
AcDbRotatedDimension
  0
LINE
  5
985
330
21
100
AcDbEntity
  8
実線
100
AcDbLine
 10
72.92311770959907
 20
80.0885884702054
 30
0.0
 11
92.09708256670794
 21
80.08858847020542
 31
0.0
  0
LINE
  5
9A3
330
21
100
AcDbEntity
  8
中心線
100
AcDbLine
 10
82.51010013815349
 20
172.3571630122875
 30
0.0
 11
82.5101001381535
 21
48.85113973288651
 31
0.0
  0
LINE
  5
A0E
102
{ACAD_REACTORS
102
}
330
21
100
AcDbEntity
  8
中心線
100
AcDbLine
 10
209.6284040563347
 20
118.8892926050651
 30
0.0
 11
161.2575890532131
 21
118.8892926050651
 31
0.0
  0
LINE
  5
A0F
102
{ACAD_REACTORS
102
}
330
21
100
AcDbEntity
  8
中心線
100
AcDbLine
 10
209.6284040563347
 20
118.8892926050651
 30
0.0
 11
257.1004112815915
 21
118.8892926050651
 31
0.0
  0
DIMENSION
  5
A12
102
{ACAD_REACTORS
330
A29
102
}
102
{ACAD_XDICTIONARY
360
A1F
102
}
330
21
100
AcDbEntity
  8
文字
100
AcDbDimension
280
     0
  2
*D3
 10
132.7332321659302
 20
80.08858847020541
 30
0.0
 11
130.8582321659302
 21
85.08858904855894
 31
0.0
 70
    32
 71
     5
 42
10.00000115670703
 73
     0
 74
     0
 75
     0
  3
ISO-25
100
AcDbAlignedDimension
 13
96.36010013815348
 23
90.08858962691244
 33
0.0
 14
92.88216969211472
 24
80.08858847020542
 34
0.0
 50
90.0
100
AcDbRotatedDimension
  0
DIMENSION
  5
AF3
102
{ACAD_REACTORS
330
AF5
102
}
102
{ACAD_XDICTIONARY
360
AF4
102
}
330
21
100
AcDbEntity
  8
文字
100
AcDbDimension
280
     0
  2
*D4
 10
36.07864367774616
 20
62.08858847020543
 30
0.0
 11
34.20364367774615
 21
66.83858847020544
 31
0.0
 70
    32
 71
     5
 42
9.5
 73
     0
 74
     0
 75
     0
  3
ISO-25
100
AcDbAlignedDimension
 13
52.54037954966648
 23
71.58858847020542
 33
0.0
 14
53.54037954966648
 24
62.08858847020542
 34
0.0
 50
90.0
100
AcDbRotatedDimension
  0
LINE
  5
AF9
102
{ACAD_REACTORS
330
AF5
102
}
330
21
100
AcDbEntity
  8
実線
100
AcDbLine
 10
53.54037954966648
 20
62.08858847020542
 30
0.0
 11
111.5403795496665
 21
62.08858847020542
 31
0.0
  0
LINE
  5
AFA
102
{ACAD_REACTORS
330
AF5
102
}
330
21
100
AcDbEntity
  8
実線
100
AcDbLine
 10
55.54037954966648
 20
71.58858847020542
 30
0.0
 11
60.33645241735502
 21
71.58858847020542
 31
0.0
  0
LINE
  5
AFB
102
{ACAD_REACTORS
330
B06
330
AF5
102
}
330
21
100
AcDbEntity
  8
実線
100
AcDbLine
 10
52.54037954966648
 20
68.58858847020542
 30
0.0
 11
52.54037954966648
 21
63.08858847020542
 31
0.0
  0
LINE
  5
AFC
102
{ACAD_REACTORS
330
B06
102
}
330
21
100
AcDbEntity
  8
実線
100
AcDbLine
 10
112.5403795496665
 20
68.58858847020542
 30
0.0
 11
112.5403795496665
 21
63.08858847020542
 31
0.0
  0
ARC
  5
AFD
330
21
100
AcDbEntity
  8
実線
100
AcDbCircle
 10
109.5403795496665
 20
68.58858847020542
 30
0.0
 40
3.0
100
AcDbArc
 50
0.0
 51
90.0
  0
ARC
  5
AFE
330
21
100
AcDbEntity
  8
実線
100
AcDbCircle
 10
55.54037954966648
 20
68.58858847020542
 30
0.0
 40
3.0
100
AcDbArc
 50
90.0
 51
180.0
  0
LINE
  5
AFF
330
21
100
AcDbEntity
  8
実線
100
AcDbLine
 10
104.9417762718519
 20
71.58858847020542
 30
0.0
 11
109.5403795496665
 21
71.58858847020542
 31
0.0
  0
LINE
  5
B00
330
21
100
AcDbEntity
  8
実線
100
AcDbLine
 10
106.5403795496665
 20
71.58858847020542
 30
0.0
 11
104.7443066819779
 21
71.58858847020542
 31
0.0
  0
LINE
  5
B01
330
21
100
AcDbEntity
  8
実線
100
AcDbLine
 10
103.5403795496665
 20
71.58858847020542
 30
0.0
 11
60.13898282748107
 21
71.58858847020542
 31
0.0
  0
ARC
  5
B02
102
{ACAD_REACTORS
330
B6E
102
}
330
21
100
AcDbEntity
  8
実線
100
AcDbCircle
 10
111.5403795496665
 20
63.08858847020542
 30
0.0
 40
1.0
100
AcDbArc
 50
270.0
 51
0.0
  0
ARC
  5
B03
330
21
100
AcDbEntity
  8
実線
100
AcDbCircle
 10
53.54037954966648
 20
63.08858847020542
 30
0.0
 40
1.0
100
AcDbArc
 50
180.0
 51
270.0
  0
DIMENSION
  5
B04
102
{ACAD_REACTORS
330
B06
102
}
102
{ACAD_XDICTIONARY
360
B05
102
}
330
21
100
AcDbEntity
  8
文字
100
AcDbDimension
280
     0
  2
*D5
 10
52.54037954966648
 20
42.51821672406129
 30
0.0
 11
82.54037954966648
 21
44.39321672406129
 31
0.0
 70
    32
  1
%%c60
 71
     5
 42
60.0
 73
     0
 74
     0
 75
     0
  3
ISO-25
100
AcDbAlignedDimension
 13
112.5403795496665
 23
65.83858847020542
 33
0.0
 14
52.54037954966648
 24
65.83858847020542
 34
0.0
100
AcDbRotatedDimension
  0
ARC
  5
B07
330
21
100
AcDbEntity
  8
実線
100
AcDbCircle
 10
75.0588908763592
 20
65.08859989251695
 30
0.0
 40
15.0
100
AcDbArc
 50
90.07070807745987
 51
150.0000444525814
  0
ARC
  5
B08
330
21
100
AcDbEntity
  8
実線
100
AcDbCircle
 10
90.02186822297375
 20
65.08859989251697
 30
0.0
 40
15.0
100
AcDbArc
 50
29.99995554741865
 51
89.92929192254013
  0
ARC
  5
B09
330
21
100
AcDbEntity
  8
実線
100
AcDbCircle
 10
60.33645241735502
 20
73.58858847020542
 30
0.0
 40
2.0
100
AcDbArc
 50
270.0
 51
330.0000444525813
  0
ARC
  5
B0A
330
21
100
AcDbEntity
  8
実線
100
AcDbCircle
 10
104.7443066819779
 20
73.58858847020542
 30
0.0
 40
2.0
100
AcDbArc
 50
209.9999555474186
 51
270.0
  0
LINE
  5
B0B
330
21
100
AcDbEntity
  8
実線
100
AcDbLine
 10
103.5403795496665
 20
71.58858847020542
 30
0.0
 11
104.7443066819779
 21
71.58858847020542
 31
0.0
  0
LINE
  5
B3A
330
21
100
AcDbEntity
  8
実線
100
AcDbLine
 10
75.04037954966647
 20
80.08858847020541
 30
0.0
 11
90.04037954966648
 21
80.08858847020542
 31
0.0
  0
DIMENSION
  5
B57
102
{ACAD_REACTORS
330
B6E
102
}
102
{ACAD_XDICTIONARY
360
B64
102
}
330
21
100
AcDbEntity
  8
文字
100
AcDbDimension
280
     0
  2
*D6
 10
132.7332321659302
 20
62.08858847020542
 30
0.0
 11
130.8582321659302
 21
71.08858847020544
 31
0.0
 70
    32
 71
     5
 42
17.99999999999999
 73
     0
 74
     0
 75
     0
  3
ISO-25
100
AcDbAlignedDimension
 13
93.50716969211472
 23
80.08858847020542
 33
0.0
 14
111.5403795496665
 24
62.08858847020542
 34
0.0
 50
90.0
100
AcDbRotatedDimension
  0
CIRCLE
  5
B99
330
21
100
AcDbEntity
  8
実線
100
AcDbCircle
 10
209.6284040563347
 20
118.8892926050651
 30
0.0
 40
30.0
  0
MTEXT
  5
C25
330
21
100
AcDbEntity
  8
文字・寸法線
 62
     0
100
AcDbMText
 10
97.34285491907534
 20
205.5215236038422
 30
0.0
 40
6.0
 41
0.0
 46
6.0
 71
     9
 72
     1
  1
{\fＭＳ ゴシック|b0|i0|c0|p0;S-V M16X75}
 73
     1
 44
1.0
1001
ACAD
1000
ACAD_MTEXT_DEFINED_HEIGHT_BEGIN
1070
    46
1040
6.0
1000
ACAD_MTEXT_DEFINED_HEIGHT_END
  0
CIRCLE
  5
C5F
102
{ACAD_REACTORS
102
}
330
21
100
AcDbEntity
  8
実線
100
AcDbCircle
 10
209.1067452507649
 20
119.2368224247127
 30
0.0
 40
21.29923056664931
  0
DIMENSION
  5
C60
102
{ACAD_XDICTIONARY
360
C61
102
}
330
21
100
AcDbEntity
  8
文字
100
AcDbDimension
280
     0
  2
*D10
 10
230.8062438033683
 20
63.27140568404636
 30
0.0
 11
208.8349797548452
 21
63.27140568404636
 31
0.0
 70
   160
  1
%%c<>
 71
     5
 42
42.99872911925272
 73
     0
 74
     0
 75
     0
  3
ISO-25
100
AcDbAlignedDimension
 13
187.8075146841156
 23
119.2368224247127
 33
0.0
 14
230.8062438033683
 24
119.1488848167737
 34
0.0
100
AcDbRotatedDimension
  0
VIEWPORT
  5
BF0
330
BEC
100
AcDbEntity
 67
     1
  8
0
100
AcDbViewport
 10
203.7291666666666
 20
142.1694444444444
 30
0.0
 40
488.9499999999999
 41
341.2066666666665
 68
     1
 69
     1
 12
203.7291666666666
 22
142.1694444444444
 13
0.0
 23
0.0
 14
0.5
 24
0.5
 15
0.0
 25
0.0
 16
0.0
 26
0.0
 36
1.0
 17
0.0
 27
0.0
 37
0.0
 42
50.0
 43
0.0
 44
0.0
 45
341.2066666666665
 50
0.0
 51
0.0
 72
   100
 90
   557152
  1

281
     0
 71
     1
 74
     0
110
0.0
120
0.0
130
0.0
111
1.0
121
0.0
131
0.0
112
0.0
122
1.0
132
0.0
 79
     0
146
0.0
170
     0
 61
     5
348
BA8
292
     1
282
     1
141
0.0
142
0.0
 63
   256
361
BF2
  0
VIEWPORT
  5
BF1
330
BEC
100
AcDbEntity
 67
     1
  8
0
100
AcDbViewport
 10
203.7291666666666
 20
142.1694444444444
 30
0.0
 40
325.9666666666666
 41
227.471111111111
 68
     2
 69
     2
 12
148.5
 22
105.0
 13
0.0
 23
0.0
 14
0.5
 24
0.5
 15
0.0
 25
0.0
 16
0.0
 26
0.0
 36
1.0
 17
0.0
 27
0.0
 37
0.0
 42
50.0
 43
0.0
 44
0.0
 45
214.2
 50
0.0
 51
0.0
 72
   100
 90
   557152
  1

281
     0
 71
     1
 74
     0
110
0.0
120
0.0
130
0.0
111
1.0
121
0.0
131
0.0
112
0.0
122
1.0
132
0.0
 79
     0
146
0.0
170
     0
 61
     5
348
BA8
292
     1
282
     1
141
0.0
142
0.0
 63
   256
  0
ENDSEC
  0
SECTION
  2
OBJECTS
  0
DICTIONARY
  5
C
330
0
100
AcDbDictionary
281
     1
  3
ACAD_COLOR
350
1C
  3
ACAD_DETAILVIEWSTYLE
350
BFC
  3
ACAD_GROUP
350
D
  3
ACAD_IMAGE_VARS
350
BE5
  3
ACAD_LAYOUT
350
1A
  3
ACAD_MATERIAL
350
1B
  3
ACAD_MLEADERSTYLE
350
BF9
  3
ACAD_MLINESTYLE
350
17
  3
ACAD_PLOTSETTINGS
350
19
  3
ACAD_PLOTSTYLENAME
350
E
  3
ACAD_SCALELIST
350
BBC
  3
ACAD_SECTIONVIEWSTYLE
350
BFD
  3
ACAD_TABLESTYLE
350
BE1
  3
ACAD_VISUALSTYLE
350
BA3
  3
AcadDim
350
6BF
  3
ACDB_RECOMPOSE_DATA
350
C71
  3
AcDbVariableDictionary
350
BF3
  3
APPDATA
350
BE3
  0
SUN
  5
BE4
330
BA2
100
AcDbSun
 90
        1
290
     0
 63
     7
421
 16777215
 40
1.0
291
     1
 91
  2455826
 92
 54000000
292
     0
 70
     2
 71
   256
280
     1
  0
DICTIONARY
  5
6F0
330
6E3
100
AcDbDictionary
280
     1
281
     1
  3
ACAD_DIMASSOC
360
6FA
  0
DICTIONARY
  5
7E7
330
7DA
100
AcDbDictionary
280
     1
281
     1
  3
ACAD_DIMASSOC
360
7F1
  0
DICTIONARY
  5
853
330
846
100
AcDbDictionary
280
     1
281
     1
  3
ACAD_DIMASSOC
360
85D
  0
DICTIONARY
  5
A1F
330
A12
100
AcDbDictionary
280
     1
281
     1
  3
ACAD_DIMASSOC
360
A29
  0
DICTIONARY
  5
AF4
330
AF3
100
AcDbDictionary
280
     1
281
     1
  3
ACAD_DIMASSOC
360
AF5
  0
DICTIONARY
  5
B05
330
B04
100
AcDbDictionary
280
     1
281
     1
  3
ACAD_DIMASSOC
360
B06
  0
DICTIONARY
  5
B64
330
B57
100
AcDbDictionary
280
     1
281
     1
  3
ACAD_DIMASSOC
360
B6E
  0
DICTIONARY
  5
C61
330
C60
100
AcDbDictionary
280
     1
281
     1
  0
SUN
  5
BF2
330
BF0
100
AcDbSun
 90
        1
290
     0
 63
     7
421
 16777215
 40
1.0
291
     1
 91
  2455826
 92
 54000000
292
     0
 70
     2
 71
   256
280
     1
  0
DICTIONARY
  5
1C
102
{ACAD_REACTORS
330
C
102
}
330
C
100
AcDbDictionary
281
     1
  0
DICTIONARY
  5
BFC
102
{ACAD_REACTORS
330
C
102
}
330
C
100
AcDbDictionary
281
     1
  0
DICTIONARY
  5
D
102
{ACAD_REACTORS
330
C
102
}
330
C
100
AcDbDictionary
281
     1
  0
RASTERVARIABLES
  5
BE5
102
{ACAD_REACTORS
330
C
102
}
330
C
100
AcDbRasterVariables
 90
        0
 70
     1
 71
     1
 72
     1
  0
DICTIONARY
  5
1A
102
{ACAD_REACTORS
330
C
102
}
330
C
100
AcDbDictionary
281
     1
  3
Model
350
24
  3
Sheet1
350
BED
  0
DICTIONARY
  5
1B
102
{ACAD_REACTORS
330
C
102
}
330
C
100
AcDbDictionary
281
     1
  3
ByBlock
350
BDF
  3
ByLayer
350
BDE
  3
Global
350
BE0
  0
DICTIONARY
  5
BF9
102
{ACAD_REACTORS
330
C
102
}
330
C
100
AcDbDictionary
281
     1
  0
DICTIONARY
  5
17
102
{ACAD_REACTORS
330
C
102
}
330
C
100
AcDbDictionary
281
     1
  3
Standard
350
18
  0
DICTIONARY
  5
19
102
{ACAD_REACTORS
330
C
102
}
330
C
100
AcDbDictionary
281
     1
  0
ACDBDICTIONARYWDFLT
  5
E
102
{ACAD_REACTORS
330
C
102
}
330
C
100
AcDbDictionary
281
     1
  3
Normal
350
F
100
AcDbDictionaryWithDefault
340
F
  0
DICTIONARY
  5
BBC
102
{ACAD_REACTORS
330
C
102
}
330
C
100
AcDbDictionary
281
     1
  3
A0
350
BBD
  3
A1
350
BBE
  3
A2
350
BBF
  3
A3
350
BC0
  3
A4
350
BC1
  3
A5
350
BC2
  3
A6
350
BC3
  3
A7
350
BC4
  3
A8
350
BC5
  3
A9
350
BC6
  3
B0
350
BC7
  3
B1
350
BC8
  3
B2
350
BC9
  3
B3
350
BCA
  3
B4
350
BCB
  3
B5
350
BCC
  3
B6
350
BCD
  3
B7
350
BCE
  3
B8
350
BCF
  3
B9
350
BD0
  3
C0
350
BD1
  3
C1
350
BD2
  3
C2
350
BD3
  3
C3
350
BD4
  3
C4
350
BD5
  3
C5
350
BD6
  3
C6
350
BD7
  3
C7
350
BD8
  3
C8
350
BD9
  3
C9
350
BDA
  3
D0
350
BDB
  3
D1
350
BDC
  3
D2
350
BDD
  0
DICTIONARY
  5
BFD
102
{ACAD_REACTORS
330
C
102
}
330
C
100
AcDbDictionary
281
     1
  0
DICTIONARY
  5
BE1
102
{ACAD_REACTORS
330
C
102
}
330
C
100
AcDbDictionary
281
     1
  3
Standard
350
BE2
  0
DICTIONARY
  5
BA3
102
{ACAD_REACTORS
330
C
102
}
330
C
100
AcDbDictionary
281
     1
  3
2dWireframe
350
BA8
  3
Basic
350
BAB
  3
Brighten
350
BAF
  3
ColorChange
350
BB3
  3
Conceptual
350
BAD
  3
Dim
350
BAE
  3
EdgeColorOff
350
BB6
  3
Facepattern
350
BB2
  3
Flat
350
BA4
  3
FlatWithEdges
350
BA5
  3
Gouraud
350
BA6
  3
GouraudWithEdges
350
BA7
  3
Hidden
350
BAA
  3
JitterOff
350
BB4
  3
Linepattern
350
BB1
  3
OverhangOff
350
BB5
  3
Realistic
350
BAC
  3
Shaded
350
BBB
  3
Shaded with edges
350
BBA
  3
Shades of Gray
350
BB7
  3
Sketchy
350
BB8
  3
Thicken
350
BB0
  3
Wireframe
350
BA9
  3
X-Ray
350
BB9
  0
XRECORD
  5
6BF
102
{ACAD_REACTORS
330
C
102
}
330
C
100
AcDbXrecord
280
     1
 90
   990106
  3

 60
     0
 61
     0
 62
     1
 63
     3
 64
     1
 65
     0
 66
     0
 67
     3
 68
     1
 69
     0
 70
     0
 71
     0
 72
     0
 40
0.0
170
     2
340
0
  0
XRECORD
  5
C71
102
{ACAD_REACTORS
330
C
102
}
330
C
100
AcDbXrecord
280
     1
 90
        1
330
BE2
  0
DICTIONARY
  5
BF3
102
{ACAD_REACTORS
330
C
102
}
330
C
100
AcDbDictionary
281
     1
  3
CANNOSCALE
350
BF4
  3
CTABLESTYLE
350
BF8
  3
MSLTSCALE
350
BFA
  3
XCLIPFRAME
350
BFB
  0
DICTIONARY
  5
BE3
102
{ACAD_REACTORS
330
C
102
}
330
C
100
AcDbDictionary
281
     1
  0
DIMASSOC
  5
6FA
102
{ACAD_REACTORS
330
6F0
102
}
330
6F0
100
AcDbDimAssoc
330
6E3
 90
        1
 70
     0
 71
     0
  1
AcDbOsnapPointRef
 72
    13
331
675
 73
     2
 91
        0
 40
0.0
 10
0.0
 20
0.0
 30
2.000000000000000E+50
 75
     0
  0
DIMASSOC
  5
7F1
102
{ACAD_REACTORS
330
7E7
102
}
330
7E7
100
AcDbDimAssoc
330
7DA
 90
        3
 70
     0
 71
     0
  1
AcDbOsnapPointRef
 72
     1
331
657
 73
     2
 91
        3
 40
1.0
 10
0.0
 20
0.0
 30
2.000000000000000E+50
 75
     0
  1
AcDbOsnapPointRef
 72
     1
331
657
 73
     2
 91
        5
 40
1.0
 10
0.0
 20
0.0
 30
2.000000000000000E+50
 75
     0
  0
DIMASSOC
  5
85D
102
{ACAD_REACTORS
330
853
102
}
330
853
100
AcDbDimAssoc
330
846
 90
        3
 70
     0
 71
     0
  1
AcDbOsnapPointRef
 72
    13
331
656
 73
     2
 91
        0
 40
0.0
 10
0.0
 20
0.0
 30
2.000000000000000E+50
 75
     0
  1
AcDbOsnapPointRef
 72
     1
331
646
 73
     2
 91
        1
 40
1.0
 10
0.0
 20
0.0
 30
2.000000000000000E+50
 75
     0
  0
DIMASSOC
  5
A29
102
{ACAD_REACTORS
330
A1F
102
}
330
A1F
100
AcDbDimAssoc
330
A12
 90
        3
 70
     0
 71
     0
  1
AcDbOsnapPointRef
 72
     1
331
646
 73
     2
 91
        1
 40
1.0
 10
0.0
 20
0.0
 30
2.000000000000000E+50
 75
     0
  1
AcDbOsnapPointRef
 72
     6
331
66C
 73
     2
 91
        0
 40
1.0
 10
0.0
 20
0.0
 30
0.0
332
64D
 74
     2
 92
        0
 75
     0
  0
DIMASSOC
  5
AF5
102
{ACAD_REACTORS
330
AF4
102
}
330
AF4
100
AcDbDimAssoc
330
AF3
 90
        3
 70
     0
 71
     0
  1
AcDbOsnapPointRef
 72
     6
331
AFA
 73
     2
 91
        0
 40
-0.6255117640541287
 10
0.0
 20
0.0
 30
0.0
332
AFB
 74
     2
 92
        0
 75
     0
  1
AcDbOsnapPointRef
 72
    13
331
AF9
 73
     2
 91
        0
 40
0.0
 10
0.0
 20
0.0
 30
2.000000000000000E+50
 75
     0
  0
DIMASSOC
  5
B06
102
{ACAD_REACTORS
330
B05
102
}
330
B05
100
AcDbDimAssoc
330
B04
 90
        3
 70
     0
 71
     0
  1
AcDbOsnapPointRef
 72
     2
331
AFC
 73
     2
 91
        0
 40
0.5
 10
0.0
 20
0.0
 30
0.0
 75
     0
  1
AcDbOsnapPointRef
 72
     2
331
AFB
 73
     2
 91
        0
 40
0.5
 10
0.0
 20
0.0
 30
0.0
 75
     0
  0
DIMASSOC
  5
B6E
102
{ACAD_REACTORS
330
B64
102
}
330
B64
100
AcDbDimAssoc
330
B57
 90
        2
 70
     0
 71
     0
  1
AcDbOsnapPointRef
 72
    13
331
B02
 73
     2
 91
        0
 40
4.71238898038469
 10
0.0
 20
0.0
 30
2.000000000000000E+50
 75
     0
  0
LAYOUT
  5
24
102
{ACAD_REACTORS
330
1A
102
}
330
1A
100
AcDbPlotSettings
  1

  2
\\SF05\Brother HL-1440 series
  4
A4
  6

 40
6.72041654586792
 41
5.027085304260254
 42
6.889755249023438
 43
5.027069091796875
 44
209.9733276367188
 45
296.9259948730469
 46
-6.82
 47
-5.06
 48
0.0
 49
0.0
140
297.0000000000001
141
210.0
142
1.0
143
1.0
 70
 11956
 72
     1
 73
     1
 74
     4
  7

 75
    16
 76
     0
 77
     2
 78
   300
147
1.0
148
0.0
149
0.0
100
AcDbLayout
  1
Model
 70
     1
 71
     0
 10
0.0
 20
0.0
 11
12.0
 21
9.0
 12
0.0
 22
0.0
 32
0.0
 14
32.95364367774614
 24
41.26821672406129
 34
0.0
 15
257.1004112815915
 25
211.5215236038422
 35
0.0
146
0.0
 13
0.0
 23
0.0
 33
0.0
 16
1.0
 26
0.0
 36
0.0
 17
0.0
 27
1.0
 37
0.0
 76
     0
330
21
331
BA2
  0
LAYOUT
  5
BED
102
{ACAD_REACTORS
330
1A
102
}
330
1A
100
AcDbPlotSettings
  1

  2
none_device
  4
iso-a3
  6

 40
6.35
 41
6.35
 42
6.35
 43
6.35
 44
297.0388888888888
 45
420.1583333333333
 46
0.0
 47
0.0
 48
0.0
 49
0.0
140
0.0
141
0.0
142
1.0
143
1.0
 70
   688
 72
     1
 73
     1
 74
     5
  7

 75
    16
 76
     0
 77
     2
 78
   300
147
1.0
148
0.0
149
0.0
100
AcDbLayout
  1
Sheet1
 70
     1
 71
     1
 10
0.0
 20
0.0
 11
0.0
 21
0.0
 12
0.0
 22
0.0
 32
0.0
 14
0.0
 24
0.0
 34
0.0
 15
0.0
 25
0.0
 35
0.0
146
0.0
 13
0.0
 23
0.0
 33
0.0
 16
1.0
 26
0.0
 36
0.0
 17
0.0
 27
1.0
 37
0.0
 76
     0
330
BEC
331
BF0
  0
MATERIAL
  5
BDF
102
{ACAD_REACTORS
330
1B
102
}
330
1B
100
AcDbMaterial
  1
ByBlock
 72
     1
 94
      127
  0
MATERIAL
  5
BDE
102
{ACAD_REACTORS
330
1B
102
}
330
1B
100
AcDbMaterial
  1
ByLayer
 72
     1
 94
      127
  0
MATERIAL
  5
BE0
102
{ACAD_REACTORS
330
1B
102
}
330
1B
100
AcDbMaterial
  1
Global
 72
     1
 94
      127
  0
MLINESTYLE
  5
18
102
{ACAD_REACTORS
330
17
102
}
330
17
100
AcDbMlineStyle
  2
STANDARD
 70
     0
  3

 62
   256
 51
90.0
 52
90.0
 71
     2
 49
0.5
 62
   256
  6
BYLAYER
 49
-0.5
 62
   256
  6
BYLAYER
  0
ACDBPLACEHOLDER
  5
F
102
{ACAD_REACTORS
330
E
102
}
330
E
  0
SCALE
  5
BBD
102
{ACAD_REACTORS
330
BBC
102
}
330
BBC
100
AcDbScale
 70
     0
300
1:1
140
1.0
141
1.0
290
     1
  0
SCALE
  5
BBE
102
{ACAD_REACTORS
330
BBC
102
}
330
BBC
100
AcDbScale
 70
     0
300
1:2
140
1.0
141
2.0
290
     0
  0
SCALE
  5
BBF
102
{ACAD_REACTORS
330
BBC
102
}
330
BBC
100
AcDbScale
 70
     0
300
1:4
140
1.0
141
4.0
290
     0
  0
SCALE
  5
BC0
102
{ACAD_REACTORS
330
BBC
102
}
330
BBC
100
AcDbScale
 70
     0
300
1:5
140
1.0
141
5.0
290
     0
  0
SCALE
  5
BC1
102
{ACAD_REACTORS
330
BBC
102
}
330
BBC
100
AcDbScale
 70
     0
300
1:8
140
1.0
141
8.0
290
     0
  0
SCALE
  5
BC2
102
{ACAD_REACTORS
330
BBC
102
}
330
BBC
100
AcDbScale
 70
     0
300
1:10
140
1.0
141
10.0
290
     0
  0
SCALE
  5
BC3
102
{ACAD_REACTORS
330
BBC
102
}
330
BBC
100
AcDbScale
 70
     0
300
1:16
140
1.0
141
16.0
290
     0
  0
SCALE
  5
BC4
102
{ACAD_REACTORS
330
BBC
102
}
330
BBC
100
AcDbScale
 70
     0
300
1:20
140
1.0
141
20.0
290
     0
  0
SCALE
  5
BC5
102
{ACAD_REACTORS
330
BBC
102
}
330
BBC
100
AcDbScale
 70
     0
300
1:30
140
1.0
141
30.0
290
     0
  0
SCALE
  5
BC6
102
{ACAD_REACTORS
330
BBC
102
}
330
BBC
100
AcDbScale
 70
     0
300
1:40
140
1.0
141
40.0
290
     0
  0
SCALE
  5
BC7
102
{ACAD_REACTORS
330
BBC
102
}
330
BBC
100
AcDbScale
 70
     0
300
1:50
140
1.0
141
50.0
290
     0
  0
SCALE
  5
BC8
102
{ACAD_REACTORS
330
BBC
102
}
330
BBC
100
AcDbScale
 70
     0
300
1:100
140
1.0
141
100.0
290
     0
  0
SCALE
  5
BC9
102
{ACAD_REACTORS
330
BBC
102
}
330
BBC
100
AcDbScale
 70
     0
300
2:1
140
2.0
141
1.0
290
     0
  0
SCALE
  5
BCA
102
{ACAD_REACTORS
330
BBC
102
}
330
BBC
100
AcDbScale
 70
     0
300
4:1
140
4.0
141
1.0
290
     0
  0
SCALE
  5
BCB
102
{ACAD_REACTORS
330
BBC
102
}
330
BBC
100
AcDbScale
 70
     0
300
8:1
140
8.0
141
1.0
290
     0
  0
SCALE
  5
BCC
102
{ACAD_REACTORS
330
BBC
102
}
330
BBC
100
AcDbScale
 70
     0
300
10:1
140
10.0
141
1.0
290
     0
  0
SCALE
  5
BCD
102
{ACAD_REACTORS
330
BBC
102
}
330
BBC
100
AcDbScale
 70
     0
300
100:1
140
100.0
141
1.0
290
     0
  0
SCALE
  5
BCE
102
{ACAD_REACTORS
330
BBC
102
}
330
BBC
100
AcDbScale
 70
     0
300
1/128" = 1'-0"
140
0.0078125
141
12.0
290
     0
  0
SCALE
  5
BCF
102
{ACAD_REACTORS
330
BBC
102
}
330
BBC
100
AcDbScale
 70
     0
300
1/64" = 1'-0"
140
0.015625
141
12.0
290
     0
  0
SCALE
  5
BD0
102
{ACAD_REACTORS
330
BBC
102
}
330
BBC
100
AcDbScale
 70
     0
300
1/32" = 1'-0"
140
0.03125
141
12.0
290
     0
  0
SCALE
  5
BD1
102
{ACAD_REACTORS
330
BBC
102
}
330
BBC
100
AcDbScale
 70
     0
300
1/16" = 1'-0"
140
0.0625
141
12.0
290
     0
  0
SCALE
  5
BD2
102
{ACAD_REACTORS
330
BBC
102
}
330
BBC
100
AcDbScale
 70
     0
300
3/32" = 1'-0"
140
0.09375
141
12.0
290
     0
  0
SCALE
  5
BD3
102
{ACAD_REACTORS
330
BBC
102
}
330
BBC
100
AcDbScale
 70
     0
300
1/8" = 1'-0"
140
0.125
141
12.0
290
     0
  0
SCALE
  5
BD4
102
{ACAD_REACTORS
330
BBC
102
}
330
BBC
100
AcDbScale
 70
     0
300
3/16" = 1'-0"
140
0.1875
141
12.0
290
     0
  0
SCALE
  5
BD5
102
{ACAD_REACTORS
330
BBC
102
}
330
BBC
100
AcDbScale
 70
     0
300
1/4" = 1'-0"
140
0.25
141
12.0
290
     0
  0
SCALE
  5
BD6
102
{ACAD_REACTORS
330
BBC
102
}
330
BBC
100
AcDbScale
 70
     0
300
3/8" = 1'-0"
140
0.375
141
12.0
290
     0
  0
SCALE
  5
BD7
102
{ACAD_REACTORS
330
BBC
102
}
330
BBC
100
AcDbScale
 70
     0
300
1/2" = 1'-0"
140
0.5
141
12.0
290
     0
  0
SCALE
  5
BD8
102
{ACAD_REACTORS
330
BBC
102
}
330
BBC
100
AcDbScale
 70
     0
300
3/4" = 1'-0"
140
0.75
141
12.0
290
     0
  0
SCALE
  5
BD9
102
{ACAD_REACTORS
330
BBC
102
}
330
BBC
100
AcDbScale
 70
     0
300
1" = 1'-0"
140
1.0
141
12.0
290
     0
  0
SCALE
  5
BDA
102
{ACAD_REACTORS
330
BBC
102
}
330
BBC
100
AcDbScale
 70
     0
300
1-1/2" = 1'-0"
140
1.5
141
12.0
290
     0
  0
SCALE
  5
BDB
102
{ACAD_REACTORS
330
BBC
102
}
330
BBC
100
AcDbScale
 70
     0
300
3" = 1'-0"
140
3.0
141
12.0
290
     0
  0
SCALE
  5
BDC
102
{ACAD_REACTORS
330
BBC
102
}
330
BBC
100
AcDbScale
 70
     0
300
6" = 1'-0"
140
6.0
141
12.0
290
     0
  0
SCALE
  5
BDD
102
{ACAD_REACTORS
330
BBC
102
}
330
BBC
100
AcDbScale
 70
     0
300
1'-0" = 1'-0"
140
12.0
141
12.0
290
     0
  0
TABLESTYLE
  5
BE2
102
{ACAD_REACTORS
330
BE1
102
}
102
{ACAD_XDICTIONARY
360
C6F
102
}
330
BE1
100
AcDbTableStyle
  3
Standard
 70
     0
 71
     0
 40
0.06
 41
0.06
280
     0
281
     0
  7
Standard
140
4.5
170
     2
 62
     0
 63
   257
283
     0
 90
        4
 91
        0
  1

274
    -2
284
     1
 64
     0
275
    -2
285
     1
 65
     0
276
    -2
286
     1
 66
     0
277
    -2
287
     1
 67
     0
278
    -2
288
     1
 68
     0
279
    -2
289
     1
 69
     0
  7
Standard
140
6.0
170
     5
 62
     0
 63
   257
283
     0
 90
        4
 91
        0
  1

274
    -2
284
     1
 64
     0
275
    -2
285
     1
 65
     0
276
    -2
286
     1
 66
     0
277
    -2
287
     1
 67
     0
278
    -2
288
     1
 68
     0
279
    -2
289
     1
 69
     0
  7
Standard
140
4.5
170
     5
 62
     0
 63
   257
283
     0
 90
        4
 91
        0
  1

274
    -2
284
     1
 64
     0
275
    -2
285
     1
 65
     0
276
    -2
286
     1
 66
     0
277
    -2
287
     1
 67
     0
278
    -2
288
     1
 68
     0
279
    -2
289
     1
 69
     0
  0
VISUALSTYLE
  5
BA8
102
{ACAD_REACTORS
330
BA3
102
}
330
BA3
100
AcDbVisualStyle
  2
2dWireframe
 70
     4
177
     3
291
     0
 70
    58
 90
        0
176
     1
 90
        2
176
     1
 90
        0
176
     1
 90
        0
176
     1
 40
0.6
176
     1
 40
30.0
176
     1
 62
     7
420
 16777215
176
     1
 90
        1
176
     1
 90
        4
176
     1
 62
     7
176
     1
 62
   257
176
     1
 90
        1
176
     1
 90
        1
176
     1
 40
1.0
176
     1
 90
        0
176
     1
 62
   257
176
     1
 40
1.0
176
     1
 90
        1
176
     1
 90
        6
176
     1
 90
        2
176
     1
 62
     7
176
     1
 90
        5
176
     1
 90
        0
176
     1
 90
        0
176
     1
290
     0
176
     1
 90
        1
176
     1
 40
0.0
176
     1
 90
        0
176
     1
290
     1
176
     1
290
     1
176
     1
290
     0
176
     1
290
     0
176
     1
290
     0
176
     1
290
     0
176
     1
290
     0
176
     1
290
     0
176
     1
290
     0
176
     1
 90
       50
176
     1
 40
0.0
176
     1
 40
1.0
176
     1
 90
        0
176
     1
 62
    18
420
        0
176
     1
 90
       50
176
     1
 90
        3
176
     1
 62
     5
420
      255
176
     1
290
     0
176
     1
 90
       50
176
     1
 90
       50
176
     1
 90
       50
176
     1
290
     0
176
     1
 90
       50
176
     1
 62
   256
176
     0
 40
1.0
176
     0
 90
        2
176
     1
  1
strokes_ogs.tif
176
     1
290
     0
176
     1
 40
1.0
176
     1
 40
1.0
176
     1
  0
VISUALSTYLE
  5
BAB
102
{ACAD_REACTORS
330
BA3
102
}
330
BA3
100
AcDbVisualStyle
  2
Basic
 70
     7
177
     3
291
     1
 70
    58
 90
        1
176
     1
 90
        0
176
     1
 90
        1
176
     1
 90
        0
176
     1
 40
0.6
176
     1
 40
30.0
176
     1
 62
     7
420
 16777215
176
     1
 90
        0
176
     1
 90
        4
176
     1
 62
     7
176
     1
 62
   257
176
     1
 90
        1
176
     1
 90
        1
176
     1
 40
1.0
176
     1
 90
        8
176
     1
 62
     7
176
     1
 40
1.0
176
     1
 90
        1
176
     1
 90
        6
176
     1
 90
        2
176
     1
 62
     7
176
     1
 90
        5
176
     1
 90
        0
176
     1
 90
        0
176
     1
290
     0
176
     1
 90
        1
176
     1
 40
0.0
176
     1
 90
        0
176
     1
290
     0
176
     1
290
     1
176
     1
290
     1
176
     1
290
     0
176
     1
290
     0
176
     1
290
     0
176
     1
290
     0
176
     1
290
     0
176
     1
290
     0
176
     1
 90
       50
176
     1
 40
0.0
176
     1
 40
1.0
176
     1
 90
        0
176
     1
 62
    18
420
        0
176
     1
 90
       50
176
     1
 90
        3
176
     1
 62
     5
420
      255
176
     1
290
     0
176
     1
 90
       50
176
     1
 90
       50
176
     1
 90
       50
176
     1
290
     0
176
     1
 90
       50
176
     1
 62
   256
176
     0
 40
1.0
176
     0
 90
        2
176
     1
  1
strokes_ogs.tif
176
     1
290
     0
176
     1
 40
1.0
176
     1
 40
1.0
176
     1
  0
VISUALSTYLE
  5
BAF
102
{ACAD_REACTORS
330
BA3
102
}
330
BA3
100
AcDbVisualStyle
  2
Brighten
 70
    12
177
     3
291
     1
 70
    58
 90
        2
176
     1
 90
        2
176
     1
 90
        0
176
     1
 90
        0
176
     1
 40
0.6
176
     1
 40
30.0
176
     1
 62
     7
420
 16777215
176
     1
 90
        1
176
     1
 90
        4
176
     1
 62
     7
176
     1
 62
   257
176
     1
 90
        1
176
     1
 90
        1
176
     1
 40
1.0
176
     1
 90
        8
176
     1
 62
     7
176
     1
 40
1.0
176
     1
 90
        1
176
     1
 90
        6
176
     1
 90
        2
176
     1
 62
     7
176
     1
 90
        5
176
     1
 90
        0
176
     1
 90
        0
176
     1
290
     0
176
     1
 90
        1
176
     1
 40
50.0
176
     1
 90
        0
176
     1
290
     0
176
     1
290
     1
176
     1
290
     1
176
     1
290
     0
176
     1
290
     0
176
     1
290
     0
176
     1
290
     0
176
     1
290
     0
176
     1
290
     0
176
     1
 90
       50
176
     1
 40
0.0
176
     1
 40
1.0
176
     1
 90
        0
176
     1
 62
    18
420
        0
176
     1
 90
       50
176
     1
 90
        3
176
     1
 62
     5
420
      255
176
     1
290
     0
176
     1
 90
       50
176
     1
 90
       50
176
     1
 90
       50
176
     1
290
     0
176
     1
 90
       50
176
     1
 62
   256
176
     0
 40
1.0
176
     0
 90
        2
176
     1
  1
strokes_ogs.tif
176
     1
290
     0
176
     1
 40
1.0
176
     1
 40
1.0
176
     1
  0
VISUALSTYLE
  5
BB3
102
{ACAD_REACTORS
330
BA3
102
}
330
BA3
100
AcDbVisualStyle
  2
ColorChange
 70
    16
177
     3
291
     1
 70
    58
 90
        2
176
     1
 90
        2
176
     1
 90
        3
176
     1
 90
        0
176
     1
 40
0.6
176
     1
 40
30.0
176
     1
 62
     8
420
  8421504
176
     1
 90
        1
176
     1
 90
        4
176
     1
 62
     7
176
     1
 62
   257
176
     1
 90
        1
176
     1
 90
        1
176
     1
 40
1.0
176
     1
 90
        8
176
     1
 62
     8
420
  8421504
176
     1
 40
1.0
176
     1
 90
        1
176
     1
 90
        6
176
     1
 90
        2
176
     1
 62
     7
176
     1
 90
        5
176
     1
 90
        0
176
     1
 90
        0
176
     1
290
     0
176
     1
 90
        1
176
     1
 40
0.0
176
     1
 90
        0
176
     1
290
     0
176
     1
290
     1
176
     1
290
     1
176
     1
290
     0
176
     1
290
     0
176
     1
290
     0
176
     1
290
     0
176
     1
290
     0
176
     1
290
     0
176
     1
 90
       50
176
     1
 40
0.0
176
     1
 40
1.0
176
     1
 90
        0
176
     1
 62
    18
420
        0
176
     1
 90
       50
176
     1
 90
        3
176
     1
 62
     5
420
      255
176
     1
290
     0
176
     1
 90
       50
176
     1
 90
       50
176
     1
 90
       50
176
     1
290
     0
176
     1
 90
       50
176
     1
 62
   256
176
     0
 40
1.0
176
     0
 90
        2
176
     1
  1
strokes_ogs.tif
176
     1
290
     0
176
     1
 40
1.0
176
     1
 40
1.0
176
     1
  0
VISUALSTYLE
  5
BAD
102
{ACAD_REACTORS
330
BA3
102
}
330
BA3
100
AcDbVisualStyle
  2
Conceptual
 70
     9
177
     3
291
     0
 70
    58
 90
        3
176
     1
 90
        2
176
     1
 90
        0
176
     1
 90
        0
176
     1
 40
0.6
176
     1
 40
30.0
176
     1
 62
     7
420
 16777215
176
     1
 90
        2
176
     1
 90
        2
176
     1
 62
     7
176
     1
 62
   257
176
     1
 90
        1
176
     1
 90
        1
176
     1
 40
179.0
176
     1
 90
        8
176
     1
 62
     7
176
     1
 40
1.0
176
     1
 90
        1
176
     1
 90
        6
176
     1
 90
        2
176
     1
 62
     7
176
     1
 90
        3
176
     1
 90
        0
176
     1
 90
        0
176
     1
290
     0
176
     1
 90
        1
176
     1
 40
0.0
176
     1
 90
        0
176
     1
290
     0
176
     1
290
     1
176
     1
290
     1
176
     1
290
     0
176
     1
290
     0
176
     1
290
     0
176
     1
290
     0
176
     1
290
     0
176
     1
290
     0
176
     1
 90
       50
176
     1
 40
0.0
176
     1
 40
1.0
176
     1
 90
        0
176
     1
 62
    18
420
        0
176
     1
 90
       50
176
     1
 90
        3
176
     1
 62
     5
420
      255
176
     1
290
     0
176
     1
 90
       50
176
     1
 90
       50
176
     1
 90
       50
176
     1
290
     0
176
     1
 90
       50
176
     1
 62
   256
176
     0
 40
1.0
176
     0
 90
        2
176
     1
  1
strokes_ogs.tif
176
     1
290
     0
176
     1
 40
1.0
176
     1
 40
1.0
176
     1
  0
VISUALSTYLE
  5
BAE
102
{ACAD_REACTORS
330
BA3
102
}
330
BA3
100
AcDbVisualStyle
  2
Dim
 70
    11
177
     3
291
     1
 70
    58
 90
        2
176
     1
 90
        2
176
     1
 90
        0
176
     1
 90
        0
176
     1
 40
0.6
176
     1
 40
30.0
176
     1
 62
     7
420
 16777215
176
     1
 90
        1
176
     1
 90
        4
176
     1
 62
     7
176
     1
 62
   257
176
     1
 90
        1
176
     1
 90
        1
176
     1
 40
1.0
176
     1
 90
        8
176
     1
 62
     7
176
     1
 40
1.0
176
     1
 90
        1
176
     1
 90
        6
176
     1
 90
        2
176
     1
 62
     7
176
     1
 90
        5
176
     1
 90
        0
176
     1
 90
        0
176
     1
290
     0
176
     1
 90
        1
176
     1
 40
-50.0
176
     1
 90
        0
176
     1
290
     0
176
     1
290
     1
176
     1
290
     1
176
     1
290
     0
176
     1
290
     0
176
     1
290
     0
176
     1
290
     0
176
     1
290
     0
176
     1
290
     0
176
     1
 90
       50
176
     1
 40
0.0
176
     1
 40
1.0
176
     1
 90
        0
176
     1
 62
    18
420
        0
176
     1
 90
       50
176
     1
 90
        3
176
     1
 62
     5
420
      255
176
     1
290
     0
176
     1
 90
       50
176
     1
 90
       50
176
     1
 90
       50
176
     1
290
     0
176
     1
 90
       50
176
     1
 62
   256
176
     0
 40
1.0
176
     0
 90
        2
176
     1
  1
strokes_ogs.tif
176
     1
290
     0
176
     1
 40
1.0
176
     1
 40
1.0
176
     1
  0
VISUALSTYLE
  5
BB6
102
{ACAD_REACTORS
330
BA3
102
}
330
BA3
100
AcDbVisualStyle
  2
EdgeColorOff
 70
    22
177
     3
291
     1
 70
    58
 90
        2
176
     0
 90
        2
176
     0
 90
        0
176
     0
 90
        0
176
     0
 40
0.6
176
     0
 40
30.0
176
     0
 62
     7
420
 16777215
176
     0
 90
        1
176
     0
 90
        4
176
     0
 62
     7
176
     0
 62
   257
176
     0
 90
        1
176
     0
 90
        1
176
     0
 40
1.0
176
     0
 90
        8
176
     2
 62
     7
176
     0
 40
1.0
176
     0
 90
        1
176
     0
 90
        6
176
     0
 90
        2
176
     0
 62
     7
176
     0
 90
        5
176
     0
 90
        0
176
     0
 90
        0
176
     0
290
     0
176
     0
 90
        1
176
     0
 40
0.0
176
     0
 90
        0
176
     0
290
     0
176
     0
290
     1
176
     0
290
     1
176
     0
290
     0
176
     0
290
     0
176
     0
290
     0
176
     0
290
     0
176
     0
290
     0
176
     0
290
     0
176
     0
 90
       50
176
     0
 40
0.0
176
     0
 40
1.0
176
     0
 90
        0
176
     0
 62
    18
420
        0
176
     0
 90
       50
176
     0
 90
        3
176
     0
 62
     5
420
      255
176
     0
290
     0
176
     0
 90
       50
176
     0
 90
       50
176
     0
 90
       50
176
     0
290
     0
176
     0
 90
       50
176
     0
 62
   256
176
     0
 40
1.0
176
     0
 90
        2
176
     0
  1
strokes_ogs.tif
176
     0
290
     0
176
     0
 40
1.0
176
     0
 40
1.0
176
     0
  0
VISUALSTYLE
  5
BB2
102
{ACAD_REACTORS
330
BA3
102
}
330
BA3
100
AcDbVisualStyle
  2
Facepattern
 70
    15
177
     3
291
     1
 70
    58
 90
        2
176
     1
 90
        2
176
     1
 90
        0
176
     1
 90
        0
176
     1
 40
0.6
176
     1
 40
30.0
176
     1
 62
     7
420
 16777215
176
     1
 90
        1
176
     1
 90
        4
176
     1
 62
     7
176
     1
 62
   257
176
     1
 90
        1
176
     1
 90
        1
176
     1
 40
1.0
176
     1
 90
        8
176
     1
 62
     7
176
     1
 40
1.0
176
     1
 90
        1
176
     1
 90
        6
176
     1
 90
        2
176
     1
 62
     7
176
     1
 90
        5
176
     1
 90
        0
176
     1
 90
        0
176
     1
290
     0
176
     1
 90
        1
176
     1
 40
0.0
176
     1
 90
        0
176
     1
290
     0
176
     1
290
     1
176
     1
290
     1
176
     1
290
     0
176
     1
290
     0
176
     1
290
     0
176
     1
290
     0
176
     1
290
     0
176
     1
290
     0
176
     1
 90
       50
176
     1
 40
0.0
176
     1
 40
1.0
176
     1
 90
        0
176
     1
 62
    18
420
        0
176
     1
 90
       50
176
     1
 90
        3
176
     1
 62
     5
420
      255
176
     1
290
     0
176
     1
 90
       50
176
     1
 90
       50
176
     1
 90
       50
176
     1
290
     0
176
     1
 90
       50
176
     1
 62
   256
176
     0
 40
1.0
176
     0
 90
        2
176
     1
  1
strokes_ogs.tif
176
     1
290
     0
176
     1
 40
1.0
176
     1
 40
1.0
176
     1
  0
VISUALSTYLE
  5
BA4
102
{ACAD_REACTORS
330
BA3
102
}
330
BA3
100
AcDbVisualStyle
  2
Flat
 70
     0
177
     3
291
     1
 70
    58
 90
        2
176
     1
 90
        1
176
     1
 90
        1
176
     1
 90
        2
176
     1
 40
0.6
176
     1
 40
30.0
176
     1
 62
     7
420
 16777215
176
     1
 90
        0
176
     1
 90
        0
176
     1
 62
     7
176
     1
 62
   257
176
     1
 90
        1
176
     1
 90
        1
176
     1
 40
1.0
176
     1
 90
        8
176
     1
 62
     7
176
     1
 40
1.0
176
     1
 90
        1
176
     1
 90
        6
176
     1
 90
        2
176
     1
 62
     7
176
     1
 90
        5
176
     1
 90
        0
176
     1
 90
        0
176
     1
290
     0
176
     1
 90
       13
176
     1
 40
0.0
176
     1
 90
        0
176
     1
290
     0
176
     1
290
     1
176
     1
290
     1
176
     1
290
     0
176
     1
290
     0
176
     1
290
     0
176
     1
290
     0
176
     1
290
     0
176
     1
290
     0
176
     1
 90
       50
176
     1
 40
0.0
176
     1
 40
1.0
176
     1
 90
        0
176
     1
 62
    18
420
        0
176
     1
 90
       50
176
     1
 90
        3
176
     1
 62
     5
420
      255
176
     1
290
     0
176
     1
 90
       50
176
     1
 90
       50
176
     1
 90
       50
176
     1
290
     0
176
     1
 90
       50
176
     1
 62
   256
176
     0
 40
1.0
176
     0
 90
        2
176
     1
  1
strokes_ogs.tif
176
     1
290
     0
176
     1
 40
1.0
176
     1
 40
1.0
176
     1
  0
VISUALSTYLE
  5
BA5
102
{ACAD_REACTORS
330
BA3
102
}
330
BA3
100
AcDbVisualStyle
  2
FlatWithEdges
 70
     1
177
     3
291
     1
 70
    58
 90
        2
176
     1
 90
        1
176
     1
 90
        1
176
     1
 90
        2
176
     1
 40
0.6
176
     1
 40
30.0
176
     1
 62
     7
420
 16777215
176
     1
 90
        1
176
     1
 90
        0
176
     1
 62
     7
176
     1
 62
   257
176
     1
 90
        1
176
     1
 90
        1
176
     1
 40
1.0
176
     1
 90
        0
176
     1
 62
   257
176
     1
 40
1.0
176
     1
 90
        1
176
     1
 90
        6
176
     1
 90
        2
176
     1
 62
     7
176
     1
 90
        5
176
     1
 90
        0
176
     1
 90
        0
176
     1
290
     0
176
     1
 90
       13
176
     1
 40
0.0
176
     1
 90
        0
176
     1
290
     0
176
     1
290
     1
176
     1
290
     1
176
     1
290
     0
176
     1
290
     0
176
     1
290
     0
176
     1
290
     0
176
     1
290
     0
176
     1
290
     0
176
     1
 90
       50
176
     1
 40
0.0
176
     1
 40
1.0
176
     1
 90
        0
176
     1
 62
    18
420
        0
176
     1
 90
       50
176
     1
 90
        3
176
     1
 62
     5
420
      255
176
     1
290
     0
176
     1
 90
       50
176
     1
 90
       50
176
     1
 90
       50
176
     1
290
     0
176
     1
 90
       50
176
     1
 62
   256
176
     0
 40
1.0
176
     0
 90
        2
176
     1
  1
strokes_ogs.tif
176
     1
290
     0
176
     1
 40
1.0
176
     1
 40
1.0
176
     1
  0
VISUALSTYLE
  5
BA6
102
{ACAD_REACTORS
330
BA3
102
}
330
BA3
100
AcDbVisualStyle
  2
Gouraud
 70
     2
177
     3
291
     1
 70
    58
 90
        2
176
     1
 90
        2
176
     1
 90
        1
176
     1
 90
        2
176
     1
 40
0.6
176
     1
 40
30.0
176
     1
 62
     7
420
 16777215
176
     1
 90
        0
176
     1
 90
        0
176
     1
 62
     7
176
     1
 62
   257
176
     1
 90
        1
176
     1
 90
        1
176
     1
 40
1.0
176
     1
 90
        0
176
     1
 62
     7
176
     1
 40
1.0
176
     1
 90
        1
176
     1
 90
        6
176
     1
 90
        2
176
     1
 62
     7
176
     1
 90
        5
176
     1
 90
        0
176
     1
 90
        0
176
     1
290
     0
176
     1
 90
       13
176
     1
 40
0.0
176
     1
 90
        0
176
     1
290
     0
176
     1
290
     1
176
     1
290
     1
176
     1
290
     0
176
     1
290
     0
176
     1
290
     0
176
     1
290
     0
176
     1
290
     0
176
     1
290
     0
176
     1
 90
       50
176
     1
 40
0.0
176
     1
 40
1.0
176
     1
 90
        0
176
     1
 62
    18
420
        0
176
     1
 90
       50
176
     1
 90
        3
176
     1
 62
     5
420
      255
176
     1
290
     0
176
     1
 90
       50
176
     1
 90
       50
176
     1
 90
       50
176
     1
290
     0
176
     1
 90
       50
176
     1
 62
   256
176
     0
 40
1.0
176
     0
 90
        2
176
     1
  1
strokes_ogs.tif
176
     1
290
     0
176
     1
 40
1.0
176
     1
 40
1.0
176
     1
  0
VISUALSTYLE
  5
BA7
102
{ACAD_REACTORS
330
BA3
102
}
330
BA3
100
AcDbVisualStyle
  2
GouraudWithEdges
 70
     3
177
     3
291
     1
 70
    58
 90
        2
176
     1
 90
        2
176
     1
 90
        1
176
     1
 90
        2
176
     1
 40
0.6
176
     1
 40
30.0
176
     1
 62
     7
420
 16777215
176
     1
 90
        1
176
     1
 90
        0
176
     1
 62
     7
176
     1
 62
   257
176
     1
 90
        1
176
     1
 90
        1
176
     1
 40
1.0
176
     1
 90
        0
176
     1
 62
   257
176
     1
 40
1.0
176
     1
 90
        1
176
     1
 90
        6
176
     1
 90
        2
176
     1
 62
     7
176
     1
 90
        5
176
     1
 90
        0
176
     1
 90
        0
176
     1
290
     0
176
     1
 90
       13
176
     1
 40
0.0
176
     1
 90
        0
176
     1
290
     0
176
     1
290
     1
176
     1
290
     1
176
     1
290
     0
176
     1
290
     0
176
     1
290
     0
176
     1
290
     0
176
     1
290
     0
176
     1
290
     0
176
     1
 90
       50
176
     1
 40
0.0
176
     1
 40
1.0
176
     1
 90
        0
176
     1
 62
    18
420
        0
176
     1
 90
       50
176
     1
 90
        3
176
     1
 62
     5
420
      255
176
     1
290
     0
176
     1
 90
       50
176
     1
 90
       50
176
     1
 90
       50
176
     1
290
     0
176
     1
 90
       50
176
     1
 62
   256
176
     0
 40
1.0
176
     0
 90
        2
176
     1
  1
strokes_ogs.tif
176
     1
290
     0
176
     1
 40
1.0
176
     1
 40
1.0
176
     1
  0
VISUALSTYLE
  5
BAA
102
{ACAD_REACTORS
330
BA3
102
}
330
BA3
100
AcDbVisualStyle
  2
Hidden
 70
     6
177
     3
291
     0
 70
    58
 90
        1
176
     1
 90
        2
176
     1
 90
        2
176
     1
 90
        0
176
     1
 40
0.6
176
     1
 40
30.0
176
     1
 62
     7
420
 16777215
176
     1
 90
        2
176
     1
 90
        2
176
     1
 62
     7
176
     1
 62
   257
176
     1
 90
        2
176
     1
 90
        1
176
     1
 40
40.0
176
     1
 90
        0
176
     1
 62
   257
176
     1
 40
1.0
176
     1
 90
        1
176
     1
 90
        6
176
     1
 90
        2
176
     1
 62
     7
176
     1
 90
        3
176
     1
 90
        0
176
     1
 90
        0
176
     1
290
     0
176
     1
 90
        1
176
     1
 40
0.0
176
     1
 90
        0
176
     1
290
     0
176
     1
290
     1
176
     1
290
     1
176
     1
290
     0
176
     1
290
     0
176
     1
290
     0
176
     1
290
     0
176
     1
290
     0
176
     1
290
     0
176
     1
 90
       50
176
     1
 40
0.0
176
     1
 40
1.0
176
     1
 90
        0
176
     1
 62
    18
420
        0
176
     1
 90
       50
176
     1
 90
        3
176
     1
 62
     5
420
      255
176
     1
290
     0
176
     1
 90
       50
176
     1
 90
       50
176
     1
 90
       50
176
     1
290
     0
176
     1
 90
       50
176
     1
 62
   256
176
     0
 40
1.0
176
     0
 90
        2
176
     1
  1
strokes_ogs.tif
176
     1
290
     0
176
     1
 40
1.0
176
     1
 40
1.0
176
     1
  0
VISUALSTYLE
  5
BB4
102
{ACAD_REACTORS
330
BA3
102
}
330
BA3
100
AcDbVisualStyle
  2
JitterOff
 70
    20
177
     3
291
     1
 70
    58
 90
        2
176
     0
 90
        2
176
     0
 90
        0
176
     0
 90
        0
176
     0
 40
0.6
176
     0
 40
30.0
176
     0
 62
     7
420
 16777215
176
     0
 90
        1
176
     0
 90
        4
176
     0
 62
     7
176
     0
 62
   257
176
     0
 90
        1
176
     0
 90
        1
176
     0
 40
1.0
176
     0
 90
       10
176
     2
 62
     7
176
     0
 40
1.0
176
     0
 90
        1
176
     0
 90
        6
176
     0
 90
        2
176
     0
 62
     7
176
     0
 90
        5
176
     0
 90
        0
176
     0
 90
        0
176
     0
290
     0
176
     0
 90
        1
176
     0
 40
0.0
176
     0
 90
        0
176
     0
290
     0
176
     0
290
     1
176
     0
290
     1
176
     0
290
     0
176
     0
290
     0
176
     0
290
     0
176
     0
290
     0
176
     0
290
     0
176
     0
290
     0
176
     0
 90
       50
176
     0
 40
0.0
176
     0
 40
1.0
176
     0
 90
        0
176
     0
 62
    18
420
        0
176
     0
 90
       50
176
     0
 90
        3
176
     0
 62
     5
420
      255
176
     0
290
     0
176
     0
 90
       50
176
     0
 90
       50
176
     0
 90
       50
176
     0
290
     0
176
     0
 90
       50
176
     0
 62
   256
176
     0
 40
1.0
176
     0
 90
        2
176
     0
  1
strokes_ogs.tif
176
     0
290
     0
176
     0
 40
1.0
176
     0
 40
1.0
176
     0
  0
VISUALSTYLE
  5
BB1
102
{ACAD_REACTORS
330
BA3
102
}
330
BA3
100
AcDbVisualStyle
  2
Linepattern
 70
    14
177
     3
291
     1
 70
    58
 90
        2
176
     1
 90
        2
176
     1
 90
        0
176
     1
 90
        0
176
     1
 40
0.6
176
     1
 40
30.0
176
     1
 62
     7
420
 16777215
176
     1
 90
        1
176
     1
 90
        4
176
     1
 62
     7
176
     1
 62
   257
176
     1
 90
        7
176
     1
 90
        7
176
     1
 40
1.0
176
     1
 90
        8
176
     1
 62
     7
176
     1
 40
1.0
176
     1
 90
        1
176
     1
 90
        6
176
     1
 90
        2
176
     1
 62
     7
176
     1
 90
        5
176
     1
 90
        0
176
     1
 90
        0
176
     1
290
     0
176
     1
 90
        1
176
     1
 40
0.0
176
     1
 90
        0
176
     1
290
     0
176
     1
290
     1
176
     1
290
     1
176
     1
290
     0
176
     1
290
     0
176
     1
290
     0
176
     1
290
     0
176
     1
290
     0
176
     1
290
     0
176
     1
 90
       50
176
     1
 40
0.0
176
     1
 40
1.0
176
     1
 90
        0
176
     1
 62
    18
420
        0
176
     1
 90
       50
176
     1
 90
        3
176
     1
 62
     5
420
      255
176
     1
290
     0
176
     1
 90
       50
176
     1
 90
       50
176
     1
 90
       50
176
     1
290
     0
176
     1
 90
       50
176
     1
 62
   256
176
     0
 40
1.0
176
     0
 90
        2
176
     1
  1
strokes_ogs.tif
176
     1
290
     0
176
     1
 40
1.0
176
     1
 40
1.0
176
     1
  0
VISUALSTYLE
  5
BB5
102
{ACAD_REACTORS
330
BA3
102
}
330
BA3
100
AcDbVisualStyle
  2
OverhangOff
 70
    21
177
     3
291
     1
 70
    58
 90
        2
176
     0
 90
        2
176
     0
 90
        0
176
     0
 90
        0
176
     0
 40
0.6
176
     0
 40
30.0
176
     0
 62
     7
420
 16777215
176
     0
 90
        1
176
     0
 90
        4
176
     0
 62
     7
176
     0
 62
   257
176
     0
 90
        1
176
     0
 90
        1
176
     0
 40
1.0
176
     0
 90
        9
176
     2
 62
     7
176
     0
 40
1.0
176
     0
 90
        1
176
     0
 90
        6
176
     0
 90
        2
176
     0
 62
     7
176
     0
 90
        5
176
     0
 90
        0
176
     0
 90
        0
176
     0
290
     0
176
     0
 90
        1
176
     0
 40
0.0
176
     0
 90
        0
176
     0
290
     0
176
     0
290
     1
176
     0
290
     1
176
     0
290
     0
176
     0
290
     0
176
     0
290
     0
176
     0
290
     0
176
     0
290
     0
176
     0
290
     0
176
     0
 90
       50
176
     0
 40
0.0
176
     0
 40
1.0
176
     0
 90
        0
176
     0
 62
    18
420
        0
176
     0
 90
       50
176
     0
 90
        3
176
     0
 62
     5
420
      255
176
     0
290
     0
176
     0
 90
       50
176
     0
 90
       50
176
     0
 90
       50
176
     0
290
     0
176
     0
 90
       50
176
     0
 62
   256
176
     0
 40
1.0
176
     0
 90
        2
176
     0
  1
strokes_ogs.tif
176
     0
290
     0
176
     0
 40
1.0
176
     0
 40
1.0
176
     0
  0
VISUALSTYLE
  5
BAC
102
{ACAD_REACTORS
330
BA3
102
}
330
BA3
100
AcDbVisualStyle
  2
Realistic
 70
     8
177
     3
291
     0
 70
    58
 90
        2
176
     1
 90
        3
176
     1
 90
        0
176
     1
 90
        2
176
     1
 40
0.6
176
     1
 40
30.0
176
     1
 62
     7
420
 16777215
176
     1
 90
        0
176
     1
 90
        0
176
     1
 62
     7
176
     1
 62
   257
176
     1
 90
        1
176
     1
 90
        1
176
     1
 40
1.0
176
     1
 90
        8
176
     1
 62
   257
176
     1
 40
1.0
176
     1
 90
        1
176
     1
 90
        6
176
     1
 90
        2
176
     1
 62
     7
176
     1
 90
        3
176
     1
 90
        0
176
     1
 90
        0
176
     1
290
     0
176
     1
 90
       13
176
     1
 40
0.0
176
     1
 90
        0
176
     1
290
     0
176
     1
290
     1
176
     1
290
     1
176
     1
290
     0
176
     1
290
     0
176
     1
290
     0
176
     1
290
     0
176
     1
290
     0
176
     1
290
     0
176
     1
 90
       50
176
     1
 40
0.0
176
     1
 40
1.0
176
     1
 90
        0
176
     1
 62
    18
420
        0
176
     1
 90
       50
176
     1
 90
        3
176
     1
 62
     5
420
      255
176
     1
290
     0
176
     1
 90
       50
176
     1
 90
       50
176
     1
 90
       50
176
     1
290
     0
176
     1
 90
       50
176
     1
 62
   256
176
     0
 40
1.0
176
     0
 90
        2
176
     1
  1
strokes_ogs.tif
176
     1
290
     0
176
     1
 40
1.0
176
     1
 40
1.0
176
     1
  0
VISUALSTYLE
  5
BBB
102
{ACAD_REACTORS
330
BA3
102
}
330
BA3
100
AcDbVisualStyle
  2
Shaded
 70
    27
177
     3
291
     0
 70
    58
 90
        2
176
     1
 90
        2
176
     1
 90
        1
176
     1
 90
        2
176
     1
 40
0.6
176
     1
 40
30.0
176
     1
 62
     7
420
 16777215
176
     1
 90
        0
176
     1
 90
        4
176
     1
 62
     7
176
     1
 62
   257
176
     1
 90
        1
176
     1
 90
        1
176
     1
 40
1.0
176
     1
 90
        8
176
     1
 62
   257
176
     1
 40
1.0
176
     1
 90
        1
176
     1
 90
        6
176
     1
 90
        2
176
     1
 62
     8
420
  7895160
176
     1
 90
        3
176
     1
 90
        0
176
     1
 90
        0
176
     1
290
     0
176
     1
 90
        5
176
     1
 40
0.0
176
     1
 90
        0
176
     1
290
     0
176
     1
290
     1
176
     1
290
     1
176
     1
290
     0
176
     1
290
     0
176
     1
290
     0
176
     1
290
     0
176
     1
290
     0
176
     1
290
     0
176
     1
 90
       50
176
     1
 40
0.0
176
     1
 40
1.0
176
     1
 90
        0
176
     1
 62
    18
420
        0
176
     1
 90
       50
176
     1
 90
        3
176
     1
 62
     5
420
      255
176
     1
290
     0
176
     1
 90
       50
176
     1
 90
       50
176
     1
 90
       50
176
     1
290
     0
176
     1
 90
       50
176
     1
 62
   256
176
     0
 40
1.0
176
     0
 90
        2
176
     1
  1
strokes_ogs.tif
176
     1
290
     0
176
     1
 40
1.0
176
     1
 40
1.0
176
     1
  0
VISUALSTYLE
  5
BBA
102
{ACAD_REACTORS
330
BA3
102
}
330
BA3
100
AcDbVisualStyle
  2
Shaded with edges
 70
    26
177
     3
291
     0
 70
    58
 90
        2
176
     1
 90
        2
176
     1
 90
        1
176
     1
 90
        2
176
     1
 40
0.6
176
     1
 40
30.0
176
     1
 62
     7
420
 16777215
176
     1
 90
        1
176
     1
 90
       10
176
     1
 62
     7
176
     1
 62
   257
176
     1
 90
        2
176
     1
 90
        1
176
     1
 40
1.0
176
     1
 90
        8
176
     1
 62
   257
176
     1
 40
1.0
176
     1
 90
        1
176
     1
 90
        6
176
     1
 90
        2
176
     1
 62
     7
176
     1
 90
        3
176
     1
 90
        0
176
     1
 90
        0
176
     1
290
     0
176
     1
 90
        5
176
     1
 40
0.0
176
     1
 90
        0
176
     1
290
     0
176
     1
290
     1
176
     1
290
     1
176
     1
290
     0
176
     1
290
     0
176
     1
290
     0
176
     1
290
     0
176
     1
290
     0
176
     1
290
     0
176
     1
 90
       50
176
     1
 40
0.0
176
     1
 40
1.0
176
     1
 90
        0
176
     1
 62
    18
420
        0
176
     1
 90
       50
176
     1
 90
        3
176
     1
 62
     5
420
      255
176
     1
290
     0
176
     1
 90
       50
176
     1
 90
       50
176
     1
 90
       50
176
     1
290
     0
176
     1
 90
       50
176
     1
 62
   256
176
     0
 40
1.0
176
     0
 90
        2
176
     1
  1
strokes_ogs.tif
176
     1
290
     0
176
     1
 40
1.0
176
     1
 40
1.0
176
     1
  0
VISUALSTYLE
  5
BB7
102
{ACAD_REACTORS
330
BA3
102
}
330
BA3
100
AcDbVisualStyle
  2
Shades of Gray
 70
    23
177
     3
291
     0
 70
    58
 90
        2
176
     1
 90
        2
176
     1
 90
        3
176
     1
 90
        0
176
     1
 40
0.6
176
     1
 40
30.0
176
     1
 62
     7
420
 16777215
176
     1
 90
        2
176
     1
 90
        2
176
     1
 62
     7
176
     1
 62
     7
176
     1
 90
        1
176
     1
 90
        1
176
     1
 40
40.0
176
     1
 90
        8
176
     1
 62
     7
176
     1
 40
1.0
176
     1
 90
        1
176
     1
 90
        6
176
     1
 90
        2
176
     1
 62
     7
176
     1
 90
        3
176
     1
 90
        0
176
     1
 90
        0
176
     1
290
     0
176
     1
 90
        1
176
     1
 40
0.0
176
     1
 90
        0
176
     1
290
     0
176
     1
290
     1
176
     1
290
     1
176
     1
290
     0
176
     1
290
     0
176
     1
290
     0
176
     1
290
     0
176
     1
290
     0
176
     1
290
     0
176
     1
 90
       50
176
     1
 40
0.0
176
     1
 40
1.0
176
     1
 90
        0
176
     1
 62
    18
420
        0
176
     1
 90
       50
176
     1
 90
        3
176
     1
 62
     5
420
      255
176
     1
290
     0
176
     1
 90
       50
176
     1
 90
       50
176
     1
 90
       50
176
     1
290
     0
176
     1
 90
       50
176
     1
 62
   256
176
     0
 40
1.0
176
     0
 90
        2
176
     1
  1
strokes_ogs.tif
176
     1
290
     0
176
     1
 40
1.0
176
     1
 40
1.0
176
     1
  0
VISUALSTYLE
  5
BB8
102
{ACAD_REACTORS
330
BA3
102
}
330
BA3
100
AcDbVisualStyle
  2
Sketchy
 70
    24
177
     3
291
     0
 70
    58
 90
        1
176
     1
 90
        2
176
     1
 90
        2
176
     1
 90
        0
176
     1
 40
0.6
176
     1
 40
30.0
176
     1
 62
     7
420
 16777215
176
     1
 90
        2
176
     1
 90
        2
176
     1
 62
     7
176
     1
 62
     7
176
     1
 90
        1
176
     1
 90
        1
176
     1
 40
40.0
176
     1
 90
       11
176
     1
 62
     7
176
     1
 40
1.0
176
     1
 90
        1
176
     1
 90
        6
176
     1
 90
        2
176
     1
 62
     7
176
     1
 90
        6
176
     1
 90
        0
176
     1
 90
        0
176
     1
290
     0
176
     1
 90
        1
176
     1
 40
0.0
176
     1
 90
        0
176
     1
290
     0
176
     1
290
     1
176
     1
290
     1
176
     1
290
     0
176
     1
290
     0
176
     1
290
     0
176
     1
290
     0
176
     1
290
     0
176
     1
290
     0
176
     1
 90
       50
176
     1
 40
0.0
176
     1
 40
1.0
176
     1
 90
        0
176
     1
 62
    18
420
        0
176
     1
 90
       50
176
     1
 90
        3
176
     1
 62
     5
420
      255
176
     1
290
     0
176
     1
 90
       50
176
     1
 90
       50
176
     1
 90
       50
176
     1
290
     0
176
     1
 90
       50
176
     1
 62
   256
176
     0
 40
1.0
176
     0
 90
        2
176
     1
  1
strokes_ogs.tif
176
     1
290
     0
176
     1
 40
1.0
176
     1
 40
1.0
176
     1
  0
VISUALSTYLE
  5
BB0
102
{ACAD_REACTORS
330
BA3
102
}
330
BA3
100
AcDbVisualStyle
  2
Thicken
 70
    13
177
     3
291
     1
 70
    58
 90
        2
176
     1
 90
        2
176
     1
 90
        0
176
     1
 90
        0
176
     1
 40
0.6
176
     1
 40
30.0
176
     1
 62
     7
420
 16777215
176
     1
 90
        1
176
     1
 90
        4
176
     1
 62
     7
176
     1
 62
   257
176
     1
 90
        1
176
     1
 90
        1
176
     1
 40
1.0
176
     1
 90
       12
176
     1
 62
     7
176
     1
 40
1.0
176
     1
 90
        1
176
     1
 90
        6
176
     1
 90
        2
176
     1
 62
     7
176
     1
 90
        5
176
     1
 90
        0
176
     1
 90
        0
176
     1
290
     0
176
     1
 90
        1
176
     1
 40
0.0
176
     1
 90
        0
176
     1
290
     0
176
     1
290
     1
176
     1
290
     1
176
     1
290
     0
176
     1
290
     0
176
     1
290
     0
176
     1
290
     0
176
     1
290
     0
176
     1
290
     0
176
     1
 90
       50
176
     1
 40
0.0
176
     1
 40
1.0
176
     1
 90
        0
176
     1
 62
    18
420
        0
176
     1
 90
       50
176
     1
 90
        3
176
     1
 62
     5
420
      255
176
     1
290
     0
176
     1
 90
       50
176
     1
 90
       50
176
     1
 90
       50
176
     1
290
     0
176
     1
 90
       50
176
     1
 62
   256
176
     0
 40
1.0
176
     0
 90
        2
176
     1
  1
strokes_ogs.tif
176
     1
290
     0
176
     1
 40
1.0
176
     1
 40
1.0
176
     1
  0
VISUALSTYLE
  5
BA9
102
{ACAD_REACTORS
330
BA3
102
}
330
BA3
100
AcDbVisualStyle
  2
Wireframe
 70
     5
177
     3
291
     0
 70
    58
 90
        0
176
     1
 90
        2
176
     1
 90
        0
176
     1
 90
        0
176
     1
 40
0.6
176
     1
 40
30.0
176
     1
 62
     7
420
 16777215
176
     1
 90
        1
176
     1
 90
        4
176
     1
 62
     7
176
     1
 62
   257
176
     1
 90
        1
176
     1
 90
        1
176
     1
 40
1.0
176
     1
 90
        0
176
     1
 62
   257
176
     1
 40
1.0
176
     1
 90
        1
176
     1
 90
        6
176
     1
 90
        2
176
     1
 62
     7
176
     1
 90
        3
176
     1
 90
        0
176
     1
 90
        0
176
     1
290
     0
176
     1
 90
        1
176
     1
 40
0.0
176
     1
 90
        0
176
     1
290
     0
176
     1
290
     1
176
     1
290
     1
176
     1
290
     0
176
     1
290
     0
176
     1
290
     0
176
     1
290
     0
176
     1
290
     0
176
     1
290
     0
176
     1
 90
       50
176
     1
 40
0.0
176
     1
 40
1.0
176
     1
 90
        0
176
     1
 62
    18
420
        0
176
     1
 90
       50
176
     1
 90
        3
176
     1
 62
     5
420
      255
176
     1
290
     0
176
     1
 90
       50
176
     1
 90
       50
176
     1
 90
       50
176
     1
290
     0
176
     1
 90
       50
176
     1
 62
   256
176
     0
 40
1.0
176
     0
 90
        2
176
     1
  1
strokes_ogs.tif
176
     1
290
     0
176
     1
 40
1.0
176
     1
 40
1.0
176
     1
  0
VISUALSTYLE
  5
BB9
102
{ACAD_REACTORS
330
BA3
102
}
330
BA3
100
AcDbVisualStyle
  2
X-Ray
 70
    25
177
     3
291
     0
 70
    58
 90
        2
176
     1
 90
        2
176
     1
 90
        1
176
     1
 90
        1
176
     1
 40
0.5
176
     1
 40
30.0
176
     1
 62
     7
420
 16777215
176
     1
 90
        1
176
     1
 90
        0
176
     1
 62
     7
176
     1
 62
   257
176
     1
 90
        1
176
     1
 90
        1
176
     1
 40
1.0
176
     1
 90
        8
176
     1
 62
     7
176
     1
 40
1.0
176
     1
 90
        1
176
     1
 90
        6
176
     1
 90
        2
176
     1
 62
     7
176
     1
 90
        3
176
     1
 90
        0
176
     1
 90
        0
176
     1
290
     0
176
     1
 90
       13
176
     1
 40
0.0
176
     1
 90
        0
176
     1
290
     0
176
     1
290
     1
176
     1
290
     1
176
     1
290
     0
176
     1
290
     0
176
     1
290
     0
176
     1
290
     0
176
     1
290
     0
176
     1
290
     0
176
     1
 90
       50
176
     1
 40
0.0
176
     1
 40
1.0
176
     1
 90
        0
176
     1
 62
    18
420
        0
176
     1
 90
       50
176
     1
 90
        3
176
     1
 62
     5
420
      255
176
     1
290
     0
176
     1
 90
       50
176
     1
 90
       50
176
     1
 90
       50
176
     1
290
     0
176
     1
 90
       50
176
     1
 62
   256
176
     0
 40
1.0
176
     0
 90
        2
176
     1
  1
strokes_ogs.tif
176
     1
290
     0
176
     1
 40
1.0
176
     1
 40
1.0
176
     1
  0
DICTIONARYVAR
  5
BF4
102
{ACAD_REACTORS
330
BF3
102
}
330
BF3
100
DictionaryVariables
280
     0
  1
1:1
  0
DICTIONARYVAR
  5
BF8
102
{ACAD_REACTORS
330
BF3
102
}
330
BF3
100
DictionaryVariables
280
     0
  1
Standard
  0
DICTIONARYVAR
  5
BFA
102
{ACAD_REACTORS
330
BF3
102
}
330
BF3
100
DictionaryVariables
280
     0
  1
0
  0
DICTIONARYVAR
  5
BFB
102
{ACAD_REACTORS
330
BF3
102
}
330
BF3
100
DictionaryVariables
280
     0
  1
0
  0
DICTIONARY
  5
C6F
330
BE2
100
AcDbDictionary
280
     1
281
     1
  3
ACAD_ROUNDTRIP_2008_TABLESTYLE_CELLSTYLEMAP
360
C70
  0
CELLSTYLEMAP
  5
C70
102
{ACAD_REACTORS
330
C6F
102
}
330
C6F
100
AcDbCellStyleMap
 90
        3
300
CELLSTYLE
  1
TABLEFORMAT_BEGIN
 90
        5
170
     1
 91
        0
 92
        0
 62
   257
 93
        1
300
CONTENTFORMAT
  1
CONTENTFORMAT_BEGIN
 90
        0
 91
        0
 92
        4
 93
        0
300

 40
0.0
140
1.0
 94
        5
 62
     0
340
11
144
6.0
309
CONTENTFORMAT_END
171
     1
301
MARGIN
  1
CELLMARGIN_BEGIN
 40
1.5
 40
1.5
 40
1.5
 40
1.5
 40
1.5
 40
1.5
309
CELLMARGIN_END
 94
        6
 95
        1
302
GRIDFORMAT
  1
GRIDFORMAT_BEGIN
 90
        0
 91
        1
 62
     0
 92
       -2
340
14
 93
        0
 40
0.045
309
GRIDFORMAT_END
 95
        2
302
GRIDFORMAT
  1
GRIDFORMAT_BEGIN
 90
        0
 91
        1
 62
     0
 92
       -2
340
14
 93
        0
 40
0.045
309
GRIDFORMAT_END
 95
        4
302
GRIDFORMAT
  1
GRIDFORMAT_BEGIN
 90
        0
 91
        1
 62
     0
 92
       -2
340
14
 93
        0
 40
0.045
309
GRIDFORMAT_END
 95
        8
302
GRIDFORMAT
  1
GRIDFORMAT_BEGIN
 90
        0
 91
        1
 62
     0
 92
       -2
340
14
 93
        0
 40
0.045
309
GRIDFORMAT_END
 95
       16
302
GRIDFORMAT
  1
GRIDFORMAT_BEGIN
 90
        0
 91
        1
 62
     0
 92
       -2
340
14
 93
        0
 40
0.045
309
GRIDFORMAT_END
 95
       32
302
GRIDFORMAT
  1
GRIDFORMAT_BEGIN
 90
        0
 91
        1
 62
     0
 92
       -2
340
14
 93
        0
 40
0.045
309
GRIDFORMAT_END
309
TABLEFORMAT_END
  1
CELLSTYLE_BEGIN
 90
        1
 91
        1
300
_TITLE
309
CELLSTYLE_END
300
CELLSTYLE
  1
TABLEFORMAT_BEGIN
 90
        5
170
     1
 91
        0
 92
        0
 62
   257
 93
        1
300
CONTENTFORMAT
  1
CONTENTFORMAT_BEGIN
 90
        0
 91
        0
 92
        4
 93
        0
300

 40
0.0
140
1.0
 94
        5
 62
     0
340
11
144
4.5
309
CONTENTFORMAT_END
171
     1
301
MARGIN
  1
CELLMARGIN_BEGIN
 40
1.5
 40
1.5
 40
1.5
 40
1.5
 40
1.5
 40
1.5
309
CELLMARGIN_END
 94
        6
 95
        1
302
GRIDFORMAT
  1
GRIDFORMAT_BEGIN
 90
        0
 91
        1
 62
     0
 92
       -2
340
14
 93
        0
 40
0.045
309
GRIDFORMAT_END
 95
        2
302
GRIDFORMAT
  1
GRIDFORMAT_BEGIN
 90
        0
 91
        1
 62
     0
 92
       -2
340
14
 93
        0
 40
0.045
309
GRIDFORMAT_END
 95
        4
302
GRIDFORMAT
  1
GRIDFORMAT_BEGIN
 90
        0
 91
        1
 62
     0
 92
       -2
340
14
 93
        0
 40
0.045
309
GRIDFORMAT_END
 95
        8
302
GRIDFORMAT
  1
GRIDFORMAT_BEGIN
 90
        0
 91
        1
 62
     0
 92
       -2
340
14
 93
        0
 40
0.045
309
GRIDFORMAT_END
 95
       16
302
GRIDFORMAT
  1
GRIDFORMAT_BEGIN
 90
        0
 91
        1
 62
     0
 92
       -2
340
14
 93
        0
 40
0.045
309
GRIDFORMAT_END
 95
       32
302
GRIDFORMAT
  1
GRIDFORMAT_BEGIN
 90
        0
 91
        1
 62
     0
 92
       -2
340
14
 93
        0
 40
0.045
309
GRIDFORMAT_END
309
TABLEFORMAT_END
  1
CELLSTYLE_BEGIN
 90
        2
 91
        1
300
_HEADER
309
CELLSTYLE_END
300
CELLSTYLE
  1
TABLEFORMAT_BEGIN
 90
        5
170
     1
 91
        0
 92
        0
 62
   257
 93
        1
300
CONTENTFORMAT
  1
CONTENTFORMAT_BEGIN
 90
        0
 91
        0
 92
        4
 93
        0
300

 40
0.0
140
1.0
 94
        2
 62
     0
340
11
144
4.5
309
CONTENTFORMAT_END
171
     1
301
MARGIN
  1
CELLMARGIN_BEGIN
 40
1.5
 40
1.5
 40
1.5
 40
1.5
 40
1.5
 40
1.5
309
CELLMARGIN_END
 94
        6
 95
        1
302
GRIDFORMAT
  1
GRIDFORMAT_BEGIN
 90
        0
 91
        1
 62
     0
 92
       -2
340
14
 93
        0
 40
0.045
309
GRIDFORMAT_END
 95
        2
302
GRIDFORMAT
  1
GRIDFORMAT_BEGIN
 90
        0
 91
        1
 62
     0
 92
       -2
340
14
 93
        0
 40
0.045
309
GRIDFORMAT_END
 95
        4
302
GRIDFORMAT
  1
GRIDFORMAT_BEGIN
 90
        0
 91
        1
 62
     0
 92
       -2
340
14
 93
        0
 40
0.045
309
GRIDFORMAT_END
 95
        8
302
GRIDFORMAT
  1
GRIDFORMAT_BEGIN
 90
        0
 91
        1
 62
     0
 92
       -2
340
14
 93
        0
 40
0.045
309
GRIDFORMAT_END
 95
       16
302
GRIDFORMAT
  1
GRIDFORMAT_BEGIN
 90
        0
 91
        1
 62
     0
 92
       -2
340
14
 93
        0
 40
0.045
309
GRIDFORMAT_END
 95
       32
302
GRIDFORMAT
  1
GRIDFORMAT_BEGIN
 90
        0
 91
        1
 62
     0
 92
       -2
340
14
 93
        0
 40
0.045
309
GRIDFORMAT_END
309
TABLEFORMAT_END
  1
CELLSTYLE_BEGIN
 90
        3
 91
        2
300
_DATA
309
CELLSTYLE_END
  0
ENDSEC
  0
EOF
