  0
SECTION
  2
HEADER
  9
$ACADVER
  1
AC1027
  9
$ACADMAINTVER
 70
     8
  9
$DWGCODEPAGE
  3
ANSI_932
  9
$REQUIREDVERSIONS
160
                 0
  9
$LASTSAVEDBY
  1
Yasu
  9
$INSBASE
 10
0.0
 20
0.0
 30
0.0
  9
$EXTMIN
 10
26.10364367859353
 20
23.45179353774284
 30
0.0
  9
$EXTMAX
 10
257.1004112815915
 20
221.832051920306
 30
0.0
  9
$LIMMIN
 10
0.0
 20
0.0
  9
$LIMMAX
 10
420.0
 20
297.0
  9
$ORTHOMODE
 70
     0
  9
$REGENMODE
 70
     1
  9
$FILLMODE
 70
     1
  9
$QTEXTMODE
 70
     0
  9
$MIRRTEXT
 70
     0
  9
$LTSCALE
 40
0.2
  9
$ATTMODE
 70
     1
  9
$TEXTSIZE
 40
3.0
  9
$TRACEWID
 40
1.0
  9
$TEXTSTYLE
  7
Standard
  9
$CLAYER
  8
文字
  9
$CELTYPE
  6
ByLayer
  9
$CECOLOR
 62
   256
  9
$CELTSCALE
 40
1.0
  9
$DISPSILH
 70
     0
  9
$DIMSCALE
 40
1.0
  9
$DIMASZ
 40
2.5
  9
$DIMEXO
 40
0.625
  9
$DIMDLI
 40
3.75
  9
$DIMRND
 40
0.0
  9
$DIMDLE
 40
0.0
  9
$DIMEXE
 40
1.25
  9
$DIMTP
 40
0.0
  9
$DIMTM
 40
0.0
  9
$DIMTXT
 40
2.5
  9
$DIMCEN
 40
2.5
  9
$DIMTSZ
 40
0.0
  9
$DIMTOL
 70
     0
  9
$DIMLIM
 70
     0
  9
$DIMTIH
 70
     0
  9
$DIMTOH
 70
     0
  9
$DIMSE1
 70
     0
  9
$DIMSE2
 70
     0
  9
$DIMTAD
 70
     1
  9
$DIMZIN
 70
     8
  9
$DIMBLK
  1

  9
$DIMASO
 70
     1
  9
$DIMSHO
 70
     1
  9
$DIMPOST
  1

  9
$DIMAPOST
  1

  9
$DIMALT
 70
     0
  9
$DIMALTD
 70
     3
  9
$DIMALTF
 40
0.03937007874016
  9
$DIMLFAC
 40
1.0
  9
$DIMTOFL
 70
     1
  9
$DIMTVP
 40
0.0
  9
$DIMTIX
 70
     0
  9
$DIMSOXD
 70
     0
  9
$DIMSAH
 70
     0
  9
$DIMBLK1
  1

  9
$DIMBLK2
  1

  9
$DIMSTYLE
  2
ISO-25
  9
$DIMCLRD
 70
     0
  9
$DIMCLRE
 70
     0
  9
$DIMCLRT
 70
     0
  9
$DIMTFAC
 40
1.0
  9
$DIMGAP
 40
0.625
  9
$DIMJUST
 70
     0
  9
$DIMSD1
 70
     0
  9
$DIMSD2
 70
     0
  9
$DIMTOLJ
 70
     0
  9
$DIMTZIN
 70
     8
  9
$DIMALTZ
 70
     0
  9
$DIMALTTZ
 70
     0
  9
$DIMUPT
 70
     0
  9
$DIMDEC
 70
     2
  9
$DIMTDEC
 70
     2
  9
$DIMALTU
 70
     2
  9
$DIMALTTD
 70
     3
  9
$DIMTXSTY
  7
Standard
  9
$DIMAUNIT
 70
     0
  9
$DIMADEC
 70
     0
  9
$DIMALTRND
 40
0.0
  9
$DIMAZIN
 70
     0
  9
$DIMDSEP
 70
    46
  9
$DIMATFIT
 70
     3
  9
$DIMFRAC
 70
     0
  9
$DIMLDRBLK
  1

  9
$DIMLUNIT
 70
     2
  9
$DIMLWD
 70
    -2
  9
$DIMLWE
 70
    -2
  9
$DIMTMOVE
 70
     0
  9
$DIMFXL
 40
1.0
  9
$DIMFXLON
 70
     0
  9
$DIMJOGANG
 40
0.7853981633974483
  9
$DIMTFILL
 70
     0
  9
$DIMTFILLCLR
 70
     0
  9
$DIMARCSYM
 70
     0
  9
$DIMLTYPE
  6

  9
$DIMLTEX1
  6

  9
$DIMLTEX2
  6

  9
$DIMTXTDIRECTION
 70
     0
  9
$LUNITS
 70
     2
  9
$LUPREC
 70
     4
  9
$SKETCHINC
 40
1.0
  9
$FILLETRAD
 40
3.0
  9
$AUNITS
 70
     0
  9
$AUPREC
 70
     0
  9
$MENU
  1
.
  9
$ELEVATION
 40
0.0
  9
$PELEVATION
 40
0.0
  9
$THICKNESS
 40
0.0
  9
$LIMCHECK
 70
     0
  9
$CHAMFERA
 40
2.0
  9
$CHAMFERB
 40
2.0
  9
$CHAMFERC
 40
0.0
  9
$CHAMFERD
 40
0.0
  9
$SKPOLY
 70
     0
  9
$TDCREATE
 40
2452936.788310359
  9
$TDUCREATE
 40
2452936.413310359
  9
$TDUPDATE
 40
2456739.024398715
  9
$TDUUPDATE
 40
2456738.649398715
  9
$TDINDWG
 40
0.5057752083
  9
$TDUSRTIMER
 40
2456738.64826309
  9
$USRTIMER
 70
     1
  9
$ANGBASE
 50
0.0
  9
$ANGDIR
 70
     0
  9
$PDMODE
 70
     0
  9
$PDSIZE
 40
0.0
  9
$PLINEWID
 40
0.0
  9
$SPLFRAME
 70
     0
  9
$SPLINETYPE
 70
     6
  9
$SPLINESEGS
 70
     8
  9
$HANDSEED
  5
E65
  9
$SURFTAB1
 70
     6
  9
$SURFTAB2
 70
     6
  9
$SURFTYPE
 70
     6
  9
$SURFU
 70
     6
  9
$SURFV
 70
     6
  9
$UCSBASE
  2

  9
$UCSNAME
  2

  9
$UCSORG
 10
0.0
 20
0.0
 30
0.0
  9
$UCSXDIR
 10
1.0
 20
0.0
 30
0.0
  9
$UCSYDIR
 10
0.0
 20
1.0
 30
0.0
  9
$UCSORTHOREF
  2

  9
$UCSORTHOVIEW
 70
     0
  9
$UCSORGTOP
 10
0.0
 20
0.0
 30
0.0
  9
$UCSORGBOTTOM
 10
0.0
 20
0.0
 30
0.0
  9
$UCSORGLEFT
 10
0.0
 20
0.0
 30
0.0
  9
$UCSORGRIGHT
 10
0.0
 20
0.0
 30
0.0
  9
$UCSORGFRONT
 10
0.0
 20
0.0
 30
0.0
  9
$UCSORGBACK
 10
0.0
 20
0.0
 30
0.0
  9
$PUCSBASE
  2

  9
$PUCSNAME
  2

  9
$PUCSORG
 10
0.0
 20
0.0
 30
0.0
  9
$PUCSXDIR
 10
1.0
 20
0.0
 30
0.0
  9
$PUCSYDIR
 10
0.0
 20
1.0
 30
0.0
  9
$PUCSORTHOREF
  2

  9
$PUCSORTHOVIEW
 70
     0
  9
$PUCSORGTOP
 10
0.0
 20
0.0
 30
0.0
  9
$PUCSORGBOTTOM
 10
0.0
 20
0.0
 30
0.0
  9
$PUCSORGLEFT
 10
0.0
 20
0.0
 30
0.0
  9
$PUCSORGRIGHT
 10
0.0
 20
0.0
 30
0.0
  9
$PUCSORGFRONT
 10
0.0
 20
0.0
 30
0.0
  9
$PUCSORGBACK
 10
0.0
 20
0.0
 30
0.0
  9
$USERI1
 70
     0
  9
$USERI2
 70
     0
  9
$USERI3
 70
     0
  9
$USERI4
 70
     0
  9
$USERI5
 70
     0
  9
$USERR1
 40
0.0
  9
$USERR2
 40
0.0
  9
$USERR3
 40
0.0
  9
$USERR4
 40
0.0
  9
$USERR5
 40
0.0
  9
$WORLDVIEW
 70
     1
  9
$SHADEDGE
 70
     3
  9
$SHADEDIF
 70
    70
  9
$TILEMODE
 70
     1
  9
$MAXACTVP
 70
    64
  9
$PINSBASE
 10
0.0
 20
0.0
 30
0.0
  9
$PLIMCHECK
 70
     0
  9
$PEXTMIN
 10
1.000000000000000E+20
 20
1.000000000000000E+20
 30
1.000000000000000E+20
  9
$PEXTMAX
 10
-1.000000000000000E+20
 20
-1.000000000000000E+20
 30
-1.000000000000000E+20
  9
$PLIMMIN
 10
0.0
 20
0.0
  9
$PLIMMAX
 10
0.0
 20
0.0
  9
$UNITMODE
 70
     0
  9
$VISRETAIN
 70
     1
  9
$PLINEGEN
 70
     0
  9
$PSLTSCALE
 70
     0
  9
$TREEDEPTH
 70
  3020
  9
$CMLSTYLE
  2
Standard
  9
$CMLJUST
 70
     0
  9
$CMLSCALE
 40
20.0
  9
$PROXYGRAPHICS
 70
     1
  9
$MEASUREMENT
 70
     1
  9
$CELWEIGHT
370
    -1
  9
$ENDCAPS
280
     0
  9
$JOINSTYLE
280
     0
  9
$LWDISPLAY
290
     0
  9
$INSUNITS
 70
     4
  9
$HYPERLINKBASE
  1

  9
$STYLESHEET
  1

  9
$XEDIT
290
     1
  9
$CEPSNTYPE
380
     0
  9
$PSTYLEMODE
290
     1
  9
$FINGERPRINTGUID
  2
{86E58535-AB5B-4AFE-AB1B-6758AAB7EA7D}
  9
$VERSIONGUID
  2
{BCC751C5-8E5D-49A3-A62D-A89BE7E035D1}
  9
$EXTNAMES
290
     1
  9
$PSVPSCALE
 40
0.0
  9
$OLESTARTUP
290
     0
  9
$SORTENTS
280
   127
  9
$INDEXCTL
280
     0
  9
$HIDETEXT
280
     1
  9
$XCLIPFRAME
280
     0
  9
$HALOGAP
280
     0
  9
$OBSCOLOR
 70
   257
  9
$OBSLTYPE
280
     0
  9
$INTERSECTIONDISPLAY
280
     0
  9
$INTERSECTIONCOLOR
 70
   257
  9
$DIMASSOC
280
     2
  9
$PROJECTNAME
  1

  9
$CAMERADISPLAY
290
     0
  9
$LENSLENGTH
 40
50.0
  9
$CAMERAHEIGHT
 40
0.0
  9
$STEPSPERSEC
 40
2.0
  9
$STEPSIZE
 40
6.0
  9
$3DDWFPREC
 40
2.0
  9
$PSOLWIDTH
 40
0.25
  9
$PSOLHEIGHT
 40
4.0
  9
$LOFTANG1
 40
1.570796326794897
  9
$LOFTANG2
 40
1.570796326794897
  9
$LOFTMAG1
 40
0.0
  9
$LOFTMAG2
 40
0.0
  9
$LOFTPARAM
 70
     7
  9
$LOFTNORMALS
280
     1
  9
$LATITUDE
 40
37.795
  9
$LONGITUDE
 40
-122.394
  9
$NORTHDIRECTION
 40
0.0
  9
$TIMEZONE
 70
 -8000
  9
$LIGHTGLYPHDISPLAY
280
     1
  9
$TILEMODELIGHTSYNCH
280
     1
  9
$SOLIDHIST
280
     1
  9
$SHOWHIST
280
     1
  9
$DWFFRAME
280
     2
  9
$DGNFRAME
280
     2
  9
$REALWORLDSCALE
290
     1
  9
$INTERFERECOLOR
 62
   256
  9
$CSHADOW
280
     0
  9
$SHADOWPLANELOCATION
 40
0.0
  0
ENDSEC
  0
SECTION
  2
CLASSES
  0
CLASS
  1
ACDBDICTIONARYWDFLT
  2
AcDbDictionaryWithDefault
  3
ObjectDBX Classes
 90
        0
 91
       15
280
     0
281
     0
  0
CLASS
  1
DIMASSOC
  2
AcDbDimAssoc
  3
"AcDbDimAssoc|Product Desc:     AcDim ARX App For Dimension|Company:          Autodesk, Inc.|WEB Address:      www.autodesk.com"
 90
        0
 91
        9
280
     0
281
     0
  0
CLASS
  1
VISUALSTYLE
  2
AcDbVisualStyle
  3
ObjectDBX Classes
 90
     4095
 91
       15
280
     0
281
     0
  0
CLASS
  1
SCALE
  2
AcDbScale
  3
ObjectDBX Classes
 90
     1153
 91
       15
280
     0
281
     0
  0
CLASS
  1
MATERIAL
  2
AcDbMaterial
  3
ObjectDBX Classes
 90
     1153
 91
       15
280
     0
281
     0
  0
CLASS
  1
TABLESTYLE
  2
AcDbTableStyle
  3
ObjectDBX Classes
 90
     4095
 91
       15
280
     0
281
     0
  0
CLASS
  1
SUN
  2
AcDbSun
  3
SCENEOE
 90
     1153
 91
       15
280
     0
281
     0
  0
CLASS
  1
RASTERVARIABLES
  2
AcDbRasterVariables
  3
ISM
 90
        0
 91
       15
280
     0
281
     0
  0
CLASS
  1
DICTIONARYVAR
  2
AcDbDictionaryVar
  3
ObjectDBX Classes
 90
        0
 91
        9
280
     0
281
     0
  0
CLASS
  1
CELLSTYLEMAP
  2
AcDbCellStyleMap
  3
ObjectDBX Classes
 90
     1152
 91
        9
280
     0
281
     0
  0
ENDSEC
  0
SECTION
  2
TABLES
  0
TABLE
  2
VPORT
  5
8
330
0
100
AcDbSymbolTable
 70
     1
  0
VPORT
  5
D60
330
8
100
AcDbSymbolTableRecord
100
AcDbViewportTableRecord
  2
*Active
 70
     0
 10
0.0
 20
0.0
 11
1.0
 21
1.0
 12
141.6020274800925
 22
122.6419227290244
 13
0.0
 23
0.0
 14
10.0
 24
10.0
 15
10.0
 25
10.0
 16
0.0
 26
0.0
 36
1.0
 17
0.0
 27
0.0
 37
0.0
 40
202.3478635502144
 41
1.762376237623762
 42
50.0
 43
0.0
 44
0.0
 50
0.0
 51
0.0
 71
    16
 72
  1000
 73
     1
 74
     3
 75
     0
 76
     0
 77
     0
 78
     0
281
     0
 65
     1
110
0.0
120
0.0
130
0.0
111
1.0
121
0.0
131
0.0
112
0.0
122
1.0
132
0.0
 79
     0
146
0.0
348
D66
 60
     3
 61
     5
292
     1
282
     1
141
0.0
142
0.0
 63
   256
361
DA2
  0
ENDTAB
  0
TABLE
  2
LTYPE
  5
5
330
0
100
AcDbSymbolTable
 70
     6
  0
LTYPE
  5
14
330
5
100
AcDbSymbolTableRecord
100
AcDbLinetypeTableRecord
  2
ByBlock
 70
     0
  3

 72
    65
 73
     0
 40
0.0
  0
LTYPE
  5
15
330
5
100
AcDbSymbolTableRecord
100
AcDbLinetypeTableRecord
  2
ByLayer
 70
     0
  3

 72
    65
 73
     0
 40
0.0
  0
LTYPE
  5
16
330
5
100
AcDbSymbolTableRecord
100
AcDbLinetypeTableRecord
  2
Continuous
 70
     0
  3
Solid line
 72
    65
 73
     0
 40
0.0
  0
LTYPE
  5
35
330
5
100
AcDbSymbolTableRecord
100
AcDbLinetypeTableRecord
  2
ACAD_ISO08W100
 70
     0
  3
ISO long-dash short-dash ____ __ ____ __ ____ _
 72
    65
 73
     4
 40
36.0
 49
24.0
 74
     0
 49
-3.0
 74
     0
 49
6.0
 74
     0
 49
-3.0
 74
     0
  0
LTYPE
  5
127
330
5
100
AcDbSymbolTableRecord
100
AcDbLinetypeTableRecord
  2
HIDDENX2
 70
     0
  3
Hidden (2x) ____ ____ ____ ____ ____ ____ ____
 72
    65
 73
     2
 40
19.05
 49
12.7
 74
     0
 49
-6.35
 74
     0
  0
LTYPE
  5
5EC
330
5
100
AcDbSymbolTableRecord
100
AcDbLinetypeTableRecord
  2
CENTER
 70
     0
  3
Center ____ _ ____ _ ____ _ ____ _ ____ _ ____
 72
    65
 73
     4
 40
50.8
 49
31.75
 74
     0
 49
-6.35
 74
     0
 49
6.35
 74
     0
 49
-6.35
 74
     0
  0
LTYPE
  5
5ED
330
5
100
AcDbSymbolTableRecord
100
AcDbLinetypeTableRecord
  2
ACAD_ISO02W100
 70
     0
  3
ISO dash __ __ __ __ __ __ __ __ __ __ __ __ __
 72
    65
 73
     2
 40
15.0
 49
12.0
 74
     0
 49
-3.0
 74
     0
  0
LTYPE
  5
605
330
5
100
AcDbSymbolTableRecord
100
AcDbLinetypeTableRecord
  2
DASHED
 70
     0
  3
Dashed __ __ __ __ __ __ __ __ __ __ __ __ __ _
 72
    65
 73
     2
 40
19.05
 49
12.7
 74
     0
 49
-6.35
 74
     0
  0
ENDTAB
  0
TABLE
  2
LAYER
  5
2
330
0
100
AcDbSymbolTable
 70
     9
  0
LAYER
  5
10
330
2
100
AcDbSymbolTableRecord
100
AcDbLayerTableRecord
  2
0
 70
     0
 62
     7
  6
Continuous
370
    -3
390
F
347
D9E
348
0
  0
LAYER
  5
2E
330
2
100
AcDbSymbolTableRecord
100
AcDbLayerTableRecord
  2
枠
 70
     0
 62
     1
  6
Continuous
370
    30
390
F
347
D9E
348
0
  0
LAYER
  5
2F
330
2
100
AcDbSymbolTableRecord
100
AcDbLayerTableRecord
  2
文字
 70
     0
 62
     7
  6
Continuous
370
    25
390
F
347
D9E
348
0
  0
LAYER
  5
36
330
2
100
AcDbSymbolTableRecord
100
AcDbLayerTableRecord
  2
中心線
 70
     0
 62
     7
  6
CENTER
370
    30
390
F
347
D9E
348
0
  0
LAYER
  5
52
330
2
100
AcDbSymbolTableRecord
100
AcDbLayerTableRecord
  2
隠れ線
 70
     0
 62
     2
  6
Continuous
290
     0
370
    -3
390
F
347
D9E
348
0
  0
LAYER
  5
128
330
2
100
AcDbSymbolTableRecord
100
AcDbLayerTableRecord
  2
実線
 70
     0
 62
     7
  6
Continuous
370
    50
390
F
347
D9E
348
0
  0
LAYER
  5
129
330
2
100
AcDbSymbolTableRecord
100
AcDbLayerTableRecord
  2
破線
 70
     0
 62
     7
  6
DASHED
370
    20
390
F
347
D9E
348
0
  0
LAYER
  5
677
330
2
100
AcDbSymbolTableRecord
100
AcDbLayerTableRecord
  2
Defpoints
 70
     0
 62
     7
  6
Continuous
290
     0
370
    -3
390
F
347
D9E
348
0
  0
LAYER
  5
DB2
330
2
100
AcDbSymbolTableRecord
100
AcDbLayerTableRecord
  2
文字・寸法線
 70
     0
 62
     7
  6
Continuous
370
    -3
390
F
347
D9E
348
0
  0
ENDTAB
  0
TABLE
  2
STYLE
  5
3
330
0
100
AcDbSymbolTable
 70
     2
  0
STYLE
  5
11
330
3
100
AcDbSymbolTableRecord
100
AcDbTextStyleTableRecord
  2
Standard
 70
     0
 40
0.0
 41
1.0
 50
0.0
 71
     0
 42
3.0
  3
txt.shx
  4
bigfont.shx
  0
STYLE
  5
34
330
3
100
AcDbSymbolTableRecord
100
AcDbTextStyleTableRecord
  2

 70
     1
 40
0.0
 41
1.0
 50
0.0
 71
     0
 42
2.5
  3
ltypeshp.shx
  4

  0
ENDTAB
  0
TABLE
  2
VIEW
  5
6
330
0
100
AcDbSymbolTable
 70
     0
  0
ENDTAB
  0
TABLE
  2
UCS
  5
7
330
0
100
AcDbSymbolTable
 70
     0
  0
ENDTAB
  0
TABLE
  2
APPID
  5
9
330
0
100
AcDbSymbolTable
 70
     1
  0
APPID
  5
12
330
9
100
AcDbSymbolTableRecord
100
AcDbRegAppTableRecord
  2
ACAD
 70
     0
  0
ENDTAB
  0
TABLE
  2
DIMSTYLE
  5
A
330
0
100
AcDbSymbolTable
 70
     1
100
AcDbDimStyleTable
  0
DIMSTYLE
105
29
102
{ACAD_REACTORS
330
BD6
330
BDD
330
BEB
330
C39
330
CA7
330
CB0
330
CBE
330
E42
330
E54
102
}
330
A
100
AcDbSymbolTableRecord
100
AcDbDimStyleTableRecord
  2
ISO-25
 70
     0
 41
2.5
 42
0.625
 43
3.75
 44
1.25
 73
     0
 74
     0
 77
     1
 78
     8
140
2.5
141
2.5
143
0.03937007874016
147
0.625
171
     3
172
     1
178
     0
271
     2
272
     2
274
     3
283
     0
284
     8
340
11
  0
ENDTAB
  0
TABLE
  2
BLOCK_RECORD
  5
1
330
0
100
AcDbSymbolTable
 70
    12
  0
BLOCK_RECORD
  5
21
330
1
100
AcDbSymbolTableRecord
100
AcDbBlockTableRecord
  2
*Model_Space
340
24
 70
     0
280
     1
281
     0
  0
BLOCK_RECORD
  5
1D
330
1
100
AcDbSymbolTableRecord
100
AcDbBlockTableRecord
  2
*Paper_Space
340
20
 70
     0
280
     1
281
     0
  0
BLOCK_RECORD
  5
25
330
1
100
AcDbSymbolTableRecord
100
AcDbBlockTableRecord
  2
*Paper_Space0
340
28
 70
     0
280
     1
281
     0
  0
BLOCK_RECORD
  5
BEE
330
1
100
AcDbSymbolTableRecord
100
AcDbBlockTableRecord
  2
*D1
340
0
 70
     0
280
     1
281
     0
  0
BLOCK_RECORD
  5
BFA
330
1
100
AcDbSymbolTableRecord
100
AcDbBlockTableRecord
  2
*D2
340
0
 70
     0
280
     1
281
     0
  0
BLOCK_RECORD
  5
C06
330
1
100
AcDbSymbolTableRecord
100
AcDbBlockTableRecord
  2
*D3
340
0
 70
     0
280
     1
281
     0
  0
BLOCK_RECORD
  5
C3A
330
1
100
AcDbSymbolTableRecord
100
AcDbBlockTableRecord
  2
*D4
340
0
 70
     0
280
     1
281
     0
  0
BLOCK_RECORD
  5
CC4
330
1
100
AcDbSymbolTableRecord
100
AcDbBlockTableRecord
  2
*D5
340
0
 70
     0
280
     1
281
     0
  0
BLOCK_RECORD
  5
CD0
330
1
100
AcDbSymbolTableRecord
100
AcDbBlockTableRecord
  2
*D6
340
0
 70
     0
280
     1
281
     0
  0
BLOCK_RECORD
  5
CDC
330
1
100
AcDbSymbolTableRecord
100
AcDbBlockTableRecord
  2
*D7
340
0
 70
     0
280
     1
281
     0
  0
BLOCK_RECORD
  5
D06
330
1
100
AcDbSymbolTableRecord
100
AcDbBlockTableRecord
  2
*D8
340
0
 70
     0
280
     1
281
     0
  0
BLOCK_RECORD
  5
E44
330
1
100
AcDbSymbolTableRecord
100
AcDbBlockTableRecord
  2
*D10
340
0
 70
     0
280
     1
281
     0
  0
BLOCK_RECORD
  5
E56
330
1
100
AcDbSymbolTableRecord
100
AcDbBlockTableRecord
  2
*D11
340
0
 70
     0
280
     1
281
     0
  0
ENDTAB
  0
ENDSEC
  0
SECTION
  2
BLOCKS
  0
BLOCK
  5
22
330
21
100
AcDbEntity
  8
0
100
AcDbBlockBegin
  2
*Model_Space
 70
     0
 10
0.0
 20
0.0
 30
0.0
  3
*Model_Space
  1
*Model_Space
  0
ENDBLK
  5
23
330
21
100
AcDbEntity
  8
0
100
AcDbBlockEnd
  0
BLOCK
  5
1E
330
1D
100
AcDbEntity
 67
     1
  8
0
100
AcDbBlockBegin
  2
*Paper_Space
 70
     0
 10
0.0
 20
0.0
 30
0.0
  3
*Paper_Space
  1
*Paper_Space
  0
ENDBLK
  5
1F
330
1D
100
AcDbEntity
 67
     1
  8
0
100
AcDbBlockEnd
  0
BLOCK
  5
26
330
25
100
AcDbEntity
  8
0
100
AcDbBlockBegin
  2
*Paper_Space0
 70
     0
 10
0.0
 20
0.0
 30
0.0
  3
*Paper_Space0
  1
*Paper_Space0
  0
ENDBLK
  5
27
330
25
100
AcDbEntity
  8
0
100
AcDbBlockEnd
  0
BLOCK
  5
BF8
330
BEE
100
AcDbEntity
  8
0
100
AcDbBlockBegin
  2
*D1
 70
     1
 10
0.0
 20
0.0
 30
0.0
  3
*D1
  1
*D5
  0
LINE
  5
C24
330
BEE
100
AcDbEntity
  8
文字
 62
     0
370
    -2
100
AcDbLine
 10
65.66010013815347
 20
173.897165283887
 30
0.0
 11
65.66010013815347
 21
190.0124167662278
 31
0.0
  0
LINE
  5
C25
330
BEE
100
AcDbEntity
  8
文字
 62
     0
370
    -2
100
AcDbLine
 10
85.66010013815347
 20
173.897165283887
 30
0.0
 11
85.66010013815347
 21
190.0124167662278
 31
0.0
  0
LINE
  5
C26
330
BEE
100
AcDbEntity
  8
文字
 62
     0
370
    -2
100
AcDbLine
 10
68.16010013815347
 20
188.7624167662278
 30
0.0
 11
83.16010013815347
 21
188.7624167662278
 31
0.0
  0
SOLID
  5
C27
330
BEE
100
AcDbEntity
  8
文字
 62
     0
100
AcDbTrace
 10
68.16010013815347
 20
189.1790834328945
 30
0.0
 11
68.16010013815347
 21
188.3457500995612
 31
0.0
 12
65.66010013815347
 22
188.7624167662278
 32
0.0
 13
65.66010013815347
 23
188.7624167662278
 33
0.0
  0
SOLID
  5
C28
330
BEE
100
AcDbEntity
  8
文字
 62
     0
100
AcDbTrace
 10
83.16010013815347
 20
189.1790834328945
 30
0.0
 11
83.16010013815347
 21
188.3457500995612
 31
0.0
 12
85.66010013815347
 22
188.7624167662278
 32
0.0
 13
85.66010013815347
 23
188.7624167662278
 33
0.0
  0
MTEXT
  5
C29
330
BEE
100
AcDbEntity
  8
文字
 62
     0
100
AcDbMText
 10
75.66010013815347
 20
190.6374167662278
 30
0.0
 40
2.5
 41
0.0
 46
0.0
 71
     5
 72
     1
  1
{\fArial|b0|i0|c0|p32;M}20
 73
     1
 44
1.0
  0
POINT
  5
C2A
330
BEE
100
AcDbEntity
  8
Defpoints
 62
     0
100
AcDbPoint
 10
65.66010013815347
 20
173.272165283887
 30
0.0
  0
POINT
  5
C2B
330
BEE
100
AcDbEntity
  8
Defpoints
 62
     0
100
AcDbPoint
 10
85.66010013815347
 20
173.272165283887
 30
0.0
  0
POINT
  5
C2C
330
BEE
100
AcDbEntity
  8
Defpoints
 62
     0
100
AcDbPoint
 10
85.66010013815347
 20
188.7624167662278
 30
0.0
  0
ENDBLK
  5
BF9
330
BEE
100
AcDbEntity
  8
0
100
AcDbBlockEnd
  0
BLOCK
  5
C04
330
BFA
100
AcDbEntity
  8
0
100
AcDbBlockBegin
  2
*D2
 70
     1
 10
0.0
 20
0.0
 30
0.0
  3
*D2
  1
*D6
  0
LINE
  5
C1B
330
BFA
100
AcDbEntity
  8
文字
 62
     0
370
    -2
100
AcDbLine
 10
93.5851001381535
 20
75.27216528388696
 30
0.0
 11
127.1332321659302
 21
75.27216528388695
 31
0.0
  0
LINE
  5
C1C
330
BFA
100
AcDbEntity
  8
文字
 62
     0
370
    -2
100
AcDbLine
 10
93.5851001381535
 20
62.27216528388696
 30
0.0
 11
127.1332321659302
 21
62.27216528388696
 31
0.0
  0
LINE
  5
C1D
330
BFA
100
AcDbEntity
  8
文字
 62
     0
370
    -2
100
AcDbLine
 10
125.8832321659302
 20
72.77216528388695
 30
0.0
 11
125.8832321659302
 21
64.77216528388695
 31
0.0
  0
SOLID
  5
C1E
330
BFA
100
AcDbEntity
  8
文字
 62
     0
100
AcDbTrace
 10
125.4665654992635
 20
72.77216528388695
 30
0.0
 11
126.2998988325968
 21
72.77216528388695
 31
0.0
 12
125.8832321659302
 22
75.27216528388695
 32
0.0
 13
125.8832321659302
 23
75.27216528388695
 33
0.0
  0
SOLID
  5
C1F
330
BFA
100
AcDbEntity
  8
文字
 62
     0
100
AcDbTrace
 10
125.4665654992635
 20
64.77216528388695
 30
0.0
 11
126.2998988325968
 21
64.77216528388695
 31
0.0
 12
125.8832321659302
 22
62.27216528388696
 32
0.0
 13
125.8832321659302
 23
62.27216528388696
 33
0.0
  0
MTEXT
  5
C20
330
BFA
100
AcDbEntity
  8
文字
 62
     0
100
AcDbMText
 10
124.0082321659302
 20
68.77216528388696
 30
0.0
 40
2.5
 41
0.0
 46
0.0
 71
     5
 72
     1
  1
13
 11
6.123031769111886E-17
 21
1.0
 31
0.0
 73
     1
 44
1.0
  0
POINT
  5
C21
330
BFA
100
AcDbEntity
  8
Defpoints
 62
     0
100
AcDbPoint
 10
92.9601001381535
 20
75.27216528388696
 30
0.0
  0
POINT
  5
C22
330
BFA
100
AcDbEntity
  8
Defpoints
 62
     0
100
AcDbPoint
 10
92.9601001381535
 20
62.27216528388696
 30
0.0
  0
POINT
  5
C23
330
BFA
100
AcDbEntity
  8
Defpoints
 62
     0
100
AcDbPoint
 10
125.8832321659302
 20
62.27216528388696
 30
0.0
  0
ENDBLK
  5
C05
330
BFA
100
AcDbEntity
  8
0
100
AcDbBlockEnd
  0
BLOCK
  5
C10
330
C06
100
AcDbEntity
  8
0
100
AcDbBlockBegin
  2
*D3
 70
     1
 10
0.0
 20
0.0
 30
0.0
  3
*D3
  1
*D7
  0
LINE
  5
D4F
330
C06
100
AcDbEntity
  8
文字
 62
     0
370
    -2
100
AcDbLine
 10
84.28510013815347
 20
175.272165283887
 30
0.0
 11
127.1332321659302
 21
175.272165283887
 31
0.0
  0
LINE
  5
D50
330
C06
100
AcDbEntity
  8
文字
 62
     0
370
    -2
100
AcDbLine
 10
94.2101001381535
 20
75.27216528388695
 30
0.0
 11
127.1332321659302
 21
75.27216528388693
 31
0.0
  0
LINE
  5
D51
330
C06
100
AcDbEntity
  8
文字
 62
     0
370
    -2
100
AcDbLine
 10
125.8832321659302
 20
172.772165283887
 30
0.0
 11
125.8832321659302
 21
77.77216528388693
 31
0.0
  0
SOLID
  5
D52
330
C06
100
AcDbEntity
  8
文字
 62
     0
100
AcDbTrace
 10
125.4665654992635
 20
172.772165283887
 30
0.0
 11
126.2998988325969
 21
172.772165283887
 31
0.0
 12
125.8832321659302
 22
175.272165283887
 32
0.0
 13
125.8832321659302
 23
175.272165283887
 33
0.0
  0
SOLID
  5
D53
330
C06
100
AcDbEntity
  8
文字
 62
     0
100
AcDbTrace
 10
125.4665654992635
 20
77.77216528388693
 30
0.0
 11
126.2998988325968
 21
77.77216528388693
 31
0.0
 12
125.8832321659302
 22
75.27216528388693
 32
0.0
 13
125.8832321659302
 23
75.27216528388693
 33
0.0
  0
MTEXT
  5
D54
330
C06
100
AcDbEntity
  8
文字
 62
     0
100
AcDbMText
 10
124.0082321659302
 20
125.272165283887
 30
0.0
 40
2.5
 41
0.0
 46
0.0
 71
     5
 72
     1
  1
200
 11
6.123031769111886E-17
 21
1.0
 31
0.0
 73
     1
 44
1.0
  0
POINT
  5
D55
330
C06
100
AcDbEntity
  8
Defpoints
 62
     0
100
AcDbPoint
 10
83.66010013815347
 20
175.272165283887
 30
0.0
  0
POINT
  5
D56
330
C06
100
AcDbEntity
  8
Defpoints
 62
     0
100
AcDbPoint
 10
93.5851001381535
 20
75.27216528388695
 30
0.0
  0
POINT
  5
D57
330
C06
100
AcDbEntity
  8
Defpoints
 62
     0
100
AcDbPoint
 10
125.8832321659302
 20
75.27216528388693
 30
0.0
  0
ENDBLK
  5
C11
330
C06
100
AcDbEntity
  8
0
100
AcDbBlockEnd
  0
BLOCK
  5
C44
330
C3A
100
AcDbEntity
  8
0
100
AcDbBlockBegin
  2
*D4
 70
     1
 10
0.0
 20
0.0
 30
0.0
  3
*D4
  1
*D8
  0
LINE
  5
C51
330
C3A
100
AcDbEntity
  8
文字
 62
     0
370
    -2
100
AcDbLine
 10
194.646164570864
 20
109.6142926050651
 30
0.0
 11
194.646164570864
 21
69.62453920768604
 31
0.0
  0
LINE
  5
C52
330
C3A
100
AcDbEntity
  8
文字
 62
     0
370
    -2
100
AcDbLine
 10
224.6106435418055
 20
109.6142926050651
 30
0.0
 11
224.6106435418055
 21
69.62453920768604
 31
0.0
  0
LINE
  5
C53
330
C3A
100
AcDbEntity
  8
文字
 62
     0
370
    -2
100
AcDbLine
 10
197.146164570864
 20
70.87453920768604
 30
0.0
 11
222.1106435418055
 21
70.87453920768604
 31
0.0
  0
SOLID
  5
C54
330
C3A
100
AcDbEntity
  8
文字
 62
     0
100
AcDbTrace
 10
197.146164570864
 20
71.29120587435271
 30
0.0
 11
197.146164570864
 21
70.45787254101937
 31
0.0
 12
194.646164570864
 22
70.87453920768604
 32
0.0
 13
194.646164570864
 23
70.87453920768604
 33
0.0
  0
SOLID
  5
C55
330
C3A
100
AcDbEntity
  8
文字
 62
     0
100
AcDbTrace
 10
222.1106435418055
 20
71.29120587435271
 30
0.0
 11
222.1106435418055
 21
70.45787254101937
 31
0.0
 12
224.6106435418055
 22
70.87453920768604
 32
0.0
 13
224.6106435418055
 23
70.87453920768604
 33
0.0
  0
MTEXT
  5
C56
330
C3A
100
AcDbEntity
  8
文字
 62
     0
100
AcDbMText
 10
209.6284040563347
 20
72.74953920768604
 30
0.0
 40
2.5
 41
0.0
 46
0.0
 71
     5
 72
     1
  1
30
 73
     1
 44
1.0
  0
POINT
  5
C57
330
C3A
100
AcDbEntity
  8
Defpoints
 62
     0
100
AcDbPoint
 10
194.646164570864
 20
110.2392926050651
 30
0.0
  0
POINT
  5
C58
330
C3A
100
AcDbEntity
  8
Defpoints
 62
     0
100
AcDbPoint
 10
224.6106435418055
 20
110.2392926050651
 30
0.0
  0
POINT
  5
C59
330
C3A
100
AcDbEntity
  8
Defpoints
 62
     0
100
AcDbPoint
 10
224.6106435418055
 20
70.87453920768604
 30
0.0
  0
ENDBLK
  5
C45
330
C3A
100
AcDbEntity
  8
0
100
AcDbBlockEnd
  0
BLOCK
  5
CCE
330
CC4
100
AcDbEntity
  8
0
100
AcDbBlockBegin
  2
*D5
 70
     1
 10
0.0
 20
0.0
 30
0.0
  3
*D5
  1
*D12
  0
LINE
  5
CFA
330
CC4
100
AcDbEntity
  8
文字
 62
     0
370
    -2
100
AcDbLine
 10
87.28216969296209
 20
62.27216528388698
 30
0.0
 11
127.1332321667775
 21
62.27216528388697
 31
0.0
  0
LINE
  5
CFB
330
CC4
100
AcDbEntity
  8
文字
 62
     0
370
    -2
100
AcDbLine
 10
105.3153795505139
 20
44.27216528388698
 30
0.0
 11
127.1332321667775
 21
44.27216528388697
 31
0.0
  0
LINE
  5
CFC
330
CC4
100
AcDbEntity
  8
文字
 62
     0
370
    -2
100
AcDbLine
 10
125.8832321667775
 20
59.77216528388697
 30
0.0
 11
125.8832321667775
 21
46.77216528388697
 31
0.0
  0
SOLID
  5
CFD
330
CC4
100
AcDbEntity
  8
文字
 62
     0
100
AcDbTrace
 10
125.4665655001109
 20
59.77216528388697
 30
0.0
 11
126.2998988334442
 21
59.77216528388697
 31
0.0
 12
125.8832321667775
 22
62.27216528388697
 32
0.0
 13
125.8832321667775
 23
62.27216528388697
 33
0.0
  0
SOLID
  5
CFE
330
CC4
100
AcDbEntity
  8
文字
 62
     0
100
AcDbTrace
 10
125.4665655001109
 20
46.77216528388697
 30
0.0
 11
126.2998988334442
 21
46.77216528388697
 31
0.0
 12
125.8832321667775
 22
44.27216528388697
 32
0.0
 13
125.8832321667775
 23
44.27216528388697
 33
0.0
  0
MTEXT
  5
CFF
330
CC4
100
AcDbEntity
  8
文字
 62
     0
100
AcDbMText
 10
124.0082321667775
 20
53.27216528388699
 30
0.0
 40
2.5
 41
0.0
 46
0.0
 71
     5
 72
     1
  1
18
 11
6.123031769111886E-17
 21
1.0
 31
0.0
 73
     1
 44
1.0
  0
POINT
  5
D00
330
CC4
100
AcDbEntity
  8
Defpoints
 62
     0
100
AcDbPoint
 10
86.65716969296209
 20
62.27216528388698
 30
0.0
  0
POINT
  5
D01
330
CC4
100
AcDbEntity
  8
Defpoints
 62
     0
100
AcDbPoint
 10
104.6903795505139
 20
44.27216528388698
 30
0.0
  0
POINT
  5
D02
330
CC4
100
AcDbEntity
  8
Defpoints
 62
     0
100
AcDbPoint
 10
125.8832321667775
 20
44.27216528388697
 30
0.0
  0
ENDBLK
  5
CCF
330
CC4
100
AcDbEntity
  8
0
100
AcDbBlockEnd
  0
BLOCK
  5
CDA
330
CD0
100
AcDbEntity
  8
0
100
AcDbBlockBegin
  2
*D6
 70
     1
 10
0.0
 20
0.0
 30
0.0
  3
*D6
  1
*D13
  0
LINE
  5
CF1
330
CD0
100
AcDbEntity
  8
文字
 62
     0
370
    -2
100
AcDbLine
 10
105.6903795505139
 20
47.39716528388698
 30
0.0
 11
105.6903795505139
 21
23.45179353774284
 31
0.0
  0
LINE
  5
CF2
330
CD0
100
AcDbEntity
  8
文字
 62
     0
370
    -2
100
AcDbLine
 10
45.69037955051385
 20
47.39716528388698
 30
0.0
 11
45.69037955051385
 21
23.45179353774284
 31
0.0
  0
LINE
  5
CF3
330
CD0
100
AcDbEntity
  8
文字
 62
     0
370
    -2
100
AcDbLine
 10
103.1903795505139
 20
24.70179353774284
 30
0.0
 11
48.19037955051385
 21
24.70179353774284
 31
0.0
  0
SOLID
  5
CF4
330
CD0
100
AcDbEntity
  8
文字
 62
     0
100
AcDbTrace
 10
103.1903795505139
 20
25.11846020440951
 30
0.0
 11
103.1903795505139
 21
24.28512687107618
 31
0.0
 12
105.6903795505139
 22
24.70179353774284
 32
0.0
 13
105.6903795505139
 23
24.70179353774284
 33
0.0
  0
SOLID
  5
CF5
330
CD0
100
AcDbEntity
  8
文字
 62
     0
100
AcDbTrace
 10
48.19037955051385
 20
25.11846020440951
 30
0.0
 11
48.19037955051385
 21
24.28512687107618
 31
0.0
 12
45.69037955051385
 22
24.70179353774284
 32
0.0
 13
45.69037955051385
 23
24.70179353774284
 33
0.0
  0
MTEXT
  5
CF6
330
CD0
100
AcDbEntity
  8
文字
 62
     0
100
AcDbMText
 10
75.69037955051385
 20
26.57679353774284
 30
0.0
 40
2.5
 41
0.0
 46
0.0
 71
     5
 72
     1
  1
%%c60
 73
     1
 44
1.0
  0
POINT
  5
CF7
330
CD0
100
AcDbEntity
  8
Defpoints
 62
     0
100
AcDbPoint
 10
105.6903795505139
 20
48.02216528388698
 30
0.0
  0
POINT
  5
CF8
330
CD0
100
AcDbEntity
  8
Defpoints
 62
     0
100
AcDbPoint
 10
45.69037955051385
 20
48.02216528388698
 30
0.0
  0
POINT
  5
CF9
330
CD0
100
AcDbEntity
  8
Defpoints
 62
     0
100
AcDbPoint
 10
45.69037955051385
 20
24.70179353774284
 30
0.0
  0
ENDBLK
  5
CDB
330
CD0
100
AcDbEntity
  8
0
100
AcDbBlockEnd
  0
BLOCK
  5
CE6
330
CDC
100
AcDbEntity
  8
0
100
AcDbBlockBegin
  2
*D7
 70
     1
 10
0.0
 20
0.0
 30
0.0
  3
*D7
  1
*D14
  0
LINE
  5
CE8
330
CDC
100
AcDbEntity
  8
文字
 62
     0
370
    -2
100
AcDbLine
 10
45.06537955051385
 20
53.77216528388698
 30
0.0
 11
27.97864367859353
 21
53.77216528388698
 31
0.0
  0
LINE
  5
CE9
330
CDC
100
AcDbEntity
  8
文字
 62
     0
370
    -2
100
AcDbLine
 10
46.06537955051385
 20
44.27216528388698
 30
0.0
 11
27.97864367859353
 21
44.27216528388698
 31
0.0
  0
LINE
  5
CEA
330
CDC
100
AcDbEntity
  8
文字
 62
     0
370
    -2
100
AcDbLine
 10
29.22864367859353
 20
51.27216528388698
 30
0.0
 11
29.22864367859353
 21
46.77216528388698
 31
0.0
  0
SOLID
  5
CEB
330
CDC
100
AcDbEntity
  8
文字
 62
     0
100
AcDbTrace
 10
28.81197701192686
 20
51.27216528388698
 30
0.0
 11
29.6453103452602
 21
51.27216528388698
 31
0.0
 12
29.22864367859353
 22
53.77216528388698
 32
0.0
 13
29.22864367859353
 23
53.77216528388698
 33
0.0
  0
SOLID
  5
CEC
330
CDC
100
AcDbEntity
  8
文字
 62
     0
100
AcDbTrace
 10
28.81197701192686
 20
46.77216528388698
 30
0.0
 11
29.6453103452602
 21
46.77216528388698
 31
0.0
 12
29.22864367859353
 22
44.27216528388698
 32
0.0
 13
29.22864367859353
 23
44.27216528388698
 33
0.0
  0
MTEXT
  5
CED
330
CDC
100
AcDbEntity
  8
文字
 62
     0
100
AcDbMText
 10
27.35364367859352
 20
49.02216528388698
 30
0.0
 40
2.5
 41
0.0
 46
0.0
 71
     5
 72
     1
  1
9.5
 11
6.123031769111886E-17
 21
1.0
 31
0.0
 73
     1
 44
1.0
  0
POINT
  5
CEE
330
CDC
100
AcDbEntity
  8
Defpoints
 62
     0
100
AcDbPoint
 10
45.69037955051385
 20
53.77216528388698
 30
0.0
  0
POINT
  5
CEF
330
CDC
100
AcDbEntity
  8
Defpoints
 62
     0
100
AcDbPoint
 10
46.69037955051385
 20
44.27216528388698
 30
0.0
  0
POINT
  5
CF0
330
CDC
100
AcDbEntity
  8
Defpoints
 62
     0
100
AcDbPoint
 10
29.22864367859353
 20
44.27216528388698
 30
0.0
  0
ENDBLK
  5
CE7
330
CDC
100
AcDbEntity
  8
0
100
AcDbBlockEnd
  0
BLOCK
  5
D10
330
D06
100
AcDbEntity
  8
0
100
AcDbBlockBegin
  2
*D8
 70
     1
 10
0.0
 20
0.0
 30
0.0
  3
*D8
  1
*D15
  0
LINE
  5
D1D
330
D06
100
AcDbEntity
  8
文字
 62
     0
370
    -2
100
AcDbLine
 10
188.3284040563347
 20
118.2642926050651
 30
0.0
 11
188.3284040563347
 21
59.33040031774777
 31
0.0
  0
LINE
  5
D1E
330
D06
100
AcDbEntity
  8
文字
 62
     0
370
    -2
100
AcDbLine
 10
230.9284040563348
 20
118.2642926050651
 30
0.0
 11
230.9284040563348
 21
59.33040031774777
 31
0.0
  0
LINE
  5
D1F
330
D06
100
AcDbEntity
  8
文字
 62
     0
370
    -2
100
AcDbLine
 10
190.8284040563347
 20
60.58040031774777
 30
0.0
 11
228.4284040563348
 21
60.58040031774777
 31
0.0
  0
SOLID
  5
D20
330
D06
100
AcDbEntity
  8
文字
 62
     0
100
AcDbTrace
 10
190.8284040563347
 20
60.99706698441444
 30
0.0
 11
190.8284040563347
 21
60.16373365108111
 31
0.0
 12
188.3284040563347
 22
60.58040031774777
 32
0.0
 13
188.3284040563347
 23
60.58040031774777
 33
0.0
  0
SOLID
  5
D21
330
D06
100
AcDbEntity
  8
文字
 62
     0
100
AcDbTrace
 10
228.4284040563348
 20
60.99706698441444
 30
0.0
 11
228.4284040563348
 21
60.16373365108111
 31
0.0
 12
230.9284040563348
 22
60.58040031774777
 32
0.0
 13
230.9284040563348
 23
60.58040031774777
 33
0.0
  0
MTEXT
  5
D22
330
D06
100
AcDbEntity
  8
文字
 62
     0
100
AcDbMText
 10
209.6284040563347
 20
62.45540031774777
 30
0.0
 40
2.5
 41
0.0
 46
0.0
 71
     5
 72
     1
  1
%%c42.6
 73
     1
 44
1.0
  0
POINT
  5
D23
330
D06
100
AcDbEntity
  8
Defpoints
 62
     0
100
AcDbPoint
 10
188.3284040563347
 20
118.8892926050651
 30
0.0
  0
POINT
  5
D24
330
D06
100
AcDbEntity
  8
Defpoints
 62
     0
100
AcDbPoint
 10
230.9284040563348
 20
118.8892926050651
 30
0.0
  0
POINT
  5
D25
330
D06
100
AcDbEntity
  8
Defpoints
 62
     0
100
AcDbPoint
 10
230.9284040563348
 20
60.58040031774777
 30
0.0
  0
ENDBLK
  5
D11
330
D06
100
AcDbEntity
  8
0
100
AcDbBlockEnd
  0
BLOCK
  5
E45
330
E44
100
AcDbEntity
  8
0
100
AcDbBlockBegin
  2
*D10
 70
     1
 10
0.0
 20
0.0
 30
0.0
  3
*D10
  1
*D10
  0
LINE
  5
E46
330
E44
100
AcDbEntity
  8
文字
 62
     0
370
    -2
100
AcDbLine
 10
0.0
 20
56.5904167406663
 30
0.0
 11
0.0
 21
0.0
 31
0.0
  0
LINE
  5
E47
330
E44
100
AcDbEntity
  8
文字
 62
     0
370
    -2
100
AcDbLine
 10
42.99872911925272
 20
56.5024791327273
 30
0.0
 11
42.99872911925272
 21
0.0
 31
0.0
  0
LINE
  5
E48
330
E44
100
AcDbEntity
  8
文字
 62
     0
370
    -2
100
AcDbLine
 10
2.5
 20
1.25
 30
0.0
 11
40.49872911925272
 21
1.25
 31
0.0
  0
SOLID
  5
E49
330
E44
100
AcDbEntity
  8
文字
 62
     0
100
AcDbTrace
 10
2.5
 20
1.666666666666667
 30
0.0
 11
2.5
 21
0.8333333333333333
 31
0.0
 12
0.0
 22
1.25
 32
0.0
 13
0.0
 23
1.25
 33
0.0
  0
SOLID
  5
E4A
330
E44
100
AcDbEntity
  8
文字
 62
     0
100
AcDbTrace
 10
40.49872911925272
 20
0.8333333333333333
 30
0.0
 11
40.49872911925272
 21
1.666666666666667
 31
0.0
 12
42.99872911925272
 22
1.25
 32
0.0
 13
42.99872911925272
 23
1.25
 33
0.0
  0
MTEXT
  5
E4B
330
E44
100
AcDbEntity
  8
文字
 62
     0
100
AcDbMText
 10
21.02746507072965
 20
3.125
 30
0.0
 40
2.5
 41
0.0
 46
0.0
 71
     5
 72
     1
  1
%%c43
 73
     1
 44
1.0
  0
POINT
  5
E4C
330
E44
100
AcDbEntity
  8
Defpoints
 62
     0
100
AcDbPoint
 10
0.0
 20
57.2154167406663
 30
0.0
  0
POINT
  5
E4D
330
E44
100
AcDbEntity
  8
Defpoints
 62
     0
100
AcDbPoint
 10
42.99872911925272
 20
57.1274791327273
 30
0.0
  0
POINT
  5
E4E
330
E44
100
AcDbEntity
  8
Defpoints
 62
     0
100
AcDbPoint
 10
42.99872911925272
 20
1.25
 30
0.0
  0
ENDBLK
  5
E4F
330
E44
100
AcDbEntity
  8
0
100
AcDbBlockEnd
  0
BLOCK
  5
E57
330
E56
100
AcDbEntity
  8
0
100
AcDbBlockBegin
  2
*D11
 70
     1
 10
0.0
 20
0.0
 30
0.0
  3
*D11
  1
*D11
  0
LINE
  5
E59
330
E56
100
AcDbEntity
  8
文字
 62
     0
370
    -2
100
AcDbLine
 10
188.5679570064707
 20
118.8072640231668
 30
0.0
 11
188.5679570064707
 21
62.21684728250054
 31
0.0
  0
LINE
  5
E5A
330
E56
100
AcDbEntity
  8
文字
 62
     0
370
    -2
100
AcDbLine
 10
231.5666861257234
 20
118.7193264152278
 30
0.0
 11
231.5666861257234
 21
62.21684728250054
 31
0.0
  0
LINE
  5
E5B
330
E56
100
AcDbEntity
  8
文字
 62
     0
370
    -2
100
AcDbLine
 10
191.0679570064707
 20
63.46684728250054
 30
0.0
 11
229.0666861257234
 21
63.46684728250054
 31
0.0
  0
SOLID
  5
E5C
330
E56
100
AcDbEntity
  8
文字
 62
     0
100
AcDbTrace
 10
191.0679570064707
 20
63.8835139491672
 30
0.0
 11
191.0679570064707
 21
63.05018061583387
 31
0.0
 12
188.5679570064707
 22
63.46684728250054
 32
0.0
 13
188.5679570064707
 23
63.46684728250054
 33
0.0
  0
SOLID
  5
E5D
330
E56
100
AcDbEntity
  8
文字
 62
     0
100
AcDbTrace
 10
229.0666861257234
 20
63.05018061583387
 30
0.0
 11
229.0666861257234
 21
63.8835139491672
 31
0.0
 12
231.5666861257234
 22
63.46684728250054
 32
0.0
 13
231.5666861257234
 23
63.46684728250054
 33
0.0
  0
MTEXT
  5
E5E
330
E56
100
AcDbEntity
  8
文字
 62
     0
100
AcDbMText
 10
209.5954220772004
 20
65.34184728250054
 30
0.0
 40
2.5
 41
0.0
 46
0.0
 71
     5
 72
     1
  1
%%c43
 73
     1
 44
1.0
  0
POINT
  5
E5F
330
E56
100
AcDbEntity
  8
Defpoints
 62
     0
100
AcDbPoint
 10
188.5679570064707
 20
119.4322640231668
 30
0.0
  0
POINT
  5
E60
330
E56
100
AcDbEntity
  8
Defpoints
 62
     0
100
AcDbPoint
 10
231.5666861257234
 20
119.3443264152278
 30
0.0
  0
POINT
  5
E61
330
E56
100
AcDbEntity
  8
Defpoints
 62
     0
100
AcDbPoint
 10
231.5666861257234
 20
63.46684728250054
 30
0.0
  0
ENDBLK
  5
E58
330
E56
100
AcDbEntity
  8
0
100
AcDbBlockEnd
  0
ENDSEC
  0
SECTION
  2
ENTITIES
  0
LINE
  5
7F2
330
21
100
AcDbEntity
  8
中心線
100
AcDbLine
 10
209.6284040563347
 20
118.8892926050651
 30
0.0
 11
209.6284040563347
 21
164.4271182448153
 31
0.0
  0
LINE
  5
7F3
330
21
100
AcDbEntity
  8
中心線
100
AcDbLine
 10
209.6284040563347
 20
118.8892926050651
 30
0.0
 11
209.6284040563347
 21
77.07052639211213
 31
0.0
  0
LINE
  5
985
330
21
100
AcDbEntity
  8
実線
100
AcDbLine
 10
66.07311770959906
 20
62.27216528388695
 30
0.0
 11
85.24708256670793
 21
62.27216528388698
 31
0.0
  0
LINE
  5
A0E
102
{ACAD_REACTORS
102
}
330
21
100
AcDbEntity
  8
中心線
100
AcDbLine
 10
209.6284040563347
 20
118.8892926050651
 30
0.0
 11
161.2575890532131
 21
118.8892926050651
 31
0.0
  0
LINE
  5
A0F
102
{ACAD_REACTORS
102
}
330
21
100
AcDbEntity
  8
中心線
100
AcDbLine
 10
209.6284040563347
 20
118.8892926050651
 30
0.0
 11
257.1004112815915
 21
118.8892926050651
 31
0.0
  0
LINE
  5
BD2
330
21
100
AcDbEntity
  8
実線
100
AcDbLine
 10
64.32010013815344
 20
62.27217838513832
 30
0.0
 11
87.00142084986916
 21
62.27215218110977
 31
0.0
  0
LWPOLYLINE
  5
BD3
330
21
100
AcDbEntity
  8
実線
100
AcDbPolyline
 90
        4
 70
     0
 43
0.0
 10
65.66010013815347
 20
112.4437381591408
 10
65.66010013815347
 20
75.27216528388696
 10
85.66010013815347
 20
75.27216528388696
 10
85.66010013815347
 20
128.7362668990247
  0
LINE
  5
BD4
330
21
100
AcDbEntity
  8
実線
370
    20
100
AcDbLine
 10
67.66010013815347
 20
114.4437381591408
 30
0.0
 11
67.66010013815347
 21
75.27216528388696
 31
0.0
  0
LINE
  5
BD5
330
21
100
AcDbEntity
  8
実線
370
    20
100
AcDbLine
 10
83.66010013815347
 20
130.4437381591408
 30
0.0
 11
83.66010013815347
 21
129.890967437404
 31
0.0
  0
DIMENSION
  5
BD6
102
{ACAD_REACTORS
330
BD8
102
}
102
{ACAD_XDICTIONARY
360
BD7
102
}
330
21
100
AcDbEntity
  8
文字
100
AcDbDimension
280
     0
  2
*D1
 10
85.66010013815347
 20
188.7624167662278
 30
0.0
 11
75.66010013815347
 21
190.6374167662278
 31
0.0
 70
    32
  1
{\fArial|b0|i0|c0|p32;M}<>
 71
     5
 42
20.0
 73
     0
 74
     0
 75
     0
  3
ISO-25
100
AcDbAlignedDimension
 13
65.66010013815347
 23
173.272165283887
 33
0.0
 14
85.66010013815347
 24
173.272165283887
 34
0.0
100
AcDbRotatedDimension
  0
LINE
  5
BD9
330
21
100
AcDbEntity
  8
実線
370
    20
100
AcDbLine
 10
83.66010013815347
 20
175.272165283887
 30
0.0
 11
83.66010013815347
 21
133.272165283887
 31
0.0
  0
LINE
  5
BDA
330
21
100
AcDbEntity
  8
実線
370
    20
100
AcDbLine
 10
67.66010013815347
 20
175.272165283887
 30
0.0
 11
67.66010013815347
 21
120.6533631303699
 31
0.0
  0
LINE
  5
BDB
102
{ACAD_REACTORS
330
BD8
102
}
330
21
100
AcDbEntity
  8
実線
370
    20
100
AcDbLine
 10
65.66010013815347
 20
173.272165283887
 30
0.0
 11
85.66010013815347
 21
173.272165283887
 31
0.0
  0
LWPOLYLINE
  5
BDC
102
{ACAD_REACTORS
330
BED
102
}
330
21
100
AcDbEntity
  8
実線
100
AcDbPolyline
 90
        6
 70
     0
 43
0.0
 10
85.66010013815347
 20
135.272165283887
 10
85.66010013815347
 20
173.272165283887
 10
83.66010013815347
 20
175.272165283887
 10
67.66010013815347
 20
175.272165283887
 10
65.66010013815347
 20
173.272165283887
 10
65.66010013815347
 20
119.4986625919907
  0
DIMENSION
  5
BDD
102
{ACAD_REACTORS
330
BDF
102
}
102
{ACAD_XDICTIONARY
360
BDE
102
}
330
21
100
AcDbEntity
  8
文字
100
AcDbDimension
280
     0
  2
*D2
 10
125.8832321659302
 20
62.27216528388696
 30
0.0
 11
124.0082321659302
 21
68.77216528388696
 31
0.0
 70
    32
 71
     5
 42
12.99999999999999
 73
     0
 74
     0
 75
     0
  3
ISO-25
100
AcDbAlignedDimension
 13
92.9601001381535
 23
75.27216528388696
 33
0.0
 14
92.9601001381535
 24
62.27216528388696
 34
0.0
 50
90.0
100
AcDbRotatedDimension
  0
LINE
  5
BE0
330
21
100
AcDbEntity
  8
実線
100
AcDbLine
 10
67.01010013815349
 20
75.27216528388696
 30
0.0
 11
67.01010013815349
 21
63.27216528388696
 31
0.0
  0
ARC
  5
BE1
330
21
100
AcDbEntity
  8
実線
100
AcDbCircle
 10
62.6851001381535
 20
72.12497778388695
 30
0.0
 40
9.852812499999981
100
AcDbArc
 50
243.9623951404291
 51
296.0376048595691
  0
LWPOLYLINE
  5
BE2
102
{ACAD_REACTORS
330
BDF
102
}
330
21
100
AcDbEntity
  8
実線
100
AcDbPolyline
 90
        4
 70
     0
 43
0.0
 10
92.9601001381535
 20
63.27216528388696
 10
92.9601001381535
 20
75.27216528388696
 10
58.36010013815351
 20
75.27216528388696
 10
58.36010013815351
 20
63.27216528388696
  0
LINE
  5
BE3
330
21
100
AcDbEntity
  8
実線
100
AcDbLine
 10
84.3101001381535
 20
75.27216528388696
 30
0.0
 11
84.3101001381535
 21
63.27216528388696
 31
0.0
  0
ARC
  5
BE4
330
21
100
AcDbEntity
  8
実線
100
AcDbCircle
 10
88.63510013815352
 20
72.12497778388699
 30
0.0
 40
9.852812500000026
100
AcDbArc
 50
243.9623951404291
 51
296.0376048595691
  0
ARC
  5
BE5
330
21
100
AcDbEntity
  8
実線
100
AcDbCircle
 10
75.66010013815358
 20
100.1834152838869
 30
0.0
 40
37.91124999999995
100
AcDbArc
 50
256.810969935543
 51
283.1890300644553
  0
LINE
  5
BE6
330
21
100
AcDbEntity
  8
中心線
100
AcDbLine
 10
75.66010013815347
 20
37.21450997919406
 30
0.0
 11
75.66010013815347
 21
182.3671168291735
 31
0.0
  0
LINE
  5
BE7
330
21
100
AcDbEntity
  8
実線
100
AcDbLine
 10
65.66010013815347
 20
115.272165283887
 30
0.0
 11
65.66010013815347
 21
112.4437381591408
 31
0.0
  0
LINE
  5
BE8
330
21
100
AcDbEntity
  8
実線
100
AcDbLine
 10
85.66010013815347
 20
135.272165283887
 30
0.0
 11
85.66010013815347
 21
132.4437381591408
 31
0.0
  0
LINE
  5
BE9
330
21
100
AcDbEntity
  8
実線
370
    20
100
AcDbLine
 10
83.66010013815347
 20
133.272165283887
 30
0.0
 11
83.66010013815347
 21
130.4437381591408
 31
0.0
  0
LINE
  5
BEA
330
21
100
AcDbEntity
  8
実線
370
    20
100
AcDbLine
 10
67.66010013815347
 20
117.272165283887
 30
0.0
 11
67.66010013815347
 21
114.4437381591408
 31
0.0
  0
DIMENSION
  5
BEB
102
{ACAD_REACTORS
330
BED
102
}
102
{ACAD_XDICTIONARY
360
BEC
102
}
330
21
100
AcDbEntity
  8
文字
100
AcDbDimension
280
     0
  2
*D3
 10
125.8832321659302
 20
75.27216528388693
 30
0.0
 11
124.0082321659302
 21
125.272165283887
 31
0.0
 70
    32
  1
200
 71
     5
 42
100.0
 73
     0
 74
     0
 75
     0
  3
ISO-25
100
AcDbAlignedDimension
 13
83.66010013815347
 23
175.272165283887
 33
0.0
 14
93.5851001381535
 24
75.27216528388695
 34
0.0
 50
90.0
100
AcDbRotatedDimension
  0
CIRCLE
  5
C36
330
21
100
AcDbEntity
  8
実線
100
AcDbCircle
 10
209.6284040563347
 20
118.8892926050651
 30
0.0
 40
10.0
  0
CIRCLE
  5
C37
330
21
100
AcDbEntity
  8
実線
370
    20
100
AcDbCircle
 10
209.6284040563347
 20
118.8892926050651
 30
0.0
 40
8.0
  0
LWPOLYLINE
  5
C38
102
{ACAD_REACTORS
330
C50
102
}
330
21
100
AcDbEntity
  8
実線
100
AcDbPolyline
 90
        6
 70
     1
 43
0.0
 10
224.6106435418055
 20
127.5392926050651
 10
209.6284040563348
 20
136.1892926050651
 10
194.646164570864
 20
127.5392926050651
 10
194.646164570864
 20
110.2392926050651
 10
209.6284040563347
 20
101.5892926050651
 10
224.6106435418055
 20
110.2392926050651
  0
DIMENSION
  5
C39
102
{ACAD_REACTORS
330
C50
102
}
102
{ACAD_XDICTIONARY
360
C46
102
}
330
21
100
AcDbEntity
  8
文字
100
AcDbDimension
280
     0
  2
*D4
 10
224.6106435418055
 20
70.87453920768604
 30
0.0
 11
209.6284040563347
 21
72.74953920768604
 31
0.0
 70
    32
  1
30
 71
     5
 42
29.96447897094157
 73
     0
 74
     0
 75
     0
  3
ISO-25
100
AcDbAlignedDimension
 13
194.646164570864
 23
110.2392926050651
 33
0.0
 14
224.6106435418055
 24
110.2392926050651
 34
0.0
100
AcDbRotatedDimension
  0
DIMENSION
  5
CA7
102
{ACAD_REACTORS
330
CA9
102
}
102
{ACAD_XDICTIONARY
360
CA8
102
}
330
21
100
AcDbEntity
  8
文字
100
AcDbDimension
280
     0
  2
*D5
 10
125.8832321667775
 20
44.27216528388697
 30
0.0
 11
124.0082321667775
 21
53.27216528388699
 31
0.0
 70
    32
 71
     5
 42
18.0
 73
     0
 74
     0
 75
     0
  3
ISO-25
100
AcDbAlignedDimension
 13
86.65716969296209
 23
62.27216528388698
 33
0.0
 14
104.6903795505139
 24
44.27216528388698
 34
0.0
 50
90.0
100
AcDbRotatedDimension
  0
LINE
  5
CAA
330
21
100
AcDbEntity
  8
実線
100
AcDbLine
 10
68.19037955051384
 20
62.27216528388696
 30
0.0
 11
83.19037955051385
 21
62.27216528388698
 31
0.0
  0
LINE
  5
CAB
330
21
100
AcDbEntity
  8
実線
100
AcDbLine
 10
96.69037955051385
 20
53.77216528388698
 30
0.0
 11
97.89430668282532
 21
53.77216528388698
 31
0.0
  0
ARC
  5
CAC
330
21
100
AcDbEntity
  8
実線
100
AcDbCircle
 10
97.89430668282532
 20
55.77216528388698
 30
0.0
 40
2.0
100
AcDbArc
 50
209.9999555474185
 51
270.0
  0
ARC
  5
CAD
330
21
100
AcDbEntity
  8
実線
100
AcDbCircle
 10
53.48645241820239
 20
55.77216528388698
 30
0.0
 40
2.0
100
AcDbArc
 50
270.0
 51
330.0000444525815
  0
ARC
  5
CAE
330
21
100
AcDbEntity
  8
実線
100
AcDbCircle
 10
83.17186822382112
 20
47.27217670619852
 30
0.0
 40
15.0
100
AcDbArc
 50
29.99995554741848
 51
89.92929192254013
  0
ARC
  5
CAF
330
21
100
AcDbEntity
  8
実線
100
AcDbCircle
 10
68.20889087720657
 20
47.27217670619851
 30
0.0
 40
15.0
100
AcDbArc
 50
90.07070807745987
 51
150.0000444525815
  0
DIMENSION
  5
CB0
102
{ACAD_REACTORS
330
CB2
102
}
102
{ACAD_XDICTIONARY
360
CB1
102
}
330
21
100
AcDbEntity
  8
文字
100
AcDbDimension
280
     0
  2
*D6
 10
45.69037955051385
 20
24.70179353774284
 30
0.0
 11
75.69037955051385
 21
26.57679353774284
 31
0.0
 70
    32
  1
%%c60
 71
     5
 42
60.0
 73
     0
 74
     0
 75
     0
  3
ISO-25
100
AcDbAlignedDimension
 13
105.6903795505139
 23
48.02216528388698
 33
0.0
 14
45.69037955051385
 24
48.02216528388698
 34
0.0
100
AcDbRotatedDimension
  0
ARC
  5
CB3
330
21
100
AcDbEntity
  8
実線
100
AcDbCircle
 10
46.69037955051385
 20
45.27216528388698
 30
0.0
 40
1.0
100
AcDbArc
 50
180.0
 51
270.0
  0
ARC
  5
CB4
102
{ACAD_REACTORS
330
CA9
102
}
330
21
100
AcDbEntity
  8
実線
100
AcDbCircle
 10
104.6903795505139
 20
45.27216528388698
 30
0.0
 40
1.0
100
AcDbArc
 50
270.0
 51
0.0
  0
LINE
  5
CB5
330
21
100
AcDbEntity
  8
実線
100
AcDbLine
 10
96.69037955051385
 20
53.77216528388698
 30
0.0
 11
53.28898282832844
 21
53.77216528388698
 31
0.0
  0
LINE
  5
CB6
330
21
100
AcDbEntity
  8
実線
100
AcDbLine
 10
99.69037955051385
 20
53.77216528388698
 30
0.0
 11
97.89430668282532
 21
53.77216528388698
 31
0.0
  0
LINE
  5
CB7
330
21
100
AcDbEntity
  8
実線
100
AcDbLine
 10
98.09177627269925
 20
53.77216528388698
 30
0.0
 11
102.6903795505139
 21
53.77216528388698
 31
0.0
  0
ARC
  5
CB8
330
21
100
AcDbEntity
  8
実線
100
AcDbCircle
 10
48.69037955051385
 20
50.77216528388698
 30
0.0
 40
3.0
100
AcDbArc
 50
90.0
 51
180.0
  0
ARC
  5
CB9
330
21
100
AcDbEntity
  8
実線
100
AcDbCircle
 10
102.6903795505139
 20
50.77216528388698
 30
0.0
 40
3.0
100
AcDbArc
 50
0.0
 51
90.0
  0
LINE
  5
CBA
102
{ACAD_REACTORS
330
CB2
102
}
330
21
100
AcDbEntity
  8
実線
100
AcDbLine
 10
105.6903795505139
 20
50.77216528388698
 30
0.0
 11
105.6903795505139
 21
45.27216528388698
 31
0.0
  0
LINE
  5
CBB
102
{ACAD_REACTORS
330
CB2
330
CC0
102
}
330
21
100
AcDbEntity
  8
実線
100
AcDbLine
 10
45.69037955051385
 20
50.77216528388698
 30
0.0
 11
45.69037955051385
 21
45.27216528388698
 31
0.0
  0
LINE
  5
CBC
102
{ACAD_REACTORS
330
CC0
102
}
330
21
100
AcDbEntity
  8
実線
100
AcDbLine
 10
48.69037955051385
 20
53.77216528388698
 30
0.0
 11
53.48645241820239
 21
53.77216528388698
 31
0.0
  0
LINE
  5
CBD
102
{ACAD_REACTORS
330
CC0
102
}
330
21
100
AcDbEntity
  8
実線
100
AcDbLine
 10
46.69037955051385
 20
44.27216528388698
 30
0.0
 11
104.6903795505139
 21
44.27216528388698
 31
0.0
  0
DIMENSION
  5
CBE
102
{ACAD_REACTORS
330
CC0
102
}
102
{ACAD_XDICTIONARY
360
CBF
102
}
330
21
100
AcDbEntity
  8
文字
100
AcDbDimension
280
     0
  2
*D7
 10
29.22864367859353
 20
44.27216528388698
 30
0.0
 11
27.35364367859352
 21
49.02216528388698
 31
0.0
 70
    32
 71
     5
 42
9.5
 73
     0
 74
     0
 75
     0
  3
ISO-25
100
AcDbAlignedDimension
 13
45.69037955051385
 23
53.77216528388698
 33
0.0
 14
46.69037955051385
 24
44.27216528388698
 34
0.0
 50
90.0
100
AcDbRotatedDimension
  0
LINE
  5
CC2
330
21
100
AcDbEntity
  8
実線
100
AcDbLine
 10
66.07311771044644
 20
62.27216528388695
 30
0.0
 11
85.24708256755531
 21
62.27216528388698
 31
0.0
  0
LINE
  5
CC3
330
21
100
AcDbEntity
  8
実線
100
AcDbLine
 10
65.31010013900087
 20
62.27216528388698
 30
0.0
 11
86.03216969296167
 21
62.27216528388698
 31
0.0
  0
CIRCLE
  5
D04
330
21
100
AcDbEntity
  8
実線
100
AcDbCircle
 10
209.6284040563347
 20
118.8892926050651
 30
0.0
 40
30.0
  0
LINE
  5
D28
330
21
100
AcDbEntity
  8
実線
370
    30
100
AcDbLine
 10
75.66010013815347
 20
125.272165283887
 30
0.0
 11
93.43401070328788
 21
135.5339373332197
 31
0.0
  0
LINE
  5
D29
330
21
100
AcDbEntity
  8
実線
370
    30
100
AcDbLine
 10
75.66010013815347
 20
125.272165283887
 30
0.0
 11
56.98455118265314
 21
114.4898320671648
 31
0.0
  0
LINE
  5
D2A
330
21
100
AcDbEntity
  8
実線
370
    30
100
AcDbLine
 10
76.66010013815347
 20
123.5401144763181
 30
0.0
 11
94.43401070328788
 21
133.8018865256508
 31
0.0
  0
LINE
  5
D2C
330
21
100
AcDbEntity
  8
実線
370
    30
100
AcDbLine
 10
76.66010013815347
 20
123.5401144763181
 30
0.0
 11
57.98455118265314
 21
112.7577812595959
 31
0.0
  0
LWPOLYLINE
  5
D2D
330
21
100
AcDbEntity
  8
実線
100
AcDbPolyline
 90
        2
 70
     0
 43
0.0
 10
85.66010013815347
 20
131.0456679757832
 10
85.66010013815347
 20
132.4437381591408
  0
LINE
  5
D2E
330
21
100
AcDbEntity
  8
実線
370
    20
100
AcDbLine
 10
83.66010013815347
 20
127.5815663606455
 30
0.0
 11
83.66010013815344
 21
75.27216528388696
 31
0.0
  0
LINE
  5
D2F
330
21
100
AcDbEntity
  8
実線
370
    20
100
AcDbLine
 10
67.66010013815347
 20
118.3439620536114
 30
0.0
 11
67.66010013815347
 21
117.272165283887
 31
0.0
  0
LWPOLYLINE
  5
D30
102
{ACAD_REACTORS
330
BED
102
}
330
21
100
AcDbEntity
  8
実線
100
AcDbPolyline
 90
        2
 70
     0
 43
0.0
 10
65.66010013815347
 20
117.1892615152322
 10
65.66010013815347
 20
115.272165283887
  0
MTEXT
  5
DD6
330
21
100
AcDbEntity
  8
文字・寸法線
 62
     0
100
AcDbMText
 10
75.31600566646358
 20
215.832051920306
 30
0.0
 40
6.0
 41
0.0
 46
6.0
 71
     9
 72
     1
  1
{\fＭＳ ゴシック|b0|i0|c0|p0;S-V M20X200}
 73
     1
 44
1.0
1001
ACAD
1000
ACAD_MTEXT_DEFINED_HEIGHT_BEGIN
1070
    46
1040
6.0
1000
ACAD_MTEXT_DEFINED_HEIGHT_END
  0
CIRCLE
  5
E53
330
21
100
AcDbEntity
  8
実線
100
AcDbCircle
 10
209.86718757312
 20
119.4322640231668
 30
0.0
 40
21.29923056664931
  0
DIMENSION
  5
E54
102
{ACAD_XDICTIONARY
360
E55
102
}
330
21
100
AcDbEntity
  8
文字
100
AcDbDimension
280
     0
  2
*D11
 10
231.5666861257234
 20
63.46684728250054
 30
0.0
 11
209.5954220772004
 21
63.46684728250054
 31
0.0
 70
   160
  1
%%c<>
 71
     5
 42
42.99872911925272
 73
     0
 74
     0
 75
     0
  3
ISO-25
100
AcDbAlignedDimension
 13
188.5679570064707
 23
119.4322640231668
 33
0.0
 14
231.5666861257234
 24
119.3443264152278
 34
0.0
100
AcDbRotatedDimension
  0
ENDSEC
  0
SECTION
  2
OBJECTS
  0
DICTIONARY
  5
C
330
0
100
AcDbDictionary
281
     1
  3
ACAD_COLOR
350
1C
  3
ACAD_DETAILVIEWSTYLE
350
DAD
  3
ACAD_GROUP
350
D
  3
ACAD_IMAGE_VARS
350
DA3
  3
ACAD_LAYOUT
350
1A
  3
ACAD_MATERIAL
350
1B
  3
ACAD_MLEADERSTYLE
350
DAA
  3
ACAD_MLINESTYLE
350
17
  3
ACAD_PLOTSETTINGS
350
19
  3
ACAD_PLOTSTYLENAME
350
E
  3
ACAD_SCALELIST
350
D7A
  3
ACAD_SECTIONVIEWSTYLE
350
DAE
  3
ACAD_TABLESTYLE
350
D9F
  3
ACAD_VISUALSTYLE
350
D61
  3
AcadDim
350
6BF
  3
ACDB_RECOMPOSE_DATA
350
E64
  3
AcDbVariableDictionary
350
DA4
  3
APPDATA
350
DA1
  0
SUN
  5
DA2
330
D60
100
AcDbSun
 90
        1
290
     0
 63
     7
421
 16777215
 40
1.0
291
     1
 91
  2455826
 92
 54000000
292
     0
 70
     2
 71
   256
280
     1
  0
DICTIONARY
  5
BD7
330
BD6
100
AcDbDictionary
280
     1
281
     1
  3
ACAD_DIMASSOC
360
BD8
  0
DICTIONARY
  5
BDE
330
BDD
100
AcDbDictionary
280
     1
281
     1
  3
ACAD_DIMASSOC
360
BDF
  0
DICTIONARY
  5
BEC
330
BEB
100
AcDbDictionary
280
     1
281
     1
  3
ACAD_DIMASSOC
360
BED
  0
DICTIONARY
  5
C46
330
C39
100
AcDbDictionary
280
     1
281
     1
  3
ACAD_DIMASSOC
360
C50
  0
DICTIONARY
  5
CA8
330
CA7
100
AcDbDictionary
280
     1
281
     1
  3
ACAD_DIMASSOC
360
CA9
  0
DICTIONARY
  5
CB1
330
CB0
100
AcDbDictionary
280
     1
281
     1
  3
ACAD_DIMASSOC
360
CB2
  0
DICTIONARY
  5
CBF
330
CBE
100
AcDbDictionary
280
     1
281
     1
  3
ACAD_DIMASSOC
360
CC0
  0
DICTIONARY
  5
E55
330
E54
100
AcDbDictionary
280
     1
281
     1
  0
DICTIONARY
  5
1C
102
{ACAD_REACTORS
330
C
102
}
330
C
100
AcDbDictionary
281
     1
  0
DICTIONARY
  5
DAD
102
{ACAD_REACTORS
330
C
102
}
330
C
100
AcDbDictionary
281
     1
  0
DICTIONARY
  5
D
102
{ACAD_REACTORS
330
C
102
}
330
C
100
AcDbDictionary
281
     1
  0
RASTERVARIABLES
  5
DA3
102
{ACAD_REACTORS
330
C
102
}
330
C
100
AcDbRasterVariables
 90
        0
 70
     1
 71
     1
 72
     1
  0
DICTIONARY
  5
1A
102
{ACAD_REACTORS
330
C
102
}
330
C
100
AcDbDictionary
281
     1
  3
Model
350
24
  3
レイアウト1
350
20
  3
レイアウト2
350
28
  0
DICTIONARY
  5
1B
102
{ACAD_REACTORS
330
C
102
}
330
C
100
AcDbDictionary
281
     1
  3
ByBlock
350
D9D
  3
ByLayer
350
D9C
  3
Global
350
D9E
  0
DICTIONARY
  5
DAA
102
{ACAD_REACTORS
330
C
102
}
330
C
100
AcDbDictionary
281
     1
  0
DICTIONARY
  5
17
102
{ACAD_REACTORS
330
C
102
}
330
C
100
AcDbDictionary
281
     1
  3
Standard
350
18
  0
DICTIONARY
  5
19
102
{ACAD_REACTORS
330
C
102
}
330
C
100
AcDbDictionary
281
     1
  0
ACDBDICTIONARYWDFLT
  5
E
102
{ACAD_REACTORS
330
C
102
}
330
C
100
AcDbDictionary
281
     1
  3
Normal
350
F
100
AcDbDictionaryWithDefault
340
F
  0
DICTIONARY
  5
D7A
102
{ACAD_REACTORS
330
C
102
}
330
C
100
AcDbDictionary
281
     1
  3
A0
350
D7B
  3
A1
350
D7C
  3
A2
350
D7D
  3
A3
350
D7E
  3
A4
350
D7F
  3
A5
350
D80
  3
A6
350
D81
  3
A7
350
D82
  3
A8
350
D83
  3
A9
350
D84
  3
B0
350
D85
  3
B1
350
D86
  3
B2
350
D87
  3
B3
350
D88
  3
B4
350
D89
  3
B5
350
D8A
  3
B6
350
D8B
  3
B7
350
D8C
  3
B8
350
D8D
  3
B9
350
D8E
  3
C0
350
D8F
  3
C1
350
D90
  3
C2
350
D91
  3
C3
350
D92
  3
C4
350
D93
  3
C5
350
D94
  3
C6
350
D95
  3
C7
350
D96
  3
C8
350
D97
  3
C9
350
D98
  3
D0
350
D99
  3
D1
350
D9A
  3
D2
350
D9B
  0
DICTIONARY
  5
DAE
102
{ACAD_REACTORS
330
C
102
}
330
C
100
AcDbDictionary
281
     1
  0
DICTIONARY
  5
D9F
102
{ACAD_REACTORS
330
C
102
}
330
C
100
AcDbDictionary
281
     1
  3
Standard
350
DA0
  0
DICTIONARY
  5
D61
102
{ACAD_REACTORS
330
C
102
}
330
C
100
AcDbDictionary
281
     1
  3
2dWireframe
350
D66
  3
Basic
350
D69
  3
Brighten
350
D6D
  3
ColorChange
350
D71
  3
Conceptual
350
D6B
  3
Dim
350
D6C
  3
EdgeColorOff
350
D74
  3
Facepattern
350
D70
  3
Flat
350
D62
  3
FlatWithEdges
350
D63
  3
Gouraud
350
D64
  3
GouraudWithEdges
350
D65
  3
Hidden
350
D68
  3
JitterOff
350
D72
  3
Linepattern
350
D6F
  3
OverhangOff
350
D73
  3
Realistic
350
D6A
  3
Shaded
350
D79
  3
Shaded with edges
350
D78
  3
Shades of Gray
350
D75
  3
Sketchy
350
D76
  3
Thicken
350
D6E
  3
Wireframe
350
D67
  3
X-Ray
350
D77
  0
XRECORD
  5
6BF
102
{ACAD_REACTORS
330
C
102
}
330
C
100
AcDbXrecord
280
     1
 90
   990106
  3

 60
     0
 61
     0
 62
     1
 63
     3
 64
     1
 65
     0
 66
     0
 67
     3
 68
     1
 69
     0
 70
     0
 71
     0
 72
     0
 40
0.0
170
     2
340
0
  0
XRECORD
  5
E64
102
{ACAD_REACTORS
330
C
102
}
330
C
100
AcDbXrecord
280
     1
 90
        1
330
DA0
  0
DICTIONARY
  5
DA4
102
{ACAD_REACTORS
330
C
102
}
330
C
100
AcDbDictionary
281
     1
  3
CANNOSCALE
350
DA5
  3
CTABLESTYLE
350
DA9
  3
MSLTSCALE
350
DAB
  3
XCLIPFRAME
350
DAC
  0
DICTIONARY
  5
DA1
102
{ACAD_REACTORS
330
C
102
}
330
C
100
AcDbDictionary
281
     1
  0
DIMASSOC
  5
BD8
102
{ACAD_REACTORS
330
BD7
102
}
330
BD7
100
AcDbDimAssoc
330
BD6
 90
        3
 70
     0
 71
     0
  1
AcDbOsnapPointRef
 72
    13
331
BDB
 73
     2
 91
        0
 40
0.0
 10
0.0
 20
0.0
 30
2.000000000000000E+50
 75
     0
  1
AcDbOsnapPointRef
 72
     1
331
BDB
 73
     2
 91
        0
 40
1.0
 10
0.0
 20
0.0
 30
2.000000000000000E+50
 75
     0
  0
DIMASSOC
  5
BDF
102
{ACAD_REACTORS
330
BDE
102
}
330
BDE
100
AcDbDimAssoc
330
BDD
 90
        1
 70
     0
 71
     0
  1
AcDbOsnapPointRef
 72
     1
331
BE2
 73
     2
 91
        1
 40
1.0
 10
0.0
 20
0.0
 30
2.000000000000000E+50
 75
     0
  0
DIMASSOC
  5
BED
102
{ACAD_REACTORS
330
BEC
102
}
330
BEC
100
AcDbDimAssoc
330
BEB
 90
        1
 70
     0
 71
     0
  1
AcDbOsnapPointRef
 72
     1
331
BDC
 73
     2
 91
        2
 40
0.9999999999999999
 10
0.0
 20
0.0
 30
2.000000000000000E+50
 75
     0
  0
DIMASSOC
  5
C50
102
{ACAD_REACTORS
330
C46
102
}
330
C46
100
AcDbDimAssoc
330
C39
 90
        3
 70
     0
 71
     0
  1
AcDbOsnapPointRef
 72
     1
331
C38
 73
     2
 91
        3
 40
1.0
 10
0.0
 20
0.0
 30
2.000000000000000E+50
 75
     0
  1
AcDbOsnapPointRef
 72
     1
331
C38
 73
     2
 91
        5
 40
1.0
 10
0.0
 20
0.0
 30
2.000000000000000E+50
 75
     0
  0
DIMASSOC
  5
CA9
102
{ACAD_REACTORS
330
CA8
102
}
330
CA8
100
AcDbDimAssoc
330
CA7
 90
        2
 70
     0
 71
     0
  1
AcDbOsnapPointRef
 72
    13
331
CB4
 73
     2
 91
        0
 40
4.71238898038469
 10
0.0
 20
0.0
 30
2.000000000000000E+50
 75
     0
  0
DIMASSOC
  5
CB2
102
{ACAD_REACTORS
330
CB1
102
}
330
CB1
100
AcDbDimAssoc
330
CB0
 90
        3
 70
     0
 71
     0
  1
AcDbOsnapPointRef
 72
     2
331
CBA
 73
     2
 91
        0
 40
0.5
 10
0.0
 20
0.0
 30
0.0
 75
     0
  1
AcDbOsnapPointRef
 72
     2
331
CBB
 73
     2
 91
        0
 40
0.5
 10
0.0
 20
0.0
 30
0.0
 75
     0
  0
DIMASSOC
  5
CC0
102
{ACAD_REACTORS
330
CBF
102
}
330
CBF
100
AcDbDimAssoc
330
CBE
 90
        3
 70
     0
 71
     0
  1
AcDbOsnapPointRef
 72
     6
331
CBC
 73
     2
 91
        0
 40
-0.6255117640541287
 10
0.0
 20
0.0
 30
0.0
332
CBB
 74
     2
 92
        0
 75
     0
  1
AcDbOsnapPointRef
 72
    13
331
CBD
 73
     2
 91
        0
 40
0.0
 10
0.0
 20
0.0
 30
2.000000000000000E+50
 75
     0
  0
LAYOUT
  5
24
102
{ACAD_REACTORS
330
1A
102
}
330
1A
100
AcDbPlotSettings
  1

  2
\\SF05\Brother HL-1440 series
  4
A4
  6

 40
6.72041654586792
 41
5.027085304260254
 42
6.889755249023438
 43
5.027069091796875
 44
209.9733276367188
 45
296.9259948730469
 46
-6.82
 47
-5.06
 48
0.0
 49
0.0
140
297.0000000000001
141
210.0
142
1.0
143
1.0
 70
 11956
 72
     1
 73
     1
 74
     4
  7

 75
    16
 76
     0
 77
     2
 78
   300
147
1.0
148
0.0
149
0.0
100
AcDbLayout
  1
Model
 70
     1
 71
     0
 10
0.0
 20
0.0
 11
12.0
 21
9.0
 12
0.0
 22
0.0
 32
0.0
 14
26.10364367859353
 24
23.45179353774284
 34
0.0
 15
257.1004112815915
 25
221.832051920306
 35
0.0
146
0.0
 13
0.0
 23
0.0
 33
0.0
 16
1.0
 26
0.0
 36
0.0
 17
0.0
 27
1.0
 37
0.0
 76
     0
330
21
331
D60
  0
LAYOUT
  5
20
102
{ACAD_REACTORS
330
1A
102
}
330
1A
100
AcDbPlotSettings
  1

  2
\\NEC\EPSON
  4

  6

 40
0.0
 41
0.0
 42
0.0
 43
0.0
 44
0.0
 45
0.0
 46
0.0
 47
0.0
 48
0.0
 49
0.0
140
0.0
141
0.0
142
1.0
143
1.0
 70
   688
 72
     0
 73
     0
 74
     5
  7

 75
    16
 76
     0
 77
     2
 78
   300
147
1.0
148
0.0
149
0.0
100
AcDbLayout
  1
レイアウト1
 70
     0
 71
     1
 10
0.0
 20
0.0
 11
420.0
 21
297.0
 12
0.0
 22
0.0
 32
0.0
 14
1.000000000000000E+20
 24
1.000000000000000E+20
 34
1.000000000000000E+20
 15
-1.000000000000000E+20
 25
-1.000000000000000E+20
 35
-1.000000000000000E+20
146
0.0
 13
0.0
 23
0.0
 33
0.0
 16
1.0
 26
0.0
 36
0.0
 17
0.0
 27
1.0
 37
0.0
 76
     0
330
1D
  0
LAYOUT
  5
28
102
{ACAD_REACTORS
330
1A
102
}
330
1A
100
AcDbPlotSettings
  1

  2
\\NEC\EPSON
  4

  6

 40
0.0
 41
0.0
 42
0.0
 43
0.0
 44
0.0
 45
0.0
 46
0.0
 47
0.0
 48
0.0
 49
0.0
140
0.0
141
0.0
142
1.0
143
1.0
 70
   688
 72
     0
 73
     0
 74
     5
  7

 75
    16
 76
     0
 77
     2
 78
   300
147
1.0
148
0.0
149
0.0
100
AcDbLayout
  1
レイアウト2
 70
     1
 71
     2
 10
0.0
 20
0.0
 11
12.0
 21
9.0
 12
0.0
 22
0.0
 32
0.0
 14
0.0
 24
0.0
 34
0.0
 15
0.0
 25
0.0
 35
0.0
146
0.0
 13
0.0
 23
0.0
 33
0.0
 16
1.0
 26
0.0
 36
0.0
 17
0.0
 27
1.0
 37
0.0
 76
     0
330
25
  0
MATERIAL
  5
D9D
102
{ACAD_REACTORS
330
1B
102
}
330
1B
100
AcDbMaterial
  1
ByBlock
 72
     1
 94
      127
  0
MATERIAL
  5
D9C
102
{ACAD_REACTORS
330
1B
102
}
330
1B
100
AcDbMaterial
  1
ByLayer
 72
     1
 94
      127
  0
MATERIAL
  5
D9E
102
{ACAD_REACTORS
330
1B
102
}
330
1B
100
AcDbMaterial
  1
Global
 72
     1
 94
      127
  0
MLINESTYLE
  5
18
102
{ACAD_REACTORS
330
17
102
}
330
17
100
AcDbMlineStyle
  2
STANDARD
 70
     0
  3

 62
   256
 51
90.0
 52
90.0
 71
     2
 49
0.5
 62
   256
  6
BYLAYER
 49
-0.5
 62
   256
  6
BYLAYER
  0
ACDBPLACEHOLDER
  5
F
102
{ACAD_REACTORS
330
E
102
}
330
E
  0
SCALE
  5
D7B
102
{ACAD_REACTORS
330
D7A
102
}
330
D7A
100
AcDbScale
 70
     0
300
1:1
140
1.0
141
1.0
290
     1
  0
SCALE
  5
D7C
102
{ACAD_REACTORS
330
D7A
102
}
330
D7A
100
AcDbScale
 70
     0
300
1:2
140
1.0
141
2.0
290
     0
  0
SCALE
  5
D7D
102
{ACAD_REACTORS
330
D7A
102
}
330
D7A
100
AcDbScale
 70
     0
300
1:4
140
1.0
141
4.0
290
     0
  0
SCALE
  5
D7E
102
{ACAD_REACTORS
330
D7A
102
}
330
D7A
100
AcDbScale
 70
     0
300
1:5
140
1.0
141
5.0
290
     0
  0
SCALE
  5
D7F
102
{ACAD_REACTORS
330
D7A
102
}
330
D7A
100
AcDbScale
 70
     0
300
1:8
140
1.0
141
8.0
290
     0
  0
SCALE
  5
D80
102
{ACAD_REACTORS
330
D7A
102
}
330
D7A
100
AcDbScale
 70
     0
300
1:10
140
1.0
141
10.0
290
     0
  0
SCALE
  5
D81
102
{ACAD_REACTORS
330
D7A
102
}
330
D7A
100
AcDbScale
 70
     0
300
1:16
140
1.0
141
16.0
290
     0
  0
SCALE
  5
D82
102
{ACAD_REACTORS
330
D7A
102
}
330
D7A
100
AcDbScale
 70
     0
300
1:20
140
1.0
141
20.0
290
     0
  0
SCALE
  5
D83
102
{ACAD_REACTORS
330
D7A
102
}
330
D7A
100
AcDbScale
 70
     0
300
1:30
140
1.0
141
30.0
290
     0
  0
SCALE
  5
D84
102
{ACAD_REACTORS
330
D7A
102
}
330
D7A
100
AcDbScale
 70
     0
300
1:40
140
1.0
141
40.0
290
     0
  0
SCALE
  5
D85
102
{ACAD_REACTORS
330
D7A
102
}
330
D7A
100
AcDbScale
 70
     0
300
1:50
140
1.0
141
50.0
290
     0
  0
SCALE
  5
D86
102
{ACAD_REACTORS
330
D7A
102
}
330
D7A
100
AcDbScale
 70
     0
300
1:100
140
1.0
141
100.0
290
     0
  0
SCALE
  5
D87
102
{ACAD_REACTORS
330
D7A
102
}
330
D7A
100
AcDbScale
 70
     0
300
2:1
140
2.0
141
1.0
290
     0
  0
SCALE
  5
D88
102
{ACAD_REACTORS
330
D7A
102
}
330
D7A
100
AcDbScale
 70
     0
300
4:1
140
4.0
141
1.0
290
     0
  0
SCALE
  5
D89
102
{ACAD_REACTORS
330
D7A
102
}
330
D7A
100
AcDbScale
 70
     0
300
8:1
140
8.0
141
1.0
290
     0
  0
SCALE
  5
D8A
102
{ACAD_REACTORS
330
D7A
102
}
330
D7A
100
AcDbScale
 70
     0
300
10:1
140
10.0
141
1.0
290
     0
  0
SCALE
  5
D8B
102
{ACAD_REACTORS
330
D7A
102
}
330
D7A
100
AcDbScale
 70
     0
300
100:1
140
100.0
141
1.0
290
     0
  0
SCALE
  5
D8C
102
{ACAD_REACTORS
330
D7A
102
}
330
D7A
100
AcDbScale
 70
     0
300
1/128" = 1'-0"
140
0.0078125
141
12.0
290
     0
  0
SCALE
  5
D8D
102
{ACAD_REACTORS
330
D7A
102
}
330
D7A
100
AcDbScale
 70
     0
300
1/64" = 1'-0"
140
0.015625
141
12.0
290
     0
  0
SCALE
  5
D8E
102
{ACAD_REACTORS
330
D7A
102
}
330
D7A
100
AcDbScale
 70
     0
300
1/32" = 1'-0"
140
0.03125
141
12.0
290
     0
  0
SCALE
  5
D8F
102
{ACAD_REACTORS
330
D7A
102
}
330
D7A
100
AcDbScale
 70
     0
300
1/16" = 1'-0"
140
0.0625
141
12.0
290
     0
  0
SCALE
  5
D90
102
{ACAD_REACTORS
330
D7A
102
}
330
D7A
100
AcDbScale
 70
     0
300
3/32" = 1'-0"
140
0.09375
141
12.0
290
     0
  0
SCALE
  5
D91
102
{ACAD_REACTORS
330
D7A
102
}
330
D7A
100
AcDbScale
 70
     0
300
1/8" = 1'-0"
140
0.125
141
12.0
290
     0
  0
SCALE
  5
D92
102
{ACAD_REACTORS
330
D7A
102
}
330
D7A
100
AcDbScale
 70
     0
300
3/16" = 1'-0"
140
0.1875
141
12.0
290
     0
  0
SCALE
  5
D93
102
{ACAD_REACTORS
330
D7A
102
}
330
D7A
100
AcDbScale
 70
     0
300
1/4" = 1'-0"
140
0.25
141
12.0
290
     0
  0
SCALE
  5
D94
102
{ACAD_REACTORS
330
D7A
102
}
330
D7A
100
AcDbScale
 70
     0
300
3/8" = 1'-0"
140
0.375
141
12.0
290
     0
  0
SCALE
  5
D95
102
{ACAD_REACTORS
330
D7A
102
}
330
D7A
100
AcDbScale
 70
     0
300
1/2" = 1'-0"
140
0.5
141
12.0
290
     0
  0
SCALE
  5
D96
102
{ACAD_REACTORS
330
D7A
102
}
330
D7A
100
AcDbScale
 70
     0
300
3/4" = 1'-0"
140
0.75
141
12.0
290
     0
  0
SCALE
  5
D97
102
{ACAD_REACTORS
330
D7A
102
}
330
D7A
100
AcDbScale
 70
     0
300
1" = 1'-0"
140
1.0
141
12.0
290
     0
  0
SCALE
  5
D98
102
{ACAD_REACTORS
330
D7A
102
}
330
D7A
100
AcDbScale
 70
     0
300
1-1/2" = 1'-0"
140
1.5
141
12.0
290
     0
  0
SCALE
  5
D99
102
{ACAD_REACTORS
330
D7A
102
}
330
D7A
100
AcDbScale
 70
     0
300
3" = 1'-0"
140
3.0
141
12.0
290
     0
  0
SCALE
  5
D9A
102
{ACAD_REACTORS
330
D7A
102
}
330
D7A
100
AcDbScale
 70
     0
300
6" = 1'-0"
140
6.0
141
12.0
290
     0
  0
SCALE
  5
D9B
102
{ACAD_REACTORS
330
D7A
102
}
330
D7A
100
AcDbScale
 70
     0
300
1'-0" = 1'-0"
140
12.0
141
12.0
290
     0
  0
TABLESTYLE
  5
DA0
102
{ACAD_REACTORS
330
D9F
102
}
102
{ACAD_XDICTIONARY
360
E62
102
}
330
D9F
100
AcDbTableStyle
  3
Standard
 70
     0
 71
     0
 40
0.06
 41
0.06
280
     0
281
     0
  7
Standard
140
4.5
170
     2
 62
     0
 63
   257
283
     0
 90
        4
 91
        0
  1

274
    -2
284
     1
 64
     0
275
    -2
285
     1
 65
     0
276
    -2
286
     1
 66
     0
277
    -2
287
     1
 67
     0
278
    -2
288
     1
 68
     0
279
    -2
289
     1
 69
     0
  7
Standard
140
6.0
170
     5
 62
     0
 63
   257
283
     0
 90
        4
 91
        0
  1

274
    -2
284
     1
 64
     0
275
    -2
285
     1
 65
     0
276
    -2
286
     1
 66
     0
277
    -2
287
     1
 67
     0
278
    -2
288
     1
 68
     0
279
    -2
289
     1
 69
     0
  7
Standard
140
4.5
170
     5
 62
     0
 63
   257
283
     0
 90
        4
 91
        0
  1

274
    -2
284
     1
 64
     0
275
    -2
285
     1
 65
     0
276
    -2
286
     1
 66
     0
277
    -2
287
     1
 67
     0
278
    -2
288
     1
 68
     0
279
    -2
289
     1
 69
     0
  0
VISUALSTYLE
  5
D66
102
{ACAD_REACTORS
330
D61
102
}
330
D61
100
AcDbVisualStyle
  2
2dWireframe
 70
     4
177
     3
291
     0
 70
    58
 90
        0
176
     1
 90
        2
176
     1
 90
        0
176
     1
 90
        0
176
     1
 40
0.6
176
     1
 40
30.0
176
     1
 62
     7
420
 16777215
176
     1
 90
        1
176
     1
 90
        4
176
     1
 62
     7
176
     1
 62
   257
176
     1
 90
        1
176
     1
 90
        1
176
     1
 40
1.0
176
     1
 90
        0
176
     1
 62
   257
176
     1
 40
1.0
176
     1
 90
        1
176
     1
 90
        6
176
     1
 90
        2
176
     1
 62
     7
176
     1
 90
        5
176
     1
 90
        0
176
     1
 90
        0
176
     1
290
     0
176
     1
 90
        1
176
     1
 40
0.0
176
     1
 90
        0
176
     1
290
     1
176
     1
290
     1
176
     1
290
     0
176
     1
290
     0
176
     1
290
     0
176
     1
290
     0
176
     1
290
     0
176
     1
290
     0
176
     1
290
     0
176
     1
 90
       50
176
     1
 40
0.0
176
     1
 40
1.0
176
     1
 90
        0
176
     1
 62
    18
420
        0
176
     1
 90
       50
176
     1
 90
        3
176
     1
 62
     5
420
      255
176
     1
290
     0
176
     1
 90
       50
176
     1
 90
       50
176
     1
 90
       50
176
     1
290
     0
176
     1
 90
       50
176
     1
 62
   256
176
     0
 40
1.0
176
     0
 90
        2
176
     1
  1
strokes_ogs.tif
176
     1
290
     0
176
     1
 40
1.0
176
     1
 40
1.0
176
     1
  0
VISUALSTYLE
  5
D69
102
{ACAD_REACTORS
330
D61
102
}
330
D61
100
AcDbVisualStyle
  2
Basic
 70
     7
177
     3
291
     1
 70
    58
 90
        1
176
     1
 90
        0
176
     1
 90
        1
176
     1
 90
        0
176
     1
 40
0.6
176
     1
 40
30.0
176
     1
 62
     7
420
 16777215
176
     1
 90
        0
176
     1
 90
        4
176
     1
 62
     7
176
     1
 62
   257
176
     1
 90
        1
176
     1
 90
        1
176
     1
 40
1.0
176
     1
 90
        8
176
     1
 62
     7
176
     1
 40
1.0
176
     1
 90
        1
176
     1
 90
        6
176
     1
 90
        2
176
     1
 62
     7
176
     1
 90
        5
176
     1
 90
        0
176
     1
 90
        0
176
     1
290
     0
176
     1
 90
        1
176
     1
 40
0.0
176
     1
 90
        0
176
     1
290
     0
176
     1
290
     1
176
     1
290
     1
176
     1
290
     0
176
     1
290
     0
176
     1
290
     0
176
     1
290
     0
176
     1
290
     0
176
     1
290
     0
176
     1
 90
       50
176
     1
 40
0.0
176
     1
 40
1.0
176
     1
 90
        0
176
     1
 62
    18
420
        0
176
     1
 90
       50
176
     1
 90
        3
176
     1
 62
     5
420
      255
176
     1
290
     0
176
     1
 90
       50
176
     1
 90
       50
176
     1
 90
       50
176
     1
290
     0
176
     1
 90
       50
176
     1
 62
   256
176
     0
 40
1.0
176
     0
 90
        2
176
     1
  1
strokes_ogs.tif
176
     1
290
     0
176
     1
 40
1.0
176
     1
 40
1.0
176
     1
  0
VISUALSTYLE
  5
D6D
102
{ACAD_REACTORS
330
D61
102
}
330
D61
100
AcDbVisualStyle
  2
Brighten
 70
    12
177
     3
291
     1
 70
    58
 90
        2
176
     1
 90
        2
176
     1
 90
        0
176
     1
 90
        0
176
     1
 40
0.6
176
     1
 40
30.0
176
     1
 62
     7
420
 16777215
176
     1
 90
        1
176
     1
 90
        4
176
     1
 62
     7
176
     1
 62
   257
176
     1
 90
        1
176
     1
 90
        1
176
     1
 40
1.0
176
     1
 90
        8
176
     1
 62
     7
176
     1
 40
1.0
176
     1
 90
        1
176
     1
 90
        6
176
     1
 90
        2
176
     1
 62
     7
176
     1
 90
        5
176
     1
 90
        0
176
     1
 90
        0
176
     1
290
     0
176
     1
 90
        1
176
     1
 40
50.0
176
     1
 90
        0
176
     1
290
     0
176
     1
290
     1
176
     1
290
     1
176
     1
290
     0
176
     1
290
     0
176
     1
290
     0
176
     1
290
     0
176
     1
290
     0
176
     1
290
     0
176
     1
 90
       50
176
     1
 40
0.0
176
     1
 40
1.0
176
     1
 90
        0
176
     1
 62
    18
420
        0
176
     1
 90
       50
176
     1
 90
        3
176
     1
 62
     5
420
      255
176
     1
290
     0
176
     1
 90
       50
176
     1
 90
       50
176
     1
 90
       50
176
     1
290
     0
176
     1
 90
       50
176
     1
 62
   256
176
     0
 40
1.0
176
     0
 90
        2
176
     1
  1
strokes_ogs.tif
176
     1
290
     0
176
     1
 40
1.0
176
     1
 40
1.0
176
     1
  0
VISUALSTYLE
  5
D71
102
{ACAD_REACTORS
330
D61
102
}
330
D61
100
AcDbVisualStyle
  2
ColorChange
 70
    16
177
     3
291
     1
 70
    58
 90
        2
176
     1
 90
        2
176
     1
 90
        3
176
     1
 90
        0
176
     1
 40
0.6
176
     1
 40
30.0
176
     1
 62
     8
420
  8421504
176
     1
 90
        1
176
     1
 90
        4
176
     1
 62
     7
176
     1
 62
   257
176
     1
 90
        1
176
     1
 90
        1
176
     1
 40
1.0
176
     1
 90
        8
176
     1
 62
     8
420
  8421504
176
     1
 40
1.0
176
     1
 90
        1
176
     1
 90
        6
176
     1
 90
        2
176
     1
 62
     7
176
     1
 90
        5
176
     1
 90
        0
176
     1
 90
        0
176
     1
290
     0
176
     1
 90
        1
176
     1
 40
0.0
176
     1
 90
        0
176
     1
290
     0
176
     1
290
     1
176
     1
290
     1
176
     1
290
     0
176
     1
290
     0
176
     1
290
     0
176
     1
290
     0
176
     1
290
     0
176
     1
290
     0
176
     1
 90
       50
176
     1
 40
0.0
176
     1
 40
1.0
176
     1
 90
        0
176
     1
 62
    18
420
        0
176
     1
 90
       50
176
     1
 90
        3
176
     1
 62
     5
420
      255
176
     1
290
     0
176
     1
 90
       50
176
     1
 90
       50
176
     1
 90
       50
176
     1
290
     0
176
     1
 90
       50
176
     1
 62
   256
176
     0
 40
1.0
176
     0
 90
        2
176
     1
  1
strokes_ogs.tif
176
     1
290
     0
176
     1
 40
1.0
176
     1
 40
1.0
176
     1
  0
VISUALSTYLE
  5
D6B
102
{ACAD_REACTORS
330
D61
102
}
330
D61
100
AcDbVisualStyle
  2
Conceptual
 70
     9
177
     3
291
     0
 70
    58
 90
        3
176
     1
 90
        2
176
     1
 90
        0
176
     1
 90
        0
176
     1
 40
0.6
176
     1
 40
30.0
176
     1
 62
     7
420
 16777215
176
     1
 90
        2
176
     1
 90
        2
176
     1
 62
     7
176
     1
 62
   257
176
     1
 90
        1
176
     1
 90
        1
176
     1
 40
179.0
176
     1
 90
        8
176
     1
 62
     7
176
     1
 40
1.0
176
     1
 90
        1
176
     1
 90
        6
176
     1
 90
        2
176
     1
 62
     7
176
     1
 90
        3
176
     1
 90
        0
176
     1
 90
        0
176
     1
290
     0
176
     1
 90
        1
176
     1
 40
0.0
176
     1
 90
        0
176
     1
290
     0
176
     1
290
     1
176
     1
290
     1
176
     1
290
     0
176
     1
290
     0
176
     1
290
     0
176
     1
290
     0
176
     1
290
     0
176
     1
290
     0
176
     1
 90
       50
176
     1
 40
0.0
176
     1
 40
1.0
176
     1
 90
        0
176
     1
 62
    18
420
        0
176
     1
 90
       50
176
     1
 90
        3
176
     1
 62
     5
420
      255
176
     1
290
     0
176
     1
 90
       50
176
     1
 90
       50
176
     1
 90
       50
176
     1
290
     0
176
     1
 90
       50
176
     1
 62
   256
176
     0
 40
1.0
176
     0
 90
        2
176
     1
  1
strokes_ogs.tif
176
     1
290
     0
176
     1
 40
1.0
176
     1
 40
1.0
176
     1
  0
VISUALSTYLE
  5
D6C
102
{ACAD_REACTORS
330
D61
102
}
330
D61
100
AcDbVisualStyle
  2
Dim
 70
    11
177
     3
291
     1
 70
    58
 90
        2
176
     1
 90
        2
176
     1
 90
        0
176
     1
 90
        0
176
     1
 40
0.6
176
     1
 40
30.0
176
     1
 62
     7
420
 16777215
176
     1
 90
        1
176
     1
 90
        4
176
     1
 62
     7
176
     1
 62
   257
176
     1
 90
        1
176
     1
 90
        1
176
     1
 40
1.0
176
     1
 90
        8
176
     1
 62
     7
176
     1
 40
1.0
176
     1
 90
        1
176
     1
 90
        6
176
     1
 90
        2
176
     1
 62
     7
176
     1
 90
        5
176
     1
 90
        0
176
     1
 90
        0
176
     1
290
     0
176
     1
 90
        1
176
     1
 40
-50.0
176
     1
 90
        0
176
     1
290
     0
176
     1
290
     1
176
     1
290
     1
176
     1
290
     0
176
     1
290
     0
176
     1
290
     0
176
     1
290
     0
176
     1
290
     0
176
     1
290
     0
176
     1
 90
       50
176
     1
 40
0.0
176
     1
 40
1.0
176
     1
 90
        0
176
     1
 62
    18
420
        0
176
     1
 90
       50
176
     1
 90
        3
176
     1
 62
     5
420
      255
176
     1
290
     0
176
     1
 90
       50
176
     1
 90
       50
176
     1
 90
       50
176
     1
290
     0
176
     1
 90
       50
176
     1
 62
   256
176
     0
 40
1.0
176
     0
 90
        2
176
     1
  1
strokes_ogs.tif
176
     1
290
     0
176
     1
 40
1.0
176
     1
 40
1.0
176
     1
  0
VISUALSTYLE
  5
D74
102
{ACAD_REACTORS
330
D61
102
}
330
D61
100
AcDbVisualStyle
  2
EdgeColorOff
 70
    22
177
     3
291
     1
 70
    58
 90
        2
176
     0
 90
        2
176
     0
 90
        0
176
     0
 90
        0
176
     0
 40
0.6
176
     0
 40
30.0
176
     0
 62
     7
420
 16777215
176
     0
 90
        1
176
     0
 90
        4
176
     0
 62
     7
176
     0
 62
   257
176
     0
 90
        1
176
     0
 90
        1
176
     0
 40
1.0
176
     0
 90
        8
176
     2
 62
     7
176
     0
 40
1.0
176
     0
 90
        1
176
     0
 90
        6
176
     0
 90
        2
176
     0
 62
     7
176
     0
 90
        5
176
     0
 90
        0
176
     0
 90
        0
176
     0
290
     0
176
     0
 90
        1
176
     0
 40
0.0
176
     0
 90
        0
176
     0
290
     0
176
     0
290
     1
176
     0
290
     1
176
     0
290
     0
176
     0
290
     0
176
     0
290
     0
176
     0
290
     0
176
     0
290
     0
176
     0
290
     0
176
     0
 90
       50
176
     0
 40
0.0
176
     0
 40
1.0
176
     0
 90
        0
176
     0
 62
    18
420
        0
176
     0
 90
       50
176
     0
 90
        3
176
     0
 62
     5
420
      255
176
     0
290
     0
176
     0
 90
       50
176
     0
 90
       50
176
     0
 90
       50
176
     0
290
     0
176
     0
 90
       50
176
     0
 62
   256
176
     0
 40
1.0
176
     0
 90
        2
176
     0
  1
strokes_ogs.tif
176
     0
290
     0
176
     0
 40
1.0
176
     0
 40
1.0
176
     0
  0
VISUALSTYLE
  5
D70
102
{ACAD_REACTORS
330
D61
102
}
330
D61
100
AcDbVisualStyle
  2
Facepattern
 70
    15
177
     3
291
     1
 70
    58
 90
        2
176
     1
 90
        2
176
     1
 90
        0
176
     1
 90
        0
176
     1
 40
0.6
176
     1
 40
30.0
176
     1
 62
     7
420
 16777215
176
     1
 90
        1
176
     1
 90
        4
176
     1
 62
     7
176
     1
 62
   257
176
     1
 90
        1
176
     1
 90
        1
176
     1
 40
1.0
176
     1
 90
        8
176
     1
 62
     7
176
     1
 40
1.0
176
     1
 90
        1
176
     1
 90
        6
176
     1
 90
        2
176
     1
 62
     7
176
     1
 90
        5
176
     1
 90
        0
176
     1
 90
        0
176
     1
290
     0
176
     1
 90
        1
176
     1
 40
0.0
176
     1
 90
        0
176
     1
290
     0
176
     1
290
     1
176
     1
290
     1
176
     1
290
     0
176
     1
290
     0
176
     1
290
     0
176
     1
290
     0
176
     1
290
     0
176
     1
290
     0
176
     1
 90
       50
176
     1
 40
0.0
176
     1
 40
1.0
176
     1
 90
        0
176
     1
 62
    18
420
        0
176
     1
 90
       50
176
     1
 90
        3
176
     1
 62
     5
420
      255
176
     1
290
     0
176
     1
 90
       50
176
     1
 90
       50
176
     1
 90
       50
176
     1
290
     0
176
     1
 90
       50
176
     1
 62
   256
176
     0
 40
1.0
176
     0
 90
        2
176
     1
  1
strokes_ogs.tif
176
     1
290
     0
176
     1
 40
1.0
176
     1
 40
1.0
176
     1
  0
VISUALSTYLE
  5
D62
102
{ACAD_REACTORS
330
D61
102
}
330
D61
100
AcDbVisualStyle
  2
Flat
 70
     0
177
     3
291
     1
 70
    58
 90
        2
176
     1
 90
        1
176
     1
 90
        1
176
     1
 90
        2
176
     1
 40
0.6
176
     1
 40
30.0
176
     1
 62
     7
420
 16777215
176
     1
 90
        0
176
     1
 90
        0
176
     1
 62
     7
176
     1
 62
   257
176
     1
 90
        1
176
     1
 90
        1
176
     1
 40
1.0
176
     1
 90
        8
176
     1
 62
     7
176
     1
 40
1.0
176
     1
 90
        1
176
     1
 90
        6
176
     1
 90
        2
176
     1
 62
     7
176
     1
 90
        5
176
     1
 90
        0
176
     1
 90
        0
176
     1
290
     0
176
     1
 90
       13
176
     1
 40
0.0
176
     1
 90
        0
176
     1
290
     0
176
     1
290
     1
176
     1
290
     1
176
     1
290
     0
176
     1
290
     0
176
     1
290
     0
176
     1
290
     0
176
     1
290
     0
176
     1
290
     0
176
     1
 90
       50
176
     1
 40
0.0
176
     1
 40
1.0
176
     1
 90
        0
176
     1
 62
    18
420
        0
176
     1
 90
       50
176
     1
 90
        3
176
     1
 62
     5
420
      255
176
     1
290
     0
176
     1
 90
       50
176
     1
 90
       50
176
     1
 90
       50
176
     1
290
     0
176
     1
 90
       50
176
     1
 62
   256
176
     0
 40
1.0
176
     0
 90
        2
176
     1
  1
strokes_ogs.tif
176
     1
290
     0
176
     1
 40
1.0
176
     1
 40
1.0
176
     1
  0
VISUALSTYLE
  5
D63
102
{ACAD_REACTORS
330
D61
102
}
330
D61
100
AcDbVisualStyle
  2
FlatWithEdges
 70
     1
177
     3
291
     1
 70
    58
 90
        2
176
     1
 90
        1
176
     1
 90
        1
176
     1
 90
        2
176
     1
 40
0.6
176
     1
 40
30.0
176
     1
 62
     7
420
 16777215
176
     1
 90
        1
176
     1
 90
        0
176
     1
 62
     7
176
     1
 62
   257
176
     1
 90
        1
176
     1
 90
        1
176
     1
 40
1.0
176
     1
 90
        0
176
     1
 62
   257
176
     1
 40
1.0
176
     1
 90
        1
176
     1
 90
        6
176
     1
 90
        2
176
     1
 62
     7
176
     1
 90
        5
176
     1
 90
        0
176
     1
 90
        0
176
     1
290
     0
176
     1
 90
       13
176
     1
 40
0.0
176
     1
 90
        0
176
     1
290
     0
176
     1
290
     1
176
     1
290
     1
176
     1
290
     0
176
     1
290
     0
176
     1
290
     0
176
     1
290
     0
176
     1
290
     0
176
     1
290
     0
176
     1
 90
       50
176
     1
 40
0.0
176
     1
 40
1.0
176
     1
 90
        0
176
     1
 62
    18
420
        0
176
     1
 90
       50
176
     1
 90
        3
176
     1
 62
     5
420
      255
176
     1
290
     0
176
     1
 90
       50
176
     1
 90
       50
176
     1
 90
       50
176
     1
290
     0
176
     1
 90
       50
176
     1
 62
   256
176
     0
 40
1.0
176
     0
 90
        2
176
     1
  1
strokes_ogs.tif
176
     1
290
     0
176
     1
 40
1.0
176
     1
 40
1.0
176
     1
  0
VISUALSTYLE
  5
D64
102
{ACAD_REACTORS
330
D61
102
}
330
D61
100
AcDbVisualStyle
  2
Gouraud
 70
     2
177
     3
291
     1
 70
    58
 90
        2
176
     1
 90
        2
176
     1
 90
        1
176
     1
 90
        2
176
     1
 40
0.6
176
     1
 40
30.0
176
     1
 62
     7
420
 16777215
176
     1
 90
        0
176
     1
 90
        0
176
     1
 62
     7
176
     1
 62
   257
176
     1
 90
        1
176
     1
 90
        1
176
     1
 40
1.0
176
     1
 90
        0
176
     1
 62
     7
176
     1
 40
1.0
176
     1
 90
        1
176
     1
 90
        6
176
     1
 90
        2
176
     1
 62
     7
176
     1
 90
        5
176
     1
 90
        0
176
     1
 90
        0
176
     1
290
     0
176
     1
 90
       13
176
     1
 40
0.0
176
     1
 90
        0
176
     1
290
     0
176
     1
290
     1
176
     1
290
     1
176
     1
290
     0
176
     1
290
     0
176
     1
290
     0
176
     1
290
     0
176
     1
290
     0
176
     1
290
     0
176
     1
 90
       50
176
     1
 40
0.0
176
     1
 40
1.0
176
     1
 90
        0
176
     1
 62
    18
420
        0
176
     1
 90
       50
176
     1
 90
        3
176
     1
 62
     5
420
      255
176
     1
290
     0
176
     1
 90
       50
176
     1
 90
       50
176
     1
 90
       50
176
     1
290
     0
176
     1
 90
       50
176
     1
 62
   256
176
     0
 40
1.0
176
     0
 90
        2
176
     1
  1
strokes_ogs.tif
176
     1
290
     0
176
     1
 40
1.0
176
     1
 40
1.0
176
     1
  0
VISUALSTYLE
  5
D65
102
{ACAD_REACTORS
330
D61
102
}
330
D61
100
AcDbVisualStyle
  2
GouraudWithEdges
 70
     3
177
     3
291
     1
 70
    58
 90
        2
176
     1
 90
        2
176
     1
 90
        1
176
     1
 90
        2
176
     1
 40
0.6
176
     1
 40
30.0
176
     1
 62
     7
420
 16777215
176
     1
 90
        1
176
     1
 90
        0
176
     1
 62
     7
176
     1
 62
   257
176
     1
 90
        1
176
     1
 90
        1
176
     1
 40
1.0
176
     1
 90
        0
176
     1
 62
   257
176
     1
 40
1.0
176
     1
 90
        1
176
     1
 90
        6
176
     1
 90
        2
176
     1
 62
     7
176
     1
 90
        5
176
     1
 90
        0
176
     1
 90
        0
176
     1
290
     0
176
     1
 90
       13
176
     1
 40
0.0
176
     1
 90
        0
176
     1
290
     0
176
     1
290
     1
176
     1
290
     1
176
     1
290
     0
176
     1
290
     0
176
     1
290
     0
176
     1
290
     0
176
     1
290
     0
176
     1
290
     0
176
     1
 90
       50
176
     1
 40
0.0
176
     1
 40
1.0
176
     1
 90
        0
176
     1
 62
    18
420
        0
176
     1
 90
       50
176
     1
 90
        3
176
     1
 62
     5
420
      255
176
     1
290
     0
176
     1
 90
       50
176
     1
 90
       50
176
     1
 90
       50
176
     1
290
     0
176
     1
 90
       50
176
     1
 62
   256
176
     0
 40
1.0
176
     0
 90
        2
176
     1
  1
strokes_ogs.tif
176
     1
290
     0
176
     1
 40
1.0
176
     1
 40
1.0
176
     1
  0
VISUALSTYLE
  5
D68
102
{ACAD_REACTORS
330
D61
102
}
330
D61
100
AcDbVisualStyle
  2
Hidden
 70
     6
177
     3
291
     0
 70
    58
 90
        1
176
     1
 90
        2
176
     1
 90
        2
176
     1
 90
        0
176
     1
 40
0.6
176
     1
 40
30.0
176
     1
 62
     7
420
 16777215
176
     1
 90
        2
176
     1
 90
        2
176
     1
 62
     7
176
     1
 62
   257
176
     1
 90
        2
176
     1
 90
        1
176
     1
 40
40.0
176
     1
 90
        0
176
     1
 62
   257
176
     1
 40
1.0
176
     1
 90
        1
176
     1
 90
        6
176
     1
 90
        2
176
     1
 62
     7
176
     1
 90
        3
176
     1
 90
        0
176
     1
 90
        0
176
     1
290
     0
176
     1
 90
        1
176
     1
 40
0.0
176
     1
 90
        0
176
     1
290
     0
176
     1
290
     1
176
     1
290
     1
176
     1
290
     0
176
     1
290
     0
176
     1
290
     0
176
     1
290
     0
176
     1
290
     0
176
     1
290
     0
176
     1
 90
       50
176
     1
 40
0.0
176
     1
 40
1.0
176
     1
 90
        0
176
     1
 62
    18
420
        0
176
     1
 90
       50
176
     1
 90
        3
176
     1
 62
     5
420
      255
176
     1
290
     0
176
     1
 90
       50
176
     1
 90
       50
176
     1
 90
       50
176
     1
290
     0
176
     1
 90
       50
176
     1
 62
   256
176
     0
 40
1.0
176
     0
 90
        2
176
     1
  1
strokes_ogs.tif
176
     1
290
     0
176
     1
 40
1.0
176
     1
 40
1.0
176
     1
  0
VISUALSTYLE
  5
D72
102
{ACAD_REACTORS
330
D61
102
}
330
D61
100
AcDbVisualStyle
  2
JitterOff
 70
    20
177
     3
291
     1
 70
    58
 90
        2
176
     0
 90
        2
176
     0
 90
        0
176
     0
 90
        0
176
     0
 40
0.6
176
     0
 40
30.0
176
     0
 62
     7
420
 16777215
176
     0
 90
        1
176
     0
 90
        4
176
     0
 62
     7
176
     0
 62
   257
176
     0
 90
        1
176
     0
 90
        1
176
     0
 40
1.0
176
     0
 90
       10
176
     2
 62
     7
176
     0
 40
1.0
176
     0
 90
        1
176
     0
 90
        6
176
     0
 90
        2
176
     0
 62
     7
176
     0
 90
        5
176
     0
 90
        0
176
     0
 90
        0
176
     0
290
     0
176
     0
 90
        1
176
     0
 40
0.0
176
     0
 90
        0
176
     0
290
     0
176
     0
290
     1
176
     0
290
     1
176
     0
290
     0
176
     0
290
     0
176
     0
290
     0
176
     0
290
     0
176
     0
290
     0
176
     0
290
     0
176
     0
 90
       50
176
     0
 40
0.0
176
     0
 40
1.0
176
     0
 90
        0
176
     0
 62
    18
420
        0
176
     0
 90
       50
176
     0
 90
        3
176
     0
 62
     5
420
      255
176
     0
290
     0
176
     0
 90
       50
176
     0
 90
       50
176
     0
 90
       50
176
     0
290
     0
176
     0
 90
       50
176
     0
 62
   256
176
     0
 40
1.0
176
     0
 90
        2
176
     0
  1
strokes_ogs.tif
176
     0
290
     0
176
     0
 40
1.0
176
     0
 40
1.0
176
     0
  0
VISUALSTYLE
  5
D6F
102
{ACAD_REACTORS
330
D61
102
}
330
D61
100
AcDbVisualStyle
  2
Linepattern
 70
    14
177
     3
291
     1
 70
    58
 90
        2
176
     1
 90
        2
176
     1
 90
        0
176
     1
 90
        0
176
     1
 40
0.6
176
     1
 40
30.0
176
     1
 62
     7
420
 16777215
176
     1
 90
        1
176
     1
 90
        4
176
     1
 62
     7
176
     1
 62
   257
176
     1
 90
        7
176
     1
 90
        7
176
     1
 40
1.0
176
     1
 90
        8
176
     1
 62
     7
176
     1
 40
1.0
176
     1
 90
        1
176
     1
 90
        6
176
     1
 90
        2
176
     1
 62
     7
176
     1
 90
        5
176
     1
 90
        0
176
     1
 90
        0
176
     1
290
     0
176
     1
 90
        1
176
     1
 40
0.0
176
     1
 90
        0
176
     1
290
     0
176
     1
290
     1
176
     1
290
     1
176
     1
290
     0
176
     1
290
     0
176
     1
290
     0
176
     1
290
     0
176
     1
290
     0
176
     1
290
     0
176
     1
 90
       50
176
     1
 40
0.0
176
     1
 40
1.0
176
     1
 90
        0
176
     1
 62
    18
420
        0
176
     1
 90
       50
176
     1
 90
        3
176
     1
 62
     5
420
      255
176
     1
290
     0
176
     1
 90
       50
176
     1
 90
       50
176
     1
 90
       50
176
     1
290
     0
176
     1
 90
       50
176
     1
 62
   256
176
     0
 40
1.0
176
     0
 90
        2
176
     1
  1
strokes_ogs.tif
176
     1
290
     0
176
     1
 40
1.0
176
     1
 40
1.0
176
     1
  0
VISUALSTYLE
  5
D73
102
{ACAD_REACTORS
330
D61
102
}
330
D61
100
AcDbVisualStyle
  2
OverhangOff
 70
    21
177
     3
291
     1
 70
    58
 90
        2
176
     0
 90
        2
176
     0
 90
        0
176
     0
 90
        0
176
     0
 40
0.6
176
     0
 40
30.0
176
     0
 62
     7
420
 16777215
176
     0
 90
        1
176
     0
 90
        4
176
     0
 62
     7
176
     0
 62
   257
176
     0
 90
        1
176
     0
 90
        1
176
     0
 40
1.0
176
     0
 90
        9
176
     2
 62
     7
176
     0
 40
1.0
176
     0
 90
        1
176
     0
 90
        6
176
     0
 90
        2
176
     0
 62
     7
176
     0
 90
        5
176
     0
 90
        0
176
     0
 90
        0
176
     0
290
     0
176
     0
 90
        1
176
     0
 40
0.0
176
     0
 90
        0
176
     0
290
     0
176
     0
290
     1
176
     0
290
     1
176
     0
290
     0
176
     0
290
     0
176
     0
290
     0
176
     0
290
     0
176
     0
290
     0
176
     0
290
     0
176
     0
 90
       50
176
     0
 40
0.0
176
     0
 40
1.0
176
     0
 90
        0
176
     0
 62
    18
420
        0
176
     0
 90
       50
176
     0
 90
        3
176
     0
 62
     5
420
      255
176
     0
290
     0
176
     0
 90
       50
176
     0
 90
       50
176
     0
 90
       50
176
     0
290
     0
176
     0
 90
       50
176
     0
 62
   256
176
     0
 40
1.0
176
     0
 90
        2
176
     0
  1
strokes_ogs.tif
176
     0
290
     0
176
     0
 40
1.0
176
     0
 40
1.0
176
     0
  0
VISUALSTYLE
  5
D6A
102
{ACAD_REACTORS
330
D61
102
}
330
D61
100
AcDbVisualStyle
  2
Realistic
 70
     8
177
     3
291
     0
 70
    58
 90
        2
176
     1
 90
        3
176
     1
 90
        0
176
     1
 90
        2
176
     1
 40
0.6
176
     1
 40
30.0
176
     1
 62
     7
420
 16777215
176
     1
 90
        0
176
     1
 90
        0
176
     1
 62
     7
176
     1
 62
   257
176
     1
 90
        1
176
     1
 90
        1
176
     1
 40
1.0
176
     1
 90
        8
176
     1
 62
   257
176
     1
 40
1.0
176
     1
 90
        1
176
     1
 90
        6
176
     1
 90
        2
176
     1
 62
     7
176
     1
 90
        3
176
     1
 90
        0
176
     1
 90
        0
176
     1
290
     0
176
     1
 90
       13
176
     1
 40
0.0
176
     1
 90
        0
176
     1
290
     0
176
     1
290
     1
176
     1
290
     1
176
     1
290
     0
176
     1
290
     0
176
     1
290
     0
176
     1
290
     0
176
     1
290
     0
176
     1
290
     0
176
     1
 90
       50
176
     1
 40
0.0
176
     1
 40
1.0
176
     1
 90
        0
176
     1
 62
    18
420
        0
176
     1
 90
       50
176
     1
 90
        3
176
     1
 62
     5
420
      255
176
     1
290
     0
176
     1
 90
       50
176
     1
 90
       50
176
     1
 90
       50
176
     1
290
     0
176
     1
 90
       50
176
     1
 62
   256
176
     0
 40
1.0
176
     0
 90
        2
176
     1
  1
strokes_ogs.tif
176
     1
290
     0
176
     1
 40
1.0
176
     1
 40
1.0
176
     1
  0
VISUALSTYLE
  5
D79
102
{ACAD_REACTORS
330
D61
102
}
330
D61
100
AcDbVisualStyle
  2
Shaded
 70
    27
177
     3
291
     0
 70
    58
 90
        2
176
     1
 90
        2
176
     1
 90
        1
176
     1
 90
        2
176
     1
 40
0.6
176
     1
 40
30.0
176
     1
 62
     7
420
 16777215
176
     1
 90
        0
176
     1
 90
        4
176
     1
 62
     7
176
     1
 62
   257
176
     1
 90
        1
176
     1
 90
        1
176
     1
 40
1.0
176
     1
 90
        8
176
     1
 62
   257
176
     1
 40
1.0
176
     1
 90
        1
176
     1
 90
        6
176
     1
 90
        2
176
     1
 62
     8
420
  7895160
176
     1
 90
        3
176
     1
 90
        0
176
     1
 90
        0
176
     1
290
     0
176
     1
 90
        5
176
     1
 40
0.0
176
     1
 90
        0
176
     1
290
     0
176
     1
290
     1
176
     1
290
     1
176
     1
290
     0
176
     1
290
     0
176
     1
290
     0
176
     1
290
     0
176
     1
290
     0
176
     1
290
     0
176
     1
 90
       50
176
     1
 40
0.0
176
     1
 40
1.0
176
     1
 90
        0
176
     1
 62
    18
420
        0
176
     1
 90
       50
176
     1
 90
        3
176
     1
 62
     5
420
      255
176
     1
290
     0
176
     1
 90
       50
176
     1
 90
       50
176
     1
 90
       50
176
     1
290
     0
176
     1
 90
       50
176
     1
 62
   256
176
     0
 40
1.0
176
     0
 90
        2
176
     1
  1
strokes_ogs.tif
176
     1
290
     0
176
     1
 40
1.0
176
     1
 40
1.0
176
     1
  0
VISUALSTYLE
  5
D78
102
{ACAD_REACTORS
330
D61
102
}
330
D61
100
AcDbVisualStyle
  2
Shaded with edges
 70
    26
177
     3
291
     0
 70
    58
 90
        2
176
     1
 90
        2
176
     1
 90
        1
176
     1
 90
        2
176
     1
 40
0.6
176
     1
 40
30.0
176
     1
 62
     7
420
 16777215
176
     1
 90
        1
176
     1
 90
       10
176
     1
 62
     7
176
     1
 62
   257
176
     1
 90
        2
176
     1
 90
        1
176
     1
 40
1.0
176
     1
 90
        8
176
     1
 62
   257
176
     1
 40
1.0
176
     1
 90
        1
176
     1
 90
        6
176
     1
 90
        2
176
     1
 62
     7
176
     1
 90
        3
176
     1
 90
        0
176
     1
 90
        0
176
     1
290
     0
176
     1
 90
        5
176
     1
 40
0.0
176
     1
 90
        0
176
     1
290
     0
176
     1
290
     1
176
     1
290
     1
176
     1
290
     0
176
     1
290
     0
176
     1
290
     0
176
     1
290
     0
176
     1
290
     0
176
     1
290
     0
176
     1
 90
       50
176
     1
 40
0.0
176
     1
 40
1.0
176
     1
 90
        0
176
     1
 62
    18
420
        0
176
     1
 90
       50
176
     1
 90
        3
176
     1
 62
     5
420
      255
176
     1
290
     0
176
     1
 90
       50
176
     1
 90
       50
176
     1
 90
       50
176
     1
290
     0
176
     1
 90
       50
176
     1
 62
   256
176
     0
 40
1.0
176
     0
 90
        2
176
     1
  1
strokes_ogs.tif
176
     1
290
     0
176
     1
 40
1.0
176
     1
 40
1.0
176
     1
  0
VISUALSTYLE
  5
D75
102
{ACAD_REACTORS
330
D61
102
}
330
D61
100
AcDbVisualStyle
  2
Shades of Gray
 70
    23
177
     3
291
     0
 70
    58
 90
        2
176
     1
 90
        2
176
     1
 90
        3
176
     1
 90
        0
176
     1
 40
0.6
176
     1
 40
30.0
176
     1
 62
     7
420
 16777215
176
     1
 90
        2
176
     1
 90
        2
176
     1
 62
     7
176
     1
 62
     7
176
     1
 90
        1
176
     1
 90
        1
176
     1
 40
40.0
176
     1
 90
        8
176
     1
 62
     7
176
     1
 40
1.0
176
     1
 90
        1
176
     1
 90
        6
176
     1
 90
        2
176
     1
 62
     7
176
     1
 90
        3
176
     1
 90
        0
176
     1
 90
        0
176
     1
290
     0
176
     1
 90
        1
176
     1
 40
0.0
176
     1
 90
        0
176
     1
290
     0
176
     1
290
     1
176
     1
290
     1
176
     1
290
     0
176
     1
290
     0
176
     1
290
     0
176
     1
290
     0
176
     1
290
     0
176
     1
290
     0
176
     1
 90
       50
176
     1
 40
0.0
176
     1
 40
1.0
176
     1
 90
        0
176
     1
 62
    18
420
        0
176
     1
 90
       50
176
     1
 90
        3
176
     1
 62
     5
420
      255
176
     1
290
     0
176
     1
 90
       50
176
     1
 90
       50
176
     1
 90
       50
176
     1
290
     0
176
     1
 90
       50
176
     1
 62
   256
176
     0
 40
1.0
176
     0
 90
        2
176
     1
  1
strokes_ogs.tif
176
     1
290
     0
176
     1
 40
1.0
176
     1
 40
1.0
176
     1
  0
VISUALSTYLE
  5
D76
102
{ACAD_REACTORS
330
D61
102
}
330
D61
100
AcDbVisualStyle
  2
Sketchy
 70
    24
177
     3
291
     0
 70
    58
 90
        1
176
     1
 90
        2
176
     1
 90
        2
176
     1
 90
        0
176
     1
 40
0.6
176
     1
 40
30.0
176
     1
 62
     7
420
 16777215
176
     1
 90
        2
176
     1
 90
        2
176
     1
 62
     7
176
     1
 62
     7
176
     1
 90
        1
176
     1
 90
        1
176
     1
 40
40.0
176
     1
 90
       11
176
     1
 62
     7
176
     1
 40
1.0
176
     1
 90
        1
176
     1
 90
        6
176
     1
 90
        2
176
     1
 62
     7
176
     1
 90
        6
176
     1
 90
        0
176
     1
 90
        0
176
     1
290
     0
176
     1
 90
        1
176
     1
 40
0.0
176
     1
 90
        0
176
     1
290
     0
176
     1
290
     1
176
     1
290
     1
176
     1
290
     0
176
     1
290
     0
176
     1
290
     0
176
     1
290
     0
176
     1
290
     0
176
     1
290
     0
176
     1
 90
       50
176
     1
 40
0.0
176
     1
 40
1.0
176
     1
 90
        0
176
     1
 62
    18
420
        0
176
     1
 90
       50
176
     1
 90
        3
176
     1
 62
     5
420
      255
176
     1
290
     0
176
     1
 90
       50
176
     1
 90
       50
176
     1
 90
       50
176
     1
290
     0
176
     1
 90
       50
176
     1
 62
   256
176
     0
 40
1.0
176
     0
 90
        2
176
     1
  1
strokes_ogs.tif
176
     1
290
     0
176
     1
 40
1.0
176
     1
 40
1.0
176
     1
  0
VISUALSTYLE
  5
D6E
102
{ACAD_REACTORS
330
D61
102
}
330
D61
100
AcDbVisualStyle
  2
Thicken
 70
    13
177
     3
291
     1
 70
    58
 90
        2
176
     1
 90
        2
176
     1
 90
        0
176
     1
 90
        0
176
     1
 40
0.6
176
     1
 40
30.0
176
     1
 62
     7
420
 16777215
176
     1
 90
        1
176
     1
 90
        4
176
     1
 62
     7
176
     1
 62
   257
176
     1
 90
        1
176
     1
 90
        1
176
     1
 40
1.0
176
     1
 90
       12
176
     1
 62
     7
176
     1
 40
1.0
176
     1
 90
        1
176
     1
 90
        6
176
     1
 90
        2
176
     1
 62
     7
176
     1
 90
        5
176
     1
 90
        0
176
     1
 90
        0
176
     1
290
     0
176
     1
 90
        1
176
     1
 40
0.0
176
     1
 90
        0
176
     1
290
     0
176
     1
290
     1
176
     1
290
     1
176
     1
290
     0
176
     1
290
     0
176
     1
290
     0
176
     1
290
     0
176
     1
290
     0
176
     1
290
     0
176
     1
 90
       50
176
     1
 40
0.0
176
     1
 40
1.0
176
     1
 90
        0
176
     1
 62
    18
420
        0
176
     1
 90
       50
176
     1
 90
        3
176
     1
 62
     5
420
      255
176
     1
290
     0
176
     1
 90
       50
176
     1
 90
       50
176
     1
 90
       50
176
     1
290
     0
176
     1
 90
       50
176
     1
 62
   256
176
     0
 40
1.0
176
     0
 90
        2
176
     1
  1
strokes_ogs.tif
176
     1
290
     0
176
     1
 40
1.0
176
     1
 40
1.0
176
     1
  0
VISUALSTYLE
  5
D67
102
{ACAD_REACTORS
330
D61
102
}
330
D61
100
AcDbVisualStyle
  2
Wireframe
 70
     5
177
     3
291
     0
 70
    58
 90
        0
176
     1
 90
        2
176
     1
 90
        0
176
     1
 90
        0
176
     1
 40
0.6
176
     1
 40
30.0
176
     1
 62
     7
420
 16777215
176
     1
 90
        1
176
     1
 90
        4
176
     1
 62
     7
176
     1
 62
   257
176
     1
 90
        1
176
     1
 90
        1
176
     1
 40
1.0
176
     1
 90
        0
176
     1
 62
   257
176
     1
 40
1.0
176
     1
 90
        1
176
     1
 90
        6
176
     1
 90
        2
176
     1
 62
     7
176
     1
 90
        3
176
     1
 90
        0
176
     1
 90
        0
176
     1
290
     0
176
     1
 90
        1
176
     1
 40
0.0
176
     1
 90
        0
176
     1
290
     0
176
     1
290
     1
176
     1
290
     1
176
     1
290
     0
176
     1
290
     0
176
     1
290
     0
176
     1
290
     0
176
     1
290
     0
176
     1
290
     0
176
     1
 90
       50
176
     1
 40
0.0
176
     1
 40
1.0
176
     1
 90
        0
176
     1
 62
    18
420
        0
176
     1
 90
       50
176
     1
 90
        3
176
     1
 62
     5
420
      255
176
     1
290
     0
176
     1
 90
       50
176
     1
 90
       50
176
     1
 90
       50
176
     1
290
     0
176
     1
 90
       50
176
     1
 62
   256
176
     0
 40
1.0
176
     0
 90
        2
176
     1
  1
strokes_ogs.tif
176
     1
290
     0
176
     1
 40
1.0
176
     1
 40
1.0
176
     1
  0
VISUALSTYLE
  5
D77
102
{ACAD_REACTORS
330
D61
102
}
330
D61
100
AcDbVisualStyle
  2
X-Ray
 70
    25
177
     3
291
     0
 70
    58
 90
        2
176
     1
 90
        2
176
     1
 90
        1
176
     1
 90
        1
176
     1
 40
0.5
176
     1
 40
30.0
176
     1
 62
     7
420
 16777215
176
     1
 90
        1
176
     1
 90
        0
176
     1
 62
     7
176
     1
 62
   257
176
     1
 90
        1
176
     1
 90
        1
176
     1
 40
1.0
176
     1
 90
        8
176
     1
 62
     7
176
     1
 40
1.0
176
     1
 90
        1
176
     1
 90
        6
176
     1
 90
        2
176
     1
 62
     7
176
     1
 90
        3
176
     1
 90
        0
176
     1
 90
        0
176
     1
290
     0
176
     1
 90
       13
176
     1
 40
0.0
176
     1
 90
        0
176
     1
290
     0
176
     1
290
     1
176
     1
290
     1
176
     1
290
     0
176
     1
290
     0
176
     1
290
     0
176
     1
290
     0
176
     1
290
     0
176
     1
290
     0
176
     1
 90
       50
176
     1
 40
0.0
176
     1
 40
1.0
176
     1
 90
        0
176
     1
 62
    18
420
        0
176
     1
 90
       50
176
     1
 90
        3
176
     1
 62
     5
420
      255
176
     1
290
     0
176
     1
 90
       50
176
     1
 90
       50
176
     1
 90
       50
176
     1
290
     0
176
     1
 90
       50
176
     1
 62
   256
176
     0
 40
1.0
176
     0
 90
        2
176
     1
  1
strokes_ogs.tif
176
     1
290
     0
176
     1
 40
1.0
176
     1
 40
1.0
176
     1
  0
DICTIONARYVAR
  5
DA5
102
{ACAD_REACTORS
330
DA4
102
}
330
DA4
100
DictionaryVariables
280
     0
  1
1:1
  0
DICTIONARYVAR
  5
DA9
102
{ACAD_REACTORS
330
DA4
102
}
330
DA4
100
DictionaryVariables
280
     0
  1
Standard
  0
DICTIONARYVAR
  5
DAB
102
{ACAD_REACTORS
330
DA4
102
}
330
DA4
100
DictionaryVariables
280
     0
  1
0
  0
DICTIONARYVAR
  5
DAC
102
{ACAD_REACTORS
330
DA4
102
}
330
DA4
100
DictionaryVariables
280
     0
  1
0
  0
DICTIONARY
  5
E62
330
DA0
100
AcDbDictionary
280
     1
281
     1
  3
ACAD_ROUNDTRIP_2008_TABLESTYLE_CELLSTYLEMAP
360
E63
  0
CELLSTYLEMAP
  5
E63
102
{ACAD_REACTORS
330
E62
102
}
330
E62
100
AcDbCellStyleMap
 90
        3
300
CELLSTYLE
  1
TABLEFORMAT_BEGIN
 90
        5
170
     1
 91
        0
 92
        0
 62
   257
 93
        1
300
CONTENTFORMAT
  1
CONTENTFORMAT_BEGIN
 90
        0
 91
        0
 92
        4
 93
        0
300

 40
0.0
140
1.0
 94
        5
 62
     0
340
11
144
6.0
309
CONTENTFORMAT_END
171
     1
301
MARGIN
  1
CELLMARGIN_BEGIN
 40
1.5
 40
1.5
 40
1.5
 40
1.5
 40
1.5
 40
1.5
309
CELLMARGIN_END
 94
        6
 95
        1
302
GRIDFORMAT
  1
GRIDFORMAT_BEGIN
 90
        0
 91
        1
 62
     0
 92
       -2
340
14
 93
        0
 40
0.045
309
GRIDFORMAT_END
 95
        2
302
GRIDFORMAT
  1
GRIDFORMAT_BEGIN
 90
        0
 91
        1
 62
     0
 92
       -2
340
14
 93
        0
 40
0.045
309
GRIDFORMAT_END
 95
        4
302
GRIDFORMAT
  1
GRIDFORMAT_BEGIN
 90
        0
 91
        1
 62
     0
 92
       -2
340
14
 93
        0
 40
0.045
309
GRIDFORMAT_END
 95
        8
302
GRIDFORMAT
  1
GRIDFORMAT_BEGIN
 90
        0
 91
        1
 62
     0
 92
       -2
340
14
 93
        0
 40
0.045
309
GRIDFORMAT_END
 95
       16
302
GRIDFORMAT
  1
GRIDFORMAT_BEGIN
 90
        0
 91
        1
 62
     0
 92
       -2
340
14
 93
        0
 40
0.045
309
GRIDFORMAT_END
 95
       32
302
GRIDFORMAT
  1
GRIDFORMAT_BEGIN
 90
        0
 91
        1
 62
     0
 92
       -2
340
14
 93
        0
 40
0.045
309
GRIDFORMAT_END
309
TABLEFORMAT_END
  1
CELLSTYLE_BEGIN
 90
        1
 91
        1
300
_TITLE
309
CELLSTYLE_END
300
CELLSTYLE
  1
TABLEFORMAT_BEGIN
 90
        5
170
     1
 91
        0
 92
        0
 62
   257
 93
        1
300
CONTENTFORMAT
  1
CONTENTFORMAT_BEGIN
 90
        0
 91
        0
 92
        4
 93
        0
300

 40
0.0
140
1.0
 94
        5
 62
     0
340
11
144
4.5
309
CONTENTFORMAT_END
171
     1
301
MARGIN
  1
CELLMARGIN_BEGIN
 40
1.5
 40
1.5
 40
1.5
 40
1.5
 40
1.5
 40
1.5
309
CELLMARGIN_END
 94
        6
 95
        1
302
GRIDFORMAT
  1
GRIDFORMAT_BEGIN
 90
        0
 91
        1
 62
     0
 92
       -2
340
14
 93
        0
 40
0.045
309
GRIDFORMAT_END
 95
        2
302
GRIDFORMAT
  1
GRIDFORMAT_BEGIN
 90
        0
 91
        1
 62
     0
 92
       -2
340
14
 93
        0
 40
0.045
309
GRIDFORMAT_END
 95
        4
302
GRIDFORMAT
  1
GRIDFORMAT_BEGIN
 90
        0
 91
        1
 62
     0
 92
       -2
340
14
 93
        0
 40
0.045
309
GRIDFORMAT_END
 95
        8
302
GRIDFORMAT
  1
GRIDFORMAT_BEGIN
 90
        0
 91
        1
 62
     0
 92
       -2
340
14
 93
        0
 40
0.045
309
GRIDFORMAT_END
 95
       16
302
GRIDFORMAT
  1
GRIDFORMAT_BEGIN
 90
        0
 91
        1
 62
     0
 92
       -2
340
14
 93
        0
 40
0.045
309
GRIDFORMAT_END
 95
       32
302
GRIDFORMAT
  1
GRIDFORMAT_BEGIN
 90
        0
 91
        1
 62
     0
 92
       -2
340
14
 93
        0
 40
0.045
309
GRIDFORMAT_END
309
TABLEFORMAT_END
  1
CELLSTYLE_BEGIN
 90
        2
 91
        1
300
_HEADER
309
CELLSTYLE_END
300
CELLSTYLE
  1
TABLEFORMAT_BEGIN
 90
        5
170
     1
 91
        0
 92
        0
 62
   257
 93
        1
300
CONTENTFORMAT
  1
CONTENTFORMAT_BEGIN
 90
        0
 91
        0
 92
        4
 93
        0
300

 40
0.0
140
1.0
 94
        2
 62
     0
340
11
144
4.5
309
CONTENTFORMAT_END
171
     1
301
MARGIN
  1
CELLMARGIN_BEGIN
 40
1.5
 40
1.5
 40
1.5
 40
1.5
 40
1.5
 40
1.5
309
CELLMARGIN_END
 94
        6
 95
        1
302
GRIDFORMAT
  1
GRIDFORMAT_BEGIN
 90
        0
 91
        1
 62
     0
 92
       -2
340
14
 93
        0
 40
0.045
309
GRIDFORMAT_END
 95
        2
302
GRIDFORMAT
  1
GRIDFORMAT_BEGIN
 90
        0
 91
        1
 62
     0
 92
       -2
340
14
 93
        0
 40
0.045
309
GRIDFORMAT_END
 95
        4
302
GRIDFORMAT
  1
GRIDFORMAT_BEGIN
 90
        0
 91
        1
 62
     0
 92
       -2
340
14
 93
        0
 40
0.045
309
GRIDFORMAT_END
 95
        8
302
GRIDFORMAT
  1
GRIDFORMAT_BEGIN
 90
        0
 91
        1
 62
     0
 92
       -2
340
14
 93
        0
 40
0.045
309
GRIDFORMAT_END
 95
       16
302
GRIDFORMAT
  1
GRIDFORMAT_BEGIN
 90
        0
 91
        1
 62
     0
 92
       -2
340
14
 93
        0
 40
0.045
309
GRIDFORMAT_END
 95
       32
302
GRIDFORMAT
  1
GRIDFORMAT_BEGIN
 90
        0
 91
        1
 62
     0
 92
       -2
340
14
 93
        0
 40
0.045
309
GRIDFORMAT_END
309
TABLEFORMAT_END
  1
CELLSTYLE_BEGIN
 90
        3
 91
        2
300
_DATA
309
CELLSTYLE_END
  0
ENDSEC
  0
EOF
