  0
SECTION
  2
HEADER
  9
$ACADVER
  1
AC1027
  9
$ACADMAINTVER
 70
     8
  9
$DWGCODEPAGE
  3
ANSI_932
  9
$REQUIREDVERSIONS
160
                 0
  9
$LASTSAVEDBY
  1
Yasu
  9
$INSBASE
 10
0.0
 20
0.0
 30
0.0
  9
$EXTMIN
 10
21.71213885030627
 20
20.81919383773095
 30
0.0
  9
$EXTMAX
 10
261.046199864425
 20
223.4944722443733
 30
0.0
  9
$LIMMIN
 10
0.0
 20
0.0
  9
$LIMMAX
 10
420.0
 20
297.0
  9
$ORTHOMODE
 70
     0
  9
$REGENMODE
 70
     1
  9
$FILLMODE
 70
     1
  9
$QTEXTMODE
 70
     0
  9
$MIRRTEXT
 70
     0
  9
$LTSCALE
 40
0.2
  9
$ATTMODE
 70
     1
  9
$TEXTSIZE
 40
3.0
  9
$TRACEWID
 40
1.0
  9
$TEXTSTYLE
  7
Standard
  9
$CLAYER
  8
文字
  9
$CELTYPE
  6
ByLayer
  9
$CECOLOR
 62
   256
  9
$CELTSCALE
 40
1.0
  9
$DISPSILH
 70
     0
  9
$DIMSCALE
 40
1.0
  9
$DIMASZ
 40
2.5
  9
$DIMEXO
 40
0.625
  9
$DIMDLI
 40
3.75
  9
$DIMRND
 40
0.0
  9
$DIMDLE
 40
0.0
  9
$DIMEXE
 40
1.25
  9
$DIMTP
 40
0.0
  9
$DIMTM
 40
0.0
  9
$DIMTXT
 40
2.5
  9
$DIMCEN
 40
2.5
  9
$DIMTSZ
 40
0.0
  9
$DIMTOL
 70
     0
  9
$DIMLIM
 70
     0
  9
$DIMTIH
 70
     0
  9
$DIMTOH
 70
     0
  9
$DIMSE1
 70
     0
  9
$DIMSE2
 70
     0
  9
$DIMTAD
 70
     1
  9
$DIMZIN
 70
     8
  9
$DIMBLK
  1

  9
$DIMASO
 70
     1
  9
$DIMSHO
 70
     1
  9
$DIMPOST
  1

  9
$DIMAPOST
  1

  9
$DIMALT
 70
     0
  9
$DIMALTD
 70
     3
  9
$DIMALTF
 40
0.03937007874016
  9
$DIMLFAC
 40
1.0
  9
$DIMTOFL
 70
     1
  9
$DIMTVP
 40
0.0
  9
$DIMTIX
 70
     0
  9
$DIMSOXD
 70
     0
  9
$DIMSAH
 70
     0
  9
$DIMBLK1
  1

  9
$DIMBLK2
  1

  9
$DIMSTYLE
  2
ISO-25
  9
$DIMCLRD
 70
     0
  9
$DIMCLRE
 70
     0
  9
$DIMCLRT
 70
     0
  9
$DIMTFAC
 40
1.0
  9
$DIMGAP
 40
0.625
  9
$DIMJUST
 70
     0
  9
$DIMSD1
 70
     0
  9
$DIMSD2
 70
     0
  9
$DIMTOLJ
 70
     0
  9
$DIMTZIN
 70
     8
  9
$DIMALTZ
 70
     0
  9
$DIMALTTZ
 70
     0
  9
$DIMUPT
 70
     0
  9
$DIMDEC
 70
     2
  9
$DIMTDEC
 70
     2
  9
$DIMALTU
 70
     2
  9
$DIMALTTD
 70
     3
  9
$DIMTXSTY
  7
Standard
  9
$DIMAUNIT
 70
     0
  9
$DIMADEC
 70
     0
  9
$DIMALTRND
 40
0.0
  9
$DIMAZIN
 70
     0
  9
$DIMDSEP
 70
    46
  9
$DIMATFIT
 70
     3
  9
$DIMFRAC
 70
     0
  9
$DIMLDRBLK
  1

  9
$DIMLUNIT
 70
     2
  9
$DIMLWD
 70
    -2
  9
$DIMLWE
 70
    -2
  9
$DIMTMOVE
 70
     0
  9
$DIMFXL
 40
1.0
  9
$DIMFXLON
 70
     0
  9
$DIMJOGANG
 40
0.7853981633974483
  9
$DIMTFILL
 70
     0
  9
$DIMTFILLCLR
 70
     0
  9
$DIMARCSYM
 70
     0
  9
$DIMLTYPE
  6

  9
$DIMLTEX1
  6

  9
$DIMLTEX2
  6

  9
$DIMTXTDIRECTION
 70
     0
  9
$LUNITS
 70
     2
  9
$LUPREC
 70
     4
  9
$SKETCHINC
 40
1.0
  9
$FILLETRAD
 40
3.0
  9
$AUNITS
 70
     0
  9
$AUPREC
 70
     0
  9
$MENU
  1
.
  9
$ELEVATION
 40
0.0
  9
$PELEVATION
 40
0.0
  9
$THICKNESS
 40
0.0
  9
$LIMCHECK
 70
     0
  9
$CHAMFERA
 40
3.0
  9
$CHAMFERB
 40
3.0
  9
$CHAMFERC
 40
0.0
  9
$CHAMFERD
 40
0.0
  9
$SKPOLY
 70
     0
  9
$TDCREATE
 40
2452936.788310359
  9
$TDUCREATE
 40
2452936.413310359
  9
$TDUPDATE
 40
2456739.51373419
  9
$TDUUPDATE
 40
2456739.13873419
  9
$TDINDWG
 40
0.5865826505
  9
$TDUSRTIMER
 40
2456739.13848603
  9
$USRTIMER
 70
     1
  9
$ANGBASE
 50
0.0
  9
$ANGDIR
 70
     0
  9
$PDMODE
 70
     0
  9
$PDSIZE
 40
0.0
  9
$PLINEWID
 40
0.0
  9
$SPLFRAME
 70
     0
  9
$SPLINETYPE
 70
     6
  9
$SPLINESEGS
 70
     8
  9
$HANDSEED
  5
D90
  9
$SURFTAB1
 70
     6
  9
$SURFTAB2
 70
     6
  9
$SURFTYPE
 70
     6
  9
$SURFU
 70
     6
  9
$SURFV
 70
     6
  9
$UCSBASE
  2

  9
$UCSNAME
  2

  9
$UCSORG
 10
0.0
 20
0.0
 30
0.0
  9
$UCSXDIR
 10
1.0
 20
0.0
 30
0.0
  9
$UCSYDIR
 10
0.0
 20
1.0
 30
0.0
  9
$UCSORTHOREF
  2

  9
$UCSORTHOVIEW
 70
     0
  9
$UCSORGTOP
 10
0.0
 20
0.0
 30
0.0
  9
$UCSORGBOTTOM
 10
0.0
 20
0.0
 30
0.0
  9
$UCSORGLEFT
 10
0.0
 20
0.0
 30
0.0
  9
$UCSORGRIGHT
 10
0.0
 20
0.0
 30
0.0
  9
$UCSORGFRONT
 10
0.0
 20
0.0
 30
0.0
  9
$UCSORGBACK
 10
0.0
 20
0.0
 30
0.0
  9
$PUCSBASE
  2

  9
$PUCSNAME
  2

  9
$PUCSORG
 10
0.0
 20
0.0
 30
0.0
  9
$PUCSXDIR
 10
1.0
 20
0.0
 30
0.0
  9
$PUCSYDIR
 10
0.0
 20
1.0
 30
0.0
  9
$PUCSORTHOREF
  2

  9
$PUCSORTHOVIEW
 70
     0
  9
$PUCSORGTOP
 10
0.0
 20
0.0
 30
0.0
  9
$PUCSORGBOTTOM
 10
0.0
 20
0.0
 30
0.0
  9
$PUCSORGLEFT
 10
0.0
 20
0.0
 30
0.0
  9
$PUCSORGRIGHT
 10
0.0
 20
0.0
 30
0.0
  9
$PUCSORGFRONT
 10
0.0
 20
0.0
 30
0.0
  9
$PUCSORGBACK
 10
0.0
 20
0.0
 30
0.0
  9
$USERI1
 70
     0
  9
$USERI2
 70
     0
  9
$USERI3
 70
     0
  9
$USERI4
 70
     0
  9
$USERI5
 70
     0
  9
$USERR1
 40
0.0
  9
$USERR2
 40
0.0
  9
$USERR3
 40
0.0
  9
$USERR4
 40
0.0
  9
$USERR5
 40
0.0
  9
$WORLDVIEW
 70
     1
  9
$SHADEDGE
 70
     3
  9
$SHADEDIF
 70
    70
  9
$TILEMODE
 70
     1
  9
$MAXACTVP
 70
    64
  9
$PINSBASE
 10
0.0
 20
0.0
 30
0.0
  9
$PLIMCHECK
 70
     0
  9
$PEXTMIN
 10
1.000000000000000E+20
 20
1.000000000000000E+20
 30
1.000000000000000E+20
  9
$PEXTMAX
 10
-1.000000000000000E+20
 20
-1.000000000000000E+20
 30
-1.000000000000000E+20
  9
$PLIMMIN
 10
0.0
 20
0.0
  9
$PLIMMAX
 10
0.0
 20
0.0
  9
$UNITMODE
 70
     0
  9
$VISRETAIN
 70
     1
  9
$PLINEGEN
 70
     0
  9
$PSLTSCALE
 70
     0
  9
$TREEDEPTH
 70
  3020
  9
$CMLSTYLE
  2
Standard
  9
$CMLJUST
 70
     0
  9
$CMLSCALE
 40
20.0
  9
$PROXYGRAPHICS
 70
     1
  9
$MEASUREMENT
 70
     1
  9
$CELWEIGHT
370
    -1
  9
$ENDCAPS
280
     0
  9
$JOINSTYLE
280
     0
  9
$LWDISPLAY
290
     0
  9
$INSUNITS
 70
     4
  9
$HYPERLINKBASE
  1

  9
$STYLESHEET
  1

  9
$XEDIT
290
     1
  9
$CEPSNTYPE
380
     0
  9
$PSTYLEMODE
290
     1
  9
$FINGERPRINTGUID
  2
{86E58535-AB5B-4AFE-AB1B-6758AAB7EA7D}
  9
$VERSIONGUID
  2
{6D86325B-6AEC-4ECF-9AB6-003BC98E0F64}
  9
$EXTNAMES
290
     1
  9
$PSVPSCALE
 40
0.0
  9
$OLESTARTUP
290
     0
  9
$SORTENTS
280
   127
  9
$INDEXCTL
280
     0
  9
$HIDETEXT
280
     1
  9
$XCLIPFRAME
280
     0
  9
$HALOGAP
280
     0
  9
$OBSCOLOR
 70
   257
  9
$OBSLTYPE
280
     0
  9
$INTERSECTIONDISPLAY
280
     0
  9
$INTERSECTIONCOLOR
 70
   257
  9
$DIMASSOC
280
     2
  9
$PROJECTNAME
  1

  9
$CAMERADISPLAY
290
     0
  9
$LENSLENGTH
 40
50.0
  9
$CAMERAHEIGHT
 40
0.0
  9
$STEPSPERSEC
 40
2.0
  9
$STEPSIZE
 40
6.0
  9
$3DDWFPREC
 40
2.0
  9
$PSOLWIDTH
 40
0.25
  9
$PSOLHEIGHT
 40
4.0
  9
$LOFTANG1
 40
1.570796326794897
  9
$LOFTANG2
 40
1.570796326794897
  9
$LOFTMAG1
 40
0.0
  9
$LOFTMAG2
 40
0.0
  9
$LOFTPARAM
 70
     7
  9
$LOFTNORMALS
280
     1
  9
$LATITUDE
 40
37.795
  9
$LONGITUDE
 40
-122.394
  9
$NORTHDIRECTION
 40
0.0
  9
$TIMEZONE
 70
 -8000
  9
$LIGHTGLYPHDISPLAY
280
     1
  9
$TILEMODELIGHTSYNCH
280
     1
  9
$SOLIDHIST
280
     1
  9
$SHOWHIST
280
     1
  9
$DWFFRAME
280
     2
  9
$DGNFRAME
280
     2
  9
$REALWORLDSCALE
290
     1
  9
$INTERFERECOLOR
 62
   256
  9
$CSHADOW
280
     0
  9
$SHADOWPLANELOCATION
 40
0.0
  0
ENDSEC
  0
SECTION
  2
CLASSES
  0
CLASS
  1
ACDBDICTIONARYWDFLT
  2
AcDbDictionaryWithDefault
  3
ObjectDBX Classes
 90
        0
 91
        7
280
     0
281
     0
  0
CLASS
  1
DIMASSOC
  2
AcDbDimAssoc
  3
"AcDbDimAssoc|Product Desc:     AcDim ARX App For Dimension|Company:          Autodesk, Inc.|WEB Address:      www.autodesk.com"
 90
        0
 91
        5
280
     0
281
     0
  0
CLASS
  1
VISUALSTYLE
  2
AcDbVisualStyle
  3
ObjectDBX Classes
 90
     4095
 91
        7
280
     0
281
     0
  0
CLASS
  1
SCALE
  2
AcDbScale
  3
ObjectDBX Classes
 90
     1153
 91
        7
280
     0
281
     0
  0
CLASS
  1
MATERIAL
  2
AcDbMaterial
  3
ObjectDBX Classes
 90
     1153
 91
        7
280
     0
281
     0
  0
CLASS
  1
TABLESTYLE
  2
AcDbTableStyle
  3
ObjectDBX Classes
 90
     4095
 91
        7
280
     0
281
     0
  0
CLASS
  1
SUN
  2
AcDbSun
  3
SCENEOE
 90
     1153
 91
        7
280
     0
281
     0
  0
CLASS
  1
RASTERVARIABLES
  2
AcDbRasterVariables
  3
ISM
 90
        0
 91
        7
280
     0
281
     0
  0
CLASS
  1
DICTIONARYVAR
  2
AcDbDictionaryVar
  3
ObjectDBX Classes
 90
        0
 91
        5
280
     0
281
     0
  0
CLASS
  1
CELLSTYLEMAP
  2
AcDbCellStyleMap
  3
ObjectDBX Classes
 90
     1152
 91
        5
280
     0
281
     0
  0
ENDSEC
  0
SECTION
  2
TABLES
  0
TABLE
  2
VPORT
  5
8
330
0
100
AcDbSymbolTable
 70
     1
  0
VPORT
  5
CCC
330
8
100
AcDbSymbolTableRecord
100
AcDbViewportTableRecord
  2
*Active
 70
     0
 10
0.0
 20
0.0
 11
1.0
 21
1.0
 12
141.3791693573656
 22
122.1568330410521
 13
0.0
 23
0.0
 14
10.0
 24
10.0
 15
10.0
 25
10.0
 16
0.0
 26
0.0
 36
1.0
 17
0.0
 27
0.0
 37
0.0
 40
206.7287839747752
 41
1.762376237623762
 42
50.0
 43
0.0
 44
0.0
 50
0.0
 51
0.0
 71
    16
 72
  1000
 73
     1
 74
     3
 75
     0
 76
     0
 77
     0
 78
     0
281
     0
 65
     1
110
0.0
120
0.0
130
0.0
111
1.0
121
0.0
131
0.0
112
0.0
122
1.0
132
0.0
 79
     0
146
0.0
348
CD2
 60
     3
 61
     5
292
     1
282
     1
141
0.0
142
0.0
 63
   256
361
D0E
  0
ENDTAB
  0
TABLE
  2
LTYPE
  5
5
330
0
100
AcDbSymbolTable
 70
     6
  0
LTYPE
  5
14
330
5
100
AcDbSymbolTableRecord
100
AcDbLinetypeTableRecord
  2
ByBlock
 70
     0
  3

 72
    65
 73
     0
 40
0.0
  0
LTYPE
  5
15
330
5
100
AcDbSymbolTableRecord
100
AcDbLinetypeTableRecord
  2
ByLayer
 70
     0
  3

 72
    65
 73
     0
 40
0.0
  0
LTYPE
  5
16
330
5
100
AcDbSymbolTableRecord
100
AcDbLinetypeTableRecord
  2
Continuous
 70
     0
  3
Solid line
 72
    65
 73
     0
 40
0.0
  0
LTYPE
  5
35
330
5
100
AcDbSymbolTableRecord
100
AcDbLinetypeTableRecord
  2
ACAD_ISO08W100
 70
     0
  3
ISO long-dash short-dash ____ __ ____ __ ____ _
 72
    65
 73
     4
 40
36.0
 49
24.0
 74
     0
 49
-3.0
 74
     0
 49
6.0
 74
     0
 49
-3.0
 74
     0
  0
LTYPE
  5
127
330
5
100
AcDbSymbolTableRecord
100
AcDbLinetypeTableRecord
  2
HIDDENX2
 70
     0
  3
Hidden (2x) ____ ____ ____ ____ ____ ____ ____
 72
    65
 73
     2
 40
19.05
 49
12.7
 74
     0
 49
-6.35
 74
     0
  0
LTYPE
  5
5EC
330
5
100
AcDbSymbolTableRecord
100
AcDbLinetypeTableRecord
  2
CENTER
 70
     0
  3
Center ____ _ ____ _ ____ _ ____ _ ____ _ ____
 72
    65
 73
     4
 40
50.8
 49
31.75
 74
     0
 49
-6.35
 74
     0
 49
6.35
 74
     0
 49
-6.35
 74
     0
  0
LTYPE
  5
5ED
330
5
100
AcDbSymbolTableRecord
100
AcDbLinetypeTableRecord
  2
ACAD_ISO02W100
 70
     0
  3
ISO dash __ __ __ __ __ __ __ __ __ __ __ __ __
 72
    65
 73
     2
 40
15.0
 49
12.0
 74
     0
 49
-3.0
 74
     0
  0
LTYPE
  5
605
330
5
100
AcDbSymbolTableRecord
100
AcDbLinetypeTableRecord
  2
DASHED
 70
     0
  3
Dashed __ __ __ __ __ __ __ __ __ __ __ __ __ _
 72
    65
 73
     2
 40
19.05
 49
12.7
 74
     0
 49
-6.35
 74
     0
  0
ENDTAB
  0
TABLE
  2
LAYER
  5
2
330
0
100
AcDbSymbolTable
 70
     9
  0
LAYER
  5
10
330
2
100
AcDbSymbolTableRecord
100
AcDbLayerTableRecord
  2
0
 70
     0
 62
     7
  6
Continuous
370
    -3
390
F
347
D0A
348
0
  0
LAYER
  5
2E
330
2
100
AcDbSymbolTableRecord
100
AcDbLayerTableRecord
  2
枠
 70
     0
 62
     1
  6
Continuous
370
    30
390
F
347
D0A
348
0
  0
LAYER
  5
2F
330
2
100
AcDbSymbolTableRecord
100
AcDbLayerTableRecord
  2
文字
 70
     0
 62
     7
  6
Continuous
370
    30
390
F
347
D0A
348
0
  0
LAYER
  5
36
330
2
100
AcDbSymbolTableRecord
100
AcDbLayerTableRecord
  2
中心線
 70
     0
 62
     7
  6
CENTER
370
    30
390
F
347
D0A
348
0
  0
LAYER
  5
52
330
2
100
AcDbSymbolTableRecord
100
AcDbLayerTableRecord
  2
隠れ線
 70
     0
 62
     2
  6
Continuous
290
     0
370
    -3
390
F
347
D0A
348
0
  0
LAYER
  5
128
330
2
100
AcDbSymbolTableRecord
100
AcDbLayerTableRecord
  2
実線
 70
     0
 62
     7
  6
Continuous
370
    50
390
F
347
D0A
348
0
  0
LAYER
  5
129
330
2
100
AcDbSymbolTableRecord
100
AcDbLayerTableRecord
  2
破線
 70
     0
 62
     7
  6
DASHED
370
    20
390
F
347
D0A
348
0
  0
LAYER
  5
693
330
2
100
AcDbSymbolTableRecord
100
AcDbLayerTableRecord
  2
Defpoints
 70
     0
 62
     7
  6
Continuous
290
     0
370
    -3
390
F
347
D0A
348
0
  0
LAYER
  5
D20
330
2
100
AcDbSymbolTableRecord
100
AcDbLayerTableRecord
  2
文字・寸法線
 70
     0
 62
     7
  6
Continuous
370
    -3
390
F
347
D0A
348
0
  0
ENDTAB
  0
TABLE
  2
STYLE
  5
3
330
0
100
AcDbSymbolTable
 70
     2
  0
STYLE
  5
11
330
3
100
AcDbSymbolTableRecord
100
AcDbTextStyleTableRecord
  2
Standard
 70
     0
 40
0.0
 41
1.0
 50
0.0
 71
     0
 42
3.0
  3
txt.shx
  4
bigfont.shx
  0
STYLE
  5
34
330
3
100
AcDbSymbolTableRecord
100
AcDbTextStyleTableRecord
  2

 70
     1
 40
0.0
 41
1.0
 50
0.0
 71
     0
 42
2.5
  3
ltypeshp.shx
  4

  0
ENDTAB
  0
TABLE
  2
VIEW
  5
6
330
0
100
AcDbSymbolTable
 70
     0
  0
ENDTAB
  0
TABLE
  2
UCS
  5
7
330
0
100
AcDbSymbolTable
 70
     0
  0
ENDTAB
  0
TABLE
  2
APPID
  5
9
330
0
100
AcDbSymbolTable
 70
     1
  0
APPID
  5
12
330
9
100
AcDbSymbolTableRecord
100
AcDbRegAppTableRecord
  2
ACAD
 70
     0
  0
ENDTAB
  0
TABLE
  2
DIMSTYLE
  5
A
330
0
100
AcDbSymbolTable
 70
     2
100
AcDbDimStyleTable
  0
DIMSTYLE
105
29
102
{ACAD_REACTORS
330
B2D
330
B52
330
B6A
330
B9A
330
C07
330
C5A
330
C86
330
D6E
330
D7F
102
}
330
A
100
AcDbSymbolTableRecord
100
AcDbDimStyleTableRecord
  2
ISO-25
 70
     0
 41
2.5
 42
0.625
 43
3.75
 44
1.25
 73
     0
 74
     0
 77
     1
 78
     8
140
2.5
141
2.5
143
0.03937007874016
147
0.625
171
     3
172
     1
178
     0
271
     2
272
     2
274
     3
283
     0
284
     8
340
11
  0
DIMSTYLE
105
D22
330
A
100
AcDbSymbolTableRecord
100
AcDbDimStyleTableRecord
  2
Standard
 70
     0
178
     0
340
11
  0
ENDTAB
  0
TABLE
  2
BLOCK_RECORD
  5
1
330
0
100
AcDbSymbolTable
 70
    10
  0
BLOCK_RECORD
  5
21
330
1
100
AcDbSymbolTableRecord
100
AcDbBlockTableRecord
  2
*Model_Space
340
24
 70
     0
280
     1
281
     0
  0
BLOCK_RECORD
  5
D10
330
1
100
AcDbSymbolTableRecord
100
AcDbBlockTableRecord
  2
*Paper_Space
340
D11
 70
     0
280
     1
281
     0
  0
BLOCK_RECORD
  5
B2E
330
1
100
AcDbSymbolTableRecord
100
AcDbBlockTableRecord
  2
*D0
340
0
 70
     0
280
     1
281
     0
  0
BLOCK_RECORD
  5
B53
330
1
100
AcDbSymbolTableRecord
100
AcDbBlockTableRecord
  2
*D1
340
0
 70
     0
280
     1
281
     0
  0
BLOCK_RECORD
  5
B6B
330
1
100
AcDbSymbolTableRecord
100
AcDbBlockTableRecord
  2
*D2
340
0
 70
     0
280
     1
281
     0
  0
BLOCK_RECORD
  5
B9B
330
1
100
AcDbSymbolTableRecord
100
AcDbBlockTableRecord
  2
*D3
340
0
 70
     0
280
     1
281
     0
  0
BLOCK_RECORD
  5
C1E
330
1
100
AcDbSymbolTableRecord
100
AcDbBlockTableRecord
  2
*D4
340
0
 70
     0
280
     1
281
     0
  0
BLOCK_RECORD
  5
C5B
330
1
100
AcDbSymbolTableRecord
100
AcDbBlockTableRecord
  2
*D5
340
0
 70
     0
280
     1
281
     0
  0
BLOCK_RECORD
  5
C87
330
1
100
AcDbSymbolTableRecord
100
AcDbBlockTableRecord
  2
*D6
340
0
 70
     0
280
     1
281
     0
  0
BLOCK_RECORD
  5
D70
330
1
100
AcDbSymbolTableRecord
100
AcDbBlockTableRecord
  2
*D8
340
0
 70
     0
280
     1
281
     0
  0
BLOCK_RECORD
  5
D81
330
1
100
AcDbSymbolTableRecord
100
AcDbBlockTableRecord
  2
*D9
340
0
 70
     0
280
     1
281
     0
  0
ENDTAB
  0
ENDSEC
  0
SECTION
  2
BLOCKS
  0
BLOCK
  5
22
330
21
100
AcDbEntity
  8
0
100
AcDbBlockBegin
  2
*Model_Space
 70
     0
 10
0.0
 20
0.0
 30
0.0
  3
*Model_Space
  1
*Model_Space
  0
ENDBLK
  5
23
330
21
100
AcDbEntity
  8
0
100
AcDbBlockEnd
  0
BLOCK
  5
D12
330
D10
100
AcDbEntity
 67
     1
  8
0
100
AcDbBlockBegin
  2
*Paper_Space
 70
     0
 10
0.0
 20
0.0
 30
0.0
  3
*Paper_Space
  1
*Paper_Space
  0
ENDBLK
  5
D13
330
D10
100
AcDbEntity
 67
     1
  8
0
100
AcDbBlockEnd
  0
BLOCK
  5
B38
330
B2E
100
AcDbEntity
  8
0
100
AcDbBlockBegin
  2
*D0
 70
     1
 10
0.0
 20
0.0
 30
0.0
  3
*D0
  1
*D1
  0
LINE
  5
B45
330
B2E
100
AcDbEntity
  8
文字
 62
     0
370
    -2
100
AcDbLine
 10
66.46629242723384
 20
169.9439140696992
 30
0.0
 11
66.46629242723384
 21
189.6282965772887
 31
0.0
  0
LINE
  5
B46
330
B2E
100
AcDbEntity
  8
文字
 62
     0
370
    -2
100
AcDbLine
 10
90.46629242723384
 20
169.9439140696992
 30
0.0
 11
90.46629242723384
 21
189.6282965772887
 31
0.0
  0
LINE
  5
B47
330
B2E
100
AcDbEntity
  8
文字
 62
     0
370
    -2
100
AcDbLine
 10
68.96629242723384
 20
188.3782965772887
 30
0.0
 11
87.96629242723384
 21
188.3782965772887
 31
0.0
  0
SOLID
  5
B48
330
B2E
100
AcDbEntity
  8
文字
 62
     0
100
AcDbTrace
 10
68.96629242723384
 20
188.7949632439553
 30
0.0
 11
68.96629242723384
 21
187.961629910622
 31
0.0
 12
66.46629242723384
 22
188.3782965772887
 32
0.0
 13
66.46629242723384
 23
188.3782965772887
 33
0.0
  0
SOLID
  5
B49
330
B2E
100
AcDbEntity
  8
文字
 62
     0
100
AcDbTrace
 10
87.96629242723384
 20
188.7949632439553
 30
0.0
 11
87.96629242723384
 21
187.961629910622
 31
0.0
 12
90.46629242723384
 22
188.3782965772887
 32
0.0
 13
90.46629242723384
 23
188.3782965772887
 33
0.0
  0
MTEXT
  5
B4A
330
B2E
100
AcDbEntity
  8
文字
 62
     0
100
AcDbMText
 10
78.46629242723384
 20
190.2532965772887
 30
0.0
 40
2.5
 41
0.0
 46
0.0
 71
     5
 72
     1
  1
{\fArial|b0|i0|c0|p32;M}24
 73
     1
 44
1.0
  0
POINT
  5
B4B
330
B2E
100
AcDbEntity
  8
Defpoints
 62
     0
100
AcDbPoint
 10
66.46629242723384
 20
169.3189140696992
 30
0.0
  0
POINT
  5
B4C
330
B2E
100
AcDbEntity
  8
Defpoints
 62
     0
100
AcDbPoint
 10
90.46629242723384
 20
169.3189140696992
 30
0.0
  0
POINT
  5
B4D
330
B2E
100
AcDbEntity
  8
Defpoints
 62
     0
100
AcDbPoint
 10
90.46629242723384
 20
188.3782965772887
 30
0.0
  0
ENDBLK
  5
B39
330
B2E
100
AcDbEntity
  8
0
100
AcDbBlockEnd
  0
BLOCK
  5
B5D
330
B53
100
AcDbEntity
  8
0
100
AcDbBlockBegin
  2
*D1
 70
     1
 10
0.0
 20
0.0
 30
0.0
  3
*D1
  1
*D2
  0
LINE
  5
CBB
330
B53
100
AcDbEntity
  8
文字
 62
     0
370
    -2
100
AcDbLine
 10
88.09129242723384
 20
172.3189140696992
 30
0.0
 11
129.1207608944308
 21
172.3189140696992
 31
0.0
  0
LINE
  5
CBC
330
B53
100
AcDbEntity
  8
文字
 62
     0
370
    -2
100
AcDbLine
 10
99.89129242723385
 20
72.31891406969919
 30
0.0
 11
129.1207608944308
 21
72.31891406969919
 31
0.0
  0
LINE
  5
CBD
330
B53
100
AcDbEntity
  8
文字
 62
     0
370
    -2
100
AcDbLine
 10
127.8707608944308
 20
169.8189140696992
 30
0.0
 11
127.8707608944308
 21
74.81891406969919
 31
0.0
  0
SOLID
  5
CBE
330
B53
100
AcDbEntity
  8
文字
 62
     0
100
AcDbTrace
 10
127.4540942277641
 20
169.8189140696992
 30
0.0
 11
128.2874275610974
 21
169.8189140696992
 31
0.0
 12
127.8707608944308
 22
172.3189140696992
 32
0.0
 13
127.8707608944308
 23
172.3189140696992
 33
0.0
  0
SOLID
  5
CBF
330
B53
100
AcDbEntity
  8
文字
 62
     0
100
AcDbTrace
 10
127.4540942277641
 20
74.81891406969919
 30
0.0
 11
128.2874275610974
 21
74.81891406969919
 31
0.0
 12
127.8707608944308
 22
72.31891406969919
 32
0.0
 13
127.8707608944308
 23
72.31891406969919
 33
0.0
  0
MTEXT
  5
CC0
330
B53
100
AcDbEntity
  8
文字
 62
     0
100
AcDbMText
 10
125.9957608944308
 20
122.3189140696992
 30
0.0
 40
2.5
 41
0.0
 46
0.0
 71
     5
 72
     1
  1
180
 11
6.123031769111886E-17
 21
1.0
 31
0.0
 73
     1
 44
1.0
  0
POINT
  5
CC1
330
B53
100
AcDbEntity
  8
Defpoints
 62
     0
100
AcDbPoint
 10
87.46629242723384
 20
172.3189140696992
 30
0.0
  0
POINT
  5
CC2
330
B53
100
AcDbEntity
  8
Defpoints
 62
     0
100
AcDbPoint
 10
99.26629242723385
 20
72.31891406969919
 30
0.0
  0
POINT
  5
CC3
330
B53
100
AcDbEntity
  8
Defpoints
 62
     0
100
AcDbPoint
 10
127.8707608944308
 20
72.31891406969919
 30
0.0
  0
ENDBLK
  5
B5E
330
B53
100
AcDbEntity
  8
0
100
AcDbBlockEnd
  0
BLOCK
  5
B75
330
B6B
100
AcDbEntity
  8
0
100
AcDbBlockBegin
  2
*D2
 70
     1
 10
0.0
 20
0.0
 30
0.0
  3
*D2
  1
*D3
  0
LINE
  5
B78
330
B6B
100
AcDbEntity
  8
文字
 62
     0
370
    -2
100
AcDbLine
 10
99.89129242723385
 20
72.31891406969919
 30
0.0
 11
129.1207608944308
 21
72.31891406969919
 31
0.0
  0
LINE
  5
B79
330
B6B
100
AcDbEntity
  8
文字
 62
     0
370
    -2
100
AcDbLine
 10
89.0335041986387
 20
57.31891406969918
 30
0.0
 11
129.1207608944308
 21
57.31891406969917
 31
0.0
  0
LINE
  5
B7A
330
B6B
100
AcDbEntity
  8
文字
 62
     0
370
    -2
100
AcDbLine
 10
127.8707608944308
 20
69.81891406969919
 30
0.0
 11
127.8707608944308
 21
59.81891406969917
 31
0.0
  0
SOLID
  5
B7B
330
B6B
100
AcDbEntity
  8
文字
 62
     0
100
AcDbTrace
 10
127.4540942277641
 20
69.81891406969919
 30
0.0
 11
128.2874275610974
 21
69.81891406969919
 31
0.0
 12
127.8707608944308
 22
72.31891406969919
 32
0.0
 13
127.8707608944308
 23
72.31891406969919
 33
0.0
  0
SOLID
  5
B7C
330
B6B
100
AcDbEntity
  8
文字
 62
     0
100
AcDbTrace
 10
127.4540942277641
 20
59.81891406969917
 30
0.0
 11
128.2874275610974
 21
59.81891406969917
 31
0.0
 12
127.8707608944308
 22
57.31891406969917
 32
0.0
 13
127.8707608944308
 23
57.31891406969917
 33
0.0
  0
MTEXT
  5
B7D
330
B6B
100
AcDbEntity
  8
文字
 62
     0
100
AcDbMText
 10
125.9957608944307
 20
64.81891406969919
 30
0.0
 40
2.5
 41
0.0
 46
0.0
 71
     5
 72
     1
  1
15
 11
6.123031769111886E-17
 21
1.0
 31
0.0
 73
     1
 44
1.0
  0
POINT
  5
B7E
330
B6B
100
AcDbEntity
  8
Defpoints
 62
     0
100
AcDbPoint
 10
99.26629242723385
 20
72.31891406969919
 30
0.0
  0
POINT
  5
B7F
330
B6B
100
AcDbEntity
  8
Defpoints
 62
     0
100
AcDbPoint
 10
88.4085041986387
 20
57.31891406969918
 30
0.0
  0
POINT
  5
B80
330
B6B
100
AcDbEntity
  8
Defpoints
 62
     0
100
AcDbPoint
 10
127.8707608944308
 20
57.31891406969917
 30
0.0
  0
ENDBLK
  5
B76
330
B6B
100
AcDbEntity
  8
0
100
AcDbBlockEnd
  0
BLOCK
  5
BA5
330
B9B
100
AcDbEntity
  8
0
100
AcDbBlockBegin
  2
*D3
 70
     1
 10
0.0
 20
0.0
 30
0.0
  3
*D3
  1
*D4
  0
LINE
  5
BB2
330
B9B
100
AcDbEntity
  8
文字
 62
     0
370
    -2
100
AcDbLine
 10
194.5569101856515
 20
126.302582676026
 30
0.0
 11
194.5569101856515
 21
81.0824691688972
 31
0.0
  0
LINE
  5
BB3
330
B9B
100
AcDbEntity
  8
文字
 62
     0
370
    -2
100
AcDbLine
 10
230.5835669830842
 20
126.302582676026
 30
0.0
 11
230.5835669830842
 21
81.0824691688972
 31
0.0
  0
LINE
  5
BB4
330
B9B
100
AcDbEntity
  8
文字
 62
     0
370
    -2
100
AcDbLine
 10
197.0569101856515
 20
82.3324691688972
 30
0.0
 11
228.0835669830842
 21
82.3324691688972
 31
0.0
  0
SOLID
  5
BB5
330
B9B
100
AcDbEntity
  8
文字
 62
     0
100
AcDbTrace
 10
197.0569101856515
 20
82.74913583556388
 30
0.0
 11
197.0569101856515
 21
81.91580250223053
 31
0.0
 12
194.5569101856515
 22
82.3324691688972
 32
0.0
 13
194.5569101856515
 23
82.3324691688972
 33
0.0
  0
SOLID
  5
BB6
330
B9B
100
AcDbEntity
  8
文字
 62
     0
100
AcDbTrace
 10
228.0835669830842
 20
82.74913583556388
 30
0.0
 11
228.0835669830842
 21
81.91580250223053
 31
0.0
 12
230.5835669830842
 22
82.3324691688972
 32
0.0
 13
230.5835669830842
 23
82.3324691688972
 33
0.0
  0
MTEXT
  5
BB7
330
B9B
100
AcDbEntity
  8
文字
 62
     0
100
AcDbMText
 10
212.5702385843679
 20
84.2074691688972
 30
0.0
 40
2.5
 41
0.0
 46
0.0
 71
     5
 72
     1
  1
36
 73
     1
 44
1.0
  0
POINT
  5
BB8
330
B9B
100
AcDbEntity
  8
Defpoints
 62
     0
100
AcDbPoint
 10
194.5569101856515
 20
126.927582676026
 30
0.0
  0
POINT
  5
BB9
330
B9B
100
AcDbEntity
  8
Defpoints
 62
     0
100
AcDbPoint
 10
230.5835669830842
 20
126.927582676026
 30
0.0
  0
POINT
  5
BBA
330
B9B
100
AcDbEntity
  8
Defpoints
 62
     0
100
AcDbPoint
 10
230.5835669830842
 20
82.3324691688972
 30
0.0
  0
ENDBLK
  5
BA6
330
B9B
100
AcDbEntity
  8
0
100
AcDbBlockEnd
  0
BLOCK
  5
C28
330
C1E
100
AcDbEntity
  8
0
370
    30
100
AcDbBlockBegin
  2
*D4
 70
     1
 10
0.0
 20
0.0
 30
0.0
  3
*D4
  1
*D5
  0
LINE
  5
C2A
330
C1E
100
AcDbEntity
  8
文字
 62
     0
370
    -2
100
AcDbLine
 10
43.46629242723382
 20
36.69391406969919
 30
0.0
 11
43.46629242723382
 21
20.81919383773095
 31
0.0
  0
LINE
  5
C2B
330
C1E
100
AcDbEntity
  8
文字
 62
     0
370
    -2
100
AcDbLine
 10
113.4662924272338
 20
36.69391406969919
 30
0.0
 11
113.4662924272338
 21
20.81919383773095
 31
0.0
  0
LINE
  5
C2C
330
C1E
100
AcDbEntity
  8
文字
 62
     0
370
    -2
100
AcDbLine
 10
45.96629242723382
 20
22.06919383773095
 30
0.0
 11
110.9662924272338
 21
22.06919383773095
 31
0.0
  0
SOLID
  5
C2D
330
C1E
100
AcDbEntity
  8
文字
 62
     0
370
    30
100
AcDbTrace
 10
45.96629242723382
 20
22.48586050439762
 30
0.0
 11
45.96629242723382
 21
21.65252717106428
 31
0.0
 12
43.46629242723382
 22
22.06919383773095
 32
0.0
 13
43.46629242723382
 23
22.06919383773095
 33
0.0
  0
SOLID
  5
C2E
330
C1E
100
AcDbEntity
  8
文字
 62
     0
370
    30
100
AcDbTrace
 10
110.9662924272338
 20
22.48586050439762
 30
0.0
 11
110.9662924272338
 21
21.65252717106428
 31
0.0
 12
113.4662924272338
 22
22.06919383773095
 32
0.0
 13
113.4662924272338
 23
22.06919383773095
 33
0.0
  0
MTEXT
  5
C2F
330
C1E
100
AcDbEntity
  8
文字
 62
     0
100
AcDbMText
 10
78.46629242723382
 20
23.94419383773095
 30
0.0
 40
2.5
 41
0.0
 46
0.0
 71
     5
 72
     1
  1
%%c70
 73
     1
 44
1.0
  0
POINT
  5
C30
330
C1E
100
AcDbEntity
  8
Defpoints
 62
     0
370
    30
100
AcDbPoint
 10
43.46629242723382
 20
37.31891406969919
 30
0.0
  0
POINT
  5
C31
330
C1E
100
AcDbEntity
  8
Defpoints
 62
     0
370
    30
100
AcDbPoint
 10
113.4662924272338
 20
37.31891406969919
 30
0.0
  0
POINT
  5
C32
330
C1E
100
AcDbEntity
  8
Defpoints
 62
     0
370
    30
100
AcDbPoint
 10
113.4662924272338
 20
22.06919383773095
 30
0.0
  0
ENDBLK
  5
C29
330
C1E
100
AcDbEntity
  8
0
370
    30
100
AcDbBlockEnd
  0
BLOCK
  5
C65
330
C5B
100
AcDbEntity
  8
0
100
AcDbBlockBegin
  2
*D5
 70
     1
 10
0.0
 20
0.0
 30
0.0
  3
*D5
  1
*D7
  0
LINE
  5
C68
330
C5B
100
AcDbEntity
  8
文字
 62
     0
370
    -2
100
AcDbLine
 10
94.69129242723386
 20
57.31891406969918
 30
0.0
 11
129.1207608944308
 21
57.31891406969917
 31
0.0
  0
LINE
  5
C69
330
C5B
100
AcDbEntity
  8
文字
 62
     0
370
    -2
100
AcDbLine
 10
114.0912924272338
 20
37.31891406969919
 30
0.0
 11
129.1207608944308
 21
37.31891406969919
 31
0.0
  0
LINE
  5
C6A
330
C5B
100
AcDbEntity
  8
文字
 62
     0
370
    -2
100
AcDbLine
 10
127.8707608944308
 20
54.81891406969917
 30
0.0
 11
127.8707608944308
 21
39.81891406969919
 31
0.0
  0
SOLID
  5
C6B
330
C5B
100
AcDbEntity
  8
文字
 62
     0
100
AcDbTrace
 10
127.4540942277641
 20
54.81891406969917
 30
0.0
 11
128.2874275610974
 21
54.81891406969917
 31
0.0
 12
127.8707608944308
 22
57.31891406969917
 32
0.0
 13
127.8707608944308
 23
57.31891406969917
 33
0.0
  0
SOLID
  5
C6C
330
C5B
100
AcDbEntity
  8
文字
 62
     0
100
AcDbTrace
 10
127.4540942277641
 20
39.81891406969919
 30
0.0
 11
128.2874275610974
 21
39.81891406969919
 31
0.0
 12
127.8707608944308
 22
37.31891406969919
 32
0.0
 13
127.8707608944308
 23
37.31891406969919
 33
0.0
  0
MTEXT
  5
C6D
330
C5B
100
AcDbEntity
  8
文字
 62
     0
100
AcDbMText
 10
125.9957608944307
 20
47.3189140696992
 30
0.0
 40
2.5
 41
0.0
 46
0.0
 71
     5
 72
     1
  1
20
 11
6.123031769111886E-17
 21
1.0
 31
0.0
 73
     1
 44
1.0
  0
POINT
  5
C6E
330
C5B
100
AcDbEntity
  8
Defpoints
 62
     0
100
AcDbPoint
 10
94.06629242723386
 20
57.31891406969918
 30
0.0
  0
POINT
  5
C6F
330
C5B
100
AcDbEntity
  8
Defpoints
 62
     0
100
AcDbPoint
 10
113.4662924272338
 20
37.31891406969919
 30
0.0
  0
POINT
  5
C70
330
C5B
100
AcDbEntity
  8
Defpoints
 62
     0
100
AcDbPoint
 10
127.8707608944308
 20
37.31891406969919
 30
0.0
  0
ENDBLK
  5
C66
330
C5B
100
AcDbEntity
  8
0
100
AcDbBlockEnd
  0
BLOCK
  5
C91
330
C87
100
AcDbEntity
  8
0
100
AcDbBlockBegin
  2
*D6
 70
     1
 10
0.0
 20
0.0
 30
0.0
  3
*D6
  1
*D8
  0
LINE
  5
CA7
330
C87
100
AcDbEntity
  8
文字
 62
     0
370
    -2
100
AcDbLine
 10
189.5702385843679
 20
136.7025826760261
 30
0.0
 11
189.5702385843679
 21
64.56293991074716
 31
0.0
  0
LINE
  5
CA8
330
C87
100
AcDbEntity
  8
文字
 62
     0
370
    -2
100
AcDbLine
 10
235.5702385843679
 20
136.7025826760261
 30
0.0
 11
235.5702385843679
 21
64.56293991074716
 31
0.0
  0
LINE
  5
CA9
330
C87
100
AcDbEntity
  8
文字
 62
     0
370
    -2
100
AcDbLine
 10
192.0702385843679
 20
65.81293991074716
 30
0.0
 11
233.0702385843679
 21
65.81293991074716
 31
0.0
  0
SOLID
  5
CAA
330
C87
100
AcDbEntity
  8
文字
 62
     0
100
AcDbTrace
 10
192.0702385843679
 20
66.22960657741383
 30
0.0
 11
192.0702385843679
 21
65.39627324408049
 31
0.0
 12
189.5702385843679
 22
65.81293991074716
 32
0.0
 13
189.5702385843679
 23
65.81293991074716
 33
0.0
  0
SOLID
  5
CAB
330
C87
100
AcDbEntity
  8
文字
 62
     0
100
AcDbTrace
 10
233.0702385843679
 20
66.22960657741383
 30
0.0
 11
233.0702385843679
 21
65.39627324408049
 31
0.0
 12
235.5702385843679
 22
65.81293991074716
 32
0.0
 13
235.5702385843679
 23
65.81293991074716
 33
0.0
  0
MTEXT
  5
CAC
330
C87
100
AcDbEntity
  8
文字
 62
     0
100
AcDbMText
 10
212.5702385843679
 20
67.68793991074716
 30
0.0
 40
2.5
 41
0.0
 46
0.0
 71
     5
 72
     1
  1
%%c46
 73
     1
 44
1.0
  0
POINT
  5
CAD
330
C87
100
AcDbEntity
  8
Defpoints
 62
     0
100
AcDbPoint
 10
189.5702385843679
 20
137.3275826760261
 30
0.0
  0
POINT
  5
CAE
330
C87
100
AcDbEntity
  8
Defpoints
 62
     0
100
AcDbPoint
 10
235.5702385843679
 20
137.3275826760261
 30
0.0
  0
POINT
  5
CAF
330
C87
100
AcDbEntity
  8
Defpoints
 62
     0
100
AcDbPoint
 10
235.5702385843679
 20
65.81293991074716
 30
0.0
  0
ENDBLK
  5
C92
330
C87
100
AcDbEntity
  8
0
100
AcDbBlockEnd
  0
BLOCK
  5
D71
330
D70
100
AcDbEntity
  8
0
100
AcDbBlockBegin
  2
*D8
 70
     1
 10
0.0
 20
0.0
 30
0.0
  3
*D8
  1
*D8
  0
LINE
  5
D72
330
D70
100
AcDbEntity
  8
文字
 62
     0
370
    -2
100
AcDbLine
 10
15.00069579844845
 20
10.00019833783685
 30
0.0
 11
1.875
 21
10.00019833783685
 31
0.0
  0
LINE
  5
D73
330
D70
100
AcDbEntity
  8
文字
 62
     0
370
    -2
100
AcDbLine
 10
15.8422714469077
 20
0.0
 30
0.0
 11
1.875
 21
0.0
 31
0.0
  0
LINE
  5
D74
330
D70
100
AcDbEntity
  8
文字
 62
     0
370
    -2
100
AcDbLine
 10
3.125
 20
7.500198337836849
 30
0.0
 11
3.125
 21
2.5
 31
0.0
  0
SOLID
  5
D75
330
D70
100
AcDbEntity
  8
文字
 62
     0
100
AcDbTrace
 10
3.541666666666667
 20
7.500198337836849
 30
0.0
 11
2.708333333333333
 21
7.500198337836849
 31
0.0
 12
3.125
 22
10.00019833783685
 32
0.0
 13
3.125
 23
10.00019833783685
 33
0.0
  0
SOLID
  5
D76
330
D70
100
AcDbEntity
  8
文字
 62
     0
100
AcDbTrace
 10
2.708333333333333
 20
2.5
 30
0.0
 11
3.541666666666666
 21
2.5
 31
0.0
 12
3.125
 22
0.0
 32
0.0
 13
3.125
 23
0.0
 33
0.0
  0
MTEXT
  5
D77
330
D70
100
AcDbEntity
  8
文字
 62
     0
100
AcDbMText
 10
1.25
 20
5.156323232109969
 30
0.0
 40
2.5
 41
0.0
 46
0.0
 71
     5
 72
     1
  1
10
 11
4.440804020554295E-17
 21
1.0
 31
0.0
 73
     1
 44
1.0
  0
POINT
  5
D78
330
D70
100
AcDbEntity
  8
Defpoints
 62
     0
100
AcDbPoint
 10
15.62569579844845
 20
10.00019833783685
 30
0.0
  0
POINT
  5
D79
330
D70
100
AcDbEntity
  8
Defpoints
 62
     0
100
AcDbPoint
 10
16.4672714469077
 20
0.0
 30
0.0
  0
POINT
  5
D7A
330
D70
100
AcDbEntity
  8
Defpoints
 62
     0
100
AcDbPoint
 10
3.125
 20
0.0000000000000008
 30
0.0
  0
ENDBLK
  5
D7B
330
D70
100
AcDbEntity
  8
0
100
AcDbBlockEnd
  0
BLOCK
  5
D82
330
D81
100
AcDbEntity
  8
0
100
AcDbBlockBegin
  2
*D9
 70
     1
 10
0.0
 20
0.0
 30
0.0
  3
*D9
  1
*D9
  0
LINE
  5
D84
330
D81
100
AcDbEntity
  8
文字
 62
     0
370
    -2
100
AcDbLine
 10
44.38196457637148
 20
47.23917655949277
 30
0.0
 11
31.25626877792303
 21
47.23917655949277
 31
0.0
  0
LINE
  5
D85
330
D81
100
AcDbEntity
  8
文字
 62
     0
370
    -2
100
AcDbLine
 10
45.22354022483074
 20
37.23897822165592
 30
0.0
 11
31.25626877792303
 21
37.23897822165592
 31
0.0
  0
LINE
  5
D86
330
D81
100
AcDbEntity
  8
文字
 62
     0
370
    -2
100
AcDbLine
 10
32.50626877792303
 20
44.73917655949277
 30
0.0
 11
32.50626877792303
 21
39.73897822165592
 31
0.0
  0
SOLID
  5
D87
330
D81
100
AcDbEntity
  8
文字
 62
     0
100
AcDbTrace
 10
32.9229354445897
 20
44.73917655949277
 30
0.0
 11
32.08960211125637
 21
44.73917655949277
 31
0.0
 12
32.50626877792303
 22
47.23917655949277
 32
0.0
 13
32.50626877792303
 23
47.23917655949277
 33
0.0
  0
SOLID
  5
D88
330
D81
100
AcDbEntity
  8
文字
 62
     0
100
AcDbTrace
 10
32.08960211125637
 20
39.73897822165592
 30
0.0
 11
32.9229354445897
 21
39.73897822165592
 31
0.0
 12
32.50626877792303
 22
37.23897822165592
 32
0.0
 13
32.50626877792303
 23
37.23897822165592
 33
0.0
  0
MTEXT
  5
D89
330
D81
100
AcDbEntity
  8
文字
 62
     0
100
AcDbMText
 10
30.63126877792303
 20
42.39530145376589
 30
0.0
 40
2.5
 41
0.0
 46
0.0
 71
     5
 72
     1
  1
10
 11
0.0
 21
1.0
 31
0.0
 73
     1
 44
1.0
  0
POINT
  5
D8A
330
D81
100
AcDbEntity
  8
Defpoints
 62
     0
100
AcDbPoint
 10
45.00696457637148
 20
47.23917655949277
 30
0.0
  0
POINT
  5
D8B
330
D81
100
AcDbEntity
  8
Defpoints
 62
     0
100
AcDbPoint
 10
45.84854022483074
 20
37.23897822165592
 30
0.0
  0
POINT
  5
D8C
330
D81
100
AcDbEntity
  8
Defpoints
 62
     0
100
AcDbPoint
 10
32.50626877792303
 20
37.23897822165592
 30
0.0
  0
ENDBLK
  5
D83
330
D81
100
AcDbEntity
  8
0
100
AcDbBlockEnd
  0
ENDSEC
  0
SECTION
  2
ENTITIES
  0
LINE
  5
A3A
330
21
100
AcDbEntity
  8
中心線
100
AcDbLine
 10
78.46629242723384
 20
27.31891406969919
 30
0.0
 11
78.46629242723384
 21
180.4109113929777
 31
0.0
  0
LWPOLYLINE
  5
AA4
102
{ACAD_REACTORS
330
B69
330
B81
102
}
330
21
100
AcDbEntity
  8
実線
100
AcDbPolyline
 90
        4
 70
     0
 43
0.0
 10
99.26629242723385
 20
59.31891406969918
 10
99.26629242723385
 20
72.31891406969919
 10
57.66629242723384
 20
72.31891406969919
 10
57.66629242723384
 20
59.31891406969919
  0
ARC
  5
AA8
330
21
100
AcDbEntity
  8
実線
100
AcDbCircle
 10
62.86629242723384
 20
65.07891406969917
 30
0.0
 40
7.759999999999985
100
AcDbArc
 50
227.9249779491563
 51
312.0750220508438
  0
ARC
  5
AA9
330
21
100
AcDbEntity
  8
実線
100
AcDbCircle
 10
78.46629242723385
 20
85.35891406969925
 30
0.0
 40
28.04000000000006
100
AcDbArc
 50
248.2289458906826
 51
291.7710541093174
  0
ARC
  5
AAA
330
21
100
AcDbEntity
  8
実線
100
AcDbCircle
 10
94.06629242723386
 20
65.07891406969918
 30
0.0
 40
7.759999999999995
100
AcDbArc
 50
227.9249779491563
 51
312.0750220508437
  0
LINE
  5
AAB
330
21
100
AcDbEntity
  8
実線
100
AcDbLine
 10
68.06629242723388
 20
59.31891406969918
 30
0.0
 11
68.06629242723388
 21
72.31891406969919
 31
0.0
  0
LINE
  5
AAC
330
21
100
AcDbEntity
  8
実線
100
AcDbLine
 10
88.86629242723386
 20
59.31891406969919
 30
0.0
 11
88.86629242723386
 21
72.31891406969919
 31
0.0
  0
LWPOLYLINE
  5
AAD
330
21
100
AcDbEntity
  8
実線
100
AcDbPolyline
 90
        2
 70
     0
 43
0.0
 10
62.86629242723384
 20
57.31891406969919
 10
94.06629242723386
 20
57.31891406969919
  0
LWPOLYLINE
  5
AAE
330
21
100
AcDbEntity
  8
実線
100
AcDbPolyline
 90
        4
 70
     1
 43
0.0
 10
78.46629242723384
 20
72.31891406969919
 10
66.46629242723384
 20
72.31891406969919
 10
66.46629242723384
 20
72.31891406969919
 10
78.46629242723384
 20
72.31891406969919
  0
LWPOLYLINE
  5
AAF
330
21
100
AcDbEntity
  8
実線
100
AcDbPolyline
 90
        6
 70
     0
 43
0.0
 10
90.46629242723384
 20
131.5565183767332
 10
90.46629242723384
 20
169.3189140696992
 10
87.46629242723384
 20
172.3189140696992
 10
69.46629242723384
 20
172.3189140696992
 10
66.46629242723384
 20
169.3189140696992
 10
66.46629242723384
 20
117.7001119161822
  0
LINE
  5
AED
102
{ACAD_REACTORS
330
B44
102
}
330
21
100
AcDbEntity
  8
実線
370
    20
100
AcDbLine
 10
66.46629242723384
 20
169.3189140696992
 30
0.0
 11
90.46629242723384
 21
169.3189140696992
 31
0.0
  0
LINE
  5
AEE
330
21
100
AcDbEntity
  8
実線
370
    20
100
AcDbLine
 10
69.46629242723384
 20
172.3189140696992
 30
0.0
 11
69.46629242723382
 21
119.432162723751
 31
0.0
  0
LINE
  5
AEF
102
{ACAD_REACTORS
330
B69
102
}
330
21
100
AcDbEntity
  8
実線
370
    20
100
AcDbLine
 10
87.46629242723384
 20
172.3189140696992
 30
0.0
 11
87.46629242723382
 21
129.8244675691643
 31
0.0
  0
DIMENSION
  5
B2D
102
{ACAD_REACTORS
330
B44
102
}
102
{ACAD_XDICTIONARY
360
B3A
102
}
330
21
100
AcDbEntity
  8
文字
100
AcDbDimension
280
     0
  2
*D0
 10
90.46629242723384
 20
188.3782965772887
 30
0.0
 11
78.46629242723384
 21
190.2532965772887
 31
0.0
 70
    32
  1
{\fArial|b0|i0|c0|p32;M}<>
 71
     5
 42
24.0
 73
     0
 74
     0
 75
     0
  3
ISO-25
100
AcDbAlignedDimension
 13
66.46629242723384
 23
169.3189140696992
 33
0.0
 14
90.46629242723384
 24
169.3189140696992
 34
0.0
100
AcDbRotatedDimension
  0
CIRCLE
  5
B4E
330
21
100
AcDbEntity
  8
実線
100
AcDbCircle
 10
212.5702385843679
 20
137.3275826760261
 30
0.0
 40
40.0
  0
LWPOLYLINE
  5
B4F
102
{ACAD_REACTORS
330
BB1
102
}
330
21
100
AcDbEntity
  8
実線
100
AcDbPolyline
 90
        6
 70
     1
 43
0.0
 10
230.5835669830842
 20
147.727582676026
 10
212.5702385843679
 20
158.127582676026
 10
194.5569101856515
 20
147.727582676026
 10
194.5569101856515
 20
126.927582676026
 10
212.5702385843678
 20
116.527582676026
 10
230.5835669830842
 20
126.927582676026
  0
CIRCLE
  5
B50
330
21
100
AcDbEntity
  8
実線
100
AcDbCircle
 10
212.5702385843679
 20
137.3275826760261
 30
0.0
 40
12.0
  0
CIRCLE
  5
B51
330
21
100
AcDbEntity
  8
実線
370
    30
100
AcDbCircle
 10
212.5702385843679
 20
137.3275826760261
 30
0.0
 40
9.0
  0
DIMENSION
  5
B52
102
{ACAD_REACTORS
330
B69
102
}
102
{ACAD_XDICTIONARY
360
B5F
102
}
330
21
100
AcDbEntity
  8
文字
100
AcDbDimension
280
     0
  2
*D1
 10
127.8707608944308
 20
72.31891406969919
 30
0.0
 11
125.9957608944308
 21
122.3189140696992
 31
0.0
 70
    32
  1
180
 71
     5
 42
100.0
 73
     0
 74
     0
 75
     0
  3
ISO-25
100
AcDbAlignedDimension
 13
87.46629242723384
 23
172.3189140696992
 33
0.0
 14
99.26629242723385
 24
72.31891406969919
 34
0.0
 50
90.0
100
AcDbRotatedDimension
  0
DIMENSION
  5
B6A
102
{ACAD_REACTORS
330
B81
102
}
102
{ACAD_XDICTIONARY
360
B77
102
}
330
21
100
AcDbEntity
  8
文字
100
AcDbDimension
280
     0
  2
*D2
 10
127.8707608944308
 20
57.31891406969917
 30
0.0
 11
125.9957608944307
 21
64.81891406969919
 31
0.0
 70
    32
 71
     5
 42
15.00000000000002
 73
     0
 74
     0
 75
     0
  3
ISO-25
100
AcDbAlignedDimension
 13
99.26629242723385
 23
72.31891406969919
 33
0.0
 14
88.4085041986387
 24
57.31891406969918
 34
0.0
 50
90.0
100
AcDbRotatedDimension
  0
DIMENSION
  5
B9A
102
{ACAD_REACTORS
330
BB1
102
}
102
{ACAD_XDICTIONARY
360
BA7
102
}
330
21
100
AcDbEntity
  8
文字
100
AcDbDimension
280
     0
  2
*D3
 10
230.5835669830842
 20
82.3324691688972
 30
0.0
 11
212.5702385843679
 21
84.2074691688972
 31
0.0
 70
    32
  1
36
 71
     5
 42
36.02665679743265
 73
     0
 74
     0
 75
     0
  3
ISO-25
100
AcDbAlignedDimension
 13
194.5569101856515
 23
126.927582676026
 33
0.0
 14
230.5835669830842
 24
126.927582676026
 34
0.0
100
AcDbRotatedDimension
  0
LINE
  5
BBB
330
21
100
AcDbEntity
  8
実線
370
    30
100
AcDbLine
 10
57.47751317061029
 20
110.2010367159259
 30
0.0
 11
99.77888509994025
 21
134.6237451864151
 31
0.0
  0
LINE
  5
BC1
330
21
100
AcDbEntity
  8
実線
370
    30
100
AcDbLine
 10
56.47751317061029
 20
111.9330875234948
 30
0.0
 11
98.77888509994025
 21
136.3557959939839
 31
0.0
  0
LINE
  5
BC2
330
21
100
AcDbEntity
  8
実線
370
    20
100
AcDbLine
 10
87.46629242723382
 20
127.5150664924058
 30
0.0
 11
87.46629242723382
 21
72.31891406969919
 31
0.0
  0
LINE
  5
BC3
330
21
100
AcDbEntity
  8
実線
370
    20
100
AcDbLine
 10
69.46629242723382
 20
117.1227616469925
 30
0.0
 11
69.46629242723382
 21
72.31891406969919
 31
0.0
  0
LWPOLYLINE
  5
BC4
330
21
100
AcDbEntity
  8
実線
100
AcDbPolyline
 90
        4
 70
     0
 43
0.0
 10
66.46629242723384
 20
115.3907108394237
 10
66.46629242723384
 20
72.31891406969919
 10
90.46629242723384
 20
72.31891406969919
 10
90.46629242723384
 20
129.2471172999747
  0
DIMENSION
  5
C07
102
{ACAD_REACTORS
330
C09
102
}
102
{ACAD_XDICTIONARY
360
C08
102
}
330
21
100
AcDbEntity
  8
文字
100
AcDbDimension
280
     0
  2
*D4
 10
113.4662924272338
 20
22.06919383773095
 30
0.0
 11
78.46629242723382
 21
23.94419383773095
 31
0.0
 70
    32
  1
%%c<>
 71
     5
 42
70.0
 73
     0
 74
     0
 75
     0
  3
ISO-25
100
AcDbAlignedDimension
 13
43.46629242723382
 23
37.31891406969919
 33
0.0
 14
113.4662924272338
 24
37.31891406969919
 34
0.0
100
AcDbRotatedDimension
  0
LINE
  5
C0A
330
21
100
AcDbEntity
  8
実線
100
AcDbLine
 10
53.78286258742301
 20
47.3189140696992
 30
0.0
 11
103.1497222670453
 21
47.3189140696992
 31
0.0
  0
ARC
  5
C0B
330
21
100
AcDbEntity
  8
実線
100
AcDbCircle
 10
103.1497222670453
 20
50.31891406969919
 30
0.0
 40
3.0
100
AcDbArc
 50
202.021000395841
 51
270.0
  0
ARC
  5
C0C
330
21
100
AcDbEntity
  8
実線
100
AcDbCircle
 10
53.782862587423
 20
50.3189140696992
 30
0.0
 40
3.0
100
AcDbArc
 50
270.0
 51
337.978999604159
  0
ARC
  5
C0D
330
21
100
AcDbEntity
  8
実線
100
AcDbCircle
 10
68.61560641485806
 20
44.31977158516969
 30
0.0
 40
13.0
100
AcDbArc
 50
90.65809610947441
 51
157.9789996041586
  0
ARC
  5
C0E
330
21
100
AcDbEntity
  8
実線
100
AcDbCircle
 10
88.31697843961022
 20
44.31977158516969
 30
0.0
 40
13.0
100
AcDbArc
 50
22.02100039584099
 51
89.34190389052887
  0
LINE
  5
C0F
330
21
100
AcDbEntity
  8
実線
100
AcDbLine
 10
68.46629242723382
 20
57.31891406969919
 30
0.0
 11
88.46629242723382
 21
57.31891406969919
 31
0.0
  0
LWPOLYLINE
  5
C11
102
{ACAD_REACTORS
330
C09
330
C71
102
}
330
21
100
AcDbEntity
  8
実線
100
AcDbPolyline
 90
        8
 70
     0
 43
0.0
 10
53.78286258742298
 20
47.31891406969919
 10
46.46629242723381
 20
47.31891406969918
 42
0.414213562373095
 10
43.46629242723381
 20
44.31891406969918
 10
43.46629242723382
 20
37.31891406969919
 10
113.4662924272338
 20
37.31891406969919
 10
113.4662924272338
 20
44.31891406969919
 42
0.4142135623730946
 10
110.4662924272338
 20
47.31891406969919
 10
103.1497222670453
 20
47.3189140696992
  0
LINE
  5
C3E
102
{ACAD_REACTORS
330
C9D
102
}
330
21
100
AcDbEntity
  8
中心線
100
AcDbLine
 10
212.5702385843679
 20
137.3275826760261
 30
0.0
 11
164.3751129316902
 21
137.3275826760261
 31
0.0
  0
LINE
  5
C3F
102
{ACAD_REACTORS
330
C9D
102
}
330
21
100
AcDbEntity
  8
中心線
100
AcDbLine
 10
212.5702385843679
 20
137.3275826760261
 30
0.0
 11
261.046199864425
 21
137.3275826760261
 31
0.0
  0
LINE
  5
C40
330
21
100
AcDbEntity
  8
中心線
100
AcDbLine
 10
212.5702385843679
 20
137.3275826760261
 30
0.0
 11
212.5702385843679
 21
183.6155368901267
 31
0.0
  0
LINE
  5
C41
330
21
100
AcDbEntity
  8
中心線
100
AcDbLine
 10
212.5702385843679
 20
137.3275826760261
 30
0.0
 11
212.5702385843679
 21
91.41786386132458
 31
0.0
  0
DIMENSION
  5
C5A
102
{ACAD_REACTORS
330
C71
102
}
102
{ACAD_XDICTIONARY
360
C67
102
}
330
21
100
AcDbEntity
  8
文字
100
AcDbDimension
280
     0
  2
*D5
 10
127.8707608944308
 20
37.31891406969919
 30
0.0
 11
125.9957608944307
 21
47.3189140696992
 31
0.0
 70
    32
 71
     5
 42
19.99999999999998
 73
     0
 74
     0
 75
     0
  3
ISO-25
100
AcDbAlignedDimension
 13
94.06629242723386
 23
57.31891406969918
 33
0.0
 14
113.4662924272338
 24
37.31891406969919
 34
0.0
 50
90.0
100
AcDbRotatedDimension
  0
CIRCLE
  5
C85
102
{ACAD_REACTORS
330
C9D
102
}
330
21
100
AcDbEntity
  8
実線
100
AcDbCircle
 10
212.5702385843679
 20
137.3275826760261
 30
0.0
 40
23.0
  0
DIMENSION
  5
C86
102
{ACAD_REACTORS
330
C9D
102
}
102
{ACAD_XDICTIONARY
360
C93
102
}
330
21
100
AcDbEntity
  8
文字
100
AcDbDimension
280
     0
  2
*D6
 10
235.5702385843679
 20
65.81293991074716
 30
0.0
 11
212.5702385843679
 21
67.68793991074716
 31
0.0
 70
    32
  1
%%c<>
 71
     5
 42
46.0
 73
     0
 74
     0
 75
     0
  3
ISO-25
100
AcDbAlignedDimension
 13
189.5702385843679
 23
137.3275826760261
 33
0.0
 14
235.5702385843679
 24
137.3275826760261
 34
0.0
100
AcDbRotatedDimension
  0
MTEXT
  5
D45
330
21
100
AcDbEntity
  8
文字・寸法線
 62
     0
100
AcDbMText
 10
67.90013885030628
 20
217.4944722443733
 30
0.0
 40
6.0
 41
0.0
 46
6.0
 71
     9
 72
     1
  1
{\fＭＳ ゴシック|b0|i0|c0|p0;S-V1 M24X180}
 73
     1
 44
1.0
1001
ACAD
1000
ACAD_MTEXT_DEFINED_HEIGHT_BEGIN
1070
    46
1040
6.0
1000
ACAD_MTEXT_DEFINED_HEIGHT_END
  0
DIMENSION
  5
D7F
102
{ACAD_XDICTIONARY
360
D80
102
}
330
21
100
AcDbEntity
  8
文字
100
AcDbDimension
280
     0
  2
*D9
 10
32.50626877792303
 20
37.23897822165592
 30
0.0
 11
32.50626877792303
 21
42.39530145376589
 31
0.0
 70
   160
 71
     5
 42
10.00019833783685
 73
     0
 74
     0
 75
     0
  3
ISO-25
100
AcDbAlignedDimension
 13
45.00696457637148
 23
47.23917655949277
 33
0.0
 14
45.84854022483074
 24
37.23897822165592
 34
0.0
 50
90.0
100
AcDbRotatedDimension
  0
ENDSEC
  0
SECTION
  2
OBJECTS
  0
DICTIONARY
  5
C
330
0
100
AcDbDictionary
281
     1
  3
ACAD_COLOR
350
1C
  3
ACAD_DETAILVIEWSTYLE
350
D1D
  3
ACAD_GROUP
350
D
  3
ACAD_IMAGE_VARS
350
D0F
  3
ACAD_LAYOUT
350
1A
  3
ACAD_MATERIAL
350
1B
  3
ACAD_MLEADERSTYLE
350
D1A
  3
ACAD_MLINESTYLE
350
17
  3
ACAD_PLOTSETTINGS
350
19
  3
ACAD_PLOTSTYLENAME
350
E
  3
ACAD_SCALELIST
350
CE6
  3
ACAD_SECTIONVIEWSTYLE
350
D1E
  3
ACAD_TABLESTYLE
350
D0B
  3
ACAD_VISUALSTYLE
350
CCD
  3
AcadDim
350
6E9
  3
ACDB_RECOMPOSE_DATA
350
D8F
  3
AcDbVariableDictionary
350
D14
  3
APPDATA
350
D0D
  0
SUN
  5
D0E
330
CCC
100
AcDbSun
 90
        1
290
     0
 63
     7
421
 16777215
 40
1.0
291
     1
 91
  2455826
 92
 54000000
292
     0
 70
     2
 71
   256
280
     1
  0
DICTIONARY
  5
B3A
330
B2D
100
AcDbDictionary
280
     1
281
     1
  3
ACAD_DIMASSOC
360
B44
  0
DICTIONARY
  5
B5F
330
B52
100
AcDbDictionary
280
     1
281
     1
  3
ACAD_DIMASSOC
360
B69
  0
DICTIONARY
  5
B77
330
B6A
100
AcDbDictionary
280
     1
281
     1
  3
ACAD_DIMASSOC
360
B81
  0
DICTIONARY
  5
BA7
330
B9A
100
AcDbDictionary
280
     1
281
     1
  3
ACAD_DIMASSOC
360
BB1
  0
DICTIONARY
  5
C08
330
C07
100
AcDbDictionary
280
     1
281
     1
  3
ACAD_DIMASSOC
360
C09
  0
DICTIONARY
  5
C67
330
C5A
100
AcDbDictionary
280
     1
281
     1
  3
ACAD_DIMASSOC
360
C71
  0
DICTIONARY
  5
C93
330
C86
100
AcDbDictionary
280
     1
281
     1
  3
ACAD_DIMASSOC
360
C9D
  0
DICTIONARY
  5
D80
330
D7F
100
AcDbDictionary
280
     1
281
     1
  0
DICTIONARY
  5
1C
102
{ACAD_REACTORS
330
C
102
}
330
C
100
AcDbDictionary
281
     1
  0
DICTIONARY
  5
D1D
102
{ACAD_REACTORS
330
C
102
}
330
C
100
AcDbDictionary
281
     1
  0
DICTIONARY
  5
D
102
{ACAD_REACTORS
330
C
102
}
330
C
100
AcDbDictionary
281
     1
  0
RASTERVARIABLES
  5
D0F
102
{ACAD_REACTORS
330
C
102
}
330
C
100
AcDbRasterVariables
 90
        0
 70
     1
 71
     1
 72
     1
  0
DICTIONARY
  5
1A
102
{ACAD_REACTORS
330
C
102
}
330
C
100
AcDbDictionary
281
     1
  3
Model
350
24
  3
Sheet1
350
D11
  0
DICTIONARY
  5
1B
102
{ACAD_REACTORS
330
C
102
}
330
C
100
AcDbDictionary
281
     1
  3
ByBlock
350
D09
  3
ByLayer
350
D08
  3
Global
350
D0A
  0
DICTIONARY
  5
D1A
102
{ACAD_REACTORS
330
C
102
}
330
C
100
AcDbDictionary
281
     1
  0
DICTIONARY
  5
17
102
{ACAD_REACTORS
330
C
102
}
330
C
100
AcDbDictionary
281
     1
  3
Standard
350
18
  0
DICTIONARY
  5
19
102
{ACAD_REACTORS
330
C
102
}
330
C
100
AcDbDictionary
281
     1
  0
ACDBDICTIONARYWDFLT
  5
E
102
{ACAD_REACTORS
330
C
102
}
330
C
100
AcDbDictionary
281
     1
  3
Normal
350
F
100
AcDbDictionaryWithDefault
340
F
  0
DICTIONARY
  5
CE6
102
{ACAD_REACTORS
330
C
102
}
330
C
100
AcDbDictionary
281
     1
  3
A0
350
CE7
  3
A1
350
CE8
  3
A2
350
CE9
  3
A3
350
CEA
  3
A4
350
CEB
  3
A5
350
CEC
  3
A6
350
CED
  3
A7
350
CEE
  3
A8
350
CEF
  3
A9
350
CF0
  3
B0
350
CF1
  3
B1
350
CF2
  3
B2
350
CF3
  3
B3
350
CF4
  3
B4
350
CF5
  3
B5
350
CF6
  3
B6
350
CF7
  3
B7
350
CF8
  3
B8
350
CF9
  3
B9
350
CFA
  3
C0
350
CFB
  3
C1
350
CFC
  3
C2
350
CFD
  3
C3
350
CFE
  3
C4
350
CFF
  3
C5
350
D00
  3
C6
350
D01
  3
C7
350
D02
  3
C8
350
D03
  3
C9
350
D04
  3
D0
350
D05
  3
D1
350
D06
  3
D2
350
D07
  0
DICTIONARY
  5
D1E
102
{ACAD_REACTORS
330
C
102
}
330
C
100
AcDbDictionary
281
     1
  0
DICTIONARY
  5
D0B
102
{ACAD_REACTORS
330
C
102
}
330
C
100
AcDbDictionary
281
     1
  3
Standard
350
D0C
  0
DICTIONARY
  5
CCD
102
{ACAD_REACTORS
330
C
102
}
330
C
100
AcDbDictionary
281
     1
  3
2dWireframe
350
CD2
  3
Basic
350
CD5
  3
Brighten
350
CD9
  3
ColorChange
350
CDD
  3
Conceptual
350
CD7
  3
Dim
350
CD8
  3
EdgeColorOff
350
CE0
  3
Facepattern
350
CDC
  3
Flat
350
CCE
  3
FlatWithEdges
350
CCF
  3
Gouraud
350
CD0
  3
GouraudWithEdges
350
CD1
  3
Hidden
350
CD4
  3
JitterOff
350
CDE
  3
Linepattern
350
CDB
  3
OverhangOff
350
CDF
  3
Realistic
350
CD6
  3
Shaded
350
CE5
  3
Shaded with edges
350
CE4
  3
Shades of Gray
350
CE1
  3
Sketchy
350
CE2
  3
Thicken
350
CDA
  3
Wireframe
350
CD3
  3
X-Ray
350
CE3
  0
XRECORD
  5
6E9
102
{ACAD_REACTORS
330
C
102
}
330
C
100
AcDbXrecord
280
     1
 90
   990106
  3

 60
     0
 61
     0
 62
     1
 63
     3
 64
     1
 65
     0
 66
     0
 67
     3
 68
     1
 69
     0
 70
     0
 71
     0
 72
     0
 40
0.0
170
     2
340
0
  0
XRECORD
  5
D8F
102
{ACAD_REACTORS
330
C
102
}
330
C
100
AcDbXrecord
280
     1
 90
        1
330
D0C
  0
DICTIONARY
  5
D14
102
{ACAD_REACTORS
330
C
102
}
330
C
100
AcDbDictionary
281
     1
  3
CANNOSCALE
350
D15
  3
CTABLESTYLE
350
D19
  3
MSLTSCALE
350
D1B
  3
XCLIPFRAME
350
D1C
  0
DICTIONARY
  5
D0D
102
{ACAD_REACTORS
330
C
102
}
330
C
100
AcDbDictionary
281
     1
  0
DIMASSOC
  5
B44
102
{ACAD_REACTORS
330
B3A
102
}
330
B3A
100
AcDbDimAssoc
330
B2D
 90
        3
 70
     0
 71
     0
  1
AcDbOsnapPointRef
 72
    13
331
AED
 73
     2
 91
        0
 40
0.0
 10
0.0
 20
0.0
 30
2.000000000000000E+50
 75
     0
  1
AcDbOsnapPointRef
 72
     1
331
AED
 73
     2
 91
        0
 40
1.0
 10
0.0
 20
0.0
 30
2.000000000000000E+50
 75
     0
  0
DIMASSOC
  5
B69
102
{ACAD_REACTORS
330
B5F
102
}
330
B5F
100
AcDbDimAssoc
330
B52
 90
        3
 70
     0
 71
     0
  1
AcDbOsnapPointRef
 72
    13
331
AEF
 73
     2
 91
        0
 40
0.0
 10
0.0
 20
0.0
 30
2.000000000000000E+50
 75
     0
  1
AcDbOsnapPointRef
 72
     1
331
AA4
 73
     2
 91
        1
 40
1.0
 10
0.0
 20
0.0
 30
2.000000000000000E+50
 75
     0
  0
DIMASSOC
  5
B81
102
{ACAD_REACTORS
330
B77
102
}
330
B77
100
AcDbDimAssoc
330
B6A
 90
        1
 70
     0
 71
     0
  1
AcDbOsnapPointRef
 72
     1
331
AA4
 73
     2
 91
        1
 40
1.0
 10
0.0
 20
0.0
 30
2.000000000000000E+50
 75
     0
  0
DIMASSOC
  5
BB1
102
{ACAD_REACTORS
330
BA7
102
}
330
BA7
100
AcDbDimAssoc
330
B9A
 90
        3
 70
     0
 71
     0
  1
AcDbOsnapPointRef
 72
     1
331
B4F
 73
     2
 91
        3
 40
1.0
 10
0.0
 20
0.0
 30
2.000000000000000E+50
 75
     0
  1
AcDbOsnapPointRef
 72
     1
331
B4F
 73
     2
 91
        5
 40
1.0
 10
0.0
 20
0.0
 30
2.000000000000000E+50
 75
     0
  0
DIMASSOC
  5
C09
102
{ACAD_REACTORS
330
C08
102
}
330
C08
100
AcDbDimAssoc
330
C07
 90
        3
 70
     0
 71
     0
  1
AcDbOsnapPointRef
 72
     1
331
C11
 73
     2
 91
        3
 40
1.0
 10
0.0
 20
0.0
 30
2.000000000000000E+50
 75
     0
  1
AcDbOsnapPointRef
 72
     1
331
C11
 73
     2
 91
        4
 40
1.0
 10
0.0
 20
0.0
 30
2.000000000000000E+50
 75
     0
  0
DIMASSOC
  5
C71
102
{ACAD_REACTORS
330
C67
102
}
330
C67
100
AcDbDimAssoc
330
C5A
 90
        2
 70
     0
 71
     0
  1
AcDbOsnapPointRef
 72
    13
331
C11
 73
     2
 91
        5
 40
0.0
 10
0.0
 20
0.0
 30
2.000000000000000E+50
 75
     0
  0
DIMASSOC
  5
C9D
102
{ACAD_REACTORS
330
C93
102
}
330
C93
100
AcDbDimAssoc
330
C86
 90
        3
 70
     0
 71
     0
  1
AcDbOsnapPointRef
 72
     6
331
C3E
 73
     2
 91
        0
 40
0.477226683996043
 10
0.0
 20
0.0
 30
0.0
332
C85
 74
     2
 92
        0
 75
     0
  1
AcDbOsnapPointRef
 72
     6
331
C3F
 73
     2
 91
        0
 40
0.4744619682139675
 10
0.0
 20
0.0
 30
0.0
332
C85
 74
     2
 92
        0
 75
     0
  0
LAYOUT
  5
24
102
{ACAD_REACTORS
330
1A
102
}
330
1A
100
AcDbPlotSettings
  1

  2
\\SF05\Brother HL-1440 series
  4
A4
  6

 40
6.72041654586792
 41
5.027085304260254
 42
6.889755249023438
 43
5.027069091796875
 44
209.9733276367188
 45
296.9259948730469
 46
-6.82
 47
-5.06
 48
0.0
 49
0.0
140
297.0000000000001
141
210.0
142
1.0
143
1.0
 70
 11956
 72
     1
 73
     1
 74
     4
  7

 75
    16
 76
     1
 77
     2
 78
   300
147
1.0
148
0.0
149
0.0
100
AcDbLayout
  1
Model
 70
     1
 71
     0
 10
0.0
 20
0.0
 11
12.0
 21
9.0
 12
0.0
 22
0.0
 32
0.0
 14
21.71213885030627
 24
20.81919383773095
 34
0.0
 15
261.046199864425
 25
223.4944722443733
 35
0.0
146
0.0
 13
0.0
 23
0.0
 33
0.0
 16
1.0
 26
0.0
 36
0.0
 17
0.0
 27
1.0
 37
0.0
 76
     0
330
21
331
CCC
  0
LAYOUT
  5
D11
102
{ACAD_REACTORS
330
1A
102
}
330
1A
100
AcDbPlotSettings
  1

  2
none_device
  4

  6

 40
0.0
 41
0.0
 42
0.0
 43
0.0
 44
0.0
 45
0.0
 46
0.0
 47
0.0
 48
0.0
 49
0.0
140
0.0
141
0.0
142
1.0
143
1.0
 70
   688
 72
     1
 73
     0
 74
     5
  7

 75
    16
 76
     0
 77
     2
 78
   300
147
1.0
148
0.0
149
0.0
100
AcDbLayout
  1
Sheet1
 70
     1
 71
     1
 10
0.0
 20
0.0
 11
0.0
 21
0.0
 12
0.0
 22
0.0
 32
0.0
 14
0.0
 24
0.0
 34
0.0
 15
0.0
 25
0.0
 35
0.0
146
0.0
 13
0.0
 23
0.0
 33
0.0
 16
1.0
 26
0.0
 36
0.0
 17
0.0
 27
1.0
 37
0.0
 76
     0
330
D10
  0
MATERIAL
  5
D09
102
{ACAD_REACTORS
330
1B
102
}
330
1B
100
AcDbMaterial
  1
ByBlock
 72
     1
 94
      127
  0
MATERIAL
  5
D08
102
{ACAD_REACTORS
330
1B
102
}
330
1B
100
AcDbMaterial
  1
ByLayer
 72
     1
 94
      127
  0
MATERIAL
  5
D0A
102
{ACAD_REACTORS
330
1B
102
}
330
1B
100
AcDbMaterial
  1
Global
 72
     1
 94
      127
  0
MLINESTYLE
  5
18
102
{ACAD_REACTORS
330
17
102
}
330
17
100
AcDbMlineStyle
  2
STANDARD
 70
     0
  3

 62
   256
 51
90.0
 52
90.0
 71
     2
 49
0.5
 62
   256
  6
BYLAYER
 49
-0.5
 62
   256
  6
BYLAYER
  0
ACDBPLACEHOLDER
  5
F
102
{ACAD_REACTORS
330
E
102
}
330
E
  0
SCALE
  5
CE7
102
{ACAD_REACTORS
330
CE6
102
}
330
CE6
100
AcDbScale
 70
     0
300
1:1
140
1.0
141
1.0
290
     1
  0
SCALE
  5
CE8
102
{ACAD_REACTORS
330
CE6
102
}
330
CE6
100
AcDbScale
 70
     0
300
1:2
140
1.0
141
2.0
290
     0
  0
SCALE
  5
CE9
102
{ACAD_REACTORS
330
CE6
102
}
330
CE6
100
AcDbScale
 70
     0
300
1:4
140
1.0
141
4.0
290
     0
  0
SCALE
  5
CEA
102
{ACAD_REACTORS
330
CE6
102
}
330
CE6
100
AcDbScale
 70
     0
300
1:5
140
1.0
141
5.0
290
     0
  0
SCALE
  5
CEB
102
{ACAD_REACTORS
330
CE6
102
}
330
CE6
100
AcDbScale
 70
     0
300
1:8
140
1.0
141
8.0
290
     0
  0
SCALE
  5
CEC
102
{ACAD_REACTORS
330
CE6
102
}
330
CE6
100
AcDbScale
 70
     0
300
1:10
140
1.0
141
10.0
290
     0
  0
SCALE
  5
CED
102
{ACAD_REACTORS
330
CE6
102
}
330
CE6
100
AcDbScale
 70
     0
300
1:16
140
1.0
141
16.0
290
     0
  0
SCALE
  5
CEE
102
{ACAD_REACTORS
330
CE6
102
}
330
CE6
100
AcDbScale
 70
     0
300
1:20
140
1.0
141
20.0
290
     0
  0
SCALE
  5
CEF
102
{ACAD_REACTORS
330
CE6
102
}
330
CE6
100
AcDbScale
 70
     0
300
1:30
140
1.0
141
30.0
290
     0
  0
SCALE
  5
CF0
102
{ACAD_REACTORS
330
CE6
102
}
330
CE6
100
AcDbScale
 70
     0
300
1:40
140
1.0
141
40.0
290
     0
  0
SCALE
  5
CF1
102
{ACAD_REACTORS
330
CE6
102
}
330
CE6
100
AcDbScale
 70
     0
300
1:50
140
1.0
141
50.0
290
     0
  0
SCALE
  5
CF2
102
{ACAD_REACTORS
330
CE6
102
}
330
CE6
100
AcDbScale
 70
     0
300
1:100
140
1.0
141
100.0
290
     0
  0
SCALE
  5
CF3
102
{ACAD_REACTORS
330
CE6
102
}
330
CE6
100
AcDbScale
 70
     0
300
2:1
140
2.0
141
1.0
290
     0
  0
SCALE
  5
CF4
102
{ACAD_REACTORS
330
CE6
102
}
330
CE6
100
AcDbScale
 70
     0
300
4:1
140
4.0
141
1.0
290
     0
  0
SCALE
  5
CF5
102
{ACAD_REACTORS
330
CE6
102
}
330
CE6
100
AcDbScale
 70
     0
300
8:1
140
8.0
141
1.0
290
     0
  0
SCALE
  5
CF6
102
{ACAD_REACTORS
330
CE6
102
}
330
CE6
100
AcDbScale
 70
     0
300
10:1
140
10.0
141
1.0
290
     0
  0
SCALE
  5
CF7
102
{ACAD_REACTORS
330
CE6
102
}
330
CE6
100
AcDbScale
 70
     0
300
100:1
140
100.0
141
1.0
290
     0
  0
SCALE
  5
CF8
102
{ACAD_REACTORS
330
CE6
102
}
330
CE6
100
AcDbScale
 70
     0
300
1/128" = 1'-0"
140
0.0078125
141
12.0
290
     0
  0
SCALE
  5
CF9
102
{ACAD_REACTORS
330
CE6
102
}
330
CE6
100
AcDbScale
 70
     0
300
1/64" = 1'-0"
140
0.015625
141
12.0
290
     0
  0
SCALE
  5
CFA
102
{ACAD_REACTORS
330
CE6
102
}
330
CE6
100
AcDbScale
 70
     0
300
1/32" = 1'-0"
140
0.03125
141
12.0
290
     0
  0
SCALE
  5
CFB
102
{ACAD_REACTORS
330
CE6
102
}
330
CE6
100
AcDbScale
 70
     0
300
1/16" = 1'-0"
140
0.0625
141
12.0
290
     0
  0
SCALE
  5
CFC
102
{ACAD_REACTORS
330
CE6
102
}
330
CE6
100
AcDbScale
 70
     0
300
3/32" = 1'-0"
140
0.09375
141
12.0
290
     0
  0
SCALE
  5
CFD
102
{ACAD_REACTORS
330
CE6
102
}
330
CE6
100
AcDbScale
 70
     0
300
1/8" = 1'-0"
140
0.125
141
12.0
290
     0
  0
SCALE
  5
CFE
102
{ACAD_REACTORS
330
CE6
102
}
330
CE6
100
AcDbScale
 70
     0
300
3/16" = 1'-0"
140
0.1875
141
12.0
290
     0
  0
SCALE
  5
CFF
102
{ACAD_REACTORS
330
CE6
102
}
330
CE6
100
AcDbScale
 70
     0
300
1/4" = 1'-0"
140
0.25
141
12.0
290
     0
  0
SCALE
  5
D00
102
{ACAD_REACTORS
330
CE6
102
}
330
CE6
100
AcDbScale
 70
     0
300
3/8" = 1'-0"
140
0.375
141
12.0
290
     0
  0
SCALE
  5
D01
102
{ACAD_REACTORS
330
CE6
102
}
330
CE6
100
AcDbScale
 70
     0
300
1/2" = 1'-0"
140
0.5
141
12.0
290
     0
  0
SCALE
  5
D02
102
{ACAD_REACTORS
330
CE6
102
}
330
CE6
100
AcDbScale
 70
     0
300
3/4" = 1'-0"
140
0.75
141
12.0
290
     0
  0
SCALE
  5
D03
102
{ACAD_REACTORS
330
CE6
102
}
330
CE6
100
AcDbScale
 70
     0
300
1" = 1'-0"
140
1.0
141
12.0
290
     0
  0
SCALE
  5
D04
102
{ACAD_REACTORS
330
CE6
102
}
330
CE6
100
AcDbScale
 70
     0
300
1-1/2" = 1'-0"
140
1.5
141
12.0
290
     0
  0
SCALE
  5
D05
102
{ACAD_REACTORS
330
CE6
102
}
330
CE6
100
AcDbScale
 70
     0
300
3" = 1'-0"
140
3.0
141
12.0
290
     0
  0
SCALE
  5
D06
102
{ACAD_REACTORS
330
CE6
102
}
330
CE6
100
AcDbScale
 70
     0
300
6" = 1'-0"
140
6.0
141
12.0
290
     0
  0
SCALE
  5
D07
102
{ACAD_REACTORS
330
CE6
102
}
330
CE6
100
AcDbScale
 70
     0
300
1'-0" = 1'-0"
140
12.0
141
12.0
290
     0
  0
TABLESTYLE
  5
D0C
102
{ACAD_REACTORS
330
D0B
102
}
102
{ACAD_XDICTIONARY
360
D8D
102
}
330
D0B
100
AcDbTableStyle
  3
Standard
 70
     0
 71
     0
 40
0.06
 41
0.06
280
     0
281
     0
  7
Standard
140
4.5
170
     2
 62
     0
 63
   257
283
     0
 90
        4
 91
        0
  1

274
    -2
284
     1
 64
     0
275
    -2
285
     1
 65
     0
276
    -2
286
     1
 66
     0
277
    -2
287
     1
 67
     0
278
    -2
288
     1
 68
     0
279
    -2
289
     1
 69
     0
  7
Standard
140
6.0
170
     5
 62
     0
 63
   257
283
     0
 90
        4
 91
        0
  1

274
    -2
284
     1
 64
     0
275
    -2
285
     1
 65
     0
276
    -2
286
     1
 66
     0
277
    -2
287
     1
 67
     0
278
    -2
288
     1
 68
     0
279
    -2
289
     1
 69
     0
  7
Standard
140
4.5
170
     5
 62
     0
 63
   257
283
     0
 90
        4
 91
        0
  1

274
    -2
284
     1
 64
     0
275
    -2
285
     1
 65
     0
276
    -2
286
     1
 66
     0
277
    -2
287
     1
 67
     0
278
    -2
288
     1
 68
     0
279
    -2
289
     1
 69
     0
  0
VISUALSTYLE
  5
CD2
102
{ACAD_REACTORS
330
CCD
102
}
330
CCD
100
AcDbVisualStyle
  2
2dWireframe
 70
     4
177
     3
291
     0
 70
    58
 90
        0
176
     1
 90
        2
176
     1
 90
        0
176
     1
 90
        0
176
     1
 40
0.6
176
     1
 40
30.0
176
     1
 62
     7
420
 16777215
176
     1
 90
        1
176
     1
 90
        4
176
     1
 62
     7
176
     1
 62
   257
176
     1
 90
        1
176
     1
 90
        1
176
     1
 40
1.0
176
     1
 90
        0
176
     1
 62
   257
176
     1
 40
1.0
176
     1
 90
        1
176
     1
 90
        6
176
     1
 90
        2
176
     1
 62
     7
176
     1
 90
        5
176
     1
 90
        0
176
     1
 90
        0
176
     1
290
     0
176
     1
 90
        1
176
     1
 40
0.0
176
     1
 90
        0
176
     1
290
     1
176
     1
290
     1
176
     1
290
     0
176
     1
290
     0
176
     1
290
     0
176
     1
290
     0
176
     1
290
     0
176
     1
290
     0
176
     1
290
     0
176
     1
 90
       50
176
     1
 40
0.0
176
     1
 40
1.0
176
     1
 90
        0
176
     1
 62
    18
420
        0
176
     1
 90
       50
176
     1
 90
        3
176
     1
 62
     5
420
      255
176
     1
290
     0
176
     1
 90
       50
176
     1
 90
       50
176
     1
 90
       50
176
     1
290
     0
176
     1
 90
       50
176
     1
 62
   256
176
     0
 40
1.0
176
     0
 90
        2
176
     1
  1
strokes_ogs.tif
176
     1
290
     0
176
     1
 40
1.0
176
     1
 40
1.0
176
     1
  0
VISUALSTYLE
  5
CD5
102
{ACAD_REACTORS
330
CCD
102
}
330
CCD
100
AcDbVisualStyle
  2
Basic
 70
     7
177
     3
291
     1
 70
    58
 90
        1
176
     1
 90
        0
176
     1
 90
        1
176
     1
 90
        0
176
     1
 40
0.6
176
     1
 40
30.0
176
     1
 62
     7
420
 16777215
176
     1
 90
        0
176
     1
 90
        4
176
     1
 62
     7
176
     1
 62
   257
176
     1
 90
        1
176
     1
 90
        1
176
     1
 40
1.0
176
     1
 90
        8
176
     1
 62
     7
176
     1
 40
1.0
176
     1
 90
        1
176
     1
 90
        6
176
     1
 90
        2
176
     1
 62
     7
176
     1
 90
        5
176
     1
 90
        0
176
     1
 90
        0
176
     1
290
     0
176
     1
 90
        1
176
     1
 40
0.0
176
     1
 90
        0
176
     1
290
     0
176
     1
290
     1
176
     1
290
     1
176
     1
290
     0
176
     1
290
     0
176
     1
290
     0
176
     1
290
     0
176
     1
290
     0
176
     1
290
     0
176
     1
 90
       50
176
     1
 40
0.0
176
     1
 40
1.0
176
     1
 90
        0
176
     1
 62
    18
420
        0
176
     1
 90
       50
176
     1
 90
        3
176
     1
 62
     5
420
      255
176
     1
290
     0
176
     1
 90
       50
176
     1
 90
       50
176
     1
 90
       50
176
     1
290
     0
176
     1
 90
       50
176
     1
 62
   256
176
     0
 40
1.0
176
     0
 90
        2
176
     1
  1
strokes_ogs.tif
176
     1
290
     0
176
     1
 40
1.0
176
     1
 40
1.0
176
     1
  0
VISUALSTYLE
  5
CD9
102
{ACAD_REACTORS
330
CCD
102
}
330
CCD
100
AcDbVisualStyle
  2
Brighten
 70
    12
177
     3
291
     1
 70
    58
 90
        2
176
     1
 90
        2
176
     1
 90
        0
176
     1
 90
        0
176
     1
 40
0.6
176
     1
 40
30.0
176
     1
 62
     7
420
 16777215
176
     1
 90
        1
176
     1
 90
        4
176
     1
 62
     7
176
     1
 62
   257
176
     1
 90
        1
176
     1
 90
        1
176
     1
 40
1.0
176
     1
 90
        8
176
     1
 62
     7
176
     1
 40
1.0
176
     1
 90
        1
176
     1
 90
        6
176
     1
 90
        2
176
     1
 62
     7
176
     1
 90
        5
176
     1
 90
        0
176
     1
 90
        0
176
     1
290
     0
176
     1
 90
        1
176
     1
 40
50.0
176
     1
 90
        0
176
     1
290
     0
176
     1
290
     1
176
     1
290
     1
176
     1
290
     0
176
     1
290
     0
176
     1
290
     0
176
     1
290
     0
176
     1
290
     0
176
     1
290
     0
176
     1
 90
       50
176
     1
 40
0.0
176
     1
 40
1.0
176
     1
 90
        0
176
     1
 62
    18
420
        0
176
     1
 90
       50
176
     1
 90
        3
176
     1
 62
     5
420
      255
176
     1
290
     0
176
     1
 90
       50
176
     1
 90
       50
176
     1
 90
       50
176
     1
290
     0
176
     1
 90
       50
176
     1
 62
   256
176
     0
 40
1.0
176
     0
 90
        2
176
     1
  1
strokes_ogs.tif
176
     1
290
     0
176
     1
 40
1.0
176
     1
 40
1.0
176
     1
  0
VISUALSTYLE
  5
CDD
102
{ACAD_REACTORS
330
CCD
102
}
330
CCD
100
AcDbVisualStyle
  2
ColorChange
 70
    16
177
     3
291
     1
 70
    58
 90
        2
176
     1
 90
        2
176
     1
 90
        3
176
     1
 90
        0
176
     1
 40
0.6
176
     1
 40
30.0
176
     1
 62
     8
420
  8421504
176
     1
 90
        1
176
     1
 90
        4
176
     1
 62
     7
176
     1
 62
   257
176
     1
 90
        1
176
     1
 90
        1
176
     1
 40
1.0
176
     1
 90
        8
176
     1
 62
     8
420
  8421504
176
     1
 40
1.0
176
     1
 90
        1
176
     1
 90
        6
176
     1
 90
        2
176
     1
 62
     7
176
     1
 90
        5
176
     1
 90
        0
176
     1
 90
        0
176
     1
290
     0
176
     1
 90
        1
176
     1
 40
0.0
176
     1
 90
        0
176
     1
290
     0
176
     1
290
     1
176
     1
290
     1
176
     1
290
     0
176
     1
290
     0
176
     1
290
     0
176
     1
290
     0
176
     1
290
     0
176
     1
290
     0
176
     1
 90
       50
176
     1
 40
0.0
176
     1
 40
1.0
176
     1
 90
        0
176
     1
 62
    18
420
        0
176
     1
 90
       50
176
     1
 90
        3
176
     1
 62
     5
420
      255
176
     1
290
     0
176
     1
 90
       50
176
     1
 90
       50
176
     1
 90
       50
176
     1
290
     0
176
     1
 90
       50
176
     1
 62
   256
176
     0
 40
1.0
176
     0
 90
        2
176
     1
  1
strokes_ogs.tif
176
     1
290
     0
176
     1
 40
1.0
176
     1
 40
1.0
176
     1
  0
VISUALSTYLE
  5
CD7
102
{ACAD_REACTORS
330
CCD
102
}
330
CCD
100
AcDbVisualStyle
  2
Conceptual
 70
     9
177
     3
291
     0
 70
    58
 90
        3
176
     1
 90
        2
176
     1
 90
        0
176
     1
 90
        0
176
     1
 40
0.6
176
     1
 40
30.0
176
     1
 62
     7
420
 16777215
176
     1
 90
        2
176
     1
 90
        2
176
     1
 62
     7
176
     1
 62
   257
176
     1
 90
        1
176
     1
 90
        1
176
     1
 40
179.0
176
     1
 90
        8
176
     1
 62
     7
176
     1
 40
1.0
176
     1
 90
        1
176
     1
 90
        6
176
     1
 90
        2
176
     1
 62
     7
176
     1
 90
        3
176
     1
 90
        0
176
     1
 90
        0
176
     1
290
     0
176
     1
 90
        1
176
     1
 40
0.0
176
     1
 90
        0
176
     1
290
     0
176
     1
290
     1
176
     1
290
     1
176
     1
290
     0
176
     1
290
     0
176
     1
290
     0
176
     1
290
     0
176
     1
290
     0
176
     1
290
     0
176
     1
 90
       50
176
     1
 40
0.0
176
     1
 40
1.0
176
     1
 90
        0
176
     1
 62
    18
420
        0
176
     1
 90
       50
176
     1
 90
        3
176
     1
 62
     5
420
      255
176
     1
290
     0
176
     1
 90
       50
176
     1
 90
       50
176
     1
 90
       50
176
     1
290
     0
176
     1
 90
       50
176
     1
 62
   256
176
     0
 40
1.0
176
     0
 90
        2
176
     1
  1
strokes_ogs.tif
176
     1
290
     0
176
     1
 40
1.0
176
     1
 40
1.0
176
     1
  0
VISUALSTYLE
  5
CD8
102
{ACAD_REACTORS
330
CCD
102
}
330
CCD
100
AcDbVisualStyle
  2
Dim
 70
    11
177
     3
291
     1
 70
    58
 90
        2
176
     1
 90
        2
176
     1
 90
        0
176
     1
 90
        0
176
     1
 40
0.6
176
     1
 40
30.0
176
     1
 62
     7
420
 16777215
176
     1
 90
        1
176
     1
 90
        4
176
     1
 62
     7
176
     1
 62
   257
176
     1
 90
        1
176
     1
 90
        1
176
     1
 40
1.0
176
     1
 90
        8
176
     1
 62
     7
176
     1
 40
1.0
176
     1
 90
        1
176
     1
 90
        6
176
     1
 90
        2
176
     1
 62
     7
176
     1
 90
        5
176
     1
 90
        0
176
     1
 90
        0
176
     1
290
     0
176
     1
 90
        1
176
     1
 40
-50.0
176
     1
 90
        0
176
     1
290
     0
176
     1
290
     1
176
     1
290
     1
176
     1
290
     0
176
     1
290
     0
176
     1
290
     0
176
     1
290
     0
176
     1
290
     0
176
     1
290
     0
176
     1
 90
       50
176
     1
 40
0.0
176
     1
 40
1.0
176
     1
 90
        0
176
     1
 62
    18
420
        0
176
     1
 90
       50
176
     1
 90
        3
176
     1
 62
     5
420
      255
176
     1
290
     0
176
     1
 90
       50
176
     1
 90
       50
176
     1
 90
       50
176
     1
290
     0
176
     1
 90
       50
176
     1
 62
   256
176
     0
 40
1.0
176
     0
 90
        2
176
     1
  1
strokes_ogs.tif
176
     1
290
     0
176
     1
 40
1.0
176
     1
 40
1.0
176
     1
  0
VISUALSTYLE
  5
CE0
102
{ACAD_REACTORS
330
CCD
102
}
330
CCD
100
AcDbVisualStyle
  2
EdgeColorOff
 70
    22
177
     3
291
     1
 70
    58
 90
        2
176
     0
 90
        2
176
     0
 90
        0
176
     0
 90
        0
176
     0
 40
0.6
176
     0
 40
30.0
176
     0
 62
     7
420
 16777215
176
     0
 90
        1
176
     0
 90
        4
176
     0
 62
     7
176
     0
 62
   257
176
     0
 90
        1
176
     0
 90
        1
176
     0
 40
1.0
176
     0
 90
        8
176
     2
 62
     7
176
     0
 40
1.0
176
     0
 90
        1
176
     0
 90
        6
176
     0
 90
        2
176
     0
 62
     7
176
     0
 90
        5
176
     0
 90
        0
176
     0
 90
        0
176
     0
290
     0
176
     0
 90
        1
176
     0
 40
0.0
176
     0
 90
        0
176
     0
290
     0
176
     0
290
     1
176
     0
290
     1
176
     0
290
     0
176
     0
290
     0
176
     0
290
     0
176
     0
290
     0
176
     0
290
     0
176
     0
290
     0
176
     0
 90
       50
176
     0
 40
0.0
176
     0
 40
1.0
176
     0
 90
        0
176
     0
 62
    18
420
        0
176
     0
 90
       50
176
     0
 90
        3
176
     0
 62
     5
420
      255
176
     0
290
     0
176
     0
 90
       50
176
     0
 90
       50
176
     0
 90
       50
176
     0
290
     0
176
     0
 90
       50
176
     0
 62
   256
176
     0
 40
1.0
176
     0
 90
        2
176
     0
  1
strokes_ogs.tif
176
     0
290
     0
176
     0
 40
1.0
176
     0
 40
1.0
176
     0
  0
VISUALSTYLE
  5
CDC
102
{ACAD_REACTORS
330
CCD
102
}
330
CCD
100
AcDbVisualStyle
  2
Facepattern
 70
    15
177
     3
291
     1
 70
    58
 90
        2
176
     1
 90
        2
176
     1
 90
        0
176
     1
 90
        0
176
     1
 40
0.6
176
     1
 40
30.0
176
     1
 62
     7
420
 16777215
176
     1
 90
        1
176
     1
 90
        4
176
     1
 62
     7
176
     1
 62
   257
176
     1
 90
        1
176
     1
 90
        1
176
     1
 40
1.0
176
     1
 90
        8
176
     1
 62
     7
176
     1
 40
1.0
176
     1
 90
        1
176
     1
 90
        6
176
     1
 90
        2
176
     1
 62
     7
176
     1
 90
        5
176
     1
 90
        0
176
     1
 90
        0
176
     1
290
     0
176
     1
 90
        1
176
     1
 40
0.0
176
     1
 90
        0
176
     1
290
     0
176
     1
290
     1
176
     1
290
     1
176
     1
290
     0
176
     1
290
     0
176
     1
290
     0
176
     1
290
     0
176
     1
290
     0
176
     1
290
     0
176
     1
 90
       50
176
     1
 40
0.0
176
     1
 40
1.0
176
     1
 90
        0
176
     1
 62
    18
420
        0
176
     1
 90
       50
176
     1
 90
        3
176
     1
 62
     5
420
      255
176
     1
290
     0
176
     1
 90
       50
176
     1
 90
       50
176
     1
 90
       50
176
     1
290
     0
176
     1
 90
       50
176
     1
 62
   256
176
     0
 40
1.0
176
     0
 90
        2
176
     1
  1
strokes_ogs.tif
176
     1
290
     0
176
     1
 40
1.0
176
     1
 40
1.0
176
     1
  0
VISUALSTYLE
  5
CCE
102
{ACAD_REACTORS
330
CCD
102
}
330
CCD
100
AcDbVisualStyle
  2
Flat
 70
     0
177
     3
291
     1
 70
    58
 90
        2
176
     1
 90
        1
176
     1
 90
        1
176
     1
 90
        2
176
     1
 40
0.6
176
     1
 40
30.0
176
     1
 62
     7
420
 16777215
176
     1
 90
        0
176
     1
 90
        0
176
     1
 62
     7
176
     1
 62
   257
176
     1
 90
        1
176
     1
 90
        1
176
     1
 40
1.0
176
     1
 90
        8
176
     1
 62
     7
176
     1
 40
1.0
176
     1
 90
        1
176
     1
 90
        6
176
     1
 90
        2
176
     1
 62
     7
176
     1
 90
        5
176
     1
 90
        0
176
     1
 90
        0
176
     1
290
     0
176
     1
 90
       13
176
     1
 40
0.0
176
     1
 90
        0
176
     1
290
     0
176
     1
290
     1
176
     1
290
     1
176
     1
290
     0
176
     1
290
     0
176
     1
290
     0
176
     1
290
     0
176
     1
290
     0
176
     1
290
     0
176
     1
 90
       50
176
     1
 40
0.0
176
     1
 40
1.0
176
     1
 90
        0
176
     1
 62
    18
420
        0
176
     1
 90
       50
176
     1
 90
        3
176
     1
 62
     5
420
      255
176
     1
290
     0
176
     1
 90
       50
176
     1
 90
       50
176
     1
 90
       50
176
     1
290
     0
176
     1
 90
       50
176
     1
 62
   256
176
     0
 40
1.0
176
     0
 90
        2
176
     1
  1
strokes_ogs.tif
176
     1
290
     0
176
     1
 40
1.0
176
     1
 40
1.0
176
     1
  0
VISUALSTYLE
  5
CCF
102
{ACAD_REACTORS
330
CCD
102
}
330
CCD
100
AcDbVisualStyle
  2
FlatWithEdges
 70
     1
177
     3
291
     1
 70
    58
 90
        2
176
     1
 90
        1
176
     1
 90
        1
176
     1
 90
        2
176
     1
 40
0.6
176
     1
 40
30.0
176
     1
 62
     7
420
 16777215
176
     1
 90
        1
176
     1
 90
        0
176
     1
 62
     7
176
     1
 62
   257
176
     1
 90
        1
176
     1
 90
        1
176
     1
 40
1.0
176
     1
 90
        0
176
     1
 62
   257
176
     1
 40
1.0
176
     1
 90
        1
176
     1
 90
        6
176
     1
 90
        2
176
     1
 62
     7
176
     1
 90
        5
176
     1
 90
        0
176
     1
 90
        0
176
     1
290
     0
176
     1
 90
       13
176
     1
 40
0.0
176
     1
 90
        0
176
     1
290
     0
176
     1
290
     1
176
     1
290
     1
176
     1
290
     0
176
     1
290
     0
176
     1
290
     0
176
     1
290
     0
176
     1
290
     0
176
     1
290
     0
176
     1
 90
       50
176
     1
 40
0.0
176
     1
 40
1.0
176
     1
 90
        0
176
     1
 62
    18
420
        0
176
     1
 90
       50
176
     1
 90
        3
176
     1
 62
     5
420
      255
176
     1
290
     0
176
     1
 90
       50
176
     1
 90
       50
176
     1
 90
       50
176
     1
290
     0
176
     1
 90
       50
176
     1
 62
   256
176
     0
 40
1.0
176
     0
 90
        2
176
     1
  1
strokes_ogs.tif
176
     1
290
     0
176
     1
 40
1.0
176
     1
 40
1.0
176
     1
  0
VISUALSTYLE
  5
CD0
102
{ACAD_REACTORS
330
CCD
102
}
330
CCD
100
AcDbVisualStyle
  2
Gouraud
 70
     2
177
     3
291
     1
 70
    58
 90
        2
176
     1
 90
        2
176
     1
 90
        1
176
     1
 90
        2
176
     1
 40
0.6
176
     1
 40
30.0
176
     1
 62
     7
420
 16777215
176
     1
 90
        0
176
     1
 90
        0
176
     1
 62
     7
176
     1
 62
   257
176
     1
 90
        1
176
     1
 90
        1
176
     1
 40
1.0
176
     1
 90
        0
176
     1
 62
     7
176
     1
 40
1.0
176
     1
 90
        1
176
     1
 90
        6
176
     1
 90
        2
176
     1
 62
     7
176
     1
 90
        5
176
     1
 90
        0
176
     1
 90
        0
176
     1
290
     0
176
     1
 90
       13
176
     1
 40
0.0
176
     1
 90
        0
176
     1
290
     0
176
     1
290
     1
176
     1
290
     1
176
     1
290
     0
176
     1
290
     0
176
     1
290
     0
176
     1
290
     0
176
     1
290
     0
176
     1
290
     0
176
     1
 90
       50
176
     1
 40
0.0
176
     1
 40
1.0
176
     1
 90
        0
176
     1
 62
    18
420
        0
176
     1
 90
       50
176
     1
 90
        3
176
     1
 62
     5
420
      255
176
     1
290
     0
176
     1
 90
       50
176
     1
 90
       50
176
     1
 90
       50
176
     1
290
     0
176
     1
 90
       50
176
     1
 62
   256
176
     0
 40
1.0
176
     0
 90
        2
176
     1
  1
strokes_ogs.tif
176
     1
290
     0
176
     1
 40
1.0
176
     1
 40
1.0
176
     1
  0
VISUALSTYLE
  5
CD1
102
{ACAD_REACTORS
330
CCD
102
}
330
CCD
100
AcDbVisualStyle
  2
GouraudWithEdges
 70
     3
177
     3
291
     1
 70
    58
 90
        2
176
     1
 90
        2
176
     1
 90
        1
176
     1
 90
        2
176
     1
 40
0.6
176
     1
 40
30.0
176
     1
 62
     7
420
 16777215
176
     1
 90
        1
176
     1
 90
        0
176
     1
 62
     7
176
     1
 62
   257
176
     1
 90
        1
176
     1
 90
        1
176
     1
 40
1.0
176
     1
 90
        0
176
     1
 62
   257
176
     1
 40
1.0
176
     1
 90
        1
176
     1
 90
        6
176
     1
 90
        2
176
     1
 62
     7
176
     1
 90
        5
176
     1
 90
        0
176
     1
 90
        0
176
     1
290
     0
176
     1
 90
       13
176
     1
 40
0.0
176
     1
 90
        0
176
     1
290
     0
176
     1
290
     1
176
     1
290
     1
176
     1
290
     0
176
     1
290
     0
176
     1
290
     0
176
     1
290
     0
176
     1
290
     0
176
     1
290
     0
176
     1
 90
       50
176
     1
 40
0.0
176
     1
 40
1.0
176
     1
 90
        0
176
     1
 62
    18
420
        0
176
     1
 90
       50
176
     1
 90
        3
176
     1
 62
     5
420
      255
176
     1
290
     0
176
     1
 90
       50
176
     1
 90
       50
176
     1
 90
       50
176
     1
290
     0
176
     1
 90
       50
176
     1
 62
   256
176
     0
 40
1.0
176
     0
 90
        2
176
     1
  1
strokes_ogs.tif
176
     1
290
     0
176
     1
 40
1.0
176
     1
 40
1.0
176
     1
  0
VISUALSTYLE
  5
CD4
102
{ACAD_REACTORS
330
CCD
102
}
330
CCD
100
AcDbVisualStyle
  2
Hidden
 70
     6
177
     3
291
     0
 70
    58
 90
        1
176
     1
 90
        2
176
     1
 90
        2
176
     1
 90
        0
176
     1
 40
0.6
176
     1
 40
30.0
176
     1
 62
     7
420
 16777215
176
     1
 90
        2
176
     1
 90
        2
176
     1
 62
     7
176
     1
 62
   257
176
     1
 90
        2
176
     1
 90
        1
176
     1
 40
40.0
176
     1
 90
        0
176
     1
 62
   257
176
     1
 40
1.0
176
     1
 90
        1
176
     1
 90
        6
176
     1
 90
        2
176
     1
 62
     7
176
     1
 90
        3
176
     1
 90
        0
176
     1
 90
        0
176
     1
290
     0
176
     1
 90
        1
176
     1
 40
0.0
176
     1
 90
        0
176
     1
290
     0
176
     1
290
     1
176
     1
290
     1
176
     1
290
     0
176
     1
290
     0
176
     1
290
     0
176
     1
290
     0
176
     1
290
     0
176
     1
290
     0
176
     1
 90
       50
176
     1
 40
0.0
176
     1
 40
1.0
176
     1
 90
        0
176
     1
 62
    18
420
        0
176
     1
 90
       50
176
     1
 90
        3
176
     1
 62
     5
420
      255
176
     1
290
     0
176
     1
 90
       50
176
     1
 90
       50
176
     1
 90
       50
176
     1
290
     0
176
     1
 90
       50
176
     1
 62
   256
176
     0
 40
1.0
176
     0
 90
        2
176
     1
  1
strokes_ogs.tif
176
     1
290
     0
176
     1
 40
1.0
176
     1
 40
1.0
176
     1
  0
VISUALSTYLE
  5
CDE
102
{ACAD_REACTORS
330
CCD
102
}
330
CCD
100
AcDbVisualStyle
  2
JitterOff
 70
    20
177
     3
291
     1
 70
    58
 90
        2
176
     0
 90
        2
176
     0
 90
        0
176
     0
 90
        0
176
     0
 40
0.6
176
     0
 40
30.0
176
     0
 62
     7
420
 16777215
176
     0
 90
        1
176
     0
 90
        4
176
     0
 62
     7
176
     0
 62
   257
176
     0
 90
        1
176
     0
 90
        1
176
     0
 40
1.0
176
     0
 90
       10
176
     2
 62
     7
176
     0
 40
1.0
176
     0
 90
        1
176
     0
 90
        6
176
     0
 90
        2
176
     0
 62
     7
176
     0
 90
        5
176
     0
 90
        0
176
     0
 90
        0
176
     0
290
     0
176
     0
 90
        1
176
     0
 40
0.0
176
     0
 90
        0
176
     0
290
     0
176
     0
290
     1
176
     0
290
     1
176
     0
290
     0
176
     0
290
     0
176
     0
290
     0
176
     0
290
     0
176
     0
290
     0
176
     0
290
     0
176
     0
 90
       50
176
     0
 40
0.0
176
     0
 40
1.0
176
     0
 90
        0
176
     0
 62
    18
420
        0
176
     0
 90
       50
176
     0
 90
        3
176
     0
 62
     5
420
      255
176
     0
290
     0
176
     0
 90
       50
176
     0
 90
       50
176
     0
 90
       50
176
     0
290
     0
176
     0
 90
       50
176
     0
 62
   256
176
     0
 40
1.0
176
     0
 90
        2
176
     0
  1
strokes_ogs.tif
176
     0
290
     0
176
     0
 40
1.0
176
     0
 40
1.0
176
     0
  0
VISUALSTYLE
  5
CDB
102
{ACAD_REACTORS
330
CCD
102
}
330
CCD
100
AcDbVisualStyle
  2
Linepattern
 70
    14
177
     3
291
     1
 70
    58
 90
        2
176
     1
 90
        2
176
     1
 90
        0
176
     1
 90
        0
176
     1
 40
0.6
176
     1
 40
30.0
176
     1
 62
     7
420
 16777215
176
     1
 90
        1
176
     1
 90
        4
176
     1
 62
     7
176
     1
 62
   257
176
     1
 90
        7
176
     1
 90
        7
176
     1
 40
1.0
176
     1
 90
        8
176
     1
 62
     7
176
     1
 40
1.0
176
     1
 90
        1
176
     1
 90
        6
176
     1
 90
        2
176
     1
 62
     7
176
     1
 90
        5
176
     1
 90
        0
176
     1
 90
        0
176
     1
290
     0
176
     1
 90
        1
176
     1
 40
0.0
176
     1
 90
        0
176
     1
290
     0
176
     1
290
     1
176
     1
290
     1
176
     1
290
     0
176
     1
290
     0
176
     1
290
     0
176
     1
290
     0
176
     1
290
     0
176
     1
290
     0
176
     1
 90
       50
176
     1
 40
0.0
176
     1
 40
1.0
176
     1
 90
        0
176
     1
 62
    18
420
        0
176
     1
 90
       50
176
     1
 90
        3
176
     1
 62
     5
420
      255
176
     1
290
     0
176
     1
 90
       50
176
     1
 90
       50
176
     1
 90
       50
176
     1
290
     0
176
     1
 90
       50
176
     1
 62
   256
176
     0
 40
1.0
176
     0
 90
        2
176
     1
  1
strokes_ogs.tif
176
     1
290
     0
176
     1
 40
1.0
176
     1
 40
1.0
176
     1
  0
VISUALSTYLE
  5
CDF
102
{ACAD_REACTORS
330
CCD
102
}
330
CCD
100
AcDbVisualStyle
  2
OverhangOff
 70
    21
177
     3
291
     1
 70
    58
 90
        2
176
     0
 90
        2
176
     0
 90
        0
176
     0
 90
        0
176
     0
 40
0.6
176
     0
 40
30.0
176
     0
 62
     7
420
 16777215
176
     0
 90
        1
176
     0
 90
        4
176
     0
 62
     7
176
     0
 62
   257
176
     0
 90
        1
176
     0
 90
        1
176
     0
 40
1.0
176
     0
 90
        9
176
     2
 62
     7
176
     0
 40
1.0
176
     0
 90
        1
176
     0
 90
        6
176
     0
 90
        2
176
     0
 62
     7
176
     0
 90
        5
176
     0
 90
        0
176
     0
 90
        0
176
     0
290
     0
176
     0
 90
        1
176
     0
 40
0.0
176
     0
 90
        0
176
     0
290
     0
176
     0
290
     1
176
     0
290
     1
176
     0
290
     0
176
     0
290
     0
176
     0
290
     0
176
     0
290
     0
176
     0
290
     0
176
     0
290
     0
176
     0
 90
       50
176
     0
 40
0.0
176
     0
 40
1.0
176
     0
 90
        0
176
     0
 62
    18
420
        0
176
     0
 90
       50
176
     0
 90
        3
176
     0
 62
     5
420
      255
176
     0
290
     0
176
     0
 90
       50
176
     0
 90
       50
176
     0
 90
       50
176
     0
290
     0
176
     0
 90
       50
176
     0
 62
   256
176
     0
 40
1.0
176
     0
 90
        2
176
     0
  1
strokes_ogs.tif
176
     0
290
     0
176
     0
 40
1.0
176
     0
 40
1.0
176
     0
  0
VISUALSTYLE
  5
CD6
102
{ACAD_REACTORS
330
CCD
102
}
330
CCD
100
AcDbVisualStyle
  2
Realistic
 70
     8
177
     3
291
     0
 70
    58
 90
        2
176
     1
 90
        3
176
     1
 90
        0
176
     1
 90
        2
176
     1
 40
0.6
176
     1
 40
30.0
176
     1
 62
     7
420
 16777215
176
     1
 90
        0
176
     1
 90
        0
176
     1
 62
     7
176
     1
 62
   257
176
     1
 90
        1
176
     1
 90
        1
176
     1
 40
1.0
176
     1
 90
        8
176
     1
 62
   257
176
     1
 40
1.0
176
     1
 90
        1
176
     1
 90
        6
176
     1
 90
        2
176
     1
 62
     7
176
     1
 90
        3
176
     1
 90
        0
176
     1
 90
        0
176
     1
290
     0
176
     1
 90
       13
176
     1
 40
0.0
176
     1
 90
        0
176
     1
290
     0
176
     1
290
     1
176
     1
290
     1
176
     1
290
     0
176
     1
290
     0
176
     1
290
     0
176
     1
290
     0
176
     1
290
     0
176
     1
290
     0
176
     1
 90
       50
176
     1
 40
0.0
176
     1
 40
1.0
176
     1
 90
        0
176
     1
 62
    18
420
        0
176
     1
 90
       50
176
     1
 90
        3
176
     1
 62
     5
420
      255
176
     1
290
     0
176
     1
 90
       50
176
     1
 90
       50
176
     1
 90
       50
176
     1
290
     0
176
     1
 90
       50
176
     1
 62
   256
176
     0
 40
1.0
176
     0
 90
        2
176
     1
  1
strokes_ogs.tif
176
     1
290
     0
176
     1
 40
1.0
176
     1
 40
1.0
176
     1
  0
VISUALSTYLE
  5
CE5
102
{ACAD_REACTORS
330
CCD
102
}
330
CCD
100
AcDbVisualStyle
  2
Shaded
 70
    27
177
     3
291
     0
 70
    58
 90
        2
176
     1
 90
        2
176
     1
 90
        1
176
     1
 90
        2
176
     1
 40
0.6
176
     1
 40
30.0
176
     1
 62
     7
420
 16777215
176
     1
 90
        0
176
     1
 90
        4
176
     1
 62
     7
176
     1
 62
   257
176
     1
 90
        1
176
     1
 90
        1
176
     1
 40
1.0
176
     1
 90
        8
176
     1
 62
   257
176
     1
 40
1.0
176
     1
 90
        1
176
     1
 90
        6
176
     1
 90
        2
176
     1
 62
     8
420
  7895160
176
     1
 90
        3
176
     1
 90
        0
176
     1
 90
        0
176
     1
290
     0
176
     1
 90
        5
176
     1
 40
0.0
176
     1
 90
        0
176
     1
290
     0
176
     1
290
     1
176
     1
290
     1
176
     1
290
     0
176
     1
290
     0
176
     1
290
     0
176
     1
290
     0
176
     1
290
     0
176
     1
290
     0
176
     1
 90
       50
176
     1
 40
0.0
176
     1
 40
1.0
176
     1
 90
        0
176
     1
 62
    18
420
        0
176
     1
 90
       50
176
     1
 90
        3
176
     1
 62
     5
420
      255
176
     1
290
     0
176
     1
 90
       50
176
     1
 90
       50
176
     1
 90
       50
176
     1
290
     0
176
     1
 90
       50
176
     1
 62
   256
176
     0
 40
1.0
176
     0
 90
        2
176
     1
  1
strokes_ogs.tif
176
     1
290
     0
176
     1
 40
1.0
176
     1
 40
1.0
176
     1
  0
VISUALSTYLE
  5
CE4
102
{ACAD_REACTORS
330
CCD
102
}
330
CCD
100
AcDbVisualStyle
  2
Shaded with edges
 70
    26
177
     3
291
     0
 70
    58
 90
        2
176
     1
 90
        2
176
     1
 90
        1
176
     1
 90
        2
176
     1
 40
0.6
176
     1
 40
30.0
176
     1
 62
     7
420
 16777215
176
     1
 90
        1
176
     1
 90
       10
176
     1
 62
     7
176
     1
 62
   257
176
     1
 90
        2
176
     1
 90
        1
176
     1
 40
1.0
176
     1
 90
        8
176
     1
 62
   257
176
     1
 40
1.0
176
     1
 90
        1
176
     1
 90
        6
176
     1
 90
        2
176
     1
 62
     7
176
     1
 90
        3
176
     1
 90
        0
176
     1
 90
        0
176
     1
290
     0
176
     1
 90
        5
176
     1
 40
0.0
176
     1
 90
        0
176
     1
290
     0
176
     1
290
     1
176
     1
290
     1
176
     1
290
     0
176
     1
290
     0
176
     1
290
     0
176
     1
290
     0
176
     1
290
     0
176
     1
290
     0
176
     1
 90
       50
176
     1
 40
0.0
176
     1
 40
1.0
176
     1
 90
        0
176
     1
 62
    18
420
        0
176
     1
 90
       50
176
     1
 90
        3
176
     1
 62
     5
420
      255
176
     1
290
     0
176
     1
 90
       50
176
     1
 90
       50
176
     1
 90
       50
176
     1
290
     0
176
     1
 90
       50
176
     1
 62
   256
176
     0
 40
1.0
176
     0
 90
        2
176
     1
  1
strokes_ogs.tif
176
     1
290
     0
176
     1
 40
1.0
176
     1
 40
1.0
176
     1
  0
VISUALSTYLE
  5
CE1
102
{ACAD_REACTORS
330
CCD
102
}
330
CCD
100
AcDbVisualStyle
  2
Shades of Gray
 70
    23
177
     3
291
     0
 70
    58
 90
        2
176
     1
 90
        2
176
     1
 90
        3
176
     1
 90
        0
176
     1
 40
0.6
176
     1
 40
30.0
176
     1
 62
     7
420
 16777215
176
     1
 90
        2
176
     1
 90
        2
176
     1
 62
     7
176
     1
 62
     7
176
     1
 90
        1
176
     1
 90
        1
176
     1
 40
40.0
176
     1
 90
        8
176
     1
 62
     7
176
     1
 40
1.0
176
     1
 90
        1
176
     1
 90
        6
176
     1
 90
        2
176
     1
 62
     7
176
     1
 90
        3
176
     1
 90
        0
176
     1
 90
        0
176
     1
290
     0
176
     1
 90
        1
176
     1
 40
0.0
176
     1
 90
        0
176
     1
290
     0
176
     1
290
     1
176
     1
290
     1
176
     1
290
     0
176
     1
290
     0
176
     1
290
     0
176
     1
290
     0
176
     1
290
     0
176
     1
290
     0
176
     1
 90
       50
176
     1
 40
0.0
176
     1
 40
1.0
176
     1
 90
        0
176
     1
 62
    18
420
        0
176
     1
 90
       50
176
     1
 90
        3
176
     1
 62
     5
420
      255
176
     1
290
     0
176
     1
 90
       50
176
     1
 90
       50
176
     1
 90
       50
176
     1
290
     0
176
     1
 90
       50
176
     1
 62
   256
176
     0
 40
1.0
176
     0
 90
        2
176
     1
  1
strokes_ogs.tif
176
     1
290
     0
176
     1
 40
1.0
176
     1
 40
1.0
176
     1
  0
VISUALSTYLE
  5
CE2
102
{ACAD_REACTORS
330
CCD
102
}
330
CCD
100
AcDbVisualStyle
  2
Sketchy
 70
    24
177
     3
291
     0
 70
    58
 90
        1
176
     1
 90
        2
176
     1
 90
        2
176
     1
 90
        0
176
     1
 40
0.6
176
     1
 40
30.0
176
     1
 62
     7
420
 16777215
176
     1
 90
        2
176
     1
 90
        2
176
     1
 62
     7
176
     1
 62
     7
176
     1
 90
        1
176
     1
 90
        1
176
     1
 40
40.0
176
     1
 90
       11
176
     1
 62
     7
176
     1
 40
1.0
176
     1
 90
        1
176
     1
 90
        6
176
     1
 90
        2
176
     1
 62
     7
176
     1
 90
        6
176
     1
 90
        0
176
     1
 90
        0
176
     1
290
     0
176
     1
 90
        1
176
     1
 40
0.0
176
     1
 90
        0
176
     1
290
     0
176
     1
290
     1
176
     1
290
     1
176
     1
290
     0
176
     1
290
     0
176
     1
290
     0
176
     1
290
     0
176
     1
290
     0
176
     1
290
     0
176
     1
 90
       50
176
     1
 40
0.0
176
     1
 40
1.0
176
     1
 90
        0
176
     1
 62
    18
420
        0
176
     1
 90
       50
176
     1
 90
        3
176
     1
 62
     5
420
      255
176
     1
290
     0
176
     1
 90
       50
176
     1
 90
       50
176
     1
 90
       50
176
     1
290
     0
176
     1
 90
       50
176
     1
 62
   256
176
     0
 40
1.0
176
     0
 90
        2
176
     1
  1
strokes_ogs.tif
176
     1
290
     0
176
     1
 40
1.0
176
     1
 40
1.0
176
     1
  0
VISUALSTYLE
  5
CDA
102
{ACAD_REACTORS
330
CCD
102
}
330
CCD
100
AcDbVisualStyle
  2
Thicken
 70
    13
177
     3
291
     1
 70
    58
 90
        2
176
     1
 90
        2
176
     1
 90
        0
176
     1
 90
        0
176
     1
 40
0.6
176
     1
 40
30.0
176
     1
 62
     7
420
 16777215
176
     1
 90
        1
176
     1
 90
        4
176
     1
 62
     7
176
     1
 62
   257
176
     1
 90
        1
176
     1
 90
        1
176
     1
 40
1.0
176
     1
 90
       12
176
     1
 62
     7
176
     1
 40
1.0
176
     1
 90
        1
176
     1
 90
        6
176
     1
 90
        2
176
     1
 62
     7
176
     1
 90
        5
176
     1
 90
        0
176
     1
 90
        0
176
     1
290
     0
176
     1
 90
        1
176
     1
 40
0.0
176
     1
 90
        0
176
     1
290
     0
176
     1
290
     1
176
     1
290
     1
176
     1
290
     0
176
     1
290
     0
176
     1
290
     0
176
     1
290
     0
176
     1
290
     0
176
     1
290
     0
176
     1
 90
       50
176
     1
 40
0.0
176
     1
 40
1.0
176
     1
 90
        0
176
     1
 62
    18
420
        0
176
     1
 90
       50
176
     1
 90
        3
176
     1
 62
     5
420
      255
176
     1
290
     0
176
     1
 90
       50
176
     1
 90
       50
176
     1
 90
       50
176
     1
290
     0
176
     1
 90
       50
176
     1
 62
   256
176
     0
 40
1.0
176
     0
 90
        2
176
     1
  1
strokes_ogs.tif
176
     1
290
     0
176
     1
 40
1.0
176
     1
 40
1.0
176
     1
  0
VISUALSTYLE
  5
CD3
102
{ACAD_REACTORS
330
CCD
102
}
330
CCD
100
AcDbVisualStyle
  2
Wireframe
 70
     5
177
     3
291
     0
 70
    58
 90
        0
176
     1
 90
        2
176
     1
 90
        0
176
     1
 90
        0
176
     1
 40
0.6
176
     1
 40
30.0
176
     1
 62
     7
420
 16777215
176
     1
 90
        1
176
     1
 90
        4
176
     1
 62
     7
176
     1
 62
   257
176
     1
 90
        1
176
     1
 90
        1
176
     1
 40
1.0
176
     1
 90
        0
176
     1
 62
   257
176
     1
 40
1.0
176
     1
 90
        1
176
     1
 90
        6
176
     1
 90
        2
176
     1
 62
     7
176
     1
 90
        3
176
     1
 90
        0
176
     1
 90
        0
176
     1
290
     0
176
     1
 90
        1
176
     1
 40
0.0
176
     1
 90
        0
176
     1
290
     0
176
     1
290
     1
176
     1
290
     1
176
     1
290
     0
176
     1
290
     0
176
     1
290
     0
176
     1
290
     0
176
     1
290
     0
176
     1
290
     0
176
     1
 90
       50
176
     1
 40
0.0
176
     1
 40
1.0
176
     1
 90
        0
176
     1
 62
    18
420
        0
176
     1
 90
       50
176
     1
 90
        3
176
     1
 62
     5
420
      255
176
     1
290
     0
176
     1
 90
       50
176
     1
 90
       50
176
     1
 90
       50
176
     1
290
     0
176
     1
 90
       50
176
     1
 62
   256
176
     0
 40
1.0
176
     0
 90
        2
176
     1
  1
strokes_ogs.tif
176
     1
290
     0
176
     1
 40
1.0
176
     1
 40
1.0
176
     1
  0
VISUALSTYLE
  5
CE3
102
{ACAD_REACTORS
330
CCD
102
}
330
CCD
100
AcDbVisualStyle
  2
X-Ray
 70
    25
177
     3
291
     0
 70
    58
 90
        2
176
     1
 90
        2
176
     1
 90
        1
176
     1
 90
        1
176
     1
 40
0.5
176
     1
 40
30.0
176
     1
 62
     7
420
 16777215
176
     1
 90
        1
176
     1
 90
        0
176
     1
 62
     7
176
     1
 62
   257
176
     1
 90
        1
176
     1
 90
        1
176
     1
 40
1.0
176
     1
 90
        8
176
     1
 62
     7
176
     1
 40
1.0
176
     1
 90
        1
176
     1
 90
        6
176
     1
 90
        2
176
     1
 62
     7
176
     1
 90
        3
176
     1
 90
        0
176
     1
 90
        0
176
     1
290
     0
176
     1
 90
       13
176
     1
 40
0.0
176
     1
 90
        0
176
     1
290
     0
176
     1
290
     1
176
     1
290
     1
176
     1
290
     0
176
     1
290
     0
176
     1
290
     0
176
     1
290
     0
176
     1
290
     0
176
     1
290
     0
176
     1
 90
       50
176
     1
 40
0.0
176
     1
 40
1.0
176
     1
 90
        0
176
     1
 62
    18
420
        0
176
     1
 90
       50
176
     1
 90
        3
176
     1
 62
     5
420
      255
176
     1
290
     0
176
     1
 90
       50
176
     1
 90
       50
176
     1
 90
       50
176
     1
290
     0
176
     1
 90
       50
176
     1
 62
   256
176
     0
 40
1.0
176
     0
 90
        2
176
     1
  1
strokes_ogs.tif
176
     1
290
     0
176
     1
 40
1.0
176
     1
 40
1.0
176
     1
  0
DICTIONARYVAR
  5
D15
102
{ACAD_REACTORS
330
D14
102
}
330
D14
100
DictionaryVariables
280
     0
  1
1:1
  0
DICTIONARYVAR
  5
D19
102
{ACAD_REACTORS
330
D14
102
}
330
D14
100
DictionaryVariables
280
     0
  1
Standard
  0
DICTIONARYVAR
  5
D1B
102
{ACAD_REACTORS
330
D14
102
}
330
D14
100
DictionaryVariables
280
     0
  1
0
  0
DICTIONARYVAR
  5
D1C
102
{ACAD_REACTORS
330
D14
102
}
330
D14
100
DictionaryVariables
280
     0
  1
0
  0
DICTIONARY
  5
D8D
330
D0C
100
AcDbDictionary
280
     1
281
     1
  3
ACAD_ROUNDTRIP_2008_TABLESTYLE_CELLSTYLEMAP
360
D8E
  0
CELLSTYLEMAP
  5
D8E
102
{ACAD_REACTORS
330
D8D
102
}
330
D8D
100
AcDbCellStyleMap
 90
        3
300
CELLSTYLE
  1
TABLEFORMAT_BEGIN
 90
        5
170
     1
 91
        0
 92
        0
 62
   257
 93
        1
300
CONTENTFORMAT
  1
CONTENTFORMAT_BEGIN
 90
        0
 91
        0
 92
        4
 93
        0
300

 40
0.0
140
1.0
 94
        5
 62
     0
340
11
144
6.0
309
CONTENTFORMAT_END
171
     1
301
MARGIN
  1
CELLMARGIN_BEGIN
 40
1.5
 40
1.5
 40
1.5
 40
1.5
 40
1.5
 40
1.5
309
CELLMARGIN_END
 94
        6
 95
        1
302
GRIDFORMAT
  1
GRIDFORMAT_BEGIN
 90
        0
 91
        1
 62
     0
 92
       -2
340
14
 93
        0
 40
0.045
309
GRIDFORMAT_END
 95
        2
302
GRIDFORMAT
  1
GRIDFORMAT_BEGIN
 90
        0
 91
        1
 62
     0
 92
       -2
340
14
 93
        0
 40
0.045
309
GRIDFORMAT_END
 95
        4
302
GRIDFORMAT
  1
GRIDFORMAT_BEGIN
 90
        0
 91
        1
 62
     0
 92
       -2
340
14
 93
        0
 40
0.045
309
GRIDFORMAT_END
 95
        8
302
GRIDFORMAT
  1
GRIDFORMAT_BEGIN
 90
        0
 91
        1
 62
     0
 92
       -2
340
14
 93
        0
 40
0.045
309
GRIDFORMAT_END
 95
       16
302
GRIDFORMAT
  1
GRIDFORMAT_BEGIN
 90
        0
 91
        1
 62
     0
 92
       -2
340
14
 93
        0
 40
0.045
309
GRIDFORMAT_END
 95
       32
302
GRIDFORMAT
  1
GRIDFORMAT_BEGIN
 90
        0
 91
        1
 62
     0
 92
       -2
340
14
 93
        0
 40
0.045
309
GRIDFORMAT_END
309
TABLEFORMAT_END
  1
CELLSTYLE_BEGIN
 90
        1
 91
        1
300
_TITLE
309
CELLSTYLE_END
300
CELLSTYLE
  1
TABLEFORMAT_BEGIN
 90
        5
170
     1
 91
        0
 92
        0
 62
   257
 93
        1
300
CONTENTFORMAT
  1
CONTENTFORMAT_BEGIN
 90
        0
 91
        0
 92
        4
 93
        0
300

 40
0.0
140
1.0
 94
        5
 62
     0
340
11
144
4.5
309
CONTENTFORMAT_END
171
     1
301
MARGIN
  1
CELLMARGIN_BEGIN
 40
1.5
 40
1.5
 40
1.5
 40
1.5
 40
1.5
 40
1.5
309
CELLMARGIN_END
 94
        6
 95
        1
302
GRIDFORMAT
  1
GRIDFORMAT_BEGIN
 90
        0
 91
        1
 62
     0
 92
       -2
340
14
 93
        0
 40
0.045
309
GRIDFORMAT_END
 95
        2
302
GRIDFORMAT
  1
GRIDFORMAT_BEGIN
 90
        0
 91
        1
 62
     0
 92
       -2
340
14
 93
        0
 40
0.045
309
GRIDFORMAT_END
 95
        4
302
GRIDFORMAT
  1
GRIDFORMAT_BEGIN
 90
        0
 91
        1
 62
     0
 92
       -2
340
14
 93
        0
 40
0.045
309
GRIDFORMAT_END
 95
        8
302
GRIDFORMAT
  1
GRIDFORMAT_BEGIN
 90
        0
 91
        1
 62
     0
 92
       -2
340
14
 93
        0
 40
0.045
309
GRIDFORMAT_END
 95
       16
302
GRIDFORMAT
  1
GRIDFORMAT_BEGIN
 90
        0
 91
        1
 62
     0
 92
       -2
340
14
 93
        0
 40
0.045
309
GRIDFORMAT_END
 95
       32
302
GRIDFORMAT
  1
GRIDFORMAT_BEGIN
 90
        0
 91
        1
 62
     0
 92
       -2
340
14
 93
        0
 40
0.045
309
GRIDFORMAT_END
309
TABLEFORMAT_END
  1
CELLSTYLE_BEGIN
 90
        2
 91
        1
300
_HEADER
309
CELLSTYLE_END
300
CELLSTYLE
  1
TABLEFORMAT_BEGIN
 90
        5
170
     1
 91
        0
 92
        0
 62
   257
 93
        1
300
CONTENTFORMAT
  1
CONTENTFORMAT_BEGIN
 90
        0
 91
        0
 92
        4
 93
        0
300

 40
0.0
140
1.0
 94
        2
 62
     0
340
11
144
4.5
309
CONTENTFORMAT_END
171
     1
301
MARGIN
  1
CELLMARGIN_BEGIN
 40
1.5
 40
1.5
 40
1.5
 40
1.5
 40
1.5
 40
1.5
309
CELLMARGIN_END
 94
        6
 95
        1
302
GRIDFORMAT
  1
GRIDFORMAT_BEGIN
 90
        0
 91
        1
 62
     0
 92
       -2
340
14
 93
        0
 40
0.045
309
GRIDFORMAT_END
 95
        2
302
GRIDFORMAT
  1
GRIDFORMAT_BEGIN
 90
        0
 91
        1
 62
     0
 92
       -2
340
14
 93
        0
 40
0.045
309
GRIDFORMAT_END
 95
        4
302
GRIDFORMAT
  1
GRIDFORMAT_BEGIN
 90
        0
 91
        1
 62
     0
 92
       -2
340
14
 93
        0
 40
0.045
309
GRIDFORMAT_END
 95
        8
302
GRIDFORMAT
  1
GRIDFORMAT_BEGIN
 90
        0
 91
        1
 62
     0
 92
       -2
340
14
 93
        0
 40
0.045
309
GRIDFORMAT_END
 95
       16
302
GRIDFORMAT
  1
GRIDFORMAT_BEGIN
 90
        0
 91
        1
 62
     0
 92
       -2
340
14
 93
        0
 40
0.045
309
GRIDFORMAT_END
 95
       32
302
GRIDFORMAT
  1
GRIDFORMAT_BEGIN
 90
        0
 91
        1
 62
     0
 92
       -2
340
14
 93
        0
 40
0.045
309
GRIDFORMAT_END
309
TABLEFORMAT_END
  1
CELLSTYLE_BEGIN
 90
        3
 91
        2
300
_DATA
309
CELLSTYLE_END
  0
ENDSEC
  0
EOF
