  0
SECTION
  2
HEADER
  9
$ACADVER
  1
AC1024
  9
$ACADMAINTVER
 70
     6
  9
$DWGCODEPAGE
  3
ANSI_932
  9
$LASTSAVEDBY
  1
b777-300
  9
$INSBASE
 10
0.0
 20
0.0
 30
0.0
  9
$EXTMIN
 10
21.6224734504802
 20
10.61958420581097
 30
0.0
  9
$EXTMAX
 10
218.7175870934688
 20
180.3668719718647
 30
0.0
  9
$LIMMIN
 10
0.0
 20
0.0
  9
$LIMMAX
 10
420.0
 20
297.0
  9
$ORTHOMODE
 70
     0
  9
$REGENMODE
 70
     1
  9
$FILLMODE
 70
     1
  9
$QTEXTMODE
 70
     0
  9
$MIRRTEXT
 70
     0
  9
$LTSCALE
 40
0.2
  9
$ATTMODE
 70
     1
  9
$TEXTSIZE
 40
3.0
  9
$TRACEWID
 40
1.0
  9
$TEXTSTYLE
  7
Standard
  9
$CLAYER
  8
文字
  9
$CELTYPE
  6
ByLayer
  9
$CECOLOR
 62
   256
  9
$CELTSCALE
 40
1.0
  9
$DISPSILH
 70
     0
  9
$DIMSCALE
 40
1.0
  9
$DIMASZ
 40
2.5
  9
$DIMEXO
 40
0.625
  9
$DIMDLI
 40
3.75
  9
$DIMRND
 40
0.0
  9
$DIMDLE
 40
0.0
  9
$DIMEXE
 40
1.25
  9
$DIMTP
 40
0.0
  9
$DIMTM
 40
0.0
  9
$DIMTXT
 40
2.5
  9
$DIMCEN
 40
2.5
  9
$DIMTSZ
 40
0.0
  9
$DIMTOL
 70
     0
  9
$DIMLIM
 70
     0
  9
$DIMTIH
 70
     0
  9
$DIMTOH
 70
     0
  9
$DIMSE1
 70
     0
  9
$DIMSE2
 70
     0
  9
$DIMTAD
 70
     1
  9
$DIMZIN
 70
     8
  9
$DIMBLK
  1

  9
$DIMASO
 70
     1
  9
$DIMSHO
 70
     1
  9
$DIMPOST
  1

  9
$DIMAPOST
  1

  9
$DIMALT
 70
     0
  9
$DIMALTD
 70
     3
  9
$DIMALTF
 40
0.03937007874016
  9
$DIMLFAC
 40
1.0
  9
$DIMTOFL
 70
     1
  9
$DIMTVP
 40
0.0
  9
$DIMTIX
 70
     0
  9
$DIMSOXD
 70
     0
  9
$DIMSAH
 70
     0
  9
$DIMBLK1
  1

  9
$DIMBLK2
  1

  9
$DIMSTYLE
  2
ISO-25
  9
$DIMCLRD
 70
     0
  9
$DIMCLRE
 70
     0
  9
$DIMCLRT
 70
     0
  9
$DIMTFAC
 40
1.0
  9
$DIMGAP
 40
0.625
  9
$DIMJUST
 70
     0
  9
$DIMSD1
 70
     0
  9
$DIMSD2
 70
     0
  9
$DIMTOLJ
 70
     0
  9
$DIMTZIN
 70
     8
  9
$DIMALTZ
 70
     0
  9
$DIMALTTZ
 70
     0
  9
$DIMUPT
 70
     0
  9
$DIMDEC
 70
     2
  9
$DIMTDEC
 70
     2
  9
$DIMALTU
 70
     2
  9
$DIMALTTD
 70
     3
  9
$DIMTXSTY
  7
Standard
  9
$DIMAUNIT
 70
     0
  9
$DIMADEC
 70
     0
  9
$DIMALTRND
 40
0.0
  9
$DIMAZIN
 70
     0
  9
$DIMDSEP
 70
    46
  9
$DIMATFIT
 70
     3
  9
$DIMFRAC
 70
     0
  9
$DIMLDRBLK
  1

  9
$DIMLUNIT
 70
     2
  9
$DIMLWD
 70
    -2
  9
$DIMLWE
 70
    -2
  9
$DIMTMOVE
 70
     0
  9
$DIMFXL
 40
1.0
  9
$DIMFXLON
 70
     0
  9
$DIMJOGANG
 40
0.7853981633974483
  9
$DIMTFILL
 70
     0
  9
$DIMTFILLCLR
 70
     0
  9
$DIMARCSYM
 70
     0
  9
$DIMLTYPE
  6

  9
$DIMLTEX1
  6

  9
$DIMLTEX2
  6

  9
$DIMTXTDIRECTION
 70
     0
  9
$LUNITS
 70
     2
  9
$LUPREC
 70
     4
  9
$SKETCHINC
 40
1.0
  9
$FILLETRAD
 40
3.0
  9
$AUNITS
 70
     0
  9
$AUPREC
 70
     0
  9
$MENU
  1
.
  9
$ELEVATION
 40
0.0
  9
$PELEVATION
 40
0.0
  9
$THICKNESS
 40
0.0
  9
$LIMCHECK
 70
     0
  9
$CHAMFERA
 40
2.0
  9
$CHAMFERB
 40
2.0
  9
$CHAMFERC
 40
0.0
  9
$CHAMFERD
 40
0.0
  9
$SKPOLY
 70
     0
  9
$TDCREATE
 40
2452936.788310359
  9
$TDUCREATE
 40
2452936.413310359
  9
$TDUPDATE
 40
2458715.860841563
  9
$TDUUPDATE
 40
2458715.485841563
  9
$TDINDWG
 40
0.5752333912
  9
$TDUSRTIMER
 40
0.0018769097
  9
$USRTIMER
 70
     1
  9
$ANGBASE
 50
0.0
  9
$ANGDIR
 70
     0
  9
$PDMODE
 70
     0
  9
$PDSIZE
 40
0.0
  9
$PLINEWID
 40
0.0
  9
$SPLFRAME
 70
     0
  9
$SPLINETYPE
 70
     6
  9
$SPLINESEGS
 70
     8
  9
$HANDSEED
  5
BE3
  9
$SURFTAB1
 70
     6
  9
$SURFTAB2
 70
     6
  9
$SURFTYPE
 70
     6
  9
$SURFU
 70
     6
  9
$SURFV
 70
     6
  9
$UCSBASE
  2

  9
$UCSNAME
  2

  9
$UCSORG
 10
0.0
 20
0.0
 30
0.0
  9
$UCSXDIR
 10
1.0
 20
0.0
 30
0.0
  9
$UCSYDIR
 10
0.0
 20
1.0
 30
0.0
  9
$UCSORTHOREF
  2

  9
$UCSORTHOVIEW
 70
     0
  9
$UCSORGTOP
 10
0.0
 20
0.0
 30
0.0
  9
$UCSORGBOTTOM
 10
0.0
 20
0.0
 30
0.0
  9
$UCSORGLEFT
 10
0.0
 20
0.0
 30
0.0
  9
$UCSORGRIGHT
 10
0.0
 20
0.0
 30
0.0
  9
$UCSORGFRONT
 10
0.0
 20
0.0
 30
0.0
  9
$UCSORGBACK
 10
0.0
 20
0.0
 30
0.0
  9
$PUCSBASE
  2

  9
$PUCSNAME
  2

  9
$PUCSORG
 10
0.0
 20
0.0
 30
0.0
  9
$PUCSXDIR
 10
1.0
 20
0.0
 30
0.0
  9
$PUCSYDIR
 10
0.0
 20
1.0
 30
0.0
  9
$PUCSORTHOREF
  2

  9
$PUCSORTHOVIEW
 70
     0
  9
$PUCSORGTOP
 10
0.0
 20
0.0
 30
0.0
  9
$PUCSORGBOTTOM
 10
0.0
 20
0.0
 30
0.0
  9
$PUCSORGLEFT
 10
0.0
 20
0.0
 30
0.0
  9
$PUCSORGRIGHT
 10
0.0
 20
0.0
 30
0.0
  9
$PUCSORGFRONT
 10
0.0
 20
0.0
 30
0.0
  9
$PUCSORGBACK
 10
0.0
 20
0.0
 30
0.0
  9
$USERI1
 70
     0
  9
$USERI2
 70
     0
  9
$USERI3
 70
     0
  9
$USERI4
 70
     0
  9
$USERI5
 70
     0
  9
$USERR1
 40
0.0
  9
$USERR2
 40
0.0
  9
$USERR3
 40
0.0
  9
$USERR4
 40
0.0
  9
$USERR5
 40
0.0
  9
$WORLDVIEW
 70
     1
  9
$SHADEDGE
 70
     3
  9
$SHADEDIF
 70
    70
  9
$TILEMODE
 70
     1
  9
$MAXACTVP
 70
    64
  9
$PINSBASE
 10
0.0
 20
0.0
 30
0.0
  9
$PLIMCHECK
 70
     0
  9
$PEXTMIN
 10
0.0
 20
0.0
 30
0.0
  9
$PEXTMAX
 10
0.0
 20
0.0
 30
0.0
  9
$PLIMMIN
 10
-7.5
 20
-20.0
  9
$PLIMMAX
 10
412.5
 20
277.0
  9
$UNITMODE
 70
     0
  9
$VISRETAIN
 70
     1
  9
$PLINEGEN
 70
     0
  9
$PSLTSCALE
 70
     1
  9
$TREEDEPTH
 70
  3020
  9
$CMLSTYLE
  2
Standard
  9
$CMLJUST
 70
     0
  9
$CMLSCALE
 40
20.0
  9
$PROXYGRAPHICS
 70
     1
  9
$MEASUREMENT
 70
     1
  9
$CELWEIGHT
370
    -1
  9
$ENDCAPS
280
     0
  9
$JOINSTYLE
280
     0
  9
$LWDISPLAY
290
     0
  9
$INSUNITS
 70
     4
  9
$HYPERLINKBASE
  1

  9
$STYLESHEET
  1

  9
$XEDIT
290
     1
  9
$CEPSNTYPE
380
     0
  9
$PSTYLEMODE
290
     1
  9
$FINGERPRINTGUID
  2
{86E58535-AB5B-4AFE-AB1B-6758AAB7EA7D}
  9
$VERSIONGUID
  2
{0C97EA3E-94C6-4246-B254-4D1C6A351070}
  9
$EXTNAMES
290
     1
  9
$PSVPSCALE
 40
0.0
  9
$OLESTARTUP
290
     0
  9
$SORTENTS
280
   127
  9
$INDEXCTL
280
     0
  9
$HIDETEXT
280
     1
  9
$XCLIPFRAME
280
     0
  9
$HALOGAP
280
     0
  9
$OBSCOLOR
 70
   257
  9
$OBSLTYPE
280
     0
  9
$INTERSECTIONDISPLAY
280
     0
  9
$INTERSECTIONCOLOR
 70
   257
  9
$DIMASSOC
280
     2
  9
$PROJECTNAME
  1

  9
$CAMERADISPLAY
290
     0
  9
$LENSLENGTH
 40
50.0
  9
$CAMERAHEIGHT
 40
0.0
  9
$STEPSPERSEC
 40
2.0
  9
$STEPSIZE
 40
6.0
  9
$3DDWFPREC
 40
2.0
  9
$PSOLWIDTH
 40
0.25
  9
$PSOLHEIGHT
 40
4.0
  9
$LOFTANG1
 40
1.570796326794897
  9
$LOFTANG2
 40
1.570796326794897
  9
$LOFTMAG1
 40
0.0
  9
$LOFTMAG2
 40
0.0
  9
$LOFTPARAM
 70
     7
  9
$LOFTNORMALS
280
     1
  9
$LATITUDE
 40
37.795
  9
$LONGITUDE
 40
-122.394
  9
$NORTHDIRECTION
 40
0.0
  9
$TIMEZONE
 70
 -8000
  9
$LIGHTGLYPHDISPLAY
280
     1
  9
$TILEMODELIGHTSYNCH
280
     1
  9
$SOLIDHIST
280
     1
  9
$SHOWHIST
280
     1
  9
$DWFFRAME
280
     2
  9
$DGNFRAME
280
     2
  9
$REALWORLDSCALE
290
     1
  9
$INTERFERECOLOR
 62
   256
  9
$CSHADOW
280
     0
  9
$SHADOWPLANELOCATION
 40
0.0
  0
ENDSEC
  0
SECTION
  2
CLASSES
  0
CLASS
  1
ACDBDICTIONARYWDFLT
  2
AcDbDictionaryWithDefault
  3
ObjectDBX Classes
 90
        0
 91
        3
280
     0
281
     0
  0
CLASS
  1
DIMASSOC
  2
AcDbDimAssoc
  3
"AcDbDimAssoc|Product Desc:     AcDim ARX App For Dimension|Company:          Autodesk, Inc.|WEB Address:      www.autodesk.com"
 90
        0
 91
        3
280
     0
281
     0
  0
CLASS
  1
VISUALSTYLE
  2
AcDbVisualStyle
  3
ObjectDBX Classes
 90
     4095
 91
        3
280
     0
281
     0
  0
CLASS
  1
SCALE
  2
AcDbScale
  3
ObjectDBX Classes
 90
     1153
 91
        3
280
     0
281
     0
  0
CLASS
  1
MATERIAL
  2
AcDbMaterial
  3
ObjectDBX Classes
 90
     1153
 91
        3
280
     0
281
     0
  0
CLASS
  1
TABLESTYLE
  2
AcDbTableStyle
  3
ObjectDBX Classes
 90
     4095
 91
        3
280
     0
281
     0
  0
CLASS
  1
SUN
  2
AcDbSun
  3
SCENEOE
 90
     1153
 91
        3
280
     0
281
     0
  0
CLASS
  1
RASTERVARIABLES
  2
AcDbRasterVariables
  3
ISM
 90
        0
 91
        3
280
     0
281
     0
  0
CLASS
  1
DICTIONARYVAR
  2
AcDbDictionaryVar
  3
ObjectDBX Classes
 90
        0
 91
        3
280
     0
281
     0
  0
CLASS
  1
CELLSTYLEMAP
  2
AcDbCellStyleMap
  3
ObjectDBX Classes
 90
     1152
 91
        3
280
     0
281
     0
  0
CLASS
  1
MLEADERSTYLE
  2
AcDbMLeaderStyle
  3
ACDB_MLEADERSTYLE_CLASS
 90
     4095
 91
        3
280
     0
281
     0
  0
ENDSEC
  0
SECTION
  2
TABLES
  0
TABLE
  2
VPORT
  5
8
330
0
100
AcDbSymbolTable
 70
     1
  0
VPORT
  5
B11
330
8
100
AcDbSymbolTableRecord
100
AcDbViewportTableRecord
  2
*Active
 70
     0
 10
0.0
 20
0.0
 11
1.0
 21
1.0
 12
122.6937325654494
 22
95.49322808883782
 13
0.0
 23
0.0
 14
10.0
 24
10.0
 15
10.0
 25
10.0
 16
0.0
 26
0.0
 36
1.0
 17
0.0
 27
0.0
 37
0.0
 40
177.699001650852
 41
1.102362204724409
 42
50.0
 43
0.0
 44
0.0
 50
0.0
 51
0.0
 71
    16
 72
  1000
 73
     1
 74
     3
 75
     0
 76
     0
 77
     0
 78
     0
281
     0
 65
     1
110
0.0
120
0.0
130
0.0
111
1.0
121
0.0
131
0.0
112
0.0
122
1.0
132
0.0
 79
     0
146
0.0
348
B17
 60
     3
 61
     5
292
     1
282
     1
141
0.0
142
0.0
 63
   256
361
B53
  0
ENDTAB
  0
TABLE
  2
LTYPE
  5
5
330
0
100
AcDbSymbolTable
 70
     6
  0
LTYPE
  5
14
330
5
100
AcDbSymbolTableRecord
100
AcDbLinetypeTableRecord
  2
ByBlock
 70
     0
  3

 72
    65
 73
     0
 40
0.0
  0
LTYPE
  5
15
330
5
100
AcDbSymbolTableRecord
100
AcDbLinetypeTableRecord
  2
ByLayer
 70
     0
  3

 72
    65
 73
     0
 40
0.0
  0
LTYPE
  5
16
330
5
100
AcDbSymbolTableRecord
100
AcDbLinetypeTableRecord
  2
Continuous
 70
     0
  3
Solid line
 72
    65
 73
     0
 40
0.0
  0
LTYPE
  5
35
330
5
100
AcDbSymbolTableRecord
100
AcDbLinetypeTableRecord
  2
ACAD_ISO08W100
 70
     0
  3
ISO long-dash short-dash ____ __ ____ __ ____ _
 72
    65
 73
     4
 40
36.0
 49
24.0
 74
     0
 49
-3.0
 74
     0
 49
6.0
 74
     0
 49
-3.0
 74
     0
  0
LTYPE
  5
127
330
5
100
AcDbSymbolTableRecord
100
AcDbLinetypeTableRecord
  2
HIDDENX2
 70
     0
  3
Hidden (2x) ____ ____ ____ ____ ____ ____ ____
 72
    65
 73
     2
 40
19.05
 49
12.7
 74
     0
 49
-6.35
 74
     0
  0
LTYPE
  5
5EC
330
5
100
AcDbSymbolTableRecord
100
AcDbLinetypeTableRecord
  2
CENTER
 70
     0
  3
Center ____ _ ____ _ ____ _ ____ _ ____ _ ____
 72
    65
 73
     4
 40
50.8
 49
31.75
 74
     0
 49
-6.35
 74
     0
 49
6.35
 74
     0
 49
-6.35
 74
     0
  0
LTYPE
  5
5ED
330
5
100
AcDbSymbolTableRecord
100
AcDbLinetypeTableRecord
  2
ACAD_ISO02W100
 70
     0
  3
ISO dash __ __ __ __ __ __ __ __ __ __ __ __ __
 72
    65
 73
     2
 40
15.0
 49
12.0
 74
     0
 49
-3.0
 74
     0
  0
LTYPE
  5
605
330
5
100
AcDbSymbolTableRecord
100
AcDbLinetypeTableRecord
  2
DASHED
 70
     0
  3
Dashed __ __ __ __ __ __ __ __ __ __ __ __ __ _
 72
    65
 73
     2
 40
19.05
 49
12.7
 74
     0
 49
-6.35
 74
     0
  0
ENDTAB
  0
TABLE
  2
LAYER
  5
2
330
0
100
AcDbSymbolTable
 70
     9
  0
LAYER
  5
10
330
2
100
AcDbSymbolTableRecord
100
AcDbLayerTableRecord
  2
0
 70
     0
 62
     7
  6
Continuous
370
    -3
390
F
347
B4F
  0
LAYER
  5
2E
330
2
100
AcDbSymbolTableRecord
100
AcDbLayerTableRecord
  2
枠
 70
     0
 62
     1
  6
Continuous
370
    30
390
F
347
B4F
  0
LAYER
  5
2F
330
2
100
AcDbSymbolTableRecord
100
AcDbLayerTableRecord
  2
文字
 70
     0
 62
     7
  6
Continuous
370
    30
390
F
347
B4F
  0
LAYER
  5
36
330
2
100
AcDbSymbolTableRecord
100
AcDbLayerTableRecord
  2
中心線
 70
     0
 62
     7
  6
CENTER
370
    30
390
F
347
B4F
  0
LAYER
  5
52
330
2
100
AcDbSymbolTableRecord
100
AcDbLayerTableRecord
  2
隠れ線
 70
     0
 62
     2
  6
Continuous
290
     0
370
    -3
390
F
347
B4F
  0
LAYER
  5
128
330
2
100
AcDbSymbolTableRecord
100
AcDbLayerTableRecord
  2
実線
 70
     0
 62
     7
  6
Continuous
370
    50
390
F
347
B4F
  0
LAYER
  5
129
330
2
100
AcDbSymbolTableRecord
100
AcDbLayerTableRecord
  2
破線
 70
     0
 62
     7
  6
DASHED
370
    20
390
F
347
B4F
  0
LAYER
  5
693
330
2
100
AcDbSymbolTableRecord
100
AcDbLayerTableRecord
  2
Defpoints
 70
     0
 62
     7
  6
Continuous
290
     0
370
    -3
390
F
347
B4F
  0
LAYER
  5
B65
330
2
100
AcDbSymbolTableRecord
100
AcDbLayerTableRecord
  2
文字・寸法線
 70
     0
 62
     7
  6
Continuous
370
    -3
390
F
347
B4F
  0
ENDTAB
  0
TABLE
  2
STYLE
  5
3
330
0
100
AcDbSymbolTable
 70
     2
  0
STYLE
  5
11
330
3
100
AcDbSymbolTableRecord
100
AcDbTextStyleTableRecord
  2
Standard
 70
     0
 40
0.0
 41
1.0
 50
0.0
 71
     0
 42
3.0
  3
txt.shx
  4
bigfont.shx
  0
STYLE
  5
34
330
3
100
AcDbSymbolTableRecord
100
AcDbTextStyleTableRecord
  2

 70
     1
 40
0.0
 41
1.0
 50
0.0
 71
     0
 42
2.5
  3
ltypeshp.shx
  4

  0
ENDTAB
  0
TABLE
  2
VIEW
  5
6
330
0
100
AcDbSymbolTable
 70
     0
  0
ENDTAB
  0
TABLE
  2
UCS
  5
7
330
0
100
AcDbSymbolTable
 70
     0
  0
ENDTAB
  0
TABLE
  2
APPID
  5
9
330
0
100
AcDbSymbolTable
 70
     1
  0
APPID
  5
12
330
9
100
AcDbSymbolTableRecord
100
AcDbRegAppTableRecord
  2
ACAD
 70
     0
  0
ENDTAB
  0
TABLE
  2
DIMSTYLE
  5
A
330
0
100
AcDbSymbolTable
 70
     2
100
AcDbDimStyleTable
  0
DIMSTYLE
105
29
102
{ACAD_REACTORS
330
6C3
330
8AC
330
949
330
A07
330
A0A
330
A78
330
AF0
330
BCA
102
}
330
A
100
AcDbSymbolTableRecord
100
AcDbDimStyleTableRecord
  2
ISO-25
 70
     0
 41
2.5
 42
0.625
 43
3.75
 44
1.25
 73
     0
 74
     0
 77
     1
 78
     8
140
2.5
141
2.5
143
0.03937007874016
147
0.625
171
     3
172
     1
178
     0
271
     2
272
     2
274
     3
283
     0
284
     8
340
11
  0
DIMSTYLE
105
B67
330
A
100
AcDbSymbolTableRecord
100
AcDbDimStyleTableRecord
  2
Standard
 70
     0
178
     0
340
11
  0
ENDTAB
  0
TABLE
  2
BLOCK_RECORD
  5
1
330
0
100
AcDbSymbolTable
 70
     9
  0
BLOCK_RECORD
  5
21
330
1
100
AcDbSymbolTableRecord
100
AcDbBlockTableRecord
  2
*Model_Space
340
24
 70
     0
280
     1
281
     0
  0
BLOCK_RECORD
  5
B55
330
1
100
AcDbSymbolTableRecord
100
AcDbBlockTableRecord
  2
*Paper_Space
340
B56
 70
     0
280
     1
281
     0
  0
BLOCK_RECORD
  5
6C4
330
1
100
AcDbSymbolTableRecord
100
AcDbBlockTableRecord
  2
*D0
340
0
 70
     0
280
     1
281
     0
  0
BLOCK_RECORD
  5
8AD
330
1
100
AcDbSymbolTableRecord
100
AcDbBlockTableRecord
  2
*D1
340
0
 70
     0
280
     1
281
     0
  0
BLOCK_RECORD
  5
94A
330
1
100
AcDbSymbolTableRecord
100
AcDbBlockTableRecord
  2
*D2
340
0
 70
     0
280
     1
281
     0
  0
BLOCK_RECORD
  5
A2E
330
1
100
AcDbSymbolTableRecord
100
AcDbBlockTableRecord
  2
*D3
340
0
 70
     0
280
     1
281
     0
  0
BLOCK_RECORD
  5
A3A
330
1
100
AcDbSymbolTableRecord
100
AcDbBlockTableRecord
  2
*D4
340
0
 70
     0
280
     1
281
     0
  0
BLOCK_RECORD
  5
A79
330
1
100
AcDbSymbolTableRecord
100
AcDbBlockTableRecord
  2
*D5
340
0
 70
     0
280
     1
281
     0
  0
BLOCK_RECORD
  5
AF1
330
1
100
AcDbSymbolTableRecord
100
AcDbBlockTableRecord
  2
*D6
340
0
 70
     0
280
     1
281
     0
  0
BLOCK_RECORD
  5
BBB
330
1
100
AcDbSymbolTableRecord
100
AcDbBlockTableRecord
  2
*D7
340
0
 70
     0
280
     1
281
     0
  0
BLOCK_RECORD
  5
BCC
330
1
100
AcDbSymbolTableRecord
100
AcDbBlockTableRecord
  2
*D8
340
0
 70
     0
280
     1
281
     0
  0
ENDTAB
  0
ENDSEC
  0
SECTION
  2
BLOCKS
  0
BLOCK
  5
22
330
21
100
AcDbEntity
  8
0
100
AcDbBlockBegin
  2
*Model_Space
 70
     0
 10
0.0
 20
0.0
 30
0.0
  3
*Model_Space
  1
*Model_Space
  0
ENDBLK
  5
23
330
21
100
AcDbEntity
  8
0
100
AcDbBlockEnd
  0
BLOCK
  5
B57
330
B55
100
AcDbEntity
 67
     1
  8
0
100
AcDbBlockBegin
  2
*Paper_Space
 70
     0
 10
0.0
 20
0.0
 30
0.0
  3
*Paper_Space
  1
*Paper_Space
  0
ENDBLK
  5
B58
330
B55
100
AcDbEntity
 67
     1
  8
0
100
AcDbBlockEnd
  0
BLOCK
  5
6CF
330
6C4
100
AcDbEntity
  8
0
370
    30
100
AcDbBlockBegin
  2
*D0
 70
     1
 10
0.0
 20
0.0
 30
0.0
  3
*D0
  1
*D3
  0
LINE
  5
ADA
330
6C4
100
AcDbEntity
  8
文字
 62
     0
370
    -2
100
AcDbLine
 10
84.01330259097531
 20
62.04029488247961
 30
0.0
 11
117.2679534981718
 21
62.04029488247961
 31
0.0
  0
LINE
  5
ADB
330
6C4
100
AcDbEntity
  8
文字
 62
     0
370
    -2
100
AcDbLine
 10
84.01330259097531
 20
70.07582878841235
 30
0.0
 11
117.2679534981718
 21
70.07582878841234
 31
0.0
  0
LINE
  5
ADC
330
6C4
100
AcDbEntity
  8
文字
 62
     0
370
    -2
100
AcDbLine
 10
116.0179534981718
 20
64.5402948824796
 30
0.0
 11
116.0179534981718
 21
67.57582878841234
 31
0.0
  0
SOLID
  5
ADD
330
6C4
100
AcDbEntity
  8
文字
 62
     0
100
AcDbTrace
 10
115.6012868315052
 20
64.5402948824796
 30
0.0
 11
116.4346201648385
 21
64.5402948824796
 31
0.0
 12
116.0179534981718
 22
62.04029488247961
 32
0.0
 13
116.0179534981718
 23
62.04029488247961
 33
0.0
  0
SOLID
  5
ADE
330
6C4
100
AcDbEntity
  8
文字
 62
     0
100
AcDbTrace
 10
115.6012868315052
 20
67.57582878841234
 30
0.0
 11
116.4346201648385
 21
67.57582878841234
 31
0.0
 12
116.0179534981718
 22
70.07582878841234
 32
0.0
 13
116.0179534981718
 23
70.07582878841234
 33
0.0
  0
MTEXT
  5
ADF
330
6C4
100
AcDbEntity
  8
文字
 62
     0
100
AcDbMText
 10
114.1429534981718
 20
66.058061835446
 30
0.0
 40
2.5
 41
0.0
 46
0.0
 71
     5
 72
     1
  1
8
 11
6.123031769111886E-17
 21
1.0
 31
0.0
 73
     1
 44
1.0
  0
POINT
  5
AE0
330
6C4
100
AcDbEntity
  8
Defpoints
 62
     0
100
AcDbPoint
 10
83.38830259097531
 20
62.04029488247961
 30
0.0
  0
POINT
  5
AE1
330
6C4
100
AcDbEntity
  8
Defpoints
 62
     0
100
AcDbPoint
 10
83.38830259097531
 20
70.07582878841235
 30
0.0
  0
POINT
  5
AE2
330
6C4
100
AcDbEntity
  8
Defpoints
 62
     0
100
AcDbPoint
 10
116.0179534981718
 20
70.07582878841234
 30
0.0
  0
ENDBLK
  5
6D0
330
6C4
100
AcDbEntity
  8
0
370
    30
100
AcDbBlockEnd
  0
BLOCK
  5
8B7
330
8AD
100
AcDbEntity
  8
0
100
AcDbBlockBegin
  2
*D1
 70
     1
 10
0.0
 20
0.0
 30
0.0
  3
*D1
  1
*D6
  0
LINE
  5
8C4
330
8AD
100
AcDbEntity
  8
文字
 62
     0
370
    -2
100
AcDbLine
 10
164.774721508264
 20
68.75958295810555
 30
0.0
 11
164.774721508264
 21
30.94611470306472
 31
0.0
  0
LINE
  5
8C5
330
8AD
100
AcDbEntity
  8
文字
 62
     0
370
    -2
100
AcDbLine
 10
183.7406778511432
 20
68.75958295810555
 30
0.0
 11
183.7406778511432
 21
30.94611470306472
 31
0.0
  0
LINE
  5
8C6
330
8AD
100
AcDbEntity
  8
文字
 62
     0
370
    -2
100
AcDbLine
 10
167.274721508264
 20
32.19611470306472
 30
0.0
 11
181.2406778511432
 21
32.19611470306472
 31
0.0
  0
SOLID
  5
8C7
330
8AD
100
AcDbEntity
  8
文字
 62
     0
100
AcDbTrace
 10
167.274721508264
 20
32.61278136973139
 30
0.0
 11
167.274721508264
 21
31.77944803639805
 31
0.0
 12
164.774721508264
 22
32.19611470306472
 32
0.0
 13
164.774721508264
 23
32.19611470306472
 33
0.0
  0
SOLID
  5
8C8
330
8AD
100
AcDbEntity
  8
文字
 62
     0
100
AcDbTrace
 10
181.2406778511432
 20
31.77944803639805
 30
0.0
 11
181.2406778511432
 21
32.61278136973139
 31
0.0
 12
183.7406778511432
 22
32.19611470306472
 32
0.0
 13
183.7406778511432
 23
32.19611470306472
 33
0.0
  0
MTEXT
  5
8C9
330
8AD
100
AcDbEntity
  8
文字
 62
     0
100
AcDbMText
 10
174.2576996797036
 20
34.07111470306472
 30
0.0
 40
2.5
 41
0.0
 46
0.0
 71
     5
 72
     1
  1
19
 73
     1
 44
1.0
  0
POINT
  5
8CA
330
8AD
100
AcDbEntity
  8
Defpoints
 62
     0
100
AcDbPoint
 10
164.774721508264
 20
69.38458295810555
 30
0.0
  0
POINT
  5
8CB
330
8AD
100
AcDbEntity
  8
Defpoints
 62
     0
100
AcDbPoint
 10
183.7406778511432
 20
69.38458295810555
 30
0.0
  0
POINT
  5
8CC
330
8AD
100
AcDbEntity
  8
Defpoints
 62
     0
100
AcDbPoint
 10
183.7406778511432
 20
32.19611470306472
 30
0.0
  0
ENDBLK
  5
8B8
330
8AD
100
AcDbEntity
  8
0
100
AcDbBlockEnd
  0
BLOCK
  5
954
330
94A
100
AcDbEntity
  8
0
100
AcDbBlockBegin
  2
*D2
 70
     1
 10
0.0
 20
0.0
 30
0.0
  3
*D2
  1
*D8
  0
LINE
  5
AE7
330
94A
100
AcDbEntity
  8
文字
 62
     0
370
    -2
100
AcDbLine
 10
66.43830259097528
 20
114.4616195314361
 30
0.0
 11
66.43830259097528
 21
127.6589566911047
 31
0.0
  0
LINE
  5
AE8
330
94A
100
AcDbEntity
  8
文字
 62
     0
370
    -2
100
AcDbLine
 10
78.43830259097528
 20
114.4616195314361
 30
0.0
 11
78.43830259097528
 21
127.6589566911047
 31
0.0
  0
LINE
  5
AE9
330
94A
100
AcDbEntity
  8
文字
 62
     0
370
    -2
100
AcDbLine
 10
68.93830259097528
 20
126.4089566911047
 30
0.0
 11
75.93830259097528
 21
126.4089566911047
 31
0.0
  0
SOLID
  5
AEA
330
94A
100
AcDbEntity
  8
文字
 62
     0
100
AcDbTrace
 10
68.93830259097528
 20
126.8256233577714
 30
0.0
 11
68.93830259097528
 21
125.992290024438
 31
0.0
 12
66.43830259097528
 22
126.4089566911047
 32
0.0
 13
66.43830259097528
 23
126.4089566911047
 33
0.0
  0
SOLID
  5
AEB
330
94A
100
AcDbEntity
  8
文字
 62
     0
100
AcDbTrace
 10
75.93830259097528
 20
125.992290024438
 30
0.0
 11
75.93830259097528
 21
126.8256233577714
 31
0.0
 12
78.43830259097528
 22
126.4089566911047
 32
0.0
 13
78.43830259097528
 23
126.4089566911047
 33
0.0
  0
MTEXT
  5
AEC
330
94A
100
AcDbEntity
  8
文字
 62
     0
100
AcDbMText
 10
72.43830259097528
 20
128.2839566911047
 30
0.0
 40
2.5
 41
0.0
 46
0.0
 71
     5
 72
     1
  1
{\fArial|b0|i0|c0|p32;M}12
 73
     1
 44
1.0
  0
POINT
  5
AED
330
94A
100
AcDbEntity
  8
Defpoints
 62
     0
100
AcDbPoint
 10
66.43830259097528
 20
113.8366195314361
 30
0.0
  0
POINT
  5
AEE
330
94A
100
AcDbEntity
  8
Defpoints
 62
     0
100
AcDbPoint
 10
78.43830259097528
 20
113.8366195314361
 30
0.0
  0
POINT
  5
AEF
330
94A
100
AcDbEntity
  8
Defpoints
 62
     0
100
AcDbPoint
 10
78.43830259097528
 20
126.4089566911047
 30
0.0
  0
ENDBLK
  5
955
330
94A
100
AcDbEntity
  8
0
100
AcDbBlockEnd
  0
BLOCK
  5
A38
330
A2E
100
AcDbEntity
  8
0
100
AcDbBlockBegin
  2
*D3
 70
     1
 10
0.0
 20
0.0
 30
0.0
  3
*D3
  1
*D15
  0
LINE
  5
AD1
330
A2E
100
AcDbEntity
  8
文字
 62
     0
370
    -2
100
AcDbLine
 10
92.56330259097531
 20
62.06043553305375
 30
0.0
 11
117.1472066414392
 21
62.06043553305374
 31
0.0
  0
LINE
  5
AD2
330
A2E
100
AcDbEntity
  8
文字
 62
     0
370
    -2
100
AcDbLine
 10
101.0633025909753
 20
43.93833947389145
 30
0.0
 11
117.1472066414392
 21
43.93833947389144
 31
0.0
  0
LINE
  5
AD3
330
A2E
100
AcDbEntity
  8
文字
 62
     0
370
    -2
100
AcDbLine
 10
115.8972066414392
 20
59.56043553305374
 30
0.0
 11
115.8972066414392
 21
46.43833947389144
 31
0.0
  0
SOLID
  5
AD4
330
A2E
100
AcDbEntity
  8
文字
 62
     0
100
AcDbTrace
 10
115.4805399747725
 20
59.56043553305374
 30
0.0
 11
116.3138733081058
 21
59.56043553305374
 31
0.0
 12
115.8972066414392
 22
62.06043553305374
 32
0.0
 13
115.8972066414392
 23
62.06043553305374
 33
0.0
  0
SOLID
  5
AD5
330
A2E
100
AcDbEntity
  8
文字
 62
     0
100
AcDbTrace
 10
115.4805399747725
 20
46.43833947389144
 30
0.0
 11
116.3138733081058
 21
46.43833947389144
 31
0.0
 12
115.8972066414392
 22
43.93833947389144
 32
0.0
 13
115.8972066414392
 23
43.93833947389144
 33
0.0
  0
MTEXT
  5
AD6
330
A2E
100
AcDbEntity
  8
文字
 62
     0
100
AcDbMText
 10
114.0222066414391
 20
52.99938750347261
 30
0.0
 40
2.5
 41
0.0
 46
0.0
 71
     5
 72
     1
  1
18
 11
6.123031769111886E-17
 21
1.0
 31
0.0
 73
     1
 44
1.0
  0
POINT
  5
AD7
330
A2E
100
AcDbEntity
  8
Defpoints
 62
     0
100
AcDbPoint
 10
91.93830259097531
 20
62.06043553305375
 30
0.0
  0
POINT
  5
AD8
330
A2E
100
AcDbEntity
  8
Defpoints
 62
     0
100
AcDbPoint
 10
100.4383025909753
 20
43.93833947389145
 30
0.0
  0
POINT
  5
AD9
330
A2E
100
AcDbEntity
  8
Defpoints
 62
     0
100
AcDbPoint
 10
115.8972066414392
 20
43.93833947389144
 30
0.0
  0
ENDBLK
  5
A39
330
A2E
100
AcDbEntity
  8
0
100
AcDbBlockEnd
  0
BLOCK
  5
A44
330
A3A
100
AcDbEntity
  8
0
100
AcDbBlockBegin
  2
*D4
 70
     1
 10
0.0
 20
0.0
 30
0.0
  3
*D4
  1
*D16
  0
LINE
  5
AC8
330
A3A
100
AcDbEntity
  8
文字
 62
     0
370
    -2
100
AcDbLine
 10
42.43830259097528
 20
44.68833947389143
 30
0.0
 11
42.43830259097528
 21
21.31760670952083
 31
0.0
  0
LINE
  5
AC9
330
A3A
100
AcDbEntity
  8
文字
 62
     0
370
    -2
100
AcDbLine
 10
102.4383025909753
 20
45.31333947389145
 30
0.0
 11
102.4383025909753
 21
21.31760670952083
 31
0.0
  0
LINE
  5
ACA
330
A3A
100
AcDbEntity
  8
文字
 62
     0
370
    -2
100
AcDbLine
 10
44.93830259097528
 20
22.56760670952083
 30
0.0
 11
99.93830259097525
 21
22.56760670952083
 31
0.0
  0
SOLID
  5
ACB
330
A3A
100
AcDbEntity
  8
文字
 62
     0
100
AcDbTrace
 10
44.93830259097528
 20
22.9842733761875
 30
0.0
 11
44.93830259097528
 21
22.15094004285416
 31
0.0
 12
42.43830259097528
 22
22.56760670952083
 32
0.0
 13
42.43830259097528
 23
22.56760670952083
 33
0.0
  0
SOLID
  5
ACC
330
A3A
100
AcDbEntity
  8
文字
 62
     0
100
AcDbTrace
 10
99.93830259097525
 20
22.9842733761875
 30
0.0
 11
99.93830259097525
 21
22.15094004285416
 31
0.0
 12
102.4383025909753
 22
22.56760670952083
 32
0.0
 13
102.4383025909753
 23
22.56760670952083
 33
0.0
  0
MTEXT
  5
ACD
330
A3A
100
AcDbEntity
  8
文字
 62
     0
100
AcDbMText
 10
72.43830259097527
 20
24.44260670952083
 30
0.0
 40
2.5
 41
0.0
 46
0.0
 71
     5
 72
     1
  1
%%c60
 73
     1
 44
1.0
  0
POINT
  5
ACE
330
A3A
100
AcDbEntity
  8
Defpoints
 62
     0
100
AcDbPoint
 10
42.43830259097528
 20
45.31333947389143
 30
0.0
  0
POINT
  5
ACF
330
A3A
100
AcDbEntity
  8
Defpoints
 62
     0
100
AcDbPoint
 10
102.4383025909753
 20
45.93833947389145
 30
0.0
  0
POINT
  5
AD0
330
A3A
100
AcDbEntity
  8
Defpoints
 62
     0
100
AcDbPoint
 10
102.4383025909753
 20
22.56760670952083
 30
0.0
  0
ENDBLK
  5
A45
330
A3A
100
AcDbEntity
  8
0
100
AcDbBlockEnd
  0
BLOCK
  5
A83
330
A79
100
AcDbEntity
  8
0
100
AcDbBlockBegin
  2
*D5
 70
     1
 10
0.0
 20
0.0
 30
0.0
  3
*D5
  1
*D17
  0
LINE
  5
A90
330
A79
100
AcDbEntity
  8
文字
 62
     0
370
    -2
100
AcDbLine
 10
154.7576996797036
 20
74.23458295810555
 30
0.0
 11
154.7576996797036
 21
21.48813212721052
 31
0.0
  0
LINE
  5
A91
330
A79
100
AcDbEntity
  8
文字
 62
     0
370
    -2
100
AcDbLine
 10
193.7576996797036
 20
74.23458295810555
 30
0.0
 11
193.7576996797036
 21
21.48813212721052
 31
0.0
  0
LINE
  5
A92
330
A79
100
AcDbEntity
  8
文字
 62
     0
370
    -2
100
AcDbLine
 10
157.2576996797036
 20
22.73813212721052
 30
0.0
 11
191.2576996797036
 21
22.73813212721052
 31
0.0
  0
SOLID
  5
A93
330
A79
100
AcDbEntity
  8
文字
 62
     0
100
AcDbTrace
 10
157.2576996797036
 20
23.15479879387719
 30
0.0
 11
157.2576996797036
 21
22.32146546054385
 31
0.0
 12
154.7576996797036
 22
22.73813212721052
 32
0.0
 13
154.7576996797036
 23
22.73813212721052
 33
0.0
  0
SOLID
  5
A94
330
A79
100
AcDbEntity
  8
文字
 62
     0
100
AcDbTrace
 10
191.2576996797036
 20
22.32146546054385
 30
0.0
 11
191.2576996797036
 21
23.15479879387719
 31
0.0
 12
193.7576996797036
 22
22.73813212721052
 32
0.0
 13
193.7576996797036
 23
22.73813212721052
 33
0.0
  0
MTEXT
  5
A95
330
A79
100
AcDbEntity
  8
文字
 62
     0
100
AcDbMText
 10
174.2576996797036
 20
24.61313212721052
 30
0.0
 40
2.5
 41
0.0
 46
0.0
 71
     5
 72
     1
  1
%%c39
 73
     1
 44
1.0
  0
POINT
  5
A96
330
A79
100
AcDbEntity
  8
Defpoints
 62
     0
100
AcDbPoint
 10
154.7576996797036
 20
74.85958295810555
 30
0.0
  0
POINT
  5
A97
330
A79
100
AcDbEntity
  8
Defpoints
 62
     0
100
AcDbPoint
 10
193.7576996797036
 20
74.85958295810555
 30
0.0
  0
POINT
  5
A98
330
A79
100
AcDbEntity
  8
Defpoints
 62
     0
100
AcDbPoint
 10
193.7576996797036
 20
22.73813212721052
 30
0.0
  0
ENDBLK
  5
A84
330
A79
100
AcDbEntity
  8
0
100
AcDbBlockEnd
  0
BLOCK
  5
AFB
330
AF1
100
AcDbEntity
  8
0
100
AcDbBlockBegin
  2
*D6
 70
     1
 10
0.0
 20
0.0
 30
0.0
  3
*D6
  1
*D18
  0
LINE
  5
AFE
330
AF1
100
AcDbEntity
  8
文字
 62
     0
370
    -2
100
AcDbLine
 10
77.06169205268543
 20
120.077715723604
 30
0.0
 11
117.2679534981718
 21
120.077715723604
 31
0.0
  0
LINE
  5
AFF
330
AF1
100
AcDbEntity
  8
文字
 62
     0
370
    -2
100
AcDbLine
 10
84.01330259097529
 20
70.07582878841235
 30
0.0
 11
117.2679534981718
 21
70.07582878841235
 31
0.0
  0
LINE
  5
B00
330
AF1
100
AcDbEntity
  8
文字
 62
     0
370
    -2
100
AcDbLine
 10
116.0179534981718
 20
117.577715723604
 30
0.0
 11
116.0179534981718
 21
72.57582878841235
 31
0.0
  0
SOLID
  5
B01
330
AF1
100
AcDbEntity
  8
文字
 62
     0
100
AcDbTrace
 10
116.4346201648385
 20
117.577715723604
 30
0.0
 11
115.6012868315051
 21
117.577715723604
 31
0.0
 12
116.0179534981718
 22
120.077715723604
 32
0.0
 13
116.0179534981718
 23
120.077715723604
 33
0.0
  0
SOLID
  5
B02
330
AF1
100
AcDbEntity
  8
文字
 62
     0
100
AcDbTrace
 10
115.6012868315051
 20
72.57582878841235
 30
0.0
 11
116.4346201648385
 21
72.57582878841235
 31
0.0
 12
116.0179534981718
 22
70.07582878841235
 32
0.0
 13
116.0179534981718
 23
70.07582878841235
 33
0.0
  0
MTEXT
  5
B03
330
AF1
100
AcDbEntity
  8
文字
 62
     0
100
AcDbMText
 10
114.1429534981718
 20
95.0767722560082
 30
0.0
 40
2.5
 41
0.0
 46
0.0
 71
     5
 72
     1
  1
50
 11
0.0
 21
1.0
 31
0.0
 73
     1
 44
1.0
  0
POINT
  5
B04
330
AF1
100
AcDbEntity
  8
Defpoints
 62
     0
100
AcDbPoint
 10
76.43669205268543
 20
120.077715723604
 30
0.0
  0
POINT
  5
B05
330
AF1
100
AcDbEntity
  8
Defpoints
 62
     0
100
AcDbPoint
 10
83.38830259097529
 20
70.07582878841235
 30
0.0
  0
POINT
  5
B06
330
AF1
100
AcDbEntity
  8
Defpoints
 62
     0
100
AcDbPoint
 10
116.0179534981718
 20
70.07582878841235
 30
0.0
  0
ENDBLK
  5
AFC
330
AF1
100
AcDbEntity
  8
0
100
AcDbBlockEnd
  0
BLOCK
  5
BBC
330
BBB
100
AcDbEntity
  8
0
100
AcDbBlockBegin
  2
*D7
 70
     1
 10
0.0
 20
0.0
 30
0.0
  3
*D7
  1
*D8
  0
LINE
  5
BBD
330
BBB
100
AcDbEntity
  8
文字
 62
     0
370
    -2
100
AcDbLine
 10
15.00069579844845
 20
10.00019833783685
 30
0.0
 11
1.875
 21
10.00019833783685
 31
0.0
  0
LINE
  5
BBE
330
BBB
100
AcDbEntity
  8
文字
 62
     0
370
    -2
100
AcDbLine
 10
15.8422714469077
 20
0.0
 30
0.0
 11
1.875
 21
0.0
 31
0.0
  0
LINE
  5
BBF
330
BBB
100
AcDbEntity
  8
文字
 62
     0
370
    -2
100
AcDbLine
 10
3.125
 20
7.500198337836849
 30
0.0
 11
3.125
 21
2.5
 31
0.0
  0
SOLID
  5
BC0
330
BBB
100
AcDbEntity
  8
文字
 62
     0
100
AcDbTrace
 10
3.541666666666667
 20
7.500198337836849
 30
0.0
 11
2.708333333333333
 21
7.500198337836849
 31
0.0
 12
3.125
 22
10.00019833783685
 32
0.0
 13
3.125
 23
10.00019833783685
 33
0.0
  0
SOLID
  5
BC1
330
BBB
100
AcDbEntity
  8
文字
 62
     0
100
AcDbTrace
 10
2.708333333333333
 20
2.5
 30
0.0
 11
3.541666666666666
 21
2.5
 31
0.0
 12
3.125
 22
0.0
 32
0.0
 13
3.125
 23
0.0
 33
0.0
  0
MTEXT
  5
BC2
330
BBB
100
AcDbEntity
  8
文字
 62
     0
100
AcDbMText
 10
1.25
 20
5.156323232109969
 30
0.0
 40
2.5
 41
0.0
 46
0.0
 71
     5
 72
     1
  1
10
 11
4.440804020554295E-17
 21
1.0
 31
0.0
 73
     1
 44
1.0
  0
POINT
  5
BC3
330
BBB
100
AcDbEntity
  8
Defpoints
 62
     0
100
AcDbPoint
 10
15.62569579844845
 20
10.00019833783685
 30
0.0
  0
POINT
  5
BC4
330
BBB
100
AcDbEntity
  8
Defpoints
 62
     0
100
AcDbPoint
 10
16.4672714469077
 20
0.0
 30
0.0
  0
POINT
  5
BC5
330
BBB
100
AcDbEntity
  8
Defpoints
 62
     0
100
AcDbPoint
 10
3.125
 20
0.0000000000000008
 30
0.0
  0
ENDBLK
  5
BC6
330
BBB
100
AcDbEntity
  8
0
100
AcDbBlockEnd
  0
BLOCK
  5
BCD
330
BCC
100
AcDbEntity
  8
0
100
AcDbBlockBegin
  2
*D8
 70
     1
 10
0.0
 20
0.0
 30
0.0
  3
*D8
  1
*D9
  0
LINE
  5
BCF
330
BCC
100
AcDbEntity
  8
文字
 62
     0
370
    -2
100
AcDbLine
 10
41.67057383587833
 20
54.10389723510939
 30
0.0
 11
28.54487803742988
 21
54.10389723510939
 31
0.0
  0
LINE
  5
BD0
330
BCC
100
AcDbEntity
  8
文字
 62
     0
370
    -2
100
AcDbLine
 10
42.51214948433758
 20
44.10369889727254
 30
0.0
 11
28.54487803742988
 21
44.10369889727254
 31
0.0
  0
LINE
  5
BD1
330
BCC
100
AcDbEntity
  8
文字
 62
     0
370
    -2
100
AcDbLine
 10
29.79487803742988
 20
51.60389723510939
 30
0.0
 11
29.79487803742988
 21
46.60369889727254
 31
0.0
  0
SOLID
  5
BD2
330
BCC
100
AcDbEntity
  8
文字
 62
     0
100
AcDbTrace
 10
30.21154470409655
 20
51.60389723510939
 30
0.0
 11
29.37821137076321
 21
51.60389723510939
 31
0.0
 12
29.79487803742988
 22
54.10389723510939
 32
0.0
 13
29.79487803742988
 23
54.10389723510939
 33
0.0
  0
SOLID
  5
BD3
330
BCC
100
AcDbEntity
  8
文字
 62
     0
100
AcDbTrace
 10
29.37821137076321
 20
46.60369889727254
 30
0.0
 11
30.21154470409655
 21
46.60369889727254
 31
0.0
 12
29.79487803742988
 22
44.10369889727254
 32
0.0
 13
29.79487803742988
 23
44.10369889727254
 33
0.0
  0
MTEXT
  5
BD4
330
BCC
100
AcDbEntity
  8
文字
 62
     0
100
AcDbMText
 10
27.91987803742988
 20
49.26002212938251
 30
0.0
 40
2.5
 41
0.0
 46
0.0
 71
     5
 72
     1
  1
10
 11
0.0
 21
1.0
 31
0.0
 73
     1
 44
1.0
  0
POINT
  5
BD5
330
BCC
100
AcDbEntity
  8
Defpoints
 62
     0
100
AcDbPoint
 10
42.29557383587833
 20
54.10389723510939
 30
0.0
  0
POINT
  5
BD6
330
BCC
100
AcDbEntity
  8
Defpoints
 62
     0
100
AcDbPoint
 10
43.13714948433758
 20
44.10369889727254
 30
0.0
  0
POINT
  5
BD7
330
BCC
100
AcDbEntity
  8
Defpoints
 62
     0
100
AcDbPoint
 10
29.79487803742988
 20
44.10369889727254
 30
0.0
  0
ENDBLK
  5
BCE
330
BCC
100
AcDbEntity
  8
0
100
AcDbBlockEnd
  0
ENDSEC
  0
SECTION
  2
ENTITIES
  0
CIRCLE
  5
640
330
21
100
AcDbEntity
  8
実線
100
AcDbCircle
 10
174.2576996797036
 20
74.85958295810555
 30
0.0
 40
30.0
  0
LWPOLYLINE
  5
663
102
{ACAD_REACTORS
330
B07
102
}
330
21
100
AcDbEntity
  8
実線
100
AcDbPolyline
 90
        4
 70
     0
 43
0.0
 10
83.38830259097529
 20
64.07582878841235
 10
83.38830259097529
 20
70.07582878841235
 10
61.48830259097529
 20
70.07582878841235
 10
61.48830259097529
 20
64.07582878841235
  0
LINE
  5
664
330
21
100
AcDbEntity
  8
実線
100
AcDbLine
 10
78.38830259097529
 20
70.07582878841235
 30
0.0
 11
78.38830259097529
 21
63.07582878841234
 31
0.0
  0
LINE
  5
665
330
21
100
AcDbEntity
  8
実線
100
AcDbLine
 10
66.4883025909753
 20
70.07582878841235
 30
0.0
 11
66.4883025909753
 21
63.07582878841235
 31
0.0
  0
ARC
  5
669
330
21
100
AcDbEntity
  8
実線
100
AcDbCircle
 10
63.98830259097529
 20
65.64575748816969
 30
0.0
 40
3.58532195511595
100
AcDbArc
 50
225.7902212344514
 51
314.2097787655486
  0
ARC
  5
66B
330
21
100
AcDbEntity
  8
実線
100
AcDbCircle
 10
80.88830259097529
 20
65.57582878841238
 30
0.0
 40
3.535533905932768
100
AcDbArc
 50
225.0000000000004
 51
314.9999999999998
  0
LINE
  5
66C
330
21
100
AcDbEntity
  8
実線
100
AcDbLine
 10
83.3883025909753
 20
63.07582878841235
 30
0.0
 11
83.38830259097529
 21
64.07582878841235
 31
0.0
  0
LINE
  5
66D
330
21
100
AcDbEntity
  8
実線
100
AcDbLine
 10
83.38830259097529
 20
64.07582878841235
 30
0.0
 11
83.3883025909753
 21
63.07582878841235
 31
0.0
  0
LINE
  5
66E
330
21
100
AcDbEntity
  8
実線
100
AcDbLine
 10
61.48830259097529
 20
64.07582878841235
 30
0.0
 11
61.48830259097529
 21
63.07582878841235
 31
0.0
  0
LWPOLYLINE
  5
67A
102
{ACAD_REACTORS
330
8C3
102
}
330
21
100
AcDbEntity
  8
実線
100
AcDbPolyline
 90
        6
 70
     1
 43
0.0
 10
164.774721508264
 20
69.38458295810555
 10
174.2576996797036
 20
63.90958295810556
 10
183.7406778511432
 20
69.38458295810555
 10
183.7406778511432
 20
80.33458295810556
 10
174.2576996797036
 20
85.80958295810555
 10
164.774721508264
 20
80.33458295810566
  0
CIRCLE
  5
67D
330
21
100
AcDbEntity
  8
実線
100
AcDbCircle
 10
174.2576996797036
 20
74.85958295810555
 30
0.0
 40
6.0
  0
CIRCLE
  5
67E
330
21
100
AcDbEntity
  8
実線
370
    20
100
AcDbCircle
 10
174.2576996797036
 20
74.85958295810555
 30
0.0
 40
5.15
  0
DIMENSION
  5
6C3
330
21
100
AcDbEntity
  8
文字
100
AcDbDimension
280
     0
  2
*D0
 10
116.0179534981718
 20
70.07582878841234
 30
0.0
 11
114.1429534981718
 21
66.058061835446
 31
0.0
 70
    32
  1
8
 71
     5
 42
8.03553390593273
 73
     0
 74
     0
 75
     0
  3
ISO-25
100
AcDbAlignedDimension
 13
83.38830259097531
 23
62.04029488247961
 33
0.0
 14
83.38830259097531
 24
70.07582878841235
 34
0.0
 50
90.0
100
AcDbRotatedDimension
  0
LINE
  5
889
330
21
100
AcDbEntity
  8
中心線
100
AcDbLine
 10
72.43830259097528
 20
10.61958420581097
 30
0.0
 11
72.43830259097531
 21
143.7713716081371
 31
0.0
  0
LINE
  5
88B
330
21
100
AcDbEntity
  8
中心線
100
AcDbLine
 10
174.2576996797036
 20
74.85958295810555
 30
0.0
 11
174.2576996797036
 21
117.6269096326338
 31
0.0
  0
LINE
  5
88C
330
21
100
AcDbEntity
  8
中心線
100
AcDbLine
 10
174.2576996797036
 20
74.85958295810555
 30
0.0
 11
174.2576996797036
 21
38.44922614653831
 31
0.0
  0
DIMENSION
  5
8AC
102
{ACAD_REACTORS
330
8C3
102
}
102
{ACAD_XDICTIONARY
360
8B9
102
}
330
21
100
AcDbEntity
  8
文字
100
AcDbDimension
280
     0
  2
*D1
 10
183.7406778511432
 20
32.19611470306472
 30
0.0
 11
174.2576996797036
 21
34.07111470306472
 31
0.0
 70
    32
  1
19
 71
     5
 42
18.9659563428792
 73
     0
 74
     0
 75
     0
  3
ISO-25
100
AcDbAlignedDimension
 13
164.774721508264
 23
69.38458295810555
 33
0.0
 14
183.7406778511432
 24
69.38458295810555
 34
0.0
100
AcDbRotatedDimension
  0
DIMENSION
  5
949
330
21
100
AcDbEntity
  8
文字
100
AcDbDimension
280
     0
  2
*D2
 10
78.43830259097528
 20
126.4089566911047
 30
0.0
 11
72.43830259097528
 21
128.2839566911047
 31
0.0
 70
    32
  1
{\fArial|b0|i0|c0|p32;M}<>
 71
     5
 42
12.0
 73
     0
 74
     0
 75
     0
  3
ISO-25
100
AcDbAlignedDimension
 13
66.43830259097528
 23
113.8366195314361
 33
0.0
 14
78.43830259097528
 24
113.8366195314361
 34
0.0
100
AcDbRotatedDimension
  0
LINE
  5
98C
102
{ACAD_REACTORS
330
A8F
102
}
330
21
100
AcDbEntity
  8
中心線
100
AcDbLine
 10
174.2576996797036
 20
74.85958295810555
 30
0.0
 11
131.7313984952585
 21
74.85958295810555
 31
0.0
  0
LINE
  5
98D
102
{ACAD_REACTORS
330
A8F
102
}
330
21
100
AcDbEntity
  8
中心線
100
AcDbLine
 10
174.2576996797036
 20
74.85958295810555
 30
0.0
 11
218.7175870934688
 21
74.85958295810555
 31
0.0
  0
LINE
  5
9F1
330
21
100
AcDbEntity
  8
実線
100
AcDbLine
 10
72.43830259097531
 20
62.06043553305375
 30
0.0
 11
87.31088124996951
 21
62.06043553305375
 31
0.0
  0
LINE
  5
9F5
330
21
100
AcDbEntity
  8
実線
100
AcDbLine
 10
91.93830259097531
 20
62.06043553305375
 30
0.0
 11
101.610973150297
 21
55.05926446154471
 31
0.0
  0
LINE
  5
9F6
102
{ACAD_REACTORS
330
A0C
102
}
330
21
100
AcDbEntity
  8
実線
100
AcDbLine
 10
102.4383025909753
 20
53.43912750458705
 30
0.0
 11
102.4383025909753
 21
45.93833947389145
 31
0.0
  0
LINE
  5
9F7
330
21
100
AcDbEntity
  8
実線
100
AcDbLine
 10
100.4383025909753
 20
43.93833947389145
 30
0.0
 11
44.43830259097528
 21
43.93833947389143
 31
0.0
  0
LINE
  5
9F8
330
21
100
AcDbEntity
  8
実線
100
AcDbLine
 10
42.43830259097528
 20
45.93833947389143
 30
0.0
 11
42.43830259097531
 21
53.43912750458703
 31
0.0
  0
LINE
  5
9F9
330
21
100
AcDbEntity
  8
実線
100
AcDbLine
 10
43.26563203165354
 20
55.0592644615447
 30
0.0
 11
52.93830259097528
 21
62.06043553305375
 31
0.0
  0
LINE
  5
9FA
330
21
100
AcDbEntity
  8
実線
100
AcDbLine
 10
52.93830259097528
 20
62.06043553305375
 30
0.0
 11
72.43830259097528
 21
62.06043553305375
 31
0.0
  0
LINE
  5
9FB
330
21
100
AcDbEntity
  8
実線
100
AcDbLine
 10
42.43830259097528
 20
54.33833947389144
 30
0.0
 11
102.4383025909753
 21
54.33833947389144
 31
0.0
  0
LINE
  5
A02
102
{ACAD_REACTORS
330
A09
102
}
330
21
100
AcDbEntity
  8
実線
100
AcDbLine
 10
87.31088124996951
 20
62.06043553305375
 30
0.0
 11
91.93830259097531
 21
62.06043553305375
 31
0.0
  0
ARC
  5
A03
330
21
100
AcDbEntity
  8
実線
100
AcDbCircle
 10
44.43830259097528
 20
45.93833947389143
 30
0.0
 40
2.0
100
AcDbArc
 50
180.0
 51
270.0
  0
ARC
  5
A04
102
{ACAD_REACTORS
330
A09
330
A0C
102
}
330
21
100
AcDbEntity
  8
実線
100
AcDbCircle
 10
100.4383025909753
 20
45.93833947389145
 30
0.0
 40
2.0
100
AcDbArc
 50
270.0
 51
0.0
  0
ARC
  5
A05
330
21
100
AcDbEntity
  8
実線
100
AcDbCircle
 10
100.4383025909753
 20
53.43912750458705
 30
0.0
 40
2.0
100
AcDbArc
 50
0.0
 51
54.10262248829268
  0
ARC
  5
A06
330
21
100
AcDbEntity
  8
実線
100
AcDbCircle
 10
44.43830259097531
 20
53.43912750458703
 30
0.0
 40
2.0
100
AcDbArc
 50
125.8973775117073
 51
180.0
  0
DIMENSION
  5
A07
102
{ACAD_REACTORS
330
A09
102
}
102
{ACAD_XDICTIONARY
360
A08
102
}
330
21
100
AcDbEntity
  8
文字
100
AcDbDimension
280
     0
  2
*D3
 10
115.8972066414392
 20
43.93833947389144
 30
0.0
 11
114.0222066414391
 21
52.99938750347261
 31
0.0
 70
    32
  1
18
 71
     5
 42
18.1220960591623
 73
     0
 74
     0
 75
     0
  3
ISO-25
100
AcDbAlignedDimension
 13
91.93830259097531
 23
62.06043553305375
 33
0.0
 14
100.4383025909753
 24
43.93833947389145
 34
0.0
 50
90.0
100
AcDbRotatedDimension
  0
DIMENSION
  5
A0A
102
{ACAD_REACTORS
330
A0C
102
}
102
{ACAD_XDICTIONARY
360
A0B
102
}
330
21
100
AcDbEntity
  8
文字
100
AcDbDimension
280
     0
  2
*D4
 10
102.4383025909753
 20
22.56760670952083
 30
0.0
 11
72.43830259097527
 21
24.44260670952083
 31
0.0
 70
    32
  1
%%c<>
 71
     5
 42
59.99999999999997
 73
     0
 74
     0
 75
     0
  3
ISO-25
100
AcDbAlignedDimension
 13
42.43830259097528
 23
45.31333947389143
 33
0.0
 14
102.4383025909753
 24
45.93833947389145
 34
0.0
100
AcDbRotatedDimension
  0
LINE
  5
A5A
330
21
100
AcDbEntity
  8
実線
100
AcDbLine
 10
63.98830259097529
 20
62.06043553305375
 30
0.0
 11
80.51146010374852
 21
62.06043553305375
 31
0.0
  0
ARC
  5
A5B
330
21
100
AcDbEntity
  8
実線
100
AcDbCircle
 10
72.43830259097528
 20
80.00103306546535
 30
0.0
 40
17.94059753241159
100
AcDbArc
 50
250.6310427893815
 51
289.3689572106185
  0
CIRCLE
  5
A77
102
{ACAD_REACTORS
330
A8F
102
}
330
21
100
AcDbEntity
  8
実線
100
AcDbCircle
 10
174.2576996797036
 20
74.85958295810555
 30
0.0
 40
19.5
  0
DIMENSION
  5
A78
102
{ACAD_REACTORS
330
A8F
102
}
102
{ACAD_XDICTIONARY
360
A85
102
}
330
21
100
AcDbEntity
  8
文字
100
AcDbDimension
280
     0
  2
*D5
 10
193.7576996797036
 20
22.73813212721052
 30
0.0
 11
174.2576996797036
 21
24.61313212721052
 31
0.0
 70
    32
  1
%%c<>
 71
     5
 42
39.0
 73
     0
 74
     0
 75
     0
  3
ISO-25
100
AcDbAlignedDimension
 13
154.7576996797036
 23
74.85958295810555
 33
0.0
 14
193.7576996797036
 24
74.85958295810555
 34
0.0
100
AcDbRotatedDimension
  0
LWPOLYLINE
  5
AAC
330
21
100
AcDbEntity
  8
実線
100
AcDbPolyline
 90
        6
 70
     1
 43
0.0
 10
66.4883025909753
 20
70.07582878841235
 10
78.38830259097529
 20
70.07582878841235
 10
78.43830259097527
 20
118.208094220736
 10
76.43830259097527
 20
120.208094220736
 10
68.43830259097528
 20
120.208094220736
 10
66.43830259097528
 20
118.208094220736
  0
LINE
  5
AE4
330
21
100
AcDbEntity
  8
実線
370
    20
100
AcDbLine
 10
66.43830259097528
 20
118.208094220736
 30
0.0
 11
78.43830259097527
 21
118.208094220736
 31
0.0
  0
LINE
  5
AE5
330
21
100
AcDbEntity
  8
実線
370
    20
100
AcDbLine
 10
68.43830259097528
 20
120.208094220736
 30
0.0
 11
68.43830259097527
 21
70.07582878841234
 31
0.0
  0
LINE
  5
AE6
330
21
100
AcDbEntity
  8
実線
370
    20
100
AcDbLine
 10
76.43830259097527
 20
120.208094220736
 30
0.0
 11
76.43830259097525
 21
70.07582878841234
 31
0.0
  0
DIMENSION
  5
AF0
102
{ACAD_REACTORS
330
B07
102
}
102
{ACAD_XDICTIONARY
360
AFD
102
}
330
21
100
AcDbEntity
  8
文字
100
AcDbDimension
280
     0
  2
*D6
 10
116.0179534981718
 20
70.07582878841235
 30
0.0
 11
114.1429534981718
 21
95.0767722560082
 31
0.0
 70
    32
 71
     5
 42
50.00188693519169
 73
     0
 74
     0
 75
     0
  3
ISO-25
100
AcDbAlignedDimension
 13
76.43669205268543
 23
120.077715723604
 33
0.0
 14
83.38830259097529
 24
70.07582878841235
 34
0.0
 50
90.0
100
AcDbRotatedDimension
  0
MTEXT
  5
B8A
330
21
100
AcDbEntity
  8
文字・寸法線
 62
     0
100
AcDbMText
 10
77.79390202190876
 20
174.3668719718647
 30
0.0
 40
6.0
 41
0.0
 46
6.0
 71
     9
 72
     1
  1
{\fＭＳ ゴシック|b0|i0|c0|p0;S-W M12X50}
 73
     1
 44
1.0
1001
ACAD
1000
ACAD_MTEXT_DEFINED_HEIGHT_BEGIN
1070
    46
1040
6.0
1000
ACAD_MTEXT_DEFINED_HEIGHT_END
  0
DIMENSION
  5
BCA
102
{ACAD_XDICTIONARY
360
BCB
102
}
330
21
100
AcDbEntity
  8
文字
100
AcDbDimension
280
     0
  2
*D8
 10
29.79487803742988
 20
44.10369889727254
 30
0.0
 11
29.79487803742988
 21
49.26002212938251
 31
0.0
 70
   160
 71
     5
 42
10.00019833783685
 73
     0
 74
     0
 75
     0
  3
ISO-25
100
AcDbAlignedDimension
 13
42.29557383587833
 23
54.10389723510939
 33
0.0
 14
43.13714948433758
 24
44.10369889727254
 34
0.0
 50
90.0
100
AcDbRotatedDimension
  0
VIEWPORT
  5
B91
330
B55
100
AcDbEntity
 67
     1
  8
0
100
AcDbViewport
 10
202.5
 20
128.5
 30
0.0
 40
486.0
 41
308.4
 68
     1
 69
     1
 12
202.5
 22
128.5
 13
0.0
 23
0.0
 14
0.5
 24
0.5
 15
0.0
 25
0.0
 16
0.0
 26
0.0
 36
1.0
 17
0.0
 27
0.0
 37
0.0
 42
50.0
 43
0.0
 44
0.0
 45
308.4
 50
0.0
 51
0.0
 72
   100
 90
   557152
  1

281
     0
 71
     1
 74
     0
110
0.0
120
0.0
130
0.0
111
1.0
121
0.0
131
0.0
112
0.0
122
1.0
132
0.0
 79
     0
146
0.0
170
     0
 61
     5
348
B17
292
     1
282
     1
141
0.0
142
0.0
 63
   256
361
B93
  0
VIEWPORT
  5
B92
330
B55
100
AcDbEntity
 67
     1
  8
0
100
AcDbViewport
 10
202.5
 20
128.5
 30
0.0
 40
324.0
 41
205.6
 68
     2
 69
     2
 12
127.1897445576888
 22
95.49322808883782
 13
0.0
 23
0.0
 14
0.5
 24
0.5
 15
0.0
 25
0.0
 16
0.0
 26
0.0
 36
1.0
 17
0.0
 27
0.0
 37
0.0
 42
50.0
 43
0.0
 44
0.0
 45
173.1422335213748
 50
0.0
 51
0.0
 72
   100
 90
   557152
  1

281
     0
 71
     1
 74
     0
110
0.0
120
0.0
130
0.0
111
1.0
121
0.0
131
0.0
112
0.0
122
1.0
132
0.0
 79
     0
146
0.0
170
     0
 61
     5
348
B17
292
     1
282
     1
141
0.0
142
0.0
 63
   256
  0
ENDSEC
  0
SECTION
  2
OBJECTS
  0
DICTIONARY
  5
C
330
0
100
AcDbDictionary
281
     1
  3
AcadDim
350
6E9
  3
ACAD_COLOR
350
1C
  3
ACAD_DETAILVIEWSTYLE
350
B62
  3
ACAD_GROUP
350
D
  3
ACAD_IMAGE_VARS
350
B54
  3
ACAD_LAYOUT
350
1A
  3
ACAD_MATERIAL
350
1B
  3
ACAD_MLEADERSTYLE
350
B5F
  3
ACAD_MLINESTYLE
350
17
  3
ACAD_PLOTSETTINGS
350
19
  3
ACAD_PLOTSTYLENAME
350
E
  3
ACAD_SCALELIST
350
B2B
  3
ACAD_SECTIONVIEWSTYLE
350
B63
  3
ACAD_TABLESTYLE
350
B50
  3
ACAD_VISUALSTYLE
350
B12
  3
AcDbVariableDictionary
350
B59
  3
ACDB_RECOMPOSE_DATA
350
BE1
  3
APPDATA
350
B52
  0
SUN
  5
B53
330
B11
100
AcDbSun
 90
        1
290
     0
 63
     7
421
 16777215
 40
1.0
291
     1
 91
  2455826
 92
 54000000
292
     0
 70
     2
 71
   256
280
     1
  0
DICTIONARY
  5
8B9
330
8AC
100
AcDbDictionary
280
     1
281
     1
  3
ACAD_DIMASSOC
360
8C3
  0
DICTIONARY
  5
A08
330
A07
100
AcDbDictionary
280
     1
281
     1
  3
ACAD_DIMASSOC
360
A09
  0
DICTIONARY
  5
A0B
330
A0A
100
AcDbDictionary
280
     1
281
     1
  3
ACAD_DIMASSOC
360
A0C
  0
DICTIONARY
  5
A85
330
A78
100
AcDbDictionary
280
     1
281
     1
  3
ACAD_DIMASSOC
360
A8F
  0
DICTIONARY
  5
AFD
330
AF0
100
AcDbDictionary
280
     1
281
     1
  3
ACAD_DIMASSOC
360
B07
  0
DICTIONARY
  5
BCB
330
BCA
100
AcDbDictionary
280
     1
281
     1
  0
SUN
  5
B93
330
B91
100
AcDbSun
 90
        1
290
     0
 63
     7
421
 16777215
 40
1.0
291
     1
 91
  2455826
 92
 54000000
292
     0
 70
     2
 71
   256
280
     1
  0
XRECORD
  5
6E9
102
{ACAD_REACTORS
330
C
102
}
330
C
100
AcDbXrecord
280
     1
 90
   990106
  3

 60
     0
 61
     0
 62
     1
 63
     3
 64
     1
 65
     0
 66
     0
 67
     3
 68
     1
 69
     0
 70
     0
 71
     0
 72
     0
 40
0.0
170
     2
340
0
  0
DICTIONARY
  5
1C
102
{ACAD_REACTORS
330
C
102
}
330
C
100
AcDbDictionary
281
     1
  0
DICTIONARY
  5
B62
102
{ACAD_REACTORS
330
C
102
}
330
C
100
AcDbDictionary
281
     1
  0
DICTIONARY
  5
D
102
{ACAD_REACTORS
330
C
102
}
330
C
100
AcDbDictionary
281
     1
  0
RASTERVARIABLES
  5
B54
102
{ACAD_REACTORS
330
C
102
}
330
C
100
AcDbRasterVariables
 90
        0
 70
     1
 71
     1
 72
     1
  0
DICTIONARY
  5
1A
102
{ACAD_REACTORS
330
C
102
}
330
C
100
AcDbDictionary
281
     1
  3
Model
350
24
  3
Sheet1
350
B56
  0
DICTIONARY
  5
1B
102
{ACAD_REACTORS
330
C
102
}
330
C
100
AcDbDictionary
281
     1
  3
ByBlock
350
B4E
  3
ByLayer
350
B4D
  3
Global
350
B4F
  0
DICTIONARY
  5
B5F
102
{ACAD_REACTORS
330
C
102
}
330
C
100
AcDbDictionary
281
     1
  3
Standard
350
BDE
  0
DICTIONARY
  5
17
102
{ACAD_REACTORS
330
C
102
}
330
C
100
AcDbDictionary
281
     1
  3
Standard
350
18
  0
DICTIONARY
  5
19
102
{ACAD_REACTORS
330
C
102
}
330
C
100
AcDbDictionary
281
     1
  0
ACDBDICTIONARYWDFLT
  5
E
102
{ACAD_REACTORS
330
C
102
}
330
C
100
AcDbDictionary
281
     1
  3
Normal
350
F
100
AcDbDictionaryWithDefault
340
F
  0
DICTIONARY
  5
B2B
102
{ACAD_REACTORS
330
C
102
}
330
C
100
AcDbDictionary
281
     1
  3
A0
350
B2C
  3
A1
350
B2D
  3
A2
350
B2E
  3
A3
350
B2F
  3
A4
350
B30
  3
A5
350
B31
  3
A6
350
B32
  3
A7
350
B33
  3
A8
350
B34
  3
A9
350
B35
  3
B0
350
B36
  3
B1
350
B37
  3
B2
350
B38
  3
B3
350
B39
  3
B4
350
B3A
  3
B5
350
B3B
  3
B6
350
B3C
  3
B7
350
B3D
  3
B8
350
B3E
  3
B9
350
B3F
  3
C0
350
B40
  3
C1
350
B41
  3
C2
350
B42
  3
C3
350
B43
  3
C4
350
B44
  3
C5
350
B45
  3
C6
350
B46
  3
C7
350
B47
  3
C8
350
B48
  3
C9
350
B49
  3
D0
350
B4A
  3
D1
350
B4B
  3
D2
350
B4C
  0
DICTIONARY
  5
B63
102
{ACAD_REACTORS
330
C
102
}
330
C
100
AcDbDictionary
281
     1
  0
DICTIONARY
  5
B50
102
{ACAD_REACTORS
330
C
102
}
330
C
100
AcDbDictionary
281
     1
  3
Standard
350
B51
  0
DICTIONARY
  5
B12
102
{ACAD_REACTORS
330
C
102
}
330
C
100
AcDbDictionary
281
     1
  3
2dWireframe
350
B17
  3
Basic
350
B1A
  3
Brighten
350
B1E
  3
ColorChange
350
B22
  3
Conceptual
350
B1C
  3
Dim
350
B1D
  3
EdgeColorOff
350
B25
  3
Facepattern
350
B21
  3
Flat
350
B13
  3
FlatWithEdges
350
B14
  3
Gouraud
350
B15
  3
GouraudWithEdges
350
B16
  3
Hidden
350
B19
  3
JitterOff
350
B23
  3
Linepattern
350
B20
  3
OverhangOff
350
B24
  3
Realistic
350
B1B
  3
Shaded
350
B2A
  3
Shaded with edges
350
B29
  3
Shades of Gray
350
B26
  3
Sketchy
350
B27
  3
Thicken
350
B1F
  3
Wireframe
350
B18
  3
X-Ray
350
B28
  0
DICTIONARY
  5
B59
102
{ACAD_REACTORS
330
C
102
}
330
C
100
AcDbDictionary
281
     1
  3
CANNOSCALE
350
B5A
  3
CMLEADERSTYLE
350
BE2
  3
CTABLESTYLE
350
B5E
  3
MSLTSCALE
350
B60
  3
XCLIPFRAME
350
B61
  0
XRECORD
  5
BE1
102
{ACAD_REACTORS
330
C
102
}
330
C
100
AcDbXrecord
280
     1
 90
        1
330
B51
  0
DICTIONARY
  5
B52
102
{ACAD_REACTORS
330
C
102
}
330
C
100
AcDbDictionary
281
     1
  0
DIMASSOC
  5
8C3
102
{ACAD_REACTORS
330
8B9
102
}
330
8B9
100
AcDbDimAssoc
330
8AC
 90
        3
 70
     0
 71
     0
  1
AcDbOsnapPointRef
 72
    13
331
67A
 73
     2
 91
        1
 40
0.0
 10
0.0
 20
0.0
 30
2.000000000000000E+50
 75
     0
  1
AcDbOsnapPointRef
 72
     1
331
67A
 73
     2
 91
        2
 40
1.0
 10
0.0
 20
0.0
 30
2.000000000000000E+50
 75
     0
  0
DIMASSOC
  5
A09
102
{ACAD_REACTORS
330
A08
102
}
330
A08
100
AcDbDimAssoc
330
A07
 90
        3
 70
     0
 71
     0
  1
AcDbOsnapPointRef
 72
     1
331
A02
 73
     2
 91
        0
 40
1.0
 10
0.0
 20
0.0
 30
2.000000000000000E+50
 75
     0
  1
AcDbOsnapPointRef
 72
    13
331
A04
 73
     2
 91
        0
 40
4.71238898038469
 10
0.0
 20
0.0
 30
2.000000000000000E+50
 75
     0
  0
DIMASSOC
  5
A0C
102
{ACAD_REACTORS
330
A0B
102
}
330
A0B
100
AcDbDimAssoc
330
A0A
 90
        2
 70
     0
 71
     0
  1
AcDbOsnapPointRef
 72
     6
331
9F6
 73
     2
 91
        0
 40
0.9999999999999999
 10
0.0
 20
0.0
 30
0.0
332
A04
 74
     2
 92
        0
 75
     0
  0
DIMASSOC
  5
A8F
102
{ACAD_REACTORS
330
A85
102
}
330
A85
100
AcDbDimAssoc
330
A78
 90
        3
 70
     0
 71
     0
  1
AcDbOsnapPointRef
 72
     6
331
98C
 73
     2
 91
        0
 40
0.4585397614390354
 10
0.0
 20
0.0
 30
0.0
332
A77
 74
     2
 92
        0
 75
     0
  1
AcDbOsnapPointRef
 72
     6
331
98D
 73
     2
 91
        0
 40
0.438597601890522
 10
0.0
 20
0.0
 30
0.0
332
A77
 74
     2
 92
        0
 75
     0
  0
DIMASSOC
  5
B07
102
{ACAD_REACTORS
330
AFD
102
}
330
AFD
100
AcDbDimAssoc
330
AF0
 90
        2
 70
     0
 71
     0
  1
AcDbOsnapPointRef
 72
     1
331
663
 73
     2
 91
        1
 40
1.0
 10
0.0
 20
0.0
 30
2.000000000000000E+50
 75
     0
  0
LAYOUT
  5
24
102
{ACAD_REACTORS
330
1A
102
}
330
1A
100
AcDbPlotSettings
  1

  2
\\SF05\Brother HL-1440 series
  4
A4
  6

 40
6.72041654586792
 41
5.027085304260254
 42
6.889755249023438
 43
5.027069091796875
 44
209.9733276367188
 45
296.9259948730469
 46
-6.82
 47
-5.06
 48
0.0
 49
0.0
140
297.0000000000001
141
210.0
142
1.0
143
1.0
 70
 11956
 72
     1
 73
     1
 74
     4
  7

 75
    16
 76
     1
 77
     2
 78
   300
147
1.0
148
0.0
149
0.0
100
AcDbLayout
  1
Model
 70
     1
 71
     0
 10
0.0
 20
0.0
 11
12.0
 21
9.0
 12
0.0
 22
0.0
 32
0.0
 14
21.6224734504802
 24
10.61958420581097
 34
0.0
 15
218.7175870934688
 25
180.3668719718647
 35
0.0
146
0.0
 13
0.0
 23
0.0
 33
0.0
 16
1.0
 26
0.0
 36
0.0
 17
0.0
 27
1.0
 37
0.0
 76
     0
330
21
331
B11
  0
LAYOUT
  5
B56
102
{ACAD_REACTORS
330
1A
102
}
330
1A
100
AcDbPlotSettings
  1

  2
none_device
  4
ISO_A3_(420.00_x_297.00_MM)
  6

 40
7.5
 41
20.0
 42
7.5
 43
20.0
 44
420.0
 45
297.0
 46
0.0
 47
0.0
 48
0.0
 49
0.0
140
0.0
141
0.0
142
1.0
143
1.0
 70
   688
 72
     1
 73
     0
 74
     5
  7

 75
    16
 76
     0
 77
     2
 78
   300
147
1.0
148
0.0
149
0.0
100
AcDbLayout
  1
Sheet1
 70
     1
 71
     1
 10
0.0
 20
0.0
 11
0.0
 21
0.0
 12
0.0
 22
0.0
 32
0.0
 14
0.0
 24
0.0
 34
0.0
 15
0.0
 25
0.0
 35
0.0
146
0.0
 13
0.0
 23
0.0
 33
0.0
 16
1.0
 26
0.0
 36
0.0
 17
0.0
 27
1.0
 37
0.0
 76
     0
330
B55
331
B91
  0
MATERIAL
  5
B4E
102
{ACAD_REACTORS
330
1B
102
}
330
1B
100
AcDbMaterial
  1
ByBlock
 72
     1
 94
      127
  0
MATERIAL
  5
B4D
102
{ACAD_REACTORS
330
1B
102
}
330
1B
100
AcDbMaterial
  1
ByLayer
 72
     1
 94
      127
  0
MATERIAL
  5
B4F
102
{ACAD_REACTORS
330
1B
102
}
330
1B
100
AcDbMaterial
  1
Global
 72
     1
 94
      127
  0
MLEADERSTYLE
  5
BDE
102
{ACAD_REACTORS
330
B5F
102
}
330
B5F
100
AcDbMLeaderStyle
179
     2
170
     2
171
     1
172
     0
 90
        2
 40
0.0
 41
0.0
173
     1
 91
-1056964608
340
14
 92
       -2
290
     1
 42
2.0
291
     1
 43
8.0
  3
Standard
341
0
 44
4.0
300

342
11
174
     1
178
     1
175
     1
176
     0
 93
-1056964608
 45
4.0
292
     0
297
     0
 46
4.0
343
0
 94
-1056964608
 47
1.0
 49
1.0
140
1.0
293
     1
141
0.0
294
     1
177
     0
142
1.0
295
     0
296
     0
143
3.75
271
     0
272
     9
273
     9
  0
MLINESTYLE
  5
18
102
{ACAD_REACTORS
330
17
102
}
330
17
100
AcDbMlineStyle
  2
STANDARD
 70
     0
  3

 62
   256
 51
90.0
 52
90.0
 71
     2
 49
0.5
 62
   256
  6
BYLAYER
 49
-0.5
 62
   256
  6
BYLAYER
  0
ACDBPLACEHOLDER
  5
F
102
{ACAD_REACTORS
330
E
102
}
330
E
  0
SCALE
  5
B2C
102
{ACAD_REACTORS
330
B2B
102
}
330
B2B
100
AcDbScale
 70
     0
300
1:1
140
1.0
141
1.0
290
     1
  0
SCALE
  5
B2D
102
{ACAD_REACTORS
330
B2B
102
}
330
B2B
100
AcDbScale
 70
     0
300
1:2
140
1.0
141
2.0
290
     0
  0
SCALE
  5
B2E
102
{ACAD_REACTORS
330
B2B
102
}
330
B2B
100
AcDbScale
 70
     0
300
1:4
140
1.0
141
4.0
290
     0
  0
SCALE
  5
B2F
102
{ACAD_REACTORS
330
B2B
102
}
330
B2B
100
AcDbScale
 70
     0
300
1:5
140
1.0
141
5.0
290
     0
  0
SCALE
  5
B30
102
{ACAD_REACTORS
330
B2B
102
}
330
B2B
100
AcDbScale
 70
     0
300
1:8
140
1.0
141
8.0
290
     0
  0
SCALE
  5
B31
102
{ACAD_REACTORS
330
B2B
102
}
330
B2B
100
AcDbScale
 70
     0
300
1:10
140
1.0
141
10.0
290
     0
  0
SCALE
  5
B32
102
{ACAD_REACTORS
330
B2B
102
}
330
B2B
100
AcDbScale
 70
     0
300
1:16
140
1.0
141
16.0
290
     0
  0
SCALE
  5
B33
102
{ACAD_REACTORS
330
B2B
102
}
330
B2B
100
AcDbScale
 70
     0
300
1:20
140
1.0
141
20.0
290
     0
  0
SCALE
  5
B34
102
{ACAD_REACTORS
330
B2B
102
}
330
B2B
100
AcDbScale
 70
     0
300
1:30
140
1.0
141
30.0
290
     0
  0
SCALE
  5
B35
102
{ACAD_REACTORS
330
B2B
102
}
330
B2B
100
AcDbScale
 70
     0
300
1:40
140
1.0
141
40.0
290
     0
  0
SCALE
  5
B36
102
{ACAD_REACTORS
330
B2B
102
}
330
B2B
100
AcDbScale
 70
     0
300
1:50
140
1.0
141
50.0
290
     0
  0
SCALE
  5
B37
102
{ACAD_REACTORS
330
B2B
102
}
330
B2B
100
AcDbScale
 70
     0
300
1:100
140
1.0
141
100.0
290
     0
  0
SCALE
  5
B38
102
{ACAD_REACTORS
330
B2B
102
}
330
B2B
100
AcDbScale
 70
     0
300
2:1
140
2.0
141
1.0
290
     0
  0
SCALE
  5
B39
102
{ACAD_REACTORS
330
B2B
102
}
330
B2B
100
AcDbScale
 70
     0
300
4:1
140
4.0
141
1.0
290
     0
  0
SCALE
  5
B3A
102
{ACAD_REACTORS
330
B2B
102
}
330
B2B
100
AcDbScale
 70
     0
300
8:1
140
8.0
141
1.0
290
     0
  0
SCALE
  5
B3B
102
{ACAD_REACTORS
330
B2B
102
}
330
B2B
100
AcDbScale
 70
     0
300
10:1
140
10.0
141
1.0
290
     0
  0
SCALE
  5
B3C
102
{ACAD_REACTORS
330
B2B
102
}
330
B2B
100
AcDbScale
 70
     0
300
100:1
140
100.0
141
1.0
290
     0
  0
SCALE
  5
B3D
102
{ACAD_REACTORS
330
B2B
102
}
330
B2B
100
AcDbScale
 70
     0
300
1/128" = 1'-0"
140
0.0078125
141
12.0
290
     0
  0
SCALE
  5
B3E
102
{ACAD_REACTORS
330
B2B
102
}
330
B2B
100
AcDbScale
 70
     0
300
1/64" = 1'-0"
140
0.015625
141
12.0
290
     0
  0
SCALE
  5
B3F
102
{ACAD_REACTORS
330
B2B
102
}
330
B2B
100
AcDbScale
 70
     0
300
1/32" = 1'-0"
140
0.03125
141
12.0
290
     0
  0
SCALE
  5
B40
102
{ACAD_REACTORS
330
B2B
102
}
330
B2B
100
AcDbScale
 70
     0
300
1/16" = 1'-0"
140
0.0625
141
12.0
290
     0
  0
SCALE
  5
B41
102
{ACAD_REACTORS
330
B2B
102
}
330
B2B
100
AcDbScale
 70
     0
300
3/32" = 1'-0"
140
0.09375
141
12.0
290
     0
  0
SCALE
  5
B42
102
{ACAD_REACTORS
330
B2B
102
}
330
B2B
100
AcDbScale
 70
     0
300
1/8" = 1'-0"
140
0.125
141
12.0
290
     0
  0
SCALE
  5
B43
102
{ACAD_REACTORS
330
B2B
102
}
330
B2B
100
AcDbScale
 70
     0
300
3/16" = 1'-0"
140
0.1875
141
12.0
290
     0
  0
SCALE
  5
B44
102
{ACAD_REACTORS
330
B2B
102
}
330
B2B
100
AcDbScale
 70
     0
300
1/4" = 1'-0"
140
0.25
141
12.0
290
     0
  0
SCALE
  5
B45
102
{ACAD_REACTORS
330
B2B
102
}
330
B2B
100
AcDbScale
 70
     0
300
3/8" = 1'-0"
140
0.375
141
12.0
290
     0
  0
SCALE
  5
B46
102
{ACAD_REACTORS
330
B2B
102
}
330
B2B
100
AcDbScale
 70
     0
300
1/2" = 1'-0"
140
0.5
141
12.0
290
     0
  0
SCALE
  5
B47
102
{ACAD_REACTORS
330
B2B
102
}
330
B2B
100
AcDbScale
 70
     0
300
3/4" = 1'-0"
140
0.75
141
12.0
290
     0
  0
SCALE
  5
B48
102
{ACAD_REACTORS
330
B2B
102
}
330
B2B
100
AcDbScale
 70
     0
300
1" = 1'-0"
140
1.0
141
12.0
290
     0
  0
SCALE
  5
B49
102
{ACAD_REACTORS
330
B2B
102
}
330
B2B
100
AcDbScale
 70
     0
300
1-1/2" = 1'-0"
140
1.5
141
12.0
290
     0
  0
SCALE
  5
B4A
102
{ACAD_REACTORS
330
B2B
102
}
330
B2B
100
AcDbScale
 70
     0
300
3" = 1'-0"
140
3.0
141
12.0
290
     0
  0
SCALE
  5
B4B
102
{ACAD_REACTORS
330
B2B
102
}
330
B2B
100
AcDbScale
 70
     0
300
6" = 1'-0"
140
6.0
141
12.0
290
     0
  0
SCALE
  5
B4C
102
{ACAD_REACTORS
330
B2B
102
}
330
B2B
100
AcDbScale
 70
     0
300
1'-0" = 1'-0"
140
12.0
141
12.0
290
     0
  0
TABLESTYLE
  5
B51
102
{ACAD_REACTORS
330
B50
102
}
102
{ACAD_XDICTIONARY
360
BDF
102
}
330
B50
100
AcDbTableStyle
  3
Standard
 70
     0
 71
     0
 40
0.06
 41
0.06
280
     0
281
     0
  7
Standard
140
4.5
170
     2
 62
     0
 63
   257
283
     0
 90
        4
 91
        0
  1

274
    -2
284
     1
 64
     0
275
    -2
285
     1
 65
     0
276
    -2
286
     1
 66
     0
277
    -2
287
     1
 67
     0
278
    -2
288
     1
 68
     0
279
    -2
289
     1
 69
     0
  7
Standard
140
6.0
170
     5
 62
     0
 63
   257
283
     0
 90
        4
 91
        0
  1

274
    -2
284
     1
 64
     0
275
    -2
285
     1
 65
     0
276
    -2
286
     1
 66
     0
277
    -2
287
     1
 67
     0
278
    -2
288
     1
 68
     0
279
    -2
289
     1
 69
     0
  7
Standard
140
4.5
170
     5
 62
     0
 63
   257
283
     0
 90
        4
 91
        0
  1

274
    -2
284
     1
 64
     0
275
    -2
285
     1
 65
     0
276
    -2
286
     1
 66
     0
277
    -2
287
     1
 67
     0
278
    -2
288
     1
 68
     0
279
    -2
289
     1
 69
     0
  0
VISUALSTYLE
  5
B17
102
{ACAD_REACTORS
330
B12
102
}
330
B12
100
AcDbVisualStyle
  2
2dWireframe
 70
     4
177
     2
291
     0
 71
     0
176
     1
 72
     2
176
     1
 73
     0
176
     1
 90
        0
176
     1
 40
0.6
176
     1
 41
30.0
176
     1
 62
     5
 63
     7
421
 16777215
176
     1
 74
     1
176
     1
 91
        4
176
     1
 64
     7
176
     1
 65
   257
176
     1
 75
     1
176
     1
175
     1
176
     1
 42
1.0
176
     1
 92
        0
176
     1
 66
   257
176
     1
 43
1.0
176
     1
 76
     1
176
     1
 77
     6
176
     1
 78
     2
176
     1
 67
     7
176
     1
 79
     5
176
     1
170
     0
176
     1
171
     0
176
     1
290
     0
176
     1
 93
        1
176
     1
 44
0.0
176
     1
173
     0
176
     1
  0
VISUALSTYLE
  5
B1A
102
{ACAD_REACTORS
330
B12
102
}
330
B12
100
AcDbVisualStyle
  2
Basic
 70
     7
177
     2
291
     1
 71
     1
176
     1
 72
     0
176
     1
 73
     1
176
     1
 90
        0
176
     1
 40
0.6
176
     1
 41
30.0
176
     1
 62
     5
 63
     7
421
 16777215
176
     1
 74
     0
176
     1
 91
        4
176
     1
 64
     7
176
     1
 65
   257
176
     1
 75
     1
176
     1
175
     1
176
     1
 42
1.0
176
     1
 92
        8
176
     1
 66
     7
176
     1
 43
1.0
176
     1
 76
     1
176
     1
 77
     6
176
     1
 78
     2
176
     1
 67
     7
176
     1
 79
     5
176
     1
170
     0
176
     1
171
     0
176
     1
290
     0
176
     1
 93
        1
176
     1
 44
0.0
176
     1
173
     0
176
     1
  0
VISUALSTYLE
  5
B1E
102
{ACAD_REACTORS
330
B12
102
}
330
B12
100
AcDbVisualStyle
  2
Brighten
 70
    12
177
     2
291
     1
 71
     2
176
     1
 72
     2
176
     1
 73
     0
176
     1
 90
        0
176
     1
 40
0.6
176
     1
 41
30.0
176
     1
 62
     5
 63
     7
421
 16777215
176
     1
 74
     1
176
     1
 91
        4
176
     1
 64
     7
176
     1
 65
   257
176
     1
 75
     1
176
     1
175
     1
176
     1
 42
1.0
176
     1
 92
        8
176
     1
 66
     7
176
     1
 43
1.0
176
     1
 76
     1
176
     1
 77
     6
176
     1
 78
     2
176
     1
 67
     7
176
     1
 79
     5
176
     1
170
     0
176
     1
171
     0
176
     1
290
     0
176
     1
 93
        1
176
     1
 44
50.0
176
     1
173
     0
176
     1
  0
VISUALSTYLE
  5
B22
102
{ACAD_REACTORS
330
B12
102
}
330
B12
100
AcDbVisualStyle
  2
ColorChange
 70
    16
177
     2
291
     1
 71
     2
176
     1
 72
     2
176
     1
 73
     3
176
     1
 90
        0
176
     1
 40
0.6
176
     1
 41
30.0
176
     1
 62
     5
 63
     8
421
  8421504
176
     1
 74
     1
176
     1
 91
        4
176
     1
 64
     7
176
     1
 65
   257
176
     1
 75
     1
176
     1
175
     1
176
     1
 42
1.0
176
     1
 92
        8
176
     1
 66
     8
424
  8421504
176
     1
 43
1.0
176
     1
 76
     1
176
     1
 77
     6
176
     1
 78
     2
176
     1
 67
     7
176
     1
 79
     5
176
     1
170
     0
176
     1
171
     0
176
     1
290
     0
176
     1
 93
        1
176
     1
 44
0.0
176
     1
173
     0
176
     1
  0
VISUALSTYLE
  5
B1C
102
{ACAD_REACTORS
330
B12
102
}
330
B12
100
AcDbVisualStyle
  2
Conceptual
 70
     9
177
     2
291
     0
 71
     3
176
     1
 72
     2
176
     1
 73
     0
176
     1
 90
        0
176
     1
 40
0.6
176
     1
 41
30.0
176
     1
 62
     5
 63
     7
421
 16777215
176
     1
 74
     2
176
     1
 91
        2
176
     1
 64
     7
176
     1
 65
   257
176
     1
 75
     1
176
     1
175
     1
176
     1
 42
179.0
176
     1
 92
        8
176
     1
 66
     7
176
     1
 43
1.0
176
     1
 76
     1
176
     1
 77
     6
176
     1
 78
     2
176
     1
 67
     7
176
     1
 79
     3
176
     1
170
     0
176
     1
171
     0
176
     1
290
     0
176
     1
 93
        1
176
     1
 44
0.0
176
     1
173
     0
176
     1
  0
VISUALSTYLE
  5
B1D
102
{ACAD_REACTORS
330
B12
102
}
330
B12
100
AcDbVisualStyle
  2
Dim
 70
    11
177
     2
291
     1
 71
     2
176
     1
 72
     2
176
     1
 73
     0
176
     1
 90
        0
176
     1
 40
0.6
176
     1
 41
30.0
176
     1
 62
     5
 63
     7
421
 16777215
176
     1
 74
     1
176
     1
 91
        4
176
     1
 64
     7
176
     1
 65
   257
176
     1
 75
     1
176
     1
175
     1
176
     1
 42
1.0
176
     1
 92
        8
176
     1
 66
     7
176
     1
 43
1.0
176
     1
 76
     1
176
     1
 77
     6
176
     1
 78
     2
176
     1
 67
     7
176
     1
 79
     5
176
     1
170
     0
176
     1
171
     0
176
     1
290
     0
176
     1
 93
        1
176
     1
 44
-50.0
176
     1
173
     0
176
     1
  0
VISUALSTYLE
  5
B25
102
{ACAD_REACTORS
330
B12
102
}
330
B12
100
AcDbVisualStyle
  2
EdgeColorOff
 70
    22
177
     2
291
     1
 71
     2
176
     0
 72
     2
176
     0
 73
     0
176
     0
 90
        0
176
     0
 40
0.6
176
     0
 41
30.0
176
     0
 62
     5
 63
     7
421
 16777215
176
     0
 74
     1
176
     0
 91
        4
176
     0
 64
     7
176
     0
 65
   257
176
     0
 75
     1
176
     0
175
     1
176
     0
 42
1.0
176
     0
 92
        8
176
     2
 66
     7
176
     0
 43
1.0
176
     0
 76
     1
176
     0
 77
     6
176
     0
 78
     2
176
     0
 67
     7
176
     0
 79
     5
176
     0
170
     0
176
     0
171
     0
176
     0
290
     0
176
     0
 93
        1
176
     0
 44
0.0
176
     0
173
     0
176
     0
  0
VISUALSTYLE
  5
B21
102
{ACAD_REACTORS
330
B12
102
}
330
B12
100
AcDbVisualStyle
  2
Facepattern
 70
    15
177
     2
291
     1
 71
     2
176
     1
 72
     2
176
     1
 73
     0
176
     1
 90
        0
176
     1
 40
0.6
176
     1
 41
30.0
176
     1
 62
     5
 63
     7
421
 16777215
176
     1
 74
     1
176
     1
 91
        4
176
     1
 64
     7
176
     1
 65
   257
176
     1
 75
     1
176
     1
175
     1
176
     1
 42
1.0
176
     1
 92
        8
176
     1
 66
     7
176
     1
 43
1.0
176
     1
 76
     1
176
     1
 77
     6
176
     1
 78
     2
176
     1
 67
     7
176
     1
 79
     5
176
     1
170
     0
176
     1
171
     0
176
     1
290
     0
176
     1
 93
        1
176
     1
 44
0.0
176
     1
173
     0
176
     1
  0
VISUALSTYLE
  5
B13
102
{ACAD_REACTORS
330
B12
102
}
330
B12
100
AcDbVisualStyle
  2
Flat
 70
     0
177
     2
291
     1
 71
     2
176
     1
 72
     1
176
     1
 73
     1
176
     1
 90
        2
176
     1
 40
0.6
176
     1
 41
30.0
176
     1
 62
     5
 63
     7
421
 16777215
176
     1
 74
     0
176
     1
 91
        0
176
     1
 64
     7
176
     1
 65
   257
176
     1
 75
     1
176
     1
175
     1
176
     1
 42
1.0
176
     1
 92
        8
176
     1
 66
     7
176
     1
 43
1.0
176
     1
 76
     1
176
     1
 77
     6
176
     1
 78
     2
176
     1
 67
     7
176
     1
 79
     5
176
     1
170
     0
176
     1
171
     0
176
     1
290
     0
176
     1
 93
       13
176
     1
 44
0.0
176
     1
173
     0
176
     1
  0
VISUALSTYLE
  5
B14
102
{ACAD_REACTORS
330
B12
102
}
330
B12
100
AcDbVisualStyle
  2
FlatWithEdges
 70
     1
177
     2
291
     1
 71
     2
176
     1
 72
     1
176
     1
 73
     1
176
     1
 90
        2
176
     1
 40
0.6
176
     1
 41
30.0
176
     1
 62
     5
 63
     7
421
 16777215
176
     1
 74
     1
176
     1
 91
        0
176
     1
 64
     7
176
     1
 65
   257
176
     1
 75
     1
176
     1
175
     1
176
     1
 42
1.0
176
     1
 92
        0
176
     1
 66
   257
176
     1
 43
1.0
176
     1
 76
     1
176
     1
 77
     6
176
     1
 78
     2
176
     1
 67
     7
176
     1
 79
     5
176
     1
170
     0
176
     1
171
     0
176
     1
290
     0
176
     1
 93
       13
176
     1
 44
0.0
176
     1
173
     0
176
     1
  0
VISUALSTYLE
  5
B15
102
{ACAD_REACTORS
330
B12
102
}
330
B12
100
AcDbVisualStyle
  2
Gouraud
 70
     2
177
     2
291
     1
 71
     2
176
     1
 72
     2
176
     1
 73
     1
176
     1
 90
        2
176
     1
 40
0.6
176
     1
 41
30.0
176
     1
 62
     5
 63
     7
421
 16777215
176
     1
 74
     0
176
     1
 91
        0
176
     1
 64
     7
176
     1
 65
   257
176
     1
 75
     1
176
     1
175
     1
176
     1
 42
1.0
176
     1
 92
        0
176
     1
 66
     7
176
     1
 43
1.0
176
     1
 76
     1
176
     1
 77
     6
176
     1
 78
     2
176
     1
 67
     7
176
     1
 79
     5
176
     1
170
     0
176
     1
171
     0
176
     1
290
     0
176
     1
 93
       13
176
     1
 44
0.0
176
     1
173
     0
176
     1
  0
VISUALSTYLE
  5
B16
102
{ACAD_REACTORS
330
B12
102
}
330
B12
100
AcDbVisualStyle
  2
GouraudWithEdges
 70
     3
177
     2
291
     1
 71
     2
176
     1
 72
     2
176
     1
 73
     1
176
     1
 90
        2
176
     1
 40
0.6
176
     1
 41
30.0
176
     1
 62
     5
 63
     7
421
 16777215
176
     1
 74
     1
176
     1
 91
        0
176
     1
 64
     7
176
     1
 65
   257
176
     1
 75
     1
176
     1
175
     1
176
     1
 42
1.0
176
     1
 92
        0
176
     1
 66
   257
176
     1
 43
1.0
176
     1
 76
     1
176
     1
 77
     6
176
     1
 78
     2
176
     1
 67
     7
176
     1
 79
     5
176
     1
170
     0
176
     1
171
     0
176
     1
290
     0
176
     1
 93
       13
176
     1
 44
0.0
176
     1
173
     0
176
     1
  0
VISUALSTYLE
  5
B19
102
{ACAD_REACTORS
330
B12
102
}
330
B12
100
AcDbVisualStyle
  2
Hidden
 70
     6
177
     2
291
     0
 71
     1
176
     1
 72
     2
176
     1
 73
     2
176
     1
 90
        0
176
     1
 40
0.6
176
     1
 41
30.0
176
     1
 62
     5
 63
     7
421
 16777215
176
     1
 74
     2
176
     1
 91
        2
176
     1
 64
     7
176
     1
 65
   257
176
     1
 75
     2
176
     1
175
     1
176
     1
 42
40.0
176
     1
 92
        0
176
     1
 66
   257
176
     1
 43
1.0
176
     1
 76
     1
176
     1
 77
     6
176
     1
 78
     2
176
     1
 67
     7
176
     1
 79
     3
176
     1
170
     0
176
     1
171
     0
176
     1
290
     0
176
     1
 93
        1
176
     1
 44
0.0
176
     1
173
     0
176
     1
  0
VISUALSTYLE
  5
B23
102
{ACAD_REACTORS
330
B12
102
}
330
B12
100
AcDbVisualStyle
  2
JitterOff
 70
    20
177
     2
291
     1
 71
     2
176
     0
 72
     2
176
     0
 73
     0
176
     0
 90
        0
176
     0
 40
0.6
176
     0
 41
30.0
176
     0
 62
     5
 63
     7
421
 16777215
176
     0
 74
     1
176
     0
 91
        4
176
     0
 64
     7
176
     0
 65
   257
176
     0
 75
     1
176
     0
175
     1
176
     0
 42
1.0
176
     0
 92
       10
176
     2
 66
     7
176
     0
 43
1.0
176
     0
 76
     1
176
     0
 77
     6
176
     0
 78
     2
176
     0
 67
     7
176
     0
 79
     5
176
     0
170
     0
176
     0
171
     0
176
     0
290
     0
176
     0
 93
        1
176
     0
 44
0.0
176
     0
173
     0
176
     0
  0
VISUALSTYLE
  5
B20
102
{ACAD_REACTORS
330
B12
102
}
330
B12
100
AcDbVisualStyle
  2
Linepattern
 70
    14
177
     2
291
     1
 71
     2
176
     1
 72
     2
176
     1
 73
     0
176
     1
 90
        0
176
     1
 40
0.6
176
     1
 41
30.0
176
     1
 62
     5
 63
     7
421
 16777215
176
     1
 74
     1
176
     1
 91
        4
176
     1
 64
     7
176
     1
 65
   257
176
     1
 75
     7
176
     1
175
     7
176
     1
 42
1.0
176
     1
 92
        8
176
     1
 66
     7
176
     1
 43
1.0
176
     1
 76
     1
176
     1
 77
     6
176
     1
 78
     2
176
     1
 67
     7
176
     1
 79
     5
176
     1
170
     0
176
     1
171
     0
176
     1
290
     0
176
     1
 93
        1
176
     1
 44
0.0
176
     1
173
     0
176
     1
  0
VISUALSTYLE
  5
B24
102
{ACAD_REACTORS
330
B12
102
}
330
B12
100
AcDbVisualStyle
  2
OverhangOff
 70
    21
177
     2
291
     1
 71
     2
176
     0
 72
     2
176
     0
 73
     0
176
     0
 90
        0
176
     0
 40
0.6
176
     0
 41
30.0
176
     0
 62
     5
 63
     7
421
 16777215
176
     0
 74
     1
176
     0
 91
        4
176
     0
 64
     7
176
     0
 65
   257
176
     0
 75
     1
176
     0
175
     1
176
     0
 42
1.0
176
     0
 92
        9
176
     2
 66
     7
176
     0
 43
1.0
176
     0
 76
     1
176
     0
 77
     6
176
     0
 78
     2
176
     0
 67
     7
176
     0
 79
     5
176
     0
170
     0
176
     0
171
     0
176
     0
290
     0
176
     0
 93
        1
176
     0
 44
0.0
176
     0
173
     0
176
     0
  0
VISUALSTYLE
  5
B1B
102
{ACAD_REACTORS
330
B12
102
}
330
B12
100
AcDbVisualStyle
  2
Realistic
 70
     8
177
     2
291
     0
 71
     2
176
     1
 72
     3
176
     1
 73
     0
176
     1
 90
        2
176
     1
 40
0.6
176
     1
 41
30.0
176
     1
 62
     5
 63
     7
421
 16777215
176
     1
 74
     0
176
     1
 91
        0
176
     1
 64
     7
176
     1
 65
   257
176
     1
 75
     1
176
     1
175
     1
176
     1
 42
1.0
176
     1
 92
        8
176
     1
 66
   257
176
     1
 43
1.0
176
     1
 76
     1
176
     1
 77
     6
176
     1
 78
     2
176
     1
 67
     7
176
     1
 79
     3
176
     1
170
     0
176
     1
171
     0
176
     1
290
     0
176
     1
 93
       13
176
     1
 44
0.0
176
     1
173
     0
176
     1
  0
VISUALSTYLE
  5
B2A
102
{ACAD_REACTORS
330
B12
102
}
330
B12
100
AcDbVisualStyle
  2
Shaded
 70
    27
177
     2
291
     0
 71
     2
176
     1
 72
     2
176
     1
 73
     1
176
     1
 90
        2
176
     1
 40
0.6
176
     1
 41
30.0
176
     1
 62
     5
 63
     7
421
 16777215
176
     1
 74
     0
176
     1
 91
        4
176
     1
 64
     7
176
     1
 65
   257
176
     1
 75
     1
176
     1
175
     1
176
     1
 42
1.0
176
     1
 92
        8
176
     1
 66
   257
176
     1
 43
1.0
176
     1
 76
     1
176
     1
 77
     6
176
     1
 78
     2
176
     1
 67
     8
425
  7895160
176
     1
 79
     3
176
     1
170
     0
176
     1
171
     0
176
     1
290
     0
176
     1
 93
        5
176
     1
 44
0.0
176
     1
173
     0
176
     1
  0
VISUALSTYLE
  5
B29
102
{ACAD_REACTORS
330
B12
102
}
330
B12
100
AcDbVisualStyle
  2
Shaded with edges
 70
    26
177
     2
291
     0
 71
     2
176
     1
 72
     2
176
     1
 73
     1
176
     1
 90
        2
176
     1
 40
0.6
176
     1
 41
30.0
176
     1
 62
     5
 63
     7
421
 16777215
176
     1
 74
     1
176
     1
 91
       10
176
     1
 64
     7
176
     1
 65
   257
176
     1
 75
     2
176
     1
175
     1
176
     1
 42
1.0
176
     1
 92
        8
176
     1
 66
   257
176
     1
 43
1.0
176
     1
 76
     1
176
     1
 77
     6
176
     1
 78
     2
176
     1
 67
     7
176
     1
 79
     3
176
     1
170
     0
176
     1
171
     0
176
     1
290
     0
176
     1
 93
        5
176
     1
 44
0.0
176
     1
173
     0
176
     1
  0
VISUALSTYLE
  5
B26
102
{ACAD_REACTORS
330
B12
102
}
330
B12
100
AcDbVisualStyle
  2
Shades of Gray
 70
    23
177
     2
291
     0
 71
     2
176
     1
 72
     2
176
     1
 73
     3
176
     1
 90
        0
176
     1
 40
0.6
176
     1
 41
30.0
176
     1
 62
     5
 63
     7
421
 16777215
176
     1
 74
     2
176
     1
 91
        2
176
     1
 64
     7
176
     1
 65
     7
176
     1
 75
     1
176
     1
175
     1
176
     1
 42
40.0
176
     1
 92
        8
176
     1
 66
     7
176
     1
 43
1.0
176
     1
 76
     1
176
     1
 77
     6
176
     1
 78
     2
176
     1
 67
     7
176
     1
 79
     3
176
     1
170
     0
176
     1
171
     0
176
     1
290
     0
176
     1
 93
        1
176
     1
 44
0.0
176
     1
173
     0
176
     1
  0
VISUALSTYLE
  5
B27
102
{ACAD_REACTORS
330
B12
102
}
330
B12
100
AcDbVisualStyle
  2
Sketchy
 70
    24
177
     2
291
     0
 71
     1
176
     1
 72
     2
176
     1
 73
     2
176
     1
 90
        0
176
     1
 40
0.6
176
     1
 41
30.0
176
     1
 62
     5
 63
     7
421
 16777215
176
     1
 74
     2
176
     1
 91
        2
176
     1
 64
     7
176
     1
 65
     7
176
     1
 75
     1
176
     1
175
     1
176
     1
 42
40.0
176
     1
 92
       11
176
     1
 66
     7
176
     1
 43
1.0
176
     1
 76
     1
176
     1
 77
     6
176
     1
 78
     2
176
     1
 67
     7
176
     1
 79
     6
176
     1
170
     0
176
     1
171
     0
176
     1
290
     0
176
     1
 93
        1
176
     1
 44
0.0
176
     1
173
     0
176
     1
  0
VISUALSTYLE
  5
B1F
102
{ACAD_REACTORS
330
B12
102
}
330
B12
100
AcDbVisualStyle
  2
Thicken
 70
    13
177
     2
291
     1
 71
     2
176
     1
 72
     2
176
     1
 73
     0
176
     1
 90
        0
176
     1
 40
0.6
176
     1
 41
30.0
176
     1
 62
     5
 63
     7
421
 16777215
176
     1
 74
     1
176
     1
 91
        4
176
     1
 64
     7
176
     1
 65
   257
176
     1
 75
     1
176
     1
175
     1
176
     1
 42
1.0
176
     1
 92
       12
176
     1
 66
     7
176
     1
 43
1.0
176
     1
 76
     1
176
     1
 77
     6
176
     1
 78
     2
176
     1
 67
     7
176
     1
 79
     5
176
     1
170
     0
176
     1
171
     0
176
     1
290
     0
176
     1
 93
        1
176
     1
 44
0.0
176
     1
173
     0
176
     1
  0
VISUALSTYLE
  5
B18
102
{ACAD_REACTORS
330
B12
102
}
330
B12
100
AcDbVisualStyle
  2
Wireframe
 70
     5
177
     2
291
     0
 71
     0
176
     1
 72
     2
176
     1
 73
     0
176
     1
 90
        0
176
     1
 40
0.6
176
     1
 41
30.0
176
     1
 62
     5
 63
     7
421
 16777215
176
     1
 74
     1
176
     1
 91
        4
176
     1
 64
     7
176
     1
 65
   257
176
     1
 75
     1
176
     1
175
     1
176
     1
 42
1.0
176
     1
 92
        0
176
     1
 66
   257
176
     1
 43
1.0
176
     1
 76
     1
176
     1
 77
     6
176
     1
 78
     2
176
     1
 67
     7
176
     1
 79
     3
176
     1
170
     0
176
     1
171
     0
176
     1
290
     0
176
     1
 93
        1
176
     1
 44
0.0
176
     1
173
     0
176
     1
  0
VISUALSTYLE
  5
B28
102
{ACAD_REACTORS
330
B12
102
}
330
B12
100
AcDbVisualStyle
  2
X-Ray
 70
    25
177
     2
291
     0
 71
     2
176
     1
 72
     2
176
     1
 73
     1
176
     1
 90
        1
176
     1
 40
0.5
176
     1
 41
30.0
176
     1
 62
     5
 63
     7
421
 16777215
176
     1
 74
     1
176
     1
 91
        0
176
     1
 64
     7
176
     1
 65
   257
176
     1
 75
     1
176
     1
175
     1
176
     1
 42
1.0
176
     1
 92
        8
176
     1
 66
     7
176
     1
 43
1.0
176
     1
 76
     1
176
     1
 77
     6
176
     1
 78
     2
176
     1
 67
     7
176
     1
 79
     3
176
     1
170
     0
176
     1
171
     0
176
     1
290
     0
176
     1
 93
       13
176
     1
 44
0.0
176
     1
173
     0
176
     1
  0
DICTIONARYVAR
  5
B5A
102
{ACAD_REACTORS
330
B59
102
}
330
B59
100
DictionaryVariables
280
     0
  1
1:1
  0
DICTIONARYVAR
  5
BE2
102
{ACAD_REACTORS
330
B59
102
}
330
B59
100
DictionaryVariables
280
     0
  1
Standard
  0
DICTIONARYVAR
  5
B5E
102
{ACAD_REACTORS
330
B59
102
}
330
B59
100
DictionaryVariables
280
     0
  1
Standard
  0
DICTIONARYVAR
  5
B60
102
{ACAD_REACTORS
330
B59
102
}
330
B59
100
DictionaryVariables
280
     0
  1
0
  0
DICTIONARYVAR
  5
B61
102
{ACAD_REACTORS
330
B59
102
}
330
B59
100
DictionaryVariables
280
     0
  1
0
  0
DICTIONARY
  5
BDF
330
B51
100
AcDbDictionary
280
     1
281
     1
  3
ACAD_ROUNDTRIP_2008_TABLESTYLE_CELLSTYLEMAP
360
BE0
  0
CELLSTYLEMAP
  5
BE0
102
{ACAD_REACTORS
330
BDF
102
}
330
BDF
100
AcDbCellStyleMap
 90
        3
300
CELLSTYLE
  1
TABLEFORMAT_BEGIN
 90
        5
170
     1
 91
        0
 92
        0
 62
   257
 93
        1
300
CONTENTFORMAT
  1
CONTENTFORMAT_BEGIN
 90
        0
 91
        0
 92
        4
 93
        0
300

 40
0.0
140
1.0
 94
        5
 62
     0
340
11
144
6.0
309
CONTENTFORMAT_END
171
     1
301
MARGIN
  1
CELLMARGIN_BEGIN
 40
1.5
 40
1.5
 40
1.5
 40
1.5
 40
1.5
 40
1.5
309
CELLMARGIN_END
 94
        6
 95
        1
302
GRIDFORMAT
  1
GRIDFORMAT_BEGIN
 90
        0
 91
        1
 62
     0
 92
       -2
340
14
 93
        0
 40
0.045
309
GRIDFORMAT_END
 95
        2
302
GRIDFORMAT
  1
GRIDFORMAT_BEGIN
 90
        0
 91
        1
 62
     0
 92
       -2
340
14
 93
        0
 40
0.045
309
GRIDFORMAT_END
 95
        4
302
GRIDFORMAT
  1
GRIDFORMAT_BEGIN
 90
        0
 91
        1
 62
     0
 92
       -2
340
14
 93
        0
 40
0.045
309
GRIDFORMAT_END
 95
        8
302
GRIDFORMAT
  1
GRIDFORMAT_BEGIN
 90
        0
 91
        1
 62
     0
 92
       -2
340
14
 93
        0
 40
0.045
309
GRIDFORMAT_END
 95
       16
302
GRIDFORMAT
  1
GRIDFORMAT_BEGIN
 90
        0
 91
        1
 62
     0
 92
       -2
340
14
 93
        0
 40
0.045
309
GRIDFORMAT_END
 95
       32
302
GRIDFORMAT
  1
GRIDFORMAT_BEGIN
 90
        0
 91
        1
 62
     0
 92
       -2
340
14
 93
        0
 40
0.045
309
GRIDFORMAT_END
309
TABLEFORMAT_END
  1
CELLSTYLE_BEGIN
 90
        1
 91
        1
300
_TITLE
309
CELLSTYLE_END
300
CELLSTYLE
  1
TABLEFORMAT_BEGIN
 90
        5
170
     1
 91
        0
 92
        0
 62
   257
 93
        1
300
CONTENTFORMAT
  1
CONTENTFORMAT_BEGIN
 90
        0
 91
        0
 92
        4
 93
        0
300

 40
0.0
140
1.0
 94
        5
 62
     0
340
11
144
4.5
309
CONTENTFORMAT_END
171
     1
301
MARGIN
  1
CELLMARGIN_BEGIN
 40
1.5
 40
1.5
 40
1.5
 40
1.5
 40
1.5
 40
1.5
309
CELLMARGIN_END
 94
        6
 95
        1
302
GRIDFORMAT
  1
GRIDFORMAT_BEGIN
 90
        0
 91
        1
 62
     0
 92
       -2
340
14
 93
        0
 40
0.045
309
GRIDFORMAT_END
 95
        2
302
GRIDFORMAT
  1
GRIDFORMAT_BEGIN
 90
        0
 91
        1
 62
     0
 92
       -2
340
14
 93
        0
 40
0.045
309
GRIDFORMAT_END
 95
        4
302
GRIDFORMAT
  1
GRIDFORMAT_BEGIN
 90
        0
 91
        1
 62
     0
 92
       -2
340
14
 93
        0
 40
0.045
309
GRIDFORMAT_END
 95
        8
302
GRIDFORMAT
  1
GRIDFORMAT_BEGIN
 90
        0
 91
        1
 62
     0
 92
       -2
340
14
 93
        0
 40
0.045
309
GRIDFORMAT_END
 95
       16
302
GRIDFORMAT
  1
GRIDFORMAT_BEGIN
 90
        0
 91
        1
 62
     0
 92
       -2
340
14
 93
        0
 40
0.045
309
GRIDFORMAT_END
 95
       32
302
GRIDFORMAT
  1
GRIDFORMAT_BEGIN
 90
        0
 91
        1
 62
     0
 92
       -2
340
14
 93
        0
 40
0.045
309
GRIDFORMAT_END
309
TABLEFORMAT_END
  1
CELLSTYLE_BEGIN
 90
        2
 91
        1
300
_HEADER
309
CELLSTYLE_END
300
CELLSTYLE
  1
TABLEFORMAT_BEGIN
 90
        5
170
     1
 91
        0
 92
        0
 62
   257
 93
        1
300
CONTENTFORMAT
  1
CONTENTFORMAT_BEGIN
 90
        0
 91
        0
 92
        4
 93
        0
300

 40
0.0
140
1.0
 94
        2
 62
     0
340
11
144
4.5
309
CONTENTFORMAT_END
171
     1
301
MARGIN
  1
CELLMARGIN_BEGIN
 40
1.5
 40
1.5
 40
1.5
 40
1.5
 40
1.5
 40
1.5
309
CELLMARGIN_END
 94
        6
 95
        1
302
GRIDFORMAT
  1
GRIDFORMAT_BEGIN
 90
        0
 91
        1
 62
     0
 92
       -2
340
14
 93
        0
 40
0.045
309
GRIDFORMAT_END
 95
        2
302
GRIDFORMAT
  1
GRIDFORMAT_BEGIN
 90
        0
 91
        1
 62
     0
 92
       -2
340
14
 93
        0
 40
0.045
309
GRIDFORMAT_END
 95
        4
302
GRIDFORMAT
  1
GRIDFORMAT_BEGIN
 90
        0
 91
        1
 62
     0
 92
       -2
340
14
 93
        0
 40
0.045
309
GRIDFORMAT_END
 95
        8
302
GRIDFORMAT
  1
GRIDFORMAT_BEGIN
 90
        0
 91
        1
 62
     0
 92
       -2
340
14
 93
        0
 40
0.045
309
GRIDFORMAT_END
 95
       16
302
GRIDFORMAT
  1
GRIDFORMAT_BEGIN
 90
        0
 91
        1
 62
     0
 92
       -2
340
14
 93
        0
 40
0.045
309
GRIDFORMAT_END
 95
       32
302
GRIDFORMAT
  1
GRIDFORMAT_BEGIN
 90
        0
 91
        1
 62
     0
 92
       -2
340
14
 93
        0
 40
0.045
309
GRIDFORMAT_END
309
TABLEFORMAT_END
  1
CELLSTYLE_BEGIN
 90
        3
 91
        2
300
_DATA
309
CELLSTYLE_END
  0
ENDSEC
  0
EOF
