  0
SECTION
  2
HEADER
  9
$ACADVER
  1
AC1027
  9
$ACADMAINTVER
 70
     8
  9
$DWGCODEPAGE
  3
ANSI_932
  9
$REQUIREDVERSIONS
160
                 0
  9
$LASTSAVEDBY
  1
Yasu
  9
$INSBASE
 10
0.0
 20
0.0
 30
0.0
  9
$EXTMIN
 10
29.7822190778965
 20
21.21716500680357
 30
0.0
  9
$EXTMAX
 10
240.5804548996228
 20
221.5386350389103
 30
0.0
  9
$LIMMIN
 10
0.0
 20
0.0
  9
$LIMMAX
 10
420.0
 20
297.0
  9
$ORTHOMODE
 70
     0
  9
$REGENMODE
 70
     1
  9
$FILLMODE
 70
     1
  9
$QTEXTMODE
 70
     0
  9
$MIRRTEXT
 70
     0
  9
$LTSCALE
 40
0.2
  9
$ATTMODE
 70
     1
  9
$TEXTSIZE
 40
3.0
  9
$TRACEWID
 40
1.0
  9
$TEXTSTYLE
  7
Standard
  9
$CLAYER
  8
文字
  9
$CELTYPE
  6
ByLayer
  9
$CECOLOR
 62
   256
  9
$CELTSCALE
 40
1.0
  9
$DISPSILH
 70
     0
  9
$DIMSCALE
 40
1.0
  9
$DIMASZ
 40
2.5
  9
$DIMEXO
 40
0.625
  9
$DIMDLI
 40
3.75
  9
$DIMRND
 40
0.0
  9
$DIMDLE
 40
0.0
  9
$DIMEXE
 40
1.25
  9
$DIMTP
 40
0.0
  9
$DIMTM
 40
0.0
  9
$DIMTXT
 40
2.5
  9
$DIMCEN
 40
2.5
  9
$DIMTSZ
 40
0.0
  9
$DIMTOL
 70
     0
  9
$DIMLIM
 70
     0
  9
$DIMTIH
 70
     0
  9
$DIMTOH
 70
     0
  9
$DIMSE1
 70
     0
  9
$DIMSE2
 70
     0
  9
$DIMTAD
 70
     1
  9
$DIMZIN
 70
     8
  9
$DIMBLK
  1

  9
$DIMASO
 70
     1
  9
$DIMSHO
 70
     1
  9
$DIMPOST
  1

  9
$DIMAPOST
  1

  9
$DIMALT
 70
     0
  9
$DIMALTD
 70
     3
  9
$DIMALTF
 40
0.03937007874016
  9
$DIMLFAC
 40
1.0
  9
$DIMTOFL
 70
     1
  9
$DIMTVP
 40
0.0
  9
$DIMTIX
 70
     0
  9
$DIMSOXD
 70
     0
  9
$DIMSAH
 70
     0
  9
$DIMBLK1
  1

  9
$DIMBLK2
  1

  9
$DIMSTYLE
  2
ISO-25
  9
$DIMCLRD
 70
     0
  9
$DIMCLRE
 70
     0
  9
$DIMCLRT
 70
     0
  9
$DIMTFAC
 40
1.0
  9
$DIMGAP
 40
0.625
  9
$DIMJUST
 70
     0
  9
$DIMSD1
 70
     0
  9
$DIMSD2
 70
     0
  9
$DIMTOLJ
 70
     0
  9
$DIMTZIN
 70
     8
  9
$DIMALTZ
 70
     0
  9
$DIMALTTZ
 70
     0
  9
$DIMUPT
 70
     0
  9
$DIMDEC
 70
     2
  9
$DIMTDEC
 70
     2
  9
$DIMALTU
 70
     2
  9
$DIMALTTD
 70
     3
  9
$DIMTXSTY
  7
Standard
  9
$DIMAUNIT
 70
     0
  9
$DIMADEC
 70
     0
  9
$DIMALTRND
 40
0.0
  9
$DIMAZIN
 70
     0
  9
$DIMDSEP
 70
    46
  9
$DIMATFIT
 70
     3
  9
$DIMFRAC
 70
     0
  9
$DIMLDRBLK
  1

  9
$DIMLUNIT
 70
     2
  9
$DIMLWD
 70
    -2
  9
$DIMLWE
 70
    -2
  9
$DIMTMOVE
 70
     0
  9
$DIMFXL
 40
1.0
  9
$DIMFXLON
 70
     0
  9
$DIMJOGANG
 40
0.7853981633974483
  9
$DIMTFILL
 70
     0
  9
$DIMTFILLCLR
 70
     0
  9
$DIMARCSYM
 70
     0
  9
$DIMLTYPE
  6

  9
$DIMLTEX1
  6

  9
$DIMLTEX2
  6

  9
$DIMTXTDIRECTION
 70
     0
  9
$LUNITS
 70
     2
  9
$LUPREC
 70
     4
  9
$SKETCHINC
 40
1.0
  9
$FILLETRAD
 40
3.0
  9
$AUNITS
 70
     0
  9
$AUPREC
 70
     0
  9
$MENU
  1
.
  9
$ELEVATION
 40
0.0
  9
$PELEVATION
 40
0.0
  9
$THICKNESS
 40
0.0
  9
$LIMCHECK
 70
     0
  9
$CHAMFERA
 40
2.0
  9
$CHAMFERB
 40
2.0
  9
$CHAMFERC
 40
0.0
  9
$CHAMFERD
 40
0.0
  9
$SKPOLY
 70
     0
  9
$TDCREATE
 40
2452936.788310359
  9
$TDUCREATE
 40
2452936.413310359
  9
$TDUPDATE
 40
2456739.522348576
  9
$TDUUPDATE
 40
2456739.147348576
  9
$TDINDWG
 40
0.5828459028
  9
$TDUSRTIMER
 40
2456739.147140648
  9
$USRTIMER
 70
     1
  9
$ANGBASE
 50
0.0
  9
$ANGDIR
 70
     0
  9
$PDMODE
 70
     0
  9
$PDSIZE
 40
0.0
  9
$PLINEWID
 40
0.0
  9
$SPLFRAME
 70
     0
  9
$SPLINETYPE
 70
     6
  9
$SPLINESEGS
 70
     8
  9
$HANDSEED
  5
E5E
  9
$SURFTAB1
 70
     6
  9
$SURFTAB2
 70
     6
  9
$SURFTYPE
 70
     6
  9
$SURFU
 70
     6
  9
$SURFV
 70
     6
  9
$UCSBASE
  2

  9
$UCSNAME
  2

  9
$UCSORG
 10
0.0
 20
0.0
 30
0.0
  9
$UCSXDIR
 10
1.0
 20
0.0
 30
0.0
  9
$UCSYDIR
 10
0.0
 20
1.0
 30
0.0
  9
$UCSORTHOREF
  2

  9
$UCSORTHOVIEW
 70
     0
  9
$UCSORGTOP
 10
0.0
 20
0.0
 30
0.0
  9
$UCSORGBOTTOM
 10
0.0
 20
0.0
 30
0.0
  9
$UCSORGLEFT
 10
0.0
 20
0.0
 30
0.0
  9
$UCSORGRIGHT
 10
0.0
 20
0.0
 30
0.0
  9
$UCSORGFRONT
 10
0.0
 20
0.0
 30
0.0
  9
$UCSORGBACK
 10
0.0
 20
0.0
 30
0.0
  9
$PUCSBASE
  2

  9
$PUCSNAME
  2

  9
$PUCSORG
 10
0.0
 20
0.0
 30
0.0
  9
$PUCSXDIR
 10
1.0
 20
0.0
 30
0.0
  9
$PUCSYDIR
 10
0.0
 20
1.0
 30
0.0
  9
$PUCSORTHOREF
  2

  9
$PUCSORTHOVIEW
 70
     0
  9
$PUCSORGTOP
 10
0.0
 20
0.0
 30
0.0
  9
$PUCSORGBOTTOM
 10
0.0
 20
0.0
 30
0.0
  9
$PUCSORGLEFT
 10
0.0
 20
0.0
 30
0.0
  9
$PUCSORGRIGHT
 10
0.0
 20
0.0
 30
0.0
  9
$PUCSORGFRONT
 10
0.0
 20
0.0
 30
0.0
  9
$PUCSORGBACK
 10
0.0
 20
0.0
 30
0.0
  9
$USERI1
 70
     0
  9
$USERI2
 70
     0
  9
$USERI3
 70
     0
  9
$USERI4
 70
     0
  9
$USERI5
 70
     0
  9
$USERR1
 40
0.0
  9
$USERR2
 40
0.0
  9
$USERR3
 40
0.0
  9
$USERR4
 40
0.0
  9
$USERR5
 40
0.0
  9
$WORLDVIEW
 70
     1
  9
$SHADEDGE
 70
     3
  9
$SHADEDIF
 70
    70
  9
$TILEMODE
 70
     1
  9
$MAXACTVP
 70
    64
  9
$PINSBASE
 10
0.0
 20
0.0
 30
0.0
  9
$PLIMCHECK
 70
     0
  9
$PEXTMIN
 10
1.000000000000000E+20
 20
1.000000000000000E+20
 30
1.000000000000000E+20
  9
$PEXTMAX
 10
-1.000000000000000E+20
 20
-1.000000000000000E+20
 30
-1.000000000000000E+20
  9
$PLIMMIN
 10
0.0
 20
0.0
  9
$PLIMMAX
 10
0.0
 20
0.0
  9
$UNITMODE
 70
     0
  9
$VISRETAIN
 70
     1
  9
$PLINEGEN
 70
     0
  9
$PSLTSCALE
 70
     0
  9
$TREEDEPTH
 70
  3020
  9
$CMLSTYLE
  2
Standard
  9
$CMLJUST
 70
     0
  9
$CMLSCALE
 40
20.0
  9
$PROXYGRAPHICS
 70
     1
  9
$MEASUREMENT
 70
     1
  9
$CELWEIGHT
370
    -1
  9
$ENDCAPS
280
     0
  9
$JOINSTYLE
280
     0
  9
$LWDISPLAY
290
     0
  9
$INSUNITS
 70
     4
  9
$HYPERLINKBASE
  1

  9
$STYLESHEET
  1

  9
$XEDIT
290
     1
  9
$CEPSNTYPE
380
     0
  9
$PSTYLEMODE
290
     1
  9
$FINGERPRINTGUID
  2
{86E58535-AB5B-4AFE-AB1B-6758AAB7EA7D}
  9
$VERSIONGUID
  2
{46547503-4191-48C7-8556-0F53CF2D4F76}
  9
$EXTNAMES
290
     1
  9
$PSVPSCALE
 40
0.0
  9
$OLESTARTUP
290
     0
  9
$SORTENTS
280
   127
  9
$INDEXCTL
280
     0
  9
$HIDETEXT
280
     1
  9
$XCLIPFRAME
280
     0
  9
$HALOGAP
280
     0
  9
$OBSCOLOR
 70
   257
  9
$OBSLTYPE
280
     0
  9
$INTERSECTIONDISPLAY
280
     0
  9
$INTERSECTIONCOLOR
 70
   257
  9
$DIMASSOC
280
     2
  9
$PROJECTNAME
  1

  9
$CAMERADISPLAY
290
     0
  9
$LENSLENGTH
 40
50.0
  9
$CAMERAHEIGHT
 40
0.0
  9
$STEPSPERSEC
 40
2.0
  9
$STEPSIZE
 40
6.0
  9
$3DDWFPREC
 40
2.0
  9
$PSOLWIDTH
 40
0.25
  9
$PSOLHEIGHT
 40
4.0
  9
$LOFTANG1
 40
1.570796326794897
  9
$LOFTANG2
 40
1.570796326794897
  9
$LOFTMAG1
 40
0.0
  9
$LOFTMAG2
 40
0.0
  9
$LOFTPARAM
 70
     7
  9
$LOFTNORMALS
280
     1
  9
$LATITUDE
 40
37.795
  9
$LONGITUDE
 40
-122.394
  9
$NORTHDIRECTION
 40
0.0
  9
$TIMEZONE
 70
 -8000
  9
$LIGHTGLYPHDISPLAY
280
     1
  9
$TILEMODELIGHTSYNCH
280
     1
  9
$SOLIDHIST
280
     1
  9
$SHOWHIST
280
     1
  9
$DWFFRAME
280
     2
  9
$DGNFRAME
280
     2
  9
$REALWORLDSCALE
290
     1
  9
$INTERFERECOLOR
 62
   256
  9
$CSHADOW
280
     0
  9
$SHADOWPLANELOCATION
 40
0.0
  0
ENDSEC
  0
SECTION
  2
CLASSES
  0
CLASS
  1
ACDBDICTIONARYWDFLT
  2
AcDbDictionaryWithDefault
  3
ObjectDBX Classes
 90
        0
 91
       13
280
     0
281
     0
  0
CLASS
  1
DIMASSOC
  2
AcDbDimAssoc
  3
"AcDbDimAssoc|Product Desc:     AcDim ARX App For Dimension|Company:          Autodesk, Inc.|WEB Address:      www.autodesk.com"
 90
        0
 91
        8
280
     0
281
     0
  0
CLASS
  1
VISUALSTYLE
  2
AcDbVisualStyle
  3
ObjectDBX Classes
 90
     4095
 91
       13
280
     0
281
     0
  0
CLASS
  1
SCALE
  2
AcDbScale
  3
ObjectDBX Classes
 90
     1153
 91
       13
280
     0
281
     0
  0
CLASS
  1
MATERIAL
  2
AcDbMaterial
  3
ObjectDBX Classes
 90
     1153
 91
       13
280
     0
281
     0
  0
CLASS
  1
TABLESTYLE
  2
AcDbTableStyle
  3
ObjectDBX Classes
 90
     4095
 91
       13
280
     0
281
     0
  0
CLASS
  1
SUN
  2
AcDbSun
  3
SCENEOE
 90
     1153
 91
       13
280
     0
281
     0
  0
CLASS
  1
RASTERVARIABLES
  2
AcDbRasterVariables
  3
ISM
 90
        0
 91
       13
280
     0
281
     0
  0
CLASS
  1
DICTIONARYVAR
  2
AcDbDictionaryVar
  3
ObjectDBX Classes
 90
        0
 91
        8
280
     0
281
     0
  0
CLASS
  1
CELLSTYLEMAP
  2
AcDbCellStyleMap
  3
ObjectDBX Classes
 90
     1152
 91
        8
280
     0
281
     0
  0
ENDSEC
  0
SECTION
  2
TABLES
  0
TABLE
  2
VPORT
  5
8
330
0
100
AcDbSymbolTable
 70
     1
  0
VPORT
  5
D9A
330
8
100
AcDbSymbolTableRecord
100
AcDbViewportTableRecord
  2
*Active
 70
     0
 10
0.0
 20
0.0
 11
1.0
 21
1.0
 12
135.1813369887597
 22
121.3779000228569
 13
0.0
 23
0.0
 14
10.0
 24
10.0
 15
10.0
 25
10.0
 16
0.0
 26
0.0
 36
1.0
 17
0.0
 27
0.0
 37
0.0
 40
204.3278994327489
 41
1.762376237623762
 42
50.0
 43
0.0
 44
0.0
 50
0.0
 51
0.0
 71
    16
 72
  1000
 73
     1
 74
     3
 75
     0
 76
     0
 77
     0
 78
     0
281
     0
 65
     1
110
0.0
120
0.0
130
0.0
111
1.0
121
0.0
131
0.0
112
0.0
122
1.0
132
0.0
 79
     0
146
0.0
348
DA0
 60
     3
 61
     5
292
     1
282
     1
141
0.0
142
0.0
 63
   256
361
DDC
  0
ENDTAB
  0
TABLE
  2
LTYPE
  5
5
330
0
100
AcDbSymbolTable
 70
     6
  0
LTYPE
  5
14
330
5
100
AcDbSymbolTableRecord
100
AcDbLinetypeTableRecord
  2
ByBlock
 70
     0
  3

 72
    65
 73
     0
 40
0.0
  0
LTYPE
  5
15
330
5
100
AcDbSymbolTableRecord
100
AcDbLinetypeTableRecord
  2
ByLayer
 70
     0
  3

 72
    65
 73
     0
 40
0.0
  0
LTYPE
  5
16
330
5
100
AcDbSymbolTableRecord
100
AcDbLinetypeTableRecord
  2
Continuous
 70
     0
  3
Solid line
 72
    65
 73
     0
 40
0.0
  0
LTYPE
  5
35
330
5
100
AcDbSymbolTableRecord
100
AcDbLinetypeTableRecord
  2
ACAD_ISO08W100
 70
     0
  3
ISO long-dash short-dash ____ __ ____ __ ____ _
 72
    65
 73
     4
 40
36.0
 49
24.0
 74
     0
 49
-3.0
 74
     0
 49
6.0
 74
     0
 49
-3.0
 74
     0
  0
LTYPE
  5
127
330
5
100
AcDbSymbolTableRecord
100
AcDbLinetypeTableRecord
  2
HIDDENX2
 70
     0
  3
Hidden (2x) ____ ____ ____ ____ ____ ____ ____
 72
    65
 73
     2
 40
19.05
 49
12.7
 74
     0
 49
-6.35
 74
     0
  0
LTYPE
  5
5EC
330
5
100
AcDbSymbolTableRecord
100
AcDbLinetypeTableRecord
  2
CENTER
 70
     0
  3
Center ____ _ ____ _ ____ _ ____ _ ____ _ ____
 72
    65
 73
     4
 40
50.8
 49
31.75
 74
     0
 49
-6.35
 74
     0
 49
6.35
 74
     0
 49
-6.35
 74
     0
  0
LTYPE
  5
5ED
330
5
100
AcDbSymbolTableRecord
100
AcDbLinetypeTableRecord
  2
ACAD_ISO02W100
 70
     0
  3
ISO dash __ __ __ __ __ __ __ __ __ __ __ __ __
 72
    65
 73
     2
 40
15.0
 49
12.0
 74
     0
 49
-3.0
 74
     0
  0
LTYPE
  5
605
330
5
100
AcDbSymbolTableRecord
100
AcDbLinetypeTableRecord
  2
DASHED
 70
     0
  3
Dashed __ __ __ __ __ __ __ __ __ __ __ __ __ _
 72
    65
 73
     2
 40
19.05
 49
12.7
 74
     0
 49
-6.35
 74
     0
  0
ENDTAB
  0
TABLE
  2
LAYER
  5
2
330
0
100
AcDbSymbolTable
 70
     9
  0
LAYER
  5
10
330
2
100
AcDbSymbolTableRecord
100
AcDbLayerTableRecord
  2
0
 70
     0
 62
     7
  6
Continuous
370
    -3
390
F
347
DD8
348
0
  0
LAYER
  5
2E
330
2
100
AcDbSymbolTableRecord
100
AcDbLayerTableRecord
  2
枠
 70
     0
 62
     1
  6
Continuous
370
    30
390
F
347
DD8
348
0
  0
LAYER
  5
2F
330
2
100
AcDbSymbolTableRecord
100
AcDbLayerTableRecord
  2
文字
 70
     0
 62
     7
  6
Continuous
370
    30
390
F
347
DD8
348
0
  0
LAYER
  5
36
330
2
100
AcDbSymbolTableRecord
100
AcDbLayerTableRecord
  2
中心線
 70
     0
 62
     7
  6
CENTER
370
    30
390
F
347
DD8
348
0
  0
LAYER
  5
52
330
2
100
AcDbSymbolTableRecord
100
AcDbLayerTableRecord
  2
隠れ線
 70
     0
 62
     2
  6
Continuous
290
     0
370
    -3
390
F
347
DD8
348
0
  0
LAYER
  5
128
330
2
100
AcDbSymbolTableRecord
100
AcDbLayerTableRecord
  2
実線
 70
     0
 62
     7
  6
Continuous
370
    50
390
F
347
DD8
348
0
  0
LAYER
  5
129
330
2
100
AcDbSymbolTableRecord
100
AcDbLayerTableRecord
  2
破線
 70
     0
 62
     7
  6
DASHED
370
    20
390
F
347
DD8
348
0
  0
LAYER
  5
693
330
2
100
AcDbSymbolTableRecord
100
AcDbLayerTableRecord
  2
Defpoints
 70
     0
 62
     7
  6
Continuous
290
     0
370
    -3
390
F
347
DD8
348
0
  0
LAYER
  5
DEE
330
2
100
AcDbSymbolTableRecord
100
AcDbLayerTableRecord
  2
文字・寸法線
 70
     0
 62
     7
  6
Continuous
370
    -3
390
F
347
DD8
348
0
  0
ENDTAB
  0
TABLE
  2
STYLE
  5
3
330
0
100
AcDbSymbolTable
 70
     2
  0
STYLE
  5
11
330
3
100
AcDbSymbolTableRecord
100
AcDbTextStyleTableRecord
  2
Standard
 70
     0
 40
0.0
 41
1.0
 50
0.0
 71
     0
 42
3.0
  3
txt.shx
  4
bigfont.shx
  0
STYLE
  5
34
330
3
100
AcDbSymbolTableRecord
100
AcDbTextStyleTableRecord
  2

 70
     1
 40
0.0
 41
1.0
 50
0.0
 71
     0
 42
2.5
  3
ltypeshp.shx
  4

  0
ENDTAB
  0
TABLE
  2
VIEW
  5
6
330
0
100
AcDbSymbolTable
 70
     0
  0
ENDTAB
  0
TABLE
  2
UCS
  5
7
330
0
100
AcDbSymbolTable
 70
     0
  0
ENDTAB
  0
TABLE
  2
APPID
  5
9
330
0
100
AcDbSymbolTable
 70
     1
  0
APPID
  5
12
330
9
100
AcDbSymbolTableRecord
100
AcDbRegAppTableRecord
  2
ACAD
 70
     0
  0
ENDTAB
  0
TABLE
  2
DIMSTYLE
  5
A
330
0
100
AcDbSymbolTable
 70
     2
100
AcDbDimStyleTable
  0
DIMSTYLE
105
29
102
{ACAD_REACTORS
330
A0A
330
A78
330
CB5
330
CBC
330
CCA
330
D1E
330
D40
330
E3C
330
E4D
102
}
330
A
100
AcDbSymbolTableRecord
100
AcDbDimStyleTableRecord
  2
ISO-25
 70
     0
 41
2.5
 42
0.625
 43
3.75
 44
1.25
 73
     0
 74
     0
 77
     1
 78
     8
140
2.5
141
2.5
143
0.03937007874016
147
0.625
171
     3
172
     1
178
     0
271
     2
272
     2
274
     3
283
     0
284
     8
340
11
  0
DIMSTYLE
105
DF0
330
A
100
AcDbSymbolTableRecord
100
AcDbDimStyleTableRecord
  2
Standard
 70
     0
178
     0
340
11
  0
ENDTAB
  0
TABLE
  2
BLOCK_RECORD
  5
1
330
0
100
AcDbSymbolTable
 70
    10
  0
BLOCK_RECORD
  5
21
330
1
100
AcDbSymbolTableRecord
100
AcDbBlockTableRecord
  2
*Model_Space
340
24
 70
     0
280
     1
281
     0
  0
BLOCK_RECORD
  5
DDE
330
1
100
AcDbSymbolTableRecord
100
AcDbBlockTableRecord
  2
*Paper_Space
340
DDF
 70
     0
280
     1
281
     0
  0
BLOCK_RECORD
  5
A3A
330
1
100
AcDbSymbolTableRecord
100
AcDbBlockTableRecord
  2
*D0
340
0
 70
     0
280
     1
281
     0
  0
BLOCK_RECORD
  5
A79
330
1
100
AcDbSymbolTableRecord
100
AcDbBlockTableRecord
  2
*D1
340
0
 70
     0
280
     1
281
     0
  0
BLOCK_RECORD
  5
CCD
330
1
100
AcDbSymbolTableRecord
100
AcDbBlockTableRecord
  2
*D2
340
0
 70
     0
280
     1
281
     0
  0
BLOCK_RECORD
  5
CD9
330
1
100
AcDbSymbolTableRecord
100
AcDbBlockTableRecord
  2
*D3
340
0
 70
     0
280
     1
281
     0
  0
BLOCK_RECORD
  5
CE5
330
1
100
AcDbSymbolTableRecord
100
AcDbBlockTableRecord
  2
*D4
340
0
 70
     0
280
     1
281
     0
  0
BLOCK_RECORD
  5
D1F
330
1
100
AcDbSymbolTableRecord
100
AcDbBlockTableRecord
  2
*D5
340
0
 70
     0
280
     1
281
     0
  0
BLOCK_RECORD
  5
D41
330
1
100
AcDbSymbolTableRecord
100
AcDbBlockTableRecord
  2
*D6
340
0
 70
     0
280
     1
281
     0
  0
BLOCK_RECORD
  5
E3E
330
1
100
AcDbSymbolTableRecord
100
AcDbBlockTableRecord
  2
*D8
340
0
 70
     0
280
     1
281
     0
  0
BLOCK_RECORD
  5
E4F
330
1
100
AcDbSymbolTableRecord
100
AcDbBlockTableRecord
  2
*D9
340
0
 70
     0
280
     1
281
     0
  0
ENDTAB
  0
ENDSEC
  0
SECTION
  2
BLOCKS
  0
BLOCK
  5
22
330
21
100
AcDbEntity
  8
0
100
AcDbBlockBegin
  2
*Model_Space
 70
     0
 10
0.0
 20
0.0
 30
0.0
  3
*Model_Space
  1
*Model_Space
  0
ENDBLK
  5
23
330
21
100
AcDbEntity
  8
0
100
AcDbBlockEnd
  0
BLOCK
  5
DE0
330
DDE
100
AcDbEntity
 67
     1
  8
0
100
AcDbBlockBegin
  2
*Paper_Space
 70
     0
 10
0.0
 20
0.0
 30
0.0
  3
*Paper_Space
  1
*Paper_Space
  0
ENDBLK
  5
DE1
330
DDE
100
AcDbEntity
 67
     1
  8
0
100
AcDbBlockEnd
  0
BLOCK
  5
A44
330
A3A
100
AcDbEntity
  8
0
100
AcDbBlockBegin
  2
*D0
 70
     1
 10
0.0
 20
0.0
 30
0.0
  3
*D0
  1
*D2
  0
LINE
  5
C50
330
A3A
100
AcDbEntity
  8
文字
 62
     0
370
    -2
100
AcDbLine
 10
44.98830259097525
 20
44.58789777117417
 30
0.0
 11
44.98830259097525
 21
21.21716500680357
 31
0.0
  0
LINE
  5
C51
330
A3A
100
AcDbEntity
  8
文字
 62
     0
370
    -2
100
AcDbLine
 10
104.9883025909752
 20
45.21289777117418
 30
0.0
 11
104.9883025909752
 21
21.21716500680357
 31
0.0
  0
LINE
  5
C52
330
A3A
100
AcDbEntity
  8
文字
 62
     0
370
    -2
100
AcDbLine
 10
47.48830259097525
 20
22.46716500680357
 30
0.0
 11
102.4883025909752
 21
22.46716500680357
 31
0.0
  0
SOLID
  5
C53
330
A3A
100
AcDbEntity
  8
文字
 62
     0
100
AcDbTrace
 10
47.48830259097525
 20
22.88383167347024
 30
0.0
 11
47.48830259097525
 21
22.0504983401369
 31
0.0
 12
44.98830259097525
 22
22.46716500680357
 32
0.0
 13
44.98830259097525
 23
22.46716500680357
 33
0.0
  0
SOLID
  5
C54
330
A3A
100
AcDbEntity
  8
文字
 62
     0
100
AcDbTrace
 10
102.4883025909752
 20
22.88383167347024
 30
0.0
 11
102.4883025909752
 21
22.0504983401369
 31
0.0
 12
104.9883025909752
 22
22.46716500680357
 32
0.0
 13
104.9883025909752
 23
22.46716500680357
 33
0.0
  0
MTEXT
  5
C55
330
A3A
100
AcDbEntity
  8
文字
 62
     0
100
AcDbMText
 10
74.98830259097524
 20
24.34216500680357
 30
0.0
 40
2.5
 41
0.0
 46
0.0
 71
     5
 72
     1
  1
%%c60
 73
     1
 44
1.0
  0
POINT
  5
C56
330
A3A
100
AcDbEntity
  8
Defpoints
 62
     0
100
AcDbPoint
 10
44.98830259097525
 20
45.21289777117417
 30
0.0
  0
POINT
  5
C57
330
A3A
100
AcDbEntity
  8
Defpoints
 62
     0
100
AcDbPoint
 10
104.9883025909752
 20
45.83789777117418
 30
0.0
  0
POINT
  5
C58
330
A3A
100
AcDbEntity
  8
Defpoints
 62
     0
100
AcDbPoint
 10
104.9883025909752
 20
22.46716500680357
 30
0.0
  0
ENDBLK
  5
A45
330
A3A
100
AcDbEntity
  8
0
100
AcDbBlockEnd
  0
BLOCK
  5
A83
330
A79
100
AcDbEntity
  8
0
100
AcDbBlockBegin
  2
*D1
 70
     1
 10
0.0
 20
0.0
 30
0.0
  3
*D1
  1
*D3
  0
LINE
  5
A90
330
A79
100
AcDbEntity
  8
文字
 62
     0
370
    -2
100
AcDbLine
 10
176.6205674858576
 20
74.54796655915959
 30
0.0
 11
176.6205674858576
 21
21.80151572826456
 31
0.0
  0
LINE
  5
A91
330
A79
100
AcDbEntity
  8
文字
 62
     0
370
    -2
100
AcDbLine
 10
215.6205674858576
 20
74.54796655915959
 30
0.0
 11
215.6205674858576
 21
21.80151572826456
 31
0.0
  0
LINE
  5
A92
330
A79
100
AcDbEntity
  8
文字
 62
     0
370
    -2
100
AcDbLine
 10
179.1205674858576
 20
23.05151572826456
 30
0.0
 11
213.1205674858576
 21
23.05151572826456
 31
0.0
  0
SOLID
  5
A93
330
A79
100
AcDbEntity
  8
文字
 62
     0
100
AcDbTrace
 10
179.1205674858576
 20
23.46818239493123
 30
0.0
 11
179.1205674858576
 21
22.63484906159789
 31
0.0
 12
176.6205674858576
 22
23.05151572826456
 32
0.0
 13
176.6205674858576
 23
23.05151572826456
 33
0.0
  0
SOLID
  5
A94
330
A79
100
AcDbEntity
  8
文字
 62
     0
100
AcDbTrace
 10
213.1205674858576
 20
22.63484906159789
 30
0.0
 11
213.1205674858576
 21
23.46818239493123
 31
0.0
 12
215.6205674858576
 22
23.05151572826456
 32
0.0
 13
215.6205674858576
 23
23.05151572826456
 33
0.0
  0
MTEXT
  5
A95
330
A79
100
AcDbEntity
  8
文字
 62
     0
100
AcDbMText
 10
196.1205674858576
 20
24.92651572826456
 30
0.0
 40
2.5
 41
0.0
 46
0.0
 71
     5
 72
     1
  1
%%c39
 73
     1
 44
1.0
  0
POINT
  5
A96
330
A79
100
AcDbEntity
  8
Defpoints
 62
     0
100
AcDbPoint
 10
176.6205674858576
 20
75.17296655915959
 30
0.0
  0
POINT
  5
A97
330
A79
100
AcDbEntity
  8
Defpoints
 62
     0
100
AcDbPoint
 10
215.6205674858576
 20
75.17296655915959
 30
0.0
  0
POINT
  5
A98
330
A79
100
AcDbEntity
  8
Defpoints
 62
     0
100
AcDbPoint
 10
215.6205674858576
 20
23.05151572826456
 30
0.0
  0
ENDBLK
  5
A84
330
A79
100
AcDbEntity
  8
0
100
AcDbBlockEnd
  0
BLOCK
  5
CD7
330
CCD
100
AcDbEntity
  8
0
100
AcDbBlockBegin
  2
*D2
 70
     1
 10
0.0
 20
0.0
 30
0.0
  3
*D2
  1
*D11
  0
LINE
  5
D03
330
CCD
100
AcDbEntity
  8
文字
 62
     0
370
    -2
100
AcDbLine
 10
64.9883463903416
 20
173.5849938302859
 30
0.0
 11
64.9883463903416
 21
189.7002453126267
 31
0.0
  0
LINE
  5
D04
330
CCD
100
AcDbEntity
  8
文字
 62
     0
370
    -2
100
AcDbLine
 10
84.9883463903416
 20
173.5849938302859
 30
0.0
 11
84.9883463903416
 21
189.7002453126267
 31
0.0
  0
LINE
  5
D05
330
CCD
100
AcDbEntity
  8
文字
 62
     0
370
    -2
100
AcDbLine
 10
67.4883463903416
 20
188.4502453126267
 30
0.0
 11
82.4883463903416
 21
188.4502453126267
 31
0.0
  0
SOLID
  5
D06
330
CCD
100
AcDbEntity
  8
文字
 62
     0
100
AcDbTrace
 10
67.4883463903416
 20
188.8669119792934
 30
0.0
 11
67.4883463903416
 21
188.0335786459601
 31
0.0
 12
64.9883463903416
 22
188.4502453126267
 32
0.0
 13
64.9883463903416
 23
188.4502453126267
 33
0.0
  0
SOLID
  5
D07
330
CCD
100
AcDbEntity
  8
文字
 62
     0
100
AcDbTrace
 10
82.4883463903416
 20
188.8669119792934
 30
0.0
 11
82.4883463903416
 21
188.0335786459601
 31
0.0
 12
84.9883463903416
 22
188.4502453126267
 32
0.0
 13
84.9883463903416
 23
188.4502453126267
 33
0.0
  0
MTEXT
  5
D08
330
CCD
100
AcDbEntity
  8
文字
 62
     0
100
AcDbMText
 10
74.9883463903416
 20
190.3252453126267
 30
0.0
 40
2.5
 41
0.0
 46
0.0
 71
     5
 72
     1
  1
{\fArial|b0|i0|c0|p32;M}20
 73
     1
 44
1.0
  0
POINT
  5
D09
330
CCD
100
AcDbEntity
  8
Defpoints
 62
     0
100
AcDbPoint
 10
64.9883463903416
 20
172.9599938302859
 30
0.0
  0
POINT
  5
D0A
330
CCD
100
AcDbEntity
  8
Defpoints
 62
     0
100
AcDbPoint
 10
84.9883463903416
 20
172.9599938302859
 30
0.0
  0
POINT
  5
D0B
330
CCD
100
AcDbEntity
  8
Defpoints
 62
     0
100
AcDbPoint
 10
84.9883463903416
 20
188.4502453126267
 30
0.0
  0
ENDBLK
  5
CD8
330
CCD
100
AcDbEntity
  8
0
100
AcDbBlockEnd
  0
BLOCK
  5
CE3
330
CD9
100
AcDbEntity
  8
0
100
AcDbBlockBegin
  2
*D3
 70
     1
 10
0.0
 20
0.0
 30
0.0
  3
*D3
  1
*D12
  0
LINE
  5
CFA
330
CD9
100
AcDbEntity
  8
文字
 62
     0
370
    -2
100
AcDbLine
 10
92.91334639034164
 20
74.9599938302859
 30
0.0
 11
126.4614784181183
 21
74.95999383028588
 31
0.0
  0
LINE
  5
CFB
330
CD9
100
AcDbEntity
  8
文字
 62
     0
370
    -2
100
AcDbLine
 10
92.91334639034164
 20
61.95999383028588
 30
0.0
 11
126.4614784181183
 21
61.95999383028587
 31
0.0
  0
LINE
  5
CFC
330
CD9
100
AcDbEntity
  8
文字
 62
     0
370
    -2
100
AcDbLine
 10
125.2114784181183
 20
72.45999383028588
 30
0.0
 11
125.2114784181183
 21
64.45999383028587
 31
0.0
  0
SOLID
  5
CFD
330
CD9
100
AcDbEntity
  8
文字
 62
     0
100
AcDbTrace
 10
124.7948117514516
 20
72.45999383028588
 30
0.0
 11
125.628145084785
 21
72.45999383028588
 31
0.0
 12
125.2114784181183
 22
74.95999383028588
 32
0.0
 13
125.2114784181183
 23
74.95999383028588
 33
0.0
  0
SOLID
  5
CFE
330
CD9
100
AcDbEntity
  8
文字
 62
     0
100
AcDbTrace
 10
124.7948117514516
 20
64.45999383028587
 30
0.0
 11
125.628145084785
 21
64.45999383028587
 31
0.0
 12
125.2114784181183
 22
61.95999383028587
 32
0.0
 13
125.2114784181183
 23
61.95999383028587
 33
0.0
  0
MTEXT
  5
CFF
330
CD9
100
AcDbEntity
  8
文字
 62
     0
100
AcDbMText
 10
123.3364784181183
 20
68.45999383028588
 30
0.0
 40
2.5
 41
0.0
 46
0.0
 71
     5
 72
     1
  1
13
 11
6.123031769111886E-17
 21
1.0
 31
0.0
 73
     1
 44
1.0
  0
POINT
  5
D00
330
CD9
100
AcDbEntity
  8
Defpoints
 62
     0
100
AcDbPoint
 10
92.28834639034164
 20
74.9599938302859
 30
0.0
  0
POINT
  5
D01
330
CD9
100
AcDbEntity
  8
Defpoints
 62
     0
100
AcDbPoint
 10
92.28834639034164
 20
61.95999383028588
 30
0.0
  0
POINT
  5
D02
330
CD9
100
AcDbEntity
  8
Defpoints
 62
     0
100
AcDbPoint
 10
125.2114784181183
 20
61.95999383028587
 30
0.0
  0
ENDBLK
  5
CE4
330
CD9
100
AcDbEntity
  8
0
100
AcDbBlockEnd
  0
BLOCK
  5
CEF
330
CE5
100
AcDbEntity
  8
0
100
AcDbBlockBegin
  2
*D4
 70
     1
 10
0.0
 20
0.0
 30
0.0
  3
*D4
  1
*D13
  0
LINE
  5
D89
330
CE5
100
AcDbEntity
  8
文字
 62
     0
370
    -2
100
AcDbLine
 10
83.6133463903416
 20
174.9599938302859
 30
0.0
 11
126.4614784181183
 21
174.9599938302859
 31
0.0
  0
LINE
  5
D8A
330
CE5
100
AcDbEntity
  8
文字
 62
     0
370
    -2
100
AcDbLine
 10
93.53834639034164
 20
74.95999383028587
 30
0.0
 11
126.4614784181183
 21
74.95999383028585
 31
0.0
  0
LINE
  5
D8B
330
CE5
100
AcDbEntity
  8
文字
 62
     0
370
    -2
100
AcDbLine
 10
125.2114784181183
 20
172.4599938302859
 30
0.0
 11
125.2114784181183
 21
77.45999383028585
 31
0.0
  0
SOLID
  5
D8C
330
CE5
100
AcDbEntity
  8
文字
 62
     0
100
AcDbTrace
 10
124.7948117514517
 20
172.4599938302859
 30
0.0
 11
125.628145084785
 21
172.4599938302859
 31
0.0
 12
125.2114784181183
 22
174.9599938302859
 32
0.0
 13
125.2114784181183
 23
174.9599938302859
 33
0.0
  0
SOLID
  5
D8D
330
CE5
100
AcDbEntity
  8
文字
 62
     0
100
AcDbTrace
 10
124.7948117514516
 20
77.45999383028585
 30
0.0
 11
125.628145084785
 21
77.45999383028585
 31
0.0
 12
125.2114784181183
 22
74.95999383028585
 32
0.0
 13
125.2114784181183
 23
74.95999383028585
 33
0.0
  0
MTEXT
  5
D8E
330
CE5
100
AcDbEntity
  8
文字
 62
     0
100
AcDbMText
 10
123.3364784181183
 20
124.9599938302859
 30
0.0
 40
2.5
 41
0.0
 46
0.0
 71
     5
 72
     1
  1
200
 11
6.123031769111886E-17
 21
1.0
 31
0.0
 73
     1
 44
1.0
  0
POINT
  5
D8F
330
CE5
100
AcDbEntity
  8
Defpoints
 62
     0
100
AcDbPoint
 10
82.9883463903416
 20
174.9599938302859
 30
0.0
  0
POINT
  5
D90
330
CE5
100
AcDbEntity
  8
Defpoints
 62
     0
100
AcDbPoint
 10
92.91334639034164
 20
74.95999383028587
 30
0.0
  0
POINT
  5
D91
330
CE5
100
AcDbEntity
  8
Defpoints
 62
     0
100
AcDbPoint
 10
125.2114784181183
 20
74.95999383028585
 30
0.0
  0
ENDBLK
  5
CF0
330
CE5
100
AcDbEntity
  8
0
100
AcDbBlockEnd
  0
BLOCK
  5
D29
330
D1F
100
AcDbEntity
  8
0
100
AcDbBlockBegin
  2
*D5
 70
     1
 10
0.0
 20
0.0
 30
0.0
  3
*D5
  1
*D14
  0
LINE
  5
D2B
330
D1F
100
AcDbEntity
  8
文字
 62
     0
370
    -2
100
AcDbLine
 10
95.1133025910452
 20
61.95999383028588
 30
0.0
 11
126.4614784181183
 21
61.95999383028587
 31
0.0
  0
LINE
  5
D2C
330
D1F
100
AcDbEntity
  8
文字
 62
     0
370
    -2
100
AcDbLine
 10
105.6133025909752
 20
43.96522090172101
 30
0.0
 11
126.4614784181183
 21
43.965220901721
 31
0.0
  0
LINE
  5
D2D
330
D1F
100
AcDbEntity
  8
文字
 62
     0
370
    -2
100
AcDbLine
 10
125.2114784181183
 20
59.45999383028587
 30
0.0
 11
125.2114784181183
 21
46.465220901721
 31
0.0
  0
SOLID
  5
D2E
330
D1F
100
AcDbEntity
  8
文字
 62
     0
100
AcDbTrace
 10
124.7948117514516
 20
59.45999383028587
 30
0.0
 11
125.628145084785
 21
59.45999383028587
 31
0.0
 12
125.2114784181183
 22
61.95999383028587
 32
0.0
 13
125.2114784181183
 23
61.95999383028587
 33
0.0
  0
SOLID
  5
D2F
330
D1F
100
AcDbEntity
  8
文字
 62
     0
100
AcDbTrace
 10
124.7948117514516
 20
46.465220901721
 30
0.0
 11
125.628145084785
 21
46.465220901721
 31
0.0
 12
125.2114784181183
 22
43.965220901721
 32
0.0
 13
125.2114784181183
 23
43.965220901721
 33
0.0
  0
MTEXT
  5
D30
330
D1F
100
AcDbEntity
  8
文字
 62
     0
100
AcDbMText
 10
123.3364784181183
 20
52.96260736600346
 30
0.0
 40
2.5
 41
0.0
 46
0.0
 71
     5
 72
     1
  1
18
 11
6.123031769111886E-17
 21
1.0
 31
0.0
 73
     1
 44
1.0
  0
POINT
  5
D31
330
D1F
100
AcDbEntity
  8
Defpoints
 62
     0
100
AcDbPoint
 10
94.4883025910452
 20
61.95999383028588
 30
0.0
  0
POINT
  5
D32
330
D1F
100
AcDbEntity
  8
Defpoints
 62
     0
100
AcDbPoint
 10
104.9883025909752
 20
43.96522090172101
 30
0.0
  0
POINT
  5
D33
330
D1F
100
AcDbEntity
  8
Defpoints
 62
     0
100
AcDbPoint
 10
125.2114784181183
 20
43.965220901721
 30
0.0
  0
ENDBLK
  5
D2A
330
D1F
100
AcDbEntity
  8
0
100
AcDbBlockEnd
  0
BLOCK
  5
D4B
330
D41
100
AcDbEntity
  8
0
100
AcDbBlockBegin
  2
*D6
 70
     1
 10
0.0
 20
0.0
 30
0.0
  3
*D6
  1
*D15
  0
LINE
  5
D58
330
D41
100
AcDbEntity
  8
文字
 62
     0
370
    -2
100
AcDbLine
 10
181.1383280003868
 20
74.54796655915959
 30
0.0
 11
181.1383280003868
 21
32.06590679540612
 31
0.0
  0
LINE
  5
D59
330
D41
100
AcDbEntity
  8
文字
 62
     0
370
    -2
100
AcDbLine
 10
211.1028069713284
 20
74.54796655915959
 30
0.0
 11
211.1028069713284
 21
32.06590679540612
 31
0.0
  0
LINE
  5
D5A
330
D41
100
AcDbEntity
  8
文字
 62
     0
370
    -2
100
AcDbLine
 10
183.6383280003868
 20
33.31590679540612
 30
0.0
 11
208.6028069713284
 21
33.31590679540612
 31
0.0
  0
SOLID
  5
D5B
330
D41
100
AcDbEntity
  8
文字
 62
     0
100
AcDbTrace
 10
183.6383280003868
 20
33.73257346207279
 30
0.0
 11
183.6383280003868
 21
32.89924012873946
 31
0.0
 12
181.1383280003868
 22
33.31590679540612
 32
0.0
 13
181.1383280003868
 23
33.31590679540612
 33
0.0
  0
SOLID
  5
D5C
330
D41
100
AcDbEntity
  8
文字
 62
     0
100
AcDbTrace
 10
208.6028069713284
 20
32.89924012873946
 30
0.0
 11
208.6028069713284
 21
33.73257346207279
 31
0.0
 12
211.1028069713284
 22
33.31590679540612
 32
0.0
 13
211.1028069713284
 23
33.31590679540612
 33
0.0
  0
MTEXT
  5
D5D
330
D41
100
AcDbEntity
  8
文字
 62
     0
100
AcDbMText
 10
196.1205674858576
 20
35.19090679540612
 30
0.0
 40
2.5
 41
0.0
 46
0.0
 71
     5
 72
     1
  1
30
 73
     1
 44
1.0
  0
POINT
  5
D5E
330
D41
100
AcDbEntity
  8
Defpoints
 62
     0
100
AcDbPoint
 10
181.1383280003868
 20
75.17296655915959
 30
0.0
  0
POINT
  5
D5F
330
D41
100
AcDbEntity
  8
Defpoints
 62
     0
100
AcDbPoint
 10
211.1028069713284
 20
75.17296655915959
 30
0.0
  0
POINT
  5
D60
330
D41
100
AcDbEntity
  8
Defpoints
 62
     0
100
AcDbPoint
 10
211.1028069713284
 20
33.31590679540612
 30
0.0
  0
ENDBLK
  5
D4C
330
D41
100
AcDbEntity
  8
0
100
AcDbBlockEnd
  0
BLOCK
  5
E3F
330
E3E
100
AcDbEntity
  8
0
100
AcDbBlockBegin
  2
*D8
 70
     1
 10
0.0
 20
0.0
 30
0.0
  3
*D8
  1
*D8
  0
LINE
  5
E40
330
E3E
100
AcDbEntity
  8
文字
 62
     0
370
    -2
100
AcDbLine
 10
15.00069579844845
 20
10.00019833783685
 30
0.0
 11
1.875
 21
10.00019833783685
 31
0.0
  0
LINE
  5
E41
330
E3E
100
AcDbEntity
  8
文字
 62
     0
370
    -2
100
AcDbLine
 10
15.8422714469077
 20
0.0
 30
0.0
 11
1.875
 21
0.0
 31
0.0
  0
LINE
  5
E42
330
E3E
100
AcDbEntity
  8
文字
 62
     0
370
    -2
100
AcDbLine
 10
3.125
 20
7.500198337836849
 30
0.0
 11
3.125
 21
2.5
 31
0.0
  0
SOLID
  5
E43
330
E3E
100
AcDbEntity
  8
文字
 62
     0
100
AcDbTrace
 10
3.541666666666667
 20
7.500198337836849
 30
0.0
 11
2.708333333333333
 21
7.500198337836849
 31
0.0
 12
3.125
 22
10.00019833783685
 32
0.0
 13
3.125
 23
10.00019833783685
 33
0.0
  0
SOLID
  5
E44
330
E3E
100
AcDbEntity
  8
文字
 62
     0
100
AcDbTrace
 10
2.708333333333333
 20
2.5
 30
0.0
 11
3.541666666666666
 21
2.5
 31
0.0
 12
3.125
 22
0.0
 32
0.0
 13
3.125
 23
0.0
 33
0.0
  0
MTEXT
  5
E45
330
E3E
100
AcDbEntity
  8
文字
 62
     0
100
AcDbMText
 10
1.25
 20
5.156323232109969
 30
0.0
 40
2.5
 41
0.0
 46
0.0
 71
     5
 72
     1
  1
10
 11
4.440804020554295E-17
 21
1.0
 31
0.0
 73
     1
 44
1.0
  0
POINT
  5
E46
330
E3E
100
AcDbEntity
  8
Defpoints
 62
     0
100
AcDbPoint
 10
15.62569579844845
 20
10.00019833783685
 30
0.0
  0
POINT
  5
E47
330
E3E
100
AcDbEntity
  8
Defpoints
 62
     0
100
AcDbPoint
 10
16.4672714469077
 20
0.0
 30
0.0
  0
POINT
  5
E48
330
E3E
100
AcDbEntity
  8
Defpoints
 62
     0
100
AcDbPoint
 10
3.125
 20
0.0000000000000008
 30
0.0
  0
ENDBLK
  5
E49
330
E3E
100
AcDbEntity
  8
0
100
AcDbBlockEnd
  0
BLOCK
  5
E50
330
E4F
100
AcDbEntity
  8
0
100
AcDbBlockBegin
  2
*D9
 70
     1
 10
0.0
 20
0.0
 30
0.0
  3
*D9
  1
*D9
  0
LINE
  5
E52
330
E4F
100
AcDbEntity
  8
文字
 62
     0
370
    -2
100
AcDbLine
 10
44.78291487634495
 20
54.05576011157629
 30
0.0
 11
31.6572190778965
 21
54.05576011157629
 31
0.0
  0
LINE
  5
E53
330
E4F
100
AcDbEntity
  8
文字
 62
     0
370
    -2
100
AcDbLine
 10
45.6244905248042
 20
44.05556177373944
 30
0.0
 11
31.6572190778965
 21
44.05556177373944
 31
0.0
  0
LINE
  5
E54
330
E4F
100
AcDbEntity
  8
文字
 62
     0
370
    -2
100
AcDbLine
 10
32.9072190778965
 20
51.55576011157629
 30
0.0
 11
32.9072190778965
 21
46.55556177373944
 31
0.0
  0
SOLID
  5
E55
330
E4F
100
AcDbEntity
  8
文字
 62
     0
100
AcDbTrace
 10
33.32388574456316
 20
51.55576011157629
 30
0.0
 11
32.49055241122984
 21
51.55576011157629
 31
0.0
 12
32.9072190778965
 22
54.05576011157629
 32
0.0
 13
32.9072190778965
 23
54.05576011157629
 33
0.0
  0
SOLID
  5
E56
330
E4F
100
AcDbEntity
  8
文字
 62
     0
100
AcDbTrace
 10
32.49055241122984
 20
46.55556177373944
 30
0.0
 11
33.32388574456316
 21
46.55556177373944
 31
0.0
 12
32.9072190778965
 22
44.05556177373944
 32
0.0
 13
32.9072190778965
 23
44.05556177373944
 33
0.0
  0
MTEXT
  5
E57
330
E4F
100
AcDbEntity
  8
文字
 62
     0
100
AcDbMText
 10
31.0322190778965
 20
49.21188500584941
 30
0.0
 40
2.5
 41
0.0
 46
0.0
 71
     5
 72
     1
  1
10
 11
0.0
 21
1.0
 31
0.0
 73
     1
 44
1.0
  0
POINT
  5
E58
330
E4F
100
AcDbEntity
  8
Defpoints
 62
     0
100
AcDbPoint
 10
45.40791487634495
 20
54.05576011157629
 30
0.0
  0
POINT
  5
E59
330
E4F
100
AcDbEntity
  8
Defpoints
 62
     0
100
AcDbPoint
 10
46.2494905248042
 20
44.05556177373944
 30
0.0
  0
POINT
  5
E5A
330
E4F
100
AcDbEntity
  8
Defpoints
 62
     0
100
AcDbPoint
 10
32.90721907789649
 20
44.05556177373944
 30
0.0
  0
ENDBLK
  5
E51
330
E4F
100
AcDbEntity
  8
0
100
AcDbBlockEnd
  0
ENDSEC
  0
SECTION
  2
ENTITIES
  0
CIRCLE
  5
640
330
21
100
AcDbEntity
  8
実線
100
AcDbCircle
 10
196.1205674858576
 20
75.17296655915959
 30
0.0
 40
30.0
  0
LINE
  5
88B
330
21
100
AcDbEntity
  8
中心線
100
AcDbLine
 10
196.1205674858576
 20
75.17296655915959
 30
0.0
 11
196.1205674858576
 21
117.9402932336879
 31
0.0
  0
LINE
  5
88C
330
21
100
AcDbEntity
  8
中心線
100
AcDbLine
 10
196.1205674858576
 20
75.17296655915959
 30
0.0
 11
196.1205674858576
 21
38.76260974759235
 31
0.0
  0
LINE
  5
98C
102
{ACAD_REACTORS
330
A8F
330
D57
102
}
330
21
100
AcDbEntity
  8
中心線
100
AcDbLine
 10
196.1205674858576
 20
75.17296655915959
 30
0.0
 11
153.5942663014125
 21
75.17296655915959
 31
0.0
  0
LINE
  5
98D
102
{ACAD_REACTORS
330
A8F
330
D57
102
}
330
21
100
AcDbEntity
  8
中心線
100
AcDbLine
 10
196.1205674858576
 20
75.17296655915959
 30
0.0
 11
240.5804548996228
 21
75.17296655915959
 31
0.0
  0
LINE
  5
9F1
330
21
100
AcDbEntity
  8
実線
100
AcDbLine
 10
74.98830259097528
 20
61.95999383033649
 30
0.0
 11
89.86088124996948
 21
61.95999383033649
 31
0.0
  0
LINE
  5
9F5
330
21
100
AcDbEntity
  8
実線
100
AcDbLine
 10
94.48830259097528
 20
61.95999383033649
 30
0.0
 11
104.160973150297
 21
54.95882275882745
 31
0.0
  0
LINE
  5
9F6
102
{ACAD_REACTORS
330
A0C
102
}
330
21
100
AcDbEntity
  8
実線
100
AcDbLine
 10
104.9883025909752
 20
53.33868580186979
 30
0.0
 11
104.9883025909753
 21
45.83789777117418
 31
0.0
  0
LINE
  5
9F7
330
21
100
AcDbEntity
  8
実線
100
AcDbLine
 10
102.9883025909753
 20
43.83789777117418
 30
0.0
 11
46.98830259097525
 21
43.83789777117417
 31
0.0
  0
LINE
  5
9F8
330
21
100
AcDbEntity
  8
実線
100
AcDbLine
 10
44.98830259097525
 20
45.83789777117417
 30
0.0
 11
44.98830259097528
 21
53.33868580186977
 31
0.0
  0
LINE
  5
9F9
330
21
100
AcDbEntity
  8
実線
100
AcDbLine
 10
45.81563203165351
 20
54.95882275882744
 30
0.0
 11
55.48830259097525
 21
61.95999383033649
 31
0.0
  0
LINE
  5
9FA
330
21
100
AcDbEntity
  8
実線
100
AcDbLine
 10
55.48830259097525
 20
61.95999383033649
 30
0.0
 11
74.98830259097525
 21
61.95999383033649
 31
0.0
  0
LINE
  5
9FB
330
21
100
AcDbEntity
  8
実線
100
AcDbLine
 10
44.98830259097525
 20
54.23789777117418
 30
0.0
 11
104.9883025909753
 21
54.23789777117418
 31
0.0
  0
LINE
  5
A02
330
21
100
AcDbEntity
  8
実線
100
AcDbLine
 10
89.86088124996948
 20
61.95999383033649
 30
0.0
 11
94.48830259097528
 21
61.95999383033649
 31
0.0
  0
ARC
  5
A03
330
21
100
AcDbEntity
  8
実線
100
AcDbCircle
 10
46.98830259097525
 20
45.83789777117417
 30
0.0
 40
2.0
100
AcDbArc
 50
180.0
 51
270.0
  0
ARC
  5
A04
102
{ACAD_REACTORS
330
A0C
102
}
330
21
100
AcDbEntity
  8
実線
100
AcDbCircle
 10
102.9883025909753
 20
45.83789777117418
 30
0.0
 40
2.0
100
AcDbArc
 50
270.0
 51
0.0
  0
ARC
  5
A05
330
21
100
AcDbEntity
  8
実線
100
AcDbCircle
 10
102.9883025909752
 20
53.33868580186979
 30
0.0
 40
2.0
100
AcDbArc
 50
0.0
 51
54.10262248829268
  0
ARC
  5
A06
330
21
100
AcDbEntity
  8
実線
100
AcDbCircle
 10
46.98830259097528
 20
53.33868580186977
 30
0.0
 40
2.0
100
AcDbArc
 50
125.8973775117073
 51
180.0
  0
DIMENSION
  5
A0A
102
{ACAD_REACTORS
330
A0C
102
}
102
{ACAD_XDICTIONARY
360
A0B
102
}
330
21
100
AcDbEntity
  8
文字
100
AcDbDimension
280
     0
  2
*D0
 10
104.9883025909752
 20
22.46716500680357
 30
0.0
 11
74.98830259097524
 21
24.34216500680357
 31
0.0
 70
    32
  1
%%c<>
 71
     5
 42
59.99999999999997
 73
     0
 74
     0
 75
     0
  3
ISO-25
100
AcDbAlignedDimension
 13
44.98830259097525
 23
45.21289777117417
 33
0.0
 14
104.9883025909752
 24
45.83789777117418
 34
0.0
100
AcDbRotatedDimension
  0
LINE
  5
A5A
330
21
100
AcDbEntity
  8
実線
100
AcDbLine
 10
66.53830259097526
 20
61.95999383033649
 30
0.0
 11
83.06146010374849
 21
61.95999383033649
 31
0.0
  0
CIRCLE
  5
A77
102
{ACAD_REACTORS
330
A8F
102
}
330
21
100
AcDbEntity
  8
実線
100
AcDbCircle
 10
196.1205674858576
 20
75.17296655915959
 30
0.0
 40
19.5
  0
DIMENSION
  5
A78
102
{ACAD_REACTORS
330
A8F
102
}
102
{ACAD_XDICTIONARY
360
A85
102
}
330
21
100
AcDbEntity
  8
文字
100
AcDbDimension
280
     0
  2
*D1
 10
215.6205674858576
 20
23.05151572826456
 30
0.0
 11
196.1205674858576
 21
24.92651572826456
 31
0.0
 70
    32
  1
%%c<>
 71
     5
 42
39.0
 73
     0
 74
     0
 75
     0
  3
ISO-25
100
AcDbAlignedDimension
 13
176.6205674858576
 23
75.17296655915959
 33
0.0
 14
215.6205674858576
 24
75.17296655915959
 34
0.0
100
AcDbRotatedDimension
  0
LINE
  5
AE8
330
21
100
AcDbEntity
  8
実線
100
AcDbLine
 10
64.63830259097526
 20
61.9599938303365
 30
0.0
 11
85.36037214493606
 21
61.9599938303365
 31
0.0
  0
LINE
  5
AF0
330
21
100
AcDbEntity
  8
実線
100
AcDbLine
 10
65.40132016242083
 20
61.95999383033647
 30
0.0
 11
84.5752850195297
 21
61.9599938303365
 31
0.0
  0
LINE
  5
CB0
330
21
100
AcDbEntity
  8
実線
100
AcDbLine
 10
65.40136396178718
 20
61.95999383028587
 30
0.0
 11
84.57532881889608
 21
61.9599938302859
 31
0.0
  0
LINE
  5
CB1
330
21
100
AcDbEntity
  8
実線
100
AcDbLine
 10
63.64834639034157
 20
61.96000693153724
 30
0.0
 11
86.3296671020573
 21
61.95998072750869
 31
0.0
  0
LWPOLYLINE
  5
CB2
330
21
100
AcDbEntity
  8
実線
100
AcDbPolyline
 90
        4
 70
     0
 43
0.0
 10
64.9883463903416
 20
112.1315667055397
 10
64.9883463903416
 20
74.9599938302859
 10
84.9883463903416
 20
74.9599938302859
 10
84.9883463903416
 20
128.4240954454236
  0
LINE
  5
CB3
330
21
100
AcDbEntity
  8
実線
370
    20
100
AcDbLine
 10
66.9883463903416
 20
114.1315667055397
 30
0.0
 11
66.9883463903416
 21
74.9599938302859
 31
0.0
  0
LINE
  5
CB4
330
21
100
AcDbEntity
  8
実線
370
    20
100
AcDbLine
 10
82.9883463903416
 20
130.1315667055397
 30
0.0
 11
82.9883463903416
 21
129.5787959838029
 31
0.0
  0
DIMENSION
  5
CB5
102
{ACAD_REACTORS
330
CB7
102
}
102
{ACAD_XDICTIONARY
360
CB6
102
}
330
21
100
AcDbEntity
  8
文字
100
AcDbDimension
280
     0
  2
*D2
 10
84.9883463903416
 20
188.4502453126267
 30
0.0
 11
74.9883463903416
 21
190.3252453126267
 31
0.0
 70
    32
  1
{\fArial|b0|i0|c0|p32;M}<>
 71
     5
 42
20.0
 73
     0
 74
     0
 75
     0
  3
ISO-25
100
AcDbAlignedDimension
 13
64.9883463903416
 23
172.9599938302859
 33
0.0
 14
84.9883463903416
 24
172.9599938302859
 34
0.0
100
AcDbRotatedDimension
  0
LINE
  5
CB8
330
21
100
AcDbEntity
  8
実線
370
    20
100
AcDbLine
 10
82.9883463903416
 20
174.9599938302859
 30
0.0
 11
82.9883463903416
 21
132.9599938302859
 31
0.0
  0
LINE
  5
CB9
330
21
100
AcDbEntity
  8
実線
370
    20
100
AcDbLine
 10
66.9883463903416
 20
174.9599938302859
 30
0.0
 11
66.9883463903416
 21
120.3411916767689
 31
0.0
  0
LINE
  5
CBA
102
{ACAD_REACTORS
330
CB7
102
}
330
21
100
AcDbEntity
  8
実線
370
    20
100
AcDbLine
 10
64.9883463903416
 20
172.9599938302859
 30
0.0
 11
84.9883463903416
 21
172.9599938302859
 31
0.0
  0
LWPOLYLINE
  5
CBB
102
{ACAD_REACTORS
330
CCC
102
}
330
21
100
AcDbEntity
  8
実線
100
AcDbPolyline
 90
        6
 70
     0
 43
0.0
 10
84.9883463903416
 20
134.9599938302859
 10
84.9883463903416
 20
172.9599938302859
 10
82.9883463903416
 20
174.9599938302859
 10
66.9883463903416
 20
174.9599938302859
 10
64.9883463903416
 20
172.9599938302859
 10
64.9883463903416
 20
119.1864911383896
  0
DIMENSION
  5
CBC
102
{ACAD_REACTORS
330
CBE
102
}
102
{ACAD_XDICTIONARY
360
CBD
102
}
330
21
100
AcDbEntity
  8
文字
100
AcDbDimension
280
     0
  2
*D3
 10
125.2114784181183
 20
61.95999383028587
 30
0.0
 11
123.3364784181183
 21
68.45999383028588
 31
0.0
 70
    32
 71
     5
 42
13.00000000000001
 73
     0
 74
     0
 75
     0
  3
ISO-25
100
AcDbAlignedDimension
 13
92.28834639034164
 23
74.9599938302859
 33
0.0
 14
92.28834639034164
 24
61.95999383028588
 34
0.0
 50
90.0
100
AcDbRotatedDimension
  0
LINE
  5
CBF
330
21
100
AcDbEntity
  8
実線
100
AcDbLine
 10
66.33834639034163
 20
74.9599938302859
 30
0.0
 11
66.33834639034163
 21
62.95999383028588
 31
0.0
  0
ARC
  5
CC0
330
21
100
AcDbEntity
  8
実線
100
AcDbCircle
 10
62.01334639034164
 20
71.81280633028587
 30
0.0
 40
9.852812499999981
100
AcDbArc
 50
243.9623951404291
 51
296.0376048595691
  0
LWPOLYLINE
  5
CC1
102
{ACAD_REACTORS
330
CBE
102
}
330
21
100
AcDbEntity
  8
実線
100
AcDbPolyline
 90
        4
 70
     0
 43
0.0
 10
92.28834639034164
 20
62.95999383028588
 10
92.28834639034164
 20
74.9599938302859
 10
57.68834639034165
 20
74.9599938302859
 10
57.68834639034165
 20
62.95999383028588
  0
LINE
  5
CC2
330
21
100
AcDbEntity
  8
実線
100
AcDbLine
 10
83.63834639034164
 20
74.9599938302859
 30
0.0
 11
83.63834639034164
 21
62.95999383028588
 31
0.0
  0
ARC
  5
CC3
330
21
100
AcDbEntity
  8
実線
100
AcDbCircle
 10
87.96334639034166
 20
71.81280633028591
 30
0.0
 40
9.852812500000026
100
AcDbArc
 50
243.9623951404291
 51
296.0376048595691
  0
ARC
  5
CC4
330
21
100
AcDbEntity
  8
実線
100
AcDbCircle
 10
74.98834639034172
 20
99.87124383028583
 30
0.0
 40
37.91124999999995
100
AcDbArc
 50
256.810969935543
 51
283.1890300644553
  0
LINE
  5
CC5
330
21
100
AcDbEntity
  8
中心線
100
AcDbLine
 10
74.9883463903416
 20
36.90233852559298
 30
0.0
 11
74.9883463903416
 21
124.9599938302859
 31
0.0
  0
LINE
  5
CC6
330
21
100
AcDbEntity
  8
実線
100
AcDbLine
 10
64.9883463903416
 20
114.959993830286
 30
0.0
 11
64.9883463903416
 21
112.1315667055397
 31
0.0
  0
LINE
  5
CC7
330
21
100
AcDbEntity
  8
実線
100
AcDbLine
 10
84.9883463903416
 20
134.9599938302859
 30
0.0
 11
84.9883463903416
 21
132.1315667055397
 31
0.0
  0
LINE
  5
CC8
330
21
100
AcDbEntity
  8
実線
370
    20
100
AcDbLine
 10
82.9883463903416
 20
132.9599938302859
 30
0.0
 11
82.9883463903416
 21
130.1315667055397
 31
0.0
  0
LINE
  5
CC9
330
21
100
AcDbEntity
  8
実線
370
    20
100
AcDbLine
 10
66.9883463903416
 20
116.959993830286
 30
0.0
 11
66.9883463903416
 21
114.1315667055397
 31
0.0
  0
DIMENSION
  5
CCA
102
{ACAD_REACTORS
330
CCC
102
}
102
{ACAD_XDICTIONARY
360
CCB
102
}
330
21
100
AcDbEntity
  8
文字
100
AcDbDimension
280
     0
  2
*D4
 10
125.2114784181183
 20
74.95999383028585
 30
0.0
 11
123.3364784181183
 21
124.9599938302859
 31
0.0
 70
    32
  1
200
 71
     5
 42
100.0
 73
     0
 74
     0
 75
     0
  3
ISO-25
100
AcDbAlignedDimension
 13
82.9883463903416
 23
174.9599938302859
 33
0.0
 14
92.91334639034164
 24
74.95999383028587
 34
0.0
 50
90.0
100
AcDbRotatedDimension
  0
DIMENSION
  5
D1E
330
21
100
AcDbEntity
  8
文字
100
AcDbDimension
280
     0
  2
*D5
 10
125.2114784181183
 20
43.965220901721
 30
0.0
 11
123.3364784181183
 21
52.96260736600346
 31
0.0
 70
    32
  1
18
 71
     5
 42
17.99477292856487
 73
     0
 74
     0
 75
     0
  3
ISO-25
100
AcDbAlignedDimension
 13
94.4883025910452
 23
61.95999383028588
 33
0.0
 14
104.9883025909752
 24
43.96522090172101
 34
0.0
 50
90.0
100
AcDbRotatedDimension
  0
CIRCLE
  5
D3D
330
21
100
AcDbEntity
  8
実線
370
    30
100
AcDbCircle
 10
196.1205674858576
 20
75.17296655915959
 30
0.0
 40
8.0
  0
CIRCLE
  5
D3E
330
21
100
AcDbEntity
  8
実線
100
AcDbCircle
 10
196.1205674858576
 20
75.17296655915959
 30
0.0
 40
10.0
  0
LWPOLYLINE
  5
D3F
102
{ACAD_REACTORS
330
D57
102
}
330
21
100
AcDbEntity
  8
実線
100
AcDbPolyline
 90
        6
 70
     1
 43
0.0
 10
211.1028069713284
 20
83.8229665591597
 10
196.1205674858576
 20
92.4729665591597
 10
181.1383280003868
 20
83.8229665591597
 10
181.1383280003868
 20
66.5229665591597
 10
196.1205674858576
 20
57.87296655915965
 10
211.1028069713284
 20
66.5229665591596
  0
DIMENSION
  5
D40
102
{ACAD_REACTORS
330
D57
102
}
102
{ACAD_XDICTIONARY
360
D4D
102
}
330
21
100
AcDbEntity
  8
文字
100
AcDbDimension
280
     0
  2
*D6
 10
211.1028069713284
 20
33.31590679540612
 30
0.0
 11
196.1205674858576
 21
35.19090679540612
 31
0.0
 70
    32
  1
30
 71
     5
 42
29.9644789709416
 73
     0
 74
     0
 75
     0
  3
ISO-25
100
AcDbAlignedDimension
 13
181.1383280003868
 23
75.17296655915959
 33
0.0
 14
211.1028069713284
 24
75.17296655915959
 34
0.0
100
AcDbRotatedDimension
  0
LINE
  5
D62
330
21
100
AcDbEntity
  8
実線
370
    30
100
AcDbLine
 10
74.9883463903416
 20
124.9599938302859
 30
0.0
 11
93.77396436280705
 21
135.8058754235823
 31
0.0
  0
LINE
  5
D63
330
21
100
AcDbEntity
  8
実線
370
    30
100
AcDbLine
 10
74.9883463903416
 20
124.9599938302859
 30
0.0
 11
57.04217925217669
 21
114.5987694021444
 31
0.0
  0
LINE
  5
D64
330
21
100
AcDbEntity
  8
実線
370
    30
100
AcDbLine
 10
75.9883463903416
 20
123.227943022717
 30
0.0
 11
94.77396436280705
 21
134.0738246160134
 31
0.0
  0
LINE
  5
D65
330
21
100
AcDbEntity
  8
実線
370
    30
100
AcDbLine
 10
75.9883463903416
 20
123.227943022717
 30
0.0
 11
58.04217925217669
 21
112.8667185945755
 31
0.0
  0
LWPOLYLINE
  5
D66
330
21
100
AcDbEntity
  8
実線
100
AcDbPolyline
 90
        2
 70
     0
 43
0.0
 10
84.9883463903416
 20
130.7334965221822
 10
84.9883463903416
 20
132.1315667055397
  0
LINE
  5
D67
330
21
100
AcDbEntity
  8
実線
370
    20
100
AcDbLine
 10
82.9883463903416
 20
127.2693949070444
 30
0.0
 11
82.98834639034158
 21
74.9599938302859
 31
0.0
  0
LINE
  5
D68
330
21
100
AcDbEntity
  8
実線
370
    20
100
AcDbLine
 10
66.9883463903416
 20
118.0317906000104
 30
0.0
 11
66.9883463903416
 21
116.959993830286
 31
0.0
  0
LWPOLYLINE
  5
D69
102
{ACAD_REACTORS
330
CCC
102
}
330
21
100
AcDbEntity
  8
実線
100
AcDbPolyline
 90
        2
 70
     0
 43
0.0
 10
64.9883463903416
 20
116.8770900616312
 10
64.9883463903416
 20
114.959993830286
  0
LINE
  5
D6A
330
21
100
AcDbEntity
  8
中心線
100
AcDbLine
 10
74.98834639034159
 20
124.9599938302859
 30
0.0
 11
74.9883463903416
 21
182.0549453755724
 31
0.0
  0
MTEXT
  5
E13
330
21
100
AcDbEntity
  8
文字・寸法線
 62
     0
100
AcDbMText
 10
93.39003691819859
 20
215.5386350389103
 30
0.0
 40
6.0
 41
0.0
 46
6.0
 71
     9
 72
     1
  1
{\fＭＳ ゴシック|b0|i0|c0|p0;S-W M20X200}
 73
     1
 44
1.0
1001
ACAD
1000
ACAD_MTEXT_DEFINED_HEIGHT_BEGIN
1070
    46
1040
6.0
1000
ACAD_MTEXT_DEFINED_HEIGHT_END
  0
DIMENSION
  5
E4D
102
{ACAD_XDICTIONARY
360
E4E
102
}
330
21
100
AcDbEntity
  8
文字
100
AcDbDimension
280
     0
  2
*D9
 10
32.9072190778965
 20
44.05556177373944
 30
0.0
 11
32.9072190778965
 21
49.21188500584941
 31
0.0
 70
   160
 71
     5
 42
10.00019833783685
 73
     0
 74
     0
 75
     0
  3
ISO-25
100
AcDbAlignedDimension
 13
45.40791487634495
 23
54.05576011157629
 33
0.0
 14
46.2494905248042
 24
44.05556177373944
 34
0.0
 50
90.0
100
AcDbRotatedDimension
  0
ENDSEC
  0
SECTION
  2
OBJECTS
  0
DICTIONARY
  5
C
330
0
100
AcDbDictionary
281
     1
  3
ACAD_COLOR
350
1C
  3
ACAD_DETAILVIEWSTYLE
350
DEB
  3
ACAD_GROUP
350
D
  3
ACAD_IMAGE_VARS
350
DDD
  3
ACAD_LAYOUT
350
1A
  3
ACAD_MATERIAL
350
1B
  3
ACAD_MLEADERSTYLE
350
DE8
  3
ACAD_MLINESTYLE
350
17
  3
ACAD_PLOTSETTINGS
350
19
  3
ACAD_PLOTSTYLENAME
350
E
  3
ACAD_SCALELIST
350
DB4
  3
ACAD_SECTIONVIEWSTYLE
350
DEC
  3
ACAD_TABLESTYLE
350
DD9
  3
ACAD_VISUALSTYLE
350
D9B
  3
AcadDim
350
6E9
  3
ACDB_RECOMPOSE_DATA
350
E5D
  3
AcDbVariableDictionary
350
DE2
  3
APPDATA
350
DDB
  0
SUN
  5
DDC
330
D9A
100
AcDbSun
 90
        1
290
     0
 63
     7
421
 16777215
 40
1.0
291
     1
 91
  2455826
 92
 54000000
292
     0
 70
     2
 71
   256
280
     1
  0
DICTIONARY
  5
A0B
330
A0A
100
AcDbDictionary
280
     1
281
     1
  3
ACAD_DIMASSOC
360
A0C
  0
DICTIONARY
  5
A85
330
A78
100
AcDbDictionary
280
     1
281
     1
  3
ACAD_DIMASSOC
360
A8F
  0
DICTIONARY
  5
CB6
330
CB5
100
AcDbDictionary
280
     1
281
     1
  3
ACAD_DIMASSOC
360
CB7
  0
DICTIONARY
  5
CBD
330
CBC
100
AcDbDictionary
280
     1
281
     1
  3
ACAD_DIMASSOC
360
CBE
  0
DICTIONARY
  5
CCB
330
CCA
100
AcDbDictionary
280
     1
281
     1
  3
ACAD_DIMASSOC
360
CCC
  0
DICTIONARY
  5
D4D
330
D40
100
AcDbDictionary
280
     1
281
     1
  3
ACAD_DIMASSOC
360
D57
  0
DICTIONARY
  5
E4E
330
E4D
100
AcDbDictionary
280
     1
281
     1
  0
DICTIONARY
  5
1C
102
{ACAD_REACTORS
330
C
102
}
330
C
100
AcDbDictionary
281
     1
  0
DICTIONARY
  5
DEB
102
{ACAD_REACTORS
330
C
102
}
330
C
100
AcDbDictionary
281
     1
  0
DICTIONARY
  5
D
102
{ACAD_REACTORS
330
C
102
}
330
C
100
AcDbDictionary
281
     1
  0
RASTERVARIABLES
  5
DDD
102
{ACAD_REACTORS
330
C
102
}
330
C
100
AcDbRasterVariables
 90
        0
 70
     1
 71
     1
 72
     1
  0
DICTIONARY
  5
1A
102
{ACAD_REACTORS
330
C
102
}
330
C
100
AcDbDictionary
281
     1
  3
Model
350
24
  3
Sheet1
350
DDF
  0
DICTIONARY
  5
1B
102
{ACAD_REACTORS
330
C
102
}
330
C
100
AcDbDictionary
281
     1
  3
ByBlock
350
DD7
  3
ByLayer
350
DD6
  3
Global
350
DD8
  0
DICTIONARY
  5
DE8
102
{ACAD_REACTORS
330
C
102
}
330
C
100
AcDbDictionary
281
     1
  0
DICTIONARY
  5
17
102
{ACAD_REACTORS
330
C
102
}
330
C
100
AcDbDictionary
281
     1
  3
Standard
350
18
  0
DICTIONARY
  5
19
102
{ACAD_REACTORS
330
C
102
}
330
C
100
AcDbDictionary
281
     1
  0
ACDBDICTIONARYWDFLT
  5
E
102
{ACAD_REACTORS
330
C
102
}
330
C
100
AcDbDictionary
281
     1
  3
Normal
350
F
100
AcDbDictionaryWithDefault
340
F
  0
DICTIONARY
  5
DB4
102
{ACAD_REACTORS
330
C
102
}
330
C
100
AcDbDictionary
281
     1
  3
A0
350
DB5
  3
A1
350
DB6
  3
A2
350
DB7
  3
A3
350
DB8
  3
A4
350
DB9
  3
A5
350
DBA
  3
A6
350
DBB
  3
A7
350
DBC
  3
A8
350
DBD
  3
A9
350
DBE
  3
B0
350
DBF
  3
B1
350
DC0
  3
B2
350
DC1
  3
B3
350
DC2
  3
B4
350
DC3
  3
B5
350
DC4
  3
B6
350
DC5
  3
B7
350
DC6
  3
B8
350
DC7
  3
B9
350
DC8
  3
C0
350
DC9
  3
C1
350
DCA
  3
C2
350
DCB
  3
C3
350
DCC
  3
C4
350
DCD
  3
C5
350
DCE
  3
C6
350
DCF
  3
C7
350
DD0
  3
C8
350
DD1
  3
C9
350
DD2
  3
D0
350
DD3
  3
D1
350
DD4
  3
D2
350
DD5
  0
DICTIONARY
  5
DEC
102
{ACAD_REACTORS
330
C
102
}
330
C
100
AcDbDictionary
281
     1
  0
DICTIONARY
  5
DD9
102
{ACAD_REACTORS
330
C
102
}
330
C
100
AcDbDictionary
281
     1
  3
Standard
350
DDA
  0
DICTIONARY
  5
D9B
102
{ACAD_REACTORS
330
C
102
}
330
C
100
AcDbDictionary
281
     1
  3
2dWireframe
350
DA0
  3
Basic
350
DA3
  3
Brighten
350
DA7
  3
ColorChange
350
DAB
  3
Conceptual
350
DA5
  3
Dim
350
DA6
  3
EdgeColorOff
350
DAE
  3
Facepattern
350
DAA
  3
Flat
350
D9C
  3
FlatWithEdges
350
D9D
  3
Gouraud
350
D9E
  3
GouraudWithEdges
350
D9F
  3
Hidden
350
DA2
  3
JitterOff
350
DAC
  3
Linepattern
350
DA9
  3
OverhangOff
350
DAD
  3
Realistic
350
DA4
  3
Shaded
350
DB3
  3
Shaded with edges
350
DB2
  3
Shades of Gray
350
DAF
  3
Sketchy
350
DB0
  3
Thicken
350
DA8
  3
Wireframe
350
DA1
  3
X-Ray
350
DB1
  0
XRECORD
  5
6E9
102
{ACAD_REACTORS
330
C
102
}
330
C
100
AcDbXrecord
280
     1
 90
   990106
  3

 60
     0
 61
     0
 62
     1
 63
     3
 64
     1
 65
     0
 66
     0
 67
     3
 68
     1
 69
     0
 70
     0
 71
     0
 72
     0
 40
0.0
170
     2
340
0
  0
XRECORD
  5
E5D
102
{ACAD_REACTORS
330
C
102
}
330
C
100
AcDbXrecord
280
     1
 90
        1
330
DDA
  0
DICTIONARY
  5
DE2
102
{ACAD_REACTORS
330
C
102
}
330
C
100
AcDbDictionary
281
     1
  3
CANNOSCALE
350
DE3
  3
CTABLESTYLE
350
DE7
  3
MSLTSCALE
350
DE9
  3
XCLIPFRAME
350
DEA
  0
DICTIONARY
  5
DDB
102
{ACAD_REACTORS
330
C
102
}
330
C
100
AcDbDictionary
281
     1
  0
DIMASSOC
  5
A0C
102
{ACAD_REACTORS
330
A0B
102
}
330
A0B
100
AcDbDimAssoc
330
A0A
 90
        2
 70
     0
 71
     0
  1
AcDbOsnapPointRef
 72
     6
331
9F6
 73
     2
 91
        0
 40
0.9999999999999999
 10
0.0
 20
0.0
 30
0.0
332
A04
 74
     2
 92
        0
 75
     0
  0
DIMASSOC
  5
A8F
102
{ACAD_REACTORS
330
A85
102
}
330
A85
100
AcDbDimAssoc
330
A78
 90
        3
 70
     0
 71
     0
  1
AcDbOsnapPointRef
 72
     6
331
98C
 73
     2
 91
        0
 40
0.4585397614390354
 10
0.0
 20
0.0
 30
0.0
332
A77
 74
     2
 92
        0
 75
     0
  1
AcDbOsnapPointRef
 72
     6
331
98D
 73
     2
 91
        0
 40
0.438597601890522
 10
0.0
 20
0.0
 30
0.0
332
A77
 74
     2
 92
        0
 75
     0
  0
DIMASSOC
  5
CB7
102
{ACAD_REACTORS
330
CB6
102
}
330
CB6
100
AcDbDimAssoc
330
CB5
 90
        3
 70
     0
 71
     0
  1
AcDbOsnapPointRef
 72
    13
331
CBA
 73
     2
 91
        0
 40
0.0
 10
0.0
 20
0.0
 30
2.000000000000000E+50
 75
     0
  1
AcDbOsnapPointRef
 72
     1
331
CBA
 73
     2
 91
        0
 40
1.0
 10
0.0
 20
0.0
 30
2.000000000000000E+50
 75
     0
  0
DIMASSOC
  5
CBE
102
{ACAD_REACTORS
330
CBD
102
}
330
CBD
100
AcDbDimAssoc
330
CBC
 90
        1
 70
     0
 71
     0
  1
AcDbOsnapPointRef
 72
     1
331
CC1
 73
     2
 91
        1
 40
1.0
 10
0.0
 20
0.0
 30
2.000000000000000E+50
 75
     0
  0
DIMASSOC
  5
CCC
102
{ACAD_REACTORS
330
CCB
102
}
330
CCB
100
AcDbDimAssoc
330
CCA
 90
        1
 70
     0
 71
     0
  1
AcDbOsnapPointRef
 72
     1
331
CBB
 73
     2
 91
        2
 40
0.9999999999999999
 10
0.0
 20
0.0
 30
2.000000000000000E+50
 75
     0
  0
DIMASSOC
  5
D57
102
{ACAD_REACTORS
330
D4D
102
}
330
D4D
100
AcDbDimAssoc
330
D40
 90
        3
 70
     0
 71
     0
  1
AcDbOsnapPointRef
 72
     6
331
D3F
 73
     2
 91
        3
 40
0.5000000000000024
 10
0.0
 20
0.0
 30
0.0
332
98C
 74
     2
 92
        0
 75
     0
  1
AcDbOsnapPointRef
 72
     6
331
D3F
 73
     2
 91
        6
 40
0.4999999999999992
 10
0.0
 20
0.0
 30
0.0
332
98D
 74
     2
 92
        0
 75
     0
  0
LAYOUT
  5
24
102
{ACAD_REACTORS
330
1A
102
}
330
1A
100
AcDbPlotSettings
  1

  2
\\SF05\Brother HL-1440 series
  4
A4
  6

 40
6.72041654586792
 41
5.027085304260254
 42
6.889755249023438
 43
5.027069091796875
 44
209.9733276367188
 45
296.9259948730469
 46
-6.82
 47
-5.06
 48
0.0
 49
0.0
140
297.0000000000001
141
210.0
142
1.0
143
1.0
 70
 11956
 72
     1
 73
     1
 74
     4
  7

 75
    16
 76
     1
 77
     2
 78
   300
147
1.0
148
0.0
149
0.0
100
AcDbLayout
  1
Model
 70
     1
 71
     0
 10
0.0
 20
0.0
 11
12.0
 21
9.0
 12
0.0
 22
0.0
 32
0.0
 14
29.7822190778965
 24
21.21716500680357
 34
0.0
 15
240.5804548996228
 25
221.5386350389103
 35
0.0
146
0.0
 13
0.0
 23
0.0
 33
0.0
 16
1.0
 26
0.0
 36
0.0
 17
0.0
 27
1.0
 37
0.0
 76
     0
330
21
331
D9A
  0
LAYOUT
  5
DDF
102
{ACAD_REACTORS
330
1A
102
}
330
1A
100
AcDbPlotSettings
  1

  2
none_device
  4

  6

 40
0.0
 41
0.0
 42
0.0
 43
0.0
 44
0.0
 45
0.0
 46
0.0
 47
0.0
 48
0.0
 49
0.0
140
0.0
141
0.0
142
1.0
143
1.0
 70
   688
 72
     1
 73
     0
 74
     5
  7

 75
    16
 76
     0
 77
     2
 78
   300
147
1.0
148
0.0
149
0.0
100
AcDbLayout
  1
Sheet1
 70
     1
 71
     1
 10
0.0
 20
0.0
 11
0.0
 21
0.0
 12
0.0
 22
0.0
 32
0.0
 14
0.0
 24
0.0
 34
0.0
 15
0.0
 25
0.0
 35
0.0
146
0.0
 13
0.0
 23
0.0
 33
0.0
 16
1.0
 26
0.0
 36
0.0
 17
0.0
 27
1.0
 37
0.0
 76
     0
330
DDE
  0
MATERIAL
  5
DD7
102
{ACAD_REACTORS
330
1B
102
}
330
1B
100
AcDbMaterial
  1
ByBlock
 72
     1
 94
      127
  0
MATERIAL
  5
DD6
102
{ACAD_REACTORS
330
1B
102
}
330
1B
100
AcDbMaterial
  1
ByLayer
 72
     1
 94
      127
  0
MATERIAL
  5
DD8
102
{ACAD_REACTORS
330
1B
102
}
330
1B
100
AcDbMaterial
  1
Global
 72
     1
 94
      127
  0
MLINESTYLE
  5
18
102
{ACAD_REACTORS
330
17
102
}
330
17
100
AcDbMlineStyle
  2
STANDARD
 70
     0
  3

 62
   256
 51
90.0
 52
90.0
 71
     2
 49
0.5
 62
   256
  6
BYLAYER
 49
-0.5
 62
   256
  6
BYLAYER
  0
ACDBPLACEHOLDER
  5
F
102
{ACAD_REACTORS
330
E
102
}
330
E
  0
SCALE
  5
DB5
102
{ACAD_REACTORS
330
DB4
102
}
330
DB4
100
AcDbScale
 70
     0
300
1:1
140
1.0
141
1.0
290
     1
  0
SCALE
  5
DB6
102
{ACAD_REACTORS
330
DB4
102
}
330
DB4
100
AcDbScale
 70
     0
300
1:2
140
1.0
141
2.0
290
     0
  0
SCALE
  5
DB7
102
{ACAD_REACTORS
330
DB4
102
}
330
DB4
100
AcDbScale
 70
     0
300
1:4
140
1.0
141
4.0
290
     0
  0
SCALE
  5
DB8
102
{ACAD_REACTORS
330
DB4
102
}
330
DB4
100
AcDbScale
 70
     0
300
1:5
140
1.0
141
5.0
290
     0
  0
SCALE
  5
DB9
102
{ACAD_REACTORS
330
DB4
102
}
330
DB4
100
AcDbScale
 70
     0
300
1:8
140
1.0
141
8.0
290
     0
  0
SCALE
  5
DBA
102
{ACAD_REACTORS
330
DB4
102
}
330
DB4
100
AcDbScale
 70
     0
300
1:10
140
1.0
141
10.0
290
     0
  0
SCALE
  5
DBB
102
{ACAD_REACTORS
330
DB4
102
}
330
DB4
100
AcDbScale
 70
     0
300
1:16
140
1.0
141
16.0
290
     0
  0
SCALE
  5
DBC
102
{ACAD_REACTORS
330
DB4
102
}
330
DB4
100
AcDbScale
 70
     0
300
1:20
140
1.0
141
20.0
290
     0
  0
SCALE
  5
DBD
102
{ACAD_REACTORS
330
DB4
102
}
330
DB4
100
AcDbScale
 70
     0
300
1:30
140
1.0
141
30.0
290
     0
  0
SCALE
  5
DBE
102
{ACAD_REACTORS
330
DB4
102
}
330
DB4
100
AcDbScale
 70
     0
300
1:40
140
1.0
141
40.0
290
     0
  0
SCALE
  5
DBF
102
{ACAD_REACTORS
330
DB4
102
}
330
DB4
100
AcDbScale
 70
     0
300
1:50
140
1.0
141
50.0
290
     0
  0
SCALE
  5
DC0
102
{ACAD_REACTORS
330
DB4
102
}
330
DB4
100
AcDbScale
 70
     0
300
1:100
140
1.0
141
100.0
290
     0
  0
SCALE
  5
DC1
102
{ACAD_REACTORS
330
DB4
102
}
330
DB4
100
AcDbScale
 70
     0
300
2:1
140
2.0
141
1.0
290
     0
  0
SCALE
  5
DC2
102
{ACAD_REACTORS
330
DB4
102
}
330
DB4
100
AcDbScale
 70
     0
300
4:1
140
4.0
141
1.0
290
     0
  0
SCALE
  5
DC3
102
{ACAD_REACTORS
330
DB4
102
}
330
DB4
100
AcDbScale
 70
     0
300
8:1
140
8.0
141
1.0
290
     0
  0
SCALE
  5
DC4
102
{ACAD_REACTORS
330
DB4
102
}
330
DB4
100
AcDbScale
 70
     0
300
10:1
140
10.0
141
1.0
290
     0
  0
SCALE
  5
DC5
102
{ACAD_REACTORS
330
DB4
102
}
330
DB4
100
AcDbScale
 70
     0
300
100:1
140
100.0
141
1.0
290
     0
  0
SCALE
  5
DC6
102
{ACAD_REACTORS
330
DB4
102
}
330
DB4
100
AcDbScale
 70
     0
300
1/128" = 1'-0"
140
0.0078125
141
12.0
290
     0
  0
SCALE
  5
DC7
102
{ACAD_REACTORS
330
DB4
102
}
330
DB4
100
AcDbScale
 70
     0
300
1/64" = 1'-0"
140
0.015625
141
12.0
290
     0
  0
SCALE
  5
DC8
102
{ACAD_REACTORS
330
DB4
102
}
330
DB4
100
AcDbScale
 70
     0
300
1/32" = 1'-0"
140
0.03125
141
12.0
290
     0
  0
SCALE
  5
DC9
102
{ACAD_REACTORS
330
DB4
102
}
330
DB4
100
AcDbScale
 70
     0
300
1/16" = 1'-0"
140
0.0625
141
12.0
290
     0
  0
SCALE
  5
DCA
102
{ACAD_REACTORS
330
DB4
102
}
330
DB4
100
AcDbScale
 70
     0
300
3/32" = 1'-0"
140
0.09375
141
12.0
290
     0
  0
SCALE
  5
DCB
102
{ACAD_REACTORS
330
DB4
102
}
330
DB4
100
AcDbScale
 70
     0
300
1/8" = 1'-0"
140
0.125
141
12.0
290
     0
  0
SCALE
  5
DCC
102
{ACAD_REACTORS
330
DB4
102
}
330
DB4
100
AcDbScale
 70
     0
300
3/16" = 1'-0"
140
0.1875
141
12.0
290
     0
  0
SCALE
  5
DCD
102
{ACAD_REACTORS
330
DB4
102
}
330
DB4
100
AcDbScale
 70
     0
300
1/4" = 1'-0"
140
0.25
141
12.0
290
     0
  0
SCALE
  5
DCE
102
{ACAD_REACTORS
330
DB4
102
}
330
DB4
100
AcDbScale
 70
     0
300
3/8" = 1'-0"
140
0.375
141
12.0
290
     0
  0
SCALE
  5
DCF
102
{ACAD_REACTORS
330
DB4
102
}
330
DB4
100
AcDbScale
 70
     0
300
1/2" = 1'-0"
140
0.5
141
12.0
290
     0
  0
SCALE
  5
DD0
102
{ACAD_REACTORS
330
DB4
102
}
330
DB4
100
AcDbScale
 70
     0
300
3/4" = 1'-0"
140
0.75
141
12.0
290
     0
  0
SCALE
  5
DD1
102
{ACAD_REACTORS
330
DB4
102
}
330
DB4
100
AcDbScale
 70
     0
300
1" = 1'-0"
140
1.0
141
12.0
290
     0
  0
SCALE
  5
DD2
102
{ACAD_REACTORS
330
DB4
102
}
330
DB4
100
AcDbScale
 70
     0
300
1-1/2" = 1'-0"
140
1.5
141
12.0
290
     0
  0
SCALE
  5
DD3
102
{ACAD_REACTORS
330
DB4
102
}
330
DB4
100
AcDbScale
 70
     0
300
3" = 1'-0"
140
3.0
141
12.0
290
     0
  0
SCALE
  5
DD4
102
{ACAD_REACTORS
330
DB4
102
}
330
DB4
100
AcDbScale
 70
     0
300
6" = 1'-0"
140
6.0
141
12.0
290
     0
  0
SCALE
  5
DD5
102
{ACAD_REACTORS
330
DB4
102
}
330
DB4
100
AcDbScale
 70
     0
300
1'-0" = 1'-0"
140
12.0
141
12.0
290
     0
  0
TABLESTYLE
  5
DDA
102
{ACAD_REACTORS
330
DD9
102
}
102
{ACAD_XDICTIONARY
360
E5B
102
}
330
DD9
100
AcDbTableStyle
  3
Standard
 70
     0
 71
     0
 40
0.06
 41
0.06
280
     0
281
     0
  7
Standard
140
4.5
170
     2
 62
     0
 63
   257
283
     0
 90
        4
 91
        0
  1

274
    -2
284
     1
 64
     0
275
    -2
285
     1
 65
     0
276
    -2
286
     1
 66
     0
277
    -2
287
     1
 67
     0
278
    -2
288
     1
 68
     0
279
    -2
289
     1
 69
     0
  7
Standard
140
6.0
170
     5
 62
     0
 63
   257
283
     0
 90
        4
 91
        0
  1

274
    -2
284
     1
 64
     0
275
    -2
285
     1
 65
     0
276
    -2
286
     1
 66
     0
277
    -2
287
     1
 67
     0
278
    -2
288
     1
 68
     0
279
    -2
289
     1
 69
     0
  7
Standard
140
4.5
170
     5
 62
     0
 63
   257
283
     0
 90
        4
 91
        0
  1

274
    -2
284
     1
 64
     0
275
    -2
285
     1
 65
     0
276
    -2
286
     1
 66
     0
277
    -2
287
     1
 67
     0
278
    -2
288
     1
 68
     0
279
    -2
289
     1
 69
     0
  0
VISUALSTYLE
  5
DA0
102
{ACAD_REACTORS
330
D9B
102
}
330
D9B
100
AcDbVisualStyle
  2
2dWireframe
 70
     4
177
     3
291
     0
 70
    58
 90
        0
176
     1
 90
        2
176
     1
 90
        0
176
     1
 90
        0
176
     1
 40
0.6
176
     1
 40
30.0
176
     1
 62
     7
420
 16777215
176
     1
 90
        1
176
     1
 90
        4
176
     1
 62
     7
176
     1
 62
   257
176
     1
 90
        1
176
     1
 90
        1
176
     1
 40
1.0
176
     1
 90
        0
176
     1
 62
   257
176
     1
 40
1.0
176
     1
 90
        1
176
     1
 90
        6
176
     1
 90
        2
176
     1
 62
     7
176
     1
 90
        5
176
     1
 90
        0
176
     1
 90
        0
176
     1
290
     0
176
     1
 90
        1
176
     1
 40
0.0
176
     1
 90
        0
176
     1
290
     1
176
     1
290
     1
176
     1
290
     0
176
     1
290
     0
176
     1
290
     0
176
     1
290
     0
176
     1
290
     0
176
     1
290
     0
176
     1
290
     0
176
     1
 90
       50
176
     1
 40
0.0
176
     1
 40
1.0
176
     1
 90
        0
176
     1
 62
    18
420
        0
176
     1
 90
       50
176
     1
 90
        3
176
     1
 62
     5
420
      255
176
     1
290
     0
176
     1
 90
       50
176
     1
 90
       50
176
     1
 90
       50
176
     1
290
     0
176
     1
 90
       50
176
     1
 62
   256
176
     0
 40
1.0
176
     0
 90
        2
176
     1
  1
strokes_ogs.tif
176
     1
290
     0
176
     1
 40
1.0
176
     1
 40
1.0
176
     1
  0
VISUALSTYLE
  5
DA3
102
{ACAD_REACTORS
330
D9B
102
}
330
D9B
100
AcDbVisualStyle
  2
Basic
 70
     7
177
     3
291
     1
 70
    58
 90
        1
176
     1
 90
        0
176
     1
 90
        1
176
     1
 90
        0
176
     1
 40
0.6
176
     1
 40
30.0
176
     1
 62
     7
420
 16777215
176
     1
 90
        0
176
     1
 90
        4
176
     1
 62
     7
176
     1
 62
   257
176
     1
 90
        1
176
     1
 90
        1
176
     1
 40
1.0
176
     1
 90
        8
176
     1
 62
     7
176
     1
 40
1.0
176
     1
 90
        1
176
     1
 90
        6
176
     1
 90
        2
176
     1
 62
     7
176
     1
 90
        5
176
     1
 90
        0
176
     1
 90
        0
176
     1
290
     0
176
     1
 90
        1
176
     1
 40
0.0
176
     1
 90
        0
176
     1
290
     0
176
     1
290
     1
176
     1
290
     1
176
     1
290
     0
176
     1
290
     0
176
     1
290
     0
176
     1
290
     0
176
     1
290
     0
176
     1
290
     0
176
     1
 90
       50
176
     1
 40
0.0
176
     1
 40
1.0
176
     1
 90
        0
176
     1
 62
    18
420
        0
176
     1
 90
       50
176
     1
 90
        3
176
     1
 62
     5
420
      255
176
     1
290
     0
176
     1
 90
       50
176
     1
 90
       50
176
     1
 90
       50
176
     1
290
     0
176
     1
 90
       50
176
     1
 62
   256
176
     0
 40
1.0
176
     0
 90
        2
176
     1
  1
strokes_ogs.tif
176
     1
290
     0
176
     1
 40
1.0
176
     1
 40
1.0
176
     1
  0
VISUALSTYLE
  5
DA7
102
{ACAD_REACTORS
330
D9B
102
}
330
D9B
100
AcDbVisualStyle
  2
Brighten
 70
    12
177
     3
291
     1
 70
    58
 90
        2
176
     1
 90
        2
176
     1
 90
        0
176
     1
 90
        0
176
     1
 40
0.6
176
     1
 40
30.0
176
     1
 62
     7
420
 16777215
176
     1
 90
        1
176
     1
 90
        4
176
     1
 62
     7
176
     1
 62
   257
176
     1
 90
        1
176
     1
 90
        1
176
     1
 40
1.0
176
     1
 90
        8
176
     1
 62
     7
176
     1
 40
1.0
176
     1
 90
        1
176
     1
 90
        6
176
     1
 90
        2
176
     1
 62
     7
176
     1
 90
        5
176
     1
 90
        0
176
     1
 90
        0
176
     1
290
     0
176
     1
 90
        1
176
     1
 40
50.0
176
     1
 90
        0
176
     1
290
     0
176
     1
290
     1
176
     1
290
     1
176
     1
290
     0
176
     1
290
     0
176
     1
290
     0
176
     1
290
     0
176
     1
290
     0
176
     1
290
     0
176
     1
 90
       50
176
     1
 40
0.0
176
     1
 40
1.0
176
     1
 90
        0
176
     1
 62
    18
420
        0
176
     1
 90
       50
176
     1
 90
        3
176
     1
 62
     5
420
      255
176
     1
290
     0
176
     1
 90
       50
176
     1
 90
       50
176
     1
 90
       50
176
     1
290
     0
176
     1
 90
       50
176
     1
 62
   256
176
     0
 40
1.0
176
     0
 90
        2
176
     1
  1
strokes_ogs.tif
176
     1
290
     0
176
     1
 40
1.0
176
     1
 40
1.0
176
     1
  0
VISUALSTYLE
  5
DAB
102
{ACAD_REACTORS
330
D9B
102
}
330
D9B
100
AcDbVisualStyle
  2
ColorChange
 70
    16
177
     3
291
     1
 70
    58
 90
        2
176
     1
 90
        2
176
     1
 90
        3
176
     1
 90
        0
176
     1
 40
0.6
176
     1
 40
30.0
176
     1
 62
     8
420
  8421504
176
     1
 90
        1
176
     1
 90
        4
176
     1
 62
     7
176
     1
 62
   257
176
     1
 90
        1
176
     1
 90
        1
176
     1
 40
1.0
176
     1
 90
        8
176
     1
 62
     8
420
  8421504
176
     1
 40
1.0
176
     1
 90
        1
176
     1
 90
        6
176
     1
 90
        2
176
     1
 62
     7
176
     1
 90
        5
176
     1
 90
        0
176
     1
 90
        0
176
     1
290
     0
176
     1
 90
        1
176
     1
 40
0.0
176
     1
 90
        0
176
     1
290
     0
176
     1
290
     1
176
     1
290
     1
176
     1
290
     0
176
     1
290
     0
176
     1
290
     0
176
     1
290
     0
176
     1
290
     0
176
     1
290
     0
176
     1
 90
       50
176
     1
 40
0.0
176
     1
 40
1.0
176
     1
 90
        0
176
     1
 62
    18
420
        0
176
     1
 90
       50
176
     1
 90
        3
176
     1
 62
     5
420
      255
176
     1
290
     0
176
     1
 90
       50
176
     1
 90
       50
176
     1
 90
       50
176
     1
290
     0
176
     1
 90
       50
176
     1
 62
   256
176
     0
 40
1.0
176
     0
 90
        2
176
     1
  1
strokes_ogs.tif
176
     1
290
     0
176
     1
 40
1.0
176
     1
 40
1.0
176
     1
  0
VISUALSTYLE
  5
DA5
102
{ACAD_REACTORS
330
D9B
102
}
330
D9B
100
AcDbVisualStyle
  2
Conceptual
 70
     9
177
     3
291
     0
 70
    58
 90
        3
176
     1
 90
        2
176
     1
 90
        0
176
     1
 90
        0
176
     1
 40
0.6
176
     1
 40
30.0
176
     1
 62
     7
420
 16777215
176
     1
 90
        2
176
     1
 90
        2
176
     1
 62
     7
176
     1
 62
   257
176
     1
 90
        1
176
     1
 90
        1
176
     1
 40
179.0
176
     1
 90
        8
176
     1
 62
     7
176
     1
 40
1.0
176
     1
 90
        1
176
     1
 90
        6
176
     1
 90
        2
176
     1
 62
     7
176
     1
 90
        3
176
     1
 90
        0
176
     1
 90
        0
176
     1
290
     0
176
     1
 90
        1
176
     1
 40
0.0
176
     1
 90
        0
176
     1
290
     0
176
     1
290
     1
176
     1
290
     1
176
     1
290
     0
176
     1
290
     0
176
     1
290
     0
176
     1
290
     0
176
     1
290
     0
176
     1
290
     0
176
     1
 90
       50
176
     1
 40
0.0
176
     1
 40
1.0
176
     1
 90
        0
176
     1
 62
    18
420
        0
176
     1
 90
       50
176
     1
 90
        3
176
     1
 62
     5
420
      255
176
     1
290
     0
176
     1
 90
       50
176
     1
 90
       50
176
     1
 90
       50
176
     1
290
     0
176
     1
 90
       50
176
     1
 62
   256
176
     0
 40
1.0
176
     0
 90
        2
176
     1
  1
strokes_ogs.tif
176
     1
290
     0
176
     1
 40
1.0
176
     1
 40
1.0
176
     1
  0
VISUALSTYLE
  5
DA6
102
{ACAD_REACTORS
330
D9B
102
}
330
D9B
100
AcDbVisualStyle
  2
Dim
 70
    11
177
     3
291
     1
 70
    58
 90
        2
176
     1
 90
        2
176
     1
 90
        0
176
     1
 90
        0
176
     1
 40
0.6
176
     1
 40
30.0
176
     1
 62
     7
420
 16777215
176
     1
 90
        1
176
     1
 90
        4
176
     1
 62
     7
176
     1
 62
   257
176
     1
 90
        1
176
     1
 90
        1
176
     1
 40
1.0
176
     1
 90
        8
176
     1
 62
     7
176
     1
 40
1.0
176
     1
 90
        1
176
     1
 90
        6
176
     1
 90
        2
176
     1
 62
     7
176
     1
 90
        5
176
     1
 90
        0
176
     1
 90
        0
176
     1
290
     0
176
     1
 90
        1
176
     1
 40
-50.0
176
     1
 90
        0
176
     1
290
     0
176
     1
290
     1
176
     1
290
     1
176
     1
290
     0
176
     1
290
     0
176
     1
290
     0
176
     1
290
     0
176
     1
290
     0
176
     1
290
     0
176
     1
 90
       50
176
     1
 40
0.0
176
     1
 40
1.0
176
     1
 90
        0
176
     1
 62
    18
420
        0
176
     1
 90
       50
176
     1
 90
        3
176
     1
 62
     5
420
      255
176
     1
290
     0
176
     1
 90
       50
176
     1
 90
       50
176
     1
 90
       50
176
     1
290
     0
176
     1
 90
       50
176
     1
 62
   256
176
     0
 40
1.0
176
     0
 90
        2
176
     1
  1
strokes_ogs.tif
176
     1
290
     0
176
     1
 40
1.0
176
     1
 40
1.0
176
     1
  0
VISUALSTYLE
  5
DAE
102
{ACAD_REACTORS
330
D9B
102
}
330
D9B
100
AcDbVisualStyle
  2
EdgeColorOff
 70
    22
177
     3
291
     1
 70
    58
 90
        2
176
     0
 90
        2
176
     0
 90
        0
176
     0
 90
        0
176
     0
 40
0.6
176
     0
 40
30.0
176
     0
 62
     7
420
 16777215
176
     0
 90
        1
176
     0
 90
        4
176
     0
 62
     7
176
     0
 62
   257
176
     0
 90
        1
176
     0
 90
        1
176
     0
 40
1.0
176
     0
 90
        8
176
     2
 62
     7
176
     0
 40
1.0
176
     0
 90
        1
176
     0
 90
        6
176
     0
 90
        2
176
     0
 62
     7
176
     0
 90
        5
176
     0
 90
        0
176
     0
 90
        0
176
     0
290
     0
176
     0
 90
        1
176
     0
 40
0.0
176
     0
 90
        0
176
     0
290
     0
176
     0
290
     1
176
     0
290
     1
176
     0
290
     0
176
     0
290
     0
176
     0
290
     0
176
     0
290
     0
176
     0
290
     0
176
     0
290
     0
176
     0
 90
       50
176
     0
 40
0.0
176
     0
 40
1.0
176
     0
 90
        0
176
     0
 62
    18
420
        0
176
     0
 90
       50
176
     0
 90
        3
176
     0
 62
     5
420
      255
176
     0
290
     0
176
     0
 90
       50
176
     0
 90
       50
176
     0
 90
       50
176
     0
290
     0
176
     0
 90
       50
176
     0
 62
   256
176
     0
 40
1.0
176
     0
 90
        2
176
     0
  1
strokes_ogs.tif
176
     0
290
     0
176
     0
 40
1.0
176
     0
 40
1.0
176
     0
  0
VISUALSTYLE
  5
DAA
102
{ACAD_REACTORS
330
D9B
102
}
330
D9B
100
AcDbVisualStyle
  2
Facepattern
 70
    15
177
     3
291
     1
 70
    58
 90
        2
176
     1
 90
        2
176
     1
 90
        0
176
     1
 90
        0
176
     1
 40
0.6
176
     1
 40
30.0
176
     1
 62
     7
420
 16777215
176
     1
 90
        1
176
     1
 90
        4
176
     1
 62
     7
176
     1
 62
   257
176
     1
 90
        1
176
     1
 90
        1
176
     1
 40
1.0
176
     1
 90
        8
176
     1
 62
     7
176
     1
 40
1.0
176
     1
 90
        1
176
     1
 90
        6
176
     1
 90
        2
176
     1
 62
     7
176
     1
 90
        5
176
     1
 90
        0
176
     1
 90
        0
176
     1
290
     0
176
     1
 90
        1
176
     1
 40
0.0
176
     1
 90
        0
176
     1
290
     0
176
     1
290
     1
176
     1
290
     1
176
     1
290
     0
176
     1
290
     0
176
     1
290
     0
176
     1
290
     0
176
     1
290
     0
176
     1
290
     0
176
     1
 90
       50
176
     1
 40
0.0
176
     1
 40
1.0
176
     1
 90
        0
176
     1
 62
    18
420
        0
176
     1
 90
       50
176
     1
 90
        3
176
     1
 62
     5
420
      255
176
     1
290
     0
176
     1
 90
       50
176
     1
 90
       50
176
     1
 90
       50
176
     1
290
     0
176
     1
 90
       50
176
     1
 62
   256
176
     0
 40
1.0
176
     0
 90
        2
176
     1
  1
strokes_ogs.tif
176
     1
290
     0
176
     1
 40
1.0
176
     1
 40
1.0
176
     1
  0
VISUALSTYLE
  5
D9C
102
{ACAD_REACTORS
330
D9B
102
}
330
D9B
100
AcDbVisualStyle
  2
Flat
 70
     0
177
     3
291
     1
 70
    58
 90
        2
176
     1
 90
        1
176
     1
 90
        1
176
     1
 90
        2
176
     1
 40
0.6
176
     1
 40
30.0
176
     1
 62
     7
420
 16777215
176
     1
 90
        0
176
     1
 90
        0
176
     1
 62
     7
176
     1
 62
   257
176
     1
 90
        1
176
     1
 90
        1
176
     1
 40
1.0
176
     1
 90
        8
176
     1
 62
     7
176
     1
 40
1.0
176
     1
 90
        1
176
     1
 90
        6
176
     1
 90
        2
176
     1
 62
     7
176
     1
 90
        5
176
     1
 90
        0
176
     1
 90
        0
176
     1
290
     0
176
     1
 90
       13
176
     1
 40
0.0
176
     1
 90
        0
176
     1
290
     0
176
     1
290
     1
176
     1
290
     1
176
     1
290
     0
176
     1
290
     0
176
     1
290
     0
176
     1
290
     0
176
     1
290
     0
176
     1
290
     0
176
     1
 90
       50
176
     1
 40
0.0
176
     1
 40
1.0
176
     1
 90
        0
176
     1
 62
    18
420
        0
176
     1
 90
       50
176
     1
 90
        3
176
     1
 62
     5
420
      255
176
     1
290
     0
176
     1
 90
       50
176
     1
 90
       50
176
     1
 90
       50
176
     1
290
     0
176
     1
 90
       50
176
     1
 62
   256
176
     0
 40
1.0
176
     0
 90
        2
176
     1
  1
strokes_ogs.tif
176
     1
290
     0
176
     1
 40
1.0
176
     1
 40
1.0
176
     1
  0
VISUALSTYLE
  5
D9D
102
{ACAD_REACTORS
330
D9B
102
}
330
D9B
100
AcDbVisualStyle
  2
FlatWithEdges
 70
     1
177
     3
291
     1
 70
    58
 90
        2
176
     1
 90
        1
176
     1
 90
        1
176
     1
 90
        2
176
     1
 40
0.6
176
     1
 40
30.0
176
     1
 62
     7
420
 16777215
176
     1
 90
        1
176
     1
 90
        0
176
     1
 62
     7
176
     1
 62
   257
176
     1
 90
        1
176
     1
 90
        1
176
     1
 40
1.0
176
     1
 90
        0
176
     1
 62
   257
176
     1
 40
1.0
176
     1
 90
        1
176
     1
 90
        6
176
     1
 90
        2
176
     1
 62
     7
176
     1
 90
        5
176
     1
 90
        0
176
     1
 90
        0
176
     1
290
     0
176
     1
 90
       13
176
     1
 40
0.0
176
     1
 90
        0
176
     1
290
     0
176
     1
290
     1
176
     1
290
     1
176
     1
290
     0
176
     1
290
     0
176
     1
290
     0
176
     1
290
     0
176
     1
290
     0
176
     1
290
     0
176
     1
 90
       50
176
     1
 40
0.0
176
     1
 40
1.0
176
     1
 90
        0
176
     1
 62
    18
420
        0
176
     1
 90
       50
176
     1
 90
        3
176
     1
 62
     5
420
      255
176
     1
290
     0
176
     1
 90
       50
176
     1
 90
       50
176
     1
 90
       50
176
     1
290
     0
176
     1
 90
       50
176
     1
 62
   256
176
     0
 40
1.0
176
     0
 90
        2
176
     1
  1
strokes_ogs.tif
176
     1
290
     0
176
     1
 40
1.0
176
     1
 40
1.0
176
     1
  0
VISUALSTYLE
  5
D9E
102
{ACAD_REACTORS
330
D9B
102
}
330
D9B
100
AcDbVisualStyle
  2
Gouraud
 70
     2
177
     3
291
     1
 70
    58
 90
        2
176
     1
 90
        2
176
     1
 90
        1
176
     1
 90
        2
176
     1
 40
0.6
176
     1
 40
30.0
176
     1
 62
     7
420
 16777215
176
     1
 90
        0
176
     1
 90
        0
176
     1
 62
     7
176
     1
 62
   257
176
     1
 90
        1
176
     1
 90
        1
176
     1
 40
1.0
176
     1
 90
        0
176
     1
 62
     7
176
     1
 40
1.0
176
     1
 90
        1
176
     1
 90
        6
176
     1
 90
        2
176
     1
 62
     7
176
     1
 90
        5
176
     1
 90
        0
176
     1
 90
        0
176
     1
290
     0
176
     1
 90
       13
176
     1
 40
0.0
176
     1
 90
        0
176
     1
290
     0
176
     1
290
     1
176
     1
290
     1
176
     1
290
     0
176
     1
290
     0
176
     1
290
     0
176
     1
290
     0
176
     1
290
     0
176
     1
290
     0
176
     1
 90
       50
176
     1
 40
0.0
176
     1
 40
1.0
176
     1
 90
        0
176
     1
 62
    18
420
        0
176
     1
 90
       50
176
     1
 90
        3
176
     1
 62
     5
420
      255
176
     1
290
     0
176
     1
 90
       50
176
     1
 90
       50
176
     1
 90
       50
176
     1
290
     0
176
     1
 90
       50
176
     1
 62
   256
176
     0
 40
1.0
176
     0
 90
        2
176
     1
  1
strokes_ogs.tif
176
     1
290
     0
176
     1
 40
1.0
176
     1
 40
1.0
176
     1
  0
VISUALSTYLE
  5
D9F
102
{ACAD_REACTORS
330
D9B
102
}
330
D9B
100
AcDbVisualStyle
  2
GouraudWithEdges
 70
     3
177
     3
291
     1
 70
    58
 90
        2
176
     1
 90
        2
176
     1
 90
        1
176
     1
 90
        2
176
     1
 40
0.6
176
     1
 40
30.0
176
     1
 62
     7
420
 16777215
176
     1
 90
        1
176
     1
 90
        0
176
     1
 62
     7
176
     1
 62
   257
176
     1
 90
        1
176
     1
 90
        1
176
     1
 40
1.0
176
     1
 90
        0
176
     1
 62
   257
176
     1
 40
1.0
176
     1
 90
        1
176
     1
 90
        6
176
     1
 90
        2
176
     1
 62
     7
176
     1
 90
        5
176
     1
 90
        0
176
     1
 90
        0
176
     1
290
     0
176
     1
 90
       13
176
     1
 40
0.0
176
     1
 90
        0
176
     1
290
     0
176
     1
290
     1
176
     1
290
     1
176
     1
290
     0
176
     1
290
     0
176
     1
290
     0
176
     1
290
     0
176
     1
290
     0
176
     1
290
     0
176
     1
 90
       50
176
     1
 40
0.0
176
     1
 40
1.0
176
     1
 90
        0
176
     1
 62
    18
420
        0
176
     1
 90
       50
176
     1
 90
        3
176
     1
 62
     5
420
      255
176
     1
290
     0
176
     1
 90
       50
176
     1
 90
       50
176
     1
 90
       50
176
     1
290
     0
176
     1
 90
       50
176
     1
 62
   256
176
     0
 40
1.0
176
     0
 90
        2
176
     1
  1
strokes_ogs.tif
176
     1
290
     0
176
     1
 40
1.0
176
     1
 40
1.0
176
     1
  0
VISUALSTYLE
  5
DA2
102
{ACAD_REACTORS
330
D9B
102
}
330
D9B
100
AcDbVisualStyle
  2
Hidden
 70
     6
177
     3
291
     0
 70
    58
 90
        1
176
     1
 90
        2
176
     1
 90
        2
176
     1
 90
        0
176
     1
 40
0.6
176
     1
 40
30.0
176
     1
 62
     7
420
 16777215
176
     1
 90
        2
176
     1
 90
        2
176
     1
 62
     7
176
     1
 62
   257
176
     1
 90
        2
176
     1
 90
        1
176
     1
 40
40.0
176
     1
 90
        0
176
     1
 62
   257
176
     1
 40
1.0
176
     1
 90
        1
176
     1
 90
        6
176
     1
 90
        2
176
     1
 62
     7
176
     1
 90
        3
176
     1
 90
        0
176
     1
 90
        0
176
     1
290
     0
176
     1
 90
        1
176
     1
 40
0.0
176
     1
 90
        0
176
     1
290
     0
176
     1
290
     1
176
     1
290
     1
176
     1
290
     0
176
     1
290
     0
176
     1
290
     0
176
     1
290
     0
176
     1
290
     0
176
     1
290
     0
176
     1
 90
       50
176
     1
 40
0.0
176
     1
 40
1.0
176
     1
 90
        0
176
     1
 62
    18
420
        0
176
     1
 90
       50
176
     1
 90
        3
176
     1
 62
     5
420
      255
176
     1
290
     0
176
     1
 90
       50
176
     1
 90
       50
176
     1
 90
       50
176
     1
290
     0
176
     1
 90
       50
176
     1
 62
   256
176
     0
 40
1.0
176
     0
 90
        2
176
     1
  1
strokes_ogs.tif
176
     1
290
     0
176
     1
 40
1.0
176
     1
 40
1.0
176
     1
  0
VISUALSTYLE
  5
DAC
102
{ACAD_REACTORS
330
D9B
102
}
330
D9B
100
AcDbVisualStyle
  2
JitterOff
 70
    20
177
     3
291
     1
 70
    58
 90
        2
176
     0
 90
        2
176
     0
 90
        0
176
     0
 90
        0
176
     0
 40
0.6
176
     0
 40
30.0
176
     0
 62
     7
420
 16777215
176
     0
 90
        1
176
     0
 90
        4
176
     0
 62
     7
176
     0
 62
   257
176
     0
 90
        1
176
     0
 90
        1
176
     0
 40
1.0
176
     0
 90
       10
176
     2
 62
     7
176
     0
 40
1.0
176
     0
 90
        1
176
     0
 90
        6
176
     0
 90
        2
176
     0
 62
     7
176
     0
 90
        5
176
     0
 90
        0
176
     0
 90
        0
176
     0
290
     0
176
     0
 90
        1
176
     0
 40
0.0
176
     0
 90
        0
176
     0
290
     0
176
     0
290
     1
176
     0
290
     1
176
     0
290
     0
176
     0
290
     0
176
     0
290
     0
176
     0
290
     0
176
     0
290
     0
176
     0
290
     0
176
     0
 90
       50
176
     0
 40
0.0
176
     0
 40
1.0
176
     0
 90
        0
176
     0
 62
    18
420
        0
176
     0
 90
       50
176
     0
 90
        3
176
     0
 62
     5
420
      255
176
     0
290
     0
176
     0
 90
       50
176
     0
 90
       50
176
     0
 90
       50
176
     0
290
     0
176
     0
 90
       50
176
     0
 62
   256
176
     0
 40
1.0
176
     0
 90
        2
176
     0
  1
strokes_ogs.tif
176
     0
290
     0
176
     0
 40
1.0
176
     0
 40
1.0
176
     0
  0
VISUALSTYLE
  5
DA9
102
{ACAD_REACTORS
330
D9B
102
}
330
D9B
100
AcDbVisualStyle
  2
Linepattern
 70
    14
177
     3
291
     1
 70
    58
 90
        2
176
     1
 90
        2
176
     1
 90
        0
176
     1
 90
        0
176
     1
 40
0.6
176
     1
 40
30.0
176
     1
 62
     7
420
 16777215
176
     1
 90
        1
176
     1
 90
        4
176
     1
 62
     7
176
     1
 62
   257
176
     1
 90
        7
176
     1
 90
        7
176
     1
 40
1.0
176
     1
 90
        8
176
     1
 62
     7
176
     1
 40
1.0
176
     1
 90
        1
176
     1
 90
        6
176
     1
 90
        2
176
     1
 62
     7
176
     1
 90
        5
176
     1
 90
        0
176
     1
 90
        0
176
     1
290
     0
176
     1
 90
        1
176
     1
 40
0.0
176
     1
 90
        0
176
     1
290
     0
176
     1
290
     1
176
     1
290
     1
176
     1
290
     0
176
     1
290
     0
176
     1
290
     0
176
     1
290
     0
176
     1
290
     0
176
     1
290
     0
176
     1
 90
       50
176
     1
 40
0.0
176
     1
 40
1.0
176
     1
 90
        0
176
     1
 62
    18
420
        0
176
     1
 90
       50
176
     1
 90
        3
176
     1
 62
     5
420
      255
176
     1
290
     0
176
     1
 90
       50
176
     1
 90
       50
176
     1
 90
       50
176
     1
290
     0
176
     1
 90
       50
176
     1
 62
   256
176
     0
 40
1.0
176
     0
 90
        2
176
     1
  1
strokes_ogs.tif
176
     1
290
     0
176
     1
 40
1.0
176
     1
 40
1.0
176
     1
  0
VISUALSTYLE
  5
DAD
102
{ACAD_REACTORS
330
D9B
102
}
330
D9B
100
AcDbVisualStyle
  2
OverhangOff
 70
    21
177
     3
291
     1
 70
    58
 90
        2
176
     0
 90
        2
176
     0
 90
        0
176
     0
 90
        0
176
     0
 40
0.6
176
     0
 40
30.0
176
     0
 62
     7
420
 16777215
176
     0
 90
        1
176
     0
 90
        4
176
     0
 62
     7
176
     0
 62
   257
176
     0
 90
        1
176
     0
 90
        1
176
     0
 40
1.0
176
     0
 90
        9
176
     2
 62
     7
176
     0
 40
1.0
176
     0
 90
        1
176
     0
 90
        6
176
     0
 90
        2
176
     0
 62
     7
176
     0
 90
        5
176
     0
 90
        0
176
     0
 90
        0
176
     0
290
     0
176
     0
 90
        1
176
     0
 40
0.0
176
     0
 90
        0
176
     0
290
     0
176
     0
290
     1
176
     0
290
     1
176
     0
290
     0
176
     0
290
     0
176
     0
290
     0
176
     0
290
     0
176
     0
290
     0
176
     0
290
     0
176
     0
 90
       50
176
     0
 40
0.0
176
     0
 40
1.0
176
     0
 90
        0
176
     0
 62
    18
420
        0
176
     0
 90
       50
176
     0
 90
        3
176
     0
 62
     5
420
      255
176
     0
290
     0
176
     0
 90
       50
176
     0
 90
       50
176
     0
 90
       50
176
     0
290
     0
176
     0
 90
       50
176
     0
 62
   256
176
     0
 40
1.0
176
     0
 90
        2
176
     0
  1
strokes_ogs.tif
176
     0
290
     0
176
     0
 40
1.0
176
     0
 40
1.0
176
     0
  0
VISUALSTYLE
  5
DA4
102
{ACAD_REACTORS
330
D9B
102
}
330
D9B
100
AcDbVisualStyle
  2
Realistic
 70
     8
177
     3
291
     0
 70
    58
 90
        2
176
     1
 90
        3
176
     1
 90
        0
176
     1
 90
        2
176
     1
 40
0.6
176
     1
 40
30.0
176
     1
 62
     7
420
 16777215
176
     1
 90
        0
176
     1
 90
        0
176
     1
 62
     7
176
     1
 62
   257
176
     1
 90
        1
176
     1
 90
        1
176
     1
 40
1.0
176
     1
 90
        8
176
     1
 62
   257
176
     1
 40
1.0
176
     1
 90
        1
176
     1
 90
        6
176
     1
 90
        2
176
     1
 62
     7
176
     1
 90
        3
176
     1
 90
        0
176
     1
 90
        0
176
     1
290
     0
176
     1
 90
       13
176
     1
 40
0.0
176
     1
 90
        0
176
     1
290
     0
176
     1
290
     1
176
     1
290
     1
176
     1
290
     0
176
     1
290
     0
176
     1
290
     0
176
     1
290
     0
176
     1
290
     0
176
     1
290
     0
176
     1
 90
       50
176
     1
 40
0.0
176
     1
 40
1.0
176
     1
 90
        0
176
     1
 62
    18
420
        0
176
     1
 90
       50
176
     1
 90
        3
176
     1
 62
     5
420
      255
176
     1
290
     0
176
     1
 90
       50
176
     1
 90
       50
176
     1
 90
       50
176
     1
290
     0
176
     1
 90
       50
176
     1
 62
   256
176
     0
 40
1.0
176
     0
 90
        2
176
     1
  1
strokes_ogs.tif
176
     1
290
     0
176
     1
 40
1.0
176
     1
 40
1.0
176
     1
  0
VISUALSTYLE
  5
DB3
102
{ACAD_REACTORS
330
D9B
102
}
330
D9B
100
AcDbVisualStyle
  2
Shaded
 70
    27
177
     3
291
     0
 70
    58
 90
        2
176
     1
 90
        2
176
     1
 90
        1
176
     1
 90
        2
176
     1
 40
0.6
176
     1
 40
30.0
176
     1
 62
     7
420
 16777215
176
     1
 90
        0
176
     1
 90
        4
176
     1
 62
     7
176
     1
 62
   257
176
     1
 90
        1
176
     1
 90
        1
176
     1
 40
1.0
176
     1
 90
        8
176
     1
 62
   257
176
     1
 40
1.0
176
     1
 90
        1
176
     1
 90
        6
176
     1
 90
        2
176
     1
 62
     8
420
  7895160
176
     1
 90
        3
176
     1
 90
        0
176
     1
 90
        0
176
     1
290
     0
176
     1
 90
        5
176
     1
 40
0.0
176
     1
 90
        0
176
     1
290
     0
176
     1
290
     1
176
     1
290
     1
176
     1
290
     0
176
     1
290
     0
176
     1
290
     0
176
     1
290
     0
176
     1
290
     0
176
     1
290
     0
176
     1
 90
       50
176
     1
 40
0.0
176
     1
 40
1.0
176
     1
 90
        0
176
     1
 62
    18
420
        0
176
     1
 90
       50
176
     1
 90
        3
176
     1
 62
     5
420
      255
176
     1
290
     0
176
     1
 90
       50
176
     1
 90
       50
176
     1
 90
       50
176
     1
290
     0
176
     1
 90
       50
176
     1
 62
   256
176
     0
 40
1.0
176
     0
 90
        2
176
     1
  1
strokes_ogs.tif
176
     1
290
     0
176
     1
 40
1.0
176
     1
 40
1.0
176
     1
  0
VISUALSTYLE
  5
DB2
102
{ACAD_REACTORS
330
D9B
102
}
330
D9B
100
AcDbVisualStyle
  2
Shaded with edges
 70
    26
177
     3
291
     0
 70
    58
 90
        2
176
     1
 90
        2
176
     1
 90
        1
176
     1
 90
        2
176
     1
 40
0.6
176
     1
 40
30.0
176
     1
 62
     7
420
 16777215
176
     1
 90
        1
176
     1
 90
       10
176
     1
 62
     7
176
     1
 62
   257
176
     1
 90
        2
176
     1
 90
        1
176
     1
 40
1.0
176
     1
 90
        8
176
     1
 62
   257
176
     1
 40
1.0
176
     1
 90
        1
176
     1
 90
        6
176
     1
 90
        2
176
     1
 62
     7
176
     1
 90
        3
176
     1
 90
        0
176
     1
 90
        0
176
     1
290
     0
176
     1
 90
        5
176
     1
 40
0.0
176
     1
 90
        0
176
     1
290
     0
176
     1
290
     1
176
     1
290
     1
176
     1
290
     0
176
     1
290
     0
176
     1
290
     0
176
     1
290
     0
176
     1
290
     0
176
     1
290
     0
176
     1
 90
       50
176
     1
 40
0.0
176
     1
 40
1.0
176
     1
 90
        0
176
     1
 62
    18
420
        0
176
     1
 90
       50
176
     1
 90
        3
176
     1
 62
     5
420
      255
176
     1
290
     0
176
     1
 90
       50
176
     1
 90
       50
176
     1
 90
       50
176
     1
290
     0
176
     1
 90
       50
176
     1
 62
   256
176
     0
 40
1.0
176
     0
 90
        2
176
     1
  1
strokes_ogs.tif
176
     1
290
     0
176
     1
 40
1.0
176
     1
 40
1.0
176
     1
  0
VISUALSTYLE
  5
DAF
102
{ACAD_REACTORS
330
D9B
102
}
330
D9B
100
AcDbVisualStyle
  2
Shades of Gray
 70
    23
177
     3
291
     0
 70
    58
 90
        2
176
     1
 90
        2
176
     1
 90
        3
176
     1
 90
        0
176
     1
 40
0.6
176
     1
 40
30.0
176
     1
 62
     7
420
 16777215
176
     1
 90
        2
176
     1
 90
        2
176
     1
 62
     7
176
     1
 62
     7
176
     1
 90
        1
176
     1
 90
        1
176
     1
 40
40.0
176
     1
 90
        8
176
     1
 62
     7
176
     1
 40
1.0
176
     1
 90
        1
176
     1
 90
        6
176
     1
 90
        2
176
     1
 62
     7
176
     1
 90
        3
176
     1
 90
        0
176
     1
 90
        0
176
     1
290
     0
176
     1
 90
        1
176
     1
 40
0.0
176
     1
 90
        0
176
     1
290
     0
176
     1
290
     1
176
     1
290
     1
176
     1
290
     0
176
     1
290
     0
176
     1
290
     0
176
     1
290
     0
176
     1
290
     0
176
     1
290
     0
176
     1
 90
       50
176
     1
 40
0.0
176
     1
 40
1.0
176
     1
 90
        0
176
     1
 62
    18
420
        0
176
     1
 90
       50
176
     1
 90
        3
176
     1
 62
     5
420
      255
176
     1
290
     0
176
     1
 90
       50
176
     1
 90
       50
176
     1
 90
       50
176
     1
290
     0
176
     1
 90
       50
176
     1
 62
   256
176
     0
 40
1.0
176
     0
 90
        2
176
     1
  1
strokes_ogs.tif
176
     1
290
     0
176
     1
 40
1.0
176
     1
 40
1.0
176
     1
  0
VISUALSTYLE
  5
DB0
102
{ACAD_REACTORS
330
D9B
102
}
330
D9B
100
AcDbVisualStyle
  2
Sketchy
 70
    24
177
     3
291
     0
 70
    58
 90
        1
176
     1
 90
        2
176
     1
 90
        2
176
     1
 90
        0
176
     1
 40
0.6
176
     1
 40
30.0
176
     1
 62
     7
420
 16777215
176
     1
 90
        2
176
     1
 90
        2
176
     1
 62
     7
176
     1
 62
     7
176
     1
 90
        1
176
     1
 90
        1
176
     1
 40
40.0
176
     1
 90
       11
176
     1
 62
     7
176
     1
 40
1.0
176
     1
 90
        1
176
     1
 90
        6
176
     1
 90
        2
176
     1
 62
     7
176
     1
 90
        6
176
     1
 90
        0
176
     1
 90
        0
176
     1
290
     0
176
     1
 90
        1
176
     1
 40
0.0
176
     1
 90
        0
176
     1
290
     0
176
     1
290
     1
176
     1
290
     1
176
     1
290
     0
176
     1
290
     0
176
     1
290
     0
176
     1
290
     0
176
     1
290
     0
176
     1
290
     0
176
     1
 90
       50
176
     1
 40
0.0
176
     1
 40
1.0
176
     1
 90
        0
176
     1
 62
    18
420
        0
176
     1
 90
       50
176
     1
 90
        3
176
     1
 62
     5
420
      255
176
     1
290
     0
176
     1
 90
       50
176
     1
 90
       50
176
     1
 90
       50
176
     1
290
     0
176
     1
 90
       50
176
     1
 62
   256
176
     0
 40
1.0
176
     0
 90
        2
176
     1
  1
strokes_ogs.tif
176
     1
290
     0
176
     1
 40
1.0
176
     1
 40
1.0
176
     1
  0
VISUALSTYLE
  5
DA8
102
{ACAD_REACTORS
330
D9B
102
}
330
D9B
100
AcDbVisualStyle
  2
Thicken
 70
    13
177
     3
291
     1
 70
    58
 90
        2
176
     1
 90
        2
176
     1
 90
        0
176
     1
 90
        0
176
     1
 40
0.6
176
     1
 40
30.0
176
     1
 62
     7
420
 16777215
176
     1
 90
        1
176
     1
 90
        4
176
     1
 62
     7
176
     1
 62
   257
176
     1
 90
        1
176
     1
 90
        1
176
     1
 40
1.0
176
     1
 90
       12
176
     1
 62
     7
176
     1
 40
1.0
176
     1
 90
        1
176
     1
 90
        6
176
     1
 90
        2
176
     1
 62
     7
176
     1
 90
        5
176
     1
 90
        0
176
     1
 90
        0
176
     1
290
     0
176
     1
 90
        1
176
     1
 40
0.0
176
     1
 90
        0
176
     1
290
     0
176
     1
290
     1
176
     1
290
     1
176
     1
290
     0
176
     1
290
     0
176
     1
290
     0
176
     1
290
     0
176
     1
290
     0
176
     1
290
     0
176
     1
 90
       50
176
     1
 40
0.0
176
     1
 40
1.0
176
     1
 90
        0
176
     1
 62
    18
420
        0
176
     1
 90
       50
176
     1
 90
        3
176
     1
 62
     5
420
      255
176
     1
290
     0
176
     1
 90
       50
176
     1
 90
       50
176
     1
 90
       50
176
     1
290
     0
176
     1
 90
       50
176
     1
 62
   256
176
     0
 40
1.0
176
     0
 90
        2
176
     1
  1
strokes_ogs.tif
176
     1
290
     0
176
     1
 40
1.0
176
     1
 40
1.0
176
     1
  0
VISUALSTYLE
  5
DA1
102
{ACAD_REACTORS
330
D9B
102
}
330
D9B
100
AcDbVisualStyle
  2
Wireframe
 70
     5
177
     3
291
     0
 70
    58
 90
        0
176
     1
 90
        2
176
     1
 90
        0
176
     1
 90
        0
176
     1
 40
0.6
176
     1
 40
30.0
176
     1
 62
     7
420
 16777215
176
     1
 90
        1
176
     1
 90
        4
176
     1
 62
     7
176
     1
 62
   257
176
     1
 90
        1
176
     1
 90
        1
176
     1
 40
1.0
176
     1
 90
        0
176
     1
 62
   257
176
     1
 40
1.0
176
     1
 90
        1
176
     1
 90
        6
176
     1
 90
        2
176
     1
 62
     7
176
     1
 90
        3
176
     1
 90
        0
176
     1
 90
        0
176
     1
290
     0
176
     1
 90
        1
176
     1
 40
0.0
176
     1
 90
        0
176
     1
290
     0
176
     1
290
     1
176
     1
290
     1
176
     1
290
     0
176
     1
290
     0
176
     1
290
     0
176
     1
290
     0
176
     1
290
     0
176
     1
290
     0
176
     1
 90
       50
176
     1
 40
0.0
176
     1
 40
1.0
176
     1
 90
        0
176
     1
 62
    18
420
        0
176
     1
 90
       50
176
     1
 90
        3
176
     1
 62
     5
420
      255
176
     1
290
     0
176
     1
 90
       50
176
     1
 90
       50
176
     1
 90
       50
176
     1
290
     0
176
     1
 90
       50
176
     1
 62
   256
176
     0
 40
1.0
176
     0
 90
        2
176
     1
  1
strokes_ogs.tif
176
     1
290
     0
176
     1
 40
1.0
176
     1
 40
1.0
176
     1
  0
VISUALSTYLE
  5
DB1
102
{ACAD_REACTORS
330
D9B
102
}
330
D9B
100
AcDbVisualStyle
  2
X-Ray
 70
    25
177
     3
291
     0
 70
    58
 90
        2
176
     1
 90
        2
176
     1
 90
        1
176
     1
 90
        1
176
     1
 40
0.5
176
     1
 40
30.0
176
     1
 62
     7
420
 16777215
176
     1
 90
        1
176
     1
 90
        0
176
     1
 62
     7
176
     1
 62
   257
176
     1
 90
        1
176
     1
 90
        1
176
     1
 40
1.0
176
     1
 90
        8
176
     1
 62
     7
176
     1
 40
1.0
176
     1
 90
        1
176
     1
 90
        6
176
     1
 90
        2
176
     1
 62
     7
176
     1
 90
        3
176
     1
 90
        0
176
     1
 90
        0
176
     1
290
     0
176
     1
 90
       13
176
     1
 40
0.0
176
     1
 90
        0
176
     1
290
     0
176
     1
290
     1
176
     1
290
     1
176
     1
290
     0
176
     1
290
     0
176
     1
290
     0
176
     1
290
     0
176
     1
290
     0
176
     1
290
     0
176
     1
 90
       50
176
     1
 40
0.0
176
     1
 40
1.0
176
     1
 90
        0
176
     1
 62
    18
420
        0
176
     1
 90
       50
176
     1
 90
        3
176
     1
 62
     5
420
      255
176
     1
290
     0
176
     1
 90
       50
176
     1
 90
       50
176
     1
 90
       50
176
     1
290
     0
176
     1
 90
       50
176
     1
 62
   256
176
     0
 40
1.0
176
     0
 90
        2
176
     1
  1
strokes_ogs.tif
176
     1
290
     0
176
     1
 40
1.0
176
     1
 40
1.0
176
     1
  0
DICTIONARYVAR
  5
DE3
102
{ACAD_REACTORS
330
DE2
102
}
330
DE2
100
DictionaryVariables
280
     0
  1
1:1
  0
DICTIONARYVAR
  5
DE7
102
{ACAD_REACTORS
330
DE2
102
}
330
DE2
100
DictionaryVariables
280
     0
  1
Standard
  0
DICTIONARYVAR
  5
DE9
102
{ACAD_REACTORS
330
DE2
102
}
330
DE2
100
DictionaryVariables
280
     0
  1
0
  0
DICTIONARYVAR
  5
DEA
102
{ACAD_REACTORS
330
DE2
102
}
330
DE2
100
DictionaryVariables
280
     0
  1
0
  0
DICTIONARY
  5
E5B
330
DDA
100
AcDbDictionary
280
     1
281
     1
  3
ACAD_ROUNDTRIP_2008_TABLESTYLE_CELLSTYLEMAP
360
E5C
  0
CELLSTYLEMAP
  5
E5C
102
{ACAD_REACTORS
330
E5B
102
}
330
E5B
100
AcDbCellStyleMap
 90
        3
300
CELLSTYLE
  1
TABLEFORMAT_BEGIN
 90
        5
170
     1
 91
        0
 92
        0
 62
   257
 93
        1
300
CONTENTFORMAT
  1
CONTENTFORMAT_BEGIN
 90
        0
 91
        0
 92
        4
 93
        0
300

 40
0.0
140
1.0
 94
        5
 62
     0
340
11
144
6.0
309
CONTENTFORMAT_END
171
     1
301
MARGIN
  1
CELLMARGIN_BEGIN
 40
1.5
 40
1.5
 40
1.5
 40
1.5
 40
1.5
 40
1.5
309
CELLMARGIN_END
 94
        6
 95
        1
302
GRIDFORMAT
  1
GRIDFORMAT_BEGIN
 90
        0
 91
        1
 62
     0
 92
       -2
340
14
 93
        0
 40
0.045
309
GRIDFORMAT_END
 95
        2
302
GRIDFORMAT
  1
GRIDFORMAT_BEGIN
 90
        0
 91
        1
 62
     0
 92
       -2
340
14
 93
        0
 40
0.045
309
GRIDFORMAT_END
 95
        4
302
GRIDFORMAT
  1
GRIDFORMAT_BEGIN
 90
        0
 91
        1
 62
     0
 92
       -2
340
14
 93
        0
 40
0.045
309
GRIDFORMAT_END
 95
        8
302
GRIDFORMAT
  1
GRIDFORMAT_BEGIN
 90
        0
 91
        1
 62
     0
 92
       -2
340
14
 93
        0
 40
0.045
309
GRIDFORMAT_END
 95
       16
302
GRIDFORMAT
  1
GRIDFORMAT_BEGIN
 90
        0
 91
        1
 62
     0
 92
       -2
340
14
 93
        0
 40
0.045
309
GRIDFORMAT_END
 95
       32
302
GRIDFORMAT
  1
GRIDFORMAT_BEGIN
 90
        0
 91
        1
 62
     0
 92
       -2
340
14
 93
        0
 40
0.045
309
GRIDFORMAT_END
309
TABLEFORMAT_END
  1
CELLSTYLE_BEGIN
 90
        1
 91
        1
300
_TITLE
309
CELLSTYLE_END
300
CELLSTYLE
  1
TABLEFORMAT_BEGIN
 90
        5
170
     1
 91
        0
 92
        0
 62
   257
 93
        1
300
CONTENTFORMAT
  1
CONTENTFORMAT_BEGIN
 90
        0
 91
        0
 92
        4
 93
        0
300

 40
0.0
140
1.0
 94
        5
 62
     0
340
11
144
4.5
309
CONTENTFORMAT_END
171
     1
301
MARGIN
  1
CELLMARGIN_BEGIN
 40
1.5
 40
1.5
 40
1.5
 40
1.5
 40
1.5
 40
1.5
309
CELLMARGIN_END
 94
        6
 95
        1
302
GRIDFORMAT
  1
GRIDFORMAT_BEGIN
 90
        0
 91
        1
 62
     0
 92
       -2
340
14
 93
        0
 40
0.045
309
GRIDFORMAT_END
 95
        2
302
GRIDFORMAT
  1
GRIDFORMAT_BEGIN
 90
        0
 91
        1
 62
     0
 92
       -2
340
14
 93
        0
 40
0.045
309
GRIDFORMAT_END
 95
        4
302
GRIDFORMAT
  1
GRIDFORMAT_BEGIN
 90
        0
 91
        1
 62
     0
 92
       -2
340
14
 93
        0
 40
0.045
309
GRIDFORMAT_END
 95
        8
302
GRIDFORMAT
  1
GRIDFORMAT_BEGIN
 90
        0
 91
        1
 62
     0
 92
       -2
340
14
 93
        0
 40
0.045
309
GRIDFORMAT_END
 95
       16
302
GRIDFORMAT
  1
GRIDFORMAT_BEGIN
 90
        0
 91
        1
 62
     0
 92
       -2
340
14
 93
        0
 40
0.045
309
GRIDFORMAT_END
 95
       32
302
GRIDFORMAT
  1
GRIDFORMAT_BEGIN
 90
        0
 91
        1
 62
     0
 92
       -2
340
14
 93
        0
 40
0.045
309
GRIDFORMAT_END
309
TABLEFORMAT_END
  1
CELLSTYLE_BEGIN
 90
        2
 91
        1
300
_HEADER
309
CELLSTYLE_END
300
CELLSTYLE
  1
TABLEFORMAT_BEGIN
 90
        5
170
     1
 91
        0
 92
        0
 62
   257
 93
        1
300
CONTENTFORMAT
  1
CONTENTFORMAT_BEGIN
 90
        0
 91
        0
 92
        4
 93
        0
300

 40
0.0
140
1.0
 94
        2
 62
     0
340
11
144
4.5
309
CONTENTFORMAT_END
171
     1
301
MARGIN
  1
CELLMARGIN_BEGIN
 40
1.5
 40
1.5
 40
1.5
 40
1.5
 40
1.5
 40
1.5
309
CELLMARGIN_END
 94
        6
 95
        1
302
GRIDFORMAT
  1
GRIDFORMAT_BEGIN
 90
        0
 91
        1
 62
     0
 92
       -2
340
14
 93
        0
 40
0.045
309
GRIDFORMAT_END
 95
        2
302
GRIDFORMAT
  1
GRIDFORMAT_BEGIN
 90
        0
 91
        1
 62
     0
 92
       -2
340
14
 93
        0
 40
0.045
309
GRIDFORMAT_END
 95
        4
302
GRIDFORMAT
  1
GRIDFORMAT_BEGIN
 90
        0
 91
        1
 62
     0
 92
       -2
340
14
 93
        0
 40
0.045
309
GRIDFORMAT_END
 95
        8
302
GRIDFORMAT
  1
GRIDFORMAT_BEGIN
 90
        0
 91
        1
 62
     0
 92
       -2
340
14
 93
        0
 40
0.045
309
GRIDFORMAT_END
 95
       16
302
GRIDFORMAT
  1
GRIDFORMAT_BEGIN
 90
        0
 91
        1
 62
     0
 92
       -2
340
14
 93
        0
 40
0.045
309
GRIDFORMAT_END
 95
       32
302
GRIDFORMAT
  1
GRIDFORMAT_BEGIN
 90
        0
 91
        1
 62
     0
 92
       -2
340
14
 93
        0
 40
0.045
309
GRIDFORMAT_END
309
TABLEFORMAT_END
  1
CELLSTYLE_BEGIN
 90
        3
 91
        2
300
_DATA
309
CELLSTYLE_END
  0
ENDSEC
  0
EOF
