  0
SECTION
  2
HEADER
  9
$ACADVER
  1
AC1027
  9
$ACADMAINTVER
 70
     8
  9
$DWGCODEPAGE
  3
ANSI_932
  9
$REQUIREDVERSIONS
160
                 0
  9
$LASTSAVEDBY
  1
akihiro
  9
$INSBASE
 10
0.0
 20
0.0
 30
0.0
  9
$EXTMIN
 10
41.31745811696858
 20
31.19648679328292
 30
0.0
  9
$EXTMAX
 10
213.2575656678074
 20
226.2956809109763
 30
0.0
  9
$LIMMIN
 10
0.0
 20
0.0
  9
$LIMMAX
 10
12.0
 20
9.0
  9
$ORTHOMODE
 70
     0
  9
$REGENMODE
 70
     1
  9
$FILLMODE
 70
     1
  9
$QTEXTMODE
 70
     0
  9
$MIRRTEXT
 70
     0
  9
$LTSCALE
 40
1.0
  9
$ATTMODE
 70
     1
  9
$TEXTSIZE
 40
0.2
  9
$TRACEWID
 40
0.05
  9
$TEXTSTYLE
  7
Standard
  9
$CLAYER
  8
0
  9
$CELTYPE
  6
ByLayer
  9
$CECOLOR
 62
   256
  9
$CELTSCALE
 40
1.0
  9
$DISPSILH
 70
     0
  9
$DIMSCALE
 40
1.0
  9
$DIMASZ
 40
0.18
  9
$DIMEXO
 40
0.0625
  9
$DIMDLI
 40
0.38
  9
$DIMRND
 40
0.0
  9
$DIMDLE
 40
0.0
  9
$DIMEXE
 40
0.18
  9
$DIMTP
 40
0.0
  9
$DIMTM
 40
0.0
  9
$DIMTXT
 40
0.18
  9
$DIMCEN
 40
0.09
  9
$DIMTSZ
 40
0.0
  9
$DIMTOL
 70
     0
  9
$DIMLIM
 70
     0
  9
$DIMTIH
 70
     1
  9
$DIMTOH
 70
     1
  9
$DIMSE1
 70
     0
  9
$DIMSE2
 70
     0
  9
$DIMTAD
 70
     0
  9
$DIMZIN
 70
     0
  9
$DIMBLK
  1

  9
$DIMASO
 70
     1
  9
$DIMSHO
 70
     1
  9
$DIMPOST
  1

  9
$DIMAPOST
  1

  9
$DIMALT
 70
     0
  9
$DIMALTD
 70
     2
  9
$DIMALTF
 40
25.4
  9
$DIMLFAC
 40
1.0
  9
$DIMTOFL
 70
     0
  9
$DIMTVP
 40
0.0
  9
$DIMTIX
 70
     0
  9
$DIMSOXD
 70
     0
  9
$DIMSAH
 70
     0
  9
$DIMBLK1
  1

  9
$DIMBLK2
  1

  9
$DIMSTYLE
  2
Standard
  9
$DIMCLRD
 70
     0
  9
$DIMCLRE
 70
     0
  9
$DIMCLRT
 70
     0
  9
$DIMTFAC
 40
1.0
  9
$DIMGAP
 40
0.09
  9
$DIMJUST
 70
     0
  9
$DIMSD1
 70
     0
  9
$DIMSD2
 70
     0
  9
$DIMTOLJ
 70
     1
  9
$DIMTZIN
 70
     0
  9
$DIMALTZ
 70
     0
  9
$DIMALTTZ
 70
     0
  9
$DIMUPT
 70
     0
  9
$DIMDEC
 70
     4
  9
$DIMTDEC
 70
     4
  9
$DIMALTU
 70
     2
  9
$DIMALTTD
 70
     2
  9
$DIMTXSTY
  7
Standard
  9
$DIMAUNIT
 70
     0
  9
$DIMADEC
 70
     0
  9
$DIMALTRND
 40
0.0
  9
$DIMAZIN
 70
     0
  9
$DIMDSEP
 70
    46
  9
$DIMATFIT
 70
     3
  9
$DIMFRAC
 70
     0
  9
$DIMLDRBLK
  1

  9
$DIMLUNIT
 70
     2
  9
$DIMLWD
 70
    -2
  9
$DIMLWE
 70
    -2
  9
$DIMTMOVE
 70
     0
  9
$DIMFXL
 40
1.0
  9
$DIMFXLON
 70
     0
  9
$DIMJOGANG
 40
0.7853981633974483
  9
$DIMTFILL
 70
     0
  9
$DIMTFILLCLR
 70
     0
  9
$DIMARCSYM
 70
     0
  9
$DIMLTYPE
  6

  9
$DIMLTEX1
  6

  9
$DIMLTEX2
  6

  9
$DIMTXTDIRECTION
 70
     0
  9
$LUNITS
 70
     2
  9
$LUPREC
 70
     4
  9
$SKETCHINC
 40
0.1
  9
$FILLETRAD
 40
0.0
  9
$AUNITS
 70
     0
  9
$AUPREC
 70
     0
  9
$MENU
  1
.
  9
$ELEVATION
 40
0.0
  9
$PELEVATION
 40
0.0
  9
$THICKNESS
 40
0.0
  9
$LIMCHECK
 70
     0
  9
$CHAMFERA
 40
0.0
  9
$CHAMFERB
 40
0.0
  9
$CHAMFERC
 40
0.0
  9
$CHAMFERD
 40
0.0
  9
$SKPOLY
 70
     0
  9
$TDCREATE
 40
2452643.438384271
  9
$TDUCREATE
 40
2452643.063384271
  9
$TDUPDATE
 40
2456756.743923923
  9
$TDUUPDATE
 40
2456756.368923923
  9
$TDINDWG
 40
0.0017203704
  9
$TDUSRTIMER
 40
2456756.368695822
  9
$USRTIMER
 70
     1
  9
$ANGBASE
 50
0.0
  9
$ANGDIR
 70
     0
  9
$PDMODE
 70
     0
  9
$PDSIZE
 40
0.0
  9
$PLINEWID
 40
0.0
  9
$SPLFRAME
 70
     0
  9
$SPLINETYPE
 70
     6
  9
$SPLINESEGS
 70
     8
  9
$HANDSEED
  5
473
  9
$SURFTAB1
 70
     6
  9
$SURFTAB2
 70
     6
  9
$SURFTYPE
 70
     6
  9
$SURFU
 70
     6
  9
$SURFV
 70
     6
  9
$UCSBASE
  2

  9
$UCSNAME
  2

  9
$UCSORG
 10
0.0
 20
0.0
 30
0.0
  9
$UCSXDIR
 10
1.0
 20
0.0
 30
0.0
  9
$UCSYDIR
 10
0.0
 20
1.0
 30
0.0
  9
$UCSORTHOREF
  2

  9
$UCSORTHOVIEW
 70
     0
  9
$UCSORGTOP
 10
0.0
 20
0.0
 30
0.0
  9
$UCSORGBOTTOM
 10
0.0
 20
0.0
 30
0.0
  9
$UCSORGLEFT
 10
0.0
 20
0.0
 30
0.0
  9
$UCSORGRIGHT
 10
0.0
 20
0.0
 30
0.0
  9
$UCSORGFRONT
 10
0.0
 20
0.0
 30
0.0
  9
$UCSORGBACK
 10
0.0
 20
0.0
 30
0.0
  9
$PUCSBASE
  2

  9
$PUCSNAME
  2

  9
$PUCSORG
 10
0.0
 20
0.0
 30
0.0
  9
$PUCSXDIR
 10
1.0
 20
0.0
 30
0.0
  9
$PUCSYDIR
 10
0.0
 20
1.0
 30
0.0
  9
$PUCSORTHOREF
  2

  9
$PUCSORTHOVIEW
 70
     0
  9
$PUCSORGTOP
 10
0.0
 20
0.0
 30
0.0
  9
$PUCSORGBOTTOM
 10
0.0
 20
0.0
 30
0.0
  9
$PUCSORGLEFT
 10
0.0
 20
0.0
 30
0.0
  9
$PUCSORGRIGHT
 10
0.0
 20
0.0
 30
0.0
  9
$PUCSORGFRONT
 10
0.0
 20
0.0
 30
0.0
  9
$PUCSORGBACK
 10
0.0
 20
0.0
 30
0.0
  9
$USERI1
 70
     0
  9
$USERI2
 70
     0
  9
$USERI3
 70
     0
  9
$USERI4
 70
     0
  9
$USERI5
 70
     0
  9
$USERR1
 40
0.0
  9
$USERR2
 40
0.0
  9
$USERR3
 40
0.0
  9
$USERR4
 40
0.0
  9
$USERR5
 40
0.0
  9
$WORLDVIEW
 70
     1
  9
$SHADEDGE
 70
     3
  9
$SHADEDIF
 70
    70
  9
$TILEMODE
 70
     1
  9
$MAXACTVP
 70
    64
  9
$PINSBASE
 10
0.0
 20
0.0
 30
0.0
  9
$PLIMCHECK
 70
     0
  9
$PEXTMIN
 10
0.0
 20
0.0
 30
0.0
  9
$PEXTMAX
 10
0.0
 20
0.0
 30
0.0
  9
$PLIMMIN
 10
0.0
 20
0.0
  9
$PLIMMAX
 10
0.0
 20
0.0
  9
$UNITMODE
 70
     0
  9
$VISRETAIN
 70
     1
  9
$PLINEGEN
 70
     0
  9
$PSLTSCALE
 70
     1
  9
$TREEDEPTH
 70
  3020
  9
$CMLSTYLE
  2
Standard
  9
$CMLJUST
 70
     0
  9
$CMLSCALE
 40
1.0
  9
$PROXYGRAPHICS
 70
     1
  9
$MEASUREMENT
 70
     0
  9
$CELWEIGHT
370
    -1
  9
$ENDCAPS
280
     0
  9
$JOINSTYLE
280
     0
  9
$LWDISPLAY
290
     0
  9
$INSUNITS
 70
     1
  9
$HYPERLINKBASE
  1

  9
$STYLESHEET
  1

  9
$XEDIT
290
     1
  9
$CEPSNTYPE
380
     0
  9
$PSTYLEMODE
290
     1
  9
$FINGERPRINTGUID
  2
{FDEAD576-A652-11D2-9A35-0060089B3A3F}
  9
$VERSIONGUID
  2
{FBC2AE19-5C5C-49EC-81BC-71B1A3362A02}
  9
$EXTNAMES
290
     1
  9
$PSVPSCALE
 40
0.0
  9
$OLESTARTUP
290
     0
  9
$SORTENTS
280
   127
  9
$INDEXCTL
280
     0
  9
$HIDETEXT
280
     1
  9
$XCLIPFRAME
280
     0
  9
$HALOGAP
280
     0
  9
$OBSCOLOR
 70
   257
  9
$OBSLTYPE
280
     0
  9
$INTERSECTIONDISPLAY
280
     0
  9
$INTERSECTIONCOLOR
 70
   257
  9
$DIMASSOC
280
     2
  9
$PROJECTNAME
  1

  9
$CAMERADISPLAY
290
     0
  9
$LENSLENGTH
 40
50.0
  9
$CAMERAHEIGHT
 40
0.0
  9
$STEPSPERSEC
 40
2.0
  9
$STEPSIZE
 40
6.0
  9
$3DDWFPREC
 40
2.0
  9
$PSOLWIDTH
 40
0.25
  9
$PSOLHEIGHT
 40
4.0
  9
$LOFTANG1
 40
1.570796326794897
  9
$LOFTANG2
 40
1.570796326794897
  9
$LOFTMAG1
 40
0.0
  9
$LOFTMAG2
 40
0.0
  9
$LOFTPARAM
 70
     7
  9
$LOFTNORMALS
280
     1
  9
$LATITUDE
 40
37.795
  9
$LONGITUDE
 40
-122.394
  9
$NORTHDIRECTION
 40
0.0
  9
$TIMEZONE
 70
 -8000
  9
$LIGHTGLYPHDISPLAY
280
     1
  9
$TILEMODELIGHTSYNCH
280
     1
  9
$CMATERIAL
347
96
  9
$SOLIDHIST
280
     1
  9
$SHOWHIST
280
     1
  9
$DWFFRAME
280
     2
  9
$DGNFRAME
280
     0
  9
$REALWORLDSCALE
290
     1
  9
$INTERFERECOLOR
 62
     1
  9
$CSHADOW
280
     0
  9
$SHADOWPLANELOCATION
 40
0.0
  0
ENDSEC
  0
SECTION
  2
CLASSES
  0
CLASS
  1
ACDBDICTIONARYWDFLT
  2
AcDbDictionaryWithDefault
  3
ObjectDBX Classes
 90
        0
 91
        9
280
     0
281
     0
  0
CLASS
  1
ACDBPLACEHOLDER
  2
AcDbPlaceHolder
  3
ObjectDBX Classes
 90
        0
 91
        1
280
     0
281
     0
  0
CLASS
  1
LAYOUT
  2
AcDbLayout
  3
ObjectDBX Classes
 90
        0
 91
        1
280
     0
281
     0
  0
CLASS
  1
DICTIONARYVAR
  2
AcDbDictionaryVar
  3
ObjectDBX Classes
 90
        0
 91
        6
280
     0
281
     0
  0
CLASS
  1
TABLESTYLE
  2
AcDbTableStyle
  3
ObjectDBX Classes
 90
     4095
 91
        9
280
     0
281
     0
  0
CLASS
  1
MATERIAL
  2
AcDbMaterial
  3
ObjectDBX Classes
 90
     1153
 91
        9
280
     0
281
     0
  0
CLASS
  1
VISUALSTYLE
  2
AcDbVisualStyle
  3
ObjectDBX Classes
 90
     4095
 91
        9
280
     0
281
     0
  0
CLASS
  1
SCALE
  2
AcDbScale
  3
ObjectDBX Classes
 90
     1153
 91
        9
280
     0
281
     0
  0
CLASS
  1
CELLSTYLEMAP
  2
AcDbCellStyleMap
  3
ObjectDBX Classes
 90
     1152
 91
        6
280
     0
281
     0
  0
CLASS
  1
RASTERVARIABLES
  2
AcDbRasterVariables
  3
ISM
 90
        0
 91
        9
280
     0
281
     0
  0
CLASS
  1
SUN
  2
AcDbSun
  3
SCENEOE
 90
     1153
 91
        9
280
     0
281
     0
  0
CLASS
  1
DIMASSOC
  2
AcDbDimAssoc
  3
"AcDbDimAssoc|Product Desc:     AcDim ARX App For Dimension|Company:          Autodesk, Inc.|WEB Address:      www.autodesk.com"
 90
        0
 91
        6
280
     0
281
     0
  0
ENDSEC
  0
SECTION
  2
TABLES
  0
TABLE
  2
VPORT
  5
8
330
0
100
AcDbSymbolTable
 70
     1
  0
VPORT
  5
94
330
8
100
AcDbSymbolTableRecord
100
AcDbViewportTableRecord
  2
*Active
 70
     0
 10
0.0
 20
0.0
 11
1.0
 21
1.0
 12
154.9571054583678
 22
148.2847868099916
 13
0.0
 23
0.0
 14
0.5
 24
0.5
 15
0.5
 25
0.5
 16
0.0
 26
0.0
 36
1.0
 17
-27.66959356597978
 27
-19.53870295786203
 37
0.0
 40
199.0011780000472
 41
1.256410256410256
 42
50.0
 43
0.0
 44
0.0
 50
0.0
 51
0.0
 71
    16
 72
  1000
 73
     1
 74
     3
 75
     0
 76
     0
 77
     0
 78
     0
281
     0
 65
     1
110
0.0
120
0.0
130
0.0
111
1.0
121
0.0
131
0.0
112
0.0
122
1.0
132
0.0
 79
     0
146
0.0
348
9F
 60
     2
 61
     5
292
     1
282
     1
141
0.0
142
0.0
 63
   250
421
  3355443
361
ED
  0
ENDTAB
  0
TABLE
  2
LTYPE
  5
5
330
0
100
AcDbSymbolTable
 70
     2
  0
LTYPE
  5
14
330
5
100
AcDbSymbolTableRecord
100
AcDbLinetypeTableRecord
  2
ByBlock
 70
     0
  3

 72
    65
 73
     0
 40
0.0
  0
LTYPE
  5
15
330
5
100
AcDbSymbolTableRecord
100
AcDbLinetypeTableRecord
  2
ByLayer
 70
     0
  3

 72
    65
 73
     0
 40
0.0
  0
LTYPE
  5
16
330
5
100
AcDbSymbolTableRecord
100
AcDbLinetypeTableRecord
  2
Continuous
 70
     0
  3
Solid line
 72
    65
 73
     0
 40
0.0
  0
LTYPE
  5
12D
330
5
100
AcDbSymbolTableRecord
100
AcDbLinetypeTableRecord
  2
CENTER
 70
     0
  3
Center ____ _ ____ _ ____ _ ____ _ ____ _ ____
 72
    65
 73
     4
 40
50.8
 49
31.75
 74
     0
 49
-6.35
 74
     0
 49
6.35
 74
     0
 49
-6.35
 74
     0
  0
ENDTAB
  0
TABLE
  2
LAYER
  5
2
330
0
100
AcDbSymbolTable
 70
     6
  0
LAYER
  5
10
330
2
100
AcDbSymbolTableRecord
100
AcDbLayerTableRecord
  2
0
 70
     0
 62
     7
  6
Continuous
370
    -3
390
F
347
98
348
0
  0
LAYER
  5
125
330
2
100
AcDbSymbolTableRecord
100
AcDbLayerTableRecord
  2
Defpoints
 70
     0
 62
     7
  6
Continuous
290
     0
370
    -3
390
F
347
98
348
0
  0
LAYER
  5
126
102
{ACAD_XDICTIONARY
360
127
102
}
330
2
100
AcDbSymbolTableRecord
100
AcDbLayerTableRecord
  2
文字
 70
     0
 62
     4
  6
Continuous
370
    25
390
F
347
98
348
0
  0
LAYER
  5
12A
102
{ACAD_XDICTIONARY
360
12B
102
}
330
2
100
AcDbSymbolTableRecord
100
AcDbLayerTableRecord
  2
中心線
 70
     0
 62
     6
  6
CENTER
370
    30
390
F
347
98
348
0
  0
LAYER
  5
12E
102
{ACAD_XDICTIONARY
360
12F
102
}
330
2
100
AcDbSymbolTableRecord
100
AcDbLayerTableRecord
  2
実線
 70
     0
 62
     7
  6
Continuous
370
    50
390
F
347
98
348
0
  0
LAYER
  5
403
330
2
100
AcDbSymbolTableRecord
100
AcDbLayerTableRecord
  2
文字・寸法線
 70
     0
 62
     7
  6
Continuous
370
    13
390
F
347
98
348
0
  0
ENDTAB
  0
TABLE
  2
STYLE
  5
3
330
0
100
AcDbSymbolTable
 70
     1
  0
STYLE
  5
11
330
3
100
AcDbSymbolTableRecord
100
AcDbTextStyleTableRecord
  2
Standard
 70
     0
 40
0.0
 41
1.0
 50
0.0
 71
     0
 42
0.2
  3
arial.ttf
  4

1001
ACAD
1000
Arial
1071
        0
  0
ENDTAB
  0
TABLE
  2
VIEW
  5
6
330
0
100
AcDbSymbolTable
 70
     0
  0
ENDTAB
  0
TABLE
  2
UCS
  5
7
330
0
100
AcDbSymbolTable
 70
     0
  0
ENDTAB
  0
TABLE
  2
APPID
  5
9
330
0
100
AcDbSymbolTable
 70
     3
  0
APPID
  5
12
330
9
100
AcDbSymbolTableRecord
100
AcDbRegAppTableRecord
  2
ACAD
 70
     0
  0
APPID
  5
133
330
9
100
AcDbSymbolTableRecord
100
AcDbRegAppTableRecord
  2
ACAD_NAV_VCDISPLAY
 70
     0
  0
APPID
  5
134
330
9
100
AcDbSymbolTableRecord
100
AcDbRegAppTableRecord
  2
ACAD_PSEXT
 70
     0
  0
ENDTAB
  0
TABLE
  2
DIMSTYLE
  5
A
330
0
100
AcDbSymbolTable
 70
     2
100
AcDbDimStyleTable
  0
DIMSTYLE
105
27
330
A
100
AcDbSymbolTableRecord
100
AcDbDimStyleTableRecord
  2
Standard
 70
     0
178
     0
340
11
  0
DIMSTYLE
105
131
102
{ACAD_REACTORS
330
22D
330
230
330
239
330
23C
330
333
330
39B
330
451
330
462
102
}
330
A
100
AcDbSymbolTableRecord
100
AcDbDimStyleTableRecord
  2
ISO-25
 70
     0
 40
1.5
 41
2.5
 42
2.0
 43
3.75
 44
1.25
 73
     0
 74
     0
 77
     1
 78
     8
140
2.5
141
2.5
143
0.03937007874016
147
0.625
171
     3
172
     1
178
     0
271
     2
272
     2
274
     3
283
     0
284
     8
340
11
  0
ENDTAB
  0
TABLE
  2
BLOCK_RECORD
  5
1
330
0
100
AcDbSymbolTable
 70
    30
  0
BLOCK_RECORD
  5
1F
330
1
100
AcDbSymbolTableRecord
100
AcDbBlockTableRecord
  2
*Model_Space
340
22
 70
     0
280
     1
281
     0
  0
BLOCK_RECORD
  5
58
330
1
100
AcDbSymbolTableRecord
100
AcDbBlockTableRecord
  2
*Paper_Space
340
59
 70
     0
280
     1
281
     0
  0
BLOCK_RECORD
  5
5D
330
1
100
AcDbSymbolTableRecord
100
AcDbBlockTableRecord
  2
*Paper_Space0
340
5E
 70
     0
280
     1
281
     0
  0
BLOCK_RECORD
  5
171
330
1
100
AcDbSymbolTableRecord
100
AcDbBlockTableRecord
  2
*D1
340
0
 70
     0
280
     1
281
     0
  0
BLOCK_RECORD
  5
18B
330
1
100
AcDbSymbolTableRecord
100
AcDbBlockTableRecord
  2
*D2
340
0
 70
     0
280
     1
281
     0
  0
BLOCK_RECORD
  5
19F
330
1
100
AcDbSymbolTableRecord
100
AcDbBlockTableRecord
  2
*D3
340
0
 70
     0
280
     1
281
     0
  0
BLOCK_RECORD
  5
1AE
330
1
100
AcDbSymbolTableRecord
100
AcDbBlockTableRecord
  2
*D4
340
0
 70
     0
280
     1
281
     0
  0
BLOCK_RECORD
  5
1BF
330
1
100
AcDbSymbolTableRecord
100
AcDbBlockTableRecord
  2
*D5
340
0
 70
     0
280
     1
281
     0
  0
BLOCK_RECORD
  5
1CE
330
1
100
AcDbSymbolTableRecord
100
AcDbBlockTableRecord
  2
*D6
340
0
 70
     0
280
     1
281
     0
  0
BLOCK_RECORD
  5
1DD
330
1
100
AcDbSymbolTableRecord
100
AcDbBlockTableRecord
  2
*D7
340
0
 70
     0
280
     1
281
     0
  0
BLOCK_RECORD
  5
1EC
330
1
100
AcDbSymbolTableRecord
100
AcDbBlockTableRecord
  2
*D8
340
0
 70
     0
280
     1
281
     0
  0
BLOCK_RECORD
  5
23F
330
1
100
AcDbSymbolTableRecord
100
AcDbBlockTableRecord
  2
*D9
340
0
 70
     0
280
     1
281
     0
  0
BLOCK_RECORD
  5
24B
330
1
100
AcDbSymbolTableRecord
100
AcDbBlockTableRecord
  2
*D10
340
0
 70
     0
280
     1
281
     0
  0
BLOCK_RECORD
  5
257
330
1
100
AcDbSymbolTableRecord
100
AcDbBlockTableRecord
  2
*D11
340
0
 70
     0
280
     1
281
     0
  0
BLOCK_RECORD
  5
263
330
1
100
AcDbSymbolTableRecord
100
AcDbBlockTableRecord
  2
*D12
340
0
 70
     0
280
     1
281
     0
  0
BLOCK_RECORD
  5
271
330
1
100
AcDbSymbolTableRecord
100
AcDbBlockTableRecord
  2
*D13
340
0
 70
     0
280
     1
281
     0
  0
BLOCK_RECORD
  5
27D
330
1
100
AcDbSymbolTableRecord
100
AcDbBlockTableRecord
  2
*D14
340
0
 70
     0
280
     1
281
     0
  0
BLOCK_RECORD
  5
289
330
1
100
AcDbSymbolTableRecord
100
AcDbBlockTableRecord
  2
*D15
340
0
 70
     0
280
     1
281
     0
  0
BLOCK_RECORD
  5
295
330
1
100
AcDbSymbolTableRecord
100
AcDbBlockTableRecord
  2
*D16
340
0
 70
     0
280
     1
281
     0
  0
BLOCK_RECORD
  5
2C9
330
1
100
AcDbSymbolTableRecord
100
AcDbBlockTableRecord
  2
*D17
340
0
 70
     0
280
     1
281
     0
  0
BLOCK_RECORD
  5
2DB
330
1
100
AcDbSymbolTableRecord
100
AcDbBlockTableRecord
  2
*D18
340
0
 70
     0
280
     1
281
     0
  0
BLOCK_RECORD
  5
310
330
1
100
AcDbSymbolTableRecord
100
AcDbBlockTableRecord
  2
*D19
340
0
 70
     0
280
     1
281
     0
  0
BLOCK_RECORD
  5
323
330
1
100
AcDbSymbolTableRecord
100
AcDbBlockTableRecord
  2
*D20
340
0
 70
     0
280
     1
281
     0
  0
BLOCK_RECORD
  5
33B
330
1
100
AcDbSymbolTableRecord
100
AcDbBlockTableRecord
  2
*D21
340
0
 70
     0
280
     1
281
     0
  0
BLOCK_RECORD
  5
347
330
1
100
AcDbSymbolTableRecord
100
AcDbBlockTableRecord
  2
*D22
340
0
 70
     0
280
     1
281
     0
  0
BLOCK_RECORD
  5
37B
330
1
100
AcDbSymbolTableRecord
100
AcDbBlockTableRecord
  2
*D23
340
0
 70
     0
280
     1
281
     0
  0
BLOCK_RECORD
  5
38A
330
1
100
AcDbSymbolTableRecord
100
AcDbBlockTableRecord
  2
*D24
340
0
 70
     0
280
     1
281
     0
  0
BLOCK_RECORD
  5
39E
330
1
100
AcDbSymbolTableRecord
100
AcDbBlockTableRecord
  2
*D25
340
0
 70
     0
280
     1
281
     0
  0
BLOCK_RECORD
  5
3AA
330
1
100
AcDbSymbolTableRecord
100
AcDbBlockTableRecord
  2
*D26
340
0
 70
     0
280
     1
281
     0
  0
BLOCK_RECORD
  5
452
330
1
100
AcDbSymbolTableRecord
100
AcDbBlockTableRecord
  2
*D28
340
0
 70
     0
280
     1
281
     0
  0
BLOCK_RECORD
  5
464
330
1
100
AcDbSymbolTableRecord
100
AcDbBlockTableRecord
  2
*D29
340
0
 70
     0
280
     1
281
     0
  0
ENDTAB
  0
ENDSEC
  0
SECTION
  2
BLOCKS
  0
BLOCK
  5
20
330
1F
100
AcDbEntity
  8
0
100
AcDbBlockBegin
  2
*Model_Space
 70
     0
 10
0.0
 20
0.0
 30
0.0
  3
*Model_Space
  1
*Model_Space
  0
ENDBLK
  5
21
330
1F
100
AcDbEntity
  8
0
100
AcDbBlockEnd
  0
BLOCK
  5
5A
330
58
100
AcDbEntity
 67
     1
  8
0
100
AcDbBlockBegin
  2
*Paper_Space
 70
     0
 10
0.0
 20
0.0
 30
0.0
  3
*Paper_Space
  1
*Paper_Space
  0
ENDBLK
  5
5B
330
58
100
AcDbEntity
 67
     1
  8
0
100
AcDbBlockEnd
  0
BLOCK
  5
5F
330
5D
100
AcDbEntity
  8
0
100
AcDbBlockBegin
  2
*Paper_Space0
 70
     0
 10
0.0
 20
0.0
 30
0.0
  3
*Paper_Space0
  1
*Paper_Space0
  0
ENDBLK
  5
60
330
5D
100
AcDbEntity
  8
0
100
AcDbBlockEnd
  0
BLOCK
  5
172
330
171
100
AcDbEntity
  8
0
 62
     0
100
AcDbBlockBegin
  2
*D1
 70
     1
 10
0.0
 20
0.0
 30
0.0
  3
*D1
  1
*D2
  0
LINE
  5
173
330
171
100
AcDbEntity
  8
文字
 62
     0
370
    -2
100
AcDbLine
 10
100.9298799583232
 20
82.88308315566893
 30
0.0
 11
100.9298799583232
 21
26.70340750115383
 31
0.0
  0
LINE
  5
174
330
171
100
AcDbEntity
  8
文字
 62
     0
370
    -2
100
AcDbLine
 10
155.9298799583232
 20
82.88308315566893
 30
0.0
 11
155.9298799583232
 21
26.70340750115383
 31
0.0
  0
LINE
  5
175
330
171
100
AcDbEntity
  8
文字
 62
     0
370
    -2
100
AcDbLine
 10
104.6798799583232
 20
28.57840750115383
 30
0.0
 11
152.1798799583232
 21
28.57840750115383
 31
0.0
  0
SOLID
  5
176
330
171
100
AcDbEntity
  8
文字
 62
     0
100
AcDbTrace
 10
104.6798799583232
 20
29.20340750115383
 30
0.0
 11
104.6798799583232
 21
27.95340750115383
 31
0.0
 12
100.9298799583232
 22
28.57840750115383
 32
0.0
 13
100.9298799583232
 23
28.57840750115383
 33
0.0
  0
SOLID
  5
177
330
171
100
AcDbEntity
  8
文字
 62
     0
100
AcDbTrace
 10
152.1798799583232
 20
27.95340750115383
 30
0.0
 11
152.1798799583232
 21
29.20340750115383
 31
0.0
 12
155.9298799583232
 22
28.57840750115383
 32
0.0
 13
155.9298799583232
 23
28.57840750115383
 33
0.0
  0
MTEXT
  5
178
330
171
100
AcDbEntity
  8
文字
 62
     0
100
AcDbMText
 10
128.4298799583232
 20
31.97668512734756
 30
0.0
 40
3.75
 41
0.0
 46
0.0
 71
     5
 72
     1
  1
%%c55(+1.-0.5)
 73
     1
 44
1.0
  0
POINT
  5
179
330
171
100
AcDbEntity
  8
Defpoints
 62
     0
100
AcDbPoint
 10
100.9298799583232
 20
85.88308315566893
 30
0.0
  0
POINT
  5
17A
330
171
100
AcDbEntity
  8
Defpoints
 62
     0
100
AcDbPoint
 10
155.9298799583232
 20
85.88308315566893
 30
0.0
  0
POINT
  5
17B
330
171
100
AcDbEntity
  8
Defpoints
 62
     0
100
AcDbPoint
 10
155.9298799583232
 20
28.57840750115383
 30
0.0
  0
ENDBLK
  5
17C
330
171
100
AcDbEntity
  8
0
 62
     0
100
AcDbBlockEnd
  0
BLOCK
  5
18C
330
18B
100
AcDbEntity
  8
0
 62
     0
100
AcDbBlockBegin
  2
*D2
 70
     1
 10
0.0
 20
0.0
 30
0.0
  3
*D2
  1
*D3
  0
LINE
  5
18D
330
18B
100
AcDbEntity
  8
文字
 62
     0
370
    -2
100
AcDbLine
 10
0.0006981074302486
 20
27.50992210902924
 30
0.0
 11
0.002254704911178
 21
16.36122637416979
 31
0.0
  0
LINE
  5
18E
330
18B
100
AcDbEntity
  8
文字
 62
     0
370
    -2
100
AcDbLine
 10
55.00069757134076
 20
27.5176012907627
 30
0.0
 11
55.00225416882169
 21
16.36890555590129
 31
0.0
  0
LINE
  5
18F
330
18B
100
AcDbEntity
  8
文字
 62
     0
370
    -2
100
AcDbLine
 10
3.75199287807333
 20
18.23674993646662
 30
0.0
 11
51.25199241508694
 21
18.24338195705292
 31
0.0
  0
SOLID
  5
190
330
18B
100
AcDbEntity
  8
文字
 62
     0
100
AcDbTrace
 10
3.751905614644563
 20
18.86174993037469
 30
0.0
 11
3.752080141502097
 21
17.61174994255854
 31
0.0
 12
0.0019929146248785
 22
18.23622635589401
 32
0.0
 13
0.0019929146248785
 23
18.23622635589401
 33
0.0
  0
SOLID
  5
191
330
18B
100
AcDbEntity
  8
文字
 62
     0
100
AcDbTrace
 10
51.25207967851571
 20
17.61838196314484
 30
0.0
 11
51.25190515165817
 21
18.86838195096099
 31
0.0
 12
55.00199237853539
 22
18.24390553762552
 32
0.0
 13
55.00199237853539
 23
18.24390553762552
 33
0.0
  0
MTEXT
  5
192
330
18B
100
AcDbEntity
  8
文字
 62
     0
100
AcDbMText
 10
27.50178006176001
 20
21.63834357639537
 30
0.0
 40
3.75
 41
0.0
 46
0.0
 71
     5
 72
     1
  1
%%c55(+1.-0.5)
 11
0.9999999902529203
 21
0.0001396214860273468
 31
0.0
 73
     1
 44
1.0
  0
POINT
  5
193
330
18B
100
AcDbEntity
  8
Defpoints
 62
     0
100
AcDbPoint
 10
0.0002792429721694
 20
30.509922079788
 30
0.0
  0
POINT
  5
194
330
18B
100
AcDbEntity
  8
Defpoints
 62
     0
100
AcDbPoint
 10
55.00027870688268
 20
30.51760126152146
 30
0.0
  0
POINT
  5
195
330
18B
100
AcDbEntity
  8
Defpoints
 62
     0
100
AcDbPoint
 10
55.00199237853541
 20
18.24390553762551
 30
0.0
  0
ENDBLK
  5
196
330
18B
100
AcDbEntity
  8
0
 62
     0
100
AcDbBlockEnd
  0
BLOCK
  5
1A0
330
19F
100
AcDbEntity
  8
0
 62
     0
100
AcDbBlockBegin
  2
*D3
 70
     1
 10
0.0
 20
0.0
 30
0.0
  3
*D3
  1
*D4
  0
LINE
  5
1A1
330
19F
100
AcDbEntity
  8
文字
 62
     0
370
    -2
100
AcDbLine
 10
58.00027870688268
 20
30.51760126152146
 30
0.0
 11
69.1459531409721
 21
30.51760126152146
 31
0.0
  0
LINE
  5
1A2
330
19F
100
AcDbEntity
  8
文字
 62
     0
370
    -2
100
AcDbLine
 10
24.80675882129412
 20
47.71855723554199
 30
0.0
 11
69.1459531409721
 21
47.71855723554199
 31
0.0
  0
LINE
  5
1A3
330
19F
100
AcDbEntity
  8
文字
 62
     0
370
    -2
100
AcDbLine
 10
67.2709531409721
 20
34.26760126152146
 30
0.0
 11
67.2709531409721
 21
43.96855723554199
 31
0.0
  0
SOLID
  5
1A4
330
19F
100
AcDbEntity
  8
文字
 62
     0
100
AcDbTrace
 10
66.6459531409721
 20
34.26760126152146
 30
0.0
 11
67.8959531409721
 21
34.26760126152146
 31
0.0
 12
67.2709531409721
 22
30.51760126152146
 32
0.0
 13
67.2709531409721
 23
30.51760126152146
 33
0.0
  0
SOLID
  5
1A5
330
19F
100
AcDbEntity
  8
文字
 62
     0
100
AcDbTrace
 10
67.8959531409721
 20
43.96855723554199
 30
0.0
 11
66.6459531409721
 21
43.96855723554199
 31
0.0
 12
67.2709531409721
 22
47.71855723554199
 32
0.0
 13
67.2709531409721
 23
47.71855723554199
 33
0.0
  0
MTEXT
  5
1A6
330
19F
100
AcDbEntity
  8
文字
 62
     0
100
AcDbMText
 10
64.42008342746595
 20
39.11807924853173
 30
0.0
 40
3.75
 41
0.0
 46
0.0
 71
     5
 72
     1
  1
18
 11
0.0
 21
1.0
 31
0.0
 73
     1
 44
1.0
  0
POINT
  5
1A7
330
19F
100
AcDbEntity
  8
Defpoints
 62
     0
100
AcDbPoint
 10
55.00027870688268
 20
30.51760126152146
 30
0.0
  0
POINT
  5
1A8
330
19F
100
AcDbEntity
  8
Defpoints
 62
     0
100
AcDbPoint
 10
21.80675882129412
 20
47.71855723554199
 30
0.0
  0
POINT
  5
1A9
330
19F
100
AcDbEntity
  8
Defpoints
 62
     0
100
AcDbPoint
 10
67.2709531409721
 20
47.71855723554199
 30
0.0
  0
ENDBLK
  5
1AA
330
19F
100
AcDbEntity
  8
0
 62
     0
100
AcDbBlockEnd
  0
BLOCK
  5
1AF
330
1AE
100
AcDbEntity
  8
0
 62
     0
100
AcDbBlockBegin
  2
*D4
 70
     1
 10
0.0
 20
0.0
 30
0.0
  3
*D4
  1
*D5
  0
LINE
  5
1B0
330
1AE
100
AcDbEntity
  8
文字
 62
     0
370
    -2
100
AcDbLine
 10
24.80675882129412
 20
47.71855723554199
 30
0.0
 11
68.97268106941806
 21
47.71855723554199
 31
0.0
  0
LINE
  5
1B1
330
1AE
100
AcDbEntity
  8
文字
 62
     0
370
    -2
100
AcDbLine
 10
36.39027369354017
 20
55.59643892510063
 30
0.0
 11
68.97268106941806
 21
55.59643892510063
 31
0.0
  0
LINE
  5
1B2
330
1AE
100
AcDbEntity
  8
文字
 62
     0
370
    -2
100
AcDbLine
 10
67.09768106941806
 20
47.71855723554199
 30
0.0
 11
67.09768106941806
 21
55.59643892510063
 31
0.0
  0
LINE
  5
1B3
330
1AE
100
AcDbEntity
  8
文字
 62
     0
370
    -2
100
AcDbLine
 10
67.09768106941806
 20
43.96855723554199
 30
0.0
 11
67.09768106941806
 21
40.21855723554199
 31
0.0
  0
LINE
  5
1B4
330
1AE
100
AcDbEntity
  8
文字
 62
     0
370
    -2
100
AcDbLine
 10
67.09768106941806
 20
59.34643892510063
 30
0.0
 11
67.09768106941806
 21
63.09643892510063
 31
0.0
  0
SOLID
  5
1B5
330
1AE
100
AcDbEntity
  8
文字
 62
     0
100
AcDbTrace
 10
67.72268106941806
 20
43.96855723554199
 30
0.0
 11
66.47268106941806
 21
43.96855723554199
 31
0.0
 12
67.09768106941806
 22
47.71855723554199
 32
0.0
 13
67.09768106941806
 23
47.71855723554199
 33
0.0
  0
SOLID
  5
1B6
330
1AE
100
AcDbEntity
  8
文字
 62
     0
100
AcDbTrace
 10
66.47268106941806
 20
59.34643892510063
 30
0.0
 11
67.72268106941806
 21
59.34643892510063
 31
0.0
 12
67.09768106941806
 22
55.59643892510063
 32
0.0
 13
67.09768106941806
 23
55.59643892510063
 33
0.0
  0
MTEXT
  5
1B7
330
1AE
100
AcDbEntity
  8
文字
 62
     0
100
AcDbMText
 10
64.24681135591192
 20
51.65749808032131
 30
0.0
 40
3.75
 41
0.0
 46
0.0
 71
     5
 72
     1
  1
8
 11
0.0
 21
1.0
 31
0.0
 73
     1
 44
1.0
  0
POINT
  5
1B8
330
1AE
100
AcDbEntity
  8
Defpoints
 62
     0
100
AcDbPoint
 10
21.80675882129412
 20
47.71855723554199
 30
0.0
  0
POINT
  5
1B9
330
1AE
100
AcDbEntity
  8
Defpoints
 62
     0
100
AcDbPoint
 10
33.39027369354017
 20
55.59643892510063
 30
0.0
  0
POINT
  5
1BA
330
1AE
100
AcDbEntity
  8
Defpoints
 62
     0
100
AcDbPoint
 10
67.09768106941806
 20
55.59643892510063
 30
0.0
  0
ENDBLK
  5
1BB
330
1AE
100
AcDbEntity
  8
0
 62
     0
100
AcDbBlockEnd
  0
BLOCK
  5
1C0
330
1BF
100
AcDbEntity
  8
0
 62
     0
100
AcDbBlockBegin
  2
*D5
 70
     1
 10
0.0
 20
0.0
 30
0.0
  3
*D5
  1
*D6
  0
LINE
  5
1C1
330
1BF
100
AcDbEntity
  8
文字
 62
     0
370
    -2
100
AcDbLine
 10
36.39027369354017
 20
55.59643892510063
 30
0.0
 11
68.97268106941806
 21
55.59643892510063
 31
0.0
  0
LINE
  5
1C2
330
1BF
100
AcDbEntity
  8
文字
 62
     0
370
    -2
100
AcDbLine
 10
34.39027369354017
 20
130.5964389251006
 30
0.0
 11
68.97268106941806
 21
130.5964389251006
 31
0.0
  0
LINE
  5
1C3
330
1BF
100
AcDbEntity
  8
文字
 62
     0
370
    -2
100
AcDbLine
 10
67.09768106941806
 20
59.34643892510063
 30
0.0
 11
67.09768106941806
 21
126.8464389251006
 31
0.0
  0
SOLID
  5
1C4
330
1BF
100
AcDbEntity
  8
文字
 62
     0
100
AcDbTrace
 10
66.47268106941806
 20
59.34643892510063
 30
0.0
 11
67.72268106941806
 21
59.34643892510063
 31
0.0
 12
67.09768106941806
 22
55.59643892510063
 32
0.0
 13
67.09768106941806
 23
55.59643892510063
 33
0.0
  0
SOLID
  5
1C5
330
1BF
100
AcDbEntity
  8
文字
 62
     0
100
AcDbTrace
 10
67.72268106941806
 20
126.8464389251006
 30
0.0
 11
66.47268106941806
 21
126.8464389251006
 31
0.0
 12
67.09768106941806
 22
130.5964389251006
 32
0.0
 13
67.09768106941806
 23
130.5964389251006
 33
0.0
  0
MTEXT
  5
1C6
330
1BF
100
AcDbEntity
  8
文字
 62
     0
100
AcDbMText
 10
64.27750712671683
 20
93.09643892510064
 30
0.0
 40
3.75
 41
0.0
 46
0.0
 71
     5
 72
     1
  1
L1
 11
0.0
 21
1.0
 31
0.0
 73
     1
 44
1.0
  0
POINT
  5
1C7
330
1BF
100
AcDbEntity
  8
Defpoints
 62
     0
100
AcDbPoint
 10
33.39027369354017
 20
55.59643892510063
 30
0.0
  0
POINT
  5
1C8
330
1BF
100
AcDbEntity
  8
Defpoints
 62
     0
100
AcDbPoint
 10
31.39027369354017
 20
130.5964389251006
 30
0.0
  0
POINT
  5
1C9
330
1BF
100
AcDbEntity
  8
Defpoints
 62
     0
100
AcDbPoint
 10
67.09768106941806
 20
130.5964389251006
 30
0.0
  0
ENDBLK
  5
1CA
330
1BF
100
AcDbEntity
  8
0
 62
     0
100
AcDbBlockEnd
  0
BLOCK
  5
1CF
330
1CE
100
AcDbEntity
  8
0
 62
     0
100
AcDbBlockBegin
  2
*D6
 70
     1
 10
0.0
 20
0.0
 30
0.0
  3
*D6
  1
*D7
  0
LINE
  5
1D0
330
1CE
100
AcDbEntity
  8
文字
 62
     0
370
    -2
100
AcDbLine
 10
21.5635457650942
 20
132.3893235711123
 30
0.0
 11
21.5635457650942
 21
140.5938856523305
 31
0.0
  0
LINE
  5
1D1
330
1CE
100
AcDbEntity
  8
文字
 62
     0
370
    -2
100
AcDbLine
 10
33.5635457650942
 20
132.3893235711123
 30
0.0
 11
33.5635457650942
 21
140.5938856523305
 31
0.0
  0
LINE
  5
1D2
330
1CE
100
AcDbEntity
  8
文字
 62
     0
370
    -2
100
AcDbLine
 10
25.3135457650942
 20
138.7188856523305
 30
0.0
 11
29.8135457650942
 21
138.7188856523305
 31
0.0
  0
SOLID
  5
1D3
330
1CE
100
AcDbEntity
  8
文字
 62
     0
100
AcDbTrace
 10
25.3135457650942
 20
139.3438856523305
 30
0.0
 11
25.3135457650942
 21
138.0938856523305
 31
0.0
 12
21.5635457650942
 22
138.7188856523305
 32
0.0
 13
21.5635457650942
 23
138.7188856523305
 33
0.0
  0
SOLID
  5
1D4
330
1CE
100
AcDbEntity
  8
文字
 62
     0
100
AcDbTrace
 10
29.8135457650942
 20
138.0938856523305
 30
0.0
 11
29.8135457650942
 21
139.3438856523305
 31
0.0
 12
33.5635457650942
 22
138.7188856523305
 32
0.0
 13
33.5635457650942
 23
138.7188856523305
 33
0.0
  0
MTEXT
  5
1D5
330
1CE
100
AcDbEntity
  8
文字
 62
     0
100
AcDbMText
 10
27.5635457650942
 20
141.5390595950317
 30
0.0
 40
3.75
 41
0.0
 46
0.0
 71
     5
 72
     1
  1
M12
 73
     1
 44
1.0
  0
POINT
  5
1D6
330
1CE
100
AcDbEntity
  8
Defpoints
 62
     0
100
AcDbPoint
 10
21.5635457650942
 20
129.3893235711123
 30
0.0
  0
POINT
  5
1D7
330
1CE
100
AcDbEntity
  8
Defpoints
 62
     0
100
AcDbPoint
 10
33.5635457650942
 20
129.3893235711123
 30
0.0
  0
POINT
  5
1D8
330
1CE
100
AcDbEntity
  8
Defpoints
 62
     0
100
AcDbPoint
 10
33.5635457650942
 20
138.7188856523305
 30
0.0
  0
ENDBLK
  5
1D9
330
1CE
100
AcDbEntity
  8
0
 62
     0
100
AcDbBlockEnd
  0
BLOCK
  5
1DE
330
1DD
100
AcDbEntity
  8
0
 62
     0
100
AcDbBlockBegin
  2
*D7
 70
     1
 10
0.0
 20
0.0
 30
0.0
  3
*D7
  1
*D8
  0
LINE
  5
1DF
330
1DD
100
AcDbEntity
  8
文字
 62
     0
370
    -2
100
AcDbLine
 10
118.9469017868837
 20
77.40808315566895
 30
0.0
 11
118.9469017868837
 21
41.85819244743618
 31
0.0
  0
LINE
  5
1E0
330
1DD
100
AcDbEntity
  8
文字
 62
     0
370
    -2
100
AcDbLine
 10
137.9128581297629
 20
77.40808315566895
 30
0.0
 11
137.9128581297629
 21
41.85819244743618
 31
0.0
  0
LINE
  5
1E1
330
1DD
100
AcDbEntity
  8
文字
 62
     0
370
    -2
100
AcDbLine
 10
122.6969017868837
 20
43.73319244743618
 30
0.0
 11
134.1628581297629
 21
43.73319244743618
 31
0.0
  0
SOLID
  5
1E2
330
1DD
100
AcDbEntity
  8
文字
 62
     0
100
AcDbTrace
 10
122.6969017868837
 20
44.35819244743618
 30
0.0
 11
122.6969017868837
 21
43.10819244743618
 31
0.0
 12
118.9469017868837
 22
43.73319244743618
 32
0.0
 13
118.9469017868837
 23
43.73319244743618
 33
0.0
  0
SOLID
  5
1E3
330
1DD
100
AcDbEntity
  8
文字
 62
     0
100
AcDbTrace
 10
134.1628581297629
 20
43.10819244743618
 30
0.0
 11
134.1628581297629
 21
44.35819244743618
 31
0.0
 12
137.9128581297629
 22
43.73319244743618
 32
0.0
 13
137.9128581297629
 23
43.73319244743618
 33
0.0
  0
MTEXT
  5
1E4
330
1DD
100
AcDbEntity
  8
文字
 62
     0
100
AcDbMText
 10
128.4298799583233
 20
46.58406216094232
 30
0.0
 40
3.75
 41
0.0
 46
0.0
 71
     5
 72
     1
  1
19
 73
     1
 44
1.0
  0
POINT
  5
1E5
330
1DD
100
AcDbEntity
  8
Defpoints
 62
     0
100
AcDbPoint
 10
118.9469017868837
 20
80.40808315566895
 30
0.0
  0
POINT
  5
1E6
330
1DD
100
AcDbEntity
  8
Defpoints
 62
     0
100
AcDbPoint
 10
137.9128581297629
 20
80.40808315566895
 30
0.0
  0
POINT
  5
1E7
330
1DD
100
AcDbEntity
  8
Defpoints
 62
     0
100
AcDbPoint
 10
137.9128581297629
 20
43.73319244743618
 30
0.0
  0
ENDBLK
  5
1E8
330
1DD
100
AcDbEntity
  8
0
 62
     0
100
AcDbBlockEnd
  0
BLOCK
  5
1ED
330
1EC
100
AcDbEntity
  8
0
 62
     0
100
AcDbBlockBegin
  2
*D8
 70
     1
 10
0.0
 20
0.0
 30
0.0
  3
*D8
  1
*D9
  0
LINE
  5
1EE
330
1EC
100
AcDbEntity
  8
文字
 62
     0
370
    -2
100
AcDbLine
 10
0.0002792429721694
 20
27.509922079788
 30
0.0
 11
0.0002792429721694
 21
0.0
 31
0.0
  0
LINE
  5
1EF
330
1EC
100
AcDbEntity
  8
文字
 62
     0
370
    -2
100
AcDbLine
 10
55.00027870688268
 20
27.51760126152146
 30
0.0
 11
55.00027870688268
 21
0.0
 31
0.0
  0
LINE
  5
1F0
330
1EC
100
AcDbEntity
  8
文字
 62
     0
370
    -2
100
AcDbLine
 10
3.750279242972169
 20
1.875
 30
0.0
 11
51.25027870688268
 21
1.875
 31
0.0
  0
SOLID
  5
1F1
330
1EC
100
AcDbEntity
  8
文字
 62
     0
100
AcDbTrace
 10
3.750279242972169
 20
2.5
 30
0.0
 11
3.750279242972169
 21
1.25
 31
0.0
 12
0.0002792429721694
 22
1.875
 32
0.0
 13
0.0002792429721694
 23
1.875
 33
0.0
  0
SOLID
  5
1F2
330
1EC
100
AcDbEntity
  8
文字
 62
     0
100
AcDbTrace
 10
51.25027870688268
 20
1.25
 30
0.0
 11
51.25027870688268
 21
2.5
 31
0.0
 12
55.00027870688268
 22
1.875
 32
0.0
 13
55.00027870688268
 23
1.875
 33
0.0
  0
MTEXT
  5
1F3
330
1EC
100
AcDbEntity
  8
文字
 62
     0
100
AcDbMText
 10
27.50027897492743
 20
4.718195770804911
 30
0.0
 40
3.75
 41
0.0
 46
0.0
 71
     5
 72
     1
  1
55
 73
     1
 44
1.0
  0
POINT
  5
1F4
330
1EC
100
AcDbEntity
  8
Defpoints
 62
     0
100
AcDbPoint
 10
0.0002792429721694
 20
30.509922079788
 30
0.0
  0
POINT
  5
1F5
330
1EC
100
AcDbEntity
  8
Defpoints
 62
     0
100
AcDbPoint
 10
55.00027870688268
 20
30.51760126152146
 30
0.0
  0
POINT
  5
1F6
330
1EC
100
AcDbEntity
  8
Defpoints
 62
     0
100
AcDbPoint
 10
55.00027870688268
 20
1.875
 30
0.0
  0
ENDBLK
  5
1F7
330
1EC
100
AcDbEntity
  8
0
 62
     0
100
AcDbBlockEnd
  0
BLOCK
  5
240
330
23F
100
AcDbEntity
  8
0
100
AcDbBlockBegin
  2
*D9
 70
     1
 10
0.0
 20
0.0
 30
0.0
  3
*D9
  1
*D10
  0
LINE
  5
242
330
23F
100
AcDbEntity
  8
文字
 62
     0
370
    -2
100
AcDbLine
 10
153.752834444682
 20
114.0795699489518
 30
0.0
 11
153.752834444682
 21
57.89989429443675
 31
0.0
  0
LINE
  5
243
330
23F
100
AcDbEntity
  8
文字
 62
     0
370
    -2
100
AcDbLine
 10
192.252834444682
 20
114.0795699489518
 30
0.0
 11
192.252834444682
 21
57.89989429443675
 31
0.0
  0
LINE
  5
244
330
23F
100
AcDbEntity
  8
文字
 62
     0
370
    -2
100
AcDbLine
 10
157.502834444682
 20
59.77489429443675
 30
0.0
 11
188.502834444682
 21
59.77489429443675
 31
0.0
  0
SOLID
  5
245
330
23F
100
AcDbEntity
  8
文字
 62
     0
100
AcDbTrace
 10
157.502834444682
 20
60.39989429443675
 30
0.0
 11
157.502834444682
 21
59.14989429443675
 31
0.0
 12
153.752834444682
 22
59.77489429443675
 32
0.0
 13
153.752834444682
 23
59.77489429443675
 33
0.0
  0
SOLID
  5
246
330
23F
100
AcDbEntity
  8
文字
 62
     0
100
AcDbTrace
 10
188.502834444682
 20
59.14989429443675
 30
0.0
 11
188.502834444682
 21
60.39989429443675
 31
0.0
 12
192.252834444682
 22
59.77489429443675
 32
0.0
 13
192.252834444682
 23
59.77489429443675
 33
0.0
  0
MTEXT
  5
247
330
23F
100
AcDbEntity
  8
文字
 62
     0
100
AcDbMText
 10
173.002834444682
 20
62.69426929443675
 30
0.0
 40
3.75
 41
0.0
 46
0.0
 71
     5
 72
     1
  1
%%c38.5
 73
     1
 44
1.0
  0
POINT
  5
248
330
23F
100
AcDbEntity
  8
Defpoints
 62
     0
100
AcDbPoint
 10
153.752834444682
 20
117.0795699489518
 30
0.0
  0
POINT
  5
249
330
23F
100
AcDbEntity
  8
Defpoints
 62
     0
100
AcDbPoint
 10
192.252834444682
 20
117.0795699489518
 30
0.0
  0
POINT
  5
24A
330
23F
100
AcDbEntity
  8
Defpoints
 62
     0
100
AcDbPoint
 10
192.252834444682
 20
59.77489429443675
 30
0.0
  0
ENDBLK
  5
241
330
23F
100
AcDbEntity
  8
0
100
AcDbBlockEnd
  0
BLOCK
  5
24C
330
24B
100
AcDbEntity
  8
0
100
AcDbBlockBegin
  2
*D10
 70
     1
 10
0.0
 20
0.0
 30
0.0
  3
*D10
  1
*D11
  0
LINE
  5
24E
330
24B
100
AcDbEntity
  8
文字
 62
     0
370
    -2
100
AcDbLine
 10
44.573652593789
 20
58.70640890231216
 30
0.0
 11
44.57520919126993
 21
47.55771316745271
 31
0.0
  0
LINE
  5
24F
330
24B
100
AcDbEntity
  8
文字
 62
     0
370
    -2
100
AcDbLine
 10
99.57365205769952
 20
58.71408808404562
 30
0.0
 11
99.57520865518045
 21
47.56539234918421
 31
0.0
  0
LINE
  5
250
330
24B
100
AcDbEntity
  8
文字
 62
     0
370
    -2
100
AcDbLine
 10
48.32494736443208
 20
49.43323672974954
 30
0.0
 11
95.8249469014457
 21
49.43986875033583
 31
0.0
  0
SOLID
  5
251
330
24B
100
AcDbEntity
  8
文字
 62
     0
100
AcDbTrace
 10
48.32486010100332
 20
50.05823672365761
 30
0.0
 11
48.32503462786085
 21
48.80823673584146
 31
0.0
 12
44.57494740098363
 22
49.43271314917693
 32
0.0
 13
44.57494740098363
 23
49.43271314917693
 33
0.0
  0
SOLID
  5
252
330
24B
100
AcDbEntity
  8
文字
 62
     0
100
AcDbTrace
 10
95.82503416487447
 20
48.81486875642776
 30
0.0
 11
95.82485963801693
 21
50.06486874424391
 31
0.0
 12
99.57494686489414
 22
49.44039233090844
 32
0.0
 13
99.57494686489414
 23
49.44039233090844
 33
0.0
  0
MTEXT
  5
253
330
24B
100
AcDbEntity
  8
文字
 62
     0
100
AcDbMText
 10
72.07480204929763
 20
52.35137198421324
 30
0.0
 40
3.75
 41
0.0
 46
0.0
 71
     5
 72
     1
  1
%%c55
 11
0.9999999902529203
 21
0.0001396214860273468
 31
0.0
 73
     1
 44
1.0
  0
POINT
  5
254
330
24B
100
AcDbEntity
  8
Defpoints
 62
     0
100
AcDbPoint
 10
44.57323372933092
 20
61.70640887307091
 30
0.0
  0
POINT
  5
255
330
24B
100
AcDbEntity
  8
Defpoints
 62
     0
100
AcDbPoint
 10
99.57323319324144
 20
61.71408805480438
 30
0.0
  0
POINT
  5
256
330
24B
100
AcDbEntity
  8
Defpoints
 62
     0
100
AcDbPoint
 10
99.57494686489416
 20
49.44039233090844
 30
0.0
  0
ENDBLK
  5
24D
330
24B
100
AcDbEntity
  8
0
100
AcDbBlockEnd
  0
BLOCK
  5
258
330
257
100
AcDbEntity
  8
0
100
AcDbBlockBegin
  2
*D11
 70
     1
 10
0.0
 20
0.0
 30
0.0
  3
*D11
  1
*D12
  0
LINE
  5
25A
330
257
100
AcDbEntity
  8
文字
 62
     0
370
    -2
100
AcDbLine
 10
102.5732331932414
 20
61.71408805480438
 30
0.0
 11
113.7189076273309
 21
61.71408805480438
 31
0.0
  0
LINE
  5
25B
330
257
100
AcDbEntity
  8
文字
 62
     0
370
    -2
100
AcDbLine
 10
69.37971330765288
 20
78.91504402882491
 30
0.0
 11
113.7189076273309
 21
78.91504402882491
 31
0.0
  0
LINE
  5
25C
330
257
100
AcDbEntity
  8
文字
 62
     0
370
    -2
100
AcDbLine
 10
111.8439076273309
 20
65.46408805480438
 30
0.0
 11
111.8439076273309
 21
75.16504402882491
 31
0.0
  0
SOLID
  5
25D
330
257
100
AcDbEntity
  8
文字
 62
     0
100
AcDbTrace
 10
111.2189076273309
 20
65.46408805480438
 30
0.0
 11
112.4689076273309
 21
65.46408805480438
 31
0.0
 12
111.8439076273309
 22
61.71408805480438
 32
0.0
 13
111.8439076273309
 23
61.71408805480438
 33
0.0
  0
SOLID
  5
25E
330
257
100
AcDbEntity
  8
文字
 62
     0
100
AcDbTrace
 10
112.4689076273309
 20
75.16504402882491
 30
0.0
 11
111.2189076273309
 21
75.16504402882491
 31
0.0
 12
111.8439076273309
 22
78.91504402882491
 32
0.0
 13
111.8439076273309
 23
78.91504402882491
 33
0.0
  0
MTEXT
  5
25F
330
257
100
AcDbEntity
  8
文字
 62
     0
100
AcDbMText
 10
108.9930379138247
 20
70.31456604181464
 30
0.0
 40
3.75
 41
0.0
 46
0.0
 71
     5
 72
     1
  1
18
 11
0.0
 21
1.0
 31
0.0
 73
     1
 44
1.0
  0
POINT
  5
260
330
257
100
AcDbEntity
  8
Defpoints
 62
     0
100
AcDbPoint
 10
99.57323319324144
 20
61.71408805480438
 30
0.0
  0
POINT
  5
261
330
257
100
AcDbEntity
  8
Defpoints
 62
     0
100
AcDbPoint
 10
66.37971330765288
 20
78.91504402882491
 30
0.0
  0
POINT
  5
262
330
257
100
AcDbEntity
  8
Defpoints
 62
     0
100
AcDbPoint
 10
111.8439076273309
 20
78.91504402882491
 30
0.0
  0
ENDBLK
  5
259
330
257
100
AcDbEntity
  8
0
100
AcDbBlockEnd
  0
BLOCK
  5
264
330
263
100
AcDbEntity
  8
0
100
AcDbBlockBegin
  2
*D12
 70
     1
 10
0.0
 20
0.0
 30
0.0
  3
*D12
  1
*D13
  0
LINE
  5
266
330
263
100
AcDbEntity
  8
文字
 62
     0
370
    -2
100
AcDbLine
 10
69.37971330765288
 20
78.91504402882491
 30
0.0
 11
113.5456355557768
 21
78.91504402882491
 31
0.0
  0
LINE
  5
267
330
263
100
AcDbEntity
  8
文字
 62
     0
370
    -2
100
AcDbLine
 10
80.96322817989892
 20
86.79292571838354
 30
0.0
 11
113.5456355557768
 21
86.79292571838354
 31
0.0
  0
LINE
  5
268
330
263
100
AcDbEntity
  8
文字
 62
     0
370
    -2
100
AcDbLine
 10
111.6706355557768
 20
78.91504402882491
 30
0.0
 11
111.6706355557768
 21
86.79292571838354
 31
0.0
  0
LINE
  5
269
330
263
100
AcDbEntity
  8
文字
 62
     0
370
    -2
100
AcDbLine
 10
111.6706355557768
 20
75.16504402882491
 30
0.0
 11
111.6706355557768
 21
71.41504402882491
 31
0.0
  0
LINE
  5
26A
330
263
100
AcDbEntity
  8
文字
 62
     0
370
    -2
100
AcDbLine
 10
111.6706355557768
 20
90.54292571838354
 30
0.0
 11
111.6706355557768
 21
94.29292571838354
 31
0.0
  0
SOLID
  5
26B
330
263
100
AcDbEntity
  8
文字
 62
     0
100
AcDbTrace
 10
112.2956355557768
 20
75.16504402882491
 30
0.0
 11
111.0456355557768
 21
75.16504402882491
 31
0.0
 12
111.6706355557768
 22
78.91504402882491
 32
0.0
 13
111.6706355557768
 23
78.91504402882491
 33
0.0
  0
SOLID
  5
26C
330
263
100
AcDbEntity
  8
文字
 62
     0
100
AcDbTrace
 10
111.0456355557768
 20
90.54292571838354
 30
0.0
 11
112.2956355557768
 21
90.54292571838354
 31
0.0
 12
111.6706355557768
 22
86.79292571838354
 32
0.0
 13
111.6706355557768
 23
86.79292571838354
 33
0.0
  0
MTEXT
  5
26D
330
263
100
AcDbEntity
  8
文字
 62
     0
100
AcDbMText
 10
108.8197658422707
 20
82.85398487360422
 30
0.0
 40
3.75
 41
0.0
 46
0.0
 71
     5
 72
     1
  1
8
 11
0.0
 21
1.0
 31
0.0
 73
     1
 44
1.0
  0
POINT
  5
26E
330
263
100
AcDbEntity
  8
Defpoints
 62
     0
100
AcDbPoint
 10
66.37971330765288
 20
78.91504402882491
 30
0.0
  0
POINT
  5
26F
330
263
100
AcDbEntity
  8
Defpoints
 62
     0
100
AcDbPoint
 10
77.96322817989892
 20
86.79292571838354
 30
0.0
  0
POINT
  5
270
330
263
100
AcDbEntity
  8
Defpoints
 62
     0
100
AcDbPoint
 10
111.6706355557768
 20
86.79292571838354
 30
0.0
  0
ENDBLK
  5
265
330
263
100
AcDbEntity
  8
0
100
AcDbBlockEnd
  0
BLOCK
  5
272
330
271
100
AcDbEntity
  8
0
100
AcDbBlockBegin
  2
*D13
 70
     1
 10
0.0
 20
0.0
 30
0.0
  3
*D13
  1
*D14
  0
LINE
  5
274
330
271
100
AcDbEntity
  8
文字
 62
     0
370
    -2
100
AcDbLine
 10
80.96322817989892
 20
86.79292571838354
 30
0.0
 11
113.5456355557768
 21
86.79292571838354
 31
0.0
  0
LINE
  5
275
330
271
100
AcDbEntity
  8
文字
 62
     0
370
    -2
100
AcDbLine
 10
78.96322817989892
 20
161.7929257183836
 30
0.0
 11
113.5456355557768
 21
161.7929257183836
 31
0.0
  0
LINE
  5
276
330
271
100
AcDbEntity
  8
文字
 62
     0
370
    -2
100
AcDbLine
 10
111.6706355557768
 20
90.54292571838354
 30
0.0
 11
111.6706355557768
 21
158.0429257183836
 31
0.0
  0
SOLID
  5
277
330
271
100
AcDbEntity
  8
文字
 62
     0
100
AcDbTrace
 10
111.0456355557768
 20
90.54292571838354
 30
0.0
 11
112.2956355557768
 21
90.54292571838354
 31
0.0
 12
111.6706355557768
 22
86.79292571838354
 32
0.0
 13
111.6706355557768
 23
86.79292571838354
 33
0.0
  0
SOLID
  5
278
330
271
100
AcDbEntity
  8
文字
 62
     0
100
AcDbTrace
 10
112.2956355557768
 20
158.0429257183836
 30
0.0
 11
111.0456355557768
 21
158.0429257183836
 31
0.0
 12
111.6706355557768
 22
161.7929257183836
 32
0.0
 13
111.6706355557768
 23
161.7929257183836
 33
0.0
  0
MTEXT
  5
279
330
271
100
AcDbEntity
  8
文字
 62
     0
100
AcDbMText
 10
108.8274397849719
 20
124.2929257183836
 30
0.0
 40
3.75
 41
0.0
 46
0.0
 71
     5
 72
     1
  1
75
 11
0.0
 21
1.0
 31
0.0
 73
     1
 44
1.0
  0
POINT
  5
27A
330
271
100
AcDbEntity
  8
Defpoints
 62
     0
100
AcDbPoint
 10
77.96322817989892
 20
86.79292571838354
 30
0.0
  0
POINT
  5
27B
330
271
100
AcDbEntity
  8
Defpoints
 62
     0
100
AcDbPoint
 10
75.96322817989892
 20
161.7929257183836
 30
0.0
  0
POINT
  5
27C
330
271
100
AcDbEntity
  8
Defpoints
 62
     0
100
AcDbPoint
 10
111.6706355557768
 20
161.7929257183836
 30
0.0
  0
ENDBLK
  5
273
330
271
100
AcDbEntity
  8
0
100
AcDbBlockEnd
  0
BLOCK
  5
27E
330
27D
100
AcDbEntity
  8
0
100
AcDbBlockBegin
  2
*D14
 70
     1
 10
0.0
 20
0.0
 30
0.0
  3
*D14
  1
*D15
  0
LINE
  5
280
330
27D
100
AcDbEntity
  8
文字
 62
     0
370
    -2
100
AcDbLine
 10
66.13650025145296
 20
181.6447433314781
 30
0.0
 11
66.13650025145296
 21
189.8493054126964
 31
0.0
  0
LINE
  5
281
330
27D
100
AcDbEntity
  8
文字
 62
     0
370
    -2
100
AcDbLine
 10
78.13650025145296
 20
181.6447433314781
 30
0.0
 11
78.13650025145296
 21
189.8493054126964
 31
0.0
  0
LINE
  5
282
330
27D
100
AcDbEntity
  8
文字
 62
     0
370
    -2
100
AcDbLine
 10
69.88650025145296
 20
187.9743054126964
 30
0.0
 11
74.38650025145296
 21
187.9743054126964
 31
0.0
  0
SOLID
  5
283
330
27D
100
AcDbEntity
  8
文字
 62
     0
100
AcDbTrace
 10
69.88650025145296
 20
188.5993054126964
 30
0.0
 11
69.88650025145296
 21
187.3493054126964
 31
0.0
 12
66.13650025145296
 22
187.9743054126964
 32
0.0
 13
66.13650025145296
 23
187.9743054126964
 33
0.0
  0
SOLID
  5
284
330
27D
100
AcDbEntity
  8
文字
 62
     0
100
AcDbTrace
 10
74.38650025145296
 20
187.3493054126964
 30
0.0
 11
74.38650025145296
 21
188.5993054126964
 31
0.0
 12
78.13650025145296
 22
187.9743054126964
 32
0.0
 13
78.13650025145296
 23
187.9743054126964
 33
0.0
  0
MTEXT
  5
285
330
27D
100
AcDbEntity
  8
文字
 62
     0
100
AcDbMText
 10
72.13650025145296
 20
190.7944793553976
 30
0.0
 40
3.75
 41
0.0
 46
0.0
 71
     5
 72
     1
  1
M12
 73
     1
 44
1.0
  0
POINT
  5
286
330
27D
100
AcDbEntity
  8
Defpoints
 62
     0
100
AcDbPoint
 10
66.13650025145296
 20
178.6447433314781
 30
0.0
  0
POINT
  5
287
330
27D
100
AcDbEntity
  8
Defpoints
 62
     0
100
AcDbPoint
 10
78.13650025145296
 20
178.6447433314781
 30
0.0
  0
POINT
  5
288
330
27D
100
AcDbEntity
  8
Defpoints
 62
     0
100
AcDbPoint
 10
78.13650025145296
 20
187.9743054126964
 30
0.0
  0
ENDBLK
  5
27F
330
27D
100
AcDbEntity
  8
0
100
AcDbBlockEnd
  0
BLOCK
  5
28A
330
289
100
AcDbEntity
  8
0
100
AcDbBlockBegin
  2
*D15
 70
     1
 10
0.0
 20
0.0
 30
0.0
  3
*D15
  1
*D16
  0
LINE
  5
28C
330
289
100
AcDbEntity
  8
文字
 62
     0
370
    -2
100
AcDbLine
 10
163.5198562732425
 20
108.6045699489519
 30
0.0
 11
163.5198562732425
 21
73.0546792407191
 31
0.0
  0
LINE
  5
28D
330
289
100
AcDbEntity
  8
文字
 62
     0
370
    -2
100
AcDbLine
 10
182.4858126161216
 20
108.6045699489519
 30
0.0
 11
182.4858126161216
 21
73.0546792407191
 31
0.0
  0
LINE
  5
28E
330
289
100
AcDbEntity
  8
文字
 62
     0
370
    -2
100
AcDbLine
 10
167.2698562732425
 20
74.9296792407191
 30
0.0
 11
178.7358126161216
 21
74.9296792407191
 31
0.0
  0
SOLID
  5
28F
330
289
100
AcDbEntity
  8
文字
 62
     0
100
AcDbTrace
 10
167.2698562732425
 20
75.5546792407191
 30
0.0
 11
167.2698562732425
 21
74.3046792407191
 31
0.0
 12
163.5198562732425
 22
74.9296792407191
 32
0.0
 13
163.5198562732425
 23
74.9296792407191
 33
0.0
  0
SOLID
  5
290
330
289
100
AcDbEntity
  8
文字
 62
     0
100
AcDbTrace
 10
178.7358126161216
 20
74.3046792407191
 30
0.0
 11
178.7358126161216
 21
75.5546792407191
 31
0.0
 12
182.4858126161216
 22
74.9296792407191
 32
0.0
 13
182.4858126161216
 23
74.9296792407191
 33
0.0
  0
MTEXT
  5
291
330
289
100
AcDbEntity
  8
文字
 62
     0
100
AcDbMText
 10
173.002834444682
 20
77.78054895422524
 30
0.0
 40
3.75
 41
0.0
 46
0.0
 71
     5
 72
     1
  1
19
 73
     1
 44
1.0
  0
POINT
  5
292
330
289
100
AcDbEntity
  8
Defpoints
 62
     0
100
AcDbPoint
 10
163.5198562732425
 20
111.6045699489519
 30
0.0
  0
POINT
  5
293
330
289
100
AcDbEntity
  8
Defpoints
 62
     0
100
AcDbPoint
 10
182.4858126161216
 20
111.6045699489519
 30
0.0
  0
POINT
  5
294
330
289
100
AcDbEntity
  8
Defpoints
 62
     0
100
AcDbPoint
 10
182.4858126161216
 20
74.9296792407191
 30
0.0
  0
ENDBLK
  5
28B
330
289
100
AcDbEntity
  8
0
100
AcDbBlockEnd
  0
BLOCK
  5
296
330
295
100
AcDbEntity
  8
0
100
AcDbBlockBegin
  2
*D16
 70
     1
 10
0.0
 20
0.0
 30
0.0
  3
*D16
  1
*D17
  0
LINE
  5
298
330
295
100
AcDbEntity
  8
文字
 62
     0
370
    -2
100
AcDbLine
 10
44.57323372933092
 20
58.70640887307091
 30
0.0
 11
44.57323372933092
 21
31.19648679328292
 31
0.0
  0
LINE
  5
299
330
295
100
AcDbEntity
  8
文字
 62
     0
370
    -2
100
AcDbLine
 10
99.57323319324144
 20
58.71408805480438
 30
0.0
 11
99.57323319324144
 21
31.19648679328292
 31
0.0
  0
LINE
  5
29A
330
295
100
AcDbEntity
  8
文字
 62
     0
370
    -2
100
AcDbLine
 10
48.32323372933092
 20
33.07148679328292
 30
0.0
 11
95.82323319324144
 21
33.07148679328292
 31
0.0
  0
SOLID
  5
29B
330
295
100
AcDbEntity
  8
文字
 62
     0
100
AcDbTrace
 10
48.32323372933092
 20
33.69648679328292
 30
0.0
 11
48.32323372933092
 21
32.44648679328292
 31
0.0
 12
44.57323372933092
 22
33.07148679328292
 32
0.0
 13
44.57323372933092
 23
33.07148679328292
 33
0.0
  0
SOLID
  5
29C
330
295
100
AcDbEntity
  8
文字
 62
     0
100
AcDbTrace
 10
95.82323319324144
 20
32.44648679328292
 30
0.0
 11
95.82323319324144
 21
33.69648679328292
 31
0.0
 12
99.57323319324144
 22
33.07148679328292
 32
0.0
 13
99.57323319324144
 23
33.07148679328292
 33
0.0
  0
MTEXT
  5
29D
330
295
100
AcDbEntity
  8
文字
 62
     0
100
AcDbMText
 10
72.07323346128618
 20
35.98336179328292
 30
0.0
 40
3.75
 41
0.0
 46
0.0
 71
     5
 72
     1
  1
%%c55
 73
     1
 44
1.0
  0
POINT
  5
29E
330
295
100
AcDbEntity
  8
Defpoints
 62
     0
100
AcDbPoint
 10
44.57323372933092
 20
61.70640887307091
 30
0.0
  0
POINT
  5
29F
330
295
100
AcDbEntity
  8
Defpoints
 62
     0
100
AcDbPoint
 10
99.57323319324144
 20
61.71408805480438
 30
0.0
  0
POINT
  5
2A0
330
295
100
AcDbEntity
  8
Defpoints
 62
     0
100
AcDbPoint
 10
99.57323319324144
 20
33.07148679328292
 30
0.0
  0
ENDBLK
  5
297
330
295
100
AcDbEntity
  8
0
100
AcDbBlockEnd
  0
BLOCK
  5
2CA
330
2C9
100
AcDbEntity
  8
0
100
AcDbBlockBegin
  2
*D17
 70
     1
 10
0.0
 20
0.0
 30
0.0
  3
*D17
  1
*D25
  0
LINE
  5
2CB
330
2C9
100
AcDbEntity
  8
文字
 62
     0
370
    -2
100
AcDbLine
 10
3.0
 20
49.99999999999996
 30
0.0
 11
39.45465090719659
 21
49.99999999999996
 31
0.0
  0
LINE
  5
2CC
330
2C9
100
AcDbEntity
  8
文字
 62
     0
370
    -2
100
AcDbLine
 10
7.919720588487074
 20
-0.0000000000000002
 30
0.0
 11
39.45465090719659
 21
-0.0000000000000021
 31
0.0
  0
LINE
  5
2CD
330
2C9
100
AcDbEntity
  8
文字
 62
     0
370
    -2
100
AcDbLine
 10
37.57965090719659
 20
46.24999999999996
 30
0.0
 11
37.57965090719659
 21
3.749999999999998
 31
0.0
  0
SOLID
  5
2CE
330
2C9
100
AcDbEntity
  8
文字
 62
     0
100
AcDbTrace
 10
38.20465090719659
 20
46.24999999999996
 30
0.0
 11
36.95465090719659
 21
46.24999999999996
 31
0.0
 12
37.57965090719659
 22
49.99999999999996
 32
0.0
 13
37.57965090719659
 23
49.99999999999996
 33
0.0
  0
SOLID
  5
2CF
330
2C9
100
AcDbEntity
  8
文字
 62
     0
100
AcDbTrace
 10
36.95465090719659
 20
3.749999999999998
 30
0.0
 11
38.20465090719659
 21
3.749999999999998
 31
0.0
 12
37.57965090719659
 22
-0.000000000000002
 32
0.0
 13
37.57965090719659
 23
-0.000000000000002
 33
0.0
  0
MTEXT
  5
2D0
330
2C9
100
AcDbEntity
  8
文字
 62
     0
100
AcDbMText
 10
34.72878119369045
 20
24.99999999999998
 30
0.0
 40
3.75
 41
0.0
 46
0.0
 71
     5
 72
     1
  1
50
 11
0.0
 21
1.0
 31
0.0
 73
     1
 44
1.0
  0
POINT
  5
2D1
330
2C9
100
AcDbEntity
  8
Defpoints
 62
     0
100
AcDbPoint
 10
0.0
 20
49.99999999999996
 30
0.0
  0
POINT
  5
2D2
330
2C9
100
AcDbEntity
  8
Defpoints
 62
     0
100
AcDbPoint
 10
4.919720588487074
 20
0.0
 30
0.0
  0
POINT
  5
2D3
330
2C9
100
AcDbEntity
  8
Defpoints
 62
     0
100
AcDbPoint
 10
37.57965090719659
 20
-0.000000000000002
 30
0.0
  0
ENDBLK
  5
2D4
330
2C9
100
AcDbEntity
  8
0
100
AcDbBlockEnd
  0
BLOCK
  5
2DC
330
2DB
100
AcDbEntity
  8
0
100
AcDbBlockBegin
  2
*D18
 70
     1
 10
0.0
 20
0.0
 30
0.0
  3
*D18
  1
*D19
  0
LINE
  5
2DE
330
2DB
100
AcDbEntity
  8
文字
 62
     0
370
    -2
100
AcDbLine
 10
78.96322817989892
 20
136.7929257183835
 30
0.0
 11
113.5962367322989
 21
136.7929257183835
 31
0.0
  0
LINE
  5
2DF
330
2DB
100
AcDbEntity
  8
文字
 62
     0
370
    -2
100
AcDbLine
 10
83.882948768386
 20
86.79292571838354
 30
0.0
 11
113.5962367322989
 21
86.79292571838354
 31
0.0
  0
LINE
  5
2E0
330
2DB
100
AcDbEntity
  8
文字
 62
     0
370
    -2
100
AcDbLine
 10
111.7212367322989
 20
133.0429257183835
 30
0.0
 11
111.7212367322989
 21
90.54292571838354
 31
0.0
  0
SOLID
  5
2E1
330
2DB
100
AcDbEntity
  8
文字
 62
     0
100
AcDbTrace
 10
112.3462367322989
 20
133.0429257183835
 30
0.0
 11
111.0962367322989
 21
133.0429257183835
 31
0.0
 12
111.7212367322989
 22
136.7929257183835
 32
0.0
 13
111.7212367322989
 23
136.7929257183835
 33
0.0
  0
SOLID
  5
2E2
330
2DB
100
AcDbEntity
  8
文字
 62
     0
100
AcDbTrace
 10
111.0962367322989
 20
90.54292571838354
 30
0.0
 11
112.3462367322989
 21
90.54292571838354
 31
0.0
 12
111.7212367322989
 22
86.79292571838354
 32
0.0
 13
111.7212367322989
 23
86.79292571838354
 33
0.0
  0
MTEXT
  5
2E3
330
2DB
100
AcDbEntity
  8
文字
 62
     0
100
AcDbMText
 10
108.8703670187928
 20
111.7929257183835
 30
0.0
 40
3.75
 41
0.0
 46
0.0
 71
     5
 72
     1
  1
50
 11
0.0
 21
1.0
 31
0.0
 73
     1
 44
1.0
  0
POINT
  5
2E4
330
2DB
100
AcDbEntity
  8
Defpoints
 62
     0
100
AcDbPoint
 10
75.96322817989892
 20
136.7929257183835
 30
0.0
  0
POINT
  5
2E5
330
2DB
100
AcDbEntity
  8
Defpoints
 62
     0
100
AcDbPoint
 10
80.882948768386
 20
86.79292571838354
 30
0.0
  0
POINT
  5
2E6
330
2DB
100
AcDbEntity
  8
Defpoints
 62
     0
100
AcDbPoint
 10
111.7212367322989
 20
86.79292571838354
 30
0.0
  0
ENDBLK
  5
2DD
330
2DB
100
AcDbEntity
  8
0
100
AcDbBlockEnd
  0
BLOCK
  5
311
330
310
100
AcDbEntity
  8
0
100
AcDbBlockBegin
  2
*D19
 70
     1
 10
0.0
 20
0.0
 30
0.0
  3
*D19
  1
*D23
  0
LINE
  5
312
330
310
100
AcDbEntity
  8
文字
 62
     0
370
    -2
100
AcDbLine
 10
0.0
 20
84.29888778774226
 30
0.0
 11
0.0
 21
96.31007625451095
 31
0.0
  0
LINE
  5
313
330
310
100
AcDbEntity
  8
文字
 62
     0
370
    -2
100
AcDbLine
 10
12.0
 20
84.29888778774226
 30
0.0
 11
12.0
 21
96.31007625451095
 31
0.0
  0
LINE
  5
314
330
310
100
AcDbEntity
  8
文字
 62
     0
370
    -2
100
AcDbLine
 10
3.75
 20
94.43507625451095
 30
0.0
 11
8.25
 21
94.43507625451095
 31
0.0
  0
SOLID
  5
315
330
310
100
AcDbEntity
  8
文字
 62
     0
100
AcDbTrace
 10
3.75
 20
95.06007625451095
 30
0.0
 11
3.75
 21
93.81007625451095
 31
0.0
 12
0.0
 22
94.43507625451095
 32
0.0
 13
0.0
 23
94.43507625451095
 33
0.0
  0
SOLID
  5
316
330
310
100
AcDbEntity
  8
文字
 62
     0
100
AcDbTrace
 10
8.25
 20
93.81007625451095
 30
0.0
 11
8.25
 21
95.06007625451095
 31
0.0
 12
12.0
 22
94.43507625451095
 32
0.0
 13
12.0
 23
94.43507625451095
 33
0.0
  0
MTEXT
  5
317
330
310
100
AcDbEntity
  8
文字
 62
     0
100
AcDbMText
 10
6.0
 20
97.25525019721218
 30
0.0
 40
3.75
 41
0.0
 46
0.0
 71
     5
 72
     1
  1
M12
 73
     1
 44
1.0
  0
POINT
  5
318
330
310
100
AcDbEntity
  8
Defpoints
 62
     0
100
AcDbPoint
 10
0.0
 20
81.29888778774226
 30
0.0
  0
POINT
  5
319
330
310
100
AcDbEntity
  8
Defpoints
 62
     0
100
AcDbPoint
 10
12.0
 20
81.29888778774226
 30
0.0
  0
POINT
  5
31A
330
310
100
AcDbEntity
  8
Defpoints
 62
     0
100
AcDbPoint
 10
12.0
 20
94.43507625451095
 30
0.0
  0
ENDBLK
  5
31B
330
310
100
AcDbEntity
  8
0
100
AcDbBlockEnd
  0
BLOCK
  5
324
330
323
100
AcDbEntity
  8
0
100
AcDbBlockBegin
  2
*D20
 70
     1
 10
0.0
 20
0.0
 30
0.0
  3
*D20
  1
*D25
  0
LINE
  5
325
330
323
100
AcDbEntity
  8
文字
 62
     0
370
    -2
100
AcDbLine
 10
15.0
 20
83.92388778774226
 30
0.0
 11
51.45465090719659
 21
83.92388778774226
 31
0.0
  0
LINE
  5
326
330
323
100
AcDbEntity
  8
文字
 62
     0
370
    -2
100
AcDbLine
 10
19.91972058848707
 20
33.92388778774229
 30
0.0
 11
51.45465090719659
 21
33.92388778774229
 31
0.0
  0
LINE
  5
327
330
323
100
AcDbEntity
  8
文字
 62
     0
370
    -2
100
AcDbLine
 10
49.57965090719659
 20
80.17388778774226
 30
0.0
 11
49.57965090719659
 21
37.67388778774229
 31
0.0
  0
SOLID
  5
328
330
323
100
AcDbEntity
  8
文字
 62
     0
100
AcDbTrace
 10
50.20465090719659
 20
80.17388778774226
 30
0.0
 11
48.95465090719659
 21
80.17388778774226
 31
0.0
 12
49.57965090719659
 22
83.92388778774226
 32
0.0
 13
49.57965090719659
 23
83.92388778774226
 33
0.0
  0
SOLID
  5
329
330
323
100
AcDbEntity
  8
文字
 62
     0
100
AcDbTrace
 10
48.95465090719659
 20
37.67388778774229
 30
0.0
 11
50.20465090719659
 21
37.67388778774229
 31
0.0
 12
49.57965090719659
 22
33.92388778774229
 32
0.0
 13
49.57965090719659
 23
33.92388778774229
 33
0.0
  0
MTEXT
  5
32A
330
323
100
AcDbEntity
  8
文字
 62
     0
100
AcDbMText
 10
46.72878119369044
 20
58.92388778774227
 30
0.0
 40
3.75
 41
0.0
 46
0.0
 71
     5
 72
     1
  1
50
 11
0.0
 21
1.0
 31
0.0
 73
     1
 44
1.0
  0
POINT
  5
32B
330
323
100
AcDbEntity
  8
Defpoints
 62
     0
100
AcDbPoint
 10
12.0
 20
83.92388778774226
 30
0.0
  0
POINT
  5
32C
330
323
100
AcDbEntity
  8
Defpoints
 62
     0
100
AcDbPoint
 10
16.91972058848707
 20
33.92388778774229
 30
0.0
  0
POINT
  5
32D
330
323
100
AcDbEntity
  8
Defpoints
 62
     0
100
AcDbPoint
 10
49.57965090719659
 20
33.92388778774229
 30
0.0
  0
ENDBLK
  5
32E
330
323
100
AcDbEntity
  8
0
100
AcDbBlockEnd
  0
BLOCK
  5
33C
330
33B
100
AcDbEntity
  8
0
100
AcDbBlockBegin
  2
*D21
 70
     1
 10
0.0
 20
0.0
 30
0.0
  3
*D21
  1
*D23
  0
LINE
  5
33E
330
33B
100
AcDbEntity
  8
文字
 62
     0
370
    -2
100
AcDbLine
 10
65.71876332448834
 20
184.6565470654968
 30
0.0
 11
65.71876332448834
 21
196.6677355322655
 31
0.0
  0
LINE
  5
33F
330
33B
100
AcDbEntity
  8
文字
 62
     0
370
    -2
100
AcDbLine
 10
77.71876332448834
 20
184.6565470654968
 30
0.0
 11
77.71876332448834
 21
196.6677355322655
 31
0.0
  0
LINE
  5
340
330
33B
100
AcDbEntity
  8
文字
 62
     0
370
    -2
100
AcDbLine
 10
69.46876332448834
 20
194.7927355322655
 30
0.0
 11
73.96876332448834
 21
194.7927355322655
 31
0.0
  0
SOLID
  5
341
330
33B
100
AcDbEntity
  8
文字
 62
     0
100
AcDbTrace
 10
69.46876332448834
 20
195.4177355322655
 30
0.0
 11
69.46876332448834
 21
194.1677355322655
 31
0.0
 12
65.71876332448834
 22
194.7927355322655
 32
0.0
 13
65.71876332448834
 23
194.7927355322655
 33
0.0
  0
SOLID
  5
342
330
33B
100
AcDbEntity
  8
文字
 62
     0
100
AcDbTrace
 10
73.96876332448834
 20
194.1677355322655
 30
0.0
 11
73.96876332448834
 21
195.4177355322655
 31
0.0
 12
77.71876332448834
 22
194.7927355322655
 32
0.0
 13
77.71876332448834
 23
194.7927355322655
 33
0.0
  0
MTEXT
  5
343
330
33B
100
AcDbEntity
  8
文字
 62
     0
100
AcDbMText
 10
71.71876332448834
 20
197.6129094749667
 30
0.0
 40
3.75
 41
0.0
 46
0.0
 71
     5
 72
     1
  1
M12
 73
     1
 44
1.0
  0
POINT
  5
344
330
33B
100
AcDbEntity
  8
Defpoints
 62
     0
100
AcDbPoint
 10
65.71876332448834
 20
181.6565470654968
 30
0.0
  0
POINT
  5
345
330
33B
100
AcDbEntity
  8
Defpoints
 62
     0
100
AcDbPoint
 10
77.71876332448834
 20
181.6565470654968
 30
0.0
  0
POINT
  5
346
330
33B
100
AcDbEntity
  8
Defpoints
 62
     0
100
AcDbPoint
 10
77.71876332448834
 20
194.7927355322655
 30
0.0
  0
ENDBLK
  5
33D
330
33B
100
AcDbEntity
  8
0
100
AcDbBlockEnd
  0
BLOCK
  5
348
330
347
100
AcDbEntity
  8
0
100
AcDbBlockBegin
  2
*D22
 70
     1
 10
0.0
 20
0.0
 30
0.0
  3
*D22
  1
*D24
  0
LINE
  5
34A
330
347
100
AcDbEntity
  8
文字
 62
     0
370
    -2
100
AcDbLine
 10
80.5723896479724
 20
136.7559849125401
 30
0.0
 11
113.645717983735
 21
136.7559849125401
 31
0.0
  0
LINE
  5
34B
330
347
100
AcDbEntity
  8
文字
 62
     0
370
    -2
100
AcDbLine
 10
85.49211023645947
 20
86.75598491254016
 30
0.0
 11
113.645717983735
 21
86.75598491254016
 31
0.0
  0
LINE
  5
34C
330
347
100
AcDbEntity
  8
文字
 62
     0
370
    -2
100
AcDbLine
 10
111.770717983735
 20
133.0059849125401
 30
0.0
 11
111.770717983735
 21
90.50598491254016
 31
0.0
  0
SOLID
  5
34D
330
347
100
AcDbEntity
  8
文字
 62
     0
100
AcDbTrace
 10
112.395717983735
 20
133.0059849125401
 30
0.0
 11
111.145717983735
 21
133.0059849125401
 31
0.0
 12
111.770717983735
 22
136.7559849125401
 32
0.0
 13
111.770717983735
 23
136.7559849125401
 33
0.0
  0
SOLID
  5
34E
330
347
100
AcDbEntity
  8
文字
 62
     0
100
AcDbTrace
 10
111.145717983735
 20
90.50598491254016
 30
0.0
 11
112.395717983735
 21
90.50598491254016
 31
0.0
 12
111.770717983735
 22
86.75598491254016
 32
0.0
 13
111.770717983735
 23
86.75598491254016
 33
0.0
  0
MTEXT
  5
34F
330
347
100
AcDbEntity
  8
文字
 62
     0
100
AcDbMText
 10
108.9198482702288
 20
111.7559849125401
 30
0.0
 40
3.75
 41
0.0
 46
0.0
 71
     5
 72
     1
  1
50
 11
0.0
 21
1.0
 31
0.0
 73
     1
 44
1.0
  0
POINT
  5
350
330
347
100
AcDbEntity
  8
Defpoints
 62
     0
100
AcDbPoint
 10
77.5723896479724
 20
136.7559849125401
 30
0.0
  0
POINT
  5
351
330
347
100
AcDbEntity
  8
Defpoints
 62
     0
100
AcDbPoint
 10
82.49211023645947
 20
86.75598491254016
 30
0.0
  0
POINT
  5
352
330
347
100
AcDbEntity
  8
Defpoints
 62
     0
100
AcDbPoint
 10
111.770717983735
 20
86.75598491254016
 30
0.0
  0
ENDBLK
  5
349
330
347
100
AcDbEntity
  8
0
100
AcDbBlockEnd
  0
BLOCK
  5
37C
330
37B
100
AcDbEntity
  8
0
100
AcDbBlockBegin
  2
*D23
 70
     1
 10
0.0
 20
0.0
 30
0.0
  3
*D23
  1
*D23
  0
LINE
  5
37D
330
37B
100
AcDbEntity
  8
文字
 62
     0
370
    -2
100
AcDbLine
 10
0.0
 20
100.3749999999999
 30
0.0
 11
0.0
 21
112.3861884667687
 31
0.0
  0
LINE
  5
37E
330
37B
100
AcDbEntity
  8
文字
 62
     0
370
    -2
100
AcDbLine
 10
12.0
 20
100.3749999999999
 30
0.0
 11
12.0
 21
112.3861884667687
 31
0.0
  0
LINE
  5
37F
330
37B
100
AcDbEntity
  8
文字
 62
     0
370
    -2
100
AcDbLine
 10
3.75
 20
110.5111884667687
 30
0.0
 11
8.25
 21
110.5111884667687
 31
0.0
  0
SOLID
  5
380
330
37B
100
AcDbEntity
  8
文字
 62
     0
100
AcDbTrace
 10
3.75
 20
111.1361884667687
 30
0.0
 11
3.75
 21
109.8861884667687
 31
0.0
 12
0.0
 22
110.5111884667687
 32
0.0
 13
0.0
 23
110.5111884667687
 33
0.0
  0
SOLID
  5
381
330
37B
100
AcDbEntity
  8
文字
 62
     0
100
AcDbTrace
 10
8.25
 20
109.8861884667687
 30
0.0
 11
8.25
 21
111.1361884667687
 31
0.0
 12
12.0
 22
110.5111884667687
 32
0.0
 13
12.0
 23
110.5111884667687
 33
0.0
  0
MTEXT
  5
382
330
37B
100
AcDbEntity
  8
文字
 62
     0
100
AcDbMText
 10
6.0
 20
113.3313624094699
 30
0.0
 40
3.75
 41
0.0
 46
0.0
 71
     5
 72
     1
  1
M12
 73
     1
 44
1.0
  0
POINT
  5
383
330
37B
100
AcDbEntity
  8
Defpoints
 62
     0
100
AcDbPoint
 10
0.0
 20
97.37499999999994
 30
0.0
  0
POINT
  5
384
330
37B
100
AcDbEntity
  8
Defpoints
 62
     0
100
AcDbPoint
 10
12.0
 20
97.37499999999994
 30
0.0
  0
POINT
  5
385
330
37B
100
AcDbEntity
  8
Defpoints
 62
     0
100
AcDbPoint
 10
12.0
 20
110.5111884667687
 30
0.0
  0
ENDBLK
  5
386
330
37B
100
AcDbEntity
  8
0
100
AcDbBlockEnd
  0
BLOCK
  5
38B
330
38A
100
AcDbEntity
  8
0
100
AcDbBlockBegin
  2
*D24
 70
     1
 10
0.0
 20
0.0
 30
0.0
  3
*D24
  1
*D25
  0
LINE
  5
38C
330
38A
100
AcDbEntity
  8
文字
 62
     0
370
    -2
100
AcDbLine
 10
15.0
 20
99.99999999999994
 30
0.0
 11
51.45465090719659
 21
99.99999999999994
 31
0.0
  0
LINE
  5
38D
330
38A
100
AcDbEntity
  8
文字
 62
     0
370
    -2
100
AcDbLine
 10
19.91972058848707
 20
-0.0000000000000002
 30
0.0
 11
51.45465090719659
 21
-0.0000000000000021
 31
0.0
  0
LINE
  5
38E
330
38A
100
AcDbEntity
  8
文字
 62
     0
370
    -2
100
AcDbLine
 10
49.57965090719659
 20
96.24999999999994
 30
0.0
 11
49.57965090719659
 21
3.749999999999998
 31
0.0
  0
SOLID
  5
38F
330
38A
100
AcDbEntity
  8
文字
 62
     0
100
AcDbTrace
 10
50.20465090719659
 20
96.24999999999994
 30
0.0
 11
48.95465090719659
 21
96.24999999999994
 31
0.0
 12
49.57965090719659
 22
99.99999999999994
 32
0.0
 13
49.57965090719659
 23
99.99999999999994
 33
0.0
  0
SOLID
  5
390
330
38A
100
AcDbEntity
  8
文字
 62
     0
100
AcDbTrace
 10
48.95465090719659
 20
3.749999999999998
 30
0.0
 11
50.20465090719659
 21
3.749999999999998
 31
0.0
 12
49.57965090719659
 22
-0.000000000000002
 32
0.0
 13
49.57965090719659
 23
-0.000000000000002
 33
0.0
  0
MTEXT
  5
391
330
38A
100
AcDbEntity
  8
文字
 62
     0
100
AcDbMText
 10
46.72878119369045
 20
49.99999999999997
 30
0.0
 40
3.75
 41
0.0
 46
0.0
 71
     5
 72
     1
  1
100
 11
7.105427357601006E-17
 21
1.0
 31
0.0
 73
     1
 44
1.0
  0
POINT
  5
392
330
38A
100
AcDbEntity
  8
Defpoints
 62
     0
100
AcDbPoint
 10
12.0
 20
99.99999999999994
 30
0.0
  0
POINT
  5
393
330
38A
100
AcDbEntity
  8
Defpoints
 62
     0
100
AcDbPoint
 10
16.91972058848707
 20
0.0
 30
0.0
  0
POINT
  5
394
330
38A
100
AcDbEntity
  8
Defpoints
 62
     0
100
AcDbPoint
 10
49.57965090719659
 20
-0.000000000000002
 30
0.0
  0
ENDBLK
  5
395
330
38A
100
AcDbEntity
  8
0
100
AcDbBlockEnd
  0
BLOCK
  5
39F
330
39E
100
AcDbEntity
  8
0
100
AcDbBlockBegin
  2
*D25
 70
     1
 10
0.0
 20
0.0
 30
0.0
  3
*D25
  1
*D26
  0
LINE
  5
3A1
330
39E
100
AcDbEntity
  8
文字
 62
     0
370
    -2
100
AcDbLine
 10
65.57238964797241
 20
187.1679257183835
 30
0.0
 11
65.57238964797241
 21
199.1791141851522
 31
0.0
  0
LINE
  5
3A2
330
39E
100
AcDbEntity
  8
文字
 62
     0
370
    -2
100
AcDbLine
 10
77.57238964797241
 20
187.1679257183835
 30
0.0
 11
77.57238964797241
 21
199.1791141851522
 31
0.0
  0
LINE
  5
3A3
330
39E
100
AcDbEntity
  8
文字
 62
     0
370
    -2
100
AcDbLine
 10
69.32238964797241
 20
197.3041141851522
 30
0.0
 11
73.82238964797241
 21
197.3041141851522
 31
0.0
  0
SOLID
  5
3A4
330
39E
100
AcDbEntity
  8
文字
 62
     0
100
AcDbTrace
 10
69.32238964797241
 20
197.9291141851522
 30
0.0
 11
69.32238964797241
 21
196.6791141851522
 31
0.0
 12
65.57238964797241
 22
197.3041141851522
 32
0.0
 13
65.57238964797241
 23
197.3041141851522
 33
0.0
  0
SOLID
  5
3A5
330
39E
100
AcDbEntity
  8
文字
 62
     0
100
AcDbTrace
 10
73.82238964797241
 20
196.6791141851522
 30
0.0
 11
73.82238964797241
 21
197.9291141851522
 31
0.0
 12
77.57238964797241
 22
197.3041141851522
 32
0.0
 13
77.57238964797241
 23
197.3041141851522
 33
0.0
  0
MTEXT
  5
3A6
330
39E
100
AcDbEntity
  8
文字
 62
     0
100
AcDbMText
 10
71.57238964797241
 20
200.1242881278534
 30
0.0
 40
3.75
 41
0.0
 46
0.0
 71
     5
 72
     1
  1
M12
 73
     1
 44
1.0
  0
POINT
  5
3A7
330
39E
100
AcDbEntity
  8
Defpoints
 62
     0
100
AcDbPoint
 10
65.57238964797241
 20
184.1679257183835
 30
0.0
  0
POINT
  5
3A8
330
39E
100
AcDbEntity
  8
Defpoints
 62
     0
100
AcDbPoint
 10
77.57238964797241
 20
184.1679257183835
 30
0.0
  0
POINT
  5
3A9
330
39E
100
AcDbEntity
  8
Defpoints
 62
     0
100
AcDbPoint
 10
77.57238964797241
 20
197.3041141851522
 30
0.0
  0
ENDBLK
  5
3A0
330
39E
100
AcDbEntity
  8
0
100
AcDbBlockEnd
  0
BLOCK
  5
3AB
330
3AA
100
AcDbEntity
  8
0
100
AcDbBlockBegin
  2
*D26
 70
     1
 10
0.0
 20
0.0
 30
0.0
  3
*D26
  1
*D27
  0
LINE
  5
3AD
330
3AA
100
AcDbEntity
  8
文字
 62
     0
370
    -2
100
AcDbLine
 10
80.57238964797241
 20
186.7929257183835
 30
0.0
 11
113.3947011137828
 21
186.7929257183835
 31
0.0
  0
LINE
  5
3AE
330
3AA
100
AcDbEntity
  8
文字
 62
     0
370
    -2
100
AcDbLine
 10
85.4921102364595
 20
86.79292571838354
 30
0.0
 11
113.3947011137828
 21
86.79292571838354
 31
0.0
  0
LINE
  5
3AF
330
3AA
100
AcDbEntity
  8
文字
 62
     0
370
    -2
100
AcDbLine
 10
111.5197011137828
 20
183.0429257183835
 30
0.0
 11
111.5197011137828
 21
90.54292571838354
 31
0.0
  0
SOLID
  5
3B0
330
3AA
100
AcDbEntity
  8
文字
 62
     0
100
AcDbTrace
 10
112.1447011137828
 20
183.0429257183835
 30
0.0
 11
110.8947011137828
 21
183.0429257183835
 31
0.0
 12
111.5197011137828
 22
186.7929257183835
 32
0.0
 13
111.5197011137828
 23
186.7929257183835
 33
0.0
  0
SOLID
  5
3B1
330
3AA
100
AcDbEntity
  8
文字
 62
     0
100
AcDbTrace
 10
110.8947011137828
 20
90.54292571838354
 30
0.0
 11
112.1447011137828
 21
90.54292571838354
 31
0.0
 12
111.5197011137828
 22
86.79292571838354
 32
0.0
 13
111.5197011137828
 23
86.79292571838354
 33
0.0
  0
MTEXT
  5
3B2
330
3AA
100
AcDbEntity
  8
文字
 62
     0
100
AcDbMText
 10
108.6688314002767
 20
136.7929257183835
 30
0.0
 40
3.75
 41
0.0
 46
0.0
 71
     5
 72
     1
  1
180
 11
0.0
 21
1.0
 31
0.0
 73
     1
 44
1.0
  0
POINT
  5
3B3
330
3AA
100
AcDbEntity
  8
Defpoints
 62
     0
100
AcDbPoint
 10
77.57238964797241
 20
186.7929257183835
 30
0.0
  0
POINT
  5
3B4
330
3AA
100
AcDbEntity
  8
Defpoints
 62
     0
100
AcDbPoint
 10
82.4921102364595
 20
86.79292571838354
 30
0.0
  0
POINT
  5
3B5
330
3AA
100
AcDbEntity
  8
Defpoints
 62
     0
100
AcDbPoint
 10
111.5197011137828
 20
86.79292571838354
 30
0.0
  0
ENDBLK
  5
3AC
330
3AA
100
AcDbEntity
  8
0
100
AcDbBlockEnd
  0
BLOCK
  5
453
330
452
100
AcDbEntity
  8
0
100
AcDbBlockBegin
  2
*D28
 70
     1
 10
0.0
 20
0.0
 30
0.0
  3
*D28
  1
*D10
  0
LINE
  5
454
330
452
100
AcDbEntity
  8
文字
 62
     0
370
    -2
100
AcDbLine
 10
0.0944814289974261
 20
53.25718247579745
 30
0.0
 11
0.0944814289974261
 21
0.0
 31
0.0
  0
LINE
  5
455
330
452
100
AcDbEntity
  8
文字
 62
     0
370
    -2
100
AcDbLine
 10
38.09823636125549
 20
53.08037414467866
 30
0.0
 11
38.09823636125549
 21
0.0
 31
0.0
  0
LINE
  5
456
330
452
100
AcDbEntity
  8
文字
 62
     0
370
    -2
100
AcDbLine
 10
3.844481428997426
 20
1.875
 30
0.0
 11
34.34823636125549
 21
1.875
 31
0.0
  0
SOLID
  5
457
330
452
100
AcDbEntity
  8
文字
 62
     0
100
AcDbTrace
 10
3.844481428997426
 20
2.5
 30
0.0
 11
3.844481428997426
 21
1.25
 31
0.0
 12
0.0944814289974261
 22
1.875
 32
0.0
 13
0.0944814289974261
 23
1.875
 33
0.0
  0
SOLID
  5
458
330
452
100
AcDbEntity
  8
文字
 62
     0
100
AcDbTrace
 10
34.34823636125549
 20
1.25
 30
0.0
 11
34.34823636125549
 21
2.5
 31
0.0
 12
38.09823636125549
 22
1.875
 32
0.0
 13
38.09823636125549
 23
1.875
 33
0.0
  0
MTEXT
  5
459
330
452
100
AcDbEntity
  8
文字
 62
     0
100
AcDbMText
 10
19.34448142899743
 20
4.794375
 30
0.0
 40
3.75
 41
0.0
 46
0.0
 71
     5
 72
     1
  1
%%c38
 73
     1
 44
1.0
  0
POINT
  5
45A
330
452
100
AcDbEntity
  8
Defpoints
 62
     0
100
AcDbPoint
 10
0.0944814289974261
 20
56.25718247579745
 30
0.0
  0
POINT
  5
45B
330
452
100
AcDbEntity
  8
Defpoints
 62
     0
100
AcDbPoint
 10
38.09823636125549
 20
56.08037414467866
 30
0.0
  0
POINT
  5
45C
330
452
100
AcDbEntity
  8
Defpoints
 62
     0
100
AcDbPoint
 10
38.09823636125549
 20
1.875
 30
0.0
  0
ENDBLK
  5
45D
330
452
100
AcDbEntity
  8
0
100
AcDbBlockEnd
  0
BLOCK
  5
465
330
464
100
AcDbEntity
  8
0
100
AcDbBlockBegin
  2
*D29
 70
     1
 10
0.0
 20
0.0
 30
0.0
  3
*D29
  1
*D29
  0
LINE
  5
467
330
464
100
AcDbEntity
  8
文字
 62
     0
370
    -2
100
AcDbLine
 10
154.1706134367764
 20
113.7560674625263
 30
0.0
 11
154.1706134367764
 21
60.49888498672881
 31
0.0
  0
LINE
  5
468
330
464
100
AcDbEntity
  8
文字
 62
     0
370
    -2
100
AcDbLine
 10
192.1743683690345
 20
113.5792591314075
 30
0.0
 11
192.1743683690345
 21
60.49888498672881
 31
0.0
  0
LINE
  5
469
330
464
100
AcDbEntity
  8
文字
 62
     0
370
    -2
100
AcDbLine
 10
157.9206134367764
 20
62.37388498672881
 30
0.0
 11
188.4243683690345
 21
62.37388498672881
 31
0.0
  0
SOLID
  5
46A
330
464
100
AcDbEntity
  8
文字
 62
     0
100
AcDbTrace
 10
157.9206134367764
 20
62.99888498672881
 30
0.0
 11
157.9206134367764
 21
61.74888498672881
 31
0.0
 12
154.1706134367764
 22
62.37388498672881
 32
0.0
 13
154.1706134367764
 23
62.37388498672881
 33
0.0
  0
SOLID
  5
46B
330
464
100
AcDbEntity
  8
文字
 62
     0
100
AcDbTrace
 10
188.4243683690345
 20
61.74888498672881
 30
0.0
 11
188.4243683690345
 21
62.99888498672881
 31
0.0
 12
192.1743683690345
 22
62.37388498672881
 32
0.0
 13
192.1743683690345
 23
62.37388498672881
 33
0.0
  0
MTEXT
  5
46C
330
464
100
AcDbEntity
  8
文字
 62
     0
100
AcDbMText
 10
173.4206134367764
 20
65.29325998672881
 30
0.0
 40
3.75
 41
0.0
 46
0.0
 71
     5
 72
     1
  1
%%c38
 73
     1
 44
1.0
  0
POINT
  5
46D
330
464
100
AcDbEntity
  8
Defpoints
 62
     0
100
AcDbPoint
 10
154.1706134367764
 20
116.7560674625263
 30
0.0
  0
POINT
  5
46E
330
464
100
AcDbEntity
  8
Defpoints
 62
     0
100
AcDbPoint
 10
192.1743683690345
 20
116.5792591314075
 30
0.0
  0
POINT
  5
46F
330
464
100
AcDbEntity
  8
Defpoints
 62
     0
100
AcDbPoint
 10
192.1743683690345
 20
62.37388498672881
 30
0.0
  0
ENDBLK
  5
466
330
464
100
AcDbEntity
  8
0
100
AcDbBlockEnd
  0
ENDSEC
  0
SECTION
  2
ENTITIES
  0
LWPOLYLINE
  5
1FB
330
1F
100
AcDbEntity
  8
実線
370
    20
100
AcDbPolyline
 90
        4
 70
     0
 43
0.0
 10
82.91322817989897
 20
80.79292571838354
 10
82.91322817989897
 20
86.79292571838354
 10
61.01322817989887
 20
86.79292571838354
 10
61.01322817989887
 20
80.79292571838354
  0
LINE
  5
1FC
330
1F
100
AcDbEntity
  8
実線
370
    20
100
AcDbLine
 10
77.91322817989897
 20
86.79292571838354
 30
0.0
 11
77.91322817989897
 21
79.79292571838353
 31
0.0
  0
LINE
  5
1FD
330
1F
100
AcDbEntity
  8
実線
370
    20
100
AcDbLine
 10
66.01322817989887
 20
86.79292571838354
 30
0.0
 11
66.01322817989887
 21
79.79292571838354
 31
0.0
  0
LINE
  5
1FE
330
1F
100
AcDbEntity
  8
実線
370
    20
100
AcDbLine
 10
82.91322817989897
 20
79.79292571838354
 30
0.0
 11
82.91322817989897
 21
80.79292571838354
 31
0.0
  0
LINE
  5
1FF
330
1F
100
AcDbEntity
  8
実線
370
    20
100
AcDbLine
 10
82.91322817989897
 20
80.79292571838354
 30
0.0
 11
82.91322817989897
 21
79.79292571838354
 31
0.0
  0
LINE
  5
200
330
1F
100
AcDbEntity
  8
実線
370
    20
100
AcDbLine
 10
61.01322817989887
 20
80.79292571838354
 30
0.0
 11
61.01322817989887
 21
79.79292571838354
 31
0.0
  0
LWPOLYLINE
  5
201
330
1F
100
AcDbEntity
  8
実線
370
    20
100
AcDbPolyline
 90
        6
 70
     1
 43
0.0
 10
163.5198562732425
 20
111.6045699489519
 10
173.002834444682
 20
106.1295699489519
 10
182.4858126161216
 20
111.6045699489519
 10
182.4858126161216
 20
122.5545699489519
 10
173.002834444682
 20
128.0295699489519
 10
163.5198562732425
 20
122.5545699489519
  0
CIRCLE
  5
202
330
1F
100
AcDbEntity
  8
実線
370
    20
100
AcDbCircle
 10
173.002834444682
 20
117.0795699489519
 30
0.0
 40
6.0
  0
CIRCLE
  5
203
330
1F
100
AcDbEntity
  8
実線
370
    20
100
AcDbCircle
 10
173.002834444682
 20
117.0795699489519
 30
0.0
 40
5.15
  0
LWPOLYLINE
  5
208
330
1F
100
AcDbEntity
  8
実線
370
    20
100
AcDbPolyline
 90
        4
 70
     0
 43
0.0
 10
82.91322817989897
 20
80.79292571838354
 10
82.91322817989897
 20
86.79292571838354
 10
61.01322817989887
 20
86.79292571838354
 10
61.01322817989887
 20
80.79292571838354
  0
LINE
  5
209
330
1F
100
AcDbEntity
  8
実線
370
    20
100
AcDbLine
 10
77.91322817989897
 20
86.79292571838354
 30
0.0
 11
77.91322817989897
 21
79.79292571838353
 31
0.0
  0
LINE
  5
20A
330
1F
100
AcDbEntity
  8
実線
370
    20
100
AcDbLine
 10
66.01322817989887
 20
86.79292571838354
 30
0.0
 11
66.01322817989887
 21
79.79292571838354
 31
0.0
  0
ARC
  5
20B
330
1F
100
AcDbEntity
  8
実線
370
    20
100
AcDbCircle
 10
63.51322817989887
 20
82.91369005616832
 30
0.0
 40
3.998646027343397
100
AcDbArc
 50
231.3022777913621
 51
308.6977222086379
  0
ARC
  5
20C
330
1F
100
AcDbEntity
  8
実線
370
    20
100
AcDbCircle
 10
80.41322817989897
 20
82.91369005616825
 30
0.0
 40
3.998646027343336
100
AcDbArc
 50
231.3022777913594
 51
308.6977222086406
  0
LINE
  5
20D
330
1F
100
AcDbEntity
  8
実線
370
    20
100
AcDbLine
 10
82.91322817989897
 20
79.79292571838354
 30
0.0
 11
82.91322817989897
 21
80.79292571838354
 31
0.0
  0
LINE
  5
20E
330
1F
100
AcDbEntity
  8
実線
370
    20
100
AcDbLine
 10
82.91322817989897
 20
80.79292571838354
 30
0.0
 11
82.91322817989897
 21
79.79292571838354
 31
0.0
  0
LINE
  5
20F
330
1F
100
AcDbEntity
  8
実線
370
    20
100
AcDbLine
 10
61.01322817989887
 20
80.79292571838354
 30
0.0
 11
61.01322817989887
 21
79.79292571838354
 31
0.0
  0
LWPOLYLINE
  5
210
102
{ACAD_REACTORS
330
23B
102
}
330
1F
100
AcDbEntity
  8
実線
370
    20
100
AcDbPolyline
 90
        6
 70
     1
 43
0.0
 10
163.5198562732425
 20
111.6045699489519
 10
173.002834444682
 20
106.1295699489519
 10
182.4858126161216
 20
111.6045699489519
 10
182.4858126161216
 20
122.5545699489519
 10
173.002834444682
 20
128.0295699489519
 10
163.5198562732425
 20
122.5545699489519
  0
CIRCLE
  5
211
330
1F
100
AcDbEntity
  8
実線
370
    20
100
AcDbCircle
 10
173.002834444682
 20
117.0795699489519
 30
0.0
 40
6.0
  0
CIRCLE
  5
212
330
1F
100
AcDbEntity
  8
実線
370
    20
100
AcDbCircle
 10
173.002834444682
 20
117.0795699489519
 30
0.0
 40
5.15
  0
LINE
  5
213
102
{ACAD_REACTORS
330
22F
330
232
102
}
330
1F
100
AcDbEntity
  8
実線
370
    20
100
AcDbLine
 10
63.51322817989887
 20
78.91504402882491
 30
0.0
 11
79.36923809788448
 21
78.91504402882491
 31
0.0
  0
ARC
  5
214
330
1F
100
AcDbEntity
  8
実線
370
    20
100
AcDbCircle
 10
71.96322817989892
 20
99.5170567193317
 30
0.0
 40
20.60203494178584
100
AcDbArc
 50
253.2134882526886
 51
286.7865117473114
  0
LINE
  5
21A
330
1F
100
AcDbEntity
  8
中心線
 62
     0
100
AcDbLine
 10
173.002834444682
 20
152.0795699489519
 30
0.0
 11
173.002834444682
 21
86.37775179928735
 31
0.0
  0
LINE
  5
21B
330
1F
100
AcDbEntity
  8
中心線
 62
     0
100
AcDbLine
 10
132.273797245112
 20
117.0795699489519
 30
0.0
 11
213.2575656678074
 21
117.0795699489519
 31
0.0
  0
LINE
  5
21C
330
1F
100
AcDbEntity
  8
文字
 62
     0
100
AcDbLine
 10
44.57323372933092
 20
61.70640887307091
 30
0.0
 11
52.8654713663916
 21
61.70756664762381
 31
0.0
  0
LINE
  5
21D
330
1F
100
AcDbEntity
  8
文字
 62
     0
100
AcDbLine
 10
44.57295448635875
 20
63.70640885357669
 30
0.0
 11
52.86519212341955
 21
63.70756662812958
 31
0.0
  0
ARC
  5
21E
330
1F
100
AcDbEntity
  8
文字
 62
     0
100
AcDbCircle
 10
72.46224622754096
 20
61.71450691926269
 30
0.0
 40
18.0
100
AcDbArc
 50
107.1404098325617
 51
168.4833327516203
  0
ARC
  5
21F
330
1F
100
AcDbEntity
  8
文字
 62
     0
100
AcDbCircle
 10
52.86491288044738
 20
65.70756660863547
 30
0.0
 40
2.0
100
AcDbArc
 50
270.0079997219048
 51
348.4833327516203
  0
ARC
  5
220
102
{ACAD_REACTORS
330
22F
330
232
102
}
330
1F
100
AcDbEntity
  8
文字
 62
     0
100
AcDbCircle
 10
71.68421952105462
 20
61.71439829001666
 30
0.0
 40
18.0
100
AcDbArc
 50
11.53266669219359
 51
72.86076346999266
  0
ARC
  5
221
330
1F
100
AcDbEntity
  8
文字
 62
     0
100
AcDbCircle
 10
91.28043707023642
 20
65.71293024126292
 30
0.0
 40
2.0
100
AcDbArc
 50
191.5326666921935
 51
270.0079997219048
  0
LINE
  5
222
102
{ACAD_REACTORS
330
23E
102
}
330
1F
100
AcDbEntity
  8
文字
 62
     0
100
AcDbLine
 10
44.57323372933092
 20
61.70640887307091
 30
0.0
 11
44.57295448635875
 21
63.70640885357669
 31
0.0
  0
LINE
  5
223
102
{ACAD_REACTORS
102
}
330
1F
100
AcDbEntity
  8
文字
 62
     0
100
AcDbLine
 10
99.57323319324144
 20
61.71408805480438
 30
0.0
 11
99.57295395026938
 21
63.71408803531016
 31
0.0
  0
CIRCLE
  5
224
330
1F
100
AcDbEntity
  8
文字
 62
     0
100
AcDbCircle
 10
173.002834444682
 20
117.0795699489518
 30
0.0
 40
27.5
  0
LINE
  5
229
102
{ACAD_REACTORS
330
22F
330
23E
102
}
330
1F
100
AcDbEntity
  8
文字
 62
     0
100
AcDbLine
 10
91.28099555618076
 20
61.71293028025137
 30
0.0
 11
99.57323319324144
 21
61.71408805480438
 31
0.0
  0
LINE
  5
22A
330
1F
100
AcDbEntity
  8
文字
 62
     0
100
AcDbLine
 10
91.28071631320859
 20
63.71293026075715
 30
0.0
 11
99.57295395026938
 21
63.71408803531016
 31
0.0
  0
LINE
  5
22B
330
1F
100
AcDbEntity
  8
文字
 62
     0
100
AcDbLine
 10
52.8654713663916
 20
61.70756664762381
 30
0.0
 11
91.28099555618076
 21
61.70756664762379
 31
0.0
  0
LINE
  5
22C
330
1F
100
AcDbEntity
  8
文字
 62
     0
100
AcDbLine
 10
52.86519212341943
 20
63.70756662812958
 30
0.0
 11
91.28071631320847
 21
63.71293026075709
 31
0.0
  0
DIMENSION
  5
22D
102
{ACAD_REACTORS
330
22F
102
}
102
{ACAD_XDICTIONARY
360
22E
102
}
330
1F
100
AcDbEntity
  8
文字
 62
     0
100
AcDbDimension
280
     0
  2
*D11
 10
111.8439076273309
 20
78.91504402882491
 30
0.0
 11
108.9930379138247
 21
70.31456604181464
 31
0.0
 70
    32
  1
18
 71
     5
 42
17.20095597402053
 73
     0
 74
     0
 75
     0
  3
ISO-25
100
AcDbAlignedDimension
 13
99.57323319324144
 23
61.71408805480438
 33
0.0
 14
66.37971330765288
 24
78.91504402882491
 34
0.0
 50
90.0
100
AcDbRotatedDimension
  0
DIMENSION
  5
230
102
{ACAD_REACTORS
330
232
102
}
102
{ACAD_XDICTIONARY
360
231
102
}
330
1F
100
AcDbEntity
  8
文字
 62
     0
100
AcDbDimension
280
     0
  2
*D12
 10
111.6706355557768
 20
86.79292571838354
 30
0.0
 11
108.8197658422707
 21
82.85398487360422
 31
0.0
 70
    32
  1
8
 71
     5
 42
7.877881689558635
 73
     0
 74
     0
 75
     0
  3
ISO-25
100
AcDbAlignedDimension
 13
66.37971330765288
 23
78.91504402882491
 33
0.0
 14
77.96322817989892
 24
86.79292571838354
 34
0.0
 50
90.0
100
AcDbRotatedDimension
  0
DIMENSION
  5
239
102
{ACAD_REACTORS
330
23B
102
}
102
{ACAD_XDICTIONARY
360
23A
102
}
330
1F
100
AcDbEntity
  8
文字
 62
     0
100
AcDbDimension
280
     0
  2
*D15
 10
182.4858126161216
 20
74.9296792407191
 30
0.0
 11
173.002834444682
 21
77.78054895422524
 31
0.0
 70
    32
  1
19
 71
     5
 42
18.96595634287917
 73
     0
 74
     0
 75
     0
  3
ISO-25
100
AcDbAlignedDimension
 13
163.5198562732425
 23
111.6045699489519
 33
0.0
 14
182.4858126161216
 24
111.6045699489519
 34
0.0
100
AcDbRotatedDimension
  0
DIMENSION
  5
23C
102
{ACAD_REACTORS
330
23E
102
}
102
{ACAD_XDICTIONARY
360
23D
102
}
330
1F
100
AcDbEntity
  8
文字
 62
     0
100
AcDbDimension
280
     0
  2
*D16
 10
99.57323319324144
 20
33.07148679328292
 30
0.0
 11
72.07323346128618
 21
35.98336179328292
 31
0.0
 70
    32
  1
%%c<>
 71
     5
 42
54.99999946391051
 73
     0
 74
     0
 75
     0
  3
ISO-25
100
AcDbAlignedDimension
 13
44.57323372933092
 23
61.70640887307091
 33
0.0
 14
99.57323319324144
 24
61.71408805480438
 34
0.0
100
AcDbRotatedDimension
  0
LINE
  5
332
330
1F
100
AcDbEntity
  8
実線
370
    20
100
AcDbLine
 10
65.5723896479724
 20
185.3240270469579
 30
0.0
 11
77.5723896479724
 21
185.3240270469579
 31
0.0
  0
DIMENSION
  5
333
330
1F
100
AcDbEntity
  8
文字
 62
     0
100
AcDbDimension
280
     0
  2
*D21
 10
77.71876332448834
 20
194.7927355322655
 30
0.0
 11
71.71876332448834
 21
197.6129094749667
 31
0.0
 70
    32
  1
M<>
 71
     5
 42
12.0
 73
     0
 74
     0
 75
     0
  3
ISO-25
100
AcDbAlignedDimension
 13
65.71876332448834
 23
181.6565470654968
 33
0.0
 14
77.71876332448834
 24
181.6565470654968
 34
0.0
100
AcDbRotatedDimension
  0
LINE
  5
337
330
1F
100
AcDbEntity
  8
中心線
 62
     0
100
AcDbLine
 10
71.57238964797241
 20
52.83209712479787
 30
0.0
 11
71.57238964797244
 21
205.0894955573566
 31
0.0
  0
DIMENSION
  5
39B
102
{ACAD_XDICTIONARY
360
39C
102
}
330
1F
100
AcDbEntity
  8
文字
 62
     0
100
AcDbDimension
280
     0
  2
*D26
 10
111.5197011137828
 20
86.79292571838354
 30
0.0
 11
108.6688314002767
 21
136.7929257183835
 31
0.0
 70
    32
  1
180
 71
     5
 42
99.99999999999994
 73
     0
 74
     0
 75
     0
  3
ISO-25
100
AcDbAlignedDimension
 13
77.57238964797241
 23
186.7929257183835
 33
0.0
 14
82.4921102364595
 24
86.79292571838354
 34
0.0
 50
90.0
100
AcDbRotatedDimension
  0
LINE
  5
3EC
330
1F
100
AcDbEntity
  8
文字
 62
     0
100
AcDbLine
 10
82.20298666520404
 20
146.9173177234868
 30
0.0
 11
61.2239886835301
 21
132.2018538343208
 31
0.0
  0
LINE
  5
3ED
330
1F
100
AcDbEntity
  8
文字
 62
     0
100
AcDbLine
 10
82.20298666520404
 20
143.5667382771323
 30
0.0
 11
61.2239886835301
 21
128.8512743879662
 31
0.0
  0
LWPOLYLINE
  5
3EE
330
1F
100
AcDbEntity
  8
実線
100
AcDbPolyline
 90
        6
 70
     0
 43
0.0
 10
77.79378808150369
 20
143.8245388121545
 10
77.79378808150369
 20
185.3530167263681
 10
75.79378808150369
 20
187.3530167263681
 10
67.79378808150365
 20
187.3530167263681
 10
65.79378808150365
 20
185.3530167263681
 10
65.79378808150366
 20
135.4072842404992
  0
LINE
  5
3EF
330
1F
100
AcDbEntity
  8
実線
370
    20
100
AcDbLine
 10
75.79378808150369
 20
187.3530167263681
 30
0.0
 11
75.79378808150369
 21
142.4216630502119
 31
0.0
  0
LINE
  5
3F0
330
1F
100
AcDbEntity
  8
実線
370
    20
100
AcDbLine
 10
67.79378808150365
 20
187.3530167263681
 30
0.0
 11
67.79378808150365
 21
136.8101600024417
 31
0.0
  0
LINE
  5
3F1
330
1F
100
AcDbEntity
  8
実線
370
    20
100
AcDbLine
 10
67.79378808150365
 20
133.4595805560872
 30
0.0
 11
67.79378808150365
 21
98.53316735352524
 31
0.0
  0
LWPOLYLINE
  5
3F2
330
1F
100
AcDbEntity
  8
実線
100
AcDbPolyline
 90
        2
 70
     0
 43
0.0
 10
65.79378808150366
 20
132.0567047941446
 10
65.79378808150366
 20
98.53316735352524
  0
LINE
  5
3F3
330
1F
100
AcDbEntity
  8
実線
370
    20
100
AcDbLine
 10
75.79378808150369
 20
139.0710836038574
 30
0.0
 11
75.79378808150369
 21
98.53316735352524
 31
0.0
  0
LWPOLYLINE
  5
3F4
330
1F
100
AcDbEntity
  8
実線
100
AcDbPolyline
 90
        2
 70
     0
 43
0.0
 10
77.79378808150366
 20
98.53316735352524
 10
77.79378808150369
 20
140.4739593657999
  0
LWPOLYLINE
  5
3F5
330
1F
100
AcDbEntity
  8
実線
100
AcDbPolyline
 90
        2
 70
     0
 43
0.0
 10
77.91322817989897
 20
86.79292571838354
 10
77.79378808150366
 20
98.53316735352524
  0
LINE
  5
3F6
330
1F
100
AcDbEntity
  8
実線
370
    20
100
AcDbLine
 10
75.79378808150369
 20
98.53316735352524
 30
0.0
 11
75.79378808150369
 21
86.79292571838354
 31
0.0
  0
LINE
  5
3F7
330
1F
100
AcDbEntity
  8
実線
370
    20
100
AcDbLine
 10
67.79378808150365
 20
98.53316735352524
 30
0.0
 11
67.79378808150365
 21
86.79292571838354
 31
0.0
  0
LWPOLYLINE
  5
3F8
330
1F
100
AcDbEntity
  8
実線
100
AcDbPolyline
 90
        2
 70
     0
 43
0.0
 10
65.79378808150366
 20
98.53316735352524
 10
65.79378808150366
 20
86.79292571838354
  0
MTEXT
  5
428
330
1F
100
AcDbEntity
  8
文字・寸法線
 62
     0
100
AcDbMText
 10
94.83574552483742
 20
219.8294610956297
 30
0.0
 40
6.253597500335223
 41
0.0
 46
6.253597500335223
 71
     9
 72
     1
  1
{S-X M12X180}
 73
     1
 44
1.0
1001
ACAD
1000
ACAD_MTEXT_DEFINED_HEIGHT_BEGIN
1070
    46
1040
6.253597500335223
1000
ACAD_MTEXT_DEFINED_HEIGHT_END
  0
DIMENSION
  5
462
330
1F
100
AcDbEntity
  8
文字
 62
     0
100
AcDbDimension
280
     0
  2
*D29
 10
192.1743683690345
 20
62.37388498672881
 30
0.0
 11
173.4206134367764
 21
62.37388498672881
 31
0.0
 70
   160
  1
%%c<>
 71
     5
 42
38.00375493225806
 73
     0
 74
     0
 75
     0
  3
ISO-25
100
AcDbAlignedDimension
 13
154.1706134367764
 23
116.7560674625263
 33
0.0
 14
192.1743683690345
 24
116.5792591314075
 34
0.0
100
AcDbRotatedDimension
  0
CIRCLE
  5
463
330
1F
100
AcDbEntity
  8
文字
 62
     0
100
AcDbCircle
 10
173.1577453492137
 20
116.6517500124208
 30
0.0
 40
19.0816133414347
  0
ENDSEC
  0
SECTION
  2
OBJECTS
  0
DICTIONARY
  5
C
330
0
100
AcDbDictionary
281
     1
  3
ACAD_COLOR
350
73
  3
ACAD_DETAILVIEWSTYLE
350
122
  3
ACAD_GROUP
350
D
  3
ACAD_IMAGE_VARS
350
DC
  3
ACAD_LAYOUT
350
1A
  3
ACAD_MATERIAL
350
72
  3
ACAD_MLEADERSTYLE
350
B5
  3
ACAD_MLINESTYLE
350
17
  3
ACAD_PLOTSETTINGS
350
19
  3
ACAD_PLOTSTYLENAME
350
E
  3
ACAD_SCALELIST
350
B6
  3
ACAD_SECTIONVIEWSTYLE
350
123
  3
ACAD_TABLESTYLE
350
86
  3
ACAD_VISUALSTYLE
350
99
  3
ACDB_RECOMPOSE_DATA
350
472
  3
AcDbVariableDictionary
350
66
  3
APPDATA
350
E1
  0
SUN
  5
ED
330
94
100
AcDbSun
 90
        1
290
     0
 63
     7
421
 16777215
 40
1.0
291
     1
 91
  2455826
 92
 54000000
292
     0
 70
     2
 71
   256
280
     1
  0
DICTIONARY
  5
127
330
126
100
AcDbDictionary
280
     1
281
     1
  3
ADSK_XREC_LAYER_RECONCILED
360
128
  0
DICTIONARY
  5
12B
330
12A
100
AcDbDictionary
280
     1
281
     1
  3
ADSK_XREC_LAYER_RECONCILED
360
12C
  0
DICTIONARY
  5
12F
330
12E
100
AcDbDictionary
280
     1
281
     1
  3
ADSK_XREC_LAYER_RECONCILED
360
130
  0
DICTIONARY
  5
22E
330
22D
100
AcDbDictionary
280
     1
281
     1
  3
ACAD_DIMASSOC
360
22F
  0
DICTIONARY
  5
231
330
230
100
AcDbDictionary
280
     1
281
     1
  3
ACAD_DIMASSOC
360
232
  0
DICTIONARY
  5
23A
330
239
100
AcDbDictionary
280
     1
281
     1
  3
ACAD_DIMASSOC
360
23B
  0
DICTIONARY
  5
23D
330
23C
100
AcDbDictionary
280
     1
281
     1
  3
ACAD_DIMASSOC
360
23E
  0
DICTIONARY
  5
39C
330
39B
100
AcDbDictionary
280
     1
281
     1
  0
DICTIONARY
  5
73
102
{ACAD_REACTORS
330
C
102
}
330
C
100
AcDbDictionary
281
     1
  0
DICTIONARY
  5
122
102
{ACAD_REACTORS
330
C
102
}
330
C
100
AcDbDictionary
281
     1
  0
DICTIONARY
  5
D
102
{ACAD_REACTORS
330
C
102
}
330
C
100
AcDbDictionary
281
     1
  0
RASTERVARIABLES
  5
DC
102
{ACAD_REACTORS
330
C
102
}
330
C
100
AcDbRasterVariables
 90
        0
 70
     1
 71
     1
 72
     5
  0
DICTIONARY
  5
1A
102
{ACAD_REACTORS
330
C
102
}
330
C
100
AcDbDictionary
281
     1
  3
Model
350
22
  3
Sheet1
350
59
  3
Sheet2
350
5E
  0
DICTIONARY
  5
72
102
{ACAD_REACTORS
330
C
102
}
330
C
100
AcDbDictionary
281
     1
  3
ByBlock
350
E2
  3
ByLayer
350
96
  3
Global
350
98
  0
DICTIONARY
  5
B5
102
{ACAD_REACTORS
330
C
102
}
330
C
100
AcDbDictionary
281
     1
  0
DICTIONARY
  5
17
102
{ACAD_REACTORS
330
C
102
}
330
C
100
AcDbDictionary
281
     1
  3
Standard
350
18
  0
DICTIONARY
  5
19
102
{ACAD_REACTORS
330
C
102
}
330
C
100
AcDbDictionary
281
     1
  0
ACDBDICTIONARYWDFLT
  5
E
102
{ACAD_REACTORS
330
C
102
}
330
C
100
AcDbDictionary
281
     1
  3
Normal
350
F
100
AcDbDictionaryWithDefault
340
F
  0
DICTIONARY
  5
B6
102
{ACAD_REACTORS
330
C
102
}
330
C
100
AcDbDictionary
281
     1
  3
A0
350
B7
  3
A1
350
B8
  3
A2
350
B9
  3
A3
350
BA
  3
A4
350
BB
  3
A5
350
BC
  3
A6
350
BD
  3
A7
350
BE
  3
A8
350
BF
  3
A9
350
C0
  3
B0
350
C1
  3
B1
350
C2
  3
B2
350
C3
  3
B3
350
C4
  3
B4
350
C5
  3
B5
350
C6
  3
B6
350
C7
  3
B7
350
C8
  3
B8
350
C9
  3
B9
350
CA
  3
C0
350
CB
  3
C1
350
CC
  3
C2
350
CD
  3
C3
350
CE
  3
C4
350
CF
  3
C5
350
D0
  3
C6
350
D1
  3
C7
350
D2
  3
C8
350
D3
  3
C9
350
D4
  3
D0
350
D5
  3
D1
350
D6
  3
D2
350
D7
  0
DICTIONARY
  5
123
102
{ACAD_REACTORS
330
C
102
}
330
C
100
AcDbDictionary
281
     1
  0
DICTIONARY
  5
86
102
{ACAD_REACTORS
330
C
102
}
330
C
100
AcDbDictionary
281
     1
  3
Standard
350
87
  0
DICTIONARY
  5
99
102
{ACAD_REACTORS
330
C
102
}
330
C
100
AcDbDictionary
281
     1
  3
2dWireframe
350
9F
  3
3D Hidden
350
A1
  3
3dWireframe
350
A0
  3
Basic
350
9E
  3
Brighten
350
A5
  3
ColorChange
350
A9
  3
Conceptual
350
A2
  3
Dim
350
A4
  3
EdgeColorOff
350
E7
  3
Facepattern
350
A8
  3
Flat
350
9A
  3
FlatWithEdges
350
9B
  3
Gouraud
350
9C
  3
GouraudWithEdges
350
9D
  3
Hidden
350
E4
  3
JitterOff
350
E5
  3
Linepattern
350
A7
  3
OverhangOff
350
E6
  3
Realistic
350
A3
  3
Shaded
350
EC
  3
Shaded with edges
350
EB
  3
Shades of Gray
350
E8
  3
Sketchy
350
E9
  3
Thicken
350
A6
  3
Wireframe
350
E3
  3
X-Ray
350
EA
  0
XRECORD
  5
472
102
{ACAD_REACTORS
330
C
102
}
330
C
100
AcDbXrecord
280
     1
 90
        1
330
87
  0
DICTIONARY
  5
66
102
{ACAD_REACTORS
330
C
102
}
330
C
100
AcDbDictionary
281
     1
  3
CANNOSCALE
350
D8
  3
CTABLESTYLE
350
89
  3
DIMASSOC
350
67
  3
HIDETEXT
350
6B
  3
LIGHTSINBLOCKS
350
DF
  3
XCLIPFRAME
350
E0
  0
DICTIONARY
  5
E1
102
{ACAD_REACTORS
330
C
102
}
330
C
100
AcDbDictionary
281
     1
  0
XRECORD
  5
128
102
{ACAD_REACTORS
330
127
102
}
330
127
100
AcDbXrecord
280
     1
290
     1
  0
XRECORD
  5
12C
102
{ACAD_REACTORS
330
12B
102
}
330
12B
100
AcDbXrecord
280
     1
290
     1
  0
XRECORD
  5
130
102
{ACAD_REACTORS
330
12F
102
}
330
12F
100
AcDbXrecord
280
     1
290
     1
  0
DIMASSOC
  5
22F
102
{ACAD_REACTORS
330
22E
102
}
330
22E
100
AcDbDimAssoc
330
22D
 90
        3
 70
     0
 71
     0
  1
AcDbOsnapPointRef
 72
     1
331
229
 73
     2
 91
        0
 40
0.9999999999999998
 10
0.0
 20
0.0
 30
2.000000000000000E+50
 75
     0
  1
AcDbOsnapPointRef
 72
     6
331
213
 73
     2
 91
        0
 40
0.5040718441915149
 10
0.0
 20
0.0
 30
0.0
332
220
 74
     2
 92
        0
 75
     0
  0
DIMASSOC
  5
232
102
{ACAD_REACTORS
330
231
102
}
330
231
100
AcDbDimAssoc
330
230
 90
        1
 70
     0
 71
     0
  1
AcDbOsnapPointRef
 72
     6
331
213
 73
     2
 91
        0
 40
0.5040718441915149
 10
0.0
 20
0.0
 30
0.0
332
220
 74
     2
 92
        0
 75
     0
  0
DIMASSOC
  5
23B
102
{ACAD_REACTORS
330
23A
102
}
330
23A
100
AcDbDimAssoc
330
239
 90
        3
 70
     0
 71
     0
  1
AcDbOsnapPointRef
 72
    13
331
210
 73
     2
 91
        1
 40
0.0
 10
0.0
 20
0.0
 30
2.000000000000000E+50
 75
     0
  1
AcDbOsnapPointRef
 72
     1
331
210
 73
     2
 91
        2
 40
1.0
 10
0.0
 20
0.0
 30
2.000000000000000E+50
 75
     0
  0
DIMASSOC
  5
23E
102
{ACAD_REACTORS
330
23D
102
}
330
23D
100
AcDbDimAssoc
330
23C
 90
        3
 70
     0
 71
     0
  1
AcDbOsnapPointRef
 72
    13
331
222
 73
     2
 91
        0
 40
0.0
 10
0.0
 20
0.0
 30
2.000000000000000E+50
 75
     0
  1
AcDbOsnapPointRef
 72
     1
331
229
 73
     2
 91
        0
 40
0.9999999999999998
 10
0.0
 20
0.0
 30
2.000000000000000E+50
 75
     0
  0
LAYOUT
  5
22
102
{ACAD_REACTORS
330
1A
102
}
330
1A
100
AcDbPlotSettings
  1

  2
none_device
  4
ANSI_A_(8.50_x_11.00_Inches)
  6

 40
6.35
 41
19.05
 42
6.35
 43
19.05
 44
215.9
 45
279.4
 46
11.11250000000003
 47
0.0000000000000142
 48
0.0
 49
0.0
140
0.0
141
0.0
142
1.0
143
1.263157894736842
 70
 11444
 72
     0
 73
     1
 74
     1
  7
monochrome.ctb
 75
     0
 76
     0
 77
     2
 78
   300
147
0.7916666666666665
148
-702.8076765758875
149
-496.2830551296954
100
AcDbLayout
  1
Model
 70
     1
 71
     0
 10
0.0
 20
0.0
 11
12.0
 21
9.0
 12
0.0
 22
0.0
 32
0.0
 14
41.31745811696858
 24
31.19648679328292
 34
0.0
 15
213.2575656678074
 25
226.2956809109763
 35
0.0
146
0.0
 13
0.0
 23
0.0
 33
0.0
 16
1.0
 26
0.0
 36
0.0
 17
0.0
 27
1.0
 37
0.0
 76
     0
330
1F
331
94
  0
LAYOUT
  5
59
102
{ACAD_REACTORS
330
1A
102
}
330
1A
100
AcDbPlotSettings
  1

  2
None
  4

  6

 40
0.0
 41
0.0
 42
0.0
 43
0.0
 44
0.0
 45
0.0
 46
0.0
 47
0.0
 48
0.0
 49
0.0
140
0.0
141
0.0
142
1.0
143
1.0
 70
   688
 72
     0
 73
     0
 74
     5
  7

 75
    16
 76
     0
 77
     2
 78
   300
147
1.0
148
0.0
149
0.0
100
AcDbLayout
  1
Sheet1
 70
     1
 71
     1
 10
0.0
 20
0.0
 11
12.0
 21
9.0
 12
0.0
 22
0.0
 32
0.0
 14
0.0
 24
0.0
 34
0.0
 15
0.0
 25
0.0
 35
0.0
146
0.0
 13
0.0
 23
0.0
 33
0.0
 16
1.0
 26
0.0
 36
0.0
 17
0.0
 27
1.0
 37
0.0
 76
     0
330
58
  0
LAYOUT
  5
5E
102
{ACAD_REACTORS
330
1A
102
}
330
1A
100
AcDbPlotSettings
  1

  2
None
  4

  6

 40
0.0
 41
0.0
 42
0.0
 43
0.0
 44
0.0
 45
0.0
 46
0.0
 47
0.0
 48
0.0
 49
0.0
140
0.0
141
0.0
142
1.0
143
1.0
 70
   688
 72
     0
 73
     0
 74
     5
  7

 75
    16
 76
     0
 77
     2
 78
   300
147
1.0
148
0.0
149
0.0
100
AcDbLayout
  1
Sheet2
 70
     1
 71
     2
 10
0.0
 20
0.0
 11
12.0
 21
9.0
 12
0.0
 22
0.0
 32
0.0
 14
0.0
 24
0.0
 34
0.0
 15
0.0
 25
0.0
 35
0.0
146
0.0
 13
0.0
 23
0.0
 33
0.0
 16
1.0
 26
0.0
 36
0.0
 17
0.0
 27
1.0
 37
0.0
 76
     0
330
5D
  0
MATERIAL
  5
E2
102
{ACAD_REACTORS
330
72
102
}
330
72
100
AcDbMaterial
  1
ByBlock
 72
     1
 94
      127
  0
MATERIAL
  5
96
102
{ACAD_REACTORS
330
72
102
}
330
72
100
AcDbMaterial
  1
ByLayer
 72
     1
 94
       63
  0
MATERIAL
  5
98
102
{ACAD_REACTORS
330
72
102
}
330
72
100
AcDbMaterial
  1
Global
 72
     1
 94
       63
  0
MLINESTYLE
  5
18
102
{ACAD_REACTORS
330
17
102
}
330
17
100
AcDbMlineStyle
  2
STANDARD
 70
     0
  3

 62
   256
 51
90.0
 52
90.0
 71
     2
 49
0.5
 62
   256
  6
BYLAYER
 49
-0.5
 62
   256
  6
BYLAYER
  0
ACDBPLACEHOLDER
  5
F
102
{ACAD_REACTORS
330
E
102
}
330
E
  0
SCALE
  5
B7
102
{ACAD_REACTORS
330
B6
102
}
330
B6
100
AcDbScale
 70
     0
300
1:1
140
1.0
141
1.0
290
     1
  0
SCALE
  5
B8
102
{ACAD_REACTORS
330
B6
102
}
330
B6
100
AcDbScale
 70
     0
300
1:2
140
1.0
141
2.0
290
     0
  0
SCALE
  5
B9
102
{ACAD_REACTORS
330
B6
102
}
330
B6
100
AcDbScale
 70
     0
300
1:4
140
1.0
141
4.0
290
     0
  0
SCALE
  5
BA
102
{ACAD_REACTORS
330
B6
102
}
330
B6
100
AcDbScale
 70
     0
300
1:5
140
1.0
141
5.0
290
     0
  0
SCALE
  5
BB
102
{ACAD_REACTORS
330
B6
102
}
330
B6
100
AcDbScale
 70
     0
300
1:8
140
1.0
141
8.0
290
     0
  0
SCALE
  5
BC
102
{ACAD_REACTORS
330
B6
102
}
330
B6
100
AcDbScale
 70
     0
300
1:10
140
1.0
141
10.0
290
     0
  0
SCALE
  5
BD
102
{ACAD_REACTORS
330
B6
102
}
330
B6
100
AcDbScale
 70
     0
300
1:16
140
1.0
141
16.0
290
     0
  0
SCALE
  5
BE
102
{ACAD_REACTORS
330
B6
102
}
330
B6
100
AcDbScale
 70
     0
300
1:20
140
1.0
141
20.0
290
     0
  0
SCALE
  5
BF
102
{ACAD_REACTORS
330
B6
102
}
330
B6
100
AcDbScale
 70
     0
300
1:30
140
1.0
141
30.0
290
     0
  0
SCALE
  5
C0
102
{ACAD_REACTORS
330
B6
102
}
330
B6
100
AcDbScale
 70
     0
300
1:40
140
1.0
141
40.0
290
     0
  0
SCALE
  5
C1
102
{ACAD_REACTORS
330
B6
102
}
330
B6
100
AcDbScale
 70
     0
300
1:50
140
1.0
141
50.0
290
     0
  0
SCALE
  5
C2
102
{ACAD_REACTORS
330
B6
102
}
330
B6
100
AcDbScale
 70
     0
300
1:100
140
1.0
141
100.0
290
     0
  0
SCALE
  5
C3
102
{ACAD_REACTORS
330
B6
102
}
330
B6
100
AcDbScale
 70
     0
300
2:1
140
2.0
141
1.0
290
     0
  0
SCALE
  5
C4
102
{ACAD_REACTORS
330
B6
102
}
330
B6
100
AcDbScale
 70
     0
300
4:1
140
4.0
141
1.0
290
     0
  0
SCALE
  5
C5
102
{ACAD_REACTORS
330
B6
102
}
330
B6
100
AcDbScale
 70
     0
300
8:1
140
8.0
141
1.0
290
     0
  0
SCALE
  5
C6
102
{ACAD_REACTORS
330
B6
102
}
330
B6
100
AcDbScale
 70
     0
300
10:1
140
10.0
141
1.0
290
     0
  0
SCALE
  5
C7
102
{ACAD_REACTORS
330
B6
102
}
330
B6
100
AcDbScale
 70
     0
300
100:1
140
100.0
141
1.0
290
     0
  0
SCALE
  5
C8
102
{ACAD_REACTORS
330
B6
102
}
330
B6
100
AcDbScale
 70
     0
300
1/128" = 1'-0"
140
0.0078125
141
12.0
290
     0
  0
SCALE
  5
C9
102
{ACAD_REACTORS
330
B6
102
}
330
B6
100
AcDbScale
 70
     0
300
1/64" = 1'-0"
140
0.015625
141
12.0
290
     0
  0
SCALE
  5
CA
102
{ACAD_REACTORS
330
B6
102
}
330
B6
100
AcDbScale
 70
     0
300
1/32" = 1'-0"
140
0.03125
141
12.0
290
     0
  0
SCALE
  5
CB
102
{ACAD_REACTORS
330
B6
102
}
330
B6
100
AcDbScale
 70
     0
300
1/16" = 1'-0"
140
0.0625
141
12.0
290
     0
  0
SCALE
  5
CC
102
{ACAD_REACTORS
330
B6
102
}
330
B6
100
AcDbScale
 70
     0
300
3/32" = 1'-0"
140
0.09375
141
12.0
290
     0
  0
SCALE
  5
CD
102
{ACAD_REACTORS
330
B6
102
}
330
B6
100
AcDbScale
 70
     0
300
1/8" = 1'-0"
140
0.125
141
12.0
290
     0
  0
SCALE
  5
CE
102
{ACAD_REACTORS
330
B6
102
}
330
B6
100
AcDbScale
 70
     0
300
3/16" = 1'-0"
140
0.1875
141
12.0
290
     0
  0
SCALE
  5
CF
102
{ACAD_REACTORS
330
B6
102
}
330
B6
100
AcDbScale
 70
     0
300
1/4" = 1'-0"
140
0.25
141
12.0
290
     0
  0
SCALE
  5
D0
102
{ACAD_REACTORS
330
B6
102
}
330
B6
100
AcDbScale
 70
     0
300
3/8" = 1'-0"
140
0.375
141
12.0
290
     0
  0
SCALE
  5
D1
102
{ACAD_REACTORS
330
B6
102
}
330
B6
100
AcDbScale
 70
     0
300
1/2" = 1'-0"
140
0.5
141
12.0
290
     0
  0
SCALE
  5
D2
102
{ACAD_REACTORS
330
B6
102
}
330
B6
100
AcDbScale
 70
     0
300
3/4" = 1'-0"
140
0.75
141
12.0
290
     0
  0
SCALE
  5
D3
102
{ACAD_REACTORS
330
B6
102
}
330
B6
100
AcDbScale
 70
     0
300
1" = 1'-0"
140
1.0
141
12.0
290
     0
  0
SCALE
  5
D4
102
{ACAD_REACTORS
330
B6
102
}
330
B6
100
AcDbScale
 70
     0
300
1-1/2" = 1'-0"
140
1.5
141
12.0
290
     0
  0
SCALE
  5
D5
102
{ACAD_REACTORS
330
B6
102
}
330
B6
100
AcDbScale
 70
     0
300
3" = 1'-0"
140
3.0
141
12.0
290
     0
  0
SCALE
  5
D6
102
{ACAD_REACTORS
330
B6
102
}
330
B6
100
AcDbScale
 70
     0
300
6" = 1'-0"
140
6.0
141
12.0
290
     0
  0
SCALE
  5
D7
102
{ACAD_REACTORS
330
B6
102
}
330
B6
100
AcDbScale
 70
     0
300
1'-0" = 1'-0"
140
12.0
141
12.0
290
     0
  0
TABLESTYLE
  5
87
102
{ACAD_REACTORS
330
86
102
}
102
{ACAD_XDICTIONARY
360
470
102
}
330
86
100
AcDbTableStyle
  3
Standard
 70
     0
 71
     0
 40
0.06
 41
0.06
280
     0
281
     0
  7
Standard
140
0.18
170
     2
 62
     0
 63
   257
283
     0
 90
      512
 91
        0
  1

274
    -2
284
     1
 64
     0
275
    -2
285
     1
 65
     0
276
    -2
286
     1
 66
     0
277
    -2
287
     1
 67
     0
278
    -2
288
     1
 68
     0
279
    -2
289
     1
 69
     0
  7
Standard
140
0.25
170
     5
 62
     0
 63
   257
283
     0
 90
      512
 91
        0
  1

274
    -2
284
     1
 64
     0
275
    -2
285
     1
 65
     0
276
    -2
286
     1
 66
     0
277
    -2
287
     1
 67
     0
278
    -2
288
     1
 68
     0
279
    -2
289
     1
 69
     0
  7
Standard
140
0.18
170
     5
 62
     0
 63
   257
283
     0
 90
      512
 91
        0
  1

274
    -2
284
     1
 64
     0
275
    -2
285
     1
 65
     0
276
    -2
286
     1
 66
     0
277
    -2
287
     1
 67
     0
278
    -2
288
     1
 68
     0
279
    -2
289
     1
 69
     0
  0
VISUALSTYLE
  5
9F
102
{ACAD_REACTORS
330
99
102
}
330
99
100
AcDbVisualStyle
  2
2dWireframe
 70
     4
177
     3
291
     0
 70
    58
 90
        0
176
     1
 90
        2
176
     1
 90
        1
176
     1
 90
        0
176
     1
 40
-0.6
176
     1
 40
-30.0
176
     1
 62
     7
420
 16777215
176
     1
 90
        1
176
     1
 90
        4
176
     1
 62
     7
176
     1
 62
   257
176
     1
 90
        1
176
     1
 90
        1
176
     1
 40
1.0
176
     1
 90
        0
176
     1
 62
   257
176
     1
 40
1.0
176
     1
 90
        1
176
     1
 90
        6
176
     1
 90
        2
176
     1
 62
     7
176
     1
 90
        5
176
     1
 90
        0
176
     1
 90
        0
176
     1
290
     0
176
     1
 90
        1
176
     1
 40
0.0
176
     1
 90
        0
176
     1
290
     1
176
     1
290
     1
176
     1
290
     0
176
     1
290
     0
176
     1
290
     0
176
     1
290
     0
176
     1
290
     0
176
     1
290
     0
176
     1
290
     0
176
     1
 90
       50
176
     1
 40
0.0
176
     1
 40
1.0
176
     1
 90
        0
176
     1
 62
    18
420
        0
176
     1
 90
       50
176
     1
 90
        3
176
     1
 62
     5
420
      255
176
     1
290
     0
176
     1
 90
       50
176
     1
 90
       50
176
     1
 90
       50
176
     1
290
     0
176
     1
 90
       50
176
     1
 62
   256
176
     0
 40
1.0
176
     0
 90
        2
176
     1
  1
strokes_ogs.tif
176
     1
290
     0
176
     1
 40
1.0
176
     1
 40
1.0
176
     1
  0
VISUALSTYLE
  5
A1
102
{ACAD_REACTORS
330
99
102
}
330
99
100
AcDbVisualStyle
  2
3D Hidden
 70
     6
177
     3
291
     0
 70
    58
 90
        1
176
     1
 90
        2
176
     1
 90
        2
176
     1
 90
        0
176
     1
 40
-0.6
176
     1
 40
-30.0
176
     1
 62
     7
420
 16777215
176
     1
 90
        2
176
     1
 90
        2
176
     1
 62
     7
176
     1
 62
   257
176
     1
 90
        2
176
     1
 90
        1
176
     1
 40
40.0
176
     1
 90
        0
176
     1
 62
   257
176
     1
 40
1.0
176
     1
 90
        1
176
     1
 90
        6
176
     1
 90
        2
176
     1
 62
     7
176
     1
 90
        3
176
     1
 90
        0
176
     1
 90
        0
176
     1
290
     0
176
     1
 90
        1
176
     1
 40
0.0
176
     1
 90
        0
176
     1
290
     0
176
     1
290
     1
176
     1
290
     1
176
     1
290
     0
176
     1
290
     0
176
     1
290
     0
176
     1
290
     0
176
     1
290
     0
176
     1
290
     0
176
     1
 90
       50
176
     1
 40
0.0
176
     1
 40
1.0
176
     1
 90
        0
176
     1
 62
    18
420
        0
176
     1
 90
       50
176
     1
 90
        3
176
     1
 62
     5
420
      255
176
     1
290
     0
176
     1
 90
       50
176
     1
 90
       50
176
     1
 90
       50
176
     1
290
     0
176
     1
 90
       50
176
     1
 62
   256
176
     0
 40
1.0
176
     0
 90
        2
176
     1
  1
strokes_ogs.tif
176
     1
290
     0
176
     1
 40
1.0
176
     1
 40
1.0
176
     1
  0
VISUALSTYLE
  5
A0
102
{ACAD_REACTORS
330
99
102
}
330
99
100
AcDbVisualStyle
  2
3dWireframe
 70
     5
177
     3
291
     0
 70
    58
 90
        0
176
     1
 90
        2
176
     1
 90
        1
176
     1
 90
        0
176
     1
 40
-0.6
176
     1
 40
-30.0
176
     1
 62
     7
420
 16777215
176
     1
 90
        1
176
     1
 90
        4
176
     1
 62
     7
176
     1
 62
   257
176
     1
 90
        1
176
     1
 90
        1
176
     1
 40
1.0
176
     1
 90
        0
176
     1
 62
   257
176
     1
 40
1.0
176
     1
 90
        1
176
     1
 90
        6
176
     1
 90
        2
176
     1
 62
     7
176
     1
 90
        5
176
     1
 90
        0
176
     1
 90
        0
176
     1
290
     0
176
     1
 90
        1
176
     1
 40
0.0
176
     1
 90
        0
176
     1
290
     0
176
     1
290
     1
176
     1
290
     1
176
     1
290
     0
176
     1
290
     0
176
     1
290
     0
176
     1
290
     0
176
     1
290
     0
176
     1
290
     0
176
     1
 90
       50
176
     1
 40
0.0
176
     1
 40
1.0
176
     1
 90
        0
176
     1
 62
    18
420
        0
176
     1
 90
       50
176
     1
 90
        3
176
     1
 62
     5
420
      255
176
     1
290
     0
176
     1
 90
       50
176
     1
 90
       50
176
     1
 90
       50
176
     1
290
     0
176
     1
 90
       50
176
     1
 62
   256
176
     0
 40
1.0
176
     0
 90
        2
176
     1
  1
strokes_ogs.tif
176
     1
290
     0
176
     1
 40
1.0
176
     1
 40
1.0
176
     1
  0
VISUALSTYLE
  5
9E
102
{ACAD_REACTORS
330
99
102
}
330
99
100
AcDbVisualStyle
  2
Basic
 70
     7
177
     3
291
     1
 70
    58
 90
        1
176
     1
 90
        0
176
     1
 90
        1
176
     1
 90
        0
176
     1
 40
-0.6
176
     1
 40
-30.0
176
     1
 62
     7
420
 16777215
176
     1
 90
        0
176
     1
 90
        4
176
     1
 62
     7
176
     1
 62
   257
176
     1
 90
        1
176
     1
 90
        1
176
     1
 40
1.0
176
     1
 90
        8
176
     1
 62
     7
176
     1
 40
1.0
176
     1
 90
        1
176
     1
 90
        6
176
     1
 90
        2
176
     1
 62
     7
176
     1
 90
        5
176
     1
 90
        0
176
     1
 90
        0
176
     1
290
     0
176
     1
 90
        1
176
     1
 40
0.0
176
     1
 90
        0
176
     1
290
     0
176
     1
290
     1
176
     1
290
     1
176
     1
290
     0
176
     1
290
     0
176
     1
290
     0
176
     1
290
     0
176
     1
290
     0
176
     1
290
     0
176
     1
 90
       50
176
     1
 40
0.0
176
     1
 40
1.0
176
     1
 90
        0
176
     1
 62
    18
420
        0
176
     1
 90
       50
176
     1
 90
        3
176
     1
 62
     5
420
      255
176
     1
290
     0
176
     1
 90
       50
176
     1
 90
       50
176
     1
 90
       50
176
     1
290
     0
176
     1
 90
       50
176
     1
 62
   256
176
     0
 40
1.0
176
     0
 90
        2
176
     1
  1
strokes_ogs.tif
176
     1
290
     0
176
     1
 40
1.0
176
     1
 40
1.0
176
     1
  0
VISUALSTYLE
  5
A5
102
{ACAD_REACTORS
330
99
102
}
330
99
100
AcDbVisualStyle
  2
Brighten
 70
    12
177
     3
291
     1
 70
    58
 90
        2
176
     1
 90
        2
176
     1
 90
        1
176
     1
 90
        0
176
     1
 40
-0.6
176
     1
 40
-30.0
176
     1
 62
     7
420
 16777215
176
     1
 90
        1
176
     1
 90
        4
176
     1
 62
     7
176
     1
 62
   257
176
     1
 90
        1
176
     1
 90
        1
176
     1
 40
1.0
176
     1
 90
        8
176
     1
 62
     7
176
     1
 40
1.0
176
     1
 90
        1
176
     1
 90
        6
176
     1
 90
        2
176
     1
 62
     7
176
     1
 90
        5
176
     1
 90
        0
176
     1
 90
        0
176
     1
290
     0
176
     1
 90
        1
176
     1
 40
50.0
176
     1
 90
        0
176
     1
290
     0
176
     1
290
     1
176
     1
290
     1
176
     1
290
     0
176
     1
290
     0
176
     1
290
     0
176
     1
290
     0
176
     1
290
     0
176
     1
290
     0
176
     1
 90
       50
176
     1
 40
0.0
176
     1
 40
1.0
176
     1
 90
        0
176
     1
 62
    18
420
        0
176
     1
 90
       50
176
     1
 90
        3
176
     1
 62
     5
420
      255
176
     1
290
     0
176
     1
 90
       50
176
     1
 90
       50
176
     1
 90
       50
176
     1
290
     0
176
     1
 90
       50
176
     1
 62
   256
176
     0
 40
1.0
176
     0
 90
        2
176
     1
  1
strokes_ogs.tif
176
     1
290
     0
176
     1
 40
1.0
176
     1
 40
1.0
176
     1
  0
VISUALSTYLE
  5
A9
102
{ACAD_REACTORS
330
99
102
}
330
99
100
AcDbVisualStyle
  2
ColorChange
 70
    16
177
     3
291
     1
 70
    58
 90
        2
176
     1
 90
        2
176
     1
 90
        3
176
     1
 90
        0
176
     1
 40
-0.6
176
     1
 40
-30.0
176
     1
 62
     8
420
  8421504
176
     1
 90
        1
176
     1
 90
        4
176
     1
 62
     7
176
     1
 62
   257
176
     1
 90
        1
176
     1
 90
        1
176
     1
 40
1.0
176
     1
 90
        8
176
     1
 62
     8
420
  8421504
176
     1
 40
1.0
176
     1
 90
        1
176
     1
 90
        6
176
     1
 90
        2
176
     1
 62
     7
176
     1
 90
        5
176
     1
 90
        0
176
     1
 90
        0
176
     1
290
     0
176
     1
 90
        1
176
     1
 40
0.0
176
     1
 90
        0
176
     1
290
     0
176
     1
290
     1
176
     1
290
     1
176
     1
290
     0
176
     1
290
     0
176
     1
290
     0
176
     1
290
     0
176
     1
290
     0
176
     1
290
     0
176
     1
 90
       50
176
     1
 40
0.0
176
     1
 40
1.0
176
     1
 90
        0
176
     1
 62
    18
420
        0
176
     1
 90
       50
176
     1
 90
        3
176
     1
 62
     5
420
      255
176
     1
290
     0
176
     1
 90
       50
176
     1
 90
       50
176
     1
 90
       50
176
     1
290
     0
176
     1
 90
       50
176
     1
 62
   256
176
     0
 40
1.0
176
     0
 90
        2
176
     1
  1
strokes_ogs.tif
176
     1
290
     0
176
     1
 40
1.0
176
     1
 40
1.0
176
     1
  0
VISUALSTYLE
  5
A2
102
{ACAD_REACTORS
330
99
102
}
330
99
100
AcDbVisualStyle
  2
Conceptual
 70
     9
177
     3
291
     0
 70
    58
 90
        3
176
     1
 90
        2
176
     1
 90
        1
176
     1
 90
        0
176
     1
 40
-0.6
176
     1
 40
-30.0
176
     1
 62
     7
420
 16777215
176
     1
 90
        2
176
     1
 90
        2
176
     1
 62
     7
176
     1
 62
   257
176
     1
 90
        1
176
     1
 90
        1
176
     1
 40
40.0
176
     1
 90
        8
176
     1
 62
     7
176
     1
 40
1.0
176
     1
 90
        1
176
     1
 90
        6
176
     1
 90
        2
176
     1
 62
     7
176
     1
 90
        3
176
     1
 90
        0
176
     1
 90
        0
176
     1
290
     0
176
     1
 90
        1
176
     1
 40
0.0
176
     1
 90
        0
176
     1
290
     0
176
     1
290
     1
176
     1
290
     1
176
     1
290
     0
176
     1
290
     0
176
     1
290
     0
176
     1
290
     0
176
     1
290
     0
176
     1
290
     0
176
     1
 90
       50
176
     1
 40
0.0
176
     1
 40
1.0
176
     1
 90
        0
176
     1
 62
    18
420
        0
176
     1
 90
       50
176
     1
 90
        3
176
     1
 62
     5
420
      255
176
     1
290
     0
176
     1
 90
       50
176
     1
 90
       50
176
     1
 90
       50
176
     1
290
     0
176
     1
 90
       50
176
     1
 62
   256
176
     0
 40
1.0
176
     0
 90
        2
176
     1
  1
strokes_ogs.tif
176
     1
290
     0
176
     1
 40
1.0
176
     1
 40
1.0
176
     1
  0
VISUALSTYLE
  5
A4
102
{ACAD_REACTORS
330
99
102
}
330
99
100
AcDbVisualStyle
  2
Dim
 70
    11
177
     3
291
     1
 70
    58
 90
        2
176
     1
 90
        2
176
     1
 90
        1
176
     1
 90
        0
176
     1
 40
-0.6
176
     1
 40
-30.0
176
     1
 62
     7
420
 16777215
176
     1
 90
        1
176
     1
 90
        4
176
     1
 62
     7
176
     1
 62
   257
176
     1
 90
        1
176
     1
 90
        1
176
     1
 40
1.0
176
     1
 90
        8
176
     1
 62
     7
176
     1
 40
1.0
176
     1
 90
        1
176
     1
 90
        6
176
     1
 90
        2
176
     1
 62
     7
176
     1
 90
        5
176
     1
 90
        0
176
     1
 90
        0
176
     1
290
     0
176
     1
 90
        1
176
     1
 40
-50.0
176
     1
 90
        0
176
     1
290
     0
176
     1
290
     1
176
     1
290
     1
176
     1
290
     0
176
     1
290
     0
176
     1
290
     0
176
     1
290
     0
176
     1
290
     0
176
     1
290
     0
176
     1
 90
       50
176
     1
 40
0.0
176
     1
 40
1.0
176
     1
 90
        0
176
     1
 62
    18
420
        0
176
     1
 90
       50
176
     1
 90
        3
176
     1
 62
     5
420
      255
176
     1
290
     0
176
     1
 90
       50
176
     1
 90
       50
176
     1
 90
       50
176
     1
290
     0
176
     1
 90
       50
176
     1
 62
   256
176
     0
 40
1.0
176
     0
 90
        2
176
     1
  1
strokes_ogs.tif
176
     1
290
     0
176
     1
 40
1.0
176
     1
 40
1.0
176
     1
  0
VISUALSTYLE
  5
E7
102
{ACAD_REACTORS
330
99
102
}
330
99
100
AcDbVisualStyle
  2
EdgeColorOff
 70
    22
177
     3
291
     1
 70
    58
 90
        2
176
     0
 90
        2
176
     0
 90
        0
176
     0
 90
        0
176
     0
 40
0.6
176
     0
 40
30.0
176
     0
 62
     7
420
 16777215
176
     0
 90
        1
176
     0
 90
        4
176
     0
 62
     7
176
     0
 62
   257
176
     0
 90
        1
176
     0
 90
        1
176
     0
 40
1.0
176
     0
 90
        8
176
     2
 62
     7
176
     0
 40
1.0
176
     0
 90
        1
176
     0
 90
        6
176
     0
 90
        2
176
     0
 62
     7
176
     0
 90
        5
176
     0
 90
        0
176
     0
 90
        0
176
     0
290
     0
176
     0
 90
        1
176
     0
 40
0.0
176
     0
 90
        0
176
     0
290
     0
176
     0
290
     1
176
     0
290
     1
176
     0
290
     0
176
     0
290
     0
176
     0
290
     0
176
     0
290
     0
176
     0
290
     0
176
     0
290
     0
176
     0
 90
       50
176
     0
 40
0.0
176
     0
 40
1.0
176
     0
 90
        0
176
     0
 62
    18
420
        0
176
     0
 90
       50
176
     0
 90
        3
176
     0
 62
     5
420
      255
176
     0
290
     0
176
     0
 90
       50
176
     0
 90
       50
176
     0
 90
       50
176
     0
290
     0
176
     0
 90
       50
176
     0
 62
   256
176
     0
 40
1.0
176
     0
 90
        2
176
     0
  1
strokes_ogs.tif
176
     0
290
     0
176
     0
 40
1.0
176
     0
 40
1.0
176
     0
  0
VISUALSTYLE
  5
A8
102
{ACAD_REACTORS
330
99
102
}
330
99
100
AcDbVisualStyle
  2
Facepattern
 70
    15
177
     3
291
     1
 70
    58
 90
        2
176
     1
 90
        2
176
     1
 90
        1
176
     1
 90
        0
176
     1
 40
-0.6
176
     1
 40
-30.0
176
     1
 62
     7
420
 16777215
176
     1
 90
        1
176
     1
 90
        4
176
     1
 62
     7
176
     1
 62
   257
176
     1
 90
        1
176
     1
 90
        1
176
     1
 40
1.0
176
     1
 90
        8
176
     1
 62
     7
176
     1
 40
1.0
176
     1
 90
        1
176
     1
 90
        6
176
     1
 90
        2
176
     1
 62
     7
176
     1
 90
        5
176
     1
 90
        0
176
     1
 90
        0
176
     1
290
     0
176
     1
 90
        1
176
     1
 40
0.0
176
     1
 90
        0
176
     1
290
     0
176
     1
290
     1
176
     1
290
     1
176
     1
290
     0
176
     1
290
     0
176
     1
290
     0
176
     1
290
     0
176
     1
290
     0
176
     1
290
     0
176
     1
 90
       50
176
     1
 40
0.0
176
     1
 40
1.0
176
     1
 90
        0
176
     1
 62
    18
420
        0
176
     1
 90
       50
176
     1
 90
        3
176
     1
 62
     5
420
      255
176
     1
290
     0
176
     1
 90
       50
176
     1
 90
       50
176
     1
 90
       50
176
     1
290
     0
176
     1
 90
       50
176
     1
 62
   256
176
     0
 40
1.0
176
     0
 90
        2
176
     1
  1
strokes_ogs.tif
176
     1
290
     0
176
     1
 40
1.0
176
     1
 40
1.0
176
     1
  0
VISUALSTYLE
  5
9A
102
{ACAD_REACTORS
330
99
102
}
330
99
100
AcDbVisualStyle
  2
Flat
 70
     0
177
     3
291
     1
 70
    58
 90
        2
176
     1
 90
        1
176
     1
 90
        1
176
     1
 90
        2
176
     1
 40
-0.6
176
     1
 40
30.0
176
     1
 62
     7
420
 16777215
176
     1
 90
        0
176
     1
 90
        4
176
     1
 62
     7
176
     1
 62
   257
176
     1
 90
        1
176
     1
 90
        1
176
     1
 40
1.0
176
     1
 90
        8
176
     1
 62
     7
176
     1
 40
1.0
176
     1
 90
        1
176
     1
 90
        6
176
     1
 90
        2
176
     1
 62
     7
176
     1
 90
        5
176
     1
 90
        0
176
     1
 90
        0
176
     1
290
     0
176
     1
 90
        1
176
     1
 40
0.0
176
     1
 90
        0
176
     1
290
     0
176
     1
290
     1
176
     1
290
     1
176
     1
290
     0
176
     1
290
     0
176
     1
290
     0
176
     1
290
     0
176
     1
290
     0
176
     1
290
     0
176
     1
 90
       50
176
     1
 40
0.0
176
     1
 40
1.0
176
     1
 90
        0
176
     1
 62
    18
420
        0
176
     1
 90
       50
176
     1
 90
        3
176
     1
 62
     5
420
      255
176
     1
290
     0
176
     1
 90
       50
176
     1
 90
       50
176
     1
 90
       50
176
     1
290
     0
176
     1
 90
       50
176
     1
 62
   256
176
     0
 40
1.0
176
     0
 90
        2
176
     1
  1
strokes_ogs.tif
176
     1
290
     0
176
     1
 40
1.0
176
     1
 40
1.0
176
     1
  0
VISUALSTYLE
  5
9B
102
{ACAD_REACTORS
330
99
102
}
330
99
100
AcDbVisualStyle
  2
FlatWithEdges
 70
     1
177
     3
291
     1
 70
    58
 90
        2
176
     1
 90
        1
176
     1
 90
        1
176
     1
 90
        2
176
     1
 40
-0.6
176
     1
 40
30.0
176
     1
 62
     7
420
 16777215
176
     1
 90
        1
176
     1
 90
        4
176
     1
 62
     7
176
     1
 62
   257
176
     1
 90
        1
176
     1
 90
        1
176
     1
 40
1.0
176
     1
 90
        0
176
     1
 62
   257
176
     1
 40
1.0
176
     1
 90
        1
176
     1
 90
        6
176
     1
 90
        2
176
     1
 62
     7
176
     1
 90
        5
176
     1
 90
        0
176
     1
 90
        0
176
     1
290
     0
176
     1
 90
        1
176
     1
 40
0.0
176
     1
 90
        0
176
     1
290
     0
176
     1
290
     1
176
     1
290
     1
176
     1
290
     0
176
     1
290
     0
176
     1
290
     0
176
     1
290
     0
176
     1
290
     0
176
     1
290
     0
176
     1
 90
       50
176
     1
 40
0.0
176
     1
 40
1.0
176
     1
 90
        0
176
     1
 62
    18
420
        0
176
     1
 90
       50
176
     1
 90
        3
176
     1
 62
     5
420
      255
176
     1
290
     0
176
     1
 90
       50
176
     1
 90
       50
176
     1
 90
       50
176
     1
290
     0
176
     1
 90
       50
176
     1
 62
   256
176
     0
 40
1.0
176
     0
 90
        2
176
     1
  1
strokes_ogs.tif
176
     1
290
     0
176
     1
 40
1.0
176
     1
 40
1.0
176
     1
  0
VISUALSTYLE
  5
9C
102
{ACAD_REACTORS
330
99
102
}
330
99
100
AcDbVisualStyle
  2
Gouraud
 70
     2
177
     3
291
     1
 70
    58
 90
        2
176
     1
 90
        2
176
     1
 90
        1
176
     1
 90
        2
176
     1
 40
-0.6
176
     1
 40
30.0
176
     1
 62
     7
420
 16777215
176
     1
 90
        0
176
     1
 90
        4
176
     1
 62
     7
176
     1
 62
   257
176
     1
 90
        1
176
     1
 90
        1
176
     1
 40
1.0
176
     1
 90
        0
176
     1
 62
     7
176
     1
 40
1.0
176
     1
 90
        1
176
     1
 90
        6
176
     1
 90
        2
176
     1
 62
     7
176
     1
 90
        5
176
     1
 90
        0
176
     1
 90
        0
176
     1
290
     0
176
     1
 90
        1
176
     1
 40
0.0
176
     1
 90
        0
176
     1
290
     0
176
     1
290
     1
176
     1
290
     1
176
     1
290
     0
176
     1
290
     0
176
     1
290
     0
176
     1
290
     0
176
     1
290
     0
176
     1
290
     0
176
     1
 90
       50
176
     1
 40
0.0
176
     1
 40
1.0
176
     1
 90
        0
176
     1
 62
    18
420
        0
176
     1
 90
       50
176
     1
 90
        3
176
     1
 62
     5
420
      255
176
     1
290
     0
176
     1
 90
       50
176
     1
 90
       50
176
     1
 90
       50
176
     1
290
     0
176
     1
 90
       50
176
     1
 62
   256
176
     0
 40
1.0
176
     0
 90
        2
176
     1
  1
strokes_ogs.tif
176
     1
290
     0
176
     1
 40
1.0
176
     1
 40
1.0
176
     1
  0
VISUALSTYLE
  5
9D
102
{ACAD_REACTORS
330
99
102
}
330
99
100
AcDbVisualStyle
  2
GouraudWithEdges
 70
     3
177
     3
291
     1
 70
    58
 90
        2
176
     1
 90
        2
176
     1
 90
        1
176
     1
 90
        2
176
     1
 40
-0.6
176
     1
 40
30.0
176
     1
 62
     7
420
 16777215
176
     1
 90
        1
176
     1
 90
        4
176
     1
 62
     7
176
     1
 62
   257
176
     1
 90
        1
176
     1
 90
        1
176
     1
 40
1.0
176
     1
 90
        0
176
     1
 62
   257
176
     1
 40
1.0
176
     1
 90
        1
176
     1
 90
        6
176
     1
 90
        2
176
     1
 62
     7
176
     1
 90
        5
176
     1
 90
        0
176
     1
 90
        0
176
     1
290
     0
176
     1
 90
        1
176
     1
 40
0.0
176
     1
 90
        0
176
     1
290
     0
176
     1
290
     1
176
     1
290
     1
176
     1
290
     0
176
     1
290
     0
176
     1
290
     0
176
     1
290
     0
176
     1
290
     0
176
     1
290
     0
176
     1
 90
       50
176
     1
 40
0.0
176
     1
 40
1.0
176
     1
 90
        0
176
     1
 62
    18
420
        0
176
     1
 90
       50
176
     1
 90
        3
176
     1
 62
     5
420
      255
176
     1
290
     0
176
     1
 90
       50
176
     1
 90
       50
176
     1
 90
       50
176
     1
290
     0
176
     1
 90
       50
176
     1
 62
   256
176
     0
 40
1.0
176
     0
 90
        2
176
     1
  1
strokes_ogs.tif
176
     1
290
     0
176
     1
 40
1.0
176
     1
 40
1.0
176
     1
  0
VISUALSTYLE
  5
E4
102
{ACAD_REACTORS
330
99
102
}
330
99
100
AcDbVisualStyle
  2
Hidden
 70
     6
177
     3
291
     0
 70
    58
 90
        1
176
     1
 90
        2
176
     1
 90
        2
176
     1
 90
        0
176
     1
 40
0.6
176
     1
 40
30.0
176
     1
 62
     7
420
 16777215
176
     1
 90
        2
176
     1
 90
        2
176
     1
 62
     7
176
     1
 62
   257
176
     1
 90
        2
176
     1
 90
        1
176
     1
 40
40.0
176
     1
 90
        0
176
     1
 62
   257
176
     1
 40
1.0
176
     1
 90
        1
176
     1
 90
        6
176
     1
 90
        2
176
     1
 62
     7
176
     1
 90
        3
176
     1
 90
        0
176
     1
 90
        0
176
     1
290
     0
176
     1
 90
        1
176
     1
 40
0.0
176
     1
 90
        0
176
     1
290
     0
176
     1
290
     1
176
     1
290
     1
176
     1
290
     0
176
     1
290
     0
176
     1
290
     0
176
     1
290
     0
176
     1
290
     0
176
     1
290
     0
176
     1
 90
       50
176
     1
 40
0.0
176
     1
 40
1.0
176
     1
 90
        0
176
     1
 62
    18
420
        0
176
     1
 90
       50
176
     1
 90
        3
176
     1
 62
     5
420
      255
176
     1
290
     0
176
     1
 90
       50
176
     1
 90
       50
176
     1
 90
       50
176
     1
290
     0
176
     1
 90
       50
176
     1
 62
   256
176
     0
 40
1.0
176
     0
 90
        2
176
     1
  1
strokes_ogs.tif
176
     1
290
     0
176
     1
 40
1.0
176
     1
 40
1.0
176
     1
  0
VISUALSTYLE
  5
E5
102
{ACAD_REACTORS
330
99
102
}
330
99
100
AcDbVisualStyle
  2
JitterOff
 70
    20
177
     3
291
     1
 70
    58
 90
        2
176
     0
 90
        2
176
     0
 90
        0
176
     0
 90
        0
176
     0
 40
0.6
176
     0
 40
30.0
176
     0
 62
     7
420
 16777215
176
     0
 90
        1
176
     0
 90
        4
176
     0
 62
     7
176
     0
 62
   257
176
     0
 90
        1
176
     0
 90
        1
176
     0
 40
1.0
176
     0
 90
       10
176
     2
 62
     7
176
     0
 40
1.0
176
     0
 90
        1
176
     0
 90
        6
176
     0
 90
        2
176
     0
 62
     7
176
     0
 90
        5
176
     0
 90
        0
176
     0
 90
        0
176
     0
290
     0
176
     0
 90
        1
176
     0
 40
0.0
176
     0
 90
        0
176
     0
290
     0
176
     0
290
     1
176
     0
290
     1
176
     0
290
     0
176
     0
290
     0
176
     0
290
     0
176
     0
290
     0
176
     0
290
     0
176
     0
290
     0
176
     0
 90
       50
176
     0
 40
0.0
176
     0
 40
1.0
176
     0
 90
        0
176
     0
 62
    18
420
        0
176
     0
 90
       50
176
     0
 90
        3
176
     0
 62
     5
420
      255
176
     0
290
     0
176
     0
 90
       50
176
     0
 90
       50
176
     0
 90
       50
176
     0
290
     0
176
     0
 90
       50
176
     0
 62
   256
176
     0
 40
1.0
176
     0
 90
        2
176
     0
  1
strokes_ogs.tif
176
     0
290
     0
176
     0
 40
1.0
176
     0
 40
1.0
176
     0
  0
VISUALSTYLE
  5
A7
102
{ACAD_REACTORS
330
99
102
}
330
99
100
AcDbVisualStyle
  2
Linepattern
 70
    14
177
     3
291
     1
 70
    58
 90
        2
176
     1
 90
        2
176
     1
 90
        1
176
     1
 90
        0
176
     1
 40
-0.6
176
     1
 40
-30.0
176
     1
 62
     7
420
 16777215
176
     1
 90
        1
176
     1
 90
        4
176
     1
 62
     7
176
     1
 62
   257
176
     1
 90
        7
176
     1
 90
        7
176
     1
 40
1.0
176
     1
 90
        8
176
     1
 62
     7
176
     1
 40
1.0
176
     1
 90
        1
176
     1
 90
        6
176
     1
 90
        2
176
     1
 62
     7
176
     1
 90
        5
176
     1
 90
        0
176
     1
 90
        0
176
     1
290
     0
176
     1
 90
        1
176
     1
 40
0.0
176
     1
 90
        0
176
     1
290
     0
176
     1
290
     1
176
     1
290
     1
176
     1
290
     0
176
     1
290
     0
176
     1
290
     0
176
     1
290
     0
176
     1
290
     0
176
     1
290
     0
176
     1
 90
       50
176
     1
 40
0.0
176
     1
 40
1.0
176
     1
 90
        0
176
     1
 62
    18
420
        0
176
     1
 90
       50
176
     1
 90
        3
176
     1
 62
     5
420
      255
176
     1
290
     0
176
     1
 90
       50
176
     1
 90
       50
176
     1
 90
       50
176
     1
290
     0
176
     1
 90
       50
176
     1
 62
   256
176
     0
 40
1.0
176
     0
 90
        2
176
     1
  1
strokes_ogs.tif
176
     1
290
     0
176
     1
 40
1.0
176
     1
 40
1.0
176
     1
  0
VISUALSTYLE
  5
E6
102
{ACAD_REACTORS
330
99
102
}
330
99
100
AcDbVisualStyle
  2
OverhangOff
 70
    21
177
     3
291
     1
 70
    58
 90
        2
176
     0
 90
        2
176
     0
 90
        0
176
     0
 90
        0
176
     0
 40
0.6
176
     0
 40
30.0
176
     0
 62
     7
420
 16777215
176
     0
 90
        1
176
     0
 90
        4
176
     0
 62
     7
176
     0
 62
   257
176
     0
 90
        1
176
     0
 90
        1
176
     0
 40
1.0
176
     0
 90
        9
176
     2
 62
     7
176
     0
 40
1.0
176
     0
 90
        1
176
     0
 90
        6
176
     0
 90
        2
176
     0
 62
     7
176
     0
 90
        5
176
     0
 90
        0
176
     0
 90
        0
176
     0
290
     0
176
     0
 90
        1
176
     0
 40
0.0
176
     0
 90
        0
176
     0
290
     0
176
     0
290
     1
176
     0
290
     1
176
     0
290
     0
176
     0
290
     0
176
     0
290
     0
176
     0
290
     0
176
     0
290
     0
176
     0
290
     0
176
     0
 90
       50
176
     0
 40
0.0
176
     0
 40
1.0
176
     0
 90
        0
176
     0
 62
    18
420
        0
176
     0
 90
       50
176
     0
 90
        3
176
     0
 62
     5
420
      255
176
     0
290
     0
176
     0
 90
       50
176
     0
 90
       50
176
     0
 90
       50
176
     0
290
     0
176
     0
 90
       50
176
     0
 62
   256
176
     0
 40
1.0
176
     0
 90
        2
176
     0
  1
strokes_ogs.tif
176
     0
290
     0
176
     0
 40
1.0
176
     0
 40
1.0
176
     0
  0
VISUALSTYLE
  5
A3
102
{ACAD_REACTORS
330
99
102
}
330
99
100
AcDbVisualStyle
  2
Realistic
 70
     8
177
     3
291
     0
 70
    58
 90
        2
176
     1
 90
        2
176
     1
 90
        1
176
     1
 90
        0
176
     1
 40
-0.6
176
     1
 40
-30.0
176
     1
 62
     7
420
 16777215
176
     1
 90
        1
176
     1
 90
        0
176
     1
 62
     7
176
     1
 62
   257
176
     1
 90
        1
176
     1
 90
        1
176
     1
 40
1.0
176
     1
 90
        8
176
     1
 62
     8
420
  7895160
176
     1
 40
1.0
176
     1
 90
        1
176
     1
 90
        6
176
     1
 90
        2
176
     1
 62
     7
176
     1
 90
        5
176
     1
 90
        0
176
     1
 90
        0
176
     1
290
     0
176
     1
 90
       13
176
     1
 40
0.0
176
     1
 90
        0
176
     1
290
     0
176
     1
290
     1
176
     1
290
     1
176
     1
290
     0
176
     1
290
     0
176
     1
290
     0
176
     1
290
     0
176
     1
290
     0
176
     1
290
     0
176
     1
 90
       50
176
     1
 40
0.0
176
     1
 40
1.0
176
     1
 90
        0
176
     1
 62
    18
420
        0
176
     1
 90
       50
176
     1
 90
        3
176
     1
 62
     5
420
      255
176
     1
290
     0
176
     1
 90
       50
176
     1
 90
       50
176
     1
 90
       50
176
     1
290
     0
176
     1
 90
       50
176
     1
 62
   256
176
     0
 40
1.0
176
     0
 90
        2
176
     1
  1
strokes_ogs.tif
176
     1
290
     0
176
     1
 40
1.0
176
     1
 40
1.0
176
     1
  0
VISUALSTYLE
  5
EC
102
{ACAD_REACTORS
330
99
102
}
330
99
100
AcDbVisualStyle
  2
Shaded
 70
    27
177
     3
291
     0
 70
    58
 90
        2
176
     1
 90
        2
176
     1
 90
        1
176
     1
 90
        2
176
     1
 40
0.6
176
     1
 40
30.0
176
     1
 62
     7
420
 16777215
176
     1
 90
        0
176
     1
 90
        4
176
     1
 62
     7
176
     1
 62
   257
176
     1
 90
        1
176
     1
 90
        1
176
     1
 40
1.0
176
     1
 90
        8
176
     1
 62
   257
176
     1
 40
1.0
176
     1
 90
        1
176
     1
 90
        6
176
     1
 90
        2
176
     1
 62
     8
420
  7895160
176
     1
 90
        3
176
     1
 90
        0
176
     1
 90
        0
176
     1
290
     0
176
     1
 90
        5
176
     1
 40
0.0
176
     1
 90
        0
176
     1
290
     0
176
     1
290
     1
176
     1
290
     1
176
     1
290
     0
176
     1
290
     0
176
     1
290
     0
176
     1
290
     0
176
     1
290
     0
176
     1
290
     0
176
     1
 90
       50
176
     1
 40
0.0
176
     1
 40
1.0
176
     1
 90
        0
176
     1
 62
    18
420
        0
176
     1
 90
       50
176
     1
 90
        3
176
     1
 62
     5
420
      255
176
     1
290
     0
176
     1
 90
       50
176
     1
 90
       50
176
     1
 90
       50
176
     1
290
     0
176
     1
 90
       50
176
     1
 62
   256
176
     0
 40
1.0
176
     0
 90
        2
176
     1
  1
strokes_ogs.tif
176
     1
290
     0
176
     1
 40
1.0
176
     1
 40
1.0
176
     1
  0
VISUALSTYLE
  5
EB
102
{ACAD_REACTORS
330
99
102
}
330
99
100
AcDbVisualStyle
  2
Shaded with edges
 70
    26
177
     3
291
     0
 70
    58
 90
        2
176
     1
 90
        2
176
     1
 90
        1
176
     1
 90
        2
176
     1
 40
0.6
176
     1
 40
30.0
176
     1
 62
     7
420
 16777215
176
     1
 90
        1
176
     1
 90
       10
176
     1
 62
     7
176
     1
 62
   257
176
     1
 90
        2
176
     1
 90
        1
176
     1
 40
1.0
176
     1
 90
        8
176
     1
 62
   257
176
     1
 40
1.0
176
     1
 90
        1
176
     1
 90
        6
176
     1
 90
        2
176
     1
 62
     7
176
     1
 90
        3
176
     1
 90
        0
176
     1
 90
        0
176
     1
290
     0
176
     1
 90
        5
176
     1
 40
0.0
176
     1
 90
        0
176
     1
290
     0
176
     1
290
     1
176
     1
290
     1
176
     1
290
     0
176
     1
290
     0
176
     1
290
     0
176
     1
290
     0
176
     1
290
     0
176
     1
290
     0
176
     1
 90
       50
176
     1
 40
0.0
176
     1
 40
1.0
176
     1
 90
        0
176
     1
 62
    18
420
        0
176
     1
 90
       50
176
     1
 90
        3
176
     1
 62
     5
420
      255
176
     1
290
     0
176
     1
 90
       50
176
     1
 90
       50
176
     1
 90
       50
176
     1
290
     0
176
     1
 90
       50
176
     1
 62
   256
176
     0
 40
1.0
176
     0
 90
        2
176
     1
  1
strokes_ogs.tif
176
     1
290
     0
176
     1
 40
1.0
176
     1
 40
1.0
176
     1
  0
VISUALSTYLE
  5
E8
102
{ACAD_REACTORS
330
99
102
}
330
99
100
AcDbVisualStyle
  2
Shades of Gray
 70
    23
177
     3
291
     0
 70
    58
 90
        2
176
     1
 90
        2
176
     1
 90
        3
176
     1
 90
        0
176
     1
 40
0.6
176
     1
 40
30.0
176
     1
 62
     7
420
 16777215
176
     1
 90
        2
176
     1
 90
        2
176
     1
 62
     7
176
     1
 62
     7
176
     1
 90
        1
176
     1
 90
        1
176
     1
 40
40.0
176
     1
 90
        8
176
     1
 62
     7
176
     1
 40
1.0
176
     1
 90
        1
176
     1
 90
        6
176
     1
 90
        2
176
     1
 62
     7
176
     1
 90
        3
176
     1
 90
        0
176
     1
 90
        0
176
     1
290
     0
176
     1
 90
        1
176
     1
 40
0.0
176
     1
 90
        0
176
     1
290
     0
176
     1
290
     1
176
     1
290
     1
176
     1
290
     0
176
     1
290
     0
176
     1
290
     0
176
     1
290
     0
176
     1
290
     0
176
     1
290
     0
176
     1
 90
       50
176
     1
 40
0.0
176
     1
 40
1.0
176
     1
 90
        0
176
     1
 62
    18
420
        0
176
     1
 90
       50
176
     1
 90
        3
176
     1
 62
     5
420
      255
176
     1
290
     0
176
     1
 90
       50
176
     1
 90
       50
176
     1
 90
       50
176
     1
290
     0
176
     1
 90
       50
176
     1
 62
   256
176
     0
 40
1.0
176
     0
 90
        2
176
     1
  1
strokes_ogs.tif
176
     1
290
     0
176
     1
 40
1.0
176
     1
 40
1.0
176
     1
  0
VISUALSTYLE
  5
E9
102
{ACAD_REACTORS
330
99
102
}
330
99
100
AcDbVisualStyle
  2
Sketchy
 70
    24
177
     3
291
     0
 70
    58
 90
        1
176
     1
 90
        2
176
     1
 90
        2
176
     1
 90
        0
176
     1
 40
0.6
176
     1
 40
30.0
176
     1
 62
     7
420
 16777215
176
     1
 90
        2
176
     1
 90
        2
176
     1
 62
     7
176
     1
 62
     7
176
     1
 90
        1
176
     1
 90
        1
176
     1
 40
40.0
176
     1
 90
       11
176
     1
 62
     7
176
     1
 40
1.0
176
     1
 90
        1
176
     1
 90
        6
176
     1
 90
        2
176
     1
 62
     7
176
     1
 90
        6
176
     1
 90
        0
176
     1
 90
        0
176
     1
290
     0
176
     1
 90
        1
176
     1
 40
0.0
176
     1
 90
        0
176
     1
290
     0
176
     1
290
     1
176
     1
290
     1
176
     1
290
     0
176
     1
290
     0
176
     1
290
     0
176
     1
290
     0
176
     1
290
     0
176
     1
290
     0
176
     1
 90
       50
176
     1
 40
0.0
176
     1
 40
1.0
176
     1
 90
        0
176
     1
 62
    18
420
        0
176
     1
 90
       50
176
     1
 90
        3
176
     1
 62
     5
420
      255
176
     1
290
     0
176
     1
 90
       50
176
     1
 90
       50
176
     1
 90
       50
176
     1
290
     0
176
     1
 90
       50
176
     1
 62
   256
176
     0
 40
1.0
176
     0
 90
        2
176
     1
  1
strokes_ogs.tif
176
     1
290
     0
176
     1
 40
1.0
176
     1
 40
1.0
176
     1
  0
VISUALSTYLE
  5
A6
102
{ACAD_REACTORS
330
99
102
}
330
99
100
AcDbVisualStyle
  2
Thicken
 70
    13
177
     3
291
     1
 70
    58
 90
        2
176
     1
 90
        2
176
     1
 90
        1
176
     1
 90
        0
176
     1
 40
-0.6
176
     1
 40
-30.0
176
     1
 62
     7
420
 16777215
176
     1
 90
        1
176
     1
 90
        4
176
     1
 62
     7
176
     1
 62
   257
176
     1
 90
        1
176
     1
 90
        1
176
     1
 40
1.0
176
     1
 90
       12
176
     1
 62
     7
176
     1
 40
1.0
176
     1
 90
        1
176
     1
 90
        6
176
     1
 90
        2
176
     1
 62
     7
176
     1
 90
        5
176
     1
 90
        0
176
     1
 90
        0
176
     1
290
     0
176
     1
 90
        1
176
     1
 40
0.0
176
     1
 90
        0
176
     1
290
     0
176
     1
290
     1
176
     1
290
     1
176
     1
290
     0
176
     1
290
     0
176
     1
290
     0
176
     1
290
     0
176
     1
290
     0
176
     1
290
     0
176
     1
 90
       50
176
     1
 40
0.0
176
     1
 40
1.0
176
     1
 90
        0
176
     1
 62
    18
420
        0
176
     1
 90
       50
176
     1
 90
        3
176
     1
 62
     5
420
      255
176
     1
290
     0
176
     1
 90
       50
176
     1
 90
       50
176
     1
 90
       50
176
     1
290
     0
176
     1
 90
       50
176
     1
 62
   256
176
     0
 40
1.0
176
     0
 90
        2
176
     1
  1
strokes_ogs.tif
176
     1
290
     0
176
     1
 40
1.0
176
     1
 40
1.0
176
     1
  0
VISUALSTYLE
  5
E3
102
{ACAD_REACTORS
330
99
102
}
330
99
100
AcDbVisualStyle
  2
Wireframe
 70
     5
177
     3
291
     0
 70
    58
 90
        0
176
     1
 90
        2
176
     1
 90
        0
176
     1
 90
        0
176
     1
 40
0.6
176
     1
 40
30.0
176
     1
 62
     7
420
 16777215
176
     1
 90
        1
176
     1
 90
        4
176
     1
 62
     7
176
     1
 62
   257
176
     1
 90
        1
176
     1
 90
        1
176
     1
 40
1.0
176
     1
 90
        0
176
     1
 62
   257
176
     1
 40
1.0
176
     1
 90
        1
176
     1
 90
        6
176
     1
 90
        2
176
     1
 62
     7
176
     1
 90
        3
176
     1
 90
        0
176
     1
 90
        0
176
     1
290
     0
176
     1
 90
        1
176
     1
 40
0.0
176
     1
 90
        0
176
     1
290
     0
176
     1
290
     1
176
     1
290
     1
176
     1
290
     0
176
     1
290
     0
176
     1
290
     0
176
     1
290
     0
176
     1
290
     0
176
     1
290
     0
176
     1
 90
       50
176
     1
 40
0.0
176
     1
 40
1.0
176
     1
 90
        0
176
     1
 62
    18
420
        0
176
     1
 90
       50
176
     1
 90
        3
176
     1
 62
     5
420
      255
176
     1
290
     0
176
     1
 90
       50
176
     1
 90
       50
176
     1
 90
       50
176
     1
290
     0
176
     1
 90
       50
176
     1
 62
   256
176
     0
 40
1.0
176
     0
 90
        2
176
     1
  1
strokes_ogs.tif
176
     1
290
     0
176
     1
 40
1.0
176
     1
 40
1.0
176
     1
  0
VISUALSTYLE
  5
EA
102
{ACAD_REACTORS
330
99
102
}
330
99
100
AcDbVisualStyle
  2
X-Ray
 70
    25
177
     3
291
     0
 70
    58
 90
        2
176
     1
 90
        2
176
     1
 90
        1
176
     1
 90
        1
176
     1
 40
0.5
176
     1
 40
30.0
176
     1
 62
     7
420
 16777215
176
     1
 90
        1
176
     1
 90
        0
176
     1
 62
     7
176
     1
 62
   257
176
     1
 90
        1
176
     1
 90
        1
176
     1
 40
1.0
176
     1
 90
        8
176
     1
 62
     7
176
     1
 40
1.0
176
     1
 90
        1
176
     1
 90
        6
176
     1
 90
        2
176
     1
 62
     7
176
     1
 90
        3
176
     1
 90
        0
176
     1
 90
        0
176
     1
290
     0
176
     1
 90
       13
176
     1
 40
0.0
176
     1
 90
        0
176
     1
290
     0
176
     1
290
     1
176
     1
290
     1
176
     1
290
     0
176
     1
290
     0
176
     1
290
     0
176
     1
290
     0
176
     1
290
     0
176
     1
290
     0
176
     1
 90
       50
176
     1
 40
0.0
176
     1
 40
1.0
176
     1
 90
        0
176
     1
 62
    18
420
        0
176
     1
 90
       50
176
     1
 90
        3
176
     1
 62
     5
420
      255
176
     1
290
     0
176
     1
 90
       50
176
     1
 90
       50
176
     1
 90
       50
176
     1
290
     0
176
     1
 90
       50
176
     1
 62
   256
176
     0
 40
1.0
176
     0
 90
        2
176
     1
  1
strokes_ogs.tif
176
     1
290
     0
176
     1
 40
1.0
176
     1
 40
1.0
176
     1
  0
DICTIONARYVAR
  5
D8
102
{ACAD_REACTORS
330
66
102
}
330
66
100
DictionaryVariables
280
     0
  1
1:1
  0
DICTIONARYVAR
  5
89
102
{ACAD_REACTORS
330
66
102
}
330
66
100
DictionaryVariables
280
     0
  1
Standard
  0
DICTIONARYVAR
  5
67
102
{ACAD_REACTORS
330
66
102
}
330
66
100
DictionaryVariables
280
     0
  1
2
  0
DICTIONARYVAR
  5
6B
102
{ACAD_REACTORS
330
66
102
}
330
66
100
DictionaryVariables
280
     0
  1
1
  0
DICTIONARYVAR
  5
DF
102
{ACAD_REACTORS
330
66
102
}
330
66
100
DictionaryVariables
280
     0
  1
0
  0
DICTIONARYVAR
  5
E0
102
{ACAD_REACTORS
330
66
102
}
330
66
100
DictionaryVariables
280
     0
  1
0
  0
DICTIONARY
  5
470
330
87
100
AcDbDictionary
280
     1
281
     1
  3
ACAD_ROUNDTRIP_2008_TABLESTYLE_CELLSTYLEMAP
360
471
  0
CELLSTYLEMAP
  5
471
102
{ACAD_REACTORS
330
470
102
}
330
470
100
AcDbCellStyleMap
 90
        3
300
CELLSTYLE
  1
TABLEFORMAT_BEGIN
 90
        5
170
     1
 91
        0
 92
    32768
 62
   257
 93
        1
300
CONTENTFORMAT
  1
CONTENTFORMAT_BEGIN
 90
        0
 91
        0
 92
      512
 93
        0
300

 40
0.0
140
1.0
 94
        5
 62
     0
340
11
144
0.25
309
CONTENTFORMAT_END
171
     0
 94
        6
 95
        1
302
GRIDFORMAT
  1
GRIDFORMAT_BEGIN
 90
        0
 91
        1
 62
     0
 92
       -2
340
0
 93
        0
 40
0.045
309
GRIDFORMAT_END
 95
        2
302
GRIDFORMAT
  1
GRIDFORMAT_BEGIN
 90
        0
 91
        1
 62
     0
 92
       -2
340
0
 93
        0
 40
0.045
309
GRIDFORMAT_END
 95
        4
302
GRIDFORMAT
  1
GRIDFORMAT_BEGIN
 90
        0
 91
        1
 62
     0
 92
       -2
340
0
 93
        0
 40
0.045
309
GRIDFORMAT_END
 95
        8
302
GRIDFORMAT
  1
GRIDFORMAT_BEGIN
 90
        0
 91
        1
 62
     0
 92
       -2
340
0
 93
        0
 40
0.045
309
GRIDFORMAT_END
 95
       16
302
GRIDFORMAT
  1
GRIDFORMAT_BEGIN
 90
        0
 91
        1
 62
     0
 92
       -2
340
0
 93
        0
 40
0.045
309
GRIDFORMAT_END
 95
       32
302
GRIDFORMAT
  1
GRIDFORMAT_BEGIN
 90
        0
 91
        1
 62
     0
 92
       -2
340
0
 93
        0
 40
0.045
309
GRIDFORMAT_END
309
TABLEFORMAT_END
  1
CELLSTYLE_BEGIN
 90
        1
 91
        1
300
_TITLE
309
CELLSTYLE_END
300
CELLSTYLE
  1
TABLEFORMAT_BEGIN
 90
        5
170
     1
 91
        0
 92
        0
 62
   257
 93
        1
300
CONTENTFORMAT
  1
CONTENTFORMAT_BEGIN
 90
        0
 91
        0
 92
      512
 93
        0
300

 40
0.0
140
1.0
 94
        5
 62
     0
340
11
144
0.18
309
CONTENTFORMAT_END
171
     0
 94
        6
 95
        1
302
GRIDFORMAT
  1
GRIDFORMAT_BEGIN
 90
        0
 91
        1
 62
     0
 92
       -2
340
0
 93
        0
 40
0.045
309
GRIDFORMAT_END
 95
        2
302
GRIDFORMAT
  1
GRIDFORMAT_BEGIN
 90
        0
 91
        1
 62
     0
 92
       -2
340
0
 93
        0
 40
0.045
309
GRIDFORMAT_END
 95
        4
302
GRIDFORMAT
  1
GRIDFORMAT_BEGIN
 90
        0
 91
        1
 62
     0
 92
       -2
340
0
 93
        0
 40
0.045
309
GRIDFORMAT_END
 95
        8
302
GRIDFORMAT
  1
GRIDFORMAT_BEGIN
 90
        0
 91
        1
 62
     0
 92
       -2
340
0
 93
        0
 40
0.045
309
GRIDFORMAT_END
 95
       16
302
GRIDFORMAT
  1
GRIDFORMAT_BEGIN
 90
        0
 91
        1
 62
     0
 92
       -2
340
0
 93
        0
 40
0.045
309
GRIDFORMAT_END
 95
       32
302
GRIDFORMAT
  1
GRIDFORMAT_BEGIN
 90
        0
 91
        1
 62
     0
 92
       -2
340
0
 93
        0
 40
0.045
309
GRIDFORMAT_END
309
TABLEFORMAT_END
  1
CELLSTYLE_BEGIN
 90
        2
 91
        1
300
_HEADER
309
CELLSTYLE_END
300
CELLSTYLE
  1
TABLEFORMAT_BEGIN
 90
        5
170
     1
 91
        0
 92
        0
 62
   257
 93
        1
300
CONTENTFORMAT
  1
CONTENTFORMAT_BEGIN
 90
        0
 91
        0
 92
      512
 93
        0
300

 40
0.0
140
1.0
 94
        2
 62
     0
340
11
144
0.18
309
CONTENTFORMAT_END
171
     0
 94
        6
 95
        1
302
GRIDFORMAT
  1
GRIDFORMAT_BEGIN
 90
        0
 91
        1
 62
     0
 92
       -2
340
0
 93
        0
 40
0.045
309
GRIDFORMAT_END
 95
        2
302
GRIDFORMAT
  1
GRIDFORMAT_BEGIN
 90
        0
 91
        1
 62
     0
 92
       -2
340
0
 93
        0
 40
0.045
309
GRIDFORMAT_END
 95
        4
302
GRIDFORMAT
  1
GRIDFORMAT_BEGIN
 90
        0
 91
        1
 62
     0
 92
       -2
340
0
 93
        0
 40
0.045
309
GRIDFORMAT_END
 95
        8
302
GRIDFORMAT
  1
GRIDFORMAT_BEGIN
 90
        0
 91
        1
 62
     0
 92
       -2
340
0
 93
        0
 40
0.045
309
GRIDFORMAT_END
 95
       16
302
GRIDFORMAT
  1
GRIDFORMAT_BEGIN
 90
        0
 91
        1
 62
     0
 92
       -2
340
0
 93
        0
 40
0.045
309
GRIDFORMAT_END
 95
       32
302
GRIDFORMAT
  1
GRIDFORMAT_BEGIN
 90
        0
 91
        1
 62
     0
 92
       -2
340
0
 93
        0
 40
0.045
309
GRIDFORMAT_END
309
TABLEFORMAT_END
  1
CELLSTYLE_BEGIN
 90
        3
 91
        2
300
_DATA
309
CELLSTYLE_END
  0
ENDSEC
  0
EOF
